  0
SECTION
  2
HEADER
  9
$ACADVER
  1
AC1015
  9
$ACADMAINTVER
 70
     6
  9
$DWGCODEPAGE
  3
ANSI_1252
  9
$INSBASE
 10
0.0
 20
0.0
 30
0.0
  9
$EXTMIN
 10
-100.25
 20
-495.3
 30
-18.34633440444731
  9
$EXTMAX
 10
149.7499999999999
 20
47.715
 30
28.13566559555269
  9
$LIMMIN
 10
0.0
 20
0.0
  9
$LIMMAX
 10
12.0
 20
9.0
  9
$ORTHOMODE
 70
     0
  9
$REGENMODE
 70
     1
  9
$FILLMODE
 70
     1
  9
$QTEXTMODE
 70
     0
  9
$MIRRTEXT
 70
     1
  9
$LTSCALE
 40
1.0
  9
$ATTMODE
 70
     0
  9
$TEXTSIZE
 40
0.2
  9
$TRACEWID
 40
0.05
  9
$TEXTSTYLE
  7
STANDARD
  9
$CLAYER
  8
0
  9
$CELTYPE
  6
BYLAYER
  9
$CECOLOR
 62
   256
  9
$CELTSCALE
 40
1.0
  9
$DISPSILH
 70
     0
  9
$DIMSCALE
 40
0.0
  9
$DIMASZ
 40
0.1796875
  9
$DIMEXO
 40
0.0625
  9
$DIMDLI
 40
0.375
  9
$DIMRND
 40
0.0
  9
$DIMDLE
 40
0.0
  9
$DIMEXE
 40
0.1796875
  9
$DIMTP
 40
0.0
  9
$DIMTM
 40
0.0
  9
$DIMTXT
 40
0.125
  9
$DIMCEN
 40
0.08984375
  9
$DIMTSZ
 40
0.0
  9
$DIMTOL
 70
     0
  9
$DIMLIM
 70
     0
  9
$DIMTIH
 70
     0
  9
$DIMTOH
 70
     0
  9
$DIMSE1
 70
     0
  9
$DIMSE2
 70
     0
  9
$DIMTAD
 70
     0
  9
$DIMZIN
 70
     4
  9
$DIMBLK
  1

  9
$DIMASO
 70
     1
  9
$DIMSHO
 70
     1
  9
$DIMPOST
  1

  9
$DIMAPOST
  1

  9
$DIMALT
 70
     1
  9
$DIMALTD
 70
     6
  9
$DIMALTF
 40
0.003937
  9
$DIMLFAC
 40
1.0
  9
$DIMTOFL
 70
     0
  9
$DIMTVP
 40
0.0
  9
$DIMTIX
 70
     1
  9
$DIMSOXD
 70
     0
  9
$DIMSAH
 70
     0
  9
$DIMBLK1
  1

  9
$DIMBLK2
  1

  9
$DIMSTYLE
  2
ABECAD_3V
  9
$DIMCLRD
 70
     0
  9
$DIMCLRE
 70
     0
  9
$DIMCLRT
 70
     0
  9
$DIMTFAC
 40
1.5
  9
$DIMGAP
 40
0.09375
  9
$DIMJUST
 70
     0
  9
$DIMSD1
 70
     0
  9
$DIMSD2
 70
     0
  9
$DIMTOLJ
 70
     1
  9
$DIMTZIN
 70
     4
  9
$DIMALTZ
 70
     4
  9
$DIMALTTZ
 70
     4
  9
$DIMUPT
 70
     0
  9
$DIMDEC
 70
     2
  9
$DIMTDEC
 70
     2
  9
$DIMALTU
 70
     7
  9
$DIMALTTD
 70
     6
  9
$DIMTXSTY
  7
STANDARD
  9
$DIMAUNIT
 70
     0
  9
$DIMADEC
 70
     0
  9
$DIMALTRND
 40
0.0
  9
$DIMAZIN
 70
     0
  9
$DIMDSEP
 70
    46
  9
$DIMATFIT
 70
     3
  9
$DIMFRAC
 70
     2
  9
$DIMLDRBLK
  1

  9
$DIMLUNIT
 70
     2
  9
$DIMLWD
 70
    -2
  9
$DIMLWE
 70
    -2
  9
$DIMTMOVE
 70
     2
  9
$LUNITS
 70
     5
  9
$LUPREC
 70
     6
  9
$SKETCHINC
 40
0.1
  9
$FILLETRAD
 40
0.0
  9
$AUNITS
 70
     0
  9
$AUPREC
 70
     0
  9
$MENU
  1
acad
  9
$ELEVATION
 40
0.0
  9
$PELEVATION
 40
0.0
  9
$THICKNESS
 40
0.0
  9
$LIMCHECK
 70
     0
  9
$CHAMFERA
 40
0.0
  9
$CHAMFERB
 40
0.0
  9
$CHAMFERC
 40
0.0
  9
$CHAMFERD
 40
0.0
  9
$SKPOLY
 70
     0
  9
$TDCREATE
 40
2454553.633219872
  9
$TDUCREATE
 40
2454553.841553205
  9
$TDUPDATE
 40
2454557.971918934
  9
$TDUUPDATE
 40
2454558.180252268
  9
$TDINDWG
 40
0.0016017130
  9
$TDUSRTIMER
 40
0.0016017130
  9
$USRTIMER
 70
     1
  9
$ANGBASE
 50
0.0
  9
$ANGDIR
 70
     0
  9
$PDMODE
 70
     3
  9
$PDSIZE
 40
2.286
  9
$PLINEWID
 40
0.0
  9
$SPLFRAME
 70
     0
  9
$SPLINETYPE
 70
     6
  9
$SPLINESEGS
 70
     8
  9
$HANDSEED
  5
705
  9
$SURFTAB1
 70
     6
  9
$SURFTAB2
 70
     6
  9
$SURFTYPE
 70
     6
  9
$SURFU
 70
     6
  9
$SURFV
 70
     6
  9
$UCSBASE
  2

  9
$UCSNAME
  2

  9
$UCSORG
 10
0.0
 20
0.0
 30
0.0
  9
$UCSXDIR
 10
1.0
 20
0.0
 30
0.0
  9
$UCSYDIR
 10
0.0
 20
1.0
 30
0.0
  9
$UCSORTHOREF
  2

  9
$UCSORTHOVIEW
 70
     0
  9
$UCSORGTOP
 10
0.0
 20
0.0
 30
0.0
  9
$UCSORGBOTTOM
 10
0.0
 20
0.0
 30
0.0
  9
$UCSORGLEFT
 10
0.0
 20
0.0
 30
0.0
  9
$UCSORGRIGHT
 10
0.0
 20
0.0
 30
0.0
  9
$UCSORGFRONT
 10
0.0
 20
0.0
 30
0.0
  9
$UCSORGBACK
 10
0.0
 20
0.0
 30
0.0
  9
$PUCSBASE
  2

  9
$PUCSNAME
  2

  9
$PUCSORG
 10
0.0
 20
0.0
 30
0.0
  9
$PUCSXDIR
 10
1.0
 20
0.0
 30
0.0
  9
$PUCSYDIR
 10
0.0
 20
1.0
 30
0.0
  9
$PUCSORTHOREF
  2

  9
$PUCSORTHOVIEW
 70
     0
  9
$PUCSORGTOP
 10
0.0
 20
0.0
 30
0.0
  9
$PUCSORGBOTTOM
 10
0.0
 20
0.0
 30
0.0
  9
$PUCSORGLEFT
 10
0.0
 20
0.0
 30
0.0
  9
$PUCSORGRIGHT
 10
0.0
 20
0.0
 30
0.0
  9
$PUCSORGFRONT
 10
0.0
 20
0.0
 30
0.0
  9
$PUCSORGBACK
 10
0.0
 20
0.0
 30
0.0
  9
$USERI1
 70
     0
  9
$USERI2
 70
     0
  9
$USERI3
 70
     0
  9
$USERI4
 70
     0
  9
$USERI5
 70
     0
  9
$USERR1
 40
0.0
  9
$USERR2
 40
0.0
  9
$USERR3
 40
0.0
  9
$USERR4
 40
0.0
  9
$USERR5
 40
0.0
  9
$WORLDVIEW
 70
     1
  9
$SHADEDGE
 70
     3
  9
$SHADEDIF
 70
    70
  9
$TILEMODE
 70
     0
  9
$MAXACTVP
 70
    16
  9
$PINSBASE
 10
0.0
 20
0.0
 30
0.0
  9
$PLIMCHECK
 70
     0
  9
$PEXTMIN
 10
0.0
 20
0.0
 30
0.0
  9
$PEXTMAX
 10
10.0
 20
7.5
 30
0.0
  9
$PLIMMIN
 10
-0.1870289046444169
 20
-0.1869378900655213
  9
$PLIMMAX
 10
10.18751784143945
 20
7.829757271310011
  9
$UNITMODE
 70
     0
  9
$VISRETAIN
 70
     0
  9
$PLINEGEN
 70
     0
  9
$PSLTSCALE
 70
     1
  9
$TREEDEPTH
 70
  3020
  9
$CMLSTYLE
  2
STANDARD
  9
$CMLJUST
 70
     0
  9
$CMLSCALE
 40
1.0
  9
$PROXYGRAPHICS
 70
     1
  9
$MEASUREMENT
 70
     1
  9
$CELWEIGHT
370
    -1
  9
$ENDCAPS
280
     0
  9
$JOINSTYLE
280
     0
  9
$LWDISPLAY
290
     0
  9
$INSUNITS
 70
     0
  9
$HYPERLINKBASE
  1

  9
$STYLESHEET
  1

  9
$XEDIT
290
     1
  9
$CEPSNTYPE
380
     0
  9
$PSTYLEMODE
290
     1
  9
$FINGERPRINTGUID
  2
{8DA6E9C8-3C68-4D30-89BB-FA529C10238F}
  9
$VERSIONGUID
  2
{F0F10DF3-A95B-4918-9D88-4C38BB89BA77}
  9
$EXTNAMES
290
     1
  9
$PSVPSCALE
 40
0.0
  9
$OLESTARTUP
290
     0
  0
ENDSEC
  0
SECTION
  2
CLASSES
  0
CLASS
  1
DICTIONARYVAR
  2
AcDbDictionaryVar
  3
AutoCAD 2000
 90
        0
280
     0
281
     0
  0
CLASS
  1
ACDBDICTIONARYWDFLT
  2
AcDbDictionaryWithDefault
  3
AutoCAD 2000
 90
        0
280
     0
281
     0
  0
CLASS
  1
ACDBPLACEHOLDER
  2
AcDbPlaceHolder
  3
AutoCAD 2000
 90
        0
280
     0
281
     0
  0
CLASS
  1
LAYOUT
  2
AcDbLayout
  3
AutoCAD 2000
 90
        0
280
     0
281
     0
  0
CLASS
  1
LONG_TRANSACTION
  2
AcDbLongTransaction
  3
AutoCAD 2000
 90
    32768
280
     0
281
     0
  0
CLASS
  1
LWPOLYLINE
  2
AcDbPolyline
  3
AutoCAD 2000
 90
    32768
280
     0
281
     1
  0
CLASS
  1
HATCH
  2
AcDbHatch
  3
AutoCAD 2000
 90
    32768
280
     0
281
     1
  0
CLASS
  1
XRECORD
  2
AcDbXrecord
  3
AutoCAD 2000
 90
    32768
280
     0
281
     0
  0
CLASS
  1
LONG_TRANSACTION
  2
AcDbLongTransaction
  3
AutoCAD 2000
 90
    32768
280
     0
281
     0
  0
CLASS
  1
LWPOLYLINE
  2
AcDbPolyline
  3
AutoCAD 2000
 90
    32768
280
     0
281
     1
  0
CLASS
  1
HATCH
  2
AcDbHatch
  3
AutoCAD 2000
 90
    32768
280
     0
281
     1
  0
CLASS
  1
XRECORD
  2
AcDbXrecord
  3
AutoCAD 2000
 90
    32768
280
     0
281
     0
  0
CLASS
  1
LONG_TRANSACTION
  2
AcDbLongTransaction
  3
AutoCAD 2000
 90
    32768
280
     0
281
     0
  0
CLASS
  1
LWPOLYLINE
  2
AcDbPolyline
  3
AutoCAD 2000
 90
    32768
280
     0
281
     1
  0
CLASS
  1
HATCH
  2
AcDbHatch
  3
AutoCAD 2000
 90
    32768
280
     0
281
     1
  0
CLASS
  1
XRECORD
  2
AcDbXrecord
  3
AutoCAD 2000
 90
    32768
280
     0
281
     0
  0
CLASS
  1
TABLESTYLE
  2
AcDbTableStyle
  3
ObjectDBX Classes
 90
     2047
280
     0
281
     0
  0
CLASS
  1
ACME_DOCUMENT
  2
AcMeDbDoc
  3
AcMeServices
 90
    32768
280
     0
281
     0
  0
CLASS
  1
AMGSETTINGSOBJ
  2
AmgSettingsObj
  3
"AcadM|Product Description: AutoCAD Mechanical 2000|Company: Autodesk"
 90
    32768
280
     0
281
     0
  0
CLASS
  1
ACMESCOPE
  2
AcMeScope
  3
AcMeServices
 90
    32768
280
     0
281
     0
  0
CLASS
  1
ACMECOMMANDHISTORY
  2
AcMeCommandHistory
  3
AcMeServices
 90
    32768
280
     0
281
     0
  0
CLASS
  1
ACIMSYSVARMAN
  2
AcImSysVarManager
  3
AcMeServices
 90
    32768
280
     0
281
     0
  0
CLASS
  1
ACIMINTSYSVAR
  2
AcImIntSysVar
  3
AcMeServices
 90
    32768
280
     0
281
     0
  0
CLASS
  1
ACMEDRAWINGMAN
  2
AcMeDrawingMan
  3
AcMeServices
 90
    32768
280
     0
281
     0
  0
CLASS
  1
ACMEVIEW
  2
AcMeView
  3
AcMeServices
 90
    32768
280
     0
281
     0
  0
CLASS
  1
ACDBENTITYCACHE
  2
AcMeEntityCache
  3
AcMeServices
 90
    32768
280
     0
281
     0
  0
CLASS
  1
GSMANAGER
  2
AcMeGSManager
  3
AcMeServices
 90
    32768
280
     0
281
     0
  0
CLASS
  1
AMDTINTERNALREACTOR
  2
AmdtInternalReactor
  3
AcMeServices
 90
    32768
280
     0
281
     0
  0
CLASS
  1
ACMESTATEMGR
  2
AcMeStateMgr
  3
AcMeServices
 90
    32768
280
     0
281
     0
  0
CLASS
  1
ACGREFMASTER
  2
AcGrefMaster
  3
AcAttribServices
 90
    32768
280
     0
281
     0
  0
CLASS
  1
AM_DRAWING_MGR
  2
AcDmDwgMgr
  3
AcMechDwgViewMgmt
 90
    32768
280
     0
281
     0
  0
CLASS
  1
AM_DWG_DOCUMENT
  2
AcDmDwgDocument
  3
AcMechDwgViewMgmt
 90
    32768
280
     0
281
     0
  0
CLASS
  1
AM_DWG_SHEET
  2
AcDmSheet
  3
AcMechDwgViewMgmt
 90
    32768
280
     0
281
     0
  0
CLASS
  1
AM_VIEWDIMPARMAP
  2
AcDmViewDimParMap
  3
AcMechDwgViewMgmt
 90
    32768
280
     0
281
     0
  0
CLASS
  1
ACIMREALSYSVAR
  2
AcImRealSysVar
  3
AcMeServices
 90
    32768
280
     0
281
     0
  0
CLASS
  1
AM_DWGMGR_NAME
  2
AcDmDwgMgrName
  3
AcMechDwgViewMgmt
 90
    32768
280
     0
281
     0
  0
CLASS
  1
ACME_DATABASE
  2
AcMeDbDatabase
  3
AcMeServices
 90
    32768
280
     0
281
     0
  0
CLASS
  1
ACRFINSADJUSTERMGR
  2
AcRfInsAdjusterMgr
  3
AcMeServices
 90
    32768
280
     0
281
     0
  0
CLASS
  1
ACGREFACADMASTER
  2
AcGrefacadMaster
  3
AcGrefServices
 90
    32768
280
     0
281
     0
  0
CLASS
  1
AMDTMENUSTATEMGR
  2
AmdtMenuStateMgr
  3
McadcomServices
 90
    32768
280
     0
281
     0
  0
CLASS
  1
AMDTMCOMMENUSTATE
  2
AmdtMcomMenuState
  3
McadcomServices
 90
    32768
280
     0
281
     0
  0
CLASS
  1
AMIMASTER
  2
AmiMaster
  3
AmiServices
 90
    32768
280
     0
281
     0
  0
CLASS
  1
MAPIAMMOUDLE
  2
MApiAmModule
  3
MApiAmServices
 90
    32768
280
     0
281
     0
  0
CLASS
  1
ACIMSTRSYSVAR
  2
AcImStrSysVar
  3
AcMeServices
 90
    32768
280
     0
281
     0
  0
CLASS
  1
AMDTADMENUSTATE
  2
AmdtAdMenuState
  3
DesignerServices
 90
    32768
280
     0
281
     0
  0
CLASS
  1
ADAPPL
  2
AcAdAppl
  3
DesignerServices
 90
    32768
280
     0
281
     0
  0
CLASS
  1
DEPMGR
  2
AcAdDepMgr
  3
DesignerServices
 90
    32768
280
     0
281
     0
  0
CLASS
  1
PARAMMGR
  2
AcAdParamMgr
  3
DesignerServices
 90
    32768
280
     0
281
     0
  0
CLASS
  1
PARAMSCOPE
  2
AcAdParamScope
  3
DesignerServices
 90
    32768
280
     0
281
     0
  0
CLASS
  1
NAMEDAPPL
  2
AcAdNamedAppl
  3
DesignerServices
 90
    32768
280
     0
281
     0
  0
CLASS
  1
AMDTDMMENUSTATE
  2
AmdtDmMenuState
  3
AcMechDwgViewMgmt
 90
    32768
280
     0
281
     0
  0
CLASS
  1
AMDTAMMENUSTATE
  2
AmdtAmMenuState
  3
DesignerAssemblies
 90
    32768
280
     0
281
     0
  0
CLASS
  1
ACAMPROJECT
  2
AcAmProject
  3
DesignerAssemblies
 90
    32768
280
     0
281
     0
  0
CLASS
  1
ACAMGRCOMPDEF
  2
AcAmGrCompDef
  3
DesignerAssemblies
 90
    32768
280
     0
281
     0
  0
CLASS
  1
ACCMCONTEXT
  2
AcCmContext
  3
DesignerAssemblies
 90
    32768
280
     0
281
     0
  0
CLASS
  1
ACAMCOMPDEF
  2
AcAmCompDef
  3
DesignerAssemblies
 90
    32768
280
     0
281
     0
  0
CLASS
  1
ACAMCOMPDEFMGR
  2
AcAmCompDefMgr
  3
DesignerAssemblies
 90
    32768
280
     0
281
     0
  0
CLASS
  1
AMCONTEXTMGR
  2
AcAmContextMgr
  3
DesignerAssemblies
 90
    32768
280
     0
281
     0
  0
CLASS
  1
ACAMCONTEXTMODELER
  2
AcAmContextModeler
  3
DesignerAssemblies
 90
    32768
280
     0
281
     0
  0
CLASS
  1
ACMDATADICTIONARY
  2
AcmDataDictionary
  3
"AcmSymBB|Product Description: AutoCAD Mechanical 2004 DX|Company: Autodesk"
 90
    32768
280
     0
281
     0
  0
CLASS
  1
CATALOGSTATE
  2
AcAmCatalogState
  3
DesignerAssemblies
 90
    32768
280
     0
281
     0
  0
CLASS
  1
ACAMGRCOMPDEFSET
  2
AcAmGrCompDefSet
  3
DesignerAssemblies
 90
    32768
280
     0
281
     0
  0
CLASS
  1
AMDTBROWSERDBTAB
  2
AmdtBrowserDbTab
  3
McadcomServices
 90
    32768
280
     0
281
     0
  0
CLASS
  1
CBROWSERAPPOBJECT
  2
CBrowserAppObject
  3
McadcomServices
 90
    32768
280
     0
281
     0
  0
CLASS
  1
DM_PLACEHOLDER
  2
AcDmSelsetPlaceholder
  3
AcMechDwgViewMgmt
 90
    32768
280
     0
281
     0
  0
CLASS
  1
ACMSTANDARDISO
  2
AcmStandardISO
  3
"Amdt_StdImp|Product Description: AutoCAD Mechanical 2004 DX|Company: Autodesk"
 90
    32768
280
     0
281
     0
  0
CLASS
  1
AMGOBJPROPCFG
  2
AmgObjPropCfg
  3
"AmgLay|Product Description: AutoCAD Mechanical 2000|Company: Autodesk"
 90
    32769
280
     0
281
     0
  0
CLASS
  1
AMDTEDGESTANDARDISO13715
  2
AmdtEdgeStdISO13715
  3
"Amdt_StdImp|Product Description: AutoCAD Mechanical 2004 DX|Company: Autodesk"
 90
    32768
280
     0
281
     0
  0
CLASS
  1
ACMSURFSTANDARDISO
  2
AcmSurfTextStdISO
  3
"Amdt_StdImp|Product Description: AutoCAD Mechanical 2004 DX|Company: Autodesk"
 90
    32768
280
     0
281
     0
  0
CLASS
  1
ACMFCFSTANDARDISO
  2
AcmFCFStdISO
  3
"Amdt_StdImp|Product Description: AutoCAD Mechanical 2004 DX|Company: Autodesk"
 90
    32768
280
     0
281
     0
  0
CLASS
  1
ACMWELDSTANDARDISO
  2
AcmWeldingStdISO
  3
"Amdt_StdImp|Product Description: AutoCAD Mechanical 2004 DX|Company: Autodesk"
 90
    32768
280
     0
281
     0
  0
CLASS
  1
ACMIDSTANDARDISO
  2
AcmIdStdISO
  3
"Amdt_StdImp|Product Description: AutoCAD Mechanical 2004 DX|Company: Autodesk"
 90
    32768
280
     0
281
     0
  0
CLASS
  1
ACMDATUMSTANDARDISO
  2
AcmDatumStdISO
  3
"Amdt_StdImp|Product Description: AutoCAD Mechanical 2004 DX|Company: Autodesk"
 90
    32768
280
     0
281
     0
  0
CLASS
  1
ACMBOMSTANDARDISO
  2
AcmBOMStdISO
  3
"Amdt_StdImp|Product Description: AutoCAD Mechanical 2004 DX|Company: Autodesk"
 90
    32768
280
     0
281
     0
  0
CLASS
  1
ACMDETAILSTANDARDISO
  2
AmdtDetailSymStdISO
  3
"Amdt_StdImp|Product Description: AutoCAD Mechanical 2004 DX|Company: Autodesk"
 90
    32768
280
     0
281
     0
  0
CLASS
  1
ACMSECTIONSTANDARDISO
  2
AmdtSectionSymStdISO
  3
"Amdt_StdImp|Product Description: AutoCAD Mechanical 2004 DX|Company: Autodesk"
 90
    32768
280
     0
281
     0
  0
CLASS
  1
ACMCENTERLINESTANDARDISO
  2
AmdtCenterLineStdISO
  3
"Amdt_StdImp|Product Description: AutoCAD Mechanical 2004 DX|Company: Autodesk"
 90
    32768
280
     0
281
     0
  0
CLASS
  1
ACMTHREADLINESTANDARDISO
  2
AmdtThreadLineStdISO
  3
"Amdt_StdImp|Product Description: AutoCAD Mechanical 2004 DX|Company: Autodesk"
 90
    32768
280
     0
281
     0
  0
CLASS
  1
ACMNOTESTANDARDISO
  2
AmdtNoteStdISO
  3
"Amdt_StdImp|Product Description: AutoCAD Mechanical 2004 DX|Company: Autodesk"
 90
    32768
280
     0
281
     0
  0
CLASS
  1
AMDTNOTETEMPLATEDB
  2
AmdtNoteTemplateDB
  3
AMDT_STDIMP_MODULE_NAME
 90
    32768
280
     0
281
     0
  0
CLASS
  1
ACAMGLAYSTD
  2
AcAmgLayStd
  3
"AcAmgLayStd|Product Description: AutoCAD Mechanical 2000|Company: Autodesk"
 90
    32768
280
     0
281
     0
  0
CLASS
  1
ACAMGDIMSTD
  2
AcAmgDimStd
  3
"AcAmgDimStd|Product Description: AutoCAD Mechanical 2000|Company: Autodesk"
 90
    32768
280
     0
281
     0
  0
CLASS
  1
ACAMGHOLECHARTSTDISO
  2
AcAmgHoleChartStdISO
  3
ACMSYMBB_MODULE_NAME
 90
    32768
280
     0
281
     0
  0
CLASS
  1
ACAMGTITLESTD
  2
AcAmgTitleStd
  3
"TITLEAPP"
 90
    32768
280
     0
281
     0
  0
CLASS
  1
ACMDATAENTRYBLOCK
  2
AcmDataEntryBlock
  3
"AcmSymBB|Product Description: AutoCAD Mechanical 2004 DX|Company: Autodesk"
 90
    32768
280
     0
281
     0
  0
CLASS
  1
ACAMGFILTERDAT
  2
AcAmgFilterDat
  3
"AcadM|Product Description: AutoCAD Mechanical 2000|Company: Autodesk"
 90
    32768
280
     0
281
     0
  0
ENDSEC
  0
SECTION
  2
TABLES
  0
TABLE
  2
VPORT
  5
469
330
0
100
AcDbSymbolTable
 70
     1
  0
VPORT
  5
6E2
330
469
100
AcDbSymbolTableRecord
100
AcDbViewportTableRecord
  2
*Active
 70
     0
 10
0.0
 20
0.0
 11
1.0
 21
1.0
 12
113.2676864093908
 22
-93.74680909880209
 13
0.0
 23
0.0
 14
1.0
 24
1.0
 15
0.0
 25
0.0
 16
-1.0
 26
-1.0
 36
1.0
 17
0.0
 27
0.0
 37
0.0
 40
407.9178528869427
 41
1.937106918238993
 42
50.0
 43
0.0
 44
0.0
 50
0.0
 51
0.0
 71
     0
 72
   100
 73
     1
 74
     1
 75
     0
 76
     0
 77
     0
 78
     0
281
     0
 65
     1
110
0.0
120
0.0
130
0.0
111
1.0
121
0.0
131
0.0
112
0.0
122
1.0
132
0.0
 79
     0
146
0.0
  0
ENDTAB
  0
TABLE
  2
LTYPE
  5
466
330
0
100
AcDbSymbolTable
 70
    14
  0
LTYPE
  5
472
330
466
100
AcDbSymbolTableRecord
100
AcDbLinetypeTableRecord
  2
BYBLOCK
 70
     0
  3

 72
    65
 73
     0
 40
0.0
  0
LTYPE
  5
473
330
466
100
AcDbSymbolTableRecord
100
AcDbLinetypeTableRecord
  2
BYLAYER
 70
     0
  3

 72
    65
 73
     0
 40
0.0
  0
LTYPE
  5
474
330
466
100
AcDbSymbolTableRecord
100
AcDbLinetypeTableRecord
  2
CONTINUOUS
 70
     0
  3
Solid line
 72
    65
 73
     0
 40
0.0
  0
LTYPE
  5
5A5
330
466
100
AcDbSymbolTableRecord
100
AcDbLinetypeTableRecord
  2
HIDDEN
 70
     0
  3
Hidden __ __ __ __ __ __ __ __ __ __ __ __ __ _
 72
    65
 73
     2
 40
9.524999999999998
 49
6.349999999999999
 74
     0
 49
-3.174999999999999
 74
     0
  0
LTYPE
  5
5A6
330
466
100
AcDbSymbolTableRecord
100
AcDbLinetypeTableRecord
  2
PHANTOM2
 70
     0
  3
Phantom (.5x) ___ _ _ ___ _ _ ___ _ _ ___ _ _
 72
    65
 73
     6
 40
31.75
 49
15.875
 74
     0
 49
-3.174999999999999
 74
     0
 49
3.174999999999999
 74
     0
 49
-3.174999999999999
 74
     0
 49
3.174999999999999
 74
     0
 49
-3.174999999999999
 74
     0
  0
LTYPE
  5
5A7
330
466
100
AcDbSymbolTableRecord
100
AcDbLinetypeTableRecord
  2
CENTER
 70
     0
  3
Center ____ _ ____ _ ____ _ ____ _ ____ _ ____
 72
    65
 73
     4
 40
50.8
 49
31.75
 74
     0
 49
-6.349999999999999
 74
     0
 49
6.349999999999999
 74
     0
 49
-6.349999999999999
 74
     0
  0
LTYPE
  5
5DB
330
466
100
AcDbSymbolTableRecord
100
AcDbLinetypeTableRecord
  2
AM_ISO02W050
 70
     0
  3
__ __ __ __ __ __ __ __ __ __ __ __ __ __ __
 72
    65
 73
     2
 40
7.5
 49
6.0
 74
     0
 49
-1.5
 74
     0
  0
LTYPE
  5
5DC
330
466
100
AcDbSymbolTableRecord
100
AcDbLinetypeTableRecord
  2
AM_ISO08W050
 70
     0
  3
____ . ____ . ____ . ____ . ____ . ____ . ____
 72
    65
 73
     4
 40
18.0
 49
12.0
 74
     0
 49
-1.5
 74
     0
 49
3.0
 74
     0
 49
-1.5
 74
     0
  0
LTYPE
  5
5DD
330
466
100
AcDbSymbolTableRecord
100
AcDbLinetypeTableRecord
  2
AM_ISO09W050
 70
     0
  3
_____ . . _____ . . _____ . . ____ .. ____
 72
    65
 73
     6
 40
22.5
 49
12.0
 74
     0
 49
-1.5
 74
     0
 49
3.0
 74
     0
 49
-1.5
 74
     0
 49
3.0
 74
     0
 49
-1.5
 74
     0
  0
LTYPE
  5
5DE
330
466
100
AcDbSymbolTableRecord
100
AcDbLinetypeTableRecord
  2
Amconstr
 70
     0
  3
_______________________
 72
    65
 73
     2
 40
9999.0
 49
9999.0
 74
     0
 49
0.0
 74
     0
  0
LTYPE
  5
5DF
330
466
100
AcDbSymbolTableRecord
100
AcDbLinetypeTableRecord
  2
AM_ISO08W050x2
 70
     0
  3
__ . __ . __ . __ . __ . __
 72
    65
 73
     4
 40
9.0
 49
6.0
 74
     0
 49
-0.75
 74
     0
 49
1.5
 74
     0
 49
-0.75
 74
     0
  0
LTYPE
  5
5E0
330
466
100
AcDbSymbolTableRecord
100
AcDbLinetypeTableRecord
  2
AM_ISO02W050x2
 70
     0
  3
 _ _ _ _ _ _ _ _ _ _ _ _
 72
    65
 73
     2
 40
3.75
 49
3.0
 74
     0
 49
-0.75
 74
     0
  0
LTYPE
  5
5E3
330
466
100
AcDbSymbolTableRecord
100
AcDbLinetypeTableRecord
  2
Amzigzag
 70
     0
  3
/\/-/\/-/\/-/\/-/\/-/\/
 72
    65
 73
     2
 40
11.00009999999999
 49
0.0001
 74
     4
 75
   136
340
5E2
 46
0.04
 50
0.0
 44
0.0
 45
0.0
 49
-11.0
 74
     0
  0
LTYPE
  5
5F2
330
466
100
AcDbSymbolTableRecord
100
AcDbLinetypeTableRecord
  2
ACISOWELD
 70
     0
  3
_ _ _ _ _
 72
    65
 73
     2
 40
2.0
 49
2.0
 74
     0
 49
-1.0
 74
     0
  0
LTYPE
  5
5F3
330
466
100
AcDbSymbolTableRecord
100
AcDbLinetypeTableRecord
  2
ACISOTGB
 70
     0
  3
__ . . __ . .
 72
    65
 73
     6
 40
9.0
 49
4.0
 74
     0
 49
-1.0
 74
     0
 49
1.0
 74
     0
 49
-1.0
 74
     0
 49
1.0
 74
     0
 49
-1.0
 74
     0
  0
LTYPE
  5
5F4
330
466
100
AcDbSymbolTableRecord
100
AcDbLinetypeTableRecord
  2
ACISOTGL
 70
     0
  3
_ _ _ _ _
 72
    65
 73
     2
 40
3.0
 49
2.0
 74
     0
 49
-1.0
 74
     0
  0
ENDTAB
  0
TABLE
  2
LAYER
  5
463
330
0
100
AcDbSymbolTable
 70
     8
  0
LAYER
  5
46F
330
463
100
AcDbSymbolTableRecord
100
AcDbLayerTableRecord
  2
0
 70
     0
 62
     7
  6
CONTINUOUS
370
    -3
390
49D
  0
LAYER
  5
485
330
463
100
AcDbSymbolTableRecord
100
AcDbLayerTableRecord
  2
AREA1
 70
     0
 62
     7
  6
CONTINUOUS
370
    -3
390
49D
  0
LAYER
  5
486
330
463
100
AcDbSymbolTableRecord
100
AcDbLayerTableRecord
  2
AREA2
 70
     0
 62
     7
  6
CONTINUOUS
370
    -3
390
49D
  0
LAYER
  5
494
330
463
100
AcDbSymbolTableRecord
100
AcDbLayerTableRecord
  2
DEFPOINTS
 70
     0
 62
    -7
  6
CONTINUOUS
290
     0
370
    -3
390
49D
  0
LAYER
  5
495
330
463
100
AcDbSymbolTableRecord
100
AcDbLayerTableRecord
  2
DIMS-MTG-HOLES
 70
     0
 62
    -1
  6
CONTINUOUS
370
    -3
390
49D
  0
LAYER
  5
4EB
330
463
100
AcDbSymbolTableRecord
100
AcDbLayerTableRecord
  2
SCALE
 70
     1
 62
    -7
  6
CONTINUOUS
370
    -3
390
49D
  0
LAYER
  5
560
330
463
100
AcDbSymbolTableRecord
100
AcDbLayerTableRecord
  2
ATTRIBUTES
 70
     1
 62
    -7
  6
CONTINUOUS
370
    -3
390
49D
  0
LAYER
  5
561
330
463
100
AcDbSymbolTableRecord
100
AcDbLayerTableRecord
  2
SNAP_POINTS
 70
     1
 62
    -1
  6
CONTINUOUS
370
    -3
390
49D
  0
ENDTAB
  0
TABLE
  2
STYLE
  5
464
330
0
100
AcDbSymbolTable
 70
     4
  0
STYLE
  5
470
330
464
100
AcDbSymbolTableRecord
100
AcDbTextStyleTableRecord
  2
STANDARD
 70
     0
 40
0.0
 41
1.0
 50
0.0
 71
     0
 42
0.2
  3
txt
  4

  0
STYLE
  5
5E2
330
464
100
AcDbSymbolTableRecord
100
AcDbTextStyleTableRecord
  2

 70
     1
 40
0.0
 41
1.0
 50
0.0
 71
     0
 42
0.2
  3
genltshp.shx
  4

  0
STYLE
  5
5E4
330
464
100
AcDbSymbolTableRecord
100
AcDbTextStyleTableRecord
  2
ACISOTS
 70
     0
 40
1.0
 41
1.0
 50
0.0
 71
     0
 42
0.2
  3
isocp.shx
  4

  0
STYLE
  5
5F1
330
464
100
AcDbSymbolTableRecord
100
AcDbTextStyleTableRecord
  2
ACISOGDT
 70
     0
 40
0.0
 41
1.0
 50
0.0
 71
     0
 42
0.2
  3
amgdt.shx
  4

  0
ENDTAB
  0
TABLE
  2
VIEW
  5
467
330
0
100
AcDbSymbolTable
 70
     0
  0
ENDTAB
  0
TABLE
  2
UCS
  5
468
330
0
100
AcDbSymbolTable
 70
     0
  0
ENDTAB
  0
TABLE
  2
APPID
  5
46A
330
0
100
AcDbSymbolTable
 70
    16
  0
APPID
  5
471
330
46A
100
AcDbSymbolTableRecord
100
AcDbRegAppTableRecord
  2
ACAD
 70
     0
  0
APPID
  5
47E
330
46A
100
AcDbSymbolTableRecord
100
AcDbRegAppTableRecord
  2
AVE_RENDER
 70
     0
  0
APPID
  5
578
330
46A
100
AcDbSymbolTableRecord
100
AcDbRegAppTableRecord
  2
MCAD_NO_VIS
 70
     0
  0
APPID
  5
579
330
46A
100
AcDbSymbolTableRecord
100
AcDbRegAppTableRecord
  2
ACAD_TEMP_GRAPHIC
 70
     0
  0
APPID
  5
5A9
330
46A
100
AcDbSymbolTableRecord
100
AcDbRegAppTableRecord
  2
AD_DRAW
 70
     0
  0
APPID
  5
5AC
330
46A
100
AcDbSymbolTableRecord
100
AcDbRegAppTableRecord
  2
ACATTRIBSERVICES
 70
     0
  0
APPID
  5
5CC
330
46A
100
AcDbSymbolTableRecord
100
AcDbRegAppTableRecord
  2
DESIGNERASSEMBLIES
 70
     0
  0
APPID
  5
5D2
330
46A
100
AcDbSymbolTableRecord
100
AcDbRegAppTableRecord
  2
ACADM_DIM_EDIT
 70
     0
  0
APPID
  5
5D3
330
46A
100
AcDbSymbolTableRecord
100
AcDbRegAppTableRecord
  2
AMDT_DM_ADJ
 70
     0
  0
APPID
  5
600
330
46A
100
AcDbSymbolTableRecord
100
AcDbRegAppTableRecord
  2
ACAD_DSTYLE_DIMARC_LENGTH_SYMBOL
 70
     0
  0
APPID
  5
601
330
46A
100
AcDbSymbolTableRecord
100
AcDbRegAppTableRecord
  2
ACAD_DSTYLE_DIMJOGGED_JOGANGLE_SYMBOL
 70
     0
  0
APPID
  5
64F
330
46A
100
AcDbSymbolTableRecord
100
AcDbRegAppTableRecord
  2
ACADSTEP
 70
     0
  0
APPID
  5
650
330
46A
100
AcDbSymbolTableRecord
100
AcDbRegAppTableRecord
  2
AcAecLayerStandard
 70
     0
  0
APPID
  5
6E3
330
46A
100
AcDbSymbolTableRecord
100
AcDbRegAppTableRecord
  2
GENIUS_GENSCREG_15
 70
     0
  0
APPID
  5
6E4
330
46A
100
AcDbSymbolTableRecord
100
AcDbRegAppTableRecord
  2
GENIUS_GENODEF_13
 70
     0
  0
APPID
  5
6E5
330
46A
100
AcDbSymbolTableRecord
100
AcDbRegAppTableRecord
  2
GENIUS_GENOBJ-N-SDF_13
 70
     0
  0
ENDTAB
  0
TABLE
  2
DIMSTYLE
  5
46B
330
0
100
AcDbSymbolTable
 70
    11
100
AcDbDimStyleTable
 71
     0
  0
DIMSTYLE
105
47F
330
46B
100
AcDbSymbolTableRecord
100
AcDbDimStyleTableRecord
  2
STANDARD
 70
     0
271
     6
272
     6
273
     5
274
     1
277
     5
279
     2
284
     4
285
     4
286
     4
340
470
  0
DIMSTYLE
105
49A
330
46B
100
AcDbSymbolTableRecord
100
AcDbDimStyleTableRecord
  2
ABECAD_3V
 70
     0
 40
0.0
 41
0.1796875
 43
0.375
 44
0.1796875
 73
     0
 74
     0
 78
     4
140
0.125
141
0.08984375
143
0.003937
146
1.5
147
0.09375
170
     1
171
     6
174
     1
271
     2
272
     2
273
     7
274
     6
276
     2
279
     2
284
     4
285
     4
286
     4
340
470
  0
DIMSTYLE
105
5FF
330
46B
100
AcDbSymbolTableRecord
100
AcDbDimStyleTableRecord
  2
AM_ISO
 70
     0
  4
"
 41
2.5
 42
1.0
 43
10.0
 44
1.0
 47
0.1
 48
0.1
 73
     0
 74
     0
 77
     1
 78
     8
 79
     2
140
3.5
141
0.0
143
0.0393701
146
0.71
147
1.5
172
     1
176
   256
177
   256
178
     2
271
     2
272
     3
274
     4
283
     0
284
     8
340
470
371
    -1
372
    -1
1001
ACAD_DSTYLE_DIMARC_LENGTH_SYMBOL
1070
   379
1070
     1
1001
ACAD_DSTYLE_DIMJOGGED_JOGANGLE_SYMBOL
1070
   384
1040
0.7853981633974483
  0
DIMSTYLE
105
608
330
46B
100
AcDbSymbolTableRecord
100
AcDbDimStyleTableRecord
  2
AM_ISO$3
 70
     0
  4
"
 41
2.5
 42
1.0
 43
10.0
 44
1.0
 47
0.1
 48
0.1
 73
     0
 77
     1
 78
     8
 79
     2
140
3.5
141
0.0
143
0.0393701
146
0.71
147
1.5
176
   256
177
   256
178
     2
271
     2
272
     3
274
     4
283
     0
284
     8
288
     1
289
     0
340
470
371
    -1
372
    -1
1001
ACAD_DSTYLE_DIMARC_LENGTH_SYMBOL
1070
   379
1070
     1
1001
ACAD_DSTYLE_DIMJOGGED_JOGANGLE_SYMBOL
1070
   384
1040
0.7853981633974483
  0
DIMSTYLE
105
60B
330
46B
100
AcDbSymbolTableRecord
100
AcDbDimStyleTableRecord
  2
AM_ISO$4
 70
     0
  4
"
 41
2.5
 42
1.0
 43
10.0
 44
1.0
 47
0.1
 48
0.1
 73
     0
 77
     1
 78
     8
 79
     2
140
3.5
141
0.0
143
0.0393701
146
0.71
147
1.5
176
   256
177
   256
178
     2
271
     2
272
     3
274
     4
283
     0
284
     8
288
     1
289
     0
340
470
371
    -1
372
    -1
1001
ACAD_DSTYLE_DIMARC_LENGTH_SYMBOL
1070
   379
1070
     1
1001
ACAD_DSTYLE_DIMJOGGED_JOGANGLE_SYMBOL
1070
   384
1040
0.7853981633974483
  0
DIMSTYLE
105
60E
330
46B
100
AcDbSymbolTableRecord
100
AcDbDimStyleTableRecord
  2
AM_ISO$6
 70
     0
  4
"
 41
2.5
 42
1.0
 43
10.0
 44
1.0
 47
0.1
 48
0.1
 73
     0
 74
     0
 78
     8
 79
     2
140
3.5
141
0.0
143
0.0393701
146
0.71
147
1.5
172
     1
176
   256
177
   256
178
     2
271
     2
272
     3
274
     4
283
     0
284
     8
340
470
371
    -1
372
    -1
1001
ACAD_DSTYLE_DIMARC_LENGTH_SYMBOL
1070
   379
1070
     1
1001
ACAD_DSTYLE_DIMJOGGED_JOGANGLE_SYMBOL
1070
   384
1040
0.7853981633974483
  0
DIMSTYLE
105
611
330
46B
100
AcDbSymbolTableRecord
100
AcDbDimStyleTableRecord
  2
AM_ISO$7
 70
     0
  4
"
 41
2.5
 42
1.0
 43
10.0
 44
1.0
 47
0.1
 48
0.1
 73
     0
 74
     0
 77
     1
 78
     8
 79
     2
140
5.0
141
0.0
143
0.0393701
146
0.71
147
1.5
172
     1
176
   256
177
   256
178
     2
271
     2
272
     3
274
     4
283
     0
284
     8
340
470
371
    -1
372
    -1
1001
ACAD_DSTYLE_DIMARC_LENGTH_SYMBOL
1070
   379
1070
     1
1001
ACAD_DSTYLE_DIMJOGGED_JOGANGLE_SYMBOL
1070
   384
1040
0.7853981633974483
  0
DIMSTYLE
105
614
330
46B
100
AcDbSymbolTableRecord
100
AcDbDimStyleTableRecord
  2
AM_ISO$SF
 70
     0
  4
"
 41
2.5
 42
1.0
 43
10.0
 44
1.0
 47
0.1
 48
0.1
 73
     0
 74
     0
 75
     1
 76
     1
 77
     1
 78
     8
 79
     2
140
3.5
141
0.0
143
0.0393701
146
0.71
147
1.5
172
     1
176
   256
177
   256
178
     2
271
     2
272
     3
274
     4
283
     0
284
     8
340
470
371
    -1
372
    -1
1001
ACAD_DSTYLE_DIMARC_LENGTH_SYMBOL
1070
   379
1070
     1
1001
ACAD_DSTYLE_DIMJOGGED_JOGANGLE_SYMBOL
1070
   384
1040
0.7853981633974483
  0
DIMSTYLE
105
61B
330
46B
100
AcDbSymbolTableRecord
100
AcDbDimStyleTableRecord
  2
AM_ISO$SH
 70
     0
  4
"
 41
2.5
 42
1.0
 43
10.0
 44
1.0
 47
0.1
 48
0.1
 73
     0
 74
     0
 75
     1
 76
     1
 77
     1
 78
     8
 79
     2
140
3.5
141
0.0
143
0.0393701
144
2.0
146
0.71
147
1.5
172
     1
173
     1
176
   256
177
   256
178
     2
271
     2
272
     3
274
     4
283
     0
284
     8
340
470
343
615
371
    -1
372
    -1
1001
ACAD_DSTYLE_DIMARC_LENGTH_SYMBOL
1070
   379
1070
     1
1001
ACAD_DSTYLE_DIMJOGGED_JOGANGLE_SYMBOL
1070
   384
1040
0.7853981633974483
  0
DIMSTYLE
105
64D
330
46B
100
AcDbSymbolTableRecord
100
AcDbDimStyleTableRecord
  2
ABECAD_3D
 70
     0
 41
4.572
 42
1.587499999999999
 43
9.525
 44
4.572
 73
     0
 78
     4
140
4.572
141
2.286
143
0.03937
146
1.5
147
2.286
170
     1
171
     6
271
     2
272
     2
273
     7
274
     6
276
     2
279
     2
284
     4
285
     4
286
     4
288
     1
289
     2
340
470
  0
DIMSTYLE
105
64E
102
{ACAD_REACTORS
330
688
330
689
330
68A
102
}
330
46B
100
AcDbSymbolTableRecord
100
AcDbDimStyleTableRecord
  2
ABECAD_3D$0
 70
     0
 41
4.572
 42
1.587499999999999
 43
9.525
 44
4.572
 73
     0
 78
     4
140
4.572
141
2.286
143
0.03937
146
1.5
147
2.286
170
     1
171
     6
271
     2
272
     2
273
     7
274
     6
276
     2
279
     2
284
     4
285
     4
286
     4
288
     1
289
     2
340
470
  0
ENDTAB
  0
TABLE
  2
BLOCK_RECORD
  5
462
330
0
100
AcDbSymbolTable
 70
     5
  0
BLOCK_RECORD
  5
478
102
{ACAD_XDICTIONARY
360
4D7
102
}
330
462
100
AcDbSymbolTableRecord
100
AcDbBlockTableRecord
  2
*MODEL_SPACE
340
4A0
  0
BLOCK_RECORD
  5
475
102
{ACAD_XDICTIONARY
360
4D5
102
}
330
462
100
AcDbSymbolTableRecord
100
AcDbBlockTableRecord
  2
*PAPER_SPACE
340
4A1
  0
BLOCK_RECORD
  5
615
330
462
100
AcDbSymbolTableRecord
100
AcDbBlockTableRecord
  2
GENAXEH
340
0
  0
BLOCK_RECORD
  5
622
330
462
100
AcDbSymbolTableRecord
100
AcDbBlockTableRecord
  2
440L-AGWS0480
340
0
102
{BLKREFS
331
686
102
}
  0
BLOCK_RECORD
  5
694
330
462
100
AcDbSymbolTableRecord
100
AcDbBlockTableRecord
  2
*D2
340
0
  0
BLOCK_RECORD
  5
6A0
330
462
100
AcDbSymbolTableRecord
100
AcDbBlockTableRecord
  2
*D3
340
0
  0
BLOCK_RECORD
  5
6AD
330
462
100
AcDbSymbolTableRecord
100
AcDbBlockTableRecord
  2
*D4
340
0
  0
ENDTAB
  0
ENDSEC
  0
SECTION
  2
BLOCKS
  0
BLOCK
  5
48B
330
478
100
AcDbEntity
  8
0
100
AcDbBlockBegin
  2
*MODEL_SPACE
 70
     0
 10
0.0
 20
0.0
 30
0.0
  3
*MODEL_SPACE
  1

  0
ENDBLK
  5
48C
330
478
100
AcDbEntity
  8
0
100
AcDbBlockEnd
  0
BLOCK
  5
489
330
475
100
AcDbEntity
 67
     1
  8
0
100
AcDbBlockBegin
  2
*PAPER_SPACE
 70
     0
 10
0.0
 20
0.0
 30
0.0
  3
*PAPER_SPACE
  1

  0
ENDBLK
  5
48A
330
475
100
AcDbEntity
 67
     1
  8
0
100
AcDbBlockEnd
  0
BLOCK
  5
617
330
615
100
AcDbEntity
  8
0
100
AcDbBlockBegin
  2
GENAXEH
 70
     0
 10
0.0
 20
0.0
 30
0.0
  3
GENAXEH
  1

  0
LINE
  5
616
330
615
100
AcDbEntity
  8
0
100
AcDbLine
 10
-1.0
 20
0.0
 30
0.0
 11
1.0
 21
0.0
 31
0.0
  0
ENDBLK
  5
618
330
615
100
AcDbEntity
  8
0
100
AcDbBlockEnd
  0
BLOCK
  5
623
330
622
100
AcDbEntity
  8
0
100
AcDbBlockBegin
  2
440L-AGWS0480
 70
     0
 10
0.0
 20
0.0
 30
0.0
  3
440L-AGWS0480
  1

  0
3DSOLID
  5
624
330
622
100
AcDbEntity
  8
0
100
AcDbModelerGeometry
 70
     1
  1
joo loi n o         
  1
h J1410(1 nl ^ \VL jqoqn QK mk R01 R>- ln mlenfell moog 
  1
rn fqfffffffffffffffj:rooh n:rono 
  1
=0;& {n {m {rn {rn |
  1
-:9@)+r:&:r>++-6= {rn {rn {rn {o {l {k |
  1
3*2/ {j {rn {i {o |
  1
:&:@-:961:2:1+ {rn j 8-6;  n l +-6 n k ,*-9 o l >;5 o k 8->; o f /0,+<7:<4 o k ,+03 jqokmffjkjmggogjfk k 1+03 lo k ;,63 o g 93>+1:,, o h /6'>-:> o k 72>' o i 8-6;>- o j 28-6; looo j *8-6; o j )8-6; o no :1;@96:3;, |
  1
):-+:'@+:2/3>+: {rn l o n g |
  1
-:9@)+r:&:r>++-6= {rn {rn {rn {m {l {k |
  1
,7:33 {h {rn {rn {g {rn {m |
  1
-:9@)+r:&:r>++-6= {rn {rn {rn {i {l {k |
  1
9><: {f {no {nn {i {rn {nm -:):-,:; ,6183: |
  1
92:,7r:&:r>++-6= {rn {nl {rn {g |
  1
9><: {nk {nj {ni {i {rn {nh -:):-,:; ,6183: |
  1
300/ {rn {rn {ng {g |
  1
/3>1:r,*-9><: {rn rmkqhj rnoqlig rmhmqknjoooooooooog n o o o o rn 90-(>-;@) V V V V |
  1
-:9@)+r:&:r>++-6= {rn {rn {f {g {l {k |
  1
92:,7r:&:r>++-6= {rn {nf {rn {no |
  1
9><: {mo {mn {mm {i {rn {ml 90-(>-; ,6183: |
  1
300/ {rn {rn {mk {no |
  1
/3>1:r,*-9><: {rn rmhqmmjooooooooooon rnoqiihffffffffffff rmkhqijooooooooooon o o n n o o 90-(>-;@) V V V V |
  1
<0:;8: {rn {mj {mi {mh {mg 90-(>-; {nn {rn |
  1
-:9@)+r:&:r>++-6= {rn {rn {nk {no {l {k |
  1
92:,7r:&:r>++-6= {rn {mf {rn {nj |
  1
9><: {lo {ln {lm {i {rn {ll 90-(>-; ,6183: |
  1
300/ {rn {rn {lk {nj |
  1
/3>1:r,*-9><: {rn rmkqgffffffffffffff rnoqni rmhmqknjoooooooooog o rn o o o rn 90-(>-;@) V V V V |
  1
<0:;8: {rn {lj {li {lh {lg 90-(>-; {ni {rn |
  1
<0:;8: {rn {lf {ng {ko {kn 90-(>-; {nn {rn |
  1
<0:;8: {rn {ng {lf {li {km -:):-,:; {nn {rn |
  1
<0:;8: {rn {kl {kk {ng {mg -:):-,:; {mm {rn |
  1
:;8: {kj {ki o {kh kfjqloooooooooooon {ng {kg 90-(>-; h *1410(1 |
  1
-:9@)+r:&:r>++-6= {rn {rn {mo {nj {l {k |
  1
92:,7r:&:r>++-6= {rn {kf {rn {mn |
  1
9><: {jo {jn {jm {i {rn {jl 90-(>-; ,6183: |
  1
300/ {rn {rn {jk {mn |
  1
/3>1:r,*-9><: {rn rmhqmmjooooooooooon rnoqiihffffffffffff mkhqijooooooooooon o o n n o o 90-(>-;@) V V V V |
  1
<0:;8: {rn {kk {kl {jj {ji 90-(>-; {mm {rn |
  1
<0:;8: {rn {jh {mk {jg {jf 90-(>-; {ni {rn |
  1
<0:;8: {rn {mk {io {mi {km 90-(>-; {ni {rn |
  1
<0:;8: {rn {in {im {mk {lg -:):-,:; {jm {rn |
  1
:;8: {il {ik o {ij nqjhohfilmihfkfoon {mk {ii 90-(>-; h *1410(1 |
  1
<0:;8: {rn {mi {mj {in {ih -:):-,:; {nn {rn |
  1
<0:;8: {rn {jk {ig {mj {kn -:):-,:; {lm {rn |
  1
:;8: {if {kh o {ho kqniooooooooooooon {mj {hn 90-(>-; h *1410(1 |
  1
:;8: {hm {ki o {ik kqniooooooooooooon {mi {hl 90-(>-; h *1410(1 |
  1
<0:;8: {rn {lk {mh {io {hk 90-(>-; {mm {rn |
  1
<0:;8: {rn {mh {lk {jk {hj -:):-,:; {mm {rn |
  1
/+36,+r:&:r>++-6= {rn {rn {rn {mg |
  1
):-+:' {rn {mg {hi |
  1
):-+:' {rn {mg {hh |
  1
,+->687+r<*-): {rn rmkqhj rnoqni rmkhqijooooooooooon o o n V V |
  1
-:9@)+r:&:r>++-6= {rn {rn {lo {mn {l {k |
  1
92:,7r:&:r>++-6= {rn {hg {rn {ln |
  1
9><: {hf {go {gn {i {rn {gm -:):-,:; ,6183: |
  1
300/ {rn {rn {in {ln |
  1
<01:r,*-9><: {rn rngqhj ri mhmqknjoooooooooom o o rn ri o o n V V o n i 90-(>-; V V V V |
  1
<0:;8: {rn {gl {ko {kk {hj 90-(>-; {lm {rn |
  1
<0:;8: {rn {gk {gj {lk {ji -:):-,:; {gi {rn |
  1
:;8: {gh {gg o {gf kfjqloooooooooooon {lk {fo 90-(>-; h *1410(1 |
  1
<0:;8: {rn {fn {lj {fm {fl 90-(>-; {ni {rn |
  1
<0:;8: {rn {fk {fj {lj {jf -:):-,:; {gn {rn |
  1
:;8: {fi {ij o {fh lhqj {lj {fg 90-(>-; h *1410(1 |
  1
<0:;8: {rn {li {ff {kl {hk -:):-,:; {ni {rn |
  1
<0:;8: {rn {noo {lh {lf {ih 90-(>-; {jm {rn |
  1
<0:;8: {rn {lh {noo {fk {non -:):-,:; {jm {rn |
  1
/+36,+r:&:r>++-6= {rn {rn {rn {lg |
  1
):-+:' {rn {ih {nom |
  1
):-+:' {rn {lg {nol |
  1
:336/,:r<*-): {rn rngqhj ri rmkhqijooooooooooon o o rn ri o o n V V |
  1
:;8: {nok {ik o {ho kfjqloooooooooooon {lf {noj 90-(>-; h *1410(1 |
  1
<0:;8: {rn {ko {noi {noo {noh -:):-,:; {lm {rn |
  1
/+36,+r:&:r>++-6= {rn {rn {rn {kn |
  1
):-+:' {rn {kn {nog |
  1
,+->687+r<*-): {rn rmkqhj rnoqni mkhqijooooooooooon o n o V V |
  1
/+36,+r:&:r>++-6= {rn {rn {rn {km |
  1
,+->687+r<*-): {rn rmkqhj rnoqni rmkhqijooooooooooon o n o V V |
  1
:;8: {nof {ki o {gg l {io {nno 90-(>-; h *1410(1 |
  1
:;8: {nnn {kh o {gf l {kk {nnm 90-(>-; h *1410(1 |
  1
/061+ {rn rmkqhj rnoqni rmkhqijooooooooooon |
  1
/061+ {rn rmkqhj rnoqni mkhqijooooooooooon |
  1
-:9@)+r:&:r>++-6= {rn {rn {jo {ln {l {k |
  1
92:,7r:&:r>++-6= {rn {nnl {rn {jn |
  1
9><: {nnk {nnj {nni {i {rn {nnh 90-(>-; ,6183: |
  1
300/ {rn {rn {fk {jn |
  1
/3>1:r,*-9><: {rn rmoqimj o mhmqknjoooooooooom o rn o o o rn 90-(>-;@) V V V V |
  1
<0:;8: {rn {nng {jk {gj {nnf 90-(>-; {lm {rn |
  1
<0:;8: {rn {nmo {jj {ff {nmn 90-(>-; {gi {rn |
  1
<0:;8: {rn {jj {nmo {gl {nnf -:):-,:; {gi {rn |
  1
300/ {rn {rn {nmo {nmm |
  1
/+36,+r:&:r>++-6= {rn {rn {rn {ji |
  1
):-+:' {rn {nmn {nml |
  1
):-+:' {rn {ji {nmk |
  1
,+->687+r<*-): {rn rmnqhj rnoqni rmkhqijooooooooooon o o n V V |
  1
<0:;8: {rn {nmj {jh {nmi {nmh 90-(>-; {ni {rn |
  1
<0:;8: {rn {nmg {nmf {jh {fl -:):-,:; {nni {rn |
  1
:;8: {nlo {fh o {nln nqjhohfilmihfkfoon {jh {nlm 90-(>-; h *1410(1 |
  1
<0:;8: {rn {nll {jg {im {non 90-(>-; {gn {rn |
  1
<0:;8: {rn {jg {nll {nmg {nlk -:):-,:; {gn {rn |
  1
/+36,+r:&:r>++-6= {rn {rn {rn {jf |
  1
):-+:' {rn {jf {nlj |
  1
,+->687+r<*-): {rn rngqhj o rmkhqijooooooooooon n o o V V |
  1
<0:;8: {rn {io {nli {gk {nmn -:):-,:; {ni {rn |
  1
<0:;8: {rn {im {in {ig {noh 90-(>-; {jm {rn |
  1
:;8: {nlh {ij o {nlg kfjqloooooooooooon {im {nlf 90-(>-; h *1410(1 |
  1
/061+ {rn rmkqhj ri rmkhqijooooooooooon |
  1
/061+ {rn rngqhj o rmkhqijooooooooooon |
  1
/+36,+r:&:r>++-6= {rn {rn {rn {ih |
  1
,+->687+r<*-): {rn rmkqhj ri rmkhqijooooooooooon o o n V V |
  1
<0:;8: {rn {ig {nko {nll {nkn -:):-,:; {lm {rn |
  1
:;8: {nkm {ho o {nlg nqjhohfilmihfkfoon {ig {nkl 90-(>-; h *1410(1 |
  1
/061+ {rn rmkqhj ri mkhqijooooooooooon |
  1
/+36,+r:&:r>++-6= {rn {rn {rn {hk |
  1
,+->687+r<*-): {rn rmkqhj rnoqni rmkhqijooooooooooon n o o V V |
  1
/+36,+r:&:r>++-6= {rn {rn {rn {hj |
  1
,+->687+r<*-): {rn rmkqhj rnoqni mkhqijooooooooooon n o o V V |
  1
-:9@)+r:&:r>++-6= {rn {rn {hf {jn {l {k |
  1
92:,7r:&:r>++-6= {rn {nkk {rn {go |
  1
9><: {nkj {nki {nkh {i {rn {nkg -:):-,:; ,6183: |
  1
300/ {rn {rn {nmg {go |
  1
<01:r,*-9><: {rn ngqhj ri mhmqknjoooooooooom o o rn ri o o n V V o n i 90-(>-; V V V V |
  1
<0:;8: {rn {nkf {gl {njo {njn 90-(>-; {lm {rn |
  1
:;8: {njm {gf o {njl kqniooooooooooooon {gl {njk 90-(>-; h *1410(1 |
  1
<0:;8: {rn {gj {gk {njj {nji 90-(>-; {gi {rn |
  1
:;8: {njh {gg o {njg kqniooooooooooooon {ff {njf 90-(>-; h *1410(1 |
  1
9><: {nio {rn {gi {i {rn {nin 90-(>-; ,6183: |
  1
/061+ {rn rmnqhj rnoqni rmkhqijooooooooooon |
  1
/061+ {rn rmnqhj rnoqni mkhqijooooooooooon |
  1
<0:;8: {rn {nim {fn {nil {nik -:):-,:; {ni {rn |
  1
<0:;8: {rn {nij {nii {fn {nmh -:):-,:; {nkh {rn |
  1
:;8: {nih {nln o {nig kqniooooooooooooon {fn {nif 90-(>-; h *1410(1 |
  1
<0:;8: {rn {nho {fm {fj {nlk 90-(>-; {nni {rn |
  1
<0:;8: {rn {fm {nho {nij {nhn -:):-,:; {nni {rn |
  1
/+36,+r:&:r>++-6= {rn {rn {rn {fl |
  1
):-+:' {rn {fl {nhm |
  1
:336/,:r<*-): {rn ngqhj ri rmkhqijooooooooooon o o rn o i o n V V |
  1
<0:;8: {rn {fj {fk {noi {nkn 90-(>-; {gn {rn |
  1
:;8: {nhl {fh o {nhk kfjqloooooooooooon {fj {nhj 90-(>-; h *1410(1 |
  1
/061+ {rn ngqhj o rmkhqijooooooooooon |
  1
<0:;8: {rn {ff {nhi {nhh {nhg -:):-,:; {ni {rn |
  1
/+36,+r:&:r>++-6= {rn {rn {rn {non |
  1
):-+:' {rn {nkn {nhf |
  1
,+->687+r<*-): {rn rngqhj o rmkhqijooooooooooon o o n V V |
  1
<0:;8: {rn {noi {ngo {nho {ngn -:):-,:; {lm {rn |
  1
:;8: {ngm {nlg o {nhk lhqj {noi {ngl 90-(>-; h *1410(1 |
  1
/+36,+r:&:r>++-6= {rn {rn {rn {noh |
  1
:336/,:r<*-): {rn rngqhj ri mkhqijooooooooooon o o rn ri o o n V V |
  1
-:9@)+r:&:r>++-6= {rn {rn {nnk {go {l {k |
  1
92:,7r:&:r>++-6= {rn {ngk {rn {nnj |
  1
9><: {ngj {ngi {ngh {i {rn {ngg 90-(>-; ,6183: |
  1
300/ {rn {rn {nij {nnj |
  1
/3>1:r,*-9><: {rn mkqhj rjqhfnffffffffffffg rmhmqknjoooooooooog rn o o o o n 90-(>-;@) V V V V |
  1
<0:;8: {rn {ngf {nng {nfo {nfn 90-(>-; {lm {rn |
  1
<0:;8: {rn {njj {nfm {nng {njn -:):-,:; {nfl {rn |
  1
:;8: {nfk {njl o {nfj nqjhohfilmihfkfoon {nng {nfi 90-(>-; h *1410(1 |
  1
/+36,+r:&:r>++-6= {rn {rn {rn {nnf |
  1
):-+:' {rn {nnf {nfh |
  1
,+->687+r<*-): {rn rmnqhj rnoqni mkhqijooooooooooon o n o V V |
  1
<0:;8: {rn {nhh {njo {nmo {nji -:):-,:; {nfl {rn |
  1
:;8: {nfg {njg o {njl kfjqloooooooooooon {njj {nff 90-(>-; h *1410(1 |
  1
/+36,+r:&:r>++-6= {rn {rn {rn {nmn |
  1
):-+:' {rn {nhg {moo |
  1
,+->687+r<*-): {rn rmnqhj rnoqni rmkhqijooooooooooon o n o V V |
  1
92:,7r:&:r>++-6= {rn {mon {rn {nmm |
  1
/3>1:r,*-9><: {rn rmnqhj rnoqlig rmhmqknjoooooooooog n o o o o rn 90-(>-;@) V V V V |
  1
<0:;8: {rn {mom {nmj {mol {mok -:):-,:; {ni {rn |
  1
<0:;8: {rn {moj {moi {nmj {nik 90-(>-; {ngh {rn |
  1
:;8: {moh {mog o {nig l {nmj {mof 90-(>-; h *1410(1 |
  1
<0:;8: {rn {mno {nmi {nmf {nhn 90-(>-; {nkh {rn |
  1
<0:;8: {rn {nmi {mno {moj {mnn -:):-,:; {nkh {rn |
  1
/+36,+r:&:r>++-6= {rn {rn {rn {nmh |
  1
):-+:' {rn {nmh {mnm |
  1
,+->687+r<*-): {rn mkqhj ri rmkhqijooooooooooon o rn o V V |
  1
<0:;8: {rn {nmf {nmg {nko {ngn 90-(>-; {nni {rn |
  1
:;8: {mnl {nln o {mnk kfjqloooooooooooon {nmf {mnj 90-(>-; h *1410(1 |
  1
/061+ {rn mkqhj ri rmkhqijooooooooooon |
  1
/+36,+r:&:r>++-6= {rn {rn {rn {nlk |
  1
):-+:' {rn {ngn {mni |
  1
,+->687+r<*-): {rn ngqhj o rmkhqijooooooooooon o o n V V |
  1
<0:;8: {rn {nli {mom {mnh {mng -:):-,:; {ni {rn |
  1
<0:;8: {rn {nfm {njj {nli {nhg 90-(>-; {nfl {rn |
  1
:;8: {mnf {njg o {mmo nqjhohfilmihfkfoon {nli {mmn 90-(>-; h *1410(1 |
  1
/061+ {rn rngqhj o mkhqijooooooooooon |
  1
<0:;8: {rn {nko {mmm {mno {mml -:):-,:; {lm {rn |
  1
:;8: {mmk {nhk o {mnk nqjhohfilmihfkfoon {nko {mmj 90-(>-; h *1410(1 |
  1
/+36,+r:&:r>++-6= {rn {rn {rn {nkn |
  1
,+->687+r<*-): {rn rngqhj o mkhqijooooooooooon n o o V V |
  1
-:9@)+r:&:r>++-6= {rn {rn {nkj {nnj {l {k |
  1
92:,7r:&:r>++-6= {rn {mmi {rn {nki |
  1
9><: {mmh {mmg {mmf {i {rn {mlo 90-(>-; ,6183: |
  1
300/ {rn {rn {moj {nki |
  1
/3>1:r,*-9><: {rn mnqiooooooooooooon rnoqni rmhmqknjoooooooooog o rn o o o rn 90-(>-;@) V V V V |
  1
<0:;8: {rn {mln {nkf {mlm {mll 90-(>-; {lm {rn |
  1
<0:;8: {rn {mlk {mlj {nkf {nfn -:):-,:; {mli {rn |
  1
:;8: {mlh {nfj o {mlg lhqj {nkf {mlf 90-(>-; h *1410(1 |
  1
<0:;8: {rn {njo {nhh {mlk {mko 90-(>-; {nfl {rn |
  1
300/ {rn {rn {nfm {mkn |
  1
/+36,+r:&:r>++-6= {rn {rn {rn {njn |
  1
):-+:' {rn {njn {mkm |
  1
:336/,:r<*-): {rn rngqhj ri mkhqijooooooooooon o o rn rl o o n V V |
  1
/061+ {rn rmnqhj ri mkhqijooooooooooon |
  1
/+36,+r:&:r>++-6= {rn {rn {rn {nji |
  1
,+->687+r<*-): {rn rmnqhj ri rmkhqijooooooooooon o o n V V |
  1
/061+ {rn rmnqhj ri rmkhqijooooooooooon |
  1
-:9@)+r:&:r>++-6= {rn {rn {nio {nmm {l {k |
  1
<0:;8: {rn {nhi {nim {mkl {mkk -:):-,:; {ni {rn |
  1
<0:;8: {rn {mkj {mki {nim {mok 90-(>-; {mmf {rn |
  1
:;8: {mkh {mkg o {mog kqniooooooooooooon {nim {mkf 90-(>-; h *1410(1 |
  1
<0:;8: {rn {mjo {nil {nii {mnn 90-(>-; {ngh {rn |
  1
<0:;8: {rn {nil {mjo {mkj {mjn -:):-,:; {ngh {rn |
  1
/+36,+r:&:r>++-6= {rn {rn {rn {nik |
  1
):-+:' {rn {nik {mjm |
  1
,+->687+r<*-): {rn mnqhj rnoqni rmkhqijooooooooooon n o o V V |
  1
<0:;8: {rn {nii {nij {ngo {mml 90-(>-; {nkh {rn |
  1
:;8: {mjl {nig o {mjk kfjqloooooooooooon {nii {mjj 90-(>-; h *1410(1 |
  1
/061+ {rn mkqhj rnoqni rmkhqijooooooooooon |
  1
/+36,+r:&:r>++-6= {rn {rn {rn {nhn |
  1
):-+:' {rn {mml {mji |
  1
,+->687+r<*-): {rn mkqhj ri rmkhqijooooooooooon o o n V V |
  1
/061+ {rn ngqhj o mkhqijooooooooooon |
  1
<0:;8: {rn {mlj {mlk {nhi {mng 90-(>-; {mli {rn |
  1
:;8: {mjh {mmo o {mjg lhqj {nhi {mjf 90-(>-; h *1410(1 |
  1
/+36,+r:&:r>++-6= {rn {rn {rn {nhg |
  1
):-+:' {rn {mng {mio |
  1
:336/,:r<*-): {rn rngqhj ri rmkhqijooooooooooon o o rn rl o o n V V |
  1
<0:;8: {rn {ngo {mln {mjo {min 90-(>-; {lm {rn |
  1
:;8: {mim {mnk o {mjk kqniooooooooooooon {ngo {mil 90-(>-; h *1410(1 |
  1
/+36,+r:&:r>++-6= {rn {rn {rn {ngn |
  1
:336/,:r<*-): {rn ngqhj ri mkhqijooooooooooon o o rn o i o n V V |
  1
-:9@)+r:&:r>++-6= {rn {rn {ngj {nki {l {k |
  1
92:,7r:&:r>++-6= {rn {mik {rn {ngi |
  1
9><: {mij {mii {mih {i {rn {mig -:):-,:; ,6183: |
  1
300/ {rn {rn {mkj {ngi |
  1
/3>1:r,*-9><: {rn mnqhj rjqhfnffffffffffffg rmhmqknjoooooooooog rn o o o o n 90-(>-;@) V V V V |
  1
<0:;8: {rn {mmm {ngf {mif {mho 90-(>-; {lm {rn |
  1
<0:;8: {rn {mhn {mhm {ngf {mll -:):-,:; {mih {rn |
  1
:;8: {mhl {mlg o {mhk nqjhohfilmihfkfoon {ngf {mhj 90-(>-; h *1410(1 |
  1
<0:;8: {rn {mnh {nfo {nfm {mko -:):-,:; {mli {rn |
  1
<0:;8: {rn {nfo {mnh {mhn {mhi 90-(>-; {mli {rn |
  1
300/ {rn {rn {mlj {mii |
  1
/+36,+r:&:r>++-6= {rn {rn {rn {nfn |
  1
):-+:' {rn {nfn {mhh |
  1
,+->687+r<*-): {rn rngqhj rl mkhqijooooooooooon n o o V V |
  1
:;8: {mhg {mmo o {nfj kfjqloooooooooooon {mlk {mhf 90-(>-; h *1410(1 |
  1
9><: {mgo {nmm {nfl {i {rn {mgn -:):-,:; ,6183: |
  1
/061+ {rn rngqhj rl mkhqijooooooooooon |
  1
<0:;8: {rn {mhm {mhn {mom {mkk 90-(>-; {mih {rn |
  1
:;8: {mgm {mjg o {mkg nqjhohfilmihfkfoon {mom {mgl 90-(>-; h *1410(1 |
  1
<0:;8: {rn {mif {mol {moi {mjn 90-(>-; {mmf {rn |
  1
<0:;8: {rn {mol {mif {mhm {mgk -:):-,:; {mmf {rn |
  1
/+36,+r:&:r>++-6= {rn {rn {rn {mok |
  1
):-+:' {rn {mok {mgj |
  1
,+->687+r<*-): {rn mnqhj ri rmkhqijooooooooooon o rn o V V |
  1
<0:;8: {rn {moi {moj {mmm {min -:):-,:; {ngh {rn |
  1
:;8: {mgi {mog o {mgh kfjqloooooooooooon {moi {mgg 90-(>-; h *1410(1 |
  1
/061+ {rn mnqhj rnoqni rmkhqijooooooooooon |
  1
/+36,+r:&:r>++-6= {rn {rn {rn {mnn |
  1
):-+:' {rn {min {mgf |
  1
,+->687+r<*-): {rn mkqhj rnoqni rmkhqijooooooooooon o o n V V |
  1
/061+ {rn mkqhj ri mkhqijooooooooooon |
  1
/+36,+r:&:r>++-6= {rn {rn {rn {mng |
  1
):-+:' {rn {mkk {mfo |
  1
,+->687+r<*-): {rn rngqhj rl rmkhqijooooooooooon n o o V V |
  1
/061+ {rn rngqhj rl rmkhqijooooooooooon |
  1
:;8: {mfn {mgh o {mjk l {mmm {mfm 90-(>-; h *1410(1 |
  1
/+36,+r:&:r>++-6= {rn {rn {rn {mml |
  1
,+->687+r<*-): {rn mkqhj ri mkhqijooooooooooon o rn o V V |
  1
-:9@)+r:&:r>++-6= {rn {rn {mmh {ngi {l {k |
  1
92:,7r:&:r>++-6= {rn {mfl {rn {mmg |
  1
9><: {mfk {mkn {mli {i {rn {mfj 90-(>-; ,6183: |
  1
300/ {rn {rn {mhm {mmg |
  1
<01:r,*-9><: {rn ngqhj ri mhmqknjoooooooooom o o rn rl o o n V V o n l 90-(>-; V V V V |
  1
<0:;8: {rn {mki {mkj {mln {mho -:):-,:; {mmf {rn |
  1
:;8: {mfi {mhk o {mgh kqniooooooooooooon {mln {mfh 90-(>-; h *1410(1 |
  1
<0:;8: {rn {mkl {mlm {mlj {mhi -:):-,:; {mih {rn |
  1
<0:;8: {rn {mlm {mkl {mki {mgk 90-(>-; {mih {rn |
  1
/+36,+r:&:r>++-6= {rn {rn {rn {mll |
  1
):-+:' {rn {mll {mfg |
  1
:336/,:r<*-): {rn ngqhj ri mkhqijooooooooooon o o rn o l o n V V |
  1
:;8: {mff {mjg o {mlg kfjqloooooooooooon {mhn {loo 90-(>-; h *1410(1 |
  1
/061+ {rn ngqhj rl mkhqijooooooooooon |
  1
/+36,+r:&:r>++-6= {rn {rn {rn {mko |
  1
,+->687+r<*-): {rn rngqhj rl rmkhqijooooooooooon o o n V V |
  1
92:,7r:&:r>++-6= {rn {lon {rn {mkn |
  1
<01:r,*-9><: {rn rngqhj ri mhmqknjoooooooooom o o rn rl o o n V V o n l 90-(>-; V V V V |
  1
/+36,+r:&:r>++-6= {rn {rn {rn {mkk |
  1
:336/,:r<*-): {rn ngqhj ri rmkhqijooooooooooon o o rn o l o n V V |
  1
:;8: {lom {mkg o {mhk kfjqloooooooooooon {mki {lol 90-(>-; h *1410(1 |
  1
/061+ {rn mnqhj ri rmkhqijooooooooooon |
  1
/+36,+r:&:r>++-6= {rn {rn {rn {mjn |
  1
):-+:' {rn {mho {lok |
  1
,+->687+r<*-): {rn mnqhj rnoqni rmkhqijooooooooooon o o n V V |
  1
/061+ {rn mkqhj rnoqni mkhqijooooooooooon |
  1
/061+ {rn ngqhj rl rmkhqijooooooooooon |
  1
/+36,+r:&:r>++-6= {rn {rn {rn {min |
  1
,+->687+r<*-): {rn mnqhj rnoqni mkhqijooooooooooon n o o V V |
  1
-:9@)+r:&:r>++-6= {rn {rn {mij {mmg {l {k |
  1
92:,7r:&:r>++-6= {rn {loj {rn {mii |
  1
/3>1:r,*-9><: {rn rmoqimj rl mhmqknjoooooooooom o rn o o o rn 90-(>-;@) V V V V |
  1
/+36,+r:&:r>++-6= {rn {rn {rn {mho |
  1
,+->687+r<*-): {rn mnqhj ri mkhqijooooooooooon o rn o V V |
  1
/061+ {rn mnqhj ri mkhqijooooooooooon |
  1
/+36,+r:&:r>++-6= {rn {rn {rn {mhi |
  1
,+->687+r<*-): {rn ngqhj rl rmkhqijooooooooooon o o n V V |
  1
-:9@)+r:&:r>++-6= {rn {rn {mgo {mkn {l {k |
  1
/+36,+r:&:r>++-6= {rn {rn {rn {mgk |
  1
,+->687+r<*-): {rn mnqhj ri rmkhqijooooooooooon o o n V V |
  1
/061+ {rn mnqhj rnoqni mkhqijooooooooooon |
  1
-:9@)+r:&:r>++-6= {rn {rn {mfk {mii {l {k |
1001
ACADSTEP
1000
ID
1002
{
1000
423
1002
}
  0
ENDBLK
  5
625
330
622
100
AcDbEntity
  8
0
100
AcDbBlockEnd
  0
BLOCK
  5
69E
330
694
100
AcDbEntity
  8
0
100
AcDbBlockBegin
  2
*D2
 70
     1
 10
0.0
 20
0.0
 30
0.0
  3
*D2
  1

  0
LINE
  5
6BA
330
694
100
AcDbEntity
  8
AREA1
 62
     0
370
    -2
100
AcDbLine
 10
0.0000000000000001
 20
1.587499999999999
 30
0.0
 11
0.000000000000001
 21
16.572
 31
0.0
  0
LINE
  5
6BB
330
694
100
AcDbEntity
  8
AREA1
 62
     0
370
    -2
100
AcDbLine
 10
49.5
 20
1.587499999999999
 30
0.0
 11
49.5
 21
16.572
 31
0.0
  0
LINE
  5
6BC
330
694
100
AcDbEntity
  8
AREA1
 62
     0
370
    -2
100
AcDbLine
 10
4.572
 20
12.0
 30
0.0
 11
44.92799999999999
 21
12.0
 31
0.0
  0
MTEXT
  5
6BD
330
694
100
AcDbEntity
  8
AREA1
 62
     0
100
AcDbMText
 10
24.75
 20
37.715
 30
0.0
 40
20.0
 41
0.0
 71
     5
 72
     1
  1
\A1;49.50 [1 61/64]
 73
     1
 44
1.0
1001
ACAD
1000
MTEXTBEGIN
1070
    73
1070
     1
1070
    44
1040
1.0
1070
    74
1070
     0
1000
MTEXTEND
  0
SOLID
  5
6BE
330
694
100
AcDbEntity
  8
AREA1
 62
     0
100
AcDbTrace
 10
4.572
 20
12.762
 30
0.0
 11
4.572
 21
11.23799999999999
 31
0.0
 12
0.0000000000000007
 22
12.0
 32
0.0
 13
0.0000000000000007
 23
12.0
 33
0.0
  0
SOLID
  5
6BF
330
694
100
AcDbEntity
  8
AREA1
 62
     0
100
AcDbTrace
 10
44.92799999999999
 20
12.762
 30
0.0
 11
44.92799999999999
 21
11.23799999999999
 31
0.0
 12
49.5
 22
12.0
 32
0.0
 13
49.5
 23
12.0
 33
0.0
  0
POINT
  5
6C0
330
694
100
AcDbEntity
  8
DEFPOINTS
 62
     0
100
AcDbPoint
 10
0.0
 20
0.0
 30
0.0
  0
POINT
  5
6C1
330
694
100
AcDbEntity
  8
DEFPOINTS
 62
     0
100
AcDbPoint
 10
49.5
 20
0.0
 30
0.0
  0
POINT
  5
6C2
330
694
100
AcDbEntity
  8
DEFPOINTS
 62
     0
100
AcDbPoint
 10
49.5
 20
12.0
 30
0.0
  0
ENDBLK
  5
69F
330
694
100
AcDbEntity
  8
0
100
AcDbBlockEnd
  0
BLOCK
  5
6AB
330
6A0
100
AcDbEntity
  8
0
100
AcDbBlockBegin
  2
*D3
 70
     1
 10
0.0
 20
0.0
 30
0.0
  3
*D3
  1

  0
LINE
  5
6C3
330
6A0
100
AcDbEntity
  8
AREA1
 62
     0
370
    -2
100
AcDbLine
 10
51.0875
 20
-0.0000000000000004
 30
0.0
 11
76.44155256270022
 21
-0.0000000000000076
 31
0.0
  0
LINE
  5
6C4
330
6A0
100
AcDbEntity
  8
AREA1
 62
     0
370
    -2
100
AcDbLine
 10
51.0875
 20
-495.3
 30
0.0
 11
76.44155256270011
 21
-495.3
 31
0.0
  0
LINE
  5
6C5
330
6A0
100
AcDbEntity
  8
AREA1
 62
     0
370
    -2
100
AcDbLine
 10
71.86955256270022
 20
-4.572000000000006
 30
0.0
 11
71.86955256270019
 21
-120.3639999999999
 31
0.0
  0
LINE
  5
6C6
330
6A0
100
AcDbEntity
  8
AREA1
 62
     0
370
    -2
100
AcDbLine
 10
71.8695525627001
 20
-490.728
 30
0.0
 11
71.86955256270014
 21
-374.936
 31
0.0
  0
SOLID
  5
6C7
330
6A0
100
AcDbEntity
  8
AREA1
 62
     0
100
AcDbTrace
 10
71.10755256270022
 20
-4.572000000000006
 30
0.0
 11
72.63155256270022
 21
-4.572000000000006
 31
0.0
 12
71.86955256270022
 22
-0.0000000000000063
 32
0.0
 13
71.86955256270022
 23
-0.0000000000000063
 33
0.0
  0
SOLID
  5
6C8
330
6A0
100
AcDbEntity
  8
AREA1
 62
     0
100
AcDbTrace
 10
71.1075525627001
 20
-490.728
 30
0.0
 11
72.6315525627001
 21
-490.728
 31
0.0
 12
71.8695525627001
 22
-495.3
 32
0.0
 13
71.8695525627001
 23
-495.3
 33
0.0
  0
MTEXT
  5
6C9
330
6A0
100
AcDbEntity
  8
AREA1
 62
     0
100
AcDbMText
 10
71.86955256270021
 20
-247.65
 30
0.0
 40
20.0
 41
0.0
 71
     5
 72
     1
  1
\A1;495.30 [19 1/2]
 11
0.0000000000000001
 21
1.0
 31
0.0
 73
     1
 44
1.0
1001
ACAD
1000
MTEXTBEGIN
1070
    73
1070
     1
1070
    44
1040
1.0
1070
    74
1070
     0
1000
MTEXTEND
  0
POINT
  5
6CA
330
6A0
100
AcDbEntity
  8
DEFPOINTS
 62
     0
100
AcDbPoint
 10
49.5
 20
0.0
 30
0.0
  0
POINT
  5
6CB
330
6A0
100
AcDbEntity
  8
DEFPOINTS
 62
     0
100
AcDbPoint
 10
49.5
 20
-495.3
 30
0.0
  0
POINT
  5
6CC
330
6A0
100
AcDbEntity
  8
DEFPOINTS
 62
     0
100
AcDbPoint
 10
71.8695525627001
 20
-495.3
 30
0.0
  0
ENDBLK
  5
6AC
330
6A0
100
AcDbEntity
  8
0
100
AcDbBlockEnd
  0
BLOCK
  5
6B8
330
6AD
100
AcDbEntity
  8
0
100
AcDbBlockBegin
  2
*D4
 70
     1
 10
0.0
 20
0.0
 30
0.0
  3
*D4
  1

  0
LINE
  5
6CD
330
6AD
100
AcDbEntity
  8
AREA2
 62
     0
370
    -2
100
AcDbLine
 10
50.92348619584165
 20
10.16000000000011
 30
0.0
 11
66.072
 21
10.1600000000001
 31
0.0
  0
LINE
  5
6CE
330
6AD
100
AcDbEntity
  8
AREA2
 62
     0
370
    -2
100
AcDbLine
 10
51.0875
 20
0.0000000000000546
 30
0.0
 11
66.072
 21
0.0000000000000504
 31
0.0
  0
LINE
  5
6CF
330
6AD
100
AcDbEntity
  8
AREA2
 62
     0
370
    -2
100
AcDbLine
 10
61.5
 20
14.7320000000001
 30
0.0
 11
61.50000000000001
 21
19.30400000000011
 31
0.0
  0
LINE
  5
6D0
330
6AD
100
AcDbEntity
  8
AREA2
 62
     0
370
    -2
100
AcDbLine
 10
61.5
 20
-4.571999999999947
 30
0.0
 11
61.5
 21
-9.143999999999948
 31
0.0
  0
MTEXT
  5
6D1
330
6AD
100
AcDbEntity
  8
AREA2
 62
     0
100
AcDbMText
 10
75.30791636150775
 20
4.89466559555268
 30
0.0
 40
4.572
 41
0.0
 71
     5
 72
     1
  1
\A1;10.16 [13/32]
 11
0.0000000000000001
 21
1.0
 31
0.0
 73
     1
 44
1.0
1001
ACAD
1000
MTEXTBEGIN
1070
    73
1070
     1
1070
    44
1040
1.0
1070
    74
1070
     0
1000
MTEXTEND
  0
SOLID
  5
6D2
330
6AD
100
AcDbEntity
  8
AREA2
 62
     0
100
AcDbTrace
 10
60.738
 20
14.7320000000001
 30
0.0
 11
62.262
 21
14.7320000000001
 31
0.0
 12
61.5
 22
10.1600000000001
 32
0.0
 13
61.5
 23
10.1600000000001
 33
0.0
  0
SOLID
  5
6D3
330
6AD
100
AcDbEntity
  8
AREA2
 62
     0
100
AcDbTrace
 10
60.738
 20
-4.571999999999947
 30
0.0
 11
62.262
 21
-4.571999999999948
 31
0.0
 12
61.5
 22
0.0000000000000517
 32
0.0
 13
61.5
 23
0.0000000000000517
 33
0.0
  0
POINT
  5
6D4
330
6AD
100
AcDbEntity
  8
DEFPOINTS
 62
     0
100
AcDbPoint
 10
49.33598619584166
 20
10.16000000000011
 30
0.0
  0
POINT
  5
6D5
330
6AD
100
AcDbEntity
  8
DEFPOINTS
 62
     0
100
AcDbPoint
 10
49.5
 20
0.0000000000000551
 30
0.0
  0
POINT
  5
6D6
330
6AD
100
AcDbEntity
  8
DEFPOINTS
 62
     0
100
AcDbPoint
 10
61.5
 20
0.0000000000000517
 30
0.0
  0
ENDBLK
  5
6B9
330
6AD
100
AcDbEntity
  8
0
100
AcDbBlockEnd
  0
ENDSEC
  0
SECTION
  2
ENTITIES
  0
LINE
  5
67B
330
478
100
AcDbEntity
  8
SCALE
100
AcDbLine
 10
-43.26915829407454
 20
-489.8551887707208
 30
0.0000000000001101
 11
-17.8691582940745
 21
-489.8551887707208
 31
0.0000000000001101
  0
LINE
  5
67C
330
478
100
AcDbEntity
  8
SCALE
100
AcDbLine
 10
-17.8691582940745
 20
-489.8551887707208
 30
0.0000000000001101
 11
-17.8691582940745
 21
-492.3951887707208
 31
0.0000000000001101
  0
LINE
  5
67D
330
478
100
AcDbEntity
  8
SCALE
100
AcDbLine
 10
-17.8691582940745
 20
-492.3951887707208
 30
0.0000000000001101
 11
-17.8691582940745
 21
-487.3151887707208
 31
0.0000000000001101
  0
LINE
  5
67E
330
478
100
AcDbEntity
  8
SCALE
100
AcDbLine
 10
-43.26915829407454
 20
-492.3951887707208
 30
0.0000000000001101
 11
-43.26915829407454
 21
-487.3151887707208
 31
0.0000000000001101
  0
LINE
  5
67F
330
478
100
AcDbEntity
  8
SCALE
100
AcDbLine
 10
-43.26915829407442
 20
-484.6687650334275
 30
0.0000000000001101
 11
-43.26915829407442
 21
-479.5887650334275
 31
0.0000000000001101
  0
LINE
  5
680
330
478
100
AcDbEntity
  8
SCALE
100
AcDbLine
 10
-33.26917829407443
 20
-484.6687650334275
 30
0.0000000000001101
 11
-33.26917829407443
 21
-479.5887650334275
 31
0.0000000000001101
  0
LINE
  5
681
330
478
100
AcDbEntity
  8
SCALE
100
AcDbLine
 10
-43.26915829407442
 20
-482.1287650334276
 30
0.0000000000001101
 11
-33.26917829407443
 21
-482.1287650334276
 31
0.0000000000001101
  0
TEXT
  5
682
330
478
100
AcDbEntity
  8
SCALE
100
AcDbText
 10
-41.7598355533006
 20
-480.966978043465
 30
0.0000000000001101
 40
1.587499999999999
  1
10 mm
100
AcDbText
  0
TEXT
  5
683
330
478
100
AcDbEntity
  8
SCALE
100
AcDbText
 10
-35.67126556098651
 20
-488.1013519082414
 30
0.0000000000001101
 40
1.587499999999999
  1
[1 Inch]
100
AcDbText
  0
TEXT
  5
684
330
478
100
AcDbEntity
  8
SCALE
100
AcDbText
 10
-43.46307421394516
 20
-476.5952274185757
 30
0.0000000000001101
 40
1.587499999999999
  1
SCALE:
100
AcDbText
  0
LWPOLYLINE
  5
685
330
478
100
AcDbEntity
  8
SCALE
100
AcDbPolyline
 90
        4
 70
     1
 43
0.0
 10
-44.9751090225667
 20
-473.9231170038384
 10
-16.13013700620058
 20
-473.9231170038384
 10
-16.13013700620058
 20
-495.3
 10
-44.9751090225667
 20
-495.3
  0
INSERT
  5
686
330
478
100
AcDbEntity
  8
0
100
AcDbBlockReference
  2
440L-AGWS0480
 10
24.75
 20
10.16
 30
247.65
210
0.0
220
-1.0
230
0.0000000000000002
1001
ACADSTEP
1000
ID
1002
{
1000
439
1002
}
  0
POINT
  5
687
330
478
100
AcDbEntity
  8
DIMS-MTG-HOLES
100
AcDbPoint
 10
0.0
 20
0.0
 30
0.0
  0
DIMENSION
  5
688
330
478
100
AcDbEntity
  8
AREA1
100
AcDbDimension
  2
*D2
 10
49.5
 20
12.0
 30
0.0
 11
24.75
 21
37.715
 31
0.0
 70
    32
  1
<>[]
 71
     5
 42
49.5
  3
ABECAD_3D$0
100
AcDbAlignedDimension
 13
0.0
 23
0.0
 33
0.0
 14
49.5
 24
0.0
 34
0.0
100
AcDbRotatedDimension
1001
ACAD
1000
DSTYLE
1002
{
1070
   140
1040
20.0
1002
}
  0
DIMENSION
  5
689
330
478
100
AcDbEntity
  8
AREA1
100
AcDbDimension
  2
*D3
 10
71.8695525627001
 20
-495.3
 30
0.0
 11
71.86955256270021
 21
-247.65
 31
0.0
 70
    32
 71
     5
 42
495.3
  3
ABECAD_3D$0
100
AcDbAlignedDimension
 13
49.5
 23
0.0
 33
0.0
 14
49.5
 24
-495.3
 34
0.0
 50
90.0
100
AcDbRotatedDimension
1001
ACAD
1000
DSTYLE
1002
{
1070
   140
1040
20.0
1002
}
  0
DIMENSION
  5
68A
330
478
100
AcDbEntity
  8
AREA2
100
AcDbDimension
  2
*D4
 10
61.5
 20
0.0
 30
0.0000000000000517
 11
75.30791636150775
 21
4.89466559555268
 31
0.0
 70
   160
  1
<>[]
 71
     5
 42
10.16000000000005
210
0.0
220
-1.0
230
0.0
  3
ABECAD_3D$0
100
AcDbAlignedDimension
 13
49.33598619584166
 23
0.0
 33
10.16000000000011
 14
49.5
 24
0.0
 34
0.0000000000000551
 50
90.0
100
AcDbRotatedDimension
  0
ATTDEF
  5
68B
330
478
100
AcDbEntity
  8
ATTRIBUTES
100
AcDbText
 10
4.165243396541768
 20
-269.1162374879236
 30
0.0000000000001101
 40
3.047999999999999
  1
1
100
AcDbAttributeDefinition
  3
VIEW CODE?
  2
AC_VIEW_CODE
 70
     1
  0
ATTDEF
  5
68C
330
478
100
AcDbEntity
  8
ATTRIBUTES
100
AcDbText
 10
4.165243396541768
 20
-262.7662374879236
 30
0.0000000000001101
 40
3.047999999999999
  1
MM
100
AcDbAttributeDefinition
  3
UNIT OF SCALE?
  2
AC_SCALE_UNIT
 70
     1
  0
ATTDEF
  5
68D
330
478
100
AcDbEntity
  8
ATTRIBUTES
100
AcDbText
 10
4.165243396541768
 20
-256.4162374879237
 30
0.0000000000001101
 40
3.047999999999999
  1

100
AcDbAttributeDefinition
  3
FASTENER DATA?
  2
FASTENER
 70
     1
  0
ATTDEF
  5
68E
330
478
100
AcDbEntity
  8
ATTRIBUTES
100
AcDbText
 10
4.165243396541768
 20
-250.0662374879237
 30
0.0000000000001101
 40
3.047999999999999
  1

100
AcDbAttributeDefinition
  3
CUSTOMER NOTE?
  2
AC_NOTE
 70
     1
  0
ATTDEF
  5
68F
330
478
100
AcDbEntity
  8
ATTRIBUTES
100
AcDbText
 10
4.165243396541768
 20
-243.7162374879236
 30
0.0000000000001101
 40
3.047999999999999
  1

100
AcDbAttributeDefinition
  3
CUSTOMER PART NUMBER?
  2
AC_CPART_NO
 70
     1
  0
ATTDEF
  5
690
330
478
100
AcDbEntity
  8
ATTRIBUTES
100
AcDbText
 10
4.165243396541768
 20
-237.3662374879237
 30
0.0000000000001101
 40
3.047999999999999
  1

100
AcDbAttributeDefinition
  3
DEVICE ID?
  2
DEVICE_ID
 70
     1
  0
ATTDEF
  5
691
330
478
100
AcDbEntity
  8
ATTRIBUTES
100
AcDbText
 10
4.165243396541768
 20
-231.0162374879237
 30
0.0000000000001101
 40
3.047999999999999
  1
GuardShield weld shield, 480mm protective height
100
AcDbAttributeDefinition
  3
PART DESCRIPTION?
  2
AC_DESCRIPTION
 70
     1
  0
ATTDEF
  5
692
330
478
100
AcDbEntity
  8
ATTRIBUTES
100
AcDbText
 10
4.165243396541768
 20
-224.6662374879237
 30
0.0000000000001101
 40
3.047999999999999
  1
440L-AGWS0480
100
AcDbAttributeDefinition
  3
CATALOG NUMBER?
  2
AC_PART_NO
 70
     1
  0
ATTDEF
  5
693
330
478
100
AcDbEntity
  8
ATTRIBUTES
100
AcDbText
 10
4.165243396541768
 20
-218.3162374879237
 30
0.0000000000001101
 40
3.047999999999999
  1
ALLEN-BRADLEY
100
AcDbAttributeDefinition
  3
MANUFACTURER NAME?
  2
AC_VND_LABEL
 70
     1
  0
VIEWPORT
  5
2C
102
{ACAD_XDICTIONARY
360
6EE
102
}
330
475
100
AcDbEntity
 67
     1
  8
0
100
AcDbViewport
 10
4.999848735001139
 20
3.750155361494945
 30
0.0
 40
17.37504786665547
 41
7.587743928174099
 68
     1
 69
     1
 12
4.999848735001139
 22
3.750155361494945
 13
0.0
 23
0.0
 14
1.0
 24
1.0
 15
0.0
 25
0.0
 16
0.0
 26
0.0
 36
1.0
 17
0.0
 27
0.0
 37
0.0
 42
50.0
 43
0.0
 44
0.0
 45
7.587743928174099
 50
0.0
 51
0.0
 72
   100
 90
    32800
  1

281
     0
 71
     1
 74
     0
110
0.0
120
0.0
130
0.0
111
1.0
121
0.0
131
0.0
112
0.0
122
1.0
132
0.0
 79
     0
146
0.0
  0
VIEWPORT
  5
2D
102
{ACAD_XDICTIONARY
360
6F0
102
}
330
475
100
AcDbEntity
 67
     1
  8
0
100
AcDbViewport
 10
2.5
 20
5.625
 30
0.0
 40
5.0
 41
3.75
 68
     2
 69
     2
 12
24.75000116418877
 22
-223.792497471312
 13
0.0
 23
0.0
 14
1.0
 24
1.0
 15
0.0
 25
0.0
 16
0.0
 26
0.0
 36
1.0
 17
0.0
 27
0.0
 37
0.0
 42
50.0
 43
0.0
 44
0.0
 45
557.8925958891725
 50
0.0
 51
0.0
 72
   100
341
486
 90
    32768
  1

281
     0
 71
     1
 74
     0
110
0.0
120
0.0
130
0.0
111
1.0
121
0.0
131
0.0
112
0.0
122
1.0
132
0.0
 79
     0
146
0.0
1001
GENIUS_GENSCREG_15
1000
PF
1040
0.0
1000
DF
1040
0.0
1000
MIN
1011
0.0
1021
3.75
1031
0.0
1000
MAX
1011
5.0
1021
7.5
1031
0.0
1000
FLAGS
1070
     4
1001
GENIUS_GENODEF_13
1002
{
1000
HIER
1070
     0
1002
}
1002
{
1000
MANEDIT
1070
     0
1002
}
1002
{
1000
NOSEL
1070
     0
1002
}
1002
{
1000
BEHIND
1070
     0
1002
}
1002
{
1000
OTHER
1070
     0
1002
}
1002
{
1000
REACTOR
1002
}
1001
GENIUS_GENOBJ-N-SDF_13
1002
{
1000
OWNER
1000
GEN
1002
}
  0
VIEWPORT
  5
2E
102
{ACAD_XDICTIONARY
360
6F2
102
}
330
475
100
AcDbEntity
 67
     1
  8
0
100
AcDbViewport
 10
2.5
 20
1.875
 30
0.0
 40
5.0
 41
3.75
 68
     3
 69
     3
 12
39.98764001273444
 22
7.375419694830153
 13
0.0
 23
0.0
 14
1.0
 24
1.0
 15
0.0
 25
0.0
 16
0.0
 26
-1.0
 36
0.0
 17
0.0
 27
0.0
 37
0.0
 42
50.0
 43
0.0
 44
0.0
 45
67.84388342356987
 50
0.0
 51
0.0
 72
   100
341
485
 90
    32768
  1

281
     0
 71
     1
 74
     0
110
0.0
120
0.0
130
0.0
111
1.0
121
0.0
131
0.0
112
0.0
122
1.0
132
0.0
 79
     0
146
0.0
1001
GENIUS_GENSCREG_15
1000
PF
1040
0.0
1000
DF
1040
0.0
1000
MIN
1011
0.0
1021
0.0
1031
0.0
1000
MAX
1011
5.0
1021
3.75
1031
0.0
1000
FLAGS
1070
     4
1001
GENIUS_GENODEF_13
1002
{
1000
HIER
1070
     0
1002
}
1002
{
1000
MANEDIT
1070
     0
1002
}
1002
{
1000
NOSEL
1070
     0
1002
}
1002
{
1000
BEHIND
1070
     0
1002
}
1002
{
1000
OTHER
1070
     0
1002
}
1002
{
1000
REACTOR
1002
}
1001
GENIUS_GENOBJ-N-SDF_13
1002
{
1000
OWNER
1000
GEN
1002
}
  0
VIEWPORT
  5
2F
102
{ACAD_XDICTIONARY
360
6F4
102
}
330
475
100
AcDbEntity
 67
     1
  8
0
100
AcDbViewport
 10
7.5
 20
3.75
 30
0.0
 40
5.0
 41
7.5
 68
     4
 69
     4
 12
191.2537959221514
 22
111.5803733576252
 13
0.0
 23
0.0
 14
1.0
 24
1.0
 15
0.0
 25
0.0
 16
-1.0
 26
-1.0
 36
1.0
 17
0.0
 27
0.0
 37
0.0
 42
50.0
 43
0.0
 44
0.0
 45
683.5547740131306
 50
0.0
 51
0.0
 72
   100
341
485
341
486
 90
    32768
  1

281
     0
 71
     1
 74
     0
110
0.0
120
0.0
130
0.0
111
1.0
121
0.0
131
0.0
112
0.0
122
1.0
132
0.0
 79
     0
146
0.0
1001
GENIUS_GENSCREG_15
1000
PF
1040
0.0
1000
DF
1040
0.0
1000
MIN
1011
5.0
1021
0.0
1031
0.0
1000
MAX
1011
10.0
1021
7.5
1031
0.0
1000
FLAGS
1070
     4
1001
GENIUS_GENOBJ-N-SDF_13
1002
{
1000
OWNER
1000
GEN
1002
}
1001
GENIUS_GENODEF_13
1002
{
1000
HIER
1070
     0
1002
}
1002
{
1000
MANEDIT
1070
     0
1002
}
1002
{
1000
NOSEL
1070
     0
1002
}
1002
{
1000
BEHIND
1070
     0
1002
}
1002
{
1000
OTHER
1070
     0
1002
}
1002
{
1000
REACTOR
1002
}
  0
TEXT
  5
42D
330
475
100
AcDbEntity
 67
     1
  8
0
100
AcDbText
 10
5.253784560170537
 20
7.092700857601182
 30
0.0
 40
0.2
  1
440L-AGWS0480
100
AcDbText
  0
TEXT
  5
431
330
475
100
AcDbEntity
 67
     1
  8
0
100
AcDbText
 10
5.253784560170537
 20
6.759367524267849
 30
0.0
 40
0.2
  1
GuardShield weld shield
100
AcDbText
1001
ACAD
1000
R13OBJECT
1002
{
1005
42D
1002
}
  0
TEXT
  5
6EA
330
475
100
AcDbEntity
 67
     1
  8
0
100
AcDbText
 10
5.253784560170537
 20
6.428600698244116
 30
0.0
 40
0.2
  1
480mm protective height
100
AcDbText
1001
ACAD
1000
R13OBJECT
1002
{
1005
42D
1002
}
  0
ENDSEC
  0
SECTION
  2
OBJECTS
  0
DICTIONARY
  5
46D
330
0
100
AcDbDictionary
281
     1
  3
ACAD_COLOR
350
56D
  3
ACAD_GROUP
350
46E
  3
ACAD_LAYOUT
350
49E
  3
ACAD_MATERIAL
350
56C
  3
ACAD_MLINESTYLE
350
47B
  3
ACAD_PLOTSETTINGS
350
49F
  3
ACAD_PLOTSTYLENAME
350
49C
  3
ACAD_TABLESTYLE
350
56E
  3
ACDBVARIABLEDICTIONARY
350
48D
  3
AcmDictionary
350
5CD
  3
AMG
350
573
  3
AMGSNAPSETTINGS
350
6D8
  3
DWGPROPS
350
6EC
  0
DICTIONARY
  5
4D7
330
478
100
AcDbDictionary
280
     1
281
     1
  3
ACAD_LAYOUTSELFREF
360
550
  0
DICTIONARY
  5
4D5
330
475
100
AcDbDictionary
280
     1
281
     1
  3
ACAD_LAYOUTSELFREF
360
54F
  0
DICTIONARY
  5
6EE
330
2C
100
AcDbDictionary
280
     1
281
     1
  3
ACAD_XREC_ROUNDTRIP
360
6EF
  0
DICTIONARY
  5
6F0
330
2D
100
AcDbDictionary
280
     1
281
     1
  3
ACAD_XREC_ROUNDTRIP
360
6F1
  0
DICTIONARY
  5
6F2
330
2E
100
AcDbDictionary
280
     1
281
     1
  3
ACAD_XREC_ROUNDTRIP
360
6F3
  0
DICTIONARY
  5
6F4
330
2F
100
AcDbDictionary
280
     1
281
     1
  3
ACAD_XREC_ROUNDTRIP
360
6F5
  0
DICTIONARY
  5
56D
102
{ACAD_REACTORS
330
46D
102
}
330
46D
100
AcDbDictionary
281
     1
  0
DICTIONARY
  5
46E
102
{ACAD_REACTORS
330
46D
102
}
330
46D
100
AcDbDictionary
281
     1
  0
DICTIONARY
  5
49E
102
{ACAD_REACTORS
330
46D
102
}
330
46D
100
AcDbDictionary
281
     1
  3
Layout1
350
4A1
  3
Model
350
4A0
  0
DICTIONARY
  5
56C
102
{ACAD_REACTORS
330
46D
102
}
330
46D
100
AcDbDictionary
281
     1
  0
DICTIONARY
  5
47B
102
{ACAD_REACTORS
330
46D
102
}
330
46D
100
AcDbDictionary
281
     1
  3
STANDARD
350
47C
  0
DICTIONARY
  5
49F
102
{ACAD_REACTORS
330
46D
102
}
330
46D
100
AcDbDictionary
281
     1
  0
ACDBDICTIONARYWDFLT
  5
49C
102
{ACAD_REACTORS
330
46D
102
}
330
46D
100
AcDbDictionary
281
     1
  3
Normal
350
49D
100
AcDbDictionaryWithDefault
340
49D
  0
DICTIONARY
  5
56E
102
{ACAD_REACTORS
330
46D
102
}
330
46D
100
AcDbDictionary
281
     1
  3
Standard
350
56F
  0
DICTIONARY
  5
48D
102
{ACAD_REACTORS
330
46D
102
}
330
46D
100
AcDbDictionary
281
     1
  3
CTABLESTYLE
350
6FA
  3
DIMADEC
350
48E
  3
DIMASSOC
350
6FB
  3
PROJECTNAME
350
6FC
  0
DICTIONARY
  5
5CD
102
{ACAD_REACTORS
330
46D
102
}
330
46D
100
AcDbDictionary
281
     1
  3
AcmStdDictionary
350
5D8
  3
AMDTSECTSYM_ARROWCOLOR
350
5F6
  0
DICTIONARY
  5
573
102
{ACAD_REACTORS
330
46D
102
}
330
46D
100
AcDbDictionary
281
     1
  0
DICTIONARY
  5
6D8
102
{ACAD_REACTORS
330
46D
102
}
330
46D
100
AcDbDictionary
281
     1
  0
XRECORD
  5
6EC
102
{ACAD_REACTORS
330
46D
102
}
330
46D
100
AcDbXrecord
280
     1
  1
DWGPROPS COOKIE
  2

  3

  4

  6

  7

  8
colin
  9

300
=
301
=
302
=
303
=
304
=
305
=
306
=
307
=
308
=
309
=
 40
0.0015955671296296
 41
2454553.633219872
 42
2454553.634815208
  1

 90
        0
  0
XRECORD
  5
550
102
{ACAD_REACTORS
330
4D7
102
}
330
4D7
100
AcDbXrecord
280
     1
340
478
  0
XRECORD
  5
54F
102
{ACAD_REACTORS
330
4D5
102
}
330
4D5
100
AcDbXrecord
280
     1
340
475
  0
XRECORD
  5
6EF
102
{ACAD_REACTORS
330
6EE
102
}
330
6EE
100
AcDbXrecord
280
     1
102
SHADEPLOT
 70
     0
  0
XRECORD
  5
6F1
102
{ACAD_REACTORS
330
6F0
102
}
330
6F0
100
AcDbXrecord
280
     1
102
SHADEPLOT
 70
     0
  0
XRECORD
  5
6F3
102
{ACAD_REACTORS
330
6F2
102
}
330
6F2
100
AcDbXrecord
280
     1
102
SHADEPLOT
 70
     0
  0
XRECORD
  5
6F5
102
{ACAD_REACTORS
330
6F4
102
}
330
6F4
100
AcDbXrecord
280
     1
102
SHADEPLOT
 70
     0
  0
LAYOUT
  5
4A1
102
{ACAD_XDICTIONARY
360
6F8
102
}
102
{ACAD_REACTORS
330
49E
102
}
330
49E
100
AcDbPlotSettings
  1

  2
HP LaserJet 5000 Series PCL 6
  4
Letter
  6

 40
5.027083396911621
 41
5.027085304260253
 42
5.027084350585937
 43
5.027069091796875
 44
215.8999938964843
 45
279.3999938964843
 46
0.0
 47
0.0
 48
0.0
 49
0.0
140
0.0
141
0.0
142
1.0
143
0.9431406338833355
 70
   688
 72
     0
 73
     1
 74
     1
  7
Default R14 pen assignments.ctb
 75
     0
147
1.060287261595917
148
0.0093010481555598
149
0.0069757861166223
100
AcDbLayout
  1
Layout1
 70
     1
 71
     1
 10
-0.1870289046444169
 20
-0.1869378900655213
 11
10.18751784143945
 21
7.829757271310011
 12
0.0
 22
0.0
 32
0.0
 14
0.0
 24
0.0
 34
0.0
 15
10.0
 25
7.5
 35
0.0
146
0.0
 13
0.0
 23
0.0
 33
0.0
 16
1.0
 26
0.0
 36
0.0
 17
0.0
 27
1.0
 37
0.0
 76
     0
330
475
331
2C
  0
LAYOUT
  5
4A0
102
{ACAD_XDICTIONARY
360
6F6
102
}
102
{ACAD_REACTORS
330
49E
102
}
330
49E
100
AcDbPlotSettings
  1

  2
HP LaserJet 5000 Series PCL 6
  4

  6

 40
0.0
 41
0.0
 42
0.0
 43
0.0
 44
0.0
 45
0.0
 46
0.0
 47
0.0
 48
0.0
 49
0.0
140
0.0
141
0.0
142
1.0
143
1.0
 70
  1712
 72
     0
 73
     0
 74
     0
  7
Default R14 pen assignments.ctb
 75
     0
147
1.0
148
0.0
149
0.0
100
AcDbLayout
  1
Model
 70
     1
 71
     0
 10
0.0
 20
0.0
 11
12.0
 21
9.0
 12
0.0
 22
0.0
 32
0.0
 14
0.0
 24
0.0
 34
0.0
 15
0.0
 25
0.0
 35
0.0
146
0.0
 13
0.0
 23
0.0
 33
0.0
 16
1.0
 26
0.0
 36
0.0
 17
0.0
 27
1.0
 37
0.0
 76
     0
330
478
  0
MLINESTYLE
  5
47C
102
{ACAD_REACTORS
330
47B
102
}
330
47B
100
AcDbMlineStyle
  2
STANDARD
 70
     0
  3

 62
   256
 51
90.0
 52
90.0
 71
     2
 49
0.5
 62
   256
  6
BYLAYER
 49
-0.5
 62
   256
  6
BYLAYER
  0
ACDBPLACEHOLDER
  5
49D
102
{ACAD_REACTORS
330
49C
102
}
330
49C
  0
ACAD_PROXY_OBJECT
  5
56F
102
{ACAD_REACTORS
330
56E
102
}
330
56E
100
AcDbProxyObject
 90
      499
 91
      516
 95
   393239
 70
     0
 93
     1841
310
4214DD185B99185C9928000000000000F83F0000000000003E0FC00000000000004901028000000C1008070000C3001FDFF8000000C1003FBFF000000182007F7FE00000030400FEFFC00000060801FDFF8000000C1003FBFF000000182000000000000000C2020B0000001820100E000186003FBFF000000182007F7FE000
310
00030400FEFFC00000060801FDFF8000000C1003FBFF000000182007F7FE0000003040000000000000012404160000003040201C00030C007F7FE00000030400FEFFC00000060801FDFF8000000C1003FBFF000000182007F7FE00000030400FEFFC00000060803D
340
470
340
470
340
470
 94
        0
  0
DICTIONARYVAR
  5
6FA
102
{ACAD_REACTORS
330
48D
102
}
330
48D
100
DictionaryVariables
280
     0
  1
STANDARD
  0
DICTIONARYVAR
  5
48E
102
{ACAD_REACTORS
330
48D
102
}
330
48D
100
DictionaryVariables
280
     0
  1
0
  0
DICTIONARYVAR
  5
6FB
102
{ACAD_REACTORS
330
48D
102
}
330
48D
100
DictionaryVariables
280
     0
  1
1
  0
DICTIONARYVAR
  5
6FC
102
{ACAD_REACTORS
330
48D
102
}
330
48D
100
DictionaryVariables
280
     0
  1

  0
DICTIONARY
  5
5D8
102
{ACAD_REACTORS
330
5CD
102
}
330
5CD
100
AcDbDictionary
281
     1
  0
XRECORD
  5
5F6
102
{ACAD_REACTORS
330
5CD
102
}
330
5CD
100
AcDbXrecord
280
     1
 90
-1023410169
  0
DICTIONARY
  5
6F8
330
4A1
100
AcDbDictionary
280
     1
281
     1
  3
ACAD_XREC_ROUNDTRIP
360
6F9
  0
DICTIONARY
  5
6F6
330
4A0
100
AcDbDictionary
280
     1
281
     1
  3
ACAD_XREC_ROUNDTRIP
360
6F7
  0
XRECORD
  5
6F9
102
{ACAD_REACTORS
330
6F8
102
}
330
6F8
100
AcDbXrecord
280
     1
102
SHADEPLOT
 70
     0
102
SHADEPLOTRESLEVEL
 70
     2
102
SHADEPLOTCUSTOMDPI
 70
   300
  0
XRECORD
  5
6F7
102
{ACAD_REACTORS
330
6F6
102
}
330
6F6
100
AcDbXrecord
280
     1
102
SHADEPLOT
 70
     0
102
SHADEPLOTRESLEVEL
 70
     2
102
SHADEPLOTCUSTOMDPI
 70
   300
  0
ENDSEC
  0
EOF
