  0
SECTION
  2
HEADER
  9
$ACADVER
  1
AC1014
  9
$ACADMAINTVER
 70
     8
  9
$DWGCODEPAGE
  3
ANSI_1252
  9
$INSBASE
 10
0.0
 20
0.0
 30
0.0
  9
$EXTMIN
 10
-1.444572
 20
-0.65625
 30
-1.3125
  9
$EXTMAX
 10
2.228846
 20
1.060029
 30
0.125
  9
$LIMMIN
 10
0.0
 20
0.0
  9
$LIMMAX
 10
12.0
 20
9.0
  9
$ORTHOMODE
 70
     0
  9
$REGENMODE
 70
     1
  9
$FILLMODE
 70
     1
  9
$QTEXTMODE
 70
     0
  9
$MIRRTEXT
 70
     1
  9
$DRAGMODE
 70
     2
  9
$LTSCALE
 40
1.0
  9
$OSMODE
 70
    37
  9
$ATTMODE
 70
     1
  9
$TEXTSIZE
 40
0.12
  9
$TRACEWID
 40
0.05
  9
$TEXTSTYLE
  7
STANDARD
  9
$CLAYER
  8
0
  9
$CELTYPE
  6
BYLAYER
  9
$CECOLOR
 62
   256
  9
$CELTSCALE
 40
1.0
  9
$DELOBJ
 70
     1
  9
$DISPSILH
 70
     0
  9
$DIMSCALE
 40
1.0
  9
$DIMASZ
 40
0.1
  9
$DIMEXO
 40
0.1
  9
$DIMDLI
 40
0.375
  9
$DIMRND
 40
0.0
  9
$DIMDLE
 40
0.0
  9
$DIMEXE
 40
0.1
  9
$DIMTP
 40
0.0
  9
$DIMTM
 40
0.0
  9
$DIMTXT
 40
0.1
  9
$DIMCEN
 40
0.09
  9
$DIMTSZ
 40
0.0
  9
$DIMTOL
 70
     0
  9
$DIMLIM
 70
     0
  9
$DIMTIH
 70
     0
  9
$DIMTOH
 70
     1
  9
$DIMSE1
 70
     0
  9
$DIMSE2
 70
     0
  9
$DIMTAD
 70
     0
  9
$DIMZIN
 70
     4
  9
$DIMBLK
  1

  9
$DIMASO
 70
     1
  9
$DIMSHO
 70
     1
  9
$DIMPOST
  1

  9
$DIMAPOST
  1

  9
$DIMALT
 70
     1
  9
$DIMALTD
 70
     2
  9
$DIMALTF
 40
25.4
  9
$DIMLFAC
 40
1.0
  9
$DIMTOFL
 70
     0
  9
$DIMTVP
 40
0.0
  9
$DIMTIX
 70
     0
  9
$DIMSOXD
 70
     0
  9
$DIMSAH
 70
     0
  9
$DIMBLK1
  1

  9
$DIMBLK2
  1

  9
$DIMSTYLE
  2
ABECAD_3D
  9
$DIMCLRD
 70
     0
  9
$DIMCLRE
 70
     0
  9
$DIMCLRT
 70
     0
  9
$DIMTFAC
 40
1.5
  9
$DIMGAP
 40
0.09
  9
$DIMJUST
 70
     0
  9
$DIMSD1
 70
     0
  9
$DIMSD2
 70
     0
  9
$DIMTOLJ
 70
     1
  9
$DIMTZIN
 70
     4
  9
$DIMALTZ
 70
     4
  9
$DIMALTTZ
 70
     4
  9
$DIMFIT
 70
     5
  9
$DIMUPT
 70
     1
  9
$DIMUNIT
 70
     7
  9
$DIMDEC
 70
     6
  9
$DIMTDEC
 70
     6
  9
$DIMALTU
 70
     2
  9
$DIMALTTD
 70
     2
  9
$DIMTXSTY
  7
STANDARD
  9
$DIMAUNIT
 70
     0
  9
$LUNITS
 70
     2
  9
$LUPREC
 70
     4
  9
$SKETCHINC
 40
0.1
  9
$FILLETRAD
 40
0.0
  9
$AUNITS
 70
     0
  9
$AUPREC
 70
     0
  9
$MENU
  1
ACAD
  9
$ELEVATION
 40
0.0
  9
$PELEVATION
 40
0.0
  9
$THICKNESS
 40
0.0
  9
$LIMCHECK
 70
     0
  9
$BLIPMODE
 70
     0
  9
$CHAMFERA
 40
0.0
  9
$CHAMFERB
 40
0.0
  9
$CHAMFERC
 40
0.0
  9
$CHAMFERD
 40
0.0
  9
$SKPOLY
 70
     0
  9
$TDCREATE
 40
2451726.438389120
  9
$TDUPDATE
 40
2452100.672046990
  9
$TDINDWG
 40
1.4440707176
  9
$TDUSRTIMER
 40
1.4440707176
  9
$USRTIMER
 70
     1
  9
$ANGBASE
 50
0.0
  9
$ANGDIR
 70
     0
  9
$PDMODE
 70
     3
  9
$PDSIZE
 40
0.09
  9
$PLINEWID
 40
0.0
  9
$COORDS
 70
     1
  9
$SPLFRAME
 70
     1
  9
$SPLINETYPE
 70
     6
  9
$SPLINESEGS
 70
     8
  9
$ATTDIA
 70
     0
  9
$ATTREQ
 70
     1
  9
$HANDLING
 70
     1
  9
$HANDSEED
  5
AC2E0
  9
$SURFTAB1
 70
     6
  9
$SURFTAB2
 70
     6
  9
$SURFTYPE
 70
     6
  9
$SURFU
 70
     6
  9
$SURFV
 70
     6
  9
$UCSNAME
  2

  9
$UCSORG
 10
0.0
 20
0.0
 30
0.0
  9
$UCSXDIR
 10
1.0
 20
0.0
 30
0.0
  9
$UCSYDIR
 10
0.0
 20
1.0
 30
0.0
  9
$PUCSNAME
  2

  9
$PUCSORG
 10
0.0
 20
0.0
 30
0.0
  9
$PUCSXDIR
 10
1.0
 20
0.0
 30
0.0
  9
$PUCSYDIR
 10
0.0
 20
1.0
 30
0.0
  9
$USERI1
 70
     0
  9
$USERI2
 70
     0
  9
$USERI3
 70
     0
  9
$USERI4
 70
     0
  9
$USERI5
 70
     0
  9
$USERR1
 40
0.0
  9
$USERR2
 40
0.0
  9
$USERR3
 40
0.0
  9
$USERR4
 40
0.0
  9
$USERR5
 40
0.0
  9
$WORLDVIEW
 70
     1
  9
$SHADEDGE
 70
     3
  9
$SHADEDIF
 70
    70
  9
$TILEMODE
 70
     1
  9
$MAXACTVP
 70
    16
  9
$PINSBASE
 10
0.0
 20
0.0
 30
0.0
  9
$PLIMCHECK
 70
     0
  9
$PEXTMIN
 10
1.05
 20
0.8
 30
0.0
  9
$PEXTMAX
 10
9.45
 20
7.2
 30
0.0
  9
$PLIMMIN
 10
-0.25
 20
-0.25
  9
$PLIMMAX
 10
10.75
 20
8.25
  9
$UNITMODE
 70
     0
  9
$VISRETAIN
 70
     0
  9
$PLINEGEN
 70
     0
  9
$PSLTSCALE
 70
     1
  9
$TREEDEPTH
 70
  3020
  9
$PICKSTYLE
 70
     1
  9
$CMLSTYLE
  2
STANDARD
  9
$CMLJUST
 70
     0
  9
$CMLSCALE
 40
1.0
  9
$PROXYGRAPHICS
 70
     1
  9
$MEASUREMENT
 70
     0
  0
ENDSEC
  0
SECTION
  2
CLASSES
  0
CLASS
  1
DICTIONARYVAR
  2
AcDbDictionaryVar
  3
"AutoCAD"
 90
        0
280
     0
281
     0
  0
CLASS
  1
ACDBDICTIONARYWDFLT
  2
AcDbDictionaryWithDefault
  3
AutoCAD 2000
 90
        0
280
     0
281
     0
  0
CLASS
  1
ACDBPLACEHOLDER
  2
AcDbPlaceHolder
  3
AutoCAD 2000
 90
        0
280
     0
281
     0
  0
CLASS
  1
LAYOUT
  2
AcDbLayout
  3
AutoCAD 2000
 90
        0
280
     0
281
     0
  0
CLASS
  1
LONG_TRANSACTION
  2
AcDbLongTransaction
  3
AutoCAD 2000
 90
        0
280
     0
281
     0
  0
CLASS
  1
LWPOLYLINE
  2
AcDbPolyline
  3
"AutoCAD"
 90
        0
280
     0
281
     1
  0
CLASS
  1
HATCH
  2
AcDbHatch
  3
"ACAD_SEDONA"
 90
        0
280
     0
281
     1
  0
CLASS
  1
XRECORD
  2
AcDbXrecord
  3
"<Built In>"
 90
        0
280
     0
281
     0
  0
CLASS
  1
LONG_TRANSACTION
  2
AcDbLongTransaction
  3
AutoCAD 2000
 90
        0
280
     0
281
     0
  0
CLASS
  1
LWPOLYLINE
  2
AcDbPolyline
  3
"AutoCAD"
 90
        0
280
     0
281
     1
  0
CLASS
  1
HATCH
  2
AcDbHatch
  3
"ACAD_SEDONA"
 90
        0
280
     0
281
     1
  0
CLASS
  1
XRECORD
  2
AcDbXrecord
  3
"<Built In>"
 90
        0
280
     0
281
     0
  0
CLASS
  1
LONG_TRANSACTION
  2
AcDbLongTransaction
  3
AutoCAD 2000
 90
        0
280
     0
281
     0
  0
CLASS
  1
LWPOLYLINE
  2
AcDbPolyline
  3
"AutoCAD"
 90
        0
280
     0
281
     1
  0
CLASS
  1
HATCH
  2
AcDbHatch
  3
"ACAD_SEDONA"
 90
        0
280
     0
281
     1
  0
CLASS
  1
XRECORD
  2
AcDbXrecord
  3
"<Built In>"
 90
        0
280
     0
281
     0
  0
CLASS
  1
LONG_TRANSACTION
  2
AcDbLongTransaction
  3
AutoCAD 2000
 90
        0
280
     0
281
     0
  0
CLASS
  1
LWPOLYLINE
  2
AcDbPolyline
  3
"AutoCAD"
 90
        0
280
     0
281
     1
  0
CLASS
  1
HATCH
  2
AcDbHatch
  3
"ACAD_SEDONA"
 90
        0
280
     0
281
     1
  0
CLASS
  1
XRECORD
  2
AcDbXrecord
  3
"<Built In>"
 90
        0
280
     0
281
     0
  0
CLASS
  1
LONG_TRANSACTION
  2
AcDbLongTransaction
  3
AutoCAD 2000
 90
        0
280
     0
281
     0
  0
CLASS
  1
LWPOLYLINE
  2
AcDbPolyline
  3
"AutoCAD"
 90
        0
280
     0
281
     1
  0
CLASS
  1
HATCH
  2
AcDbHatch
  3
"ACAD_SEDONA"
 90
        0
280
     0
281
     1
  0
CLASS
  1
XRECORD
  2
AcDbXrecord
  3
"<Built In>"
 90
        0
280
     0
281
     0
  0
CLASS
  1
LONG_TRANSACTION
  2
AcDbLongTransaction
  3
AutoCAD 2000
 90
        0
280
     0
281
     0
  0
CLASS
  1
LWPOLYLINE
  2
AcDbPolyline
  3
"AutoCAD"
 90
        0
280
     0
281
     1
  0
CLASS
  1
HATCH
  2
AcDbHatch
  3
"ACAD_SEDONA"
 90
        0
280
     0
281
     1
  0
CLASS
  1
XRECORD
  2
AcDbXrecord
  3
"<Built In>"
 90
        0
280
     0
281
     0
  0
CLASS
  1
LONG_TRANSACTION
  2
AcDbLongTransaction
  3
AutoCAD 2000
 90
        0
280
     0
281
     0
  0
CLASS
  1
LWPOLYLINE
  2
AcDbPolyline
  3
"AutoCAD"
 90
        0
280
     0
281
     1
  0
CLASS
  1
HATCH
  2
AcDbHatch
  3
"ACAD_SEDONA"
 90
        0
280
     0
281
     1
  0
CLASS
  1
XRECORD
  2
AcDbXrecord
  3
"<Built In>"
 90
        0
280
     0
281
     0
  0
CLASS
  1
LONG_TRANSACTION
  2
AcDbLongTransaction
  3
AutoCAD 2000
 90
        0
280
     0
281
     0
  0
CLASS
  1
LWPOLYLINE
  2
AcDbPolyline
  3
"AutoCAD"
 90
        0
280
     0
281
     1
  0
CLASS
  1
HATCH
  2
AcDbHatch
  3
"ACAD_SEDONA"
 90
        0
280
     0
281
     1
  0
CLASS
  1
XRECORD
  2
AcDbXrecord
  3
"<Built In>"
 90
        0
280
     0
281
     0
  0
CLASS
  1
LONG_TRANSACTION
  2
AcDbLongTransaction
  3
AutoCAD 2000
 90
        0
280
     0
281
     0
  0
CLASS
  1
LWPOLYLINE
  2
AcDbPolyline
  3
"AutoCAD"
 90
        0
280
     0
281
     1
  0
CLASS
  1
HATCH
  2
AcDbHatch
  3
"ACAD_SEDONA"
 90
        0
280
     0
281
     1
  0
CLASS
  1
XRECORD
  2
AcDbXrecord
  3
"<Built In>"
 90
        0
280
     0
281
     0
  0
CLASS
  1
LONG_TRANSACTION
  2
AcDbLongTransaction
  3
AutoCAD 2000
 90
        0
280
     0
281
     0
  0
CLASS
  1
LWPOLYLINE
  2
AcDbPolyline
  3
"AutoCAD"
 90
        0
280
     0
281
     1
  0
CLASS
  1
HATCH
  2
AcDbHatch
  3
"ACAD_SEDONA"
 90
        0
280
     0
281
     1
  0
CLASS
  1
XRECORD
  2
AcDbXrecord
  3
"<Built In>"
 90
        0
280
     0
281
     0
  0
CLASS
  1
LONG_TRANSACTION
  2
AcDbLongTransaction
  3
AutoCAD 2000
 90
        0
280
     0
281
     0
  0
CLASS
  1
LWPOLYLINE
  2
AcDbPolyline
  3
"AutoCAD"
 90
        0
280
     0
281
     1
  0
CLASS
  1
HATCH
  2
AcDbHatch
  3
"ACAD_SEDONA"
 90
        0
280
     0
281
     1
  0
CLASS
  1
XRECORD
  2
AcDbXrecord
  3
"<Built In>"
 90
        0
280
     0
281
     0
  0
CLASS
  1
LONG_TRANSACTION
  2
AcDbLongTransaction
  3
AutoCAD 2000
 90
        0
280
     0
281
     0
  0
CLASS
  1
LWPOLYLINE
  2
AcDbPolyline
  3
"AutoCAD"
 90
        0
280
     0
281
     1
  0
CLASS
  1
HATCH
  2
AcDbHatch
  3
"ACAD_SEDONA"
 90
        0
280
     0
281
     1
  0
CLASS
  1
XRECORD
  2
AcDbXrecord
  3
"<Built In>"
 90
        0
280
     0
281
     0
  0
CLASS
  1
LONG_TRANSACTION
  2
AcDbLongTransaction
  3
AutoCAD 2000
 90
        0
280
     0
281
     0
  0
CLASS
  1
LWPOLYLINE
  2
AcDbPolyline
  3
"AutoCAD"
 90
        0
280
     0
281
     1
  0
CLASS
  1
HATCH
  2
AcDbHatch
  3
"ACAD_SEDONA"
 90
        0
280
     0
281
     1
  0
CLASS
  1
XRECORD
  2
AcDbXrecord
  3
"<Built In>"
 90
        0
280
     0
281
     0
  0
CLASS
  1
LONG_TRANSACTION
  2
AcDbLongTransaction
  3
AutoCAD 2000
 90
        0
280
     0
281
     0
  0
CLASS
  1
LWPOLYLINE
  2
AcDbPolyline
  3
"AutoCAD"
 90
        0
280
     0
281
     1
  0
CLASS
  1
HATCH
  2
AcDbHatch
  3
"ACAD_SEDONA"
 90
        0
280
     0
281
     1
  0
CLASS
  1
XRECORD
  2
AcDbXrecord
  3
"<Built In>"
 90
        0
280
     0
281
     0
  0
CLASS
  1
LONG_TRANSACTION
  2
AcDbLongTransaction
  3
AutoCAD 2000
 90
        0
280
     0
281
     0
  0
CLASS
  1
LWPOLYLINE
  2
AcDbPolyline
  3
"AutoCAD"
 90
        0
280
     0
281
     1
  0
CLASS
  1
HATCH
  2
AcDbHatch
  3
"ACAD_SEDONA"
 90
        0
280
     0
281
     1
  0
CLASS
  1
XRECORD
  2
AcDbXrecord
  3
"<Built In>"
 90
        0
280
     0
281
     0
  0
CLASS
  1
LONG_TRANSACTION
  2
AcDbLongTransaction
  3
AutoCAD 2000
 90
        0
280
     0
281
     0
  0
CLASS
  1
LWPOLYLINE
  2
AcDbPolyline
  3
"AutoCAD"
 90
        0
280
     0
281
     1
  0
CLASS
  1
HATCH
  2
AcDbHatch
  3
"ACAD_SEDONA"
 90
        0
280
     0
281
     1
  0
CLASS
  1
XRECORD
  2
AcDbXrecord
  3
"<Built In>"
 90
        0
280
     0
281
     0
  0
CLASS
  1
LONG_TRANSACTION
  2
AcDbLongTransaction
  3
AutoCAD 2000
 90
        0
280
     0
281
     0
  0
CLASS
  1
LWPOLYLINE
  2
AcDbPolyline
  3
"AutoCAD"
 90
        0
280
     0
281
     1
  0
CLASS
  1
HATCH
  2
AcDbHatch
  3
"ACAD_SEDONA"
 90
        0
280
     0
281
     1
  0
CLASS
  1
XRECORD
  2
AcDbXrecord
  3
"<Built In>"
 90
        0
280
     0
281
     0
  0
CLASS
  1
LONG_TRANSACTION
  2
AcDbLongTransaction
  3
AutoCAD 2000
 90
        0
280
     0
281
     0
  0
CLASS
  1
LWPOLYLINE
  2
AcDbPolyline
  3
"AutoCAD"
 90
        0
280
     0
281
     1
  0
CLASS
  1
HATCH
  2
AcDbHatch
  3
"ACAD_SEDONA"
 90
        0
280
     0
281
     1
  0
CLASS
  1
XRECORD
  2
AcDbXrecord
  3
"<Built In>"
 90
        0
280
     0
281
     0
  0
CLASS
  1
LONG_TRANSACTION
  2
AcDbLongTransaction
  3
AutoCAD 2000
 90
        0
280
     0
281
     0
  0
CLASS
  1
LWPOLYLINE
  2
AcDbPolyline
  3
"AutoCAD"
 90
        0
280
     0
281
     1
  0
CLASS
  1
HATCH
  2
AcDbHatch
  3
"ACAD_SEDONA"
 90
        0
280
     0
281
     1
  0
CLASS
  1
XRECORD
  2
AcDbXrecord
  3
"<Built In>"
 90
        0
280
     0
281
     0
  0
CLASS
  1
LONG_TRANSACTION
  2
AcDbLongTransaction
  3
AutoCAD 2000
 90
        0
280
     0
281
     0
  0
CLASS
  1
LWPOLYLINE
  2
AcDbPolyline
  3
"AutoCAD"
 90
        0
280
     0
281
     1
  0
CLASS
  1
HATCH
  2
AcDbHatch
  3
"ACAD_SEDONA"
 90
        0
280
     0
281
     1
  0
CLASS
  1
XRECORD
  2
AcDbXrecord
  3
"<Built In>"
 90
        0
280
     0
281
     0
  0
CLASS
  1
LONG_TRANSACTION
  2
AcDbLongTransaction
  3
AutoCAD 2000
 90
        0
280
     0
281
     0
  0
CLASS
  1
LWPOLYLINE
  2
AcDbPolyline
  3
"AutoCAD"
 90
        0
280
     0
281
     1
  0
CLASS
  1
HATCH
  2
AcDbHatch
  3
"ACAD_SEDONA"
 90
        0
280
     0
281
     1
  0
CLASS
  1
XRECORD
  2
AcDbXrecord
  3
"<Built In>"
 90
        0
280
     0
281
     0
  0
CLASS
  1
LONG_TRANSACTION
  2
AcDbLongTransaction
  3
AutoCAD 2000
 90
        0
280
     0
281
     0
  0
CLASS
  1
LWPOLYLINE
  2
AcDbPolyline
  3
"AutoCAD"
 90
        0
280
     0
281
     1
  0
CLASS
  1
HATCH
  2
AcDbHatch
  3
"ACAD_SEDONA"
 90
        0
280
     0
281
     1
  0
CLASS
  1
XRECORD
  2
AcDbXrecord
  3
"<Built In>"
 90
        0
280
     0
281
     0
  0
CLASS
  1
LONG_TRANSACTION
  2
AcDbLongTransaction
  3
AutoCAD 2000
 90
        0
280
     0
281
     0
  0
CLASS
  1
LWPOLYLINE
  2
AcDbPolyline
  3
"AutoCAD"
 90
        0
280
     0
281
     1
  0
CLASS
  1
HATCH
  2
AcDbHatch
  3
"ACAD_SEDONA"
 90
        0
280
     0
281
     1
  0
CLASS
  1
XRECORD
  2
AcDbXrecord
  3
"<Built In>"
 90
        0
280
     0
281
     0
  0
CLASS
  1
LONG_TRANSACTION
  2
AcDbLongTransaction
  3
AutoCAD 2000
 90
        0
280
     0
281
     0
  0
CLASS
  1
LWPOLYLINE
  2
AcDbPolyline
  3
"AutoCAD"
 90
        0
280
     0
281
     1
  0
CLASS
  1
HATCH
  2
AcDbHatch
  3
"ACAD_SEDONA"
 90
        0
280
     0
281
     1
  0
CLASS
  1
XRECORD
  2
AcDbXrecord
  3
"<Built In>"
 90
        0
280
     0
281
     0
  0
CLASS
  1
LONG_TRANSACTION
  2
AcDbLongTransaction
  3
AutoCAD 2000
 90
        0
280
     0
281
     0
  0
CLASS
  1
LWPOLYLINE
  2
AcDbPolyline
  3
"AutoCAD"
 90
        0
280
     0
281
     1
  0
CLASS
  1
HATCH
  2
AcDbHatch
  3
"ACAD_SEDONA"
 90
        0
280
     0
281
     1
  0
CLASS
  1
XRECORD
  2
AcDbXrecord
  3
"<Built In>"
 90
        0
280
     0
281
     0
  0
CLASS
  1
LONG_TRANSACTION
  2
AcDbLongTransaction
  3
AutoCAD 2000
 90
        0
280
     0
281
     0
  0
CLASS
  1
LWPOLYLINE
  2
AcDbPolyline
  3
"AutoCAD"
 90
        0
280
     0
281
     1
  0
CLASS
  1
HATCH
  2
AcDbHatch
  3
"ACAD_SEDONA"
 90
        0
280
     0
281
     1
  0
CLASS
  1
XRECORD
  2
AcDbXrecord
  3
"<Built In>"
 90
        0
280
     0
281
     0
  0
CLASS
  1
LONG_TRANSACTION
  2
AcDbLongTransaction
  3
AutoCAD 2000
 90
        0
280
     0
281
     0
  0
CLASS
  1
LWPOLYLINE
  2
AcDbPolyline
  3
"AutoCAD"
 90
        0
280
     0
281
     1
  0
CLASS
  1
HATCH
  2
AcDbHatch
  3
"ACAD_SEDONA"
 90
        0
280
     0
281
     1
  0
CLASS
  1
XRECORD
  2
AcDbXrecord
  3
"<Built In>"
 90
        0
280
     0
281
     0
  0
CLASS
  1
LONG_TRANSACTION
  2
AcDbLongTransaction
  3
AutoCAD 2000
 90
        0
280
     0
281
     0
  0
CLASS
  1
LWPOLYLINE
  2
AcDbPolyline
  3
"AutoCAD"
 90
        0
280
     0
281
     1
  0
CLASS
  1
HATCH
  2
AcDbHatch
  3
"ACAD_SEDONA"
 90
        0
280
     0
281
     1
  0
CLASS
  1
XRECORD
  2
AcDbXrecord
  3
"<Built In>"
 90
        0
280
     0
281
     0
  0
CLASS
  1
LONG_TRANSACTION
  2
AcDbLongTransaction
  3
AutoCAD 2000
 90
        0
280
     0
281
     0
  0
CLASS
  1
LWPOLYLINE
  2
AcDbPolyline
  3
"AutoCAD"
 90
        0
280
     0
281
     1
  0
CLASS
  1
HATCH
  2
AcDbHatch
  3
"ACAD_SEDONA"
 90
        0
280
     0
281
     1
  0
CLASS
  1
XRECORD
  2
AcDbXrecord
  3
"<Built In>"
 90
        0
280
     0
281
     0
  0
CLASS
  1
LONG_TRANSACTION
  2
AcDbLongTransaction
  3
AutoCAD 2000
 90
        0
280
     0
281
     0
  0
CLASS
  1
LWPOLYLINE
  2
AcDbPolyline
  3
"AutoCAD"
 90
        0
280
     0
281
     1
  0
CLASS
  1
HATCH
  2
AcDbHatch
  3
"ACAD_SEDONA"
 90
        0
280
     0
281
     1
  0
CLASS
  1
XRECORD
  2
AcDbXrecord
  3
"<Built In>"
 90
        0
280
     0
281
     0
  0
CLASS
  1
LONG_TRANSACTION
  2
AcDbLongTransaction
  3
AutoCAD 2000
 90
        0
280
     0
281
     0
  0
CLASS
  1
LWPOLYLINE
  2
AcDbPolyline
  3
"AutoCAD"
 90
        0
280
     0
281
     1
  0
CLASS
  1
HATCH
  2
AcDbHatch
  3
"ACAD_SEDONA"
 90
        0
280
     0
281
     1
  0
CLASS
  1
XRECORD
  2
AcDbXrecord
  3
"<Built In>"
 90
        0
280
     0
281
     0
  0
CLASS
  1
LONG_TRANSACTION
  2
AcDbLongTransaction
  3
AutoCAD 2000
 90
        0
280
     0
281
     0
  0
CLASS
  1
LWPOLYLINE
  2
AcDbPolyline
  3
"AutoCAD"
 90
        0
280
     0
281
     1
  0
CLASS
  1
HATCH
  2
AcDbHatch
  3
"ACAD_SEDONA"
 90
        0
280
     0
281
     1
  0
CLASS
  1
XRECORD
  2
AcDbXrecord
  3
"<Built In>"
 90
        0
280
     0
281
     0
  0
CLASS
  1
LONG_TRANSACTION
  2
AcDbLongTransaction
  3
AutoCAD 2000
 90
        0
280
     0
281
     0
  0
CLASS
  1
LWPOLYLINE
  2
AcDbPolyline
  3
"AutoCAD"
 90
        0
280
     0
281
     1
  0
CLASS
  1
HATCH
  2
AcDbHatch
  3
"ACAD_SEDONA"
 90
        0
280
     0
281
     1
  0
CLASS
  1
XRECORD
  2
AcDbXrecord
  3
"<Built In>"
 90
        0
280
     0
281
     0
  0
CLASS
  1
LONG_TRANSACTION
  2
AcDbLongTransaction
  3
AutoCAD 2000
 90
        0
280
     0
281
     0
  0
CLASS
  1
LWPOLYLINE
  2
AcDbPolyline
  3
"AutoCAD"
 90
        0
280
     0
281
     1
  0
CLASS
  1
HATCH
  2
AcDbHatch
  3
"ACAD_SEDONA"
 90
        0
280
     0
281
     1
  0
CLASS
  1
XRECORD
  2
AcDbXrecord
  3
"<Built In>"
 90
        0
280
     0
281
     0
  0
CLASS
  1
LONG_TRANSACTION
  2
AcDbLongTransaction
  3
AutoCAD 2000
 90
        0
280
     0
281
     0
  0
CLASS
  1
LWPOLYLINE
  2
AcDbPolyline
  3
"AutoCAD"
 90
        0
280
     0
281
     1
  0
CLASS
  1
HATCH
  2
AcDbHatch
  3
"ACAD_SEDONA"
 90
        0
280
     0
281
     1
  0
CLASS
  1
XRECORD
  2
AcDbXrecord
  3
"<Built In>"
 90
        0
280
     0
281
     0
  0
CLASS
  1
LONG_TRANSACTION
  2
AcDbLongTransaction
  3
AutoCAD 2000
 90
        0
280
     0
281
     0
  0
CLASS
  1
LWPOLYLINE
  2
AcDbPolyline
  3
"AutoCAD"
 90
        0
280
     0
281
     1
  0
CLASS
  1
HATCH
  2
AcDbHatch
  3
"ACAD_SEDONA"
 90
        0
280
     0
281
     1
  0
CLASS
  1
XRECORD
  2
AcDbXrecord
  3
"<Built In>"
 90
        0
280
     0
281
     0
  0
CLASS
  1
LONG_TRANSACTION
  2
AcDbLongTransaction
  3
AutoCAD 2000
 90
        0
280
     0
281
     0
  0
CLASS
  1
LWPOLYLINE
  2
AcDbPolyline
  3
"AutoCAD"
 90
        0
280
     0
281
     1
  0
CLASS
  1
HATCH
  2
AcDbHatch
  3
"ACAD_SEDONA"
 90
        0
280
     0
281
     1
  0
CLASS
  1
XRECORD
  2
AcDbXrecord
  3
"<Built In>"
 90
        0
280
     0
281
     0
  0
CLASS
  1
LONG_TRANSACTION
  2
AcDbLongTransaction
  3
AutoCAD 2000
 90
        0
280
     0
281
     0
  0
CLASS
  1
LWPOLYLINE
  2
AcDbPolyline
  3
"AutoCAD"
 90
        0
280
     0
281
     1
  0
CLASS
  1
HATCH
  2
AcDbHatch
  3
"ACAD_SEDONA"
 90
        0
280
     0
281
     1
  0
CLASS
  1
XRECORD
  2
AcDbXrecord
  3
"<Built In>"
 90
        0
280
     0
281
     0
  0
CLASS
  1
LONG_TRANSACTION
  2
AcDbLongTransaction
  3
AutoCAD 2000
 90
        0
280
     0
281
     0
  0
CLASS
  1
LWPOLYLINE
  2
AcDbPolyline
  3
"AutoCAD"
 90
        0
280
     0
281
     1
  0
CLASS
  1
HATCH
  2
AcDbHatch
  3
"ACAD_SEDONA"
 90
        0
280
     0
281
     1
  0
CLASS
  1
XRECORD
  2
AcDbXrecord
  3
"<Built In>"
 90
        0
280
     0
281
     0
  0
CLASS
  1
LONG_TRANSACTION
  2
AcDbLongTransaction
  3
AutoCAD 2000
 90
        0
280
     0
281
     0
  0
CLASS
  1
LWPOLYLINE
  2
AcDbPolyline
  3
"AutoCAD"
 90
        0
280
     0
281
     1
  0
CLASS
  1
HATCH
  2
AcDbHatch
  3
"ACAD_SEDONA"
 90
        0
280
     0
281
     1
  0
CLASS
  1
XRECORD
  2
AcDbXrecord
  3
"<Built In>"
 90
        0
280
     0
281
     0
  0
CLASS
  1
LONG_TRANSACTION
  2
AcDbLongTransaction
  3
AutoCAD 2000
 90
        0
280
     0
281
     0
  0
CLASS
  1
LWPOLYLINE
  2
AcDbPolyline
  3
"AutoCAD"
 90
        0
280
     0
281
     1
  0
CLASS
  1
HATCH
  2
AcDbHatch
  3
"ACAD_SEDONA"
 90
        0
280
     0
281
     1
  0
CLASS
  1
XRECORD
  2
AcDbXrecord
  3
"<Built In>"
 90
        0
280
     0
281
     0
  0
CLASS
  1
LONG_TRANSACTION
  2
AcDbLongTransaction
  3
AutoCAD 2000
 90
        0
280
     0
281
     0
  0
CLASS
  1
LWPOLYLINE
  2
AcDbPolyline
  3
"AutoCAD"
 90
        0
280
     0
281
     1
  0
CLASS
  1
HATCH
  2
AcDbHatch
  3
"ACAD_SEDONA"
 90
        0
280
     0
281
     1
  0
CLASS
  1
XRECORD
  2
AcDbXrecord
  3
"<Built In>"
 90
        0
280
     0
281
     0
  0
CLASS
  1
LONG_TRANSACTION
  2
AcDbLongTransaction
  3
AutoCAD 2000
 90
        0
280
     0
281
     0
  0
CLASS
  1
LWPOLYLINE
  2
AcDbPolyline
  3
"AutoCAD"
 90
        0
280
     0
281
     1
  0
CLASS
  1
HATCH
  2
AcDbHatch
  3
"ACAD_SEDONA"
 90
        0
280
     0
281
     1
  0
CLASS
  1
XRECORD
  2
AcDbXrecord
  3
"<Built In>"
 90
        0
280
     0
281
     0
  0
CLASS
  1
LONG_TRANSACTION
  2
AcDbLongTransaction
  3
AutoCAD 2000
 90
        0
280
     0
281
     0
  0
CLASS
  1
LWPOLYLINE
  2
AcDbPolyline
  3
"AutoCAD"
 90
        0
280
     0
281
     1
  0
CLASS
  1
HATCH
  2
AcDbHatch
  3
"ACAD_SEDONA"
 90
        0
280
     0
281
     1
  0
CLASS
  1
XRECORD
  2
AcDbXrecord
  3
"<Built In>"
 90
        0
280
     0
281
     0
  0
CLASS
  1
LONG_TRANSACTION
  2
AcDbLongTransaction
  3
AutoCAD 2000
 90
        0
280
     0
281
     0
  0
CLASS
  1
LWPOLYLINE
  2
AcDbPolyline
  3
"AutoCAD"
 90
        0
280
     0
281
     1
  0
CLASS
  1
HATCH
  2
AcDbHatch
  3
"ACAD_SEDONA"
 90
        0
280
     0
281
     1
  0
CLASS
  1
XRECORD
  2
AcDbXrecord
  3
"<Built In>"
 90
        0
280
     0
281
     0
  0
ENDSEC
  0
SECTION
  2
TABLES
  0
TABLE
  2
VPORT
  5
458C7
100
AcDbSymbolTable
 70
     1
  0
VPORT
  5
AC2AB
102
{ACAD_XDICTIONARY
360
AC2AE
102
}
100
AcDbSymbolTableRecord
100
AcDbViewportTableRecord
  2
*ACTIVE
 70
     0
 10
0.0
 20
0.0
 11
1.0
 21
1.0
 12
1.394362
 22
1.110951
 13
0.0
 23
0.0
 14
0.25
 24
0.25
 15
0.25
 25
0.25
 16
0.0
 26
0.0
 36
1.0
 17
-1.002245
 27
-0.908856
 37
0.745855
 40
2.019164
 41
1.829897
 42
50.0
 43
0.0
 44
0.0
 50
0.0
 51
0.0
 71
     0
 72
 20000
 73
     1
 74
     1
 75
     0
 76
     0
 77
     0
 78
     0
  0
ENDTAB
  0
TABLE
  2
LTYPE
  5
458C4
100
AcDbSymbolTable
 70
     1
  0
LTYPE
  5
458D0
100
AcDbSymbolTableRecord
100
AcDbLinetypeTableRecord
  2
BYBLOCK
 70
     0
  3

 72
    65
 73
     0
 40
0.0
  0
LTYPE
  5
458D1
100
AcDbSymbolTableRecord
100
AcDbLinetypeTableRecord
  2
BYLAYER
 70
     0
  3

 72
    65
 73
     0
 40
0.0
  0
LTYPE
  5
458D2
100
AcDbSymbolTableRecord
100
AcDbLinetypeTableRecord
  2
CONTINUOUS
 70
     0
  3
Solid line
 72
    65
 73
     0
 40
0.0
  0
ENDTAB
  0
TABLE
  2
LAYER
  5
458C1
100
AcDbSymbolTable
 70
     7
  0
LAYER
  5
458CD
100
AcDbSymbolTableRecord
100
AcDbLayerTableRecord
  2
0
 70
     0
 62
     7
  6
CONTINUOUS
  0
LAYER
  5
458EA
100
AcDbSymbolTableRecord
100
AcDbLayerTableRecord
  2
DIMS-MTG-HOLES
 70
     0
 62
     1
  6
CONTINUOUS
  0
LAYER
  5
458EB
100
AcDbSymbolTableRecord
100
AcDbLayerTableRecord
  2
ATTRIBUTES
 70
     0
 62
     7
  6
CONTINUOUS
  0
LAYER
  5
4593B
102
{ACAD_XDICTIONARY
360
AC2D7
102
}
100
AcDbSymbolTableRecord
100
AcDbLayerTableRecord
  2
AREA1
 70
     0
 62
    -7
  6
CONTINUOUS
  0
LAYER
  5
45940
102
{ACAD_XDICTIONARY
360
AC2AC
102
}
100
AcDbSymbolTableRecord
100
AcDbLayerTableRecord
  2
DEFPOINTS
 70
     0
 62
    -7
  6
CONTINUOUS
  0
LAYER
  5
45954
100
AcDbSymbolTableRecord
100
AcDbLayerTableRecord
  2
SCALE
 70
     0
 62
    -7
  6
CONTINUOUS
  0
LAYER
  5
4D59A
100
AcDbSymbolTableRecord
100
AcDbLayerTableRecord
  2
SNAP_POINTS
 70
     0
 62
    -1
  6
CONTINUOUS
  0
ENDTAB
  0
TABLE
  2
STYLE
  5
458C2
100
AcDbSymbolTable
 70
     1
  0
STYLE
  5
458CE
100
AcDbSymbolTableRecord
100
AcDbTextStyleTableRecord
  2
STANDARD
 70
     0
 40
0.0
 41
1.0
 50
0.0
 71
     0
 42
0.12
  3
txt
  4

  0
ENDTAB
  0
TABLE
  2
VIEW
  5
458C5
100
AcDbSymbolTable
 70
     0
  0
ENDTAB
  0
TABLE
  2
UCS
  5
458C6
100
AcDbSymbolTable
 70
     0
  0
ENDTAB
  0
TABLE
  2
APPID
  5
458C8
100
AcDbSymbolTable
 70
     2
  0
APPID
  5
458CF
100
AcDbSymbolTableRecord
100
AcDbRegAppTableRecord
  2
ACAD
 70
     0
  0
APPID
  5
5FD5B
100
AcDbSymbolTableRecord
100
AcDbRegAppTableRecord
  2
AVE_RENDER
 70
     0
  0
ENDTAB
  0
TABLE
  2
DIMSTYLE
  5
458C9
100
AcDbSymbolTable
 70
     1
  0
DIMSTYLE
105
458F6
102
{ACAD_XDICTIONARY
360
AC2D3
102
}
102
{ACAD_REACTORS
330
AC1CE
330
AC1DB
102
}
100
AcDbSymbolTableRecord
100
AcDbDimStyleTableRecord
  2
ABECAD_3D
 70
     0
  3

  4

  5

  6

  7

 40
1.0
 41
0.1
 42
0.1
 43
0.375
 44
0.1
 45
0.0
 46
0.0
 47
0.0
 48
0.0
140
0.1
141
0.09
142
0.0
143
25.4
144
1.0
145
0.0
146
1.5
147
0.09
 71
     0
 72
     0
 73
     0
 74
     1
 75
     0
 76
     0
 77
     0
 78
     4
170
     1
171
     2
172
     0
173
     0
174
     0
175
     0
176
     0
177
     0
178
     0
270
     7
271
     6
272
     6
273
     2
274
     2
340
458CE
275
     0
280
     0
281
     0
282
     0
283
     1
284
     4
285
     4
286
     4
287
     5
288
     1
  0
ENDTAB
  0
TABLE
  2
BLOCK_RECORD
  5
458C0
100
AcDbSymbolTable
 70
     2
  0
BLOCK_RECORD
  5
458D6
102
{ACAD_XDICTIONARY
360
4592C
102
}
100
AcDbSymbolTableRecord
100
AcDbBlockTableRecord
  2
*MODEL_SPACE
  0
BLOCK_RECORD
  5
458D3
102
{ACAD_XDICTIONARY
360
4592A
102
}
100
AcDbSymbolTableRecord
100
AcDbBlockTableRecord
  2
*PAPER_SPACE
  0
BLOCK_RECORD
  5
AC1CF
100
AcDbSymbolTableRecord
100
AcDbBlockTableRecord
  2
*D0
  0
BLOCK_RECORD
  5
AC1DC
100
AcDbSymbolTableRecord
100
AcDbBlockTableRecord
  2
*D1
  0
ENDTAB
  0
ENDSEC
  0
SECTION
  2
BLOCKS
  0
BLOCK
  5
458DF
100
AcDbEntity
  8
0
100
AcDbBlockBegin
  2
*MODEL_SPACE
 70
     0
 10
0.0
 20
0.0
 30
0.0
  3
*MODEL_SPACE
  1

  0
ENDBLK
  5
458E0
100
AcDbEntity
  8
0
100
AcDbBlockEnd
  0
BLOCK
  5
458DD
100
AcDbEntity
 67
     1
  8
0
100
AcDbBlockBegin
  2
*PAPER_SPACE
 70
     0
 10
0.0
 20
0.0
 30
0.0
  3
*PAPER_SPACE
  1

  0
ENDBLK
  5
458DE
100
AcDbEntity
 67
     1
  8
0
100
AcDbBlockEnd
  0
BLOCK
  5
AC1D9
100
AcDbEntity
  8
0
100
AcDbBlockBegin
  2
*D0
 70
     1
 10
0.0
 20
0.0
 30
0.0
  3
*D0
  1

  0
LINE
  5
AC1E9
100
AcDbEntity
  8
AREA1
 62
     0
100
AcDbLine
 10
-1.0375
 20
-0.65625
 30
0.0
 11
-1.305995
 21
-0.65625
 31
0.0
1001
ACAD
1000
RTLwPs
1070
   158
  0
LINE
  5
AC1EA
100
AcDbEntity
  8
AREA1
 62
     0
100
AcDbLine
 10
-1.0375
 20
0.65625
 30
0.0
 11
-1.305995
 21
0.65625
 31
0.0
1001
ACAD
1000
RTLwPs
1070
   158
  0
LINE
  5
AC1EB
100
AcDbEntity
  8
AREA1
 62
     0
100
AcDbLine
 10
-1.205995
 20
-0.55625
 30
0.0
 11
-1.205995
 21
0.55625
 31
0.0
1001
ACAD
1000
RTLwPs
1070
   158
  0
MTEXT
  5
AC1EC
100
AcDbEntity
  8
AREA1
 62
     0
100
AcDbMText
 10
-1.394572
 20
-0.007222
 30
0.0
 40
0.1
 41
0.0
 71
     5
 72
     1
  1
\A1;1 5/16 [33.34]
 11
0.0
 21
1.0
 31
0.0
1001
ACAD
1000
MTEXTBEGIN
1070
    73
1070
     1
1070
    44
1040
1.0
1070
    74
1070
     0
1000
MTEXTEND
1000
MTEXTBEGIN
1070
    73
1070
     1
1070
    44
1040
1.0
1070
    74
1070
     0
1000
MTEXTEND
1000
MTEXTBEGIN
1070
    73
1070
     1
1070
    44
1040
1.0
1070
    74
1070
     0
1000
MTEXTEND
1000
MTEXTBEGIN
1070
    73
1070
     1
1070
    44
1040
1.0
1070
    74
1070
     0
1000
MTEXTEND
  0
SOLID
  5
AC1ED
100
AcDbEntity
  8
AREA1
 62
     0
100
AcDbTrace
 10
-1.222662
 20
-0.55625
 30
0.0
 11
-1.189328
 21
-0.55625
 31
0.0
 12
-1.205995
 22
-0.65625
 32
0.0
 13
-1.205995
 23
-0.65625
 33
0.0
  0
SOLID
  5
AC1EE
100
AcDbEntity
  8
AREA1
 62
     0
100
AcDbTrace
 10
-1.222662
 20
0.55625
 30
0.0
 11
-1.189328
 21
0.55625
 31
0.0
 12
-1.205995
 22
0.65625
 32
0.0
 13
-1.205995
 23
0.65625
 33
0.0
  0
POINT
  5
AC1EF
100
AcDbEntity
  8
DEFPOINTS
 62
     0
100
AcDbPoint
 10
-0.9375
 20
-0.65625
 30
0.0
  0
POINT
  5
AC1F0
100
AcDbEntity
  8
DEFPOINTS
 62
     0
100
AcDbPoint
 10
-0.9375
 20
0.65625
 30
0.0
  0
POINT
  5
AC1F1
100
AcDbEntity
  8
DEFPOINTS
 62
     0
100
AcDbPoint
 10
-1.205995
 20
0.65625
 30
0.0
  0
ENDBLK
  5
AC1DA
100
AcDbEntity
  8
0
100
AcDbBlockEnd
  0
BLOCK
  5
AC1E7
100
AcDbEntity
  8
0
100
AcDbBlockBegin
  2
*D1
 70
     1
 10
0.0
 20
0.0
 30
0.0
  3
*D1
  1

  0
LINE
  5
AC1DD
100
AcDbEntity
  8
AREA1
 62
     0
100
AcDbLine
 10
-0.9375
 20
0.75625
 30
0.0
 11
-0.9375
 21
1.060029
 31
0.0
1001
ACAD
1000
RTLwPs
1070
   158
  0
LINE
  5
AC1DE
100
AcDbEntity
  8
AREA1
 62
     0
100
AcDbLine
 10
0.9375
 20
0.75625
 30
0.0
 11
0.9375
 21
1.060029
 31
0.0
1001
ACAD
1000
RTLwPs
1070
   158
  0
LINE
  5
AC1DF
100
AcDbEntity
  8
AREA1
 62
     0
100
AcDbLine
 10
-0.8375
 20
0.960029
 30
0.0
 11
-0.632817
 21
0.960029
 31
0.0
1001
ACAD
1000
RTLwPs
1070
   158
  0
LINE
  5
AC1E0
100
AcDbEntity
  8
AREA1
 62
     0
100
AcDbLine
 10
0.8375
 20
0.960029
 30
0.0
 11
0.647183
 21
0.960029
 31
0.0
1001
ACAD
1000
RTLwPs
1070
   158
  0
MTEXT
  5
AC1E1
100
AcDbEntity
  8
AREA1
 62
     0
100
AcDbMText
 10
0.007183
 20
0.960029
 30
0.0
 40
0.1
 41
0.0
 71
     5
 72
     1
  1
\A1;1 7/8 [47.63]
1001
ACAD
1000
MTEXTBEGIN
1070
    73
1070
     1
1070
    44
1040
1.0
1070
    74
1070
     0
1000
MTEXTEND
1000
MTEXTBEGIN
1070
    73
1070
     1
1070
    44
1040
1.0
1070
    74
1070
     0
1000
MTEXTEND
1000
MTEXTBEGIN
1070
    73
1070
     1
1070
    44
1040
1.0
1070
    74
1070
     0
1000
MTEXTEND
1000
MTEXTBEGIN
1070
    73
1070
     1
1070
    44
1040
1.0
1070
    74
1070
     0
1000
MTEXTEND
  0
SOLID
  5
AC1E2
100
AcDbEntity
  8
AREA1
 62
     0
100
AcDbTrace
 10
-0.8375
 20
0.976696
 30
0.0
 11
-0.8375
 21
0.943363
 31
0.0
 12
-0.9375
 22
0.960029
 32
0.0
 13
-0.9375
 23
0.960029
 33
0.0
  0
SOLID
  5
AC1E3
100
AcDbEntity
  8
AREA1
 62
     0
100
AcDbTrace
 10
0.8375
 20
0.976696
 30
0.0
 11
0.8375
 21
0.943363
 31
0.0
 12
0.9375
 22
0.960029
 32
0.0
 13
0.9375
 23
0.960029
 33
0.0
  0
POINT
  5
AC1E4
100
AcDbEntity
  8
DEFPOINTS
 62
     0
100
AcDbPoint
 10
-0.9375
 20
0.65625
 30
0.0
  0
POINT
  5
AC1E5
100
AcDbEntity
  8
DEFPOINTS
 62
     0
100
AcDbPoint
 10
0.9375
 20
0.65625
 30
0.0
  0
POINT
  5
AC1E6
100
AcDbEntity
  8
DEFPOINTS
 62
     0
100
AcDbPoint
 10
0.9375
 20
0.960029
 30
0.0
  0
ENDBLK
  5
AC1E8
100
AcDbEntity
  8
0
100
AcDbBlockEnd
  0
ENDSEC
  0
SECTION
  2
ENTITIES
  0
CIRCLE
  5
AC154
100
AcDbEntity
  8
0
100
AcDbCircle
 10
-0.32025
 20
-1.007186
 30
0.9375
 40
0.1195
210
-1.0
220
0.0
230
0.0
  0
LINE
  5
AC155
100
AcDbEntity
  8
0
100
AcDbLine
 10
-0.9375
 20
0.34025
 30
-0.889371
 11
-0.9375
 21
0.34025
 31
-1.125
210
-1.0
220
0.0
230
0.0
  0
LINE
  5
AC156
100
AcDbEntity
  8
0
100
AcDbLine
 10
-0.9375
 20
0.30025
 30
-0.889371
 11
-0.9375
 21
0.30025
 31
-1.125
210
-1.0
220
0.0
230
0.0
  0
CIRCLE
  5
AC157
100
AcDbEntity
  8
0
100
AcDbCircle
 10
0.44875
 20
-1.007186
 30
0.9375
 40
0.1195
210
-1.0
220
0.0
230
0.0
  0
LINE
  5
AC158
100
AcDbEntity
  8
0
100
AcDbLine
 10
-0.9375
 20
-0.42875
 30
-0.889371
 11
-0.9375
 21
-0.42875
 31
-1.125
210
-1.0
220
0.0
230
0.0
  0
LINE
  5
AC159
100
AcDbEntity
  8
0
100
AcDbLine
 10
-0.9375
 20
-0.46875
 30
-0.889371
 11
-0.9375
 21
-0.46875
 31
-1.125
210
-1.0
220
0.0
230
0.0
  0
POINT
  5
AC15A
100
AcDbEntity
  8
SNAP_POINTS
100
AcDbPoint
 10
0.0
 20
0.0
 30
0.0
  0
ATTDEF
  5
AC15B
100
AcDbEntity
  8
ATTRIBUTES
100
AcDbText
 10
-0.919342
 20
0.195379
 30
0.0
 40
0.026478
  1
ALLEN-BRADLEY
100
AcDbAttributeDefinition
  3
MANUFACTURER NAME?
  2
AC_VND_LABEL
 70
     0
  0
ATTDEF
  5
AC15C
100
AcDbEntity
  8
ATTRIBUTES
100
AcDbText
 10
-0.919342
 20
0.140217
 30
0.0
 40
0.026478
  1
800T-XN
100
AcDbAttributeDefinition
  3
CATALOG NUMBER?
  2
AC_PART_NO
 70
     0
  0
ATTDEF
  5
AC15D
100
AcDbEntity
  8
ATTRIBUTES
100
AcDbText
 10
-0.919342
 20
0.085054
 30
0.0
 40
0.026478
  1
NEMA SNAP ACTION CONTACT BLOCK, 2 N.O.- 2 N.C.
100
AcDbAttributeDefinition
  3
PART DESCRIPTION?
  2
AC_DESCRIPTION
 70
     0
  0
ATTDEF
  5
AC15E
100
AcDbEntity
  8
ATTRIBUTES
100
AcDbText
 10
-0.919342
 20
0.029892
 30
0.0
 40
0.026478
  1

100
AcDbAttributeDefinition
  3
DEVICE ID?
  2
DEVICE_ID
 70
     0
  0
ATTDEF
  5
AC15F
100
AcDbEntity
  8
ATTRIBUTES
100
AcDbText
 10
-0.919342
 20
-0.025271
 30
0.0
 40
0.026478
  1

100
AcDbAttributeDefinition
  3
CUSTOMER PART NUMBER?
  2
AC_CPART_NO
 70
     0
  0
ATTDEF
  5
AC160
100
AcDbEntity
  8
ATTRIBUTES
100
AcDbText
 10
-0.919342
 20
-0.080433
 30
0.0
 40
0.026478
  1

100
AcDbAttributeDefinition
  3
CUSTOMER NOTE?
  2
AC_NOTE
 70
     0
  0
ATTDEF
  5
AC161
100
AcDbEntity
  8
ATTRIBUTES
100
AcDbText
 10
-0.919342
 20
-0.135596
 30
0.0
 40
0.026478
  1

100
AcDbAttributeDefinition
  3
FASTENER DATA?
  2
FASTENER
 70
     0
  0
ATTDEF
  5
AC162
100
AcDbEntity
  8
ATTRIBUTES
100
AcDbText
 10
-0.919342
 20
-0.190758
 30
0.0
 40
0.026478
  1

100
AcDbAttributeDefinition
  3
UNIT OF SCALE?
  2
AC_SCALE_UNIT
 70
     0
  0
ATTDEF
  5
AC163
100
AcDbEntity
  8
ATTRIBUTES
100
AcDbText
 10
-0.919342
 20
-0.24592
 30
0.0
 40
0.026478
  1

100
AcDbAttributeDefinition
  3
VIEW CODE?
  2
AC_VIEW_CODE
 70
     0
  0
POLYLINE
  5
AC164
100
AcDbEntity
  8
0
100
AcDbPolygonMesh
 66
     1
 10
0.0
 20
0.0
 30
0.0
 70
    16
 71
     6
 72
     3
  0
VERTEX
  5
AC165
100
AcDbEntity
  8
0
100
AcDbVertex
100
AcDbPolygonMeshVertex
 10
0.0
 20
0.65625
 30
0.0
 70
    64
  0
VERTEX
  5
AC166
100
AcDbEntity
  8
0
100
AcDbVertex
100
AcDbPolygonMeshVertex
 10
0.0
 20
0.65625
 30
-1.3125
 70
    64
  0
VERTEX
  5
AC167
100
AcDbEntity
  8
0
100
AcDbVertex
100
AcDbPolygonMeshVertex
 10
0.0
 20
0.65625
 30
-1.3125
 70
    64
  0
VERTEX
  5
AC168
100
AcDbEntity
  8
0
100
AcDbVertex
100
AcDbPolygonMeshVertex
 10
0.0
 20
-0.65625
 30
0.0
 70
    64
  0
VERTEX
  5
AC169
100
AcDbEntity
  8
0
100
AcDbVertex
100
AcDbPolygonMeshVertex
 10
0.0
 20
-0.65625
 30
-1.3125
 70
    64
  0
VERTEX
  5
AC16A
100
AcDbEntity
  8
0
100
AcDbVertex
100
AcDbPolygonMeshVertex
 10
0.0
 20
-0.65625
 30
-1.3125
 70
    64
  0
VERTEX
  5
AC16B
100
AcDbEntity
  8
0
100
AcDbVertex
100
AcDbPolygonMeshVertex
 10
-0.9375
 20
-0.65625
 30
0.0
 70
    64
  0
VERTEX
  5
AC16C
100
AcDbEntity
  8
0
100
AcDbVertex
100
AcDbPolygonMeshVertex
 10
-0.9375
 20
-0.65625
 30
-1.3125
 70
    64
  0
VERTEX
  5
AC16D
100
AcDbEntity
  8
0
100
AcDbVertex
100
AcDbPolygonMeshVertex
 10
0.0
 20
-0.65625
 30
-1.3125
 70
    64
  0
VERTEX
  5
AC16E
100
AcDbEntity
  8
0
100
AcDbVertex
100
AcDbPolygonMeshVertex
 10
-0.9375
 20
0.65625
 30
0.0
 70
    64
  0
VERTEX
  5
AC16F
100
AcDbEntity
  8
0
100
AcDbVertex
100
AcDbPolygonMeshVertex
 10
-0.9375
 20
0.65625
 30
-1.3125
 70
    64
  0
VERTEX
  5
AC170
100
AcDbEntity
  8
0
100
AcDbVertex
100
AcDbPolygonMeshVertex
 10
0.0
 20
0.65625
 30
-1.3125
 70
    64
  0
VERTEX
  5
AC171
100
AcDbEntity
  8
0
100
AcDbVertex
100
AcDbPolygonMeshVertex
 10
-0.9375
 20
0.65625
 30
0.0
 70
    64
  0
VERTEX
  5
AC172
100
AcDbEntity
  8
0
100
AcDbVertex
100
AcDbPolygonMeshVertex
 10
-0.9375
 20
0.65625
 30
0.0
 70
    64
  0
VERTEX
  5
AC173
100
AcDbEntity
  8
0
100
AcDbVertex
100
AcDbPolygonMeshVertex
 10
0.0
 20
0.65625
 30
0.0
 70
    64
  0
VERTEX
  5
AC174
100
AcDbEntity
  8
0
100
AcDbVertex
100
AcDbPolygonMeshVertex
 10
-0.9375
 20
-0.65625
 30
0.0
 70
    64
  0
VERTEX
  5
AC175
100
AcDbEntity
  8
0
100
AcDbVertex
100
AcDbPolygonMeshVertex
 10
-0.9375
 20
-0.65625
 30
0.0
 70
    64
  0
VERTEX
  5
AC176
100
AcDbEntity
  8
0
100
AcDbVertex
100
AcDbPolygonMeshVertex
 10
0.0
 20
-0.65625
 30
0.0
 70
    64
  0
SEQEND
  5
AC177
100
AcDbEntity
  8
0
  0
LINE
  5
AC178
100
AcDbEntity
  8
0
100
AcDbLine
 10
-0.9375
 20
-0.42875
 30
-0.139371
 11
-0.9375
 21
-0.42875
 31
-0.375
210
-1.0
220
0.0
230
0.0
  0
LINE
  5
AC179
100
AcDbEntity
  8
0
100
AcDbLine
 10
-0.9375
 20
-0.46875
 30
-0.139371
 11
-0.9375
 21
-0.46875
 31
-0.375
210
-1.0
220
0.0
230
0.0
  0
CIRCLE
  5
AC17A
100
AcDbEntity
  8
0
100
AcDbCircle
 10
0.44875
 20
-0.257186
 30
0.9375
 40
0.1195
210
-1.0
220
0.0
230
0.0
  0
LINE
  5
AC17B
100
AcDbEntity
  8
0
100
AcDbLine
 10
-0.9375
 20
0.34025
 30
-0.139371
 11
-0.9375
 21
0.34025
 31
-0.375
210
-1.0
220
0.0
230
0.0
  0
LINE
  5
AC17C
100
AcDbEntity
  8
0
100
AcDbLine
 10
-0.9375
 20
0.30025
 30
-0.139371
 11
-0.9375
 21
0.30025
 31
-0.375
210
-1.0
220
0.0
230
0.0
  0
CIRCLE
  5
AC17D
100
AcDbEntity
  8
0
100
AcDbCircle
 10
-0.32025
 20
-0.257186
 30
0.9375
 40
0.1195
210
-1.0
220
0.0
230
0.0
  0
TEXT
  5
AC17E
100
AcDbEntity
  8
0
100
AcDbText
 10
-0.30025
 20
-0.625
 30
0.9375
 40
0.12
  1
1
210
-1.0
220
0.0
230
0.0
100
AcDbText
  0
TEXT
  5
AC17F
100
AcDbEntity
  8
0
100
AcDbText
 10
-0.30025
 20
-0.825
 30
0.9375
 40
0.12
  1
3
210
-1.0
220
0.0
230
0.0
100
AcDbText
  0
TEXT
  5
AC180
100
AcDbEntity
  8
0
100
AcDbText
 10
0.46875
 20
-0.625
 30
0.9375
 40
0.12
  1
2
210
-1.0
220
0.0
230
0.0
100
AcDbText
  0
TEXT
  5
AC181
100
AcDbEntity
  8
0
100
AcDbText
 10
0.46875
 20
-0.825
 30
0.9375
 40
0.12
  1
4
210
-1.0
220
0.0
230
0.0
100
AcDbText
  0
POLYLINE
  5
AC182
100
AcDbEntity
  8
0
100
AcDbPolygonMesh
 66
     1
 10
0.0
 20
0.0
 30
0.0
 70
    16
 71
     6
 72
     3
  0
VERTEX
  5
AC183
100
AcDbEntity
  8
0
100
AcDbVertex
100
AcDbPolygonMeshVertex
 10
-0.375
 20
0.15625
 30
0.125
 70
    64
  0
VERTEX
  5
AC184
100
AcDbEntity
  8
0
100
AcDbVertex
100
AcDbPolygonMeshVertex
 10
-0.375
 20
0.15625
 30
0.0
 70
    64
  0
VERTEX
  5
AC185
100
AcDbEntity
  8
0
100
AcDbVertex
100
AcDbPolygonMeshVertex
 10
-0.375
 20
0.15625
 30
0.0
 70
    64
  0
VERTEX
  5
AC186
100
AcDbEntity
  8
0
100
AcDbVertex
100
AcDbPolygonMeshVertex
 10
-0.375
 20
-0.15625
 30
0.125
 70
    64
  0
VERTEX
  5
AC187
100
AcDbEntity
  8
0
100
AcDbVertex
100
AcDbPolygonMeshVertex
 10
-0.375
 20
-0.15625
 30
0.0
 70
    64
  0
VERTEX
  5
AC188
100
AcDbEntity
  8
0
100
AcDbVertex
100
AcDbPolygonMeshVertex
 10
-0.375
 20
-0.15625
 30
0.0
 70
    64
  0
VERTEX
  5
AC189
100
AcDbEntity
  8
0
100
AcDbVertex
100
AcDbPolygonMeshVertex
 10
-0.5625
 20
-0.15625
 30
0.125
 70
    64
  0
VERTEX
  5
AC18A
100
AcDbEntity
  8
0
100
AcDbVertex
100
AcDbPolygonMeshVertex
 10
-0.5625
 20
-0.15625
 30
0.0
 70
    64
  0
VERTEX
  5
AC18B
100
AcDbEntity
  8
0
100
AcDbVertex
100
AcDbPolygonMeshVertex
 10
-0.375
 20
-0.15625
 30
0.0
 70
    64
  0
VERTEX
  5
AC18C
100
AcDbEntity
  8
0
100
AcDbVertex
100
AcDbPolygonMeshVertex
 10
-0.5625
 20
0.15625
 30
0.125
 70
    64
  0
VERTEX
  5
AC18D
100
AcDbEntity
  8
0
100
AcDbVertex
100
AcDbPolygonMeshVertex
 10
-0.5625
 20
0.15625
 30
0.0
 70
    64
  0
VERTEX
  5
AC18E
100
AcDbEntity
  8
0
100
AcDbVertex
100
AcDbPolygonMeshVertex
 10
-0.375
 20
0.15625
 30
0.0
 70
    64
  0
VERTEX
  5
AC18F
100
AcDbEntity
  8
0
100
AcDbVertex
100
AcDbPolygonMeshVertex
 10
-0.5625
 20
0.15625
 30
0.125
 70
    64
  0
VERTEX
  5
AC190
100
AcDbEntity
  8
0
100
AcDbVertex
100
AcDbPolygonMeshVertex
 10
-0.5625
 20
0.15625
 30
0.125
 70
    64
  0
VERTEX
  5
AC191
100
AcDbEntity
  8
0
100
AcDbVertex
100
AcDbPolygonMeshVertex
 10
-0.375
 20
0.15625
 30
0.125
 70
    64
  0
VERTEX
  5
AC192
100
AcDbEntity
  8
0
100
AcDbVertex
100
AcDbPolygonMeshVertex
 10
-0.5625
 20
-0.15625
 30
0.125
 70
    64
  0
VERTEX
  5
AC193
100
AcDbEntity
  8
0
100
AcDbVertex
100
AcDbPolygonMeshVertex
 10
-0.5625
 20
-0.15625
 30
0.125
 70
    64
  0
VERTEX
  5
AC194
100
AcDbEntity
  8
0
100
AcDbVertex
100
AcDbPolygonMeshVertex
 10
-0.375
 20
-0.15625
 30
0.125
 70
    64
  0
SEQEND
  5
AC195
100
AcDbEntity
  8
0
  0
TEXT
  5
AC196
100
AcDbEntity
  8
0
100
AcDbText
 10
-0.46875
 20
-0.625
 30
0.9375
 40
0.12
  1
1
 71
     2
210
1.0
220
0.0
230
0.0
100
AcDbText
  0
TEXT
  5
AC197
100
AcDbEntity
  8
0
100
AcDbText
 10
0.30025
 20
-0.625
 30
0.9375
 40
0.12
  1
2
 71
     2
210
1.0
220
0.0
230
0.0
100
AcDbText
  0
POLYLINE
  5
AC198
100
AcDbEntity
  8
0
100
AcDbPolygonMesh
 66
     1
 10
0.0
 20
0.0
 30
0.0
 70
    16
 71
     6
 72
     3
  0
VERTEX
  5
AC199
100
AcDbEntity
  8
0
100
AcDbVertex
100
AcDbPolygonMeshVertex
 10
0.0
 20
0.65625
 30
0.0
 70
    64
  0
VERTEX
  5
AC19A
100
AcDbEntity
  8
0
100
AcDbVertex
100
AcDbPolygonMeshVertex
 10
0.0
 20
0.65625
 30
-1.3125
 70
    64
  0
VERTEX
  5
AC19B
100
AcDbEntity
  8
0
100
AcDbVertex
100
AcDbPolygonMeshVertex
 10
0.0
 20
0.65625
 30
-1.3125
 70
    64
  0
VERTEX
  5
AC19C
100
AcDbEntity
  8
0
100
AcDbVertex
100
AcDbPolygonMeshVertex
 10
0.0
 20
-0.65625
 30
0.0
 70
    64
  0
VERTEX
  5
AC19D
100
AcDbEntity
  8
0
100
AcDbVertex
100
AcDbPolygonMeshVertex
 10
0.0
 20
-0.65625
 30
-1.3125
 70
    64
  0
VERTEX
  5
AC19E
100
AcDbEntity
  8
0
100
AcDbVertex
100
AcDbPolygonMeshVertex
 10
0.0
 20
-0.65625
 30
-1.3125
 70
    64
  0
VERTEX
  5
AC19F
100
AcDbEntity
  8
0
100
AcDbVertex
100
AcDbPolygonMeshVertex
 10
0.9375
 20
-0.65625
 30
0.0
 70
    64
  0
VERTEX
  5
AC1A0
100
AcDbEntity
  8
0
100
AcDbVertex
100
AcDbPolygonMeshVertex
 10
0.9375
 20
-0.65625
 30
-1.3125
 70
    64
  0
VERTEX
  5
AC1A1
100
AcDbEntity
  8
0
100
AcDbVertex
100
AcDbPolygonMeshVertex
 10
0.0
 20
-0.65625
 30
-1.3125
 70
    64
  0
VERTEX
  5
AC1A2
100
AcDbEntity
  8
0
100
AcDbVertex
100
AcDbPolygonMeshVertex
 10
0.9375
 20
0.65625
 30
0.0
 70
    64
  0
VERTEX
  5
AC1A3
100
AcDbEntity
  8
0
100
AcDbVertex
100
AcDbPolygonMeshVertex
 10
0.9375
 20
0.65625
 30
-1.3125
 70
    64
  0
VERTEX
  5
AC1A4
100
AcDbEntity
  8
0
100
AcDbVertex
100
AcDbPolygonMeshVertex
 10
0.0
 20
0.65625
 30
-1.3125
 70
    64
  0
VERTEX
  5
AC1A5
100
AcDbEntity
  8
0
100
AcDbVertex
100
AcDbPolygonMeshVertex
 10
0.9375
 20
0.65625
 30
0.0
 70
    64
  0
VERTEX
  5
AC1A6
100
AcDbEntity
  8
0
100
AcDbVertex
100
AcDbPolygonMeshVertex
 10
0.9375
 20
0.65625
 30
0.0
 70
    64
  0
VERTEX
  5
AC1A7
100
AcDbEntity
  8
0
100
AcDbVertex
100
AcDbPolygonMeshVertex
 10
0.0
 20
0.65625
 30
0.0
 70
    64
  0
VERTEX
  5
AC1A8
100
AcDbEntity
  8
0
100
AcDbVertex
100
AcDbPolygonMeshVertex
 10
0.9375
 20
-0.65625
 30
0.0
 70
    64
  0
VERTEX
  5
AC1A9
100
AcDbEntity
  8
0
100
AcDbVertex
100
AcDbPolygonMeshVertex
 10
0.9375
 20
-0.65625
 30
0.0
 70
    64
  0
VERTEX
  5
AC1AA
100
AcDbEntity
  8
0
100
AcDbVertex
100
AcDbPolygonMeshVertex
 10
0.0
 20
-0.65625
 30
0.0
 70
    64
  0
SEQEND
  5
AC1AB
100
AcDbEntity
  8
0
  0
LINE
  5
AC1AC
100
AcDbEntity
  8
0
100
AcDbLine
 10
0.9375
 20
0.30025
 30
-0.889371
 11
0.9375
 21
0.30025
 31
-1.125
210
1.0
220
0.0
230
0.0
  0
LINE
  5
AC1AD
100
AcDbEntity
  8
0
100
AcDbLine
 10
0.9375
 20
0.34025
 30
-0.889371
 11
0.9375
 21
0.34025
 31
-1.125
210
1.0
220
0.0
230
0.0
  0
LINE
  5
AC1AE
100
AcDbEntity
  8
0
100
AcDbLine
 10
0.9375
 20
-0.46875
 30
-0.889371
 11
0.9375
 21
-0.46875
 31
-1.125
210
1.0
220
0.0
230
0.0
  0
LINE
  5
AC1AF
100
AcDbEntity
  8
0
100
AcDbLine
 10
0.9375
 20
-0.42875
 30
-0.889371
 11
0.9375
 21
-0.42875
 31
-1.125
210
1.0
220
0.0
230
0.0
  0
CIRCLE
  5
AC1B0
100
AcDbEntity
  8
0
100
AcDbCircle
 10
-0.44875
 20
-1.007186
 30
0.9375
 40
0.1195
210
1.0
220
0.0
230
0.0
  0
CIRCLE
  5
AC1B1
100
AcDbEntity
  8
0
100
AcDbCircle
 10
0.32025
 20
-1.007186
 30
0.9375
 40
0.1195
210
1.0
220
0.0
230
0.0
  0
TEXT
  5
AC1B2
100
AcDbEntity
  8
0
100
AcDbText
 10
-0.46875
 20
-0.825
 30
0.9375
 40
0.12
  1
3
 71
     2
210
1.0
220
0.0
230
0.0
100
AcDbText
  0
TEXT
  5
AC1B3
100
AcDbEntity
  8
0
100
AcDbText
 10
0.30025
 20
-0.825
 30
0.9375
 40
0.12
  1
4
 71
     2
210
1.0
220
0.0
230
0.0
100
AcDbText
  0
LINE
  5
AC1B4
100
AcDbEntity
  8
0
100
AcDbLine
 10
0.9375
 20
0.34025
 30
-0.139371
 11
0.9375
 21
0.34025
 31
-0.375
210
1.0
220
0.0
230
0.0
  0
LINE
  5
AC1B5
100
AcDbEntity
  8
0
100
AcDbLine
 10
0.9375
 20
0.30025
 30
-0.139371
 11
0.9375
 21
0.30025
 31
-0.375
210
1.0
220
0.0
230
0.0
  0
LINE
  5
AC1B6
100
AcDbEntity
  8
0
100
AcDbLine
 10
0.9375
 20
-0.42875
 30
-0.139371
 11
0.9375
 21
-0.42875
 31
-0.375
210
1.0
220
0.0
230
0.0
  0
LINE
  5
AC1B7
100
AcDbEntity
  8
0
100
AcDbLine
 10
0.9375
 20
-0.46875
 30
-0.139371
 11
0.9375
 21
-0.46875
 31
-0.375
210
1.0
220
0.0
230
0.0
  0
CIRCLE
  5
AC1B8
100
AcDbEntity
  8
0
100
AcDbCircle
 10
-0.44875
 20
-0.257186
 30
0.9375
 40
0.1195
210
1.0
220
0.0
230
0.0
  0
CIRCLE
  5
AC1B9
100
AcDbEntity
  8
0
100
AcDbCircle
 10
0.32025
 20
-0.257186
 30
0.9375
 40
0.1195
210
1.0
220
0.0
230
0.0
  0
POLYLINE
  5
AC1BA
100
AcDbEntity
  8
0
100
AcDbPolygonMesh
 66
     1
 10
0.0
 20
0.0
 30
0.0
 70
    16
 71
     6
 72
     3
  0
VERTEX
  5
AC1BB
100
AcDbEntity
  8
0
100
AcDbVertex
100
AcDbPolygonMeshVertex
 10
0.375
 20
0.15625
 30
0.125
 70
    64
  0
VERTEX
  5
AC1BC
100
AcDbEntity
  8
0
100
AcDbVertex
100
AcDbPolygonMeshVertex
 10
0.375
 20
0.15625
 30
0.0
 70
    64
  0
VERTEX
  5
AC1BD
100
AcDbEntity
  8
0
100
AcDbVertex
100
AcDbPolygonMeshVertex
 10
0.375
 20
0.15625
 30
0.0
 70
    64
  0
VERTEX
  5
AC1BE
100
AcDbEntity
  8
0
100
AcDbVertex
100
AcDbPolygonMeshVertex
 10
0.375
 20
-0.15625
 30
0.125
 70
    64
  0
VERTEX
  5
AC1BF
100
AcDbEntity
  8
0
100
AcDbVertex
100
AcDbPolygonMeshVertex
 10
0.375
 20
-0.15625
 30
0.0
 70
    64
  0
VERTEX
  5
AC1C0
100
AcDbEntity
  8
0
100
AcDbVertex
100
AcDbPolygonMeshVertex
 10
0.375
 20
-0.15625
 30
0.0
 70
    64
  0
VERTEX
  5
AC1C1
100
AcDbEntity
  8
0
100
AcDbVertex
100
AcDbPolygonMeshVertex
 10
0.5625
 20
-0.15625
 30
0.125
 70
    64
  0
VERTEX
  5
AC1C2
100
AcDbEntity
  8
0
100
AcDbVertex
100
AcDbPolygonMeshVertex
 10
0.5625
 20
-0.15625
 30
0.0
 70
    64
  0
VERTEX
  5
AC1C3
100
AcDbEntity
  8
0
100
AcDbVertex
100
AcDbPolygonMeshVertex
 10
0.375
 20
-0.15625
 30
0.0
 70
    64
  0
VERTEX
  5
AC1C4
100
AcDbEntity
  8
0
100
AcDbVertex
100
AcDbPolygonMeshVertex
 10
0.5625
 20
0.15625
 30
0.125
 70
    64
  0
VERTEX
  5
AC1C5
100
AcDbEntity
  8
0
100
AcDbVertex
100
AcDbPolygonMeshVertex
 10
0.5625
 20
0.15625
 30
0.0
 70
    64
  0
VERTEX
  5
AC1C6
100
AcDbEntity
  8
0
100
AcDbVertex
100
AcDbPolygonMeshVertex
 10
0.375
 20
0.15625
 30
0.0
 70
    64
  0
VERTEX
  5
AC1C7
100
AcDbEntity
  8
0
100
AcDbVertex
100
AcDbPolygonMeshVertex
 10
0.5625
 20
0.15625
 30
0.125
 70
    64
  0
VERTEX
  5
AC1C8
100
AcDbEntity
  8
0
100
AcDbVertex
100
AcDbPolygonMeshVertex
 10
0.5625
 20
0.15625
 30
0.125
 70
    64
  0
VERTEX
  5
AC1C9
100
AcDbEntity
  8
0
100
AcDbVertex
100
AcDbPolygonMeshVertex
 10
0.375
 20
0.15625
 30
0.125
 70
    64
  0
VERTEX
  5
AC1CA
100
AcDbEntity
  8
0
100
AcDbVertex
100
AcDbPolygonMeshVertex
 10
0.5625
 20
-0.15625
 30
0.125
 70
    64
  0
VERTEX
  5
AC1CB
100
AcDbEntity
  8
0
100
AcDbVertex
100
AcDbPolygonMeshVertex
 10
0.5625
 20
-0.15625
 30
0.125
 70
    64
  0
VERTEX
  5
AC1CC
100
AcDbEntity
  8
0
100
AcDbVertex
100
AcDbPolygonMeshVertex
 10
0.375
 20
-0.15625
 30
0.125
 70
    64
  0
SEQEND
  5
AC1CD
100
AcDbEntity
  8
0
  0
DIMENSION
  5
AC1CE
100
AcDbEntity
  8
AREA1
100
AcDbDimension
  2
*D0
 10
-1.205995
 20
0.65625
 30
0.0
 11
-1.394572
 21
-0.007222
 31
0.0
 70
   160
  3
ABECAD_3D
100
AcDbAlignedDimension
 13
-0.9375
 23
-0.65625
 33
0.0
 14
-0.9375
 24
0.65625
 34
0.0
 50
90.0
100
AcDbRotatedDimension
  0
DIMENSION
  5
AC1DB
100
AcDbEntity
  8
AREA1
100
AcDbDimension
  2
*D1
 10
0.9375
 20
0.960029
 30
0.0
 11
0.007183
 21
0.960029
 31
0.0
 70
   160
  3
ABECAD_3D
100
AcDbAlignedDimension
 13
-0.9375
 23
0.65625
 33
0.0
 14
0.9375
 24
0.65625
 34
0.0
100
AcDbRotatedDimension
  0
LWPOLYLINE
  5
AC201
100
AcDbEntity
  8
SCALE
100
AcDbPolyline
 90
        4
 70
     1
 43
0.0
 10
1.093217
 20
0.215835
 10
2.228846
 20
0.215835
 10
2.228846
 20
-0.625775
 10
1.093217
 20
-0.625775
  0
LINE
  5
AC202
100
AcDbEntity
  8
SCALE
100
AcDbLine
 10
1.151216
 20
-0.164244
 30
0.0
 11
2.151216
 21
-0.164244
 31
0.0
  0
LINE
  5
AC203
100
AcDbEntity
  8
SCALE
100
AcDbLine
 10
1.151216
 20
-0.464244
 30
0.0
 11
1.544916
 21
-0.464244
 31
0.0
  0
LINE
  5
AC204
100
AcDbEntity
  8
SCALE
100
AcDbLine
 10
1.151216
 20
-0.264244
 30
0.0
 11
1.151216
 21
-0.064244
 31
0.0
  0
TEXT
  5
AC205
100
AcDbEntity
  8
SCALE
100
AcDbText
 10
1.207192
 20
-0.416559
 30
0.0
 40
0.0625
  1
[10mm]
100
AcDbText
  0
LINE
  5
AC206
100
AcDbEntity
  8
SCALE
100
AcDbLine
 10
1.151216
 20
-0.564244
 30
0.0
 11
1.151216
 21
-0.364244
 31
0.0
  0
TEXT
  5
AC207
100
AcDbEntity
  8
SCALE
100
AcDbText
 10
1.152746
 20
0.110634
 30
0.0
 40
0.0625
  1
SCALE:
100
AcDbText
  0
LINE
  5
AC208
100
AcDbEntity
  8
SCALE
100
AcDbLine
 10
1.544916
 20
-0.564244
 30
0.0
 11
1.544916
 21
-0.364244
 31
0.0
  0
TEXT
  5
AC209
100
AcDbEntity
  8
SCALE
100
AcDbText
 10
1.514499
 20
-0.095195
 30
0.0
 40
0.0625
  1
1 Inch
100
AcDbText
  0
LINE
  5
AC20A
100
AcDbEntity
  8
SCALE
100
AcDbLine
 10
2.151216
 20
-0.164244
 30
0.0
 11
2.151216
 21
-0.264244
 31
0.0
  0
LINE
  5
AC20B
100
AcDbEntity
  8
SCALE
100
AcDbLine
 10
2.151216
 20
-0.264244
 30
0.0
 11
2.151216
 21
-0.064244
 31
0.0
  0
VIEWPORT
  5
5677D
102
{ACAD_XDICTIONARY
360
AC2D9
102
}
100
AcDbEntity
 67
     1
  8
0
100
AcDbViewport
 10
5.25
 20
4.0
 30
0.0
 40
16.386862
 41
8.993
 68
    -1
 69
     1
1001
ACAD
1000
MVIEW
1002
{
1070
    16
1010
0.0
1020
0.0
1030
0.0
1010
0.0
1020
0.0
1030
1.0
1040
0.0
1040
8.993
1040
5.25
1040
4.0
1040
50.0
1040
0.0
1040
0.0
1070
     0
1070
 20000
1070
     1
1070
     1
1070
     0
1070
     0
1070
     0
1070
     0
1040
0.0
1040
0.0
1040
0.0
1040
0.5
1040
0.5
1040
0.5
1040
0.5
1070
     0
1002
{
1002
}
1002
}
  0
VIEWPORT
  5
5677F
102
{ACAD_XDICTIONARY
360
AC2DB
102
}
100
AcDbEntity
 67
     1
  8
AREA1
100
AcDbViewport
 10
5.25
 20
4.0
 30
0.0
 40
8.4
 41
6.4
 68
     1
 69
     2
1001
ACAD
1000
MVIEW
1002
{
1070
    16
1010
0.563444
1020
-0.880137
1030
1.686493
1010
0.0
1020
0.0
1030
1.0
1040
0.0
1040
4.582914
1040
-1.017175
1040
0.747813
1040
50.0
1040
0.0
1040
0.0
1070
     0
1070
 20000
1070
     1
1070
     1
1070
     0
1070
     0
1070
     0
1070
     0
1040
0.0
1040
0.0
1040
0.0
1040
0.25
1040
0.25
1040
0.25
1040
0.25
1070
     0
1002
{
1002
}
1002
}
  0
ENDSEC
  0
SECTION
  2
OBJECTS
  0
DICTIONARY
  5
458CB
100
AcDbDictionary
  3
ACAD_GROUP
350
458CC
  3
ACAD_LAYOUT
350
458FB
  3
ACAD_MLINESTYLE
350
458D9
  3
ACAD_PLOTSETTINGS
350
458FC
  3
ACAD_PLOTSTYLENAME
350
458F9
  3
ACDBHEADERROUNDTRIPXREC
350
AC2B0
  3
ACDBVARIABLEDICTIONARY
350
458E1
  3
DWGPROPS
350
45901
  0
DICTIONARY
  5
AC2AE
100
AcDbDictionary
280
     1
  3
ACAD_XREC_ROUNDTRIP
360
AC2AF
  0
DICTIONARY
  5
AC2D7
100
AcDbDictionary
280
     1
  3
ACAD_XREC_ROUNDTRIP
360
AC2D8
  0
DICTIONARY
  5
AC2AC
100
AcDbDictionary
280
     1
  3
ACAD_XREC_ROUNDTRIP
360
AC2AD
  0
DICTIONARY
  5
AC2D3
100
AcDbDictionary
280
     1
  3
ACAD_XREC_ROUNDTRIP
360
AC2D4
  0
DICTIONARY
  5
4592C
100
AcDbDictionary
280
     1
  3
ACAD_LAYOUTSELFREF
360
AC2D2
  0
DICTIONARY
  5
4592A
100
AcDbDictionary
280
     1
  3
ACAD_LAYOUTSELFREF
360
AC2D1
  0
DICTIONARY
  5
AC2D9
100
AcDbDictionary
280
     1
  3
ACAD_XREC_ROUNDTRIP
360
AC2DA
  0
DICTIONARY
  5
AC2DB
100
AcDbDictionary
280
     1
  3
ACAD_XREC_ROUNDTRIP
360
AC2DC
  0
DICTIONARY
  5
458CC
102
{ACAD_REACTORS
330
458CB
102
}
100
AcDbDictionary
  0
DICTIONARY
  5
458FB
102
{ACAD_XDICTIONARY
360
AC2D5
102
}
102
{ACAD_REACTORS
330
458CB
102
}
100
AcDbDictionary
  3
LAYOUT1
350
458FE
  3
MODEL
350
458FD
  0
DICTIONARY
  5
458D9
102
{ACAD_REACTORS
330
458CB
102
}
100
AcDbDictionary
  3
STANDARD
350
458DA
  0
DICTIONARY
  5
458FC
102
{ACAD_REACTORS
330
458CB
102
}
100
AcDbDictionary
  0
ACAD_PROXY_OBJECT
  5
458F9
102
{ACAD_REACTORS
330
458CB
102
}
100
AcDbProxyObject
 90
      499
 91
      501
 93
       86
310
405010041939BDC9B585B0
350
458FA
340
458FA
 94
        0
  0
DICTIONARY
  5
AC2B0
102
{ACAD_REACTORS
330
458CB
102
}
100
AcDbDictionary
  3
CEPSNTYPE
350
AC2BA
  3
DIMSTYLEDATA
350
AC2BE
  3
FINGERPRINTGUID
350
AC2BB
  3
HYPERLINKBASE
350
AC2B3
  3
INSUNITS
350
AC2B9
  3
LAYOUTDICT
350
AC2B5
  3
LWETCUNION
350
AC2B8
  3
PLOTSETDICT
350
AC2B6
  3
PLOTSTYLNAMDICT
350
AC2B7
  3
PSVPSCALE
350
AC2BD
  3
PUCSBASE
350
AC2C1
  3
PUCSORGBACK
350
AC2C7
  3
PUCSORGBOTTOM
350
AC2C3
  3
PUCSORGFRONT
350
AC2C6
  3
PUCSORGLEFT
350
AC2C4
  3
PUCSORGRIGHT
350
AC2C5
  3
PUCSORGTOP
350
AC2C2
  3
PUCSORTHOREF
350
AC2BF
  3
PUCSORTHOVIEW
350
AC2C0
  3
STYLESHEET
350
AC2B4
  3
TSTACKALIGN
350
AC2B1
  3
TSTACKSIZE
350
AC2B2
  3
UCSBASE
350
AC2CA
  3
UCSORGBACK
350
AC2D0
  3
UCSORGBOTTOM
350
AC2CC
  3
UCSORGFRONT
350
AC2CF
  3
UCSORGLEFT
350
AC2CD
  3
UCSORGRIGHT
350
AC2CE
  3
UCSORGTOP
350
AC2CB
  3
UCSORTHOREF
350
AC2C8
  3
UCSORTHOVIEW
350
AC2C9
  3
VERSIONGUID
350
AC2BC
  0
DICTIONARY
  5
458E1
102
{ACAD_REACTORS
330
458CB
102
}
100
AcDbDictionary
  3
DIMADEC
350
458E2
  0
XRECORD
  5
45901
102
{ACAD_REACTORS
330
458CB
102
}
100
AcDbXrecord
  1
DWGPROPS COOKIE
  2

  3

  4

  6

  7

  8
colin
  9

300
=
301
=
302
=
303
=
304
=
305
=
306
=
307
=
308
=
309
=
 40
0.000599
 41
2451670.444777
 42
2451670.445376
  1

 90
        0
  0
XRECORD
  5
AC2AF
102
{ACAD_REACTORS
330
AC2AE
102
}
100
AcDbXrecord
102
EXTNAMES
  1
*ACTIVE
  2
*Active
102
UCS
 74
     0
 71
     1
 10
0.0
 20
0.0
 30
0.0
 10
1.0
 20
0.0
 30
0.0
 10
0.0
 20
1.0
 30
0.0
146
0.0
 79
     1
102
VIEW
281
     1
  0
XRECORD
  5
AC2D8
102
{ACAD_REACTORS
330
AC2D7
102
}
100
AcDbXrecord
102
PLOTBIT
280
     0
  0
XRECORD
  5
AC2AD
102
{ACAD_REACTORS
330
AC2AC
102
}
100
AcDbXrecord
102
EXTNAMES
  1
DEFPOINTS
  2
Defpoints
102
PLOTBIT
280
     0
  0
XRECORD
  5
AC2D4
102
{ACAD_REACTORS
330
AC2D3
102
}
100
AcDbXrecord
102
ACADR14ROUNDTRIP
1000
DSTYLE
1002
{
1070
   276
 70
     2
1070
   277
 70
     5
1070
   279
 70
     2
1070
   289
 70
     2
1002
}
  0
XRECORD
  5
AC2D2
102
{ACAD_REACTORS
330
4592C
102
}
100
AcDbXrecord
340
458D6
  0
XRECORD
  5
AC2D1
102
{ACAD_REACTORS
330
4592A
102
}
100
AcDbXrecord
340
458D3
  0
XRECORD
  5
AC2DA
102
{ACAD_REACTORS
330
AC2D9
102
}
100
AcDbXrecord
102
UCS
 74
     0
 71
     1
 10
0.0
 20
0.0
 30
0.0
 10
1.0
 20
0.0
 30
0.0
 10
0.0
 20
1.0
 30
0.0
146
0.0
 79
     0
102
VIEW
281
     0
102
NEWVIEWCONTROL
280
     4
  0
XRECORD
  5
AC2DC
102
{ACAD_REACTORS
330
AC2DB
102
}
100
AcDbXrecord
102
UCS
 74
     0
 71
     1
 10
0.0
 20
0.0
 30
0.0
 10
1.0
 20
0.0
 30
0.0
 10
0.0
 20
1.0
 30
0.0
146
0.0
 79
     1
102
VIEW
281
     1
102
NEWVIEWCONTROL
280
     4
  0
DICTIONARY
  5
AC2D5
100
AcDbDictionary
280
     1
  3
ACAD_XREC_ROUNDTRIP
360
AC2D6
  0
ACAD_PROXY_OBJECT
  5
458FE
102
{ACAD_REACTORS
330
458FB
102
}
100
AcDbProxyObject
 90
      499
 91
      503
 93
     1700
310
90B6E6F6E655F6465766963652C0080000006066661940000000181999865000000000068661940000000001A1986500000000C0CCFC6A4000000018199D9C5011C4C65747465725F28382E35305F785F31312E30305F496E6368657329A901416AA547D11959985D5B1D08148C4D081C195B88185CDCDA59DB9B595B9D1CC
310
B98DD1891069074C61796F75743140501A840201008040342FEFF7FBFDFFFFF3EFDFAFF7FBFFDFC9501008043E3FDFC8102A6A6A0000003033333C0FC000000809999E93F8FFFFFF5766E622403FFFFFEBF333071020
330
458D3
330
5677D
340
0
340
0
 94
        0
  0
ACAD_PROXY_OBJECT
  5
458FD
102
{ACAD_REACTORS
330
458FB
102
}
100
AcDbProxyObject
 90
      499
 91
      503
 93
      924
310
91D4850204C617365724A65742035303030205365726965732050434C20362C01AAAAAAAAA547D11959985D5B1D08148C4D081C195B88185CDCDA59DB9B595B9D1CCB98DD18A69054D6F64656C901A800000000000000000000000000000000000000000000A1000000000000008902A6A6AAAA0
330
458D6
330
0
340
0
340
0
 94
        0
  0
MLINESTYLE
  5
458DA
102
{ACAD_REACTORS
330
458D9
102
}
100
AcDbMlineStyle
  2
STANDARD
 70
     0
  3

 62
   256
 51
90.0
 52
90.0
 71
     2
 49
0.5
 62
   256
  6
BYLAYER
 49
-0.5
 62
   256
  6
BYLAYER
  0
ACAD_PROXY_OBJECT
  5
458FA
102
{ACAD_REACTORS
330
458F9
102
}
100
AcDbProxyObject
 90
      499
 91
      502
 93
        0
 94
        0
  0
XRECORD
  5
AC2BA
102
{ACAD_REACTORS
330
AC2B0
102
}
100
AcDbXrecord
 90
        0
  0
XRECORD
  5
AC2BE
102
{ACAD_REACTORS
330
AC2B0
102
}
100
AcDbXrecord
1000
DSTYLE
1002
{
1070
   276
 70
     2
1070
   277
 70
     5
1070
   279
 70
     2
1070
   289
 70
     2
1002
}
  0
XRECORD
  5
AC2BB
102
{ACAD_REACTORS
330
AC2B0
102
}
100
AcDbXrecord
  1
{6E0CF4B8-225E-11D4-A150-00A0CC3303EC}
  0
XRECORD
  5
AC2B3
102
{ACAD_REACTORS
330
AC2B0
102
}
100
AcDbXrecord
  1

  0
XRECORD
  5
AC2B9
102
{ACAD_REACTORS
330
AC2B0
102
}
100
AcDbXrecord
 90
        0
  0
XRECORD
  5
AC2B5
102
{ACAD_REACTORS
330
AC2B0
102
}
100
AcDbXrecord
340
458FB
  0
XRECORD
  5
AC2B8
102
{ACAD_REACTORS
330
AC2B0
102
}
100
AcDbXrecord
 90
    14877
  0
XRECORD
  5
AC2B6
102
{ACAD_REACTORS
330
AC2B0
102
}
100
AcDbXrecord
340
458FC
  0
XRECORD
  5
AC2B7
102
{ACAD_REACTORS
330
AC2B0
102
}
100
AcDbXrecord
340
458F9
  0
XRECORD
  5
AC2BD
102
{ACAD_REACTORS
330
AC2B0
102
}
100
AcDbXrecord
 40
0.0
  0
XRECORD
  5
AC2C1
102
{ACAD_REACTORS
330
AC2B0
102
}
100
AcDbXrecord
340
0
  0
XRECORD
  5
AC2C7
102
{ACAD_REACTORS
330
AC2B0
102
}
100
AcDbXrecord
 10
0.0
 20
0.0
 30
0.0
  0
XRECORD
  5
AC2C3
102
{ACAD_REACTORS
330
AC2B0
102
}
100
AcDbXrecord
 10
0.0
 20
0.0
 30
0.0
  0
XRECORD
  5
AC2C6
102
{ACAD_REACTORS
330
AC2B0
102
}
100
AcDbXrecord
 10
0.0
 20
0.0
 30
0.0
  0
XRECORD
  5
AC2C4
102
{ACAD_REACTORS
330
AC2B0
102
}
100
AcDbXrecord
 10
0.0
 20
0.0
 30
0.0
  0
XRECORD
  5
AC2C5
102
{ACAD_REACTORS
330
AC2B0
102
}
100
AcDbXrecord
 10
0.0
 20
0.0
 30
0.0
  0
XRECORD
  5
AC2C2
102
{ACAD_REACTORS
330
AC2B0
102
}
100
AcDbXrecord
 10
0.0
 20
0.0
 30
0.0
  0
XRECORD
  5
AC2BF
102
{ACAD_REACTORS
330
AC2B0
102
}
100
AcDbXrecord
340
0
  0
XRECORD
  5
AC2C0
102
{ACAD_REACTORS
330
AC2B0
102
}
100
AcDbXrecord
 70
     0
  0
XRECORD
  5
AC2B4
102
{ACAD_REACTORS
330
AC2B0
102
}
100
AcDbXrecord
  1

  0
XRECORD
  5
AC2B1
102
{ACAD_REACTORS
330
AC2B0
102
}
100
AcDbXrecord
 90
        1
  0
XRECORD
  5
AC2B2
102
{ACAD_REACTORS
330
AC2B0
102
}
100
AcDbXrecord
 90
       70
  0
XRECORD
  5
AC2CA
102
{ACAD_REACTORS
330
AC2B0
102
}
100
AcDbXrecord
340
0
  0
XRECORD
  5
AC2D0
102
{ACAD_REACTORS
330
AC2B0
102
}
100
AcDbXrecord
 10
0.0
 20
0.0
 30
0.0
  0
XRECORD
  5
AC2CC
102
{ACAD_REACTORS
330
AC2B0
102
}
100
AcDbXrecord
 10
0.0
 20
0.0
 30
0.0
  0
XRECORD
  5
AC2CF
102
{ACAD_REACTORS
330
AC2B0
102
}
100
AcDbXrecord
 10
0.0
 20
0.0
 30
0.0
  0
XRECORD
  5
AC2CD
102
{ACAD_REACTORS
330
AC2B0
102
}
100
AcDbXrecord
 10
0.0
 20
0.0
 30
0.0
  0
XRECORD
  5
AC2CE
102
{ACAD_REACTORS
330
AC2B0
102
}
100
AcDbXrecord
 10
0.0
 20
0.0
 30
0.0
  0
XRECORD
  5
AC2CB
102
{ACAD_REACTORS
330
AC2B0
102
}
100
AcDbXrecord
 10
0.0
 20
0.0
 30
0.0
  0
XRECORD
  5
AC2C8
102
{ACAD_REACTORS
330
AC2B0
102
}
100
AcDbXrecord
340
0
  0
XRECORD
  5
AC2C9
102
{ACAD_REACTORS
330
AC2B0
102
}
100
AcDbXrecord
 70
     1
  0
XRECORD
  5
AC2BC
102
{ACAD_REACTORS
330
AC2B0
102
}
100
AcDbXrecord
  1
{70EFA309-0351-444E-8137-714C19984454}
  0
DICTIONARYVAR
  5
458E2
102
{ACAD_REACTORS
330
458E1
102
}
100
DictionaryVariables
280
     0
  1
0
  0
XRECORD
  5
AC2D6
102
{ACAD_REACTORS
330
AC2D5
102
}
100
AcDbXrecord
102
EXTNAMES
  1
LAYOUT1
  2
Layout1
  1
MODEL
  2
Model
  0
ENDSEC
  0
EOF
