  0
SECTION
  2
HEADER
  9
$ACADVER
  1
AC1014
  9
$ACADMAINTVER
 70
     8
  9
$DWGCODEPAGE
  3
ANSI_1252
  9
$INSBASE
 10
0.0
 20
0.0
 30
0.0
  9
$EXTMIN
 10
-1.347123
 20
-1.119769
 30
-1.792269
  9
$EXTMAX
 10
1.392789
 20
1.357215
 30
0.222269
  9
$LIMMIN
 10
0.0
 20
0.0
  9
$LIMMAX
 10
12.0
 20
9.0
  9
$ORTHOMODE
 70
     0
  9
$REGENMODE
 70
     1
  9
$FILLMODE
 70
     1
  9
$QTEXTMODE
 70
     0
  9
$MIRRTEXT
 70
     1
  9
$DRAGMODE
 70
     2
  9
$LTSCALE
 40
1.0
  9
$OSMODE
 70
    23
  9
$ATTMODE
 70
     0
  9
$TEXTSIZE
 40
0.2
  9
$TRACEWID
 40
0.05
  9
$TEXTSTYLE
  7
STANDARD
  9
$CLAYER
  8
0
  9
$CELTYPE
  6
BYLAYER
  9
$CECOLOR
 62
   256
  9
$CELTSCALE
 40
1.0
  9
$DELOBJ
 70
     1
  9
$DISPSILH
 70
     0
  9
$DIMSCALE
 40
0.0
  9
$DIMASZ
 40
0.125
  9
$DIMEXO
 40
0.0625
  9
$DIMDLI
 40
0.375
  9
$DIMRND
 40
0.0
  9
$DIMDLE
 40
0.0
  9
$DIMEXE
 40
0.0625
  9
$DIMTP
 40
0.0
  9
$DIMTM
 40
0.0
  9
$DIMTXT
 40
0.125
  9
$DIMCEN
 40
0.09
  9
$DIMTSZ
 40
0.0
  9
$DIMTOL
 70
     0
  9
$DIMLIM
 70
     0
  9
$DIMTIH
 70
     0
  9
$DIMTOH
 70
     1
  9
$DIMSE1
 70
     0
  9
$DIMSE2
 70
     0
  9
$DIMTAD
 70
     0
  9
$DIMZIN
 70
     4
  9
$DIMBLK
  1

  9
$DIMASO
 70
     1
  9
$DIMSHO
 70
     1
  9
$DIMPOST
  1

  9
$DIMAPOST
  1

  9
$DIMALT
 70
     1
  9
$DIMALTD
 70
     2
  9
$DIMALTF
 40
25.4
  9
$DIMLFAC
 40
1.0
  9
$DIMTOFL
 70
     0
  9
$DIMTVP
 40
0.0
  9
$DIMTIX
 70
     0
  9
$DIMSOXD
 70
     0
  9
$DIMSAH
 70
     0
  9
$DIMBLK1
  1

  9
$DIMBLK2
  1

  9
$DIMSTYLE
  2
ABECAD_3V
  9
$DIMCLRD
 70
     0
  9
$DIMCLRE
 70
     0
  9
$DIMCLRT
 70
     0
  9
$DIMTFAC
 40
1.5
  9
$DIMGAP
 40
0.09
  9
$DIMJUST
 70
     0
  9
$DIMSD1
 70
     0
  9
$DIMSD2
 70
     0
  9
$DIMTOLJ
 70
     1
  9
$DIMTZIN
 70
     4
  9
$DIMALTZ
 70
     4
  9
$DIMALTTZ
 70
     4
  9
$DIMFIT
 70
     5
  9
$DIMUPT
 70
     1
  9
$DIMUNIT
 70
     7
  9
$DIMDEC
 70
     6
  9
$DIMTDEC
 70
     6
  9
$DIMALTU
 70
     2
  9
$DIMALTTD
 70
     2
  9
$DIMTXSTY
  7
STANDARD
  9
$DIMAUNIT
 70
     0
  9
$LUNITS
 70
     2
  9
$LUPREC
 70
     6
  9
$SKETCHINC
 40
0.1
  9
$FILLETRAD
 40
0.0
  9
$AUNITS
 70
     0
  9
$AUPREC
 70
     0
  9
$MENU
  1
acad
  9
$ELEVATION
 40
0.0
  9
$PELEVATION
 40
0.0
  9
$THICKNESS
 40
0.0
  9
$LIMCHECK
 70
     0
  9
$BLIPMODE
 70
     0
  9
$CHAMFERA
 40
0.0
  9
$CHAMFERB
 40
0.0
  9
$CHAMFERC
 40
0.0
  9
$CHAMFERD
 40
0.0
  9
$SKPOLY
 70
     0
  9
$TDCREATE
 40
2451726.438362384
  9
$TDUPDATE
 40
2452577.378126389
  9
$TDINDWG
 40
1.4551083333
  9
$TDUSRTIMER
 40
1.4551083333
  9
$USRTIMER
 70
     1
  9
$ANGBASE
 50
0.0
  9
$ANGDIR
 70
     0
  9
$PDMODE
 70
     3
  9
$PDSIZE
 40
0.18
  9
$PLINEWID
 40
0.0
  9
$COORDS
 70
     1
  9
$SPLFRAME
 70
     0
  9
$SPLINETYPE
 70
     6
  9
$SPLINESEGS
 70
     8
  9
$ATTDIA
 70
     0
  9
$ATTREQ
 70
     1
  9
$HANDLING
 70
     1
  9
$HANDSEED
  5
6EEE0
  9
$SURFTAB1
 70
     6
  9
$SURFTAB2
 70
     6
  9
$SURFTYPE
 70
     6
  9
$SURFU
 70
     6
  9
$SURFV
 70
     6
  9
$UCSNAME
  2

  9
$UCSORG
 10
0.0
 20
0.0
 30
0.0
  9
$UCSXDIR
 10
1.0
 20
0.0
 30
0.0
  9
$UCSYDIR
 10
0.0
 20
1.0
 30
0.0
  9
$PUCSNAME
  2

  9
$PUCSORG
 10
0.0
 20
0.0
 30
0.0
  9
$PUCSXDIR
 10
1.0
 20
0.0
 30
0.0
  9
$PUCSYDIR
 10
0.0
 20
1.0
 30
0.0
  9
$USERI1
 70
     0
  9
$USERI2
 70
     0
  9
$USERI3
 70
     0
  9
$USERI4
 70
     0
  9
$USERI5
 70
     0
  9
$USERR1
 40
0.0
  9
$USERR2
 40
0.0
  9
$USERR3
 40
0.0
  9
$USERR4
 40
0.0
  9
$USERR5
 40
0.0
  9
$WORLDVIEW
 70
     1
  9
$SHADEDGE
 70
     3
  9
$SHADEDIF
 70
    70
  9
$TILEMODE
 70
     0
  9
$MAXACTVP
 70
    16
  9
$PINSBASE
 10
0.0
 20
0.0
 30
0.0
  9
$PLIMCHECK
 70
     0
  9
$PEXTMIN
 10
0.0
 20
0.0
 30
0.0
  9
$PEXTMAX
 10
10.0
 20
7.5
 30
0.0
  9
$PLIMMIN
 10
-0.187029
 20
-0.186938
  9
$PLIMMAX
 10
10.187518
 20
7.829757
  9
$UNITMODE
 70
     0
  9
$VISRETAIN
 70
     0
  9
$PLINEGEN
 70
     0
  9
$PSLTSCALE
 70
     1
  9
$TREEDEPTH
 70
  3020
  9
$PICKSTYLE
 70
     1
  9
$CMLSTYLE
  2
STANDARD
  9
$CMLJUST
 70
     0
  9
$CMLSCALE
 40
1.0
  9
$PROXYGRAPHICS
 70
     1
  9
$MEASUREMENT
 70
     0
  0
ENDSEC
  0
SECTION
  2
CLASSES
  0
CLASS
  1
DICTIONARYVAR
  2
AcDbDictionaryVar
  3
"AutoCAD"
 90
        0
280
     0
281
     0
  0
CLASS
  1
ACDBDICTIONARYWDFLT
  2
AcDbDictionaryWithDefault
  3
AutoCAD 2000
 90
        0
280
     0
281
     0
  0
CLASS
  1
ACDBPLACEHOLDER
  2
AcDbPlaceHolder
  3
AutoCAD 2000
 90
        0
280
     0
281
     0
  0
CLASS
  1
LAYOUT
  2
AcDbLayout
  3
AutoCAD 2000
 90
        0
280
     0
281
     0
  0
CLASS
  1
LONG_TRANSACTION
  2
AcDbLongTransaction
  3
AutoCAD 2000
 90
        0
280
     0
281
     0
  0
CLASS
  1
LWPOLYLINE
  2
AcDbPolyline
  3
"AutoCAD"
 90
        0
280
     0
281
     1
  0
CLASS
  1
HATCH
  2
AcDbHatch
  3
"ACAD_SEDONA"
 90
        0
280
     0
281
     1
  0
CLASS
  1
XRECORD
  2
AcDbXrecord
  3
"<Built In>"
 90
        0
280
     0
281
     0
  0
CLASS
  1
LONG_TRANSACTION
  2
AcDbLongTransaction
  3
AutoCAD 2000
 90
        0
280
     0
281
     0
  0
CLASS
  1
LWPOLYLINE
  2
AcDbPolyline
  3
"AutoCAD"
 90
        0
280
     0
281
     1
  0
CLASS
  1
HATCH
  2
AcDbHatch
  3
"ACAD_SEDONA"
 90
        0
280
     0
281
     1
  0
CLASS
  1
XRECORD
  2
AcDbXrecord
  3
"<Built In>"
 90
        0
280
     0
281
     0
  0
CLASS
  1
LONG_TRANSACTION
  2
AcDbLongTransaction
  3
AutoCAD 2000
 90
        0
280
     0
281
     0
  0
CLASS
  1
LWPOLYLINE
  2
AcDbPolyline
  3
"AutoCAD"
 90
        0
280
     0
281
     1
  0
CLASS
  1
HATCH
  2
AcDbHatch
  3
"ACAD_SEDONA"
 90
        0
280
     0
281
     1
  0
CLASS
  1
XRECORD
  2
AcDbXrecord
  3
"<Built In>"
 90
        0
280
     0
281
     0
  0
CLASS
  1
LONG_TRANSACTION
  2
AcDbLongTransaction
  3
AutoCAD 2000
 90
        0
280
     0
281
     0
  0
CLASS
  1
LWPOLYLINE
  2
AcDbPolyline
  3
"AutoCAD"
 90
        0
280
     0
281
     1
  0
CLASS
  1
HATCH
  2
AcDbHatch
  3
"ACAD_SEDONA"
 90
        0
280
     0
281
     1
  0
CLASS
  1
XRECORD
  2
AcDbXrecord
  3
"<Built In>"
 90
        0
280
     0
281
     0
  0
CLASS
  1
LONG_TRANSACTION
  2
AcDbLongTransaction
  3
AutoCAD 2000
 90
        0
280
     0
281
     0
  0
CLASS
  1
LWPOLYLINE
  2
AcDbPolyline
  3
"AutoCAD"
 90
        0
280
     0
281
     1
  0
CLASS
  1
HATCH
  2
AcDbHatch
  3
"ACAD_SEDONA"
 90
        0
280
     0
281
     1
  0
CLASS
  1
XRECORD
  2
AcDbXrecord
  3
"<Built In>"
 90
        0
280
     0
281
     0
  0
CLASS
  1
LONG_TRANSACTION
  2
AcDbLongTransaction
  3
AutoCAD 2000
 90
        0
280
     0
281
     0
  0
CLASS
  1
LWPOLYLINE
  2
AcDbPolyline
  3
"AutoCAD"
 90
        0
280
     0
281
     1
  0
CLASS
  1
HATCH
  2
AcDbHatch
  3
"ACAD_SEDONA"
 90
        0
280
     0
281
     1
  0
CLASS
  1
XRECORD
  2
AcDbXrecord
  3
"<Built In>"
 90
        0
280
     0
281
     0
  0
CLASS
  1
LONG_TRANSACTION
  2
AcDbLongTransaction
  3
AutoCAD 2000
 90
        0
280
     0
281
     0
  0
CLASS
  1
LWPOLYLINE
  2
AcDbPolyline
  3
"AutoCAD"
 90
        0
280
     0
281
     1
  0
CLASS
  1
HATCH
  2
AcDbHatch
  3
"ACAD_SEDONA"
 90
        0
280
     0
281
     1
  0
CLASS
  1
XRECORD
  2
AcDbXrecord
  3
"<Built In>"
 90
        0
280
     0
281
     0
  0
CLASS
  1
LONG_TRANSACTION
  2
AcDbLongTransaction
  3
AutoCAD 2000
 90
        0
280
     0
281
     0
  0
CLASS
  1
LWPOLYLINE
  2
AcDbPolyline
  3
"AutoCAD"
 90
        0
280
     0
281
     1
  0
CLASS
  1
HATCH
  2
AcDbHatch
  3
"ACAD_SEDONA"
 90
        0
280
     0
281
     1
  0
CLASS
  1
XRECORD
  2
AcDbXrecord
  3
"<Built In>"
 90
        0
280
     0
281
     0
  0
CLASS
  1
LONG_TRANSACTION
  2
AcDbLongTransaction
  3
AutoCAD 2000
 90
        0
280
     0
281
     0
  0
CLASS
  1
LWPOLYLINE
  2
AcDbPolyline
  3
"AutoCAD"
 90
        0
280
     0
281
     1
  0
CLASS
  1
HATCH
  2
AcDbHatch
  3
"ACAD_SEDONA"
 90
        0
280
     0
281
     1
  0
CLASS
  1
XRECORD
  2
AcDbXrecord
  3
"<Built In>"
 90
        0
280
     0
281
     0
  0
CLASS
  1
LONG_TRANSACTION
  2
AcDbLongTransaction
  3
AutoCAD 2000
 90
        0
280
     0
281
     0
  0
CLASS
  1
LWPOLYLINE
  2
AcDbPolyline
  3
"AutoCAD"
 90
        0
280
     0
281
     1
  0
CLASS
  1
HATCH
  2
AcDbHatch
  3
"ACAD_SEDONA"
 90
        0
280
     0
281
     1
  0
CLASS
  1
XRECORD
  2
AcDbXrecord
  3
"<Built In>"
 90
        0
280
     0
281
     0
  0
CLASS
  1
LONG_TRANSACTION
  2
AcDbLongTransaction
  3
AutoCAD 2000
 90
        0
280
     0
281
     0
  0
CLASS
  1
LWPOLYLINE
  2
AcDbPolyline
  3
"AutoCAD"
 90
        0
280
     0
281
     1
  0
CLASS
  1
HATCH
  2
AcDbHatch
  3
"ACAD_SEDONA"
 90
        0
280
     0
281
     1
  0
CLASS
  1
XRECORD
  2
AcDbXrecord
  3
"<Built In>"
 90
        0
280
     0
281
     0
  0
CLASS
  1
LONG_TRANSACTION
  2
AcDbLongTransaction
  3
AutoCAD 2000
 90
        0
280
     0
281
     0
  0
CLASS
  1
LWPOLYLINE
  2
AcDbPolyline
  3
"AutoCAD"
 90
        0
280
     0
281
     1
  0
CLASS
  1
HATCH
  2
AcDbHatch
  3
"ACAD_SEDONA"
 90
        0
280
     0
281
     1
  0
CLASS
  1
XRECORD
  2
AcDbXrecord
  3
"<Built In>"
 90
        0
280
     0
281
     0
  0
CLASS
  1
LONG_TRANSACTION
  2
AcDbLongTransaction
  3
AutoCAD 2000
 90
        0
280
     0
281
     0
  0
CLASS
  1
LWPOLYLINE
  2
AcDbPolyline
  3
"AutoCAD"
 90
        0
280
     0
281
     1
  0
CLASS
  1
HATCH
  2
AcDbHatch
  3
"ACAD_SEDONA"
 90
        0
280
     0
281
     1
  0
CLASS
  1
XRECORD
  2
AcDbXrecord
  3
"<Built In>"
 90
        0
280
     0
281
     0
  0
CLASS
  1
LONG_TRANSACTION
  2
AcDbLongTransaction
  3
AutoCAD 2000
 90
        0
280
     0
281
     0
  0
CLASS
  1
LWPOLYLINE
  2
AcDbPolyline
  3
"AutoCAD"
 90
        0
280
     0
281
     1
  0
CLASS
  1
HATCH
  2
AcDbHatch
  3
"ACAD_SEDONA"
 90
        0
280
     0
281
     1
  0
CLASS
  1
XRECORD
  2
AcDbXrecord
  3
"<Built In>"
 90
        0
280
     0
281
     0
  0
CLASS
  1
LONG_TRANSACTION
  2
AcDbLongTransaction
  3
AutoCAD 2000
 90
        0
280
     0
281
     0
  0
CLASS
  1
LWPOLYLINE
  2
AcDbPolyline
  3
"AutoCAD"
 90
        0
280
     0
281
     1
  0
CLASS
  1
HATCH
  2
AcDbHatch
  3
"ACAD_SEDONA"
 90
        0
280
     0
281
     1
  0
CLASS
  1
XRECORD
  2
AcDbXrecord
  3
"<Built In>"
 90
        0
280
     0
281
     0
  0
CLASS
  1
LONG_TRANSACTION
  2
AcDbLongTransaction
  3
AutoCAD 2000
 90
        0
280
     0
281
     0
  0
CLASS
  1
LWPOLYLINE
  2
AcDbPolyline
  3
"AutoCAD"
 90
        0
280
     0
281
     1
  0
CLASS
  1
HATCH
  2
AcDbHatch
  3
"ACAD_SEDONA"
 90
        0
280
     0
281
     1
  0
CLASS
  1
XRECORD
  2
AcDbXrecord
  3
"<Built In>"
 90
        0
280
     0
281
     0
  0
CLASS
  1
LONG_TRANSACTION
  2
AcDbLongTransaction
  3
AutoCAD 2000
 90
        0
280
     0
281
     0
  0
CLASS
  1
LWPOLYLINE
  2
AcDbPolyline
  3
"AutoCAD"
 90
        0
280
     0
281
     1
  0
CLASS
  1
HATCH
  2
AcDbHatch
  3
"ACAD_SEDONA"
 90
        0
280
     0
281
     1
  0
CLASS
  1
XRECORD
  2
AcDbXrecord
  3
"<Built In>"
 90
        0
280
     0
281
     0
  0
CLASS
  1
LONG_TRANSACTION
  2
AcDbLongTransaction
  3
AutoCAD 2000
 90
        0
280
     0
281
     0
  0
CLASS
  1
LWPOLYLINE
  2
AcDbPolyline
  3
"AutoCAD"
 90
        0
280
     0
281
     1
  0
CLASS
  1
HATCH
  2
AcDbHatch
  3
"ACAD_SEDONA"
 90
        0
280
     0
281
     1
  0
CLASS
  1
XRECORD
  2
AcDbXrecord
  3
"<Built In>"
 90
        0
280
     0
281
     0
  0
CLASS
  1
LONG_TRANSACTION
  2
AcDbLongTransaction
  3
AutoCAD 2000
 90
        0
280
     0
281
     0
  0
CLASS
  1
LWPOLYLINE
  2
AcDbPolyline
  3
"AutoCAD"
 90
        0
280
     0
281
     1
  0
CLASS
  1
HATCH
  2
AcDbHatch
  3
"ACAD_SEDONA"
 90
        0
280
     0
281
     1
  0
CLASS
  1
XRECORD
  2
AcDbXrecord
  3
"<Built In>"
 90
        0
280
     0
281
     0
  0
CLASS
  1
LONG_TRANSACTION
  2
AcDbLongTransaction
  3
AutoCAD 2000
 90
        0
280
     0
281
     0
  0
CLASS
  1
LWPOLYLINE
  2
AcDbPolyline
  3
"AutoCAD"
 90
        0
280
     0
281
     1
  0
CLASS
  1
HATCH
  2
AcDbHatch
  3
"ACAD_SEDONA"
 90
        0
280
     0
281
     1
  0
CLASS
  1
XRECORD
  2
AcDbXrecord
  3
"<Built In>"
 90
        0
280
     0
281
     0
  0
CLASS
  1
LONG_TRANSACTION
  2
AcDbLongTransaction
  3
AutoCAD 2000
 90
        0
280
     0
281
     0
  0
CLASS
  1
LWPOLYLINE
  2
AcDbPolyline
  3
"AutoCAD"
 90
        0
280
     0
281
     1
  0
CLASS
  1
HATCH
  2
AcDbHatch
  3
"ACAD_SEDONA"
 90
        0
280
     0
281
     1
  0
CLASS
  1
XRECORD
  2
AcDbXrecord
  3
"<Built In>"
 90
        0
280
     0
281
     0
  0
CLASS
  1
LONG_TRANSACTION
  2
AcDbLongTransaction
  3
AutoCAD 2000
 90
        0
280
     0
281
     0
  0
CLASS
  1
LWPOLYLINE
  2
AcDbPolyline
  3
"AutoCAD"
 90
        0
280
     0
281
     1
  0
CLASS
  1
HATCH
  2
AcDbHatch
  3
"ACAD_SEDONA"
 90
        0
280
     0
281
     1
  0
CLASS
  1
XRECORD
  2
AcDbXrecord
  3
"<Built In>"
 90
        0
280
     0
281
     0
  0
CLASS
  1
LONG_TRANSACTION
  2
AcDbLongTransaction
  3
AutoCAD 2000
 90
        0
280
     0
281
     0
  0
CLASS
  1
LWPOLYLINE
  2
AcDbPolyline
  3
"AutoCAD"
 90
        0
280
     0
281
     1
  0
CLASS
  1
HATCH
  2
AcDbHatch
  3
"ACAD_SEDONA"
 90
        0
280
     0
281
     1
  0
CLASS
  1
XRECORD
  2
AcDbXrecord
  3
"<Built In>"
 90
        0
280
     0
281
     0
  0
CLASS
  1
LONG_TRANSACTION
  2
AcDbLongTransaction
  3
AutoCAD 2000
 90
        0
280
     0
281
     0
  0
CLASS
  1
LWPOLYLINE
  2
AcDbPolyline
  3
"AutoCAD"
 90
        0
280
     0
281
     1
  0
CLASS
  1
HATCH
  2
AcDbHatch
  3
"ACAD_SEDONA"
 90
        0
280
     0
281
     1
  0
CLASS
  1
XRECORD
  2
AcDbXrecord
  3
"<Built In>"
 90
        0
280
     0
281
     0
  0
CLASS
  1
LONG_TRANSACTION
  2
AcDbLongTransaction
  3
AutoCAD 2000
 90
        0
280
     0
281
     0
  0
CLASS
  1
LWPOLYLINE
  2
AcDbPolyline
  3
"AutoCAD"
 90
        0
280
     0
281
     1
  0
CLASS
  1
HATCH
  2
AcDbHatch
  3
"ACAD_SEDONA"
 90
        0
280
     0
281
     1
  0
CLASS
  1
XRECORD
  2
AcDbXrecord
  3
"<Built In>"
 90
        0
280
     0
281
     0
  0
CLASS
  1
LONG_TRANSACTION
  2
AcDbLongTransaction
  3
AutoCAD 2000
 90
        0
280
     0
281
     0
  0
CLASS
  1
LWPOLYLINE
  2
AcDbPolyline
  3
"AutoCAD"
 90
        0
280
     0
281
     1
  0
CLASS
  1
HATCH
  2
AcDbHatch
  3
"ACAD_SEDONA"
 90
        0
280
     0
281
     1
  0
CLASS
  1
XRECORD
  2
AcDbXrecord
  3
"<Built In>"
 90
        0
280
     0
281
     0
  0
CLASS
  1
LONG_TRANSACTION
  2
AcDbLongTransaction
  3
AutoCAD 2000
 90
        0
280
     0
281
     0
  0
CLASS
  1
LWPOLYLINE
  2
AcDbPolyline
  3
"AutoCAD"
 90
        0
280
     0
281
     1
  0
CLASS
  1
HATCH
  2
AcDbHatch
  3
"ACAD_SEDONA"
 90
        0
280
     0
281
     1
  0
CLASS
  1
XRECORD
  2
AcDbXrecord
  3
"<Built In>"
 90
        0
280
     0
281
     0
  0
CLASS
  1
LONG_TRANSACTION
  2
AcDbLongTransaction
  3
AutoCAD 2000
 90
        0
280
     0
281
     0
  0
CLASS
  1
LWPOLYLINE
  2
AcDbPolyline
  3
"AutoCAD"
 90
        0
280
     0
281
     1
  0
CLASS
  1
HATCH
  2
AcDbHatch
  3
"ACAD_SEDONA"
 90
        0
280
     0
281
     1
  0
CLASS
  1
XRECORD
  2
AcDbXrecord
  3
"<Built In>"
 90
        0
280
     0
281
     0
  0
CLASS
  1
LONG_TRANSACTION
  2
AcDbLongTransaction
  3
AutoCAD 2000
 90
        0
280
     0
281
     0
  0
CLASS
  1
LWPOLYLINE
  2
AcDbPolyline
  3
"AutoCAD"
 90
        0
280
     0
281
     1
  0
CLASS
  1
HATCH
  2
AcDbHatch
  3
"ACAD_SEDONA"
 90
        0
280
     0
281
     1
  0
CLASS
  1
XRECORD
  2
AcDbXrecord
  3
"<Built In>"
 90
        0
280
     0
281
     0
  0
CLASS
  1
LONG_TRANSACTION
  2
AcDbLongTransaction
  3
AutoCAD 2000
 90
        0
280
     0
281
     0
  0
CLASS
  1
LWPOLYLINE
  2
AcDbPolyline
  3
"AutoCAD"
 90
        0
280
     0
281
     1
  0
CLASS
  1
HATCH
  2
AcDbHatch
  3
"ACAD_SEDONA"
 90
        0
280
     0
281
     1
  0
CLASS
  1
XRECORD
  2
AcDbXrecord
  3
"<Built In>"
 90
        0
280
     0
281
     0
  0
CLASS
  1
LONG_TRANSACTION
  2
AcDbLongTransaction
  3
AutoCAD 2000
 90
        0
280
     0
281
     0
  0
CLASS
  1
LWPOLYLINE
  2
AcDbPolyline
  3
"AutoCAD"
 90
        0
280
     0
281
     1
  0
CLASS
  1
HATCH
  2
AcDbHatch
  3
"ACAD_SEDONA"
 90
        0
280
     0
281
     1
  0
CLASS
  1
XRECORD
  2
AcDbXrecord
  3
"<Built In>"
 90
        0
280
     0
281
     0
  0
CLASS
  1
LONG_TRANSACTION
  2
AcDbLongTransaction
  3
AutoCAD 2000
 90
        0
280
     0
281
     0
  0
CLASS
  1
LWPOLYLINE
  2
AcDbPolyline
  3
"AutoCAD"
 90
        0
280
     0
281
     1
  0
CLASS
  1
HATCH
  2
AcDbHatch
  3
"ACAD_SEDONA"
 90
        0
280
     0
281
     1
  0
CLASS
  1
XRECORD
  2
AcDbXrecord
  3
"<Built In>"
 90
        0
280
     0
281
     0
  0
CLASS
  1
LONG_TRANSACTION
  2
AcDbLongTransaction
  3
AutoCAD 2000
 90
        0
280
     0
281
     0
  0
CLASS
  1
LWPOLYLINE
  2
AcDbPolyline
  3
"AutoCAD"
 90
        0
280
     0
281
     1
  0
CLASS
  1
HATCH
  2
AcDbHatch
  3
"ACAD_SEDONA"
 90
        0
280
     0
281
     1
  0
CLASS
  1
XRECORD
  2
AcDbXrecord
  3
"<Built In>"
 90
        0
280
     0
281
     0
  0
CLASS
  1
LONG_TRANSACTION
  2
AcDbLongTransaction
  3
AutoCAD 2000
 90
        0
280
     0
281
     0
  0
CLASS
  1
LWPOLYLINE
  2
AcDbPolyline
  3
"AutoCAD"
 90
        0
280
     0
281
     1
  0
CLASS
  1
HATCH
  2
AcDbHatch
  3
"ACAD_SEDONA"
 90
        0
280
     0
281
     1
  0
CLASS
  1
XRECORD
  2
AcDbXrecord
  3
"<Built In>"
 90
        0
280
     0
281
     0
  0
CLASS
  1
LONG_TRANSACTION
  2
AcDbLongTransaction
  3
AutoCAD 2000
 90
        0
280
     0
281
     0
  0
CLASS
  1
LWPOLYLINE
  2
AcDbPolyline
  3
"AutoCAD"
 90
        0
280
     0
281
     1
  0
CLASS
  1
HATCH
  2
AcDbHatch
  3
"ACAD_SEDONA"
 90
        0
280
     0
281
     1
  0
CLASS
  1
XRECORD
  2
AcDbXrecord
  3
"<Built In>"
 90
        0
280
     0
281
     0
  0
CLASS
  1
LONG_TRANSACTION
  2
AcDbLongTransaction
  3
AutoCAD 2000
 90
        0
280
     0
281
     0
  0
CLASS
  1
LWPOLYLINE
  2
AcDbPolyline
  3
"AutoCAD"
 90
        0
280
     0
281
     1
  0
CLASS
  1
HATCH
  2
AcDbHatch
  3
"ACAD_SEDONA"
 90
        0
280
     0
281
     1
  0
CLASS
  1
XRECORD
  2
AcDbXrecord
  3
"<Built In>"
 90
        0
280
     0
281
     0
  0
CLASS
  1
LONG_TRANSACTION
  2
AcDbLongTransaction
  3
AutoCAD 2000
 90
        0
280
     0
281
     0
  0
CLASS
  1
LWPOLYLINE
  2
AcDbPolyline
  3
"AutoCAD"
 90
        0
280
     0
281
     1
  0
CLASS
  1
HATCH
  2
AcDbHatch
  3
"ACAD_SEDONA"
 90
        0
280
     0
281
     1
  0
CLASS
  1
XRECORD
  2
AcDbXrecord
  3
"<Built In>"
 90
        0
280
     0
281
     0
  0
CLASS
  1
LONG_TRANSACTION
  2
AcDbLongTransaction
  3
AutoCAD 2000
 90
        0
280
     0
281
     0
  0
CLASS
  1
LWPOLYLINE
  2
AcDbPolyline
  3
"AutoCAD"
 90
        0
280
     0
281
     1
  0
CLASS
  1
HATCH
  2
AcDbHatch
  3
"ACAD_SEDONA"
 90
        0
280
     0
281
     1
  0
CLASS
  1
XRECORD
  2
AcDbXrecord
  3
"<Built In>"
 90
        0
280
     0
281
     0
  0
CLASS
  1
LONG_TRANSACTION
  2
AcDbLongTransaction
  3
AutoCAD 2000
 90
        0
280
     0
281
     0
  0
CLASS
  1
LWPOLYLINE
  2
AcDbPolyline
  3
"AutoCAD"
 90
        0
280
     0
281
     1
  0
CLASS
  1
HATCH
  2
AcDbHatch
  3
"ACAD_SEDONA"
 90
        0
280
     0
281
     1
  0
CLASS
  1
XRECORD
  2
AcDbXrecord
  3
"<Built In>"
 90
        0
280
     0
281
     0
  0
CLASS
  1
LONG_TRANSACTION
  2
AcDbLongTransaction
  3
AutoCAD 2000
 90
        0
280
     0
281
     0
  0
CLASS
  1
LWPOLYLINE
  2
AcDbPolyline
  3
"AutoCAD"
 90
        0
280
     0
281
     1
  0
CLASS
  1
HATCH
  2
AcDbHatch
  3
"ACAD_SEDONA"
 90
        0
280
     0
281
     1
  0
CLASS
  1
XRECORD
  2
AcDbXrecord
  3
"<Built In>"
 90
        0
280
     0
281
     0
  0
CLASS
  1
LONG_TRANSACTION
  2
AcDbLongTransaction
  3
AutoCAD 2000
 90
        0
280
     0
281
     0
  0
CLASS
  1
LWPOLYLINE
  2
AcDbPolyline
  3
"AutoCAD"
 90
        0
280
     0
281
     1
  0
CLASS
  1
HATCH
  2
AcDbHatch
  3
"ACAD_SEDONA"
 90
        0
280
     0
281
     1
  0
CLASS
  1
XRECORD
  2
AcDbXrecord
  3
"<Built In>"
 90
        0
280
     0
281
     0
  0
CLASS
  1
LONG_TRANSACTION
  2
AcDbLongTransaction
  3
AutoCAD 2000
 90
        0
280
     0
281
     0
  0
CLASS
  1
LWPOLYLINE
  2
AcDbPolyline
  3
"AutoCAD"
 90
        0
280
     0
281
     1
  0
CLASS
  1
HATCH
  2
AcDbHatch
  3
"ACAD_SEDONA"
 90
        0
280
     0
281
     1
  0
CLASS
  1
XRECORD
  2
AcDbXrecord
  3
"<Built In>"
 90
        0
280
     0
281
     0
  0
CLASS
  1
LONG_TRANSACTION
  2
AcDbLongTransaction
  3
AutoCAD 2000
 90
        0
280
     0
281
     0
  0
CLASS
  1
LWPOLYLINE
  2
AcDbPolyline
  3
"AutoCAD"
 90
        0
280
     0
281
     1
  0
CLASS
  1
HATCH
  2
AcDbHatch
  3
"ACAD_SEDONA"
 90
        0
280
     0
281
     1
  0
CLASS
  1
XRECORD
  2
AcDbXrecord
  3
"<Built In>"
 90
        0
280
     0
281
     0
  0
CLASS
  1
LONG_TRANSACTION
  2
AcDbLongTransaction
  3
AutoCAD 2000
 90
        0
280
     0
281
     0
  0
CLASS
  1
LWPOLYLINE
  2
AcDbPolyline
  3
"AutoCAD"
 90
        0
280
     0
281
     1
  0
CLASS
  1
HATCH
  2
AcDbHatch
  3
"ACAD_SEDONA"
 90
        0
280
     0
281
     1
  0
CLASS
  1
XRECORD
  2
AcDbXrecord
  3
"<Built In>"
 90
        0
280
     0
281
     0
  0
CLASS
  1
LONG_TRANSACTION
  2
AcDbLongTransaction
  3
AutoCAD 2000
 90
        0
280
     0
281
     0
  0
CLASS
  1
LWPOLYLINE
  2
AcDbPolyline
  3
"AutoCAD"
 90
        0
280
     0
281
     1
  0
CLASS
  1
HATCH
  2
AcDbHatch
  3
"ACAD_SEDONA"
 90
        0
280
     0
281
     1
  0
CLASS
  1
XRECORD
  2
AcDbXrecord
  3
"<Built In>"
 90
        0
280
     0
281
     0
  0
CLASS
  1
LONG_TRANSACTION
  2
AcDbLongTransaction
  3
AutoCAD 2000
 90
        0
280
     0
281
     0
  0
CLASS
  1
LWPOLYLINE
  2
AcDbPolyline
  3
"AutoCAD"
 90
        0
280
     0
281
     1
  0
CLASS
  1
HATCH
  2
AcDbHatch
  3
"ACAD_SEDONA"
 90
        0
280
     0
281
     1
  0
CLASS
  1
XRECORD
  2
AcDbXrecord
  3
"<Built In>"
 90
        0
280
     0
281
     0
  0
CLASS
  1
LONG_TRANSACTION
  2
AcDbLongTransaction
  3
AutoCAD 2000
 90
        0
280
     0
281
     0
  0
CLASS
  1
LWPOLYLINE
  2
AcDbPolyline
  3
"AutoCAD"
 90
        0
280
     0
281
     1
  0
CLASS
  1
HATCH
  2
AcDbHatch
  3
"ACAD_SEDONA"
 90
        0
280
     0
281
     1
  0
CLASS
  1
XRECORD
  2
AcDbXrecord
  3
"<Built In>"
 90
        0
280
     0
281
     0
  0
CLASS
  1
LONG_TRANSACTION
  2
AcDbLongTransaction
  3
AutoCAD 2000
 90
        0
280
     0
281
     0
  0
CLASS
  1
LWPOLYLINE
  2
AcDbPolyline
  3
"AutoCAD"
 90
        0
280
     0
281
     1
  0
CLASS
  1
HATCH
  2
AcDbHatch
  3
"ACAD_SEDONA"
 90
        0
280
     0
281
     1
  0
CLASS
  1
XRECORD
  2
AcDbXrecord
  3
"<Built In>"
 90
        0
280
     0
281
     0
  0
CLASS
  1
LONG_TRANSACTION
  2
AcDbLongTransaction
  3
AutoCAD 2000
 90
        0
280
     0
281
     0
  0
CLASS
  1
LWPOLYLINE
  2
AcDbPolyline
  3
"AutoCAD"
 90
        0
280
     0
281
     1
  0
CLASS
  1
HATCH
  2
AcDbHatch
  3
"ACAD_SEDONA"
 90
        0
280
     0
281
     1
  0
CLASS
  1
XRECORD
  2
AcDbXrecord
  3
"<Built In>"
 90
        0
280
     0
281
     0
  0
CLASS
  1
LONG_TRANSACTION
  2
AcDbLongTransaction
  3
AutoCAD 2000
 90
        0
280
     0
281
     0
  0
CLASS
  1
LWPOLYLINE
  2
AcDbPolyline
  3
"AutoCAD"
 90
        0
280
     0
281
     1
  0
CLASS
  1
HATCH
  2
AcDbHatch
  3
"ACAD_SEDONA"
 90
        0
280
     0
281
     1
  0
CLASS
  1
XRECORD
  2
AcDbXrecord
  3
"<Built In>"
 90
        0
280
     0
281
     0
  0
CLASS
  1
LONG_TRANSACTION
  2
AcDbLongTransaction
  3
AutoCAD 2000
 90
        0
280
     0
281
     0
  0
CLASS
  1
LWPOLYLINE
  2
AcDbPolyline
  3
"AutoCAD"
 90
        0
280
     0
281
     1
  0
CLASS
  1
HATCH
  2
AcDbHatch
  3
"ACAD_SEDONA"
 90
        0
280
     0
281
     1
  0
CLASS
  1
XRECORD
  2
AcDbXrecord
  3
"<Built In>"
 90
        0
280
     0
281
     0
  0
CLASS
  1
LONG_TRANSACTION
  2
AcDbLongTransaction
  3
AutoCAD 2000
 90
        0
280
     0
281
     0
  0
CLASS
  1
LWPOLYLINE
  2
AcDbPolyline
  3
"AutoCAD"
 90
        0
280
     0
281
     1
  0
CLASS
  1
HATCH
  2
AcDbHatch
  3
"ACAD_SEDONA"
 90
        0
280
     0
281
     1
  0
CLASS
  1
XRECORD
  2
AcDbXrecord
  3
"<Built In>"
 90
        0
280
     0
281
     0
  0
CLASS
  1
LONG_TRANSACTION
  2
AcDbLongTransaction
  3
AutoCAD 2000
 90
        0
280
     0
281
     0
  0
CLASS
  1
LWPOLYLINE
  2
AcDbPolyline
  3
"AutoCAD"
 90
        0
280
     0
281
     1
  0
CLASS
  1
HATCH
  2
AcDbHatch
  3
"ACAD_SEDONA"
 90
        0
280
     0
281
     1
  0
CLASS
  1
XRECORD
  2
AcDbXrecord
  3
"<Built In>"
 90
        0
280
     0
281
     0
  0
CLASS
  1
LONG_TRANSACTION
  2
AcDbLongTransaction
  3
AutoCAD 2000
 90
        0
280
     0
281
     0
  0
CLASS
  1
LWPOLYLINE
  2
AcDbPolyline
  3
"AutoCAD"
 90
        0
280
     0
281
     1
  0
CLASS
  1
HATCH
  2
AcDbHatch
  3
"ACAD_SEDONA"
 90
        0
280
     0
281
     1
  0
CLASS
  1
XRECORD
  2
AcDbXrecord
  3
"<Built In>"
 90
        0
280
     0
281
     0
  0
CLASS
  1
LONG_TRANSACTION
  2
AcDbLongTransaction
  3
AutoCAD 2000
 90
        0
280
     0
281
     0
  0
CLASS
  1
LWPOLYLINE
  2
AcDbPolyline
  3
"AutoCAD"
 90
        0
280
     0
281
     1
  0
CLASS
  1
HATCH
  2
AcDbHatch
  3
"ACAD_SEDONA"
 90
        0
280
     0
281
     1
  0
CLASS
  1
XRECORD
  2
AcDbXrecord
  3
"<Built In>"
 90
        0
280
     0
281
     0
  0
CLASS
  1
LONG_TRANSACTION
  2
AcDbLongTransaction
  3
AutoCAD 2000
 90
        0
280
     0
281
     0
  0
CLASS
  1
LWPOLYLINE
  2
AcDbPolyline
  3
"AutoCAD"
 90
        0
280
     0
281
     1
  0
CLASS
  1
HATCH
  2
AcDbHatch
  3
"ACAD_SEDONA"
 90
        0
280
     0
281
     1
  0
CLASS
  1
XRECORD
  2
AcDbXrecord
  3
"<Built In>"
 90
        0
280
     0
281
     0
  0
CLASS
  1
LONG_TRANSACTION
  2
AcDbLongTransaction
  3
AutoCAD 2000
 90
        0
280
     0
281
     0
  0
CLASS
  1
LWPOLYLINE
  2
AcDbPolyline
  3
"AutoCAD"
 90
        0
280
     0
281
     1
  0
CLASS
  1
HATCH
  2
AcDbHatch
  3
"ACAD_SEDONA"
 90
        0
280
     0
281
     1
  0
CLASS
  1
XRECORD
  2
AcDbXrecord
  3
"<Built In>"
 90
        0
280
     0
281
     0
  0
CLASS
  1
LONG_TRANSACTION
  2
AcDbLongTransaction
  3
AutoCAD 2000
 90
        0
280
     0
281
     0
  0
CLASS
  1
LWPOLYLINE
  2
AcDbPolyline
  3
"AutoCAD"
 90
        0
280
     0
281
     1
  0
CLASS
  1
HATCH
  2
AcDbHatch
  3
"ACAD_SEDONA"
 90
        0
280
     0
281
     1
  0
CLASS
  1
XRECORD
  2
AcDbXrecord
  3
"<Built In>"
 90
        0
280
     0
281
     0
  0
CLASS
  1
LONG_TRANSACTION
  2
AcDbLongTransaction
  3
AutoCAD 2000
 90
        0
280
     0
281
     0
  0
CLASS
  1
LWPOLYLINE
  2
AcDbPolyline
  3
"AutoCAD"
 90
        0
280
     0
281
     1
  0
CLASS
  1
HATCH
  2
AcDbHatch
  3
"ACAD_SEDONA"
 90
        0
280
     0
281
     1
  0
CLASS
  1
XRECORD
  2
AcDbXrecord
  3
"<Built In>"
 90
        0
280
     0
281
     0
  0
CLASS
  1
LONG_TRANSACTION
  2
AcDbLongTransaction
  3
AutoCAD 2000
 90
        0
280
     0
281
     0
  0
CLASS
  1
LWPOLYLINE
  2
AcDbPolyline
  3
"AutoCAD"
 90
        0
280
     0
281
     1
  0
CLASS
  1
HATCH
  2
AcDbHatch
  3
"ACAD_SEDONA"
 90
        0
280
     0
281
     1
  0
CLASS
  1
XRECORD
  2
AcDbXrecord
  3
"<Built In>"
 90
        0
280
     0
281
     0
  0
CLASS
  1
LONG_TRANSACTION
  2
AcDbLongTransaction
  3
AutoCAD 2000
 90
        0
280
     0
281
     0
  0
CLASS
  1
LWPOLYLINE
  2
AcDbPolyline
  3
"AutoCAD"
 90
        0
280
     0
281
     1
  0
CLASS
  1
HATCH
  2
AcDbHatch
  3
"ACAD_SEDONA"
 90
        0
280
     0
281
     1
  0
CLASS
  1
XRECORD
  2
AcDbXrecord
  3
"<Built In>"
 90
        0
280
     0
281
     0
  0
CLASS
  1
LONG_TRANSACTION
  2
AcDbLongTransaction
  3
AutoCAD 2000
 90
        0
280
     0
281
     0
  0
CLASS
  1
LWPOLYLINE
  2
AcDbPolyline
  3
"AutoCAD"
 90
        0
280
     0
281
     1
  0
CLASS
  1
HATCH
  2
AcDbHatch
  3
"ACAD_SEDONA"
 90
        0
280
     0
281
     1
  0
CLASS
  1
XRECORD
  2
AcDbXrecord
  3
"<Built In>"
 90
        0
280
     0
281
     0
  0
CLASS
  1
LONG_TRANSACTION
  2
AcDbLongTransaction
  3
AutoCAD 2000
 90
        0
280
     0
281
     0
  0
CLASS
  1
LWPOLYLINE
  2
AcDbPolyline
  3
"AutoCAD"
 90
        0
280
     0
281
     1
  0
CLASS
  1
HATCH
  2
AcDbHatch
  3
"ACAD_SEDONA"
 90
        0
280
     0
281
     1
  0
CLASS
  1
XRECORD
  2
AcDbXrecord
  3
"<Built In>"
 90
        0
280
     0
281
     0
  0
CLASS
  1
LONG_TRANSACTION
  2
AcDbLongTransaction
  3
AutoCAD 2000
 90
        0
280
     0
281
     0
  0
CLASS
  1
LWPOLYLINE
  2
AcDbPolyline
  3
"AutoCAD"
 90
        0
280
     0
281
     1
  0
CLASS
  1
HATCH
  2
AcDbHatch
  3
"ACAD_SEDONA"
 90
        0
280
     0
281
     1
  0
CLASS
  1
XRECORD
  2
AcDbXrecord
  3
"<Built In>"
 90
        0
280
     0
281
     0
  0
ENDSEC
  0
SECTION
  2
TABLES
  0
TABLE
  2
VPORT
  5
469
100
AcDbSymbolTable
 70
     1
  0
VPORT
  5
6EA9A
102
{ACAD_XDICTIONARY
360
6EEA8
102
}
100
AcDbSymbolTableRecord
100
AcDbViewportTableRecord
  2
*ACTIVE
 70
     0
 10
0.0
 20
0.0
 11
1.0
 21
1.0
 12
-0.688189
 22
6.253987
 13
0.0
 23
0.0
 14
1.0
 24
1.0
 15
0.0
 25
0.0
 16
0.0
 26
0.0
 36
1.0
 17
0.648805
 27
-6.132183
 37
2.586733
 40
2.567446
 41
1.786496
 42
50.0
 43
0.0
 44
0.0
 50
0.0
 51
0.0
 71
     0
 72
   100
 73
     1
 74
     1
 75
     0
 76
     0
 77
     0
 78
     0
  0
ENDTAB
  0
TABLE
  2
LTYPE
  5
466
100
AcDbSymbolTable
 70
     1
  0
LTYPE
  5
472
100
AcDbSymbolTableRecord
100
AcDbLinetypeTableRecord
  2
BYBLOCK
 70
     0
  3

 72
    65
 73
     0
 40
0.0
  0
LTYPE
  5
473
100
AcDbSymbolTableRecord
100
AcDbLinetypeTableRecord
  2
BYLAYER
 70
     0
  3

 72
    65
 73
     0
 40
0.0
  0
LTYPE
  5
474
100
AcDbSymbolTableRecord
100
AcDbLinetypeTableRecord
  2
CONTINUOUS
 70
     0
  3
Solid line
 72
    65
 73
     0
 40
0.0
  0
ENDTAB
  0
TABLE
  2
LAYER
  5
463
100
AcDbSymbolTable
 70
     8
  0
LAYER
  5
46F
100
AcDbSymbolTableRecord
100
AcDbLayerTableRecord
  2
0
 70
     0
 62
     7
  6
CONTINUOUS
  0
LAYER
  5
485
100
AcDbSymbolTableRecord
100
AcDbLayerTableRecord
  2
AREA1
 70
     0
 62
     7
  6
CONTINUOUS
  0
LAYER
  5
486
100
AcDbSymbolTableRecord
100
AcDbLayerTableRecord
  2
AREA2
 70
     0
 62
     7
  6
CONTINUOUS
  0
LAYER
  5
494
102
{ACAD_XDICTIONARY
360
6EED5
102
}
100
AcDbSymbolTableRecord
100
AcDbLayerTableRecord
  2
DEFPOINTS
 70
     0
 62
    -7
  6
CONTINUOUS
  0
LAYER
  5
495
100
AcDbSymbolTableRecord
100
AcDbLayerTableRecord
  2
DIMS-MTG-HOLES
 70
     0
 62
    -1
  6
CONTINUOUS
  0
LAYER
  5
4E6
100
AcDbSymbolTableRecord
100
AcDbLayerTableRecord
  2
SCALE
 70
     0
 62
    -7
  6
CONTINUOUS
  0
LAYER
  5
4ED
100
AcDbSymbolTableRecord
100
AcDbLayerTableRecord
  2
SNAP_POINTS
 70
     0
 62
    -1
  6
CONTINUOUS
  0
LAYER
  5
4F1
100
AcDbSymbolTableRecord
100
AcDbLayerTableRecord
  2
ATTRIBUTES
 70
     0
 62
    -7
  6
CONTINUOUS
  0
ENDTAB
  0
TABLE
  2
STYLE
  5
464
100
AcDbSymbolTable
 70
     1
  0
STYLE
  5
470
100
AcDbSymbolTableRecord
100
AcDbTextStyleTableRecord
  2
STANDARD
 70
     0
 40
0.0
 41
1.0
 50
0.0
 71
     0
 42
0.2
  3
txt
  4

  0
ENDTAB
  0
TABLE
  2
VIEW
  5
467
100
AcDbSymbolTable
 70
     0
  0
ENDTAB
  0
TABLE
  2
UCS
  5
468
100
AcDbSymbolTable
 70
     0
  0
ENDTAB
  0
TABLE
  2
APPID
  5
46A
100
AcDbSymbolTable
 70
     2
  0
APPID
  5
471
100
AcDbSymbolTableRecord
100
AcDbRegAppTableRecord
  2
ACAD
 70
     0
  0
APPID
  5
47E
100
AcDbSymbolTableRecord
100
AcDbRegAppTableRecord
  2
AVE_RENDER
 70
     0
  0
ENDTAB
  0
TABLE
  2
DIMSTYLE
  5
46B
100
AcDbSymbolTable
 70
     2
  0
DIMSTYLE
105
49A
102
{ACAD_XDICTIONARY
360
6EED7
102
}
102
{ACAD_REACTORS
330
6EA8C
330
6EA56
330
6EA55
102
}
100
AcDbSymbolTableRecord
100
AcDbDimStyleTableRecord
  2
ABECAD_3V
 70
     0
  3

  4

  5

  6

  7

 40
0.0
 41
0.125
 42
0.0625
 43
0.375
 44
0.0625
 45
0.0
 46
0.0
 47
0.0
 48
0.0
140
0.125
141
0.09
142
0.0
143
25.4
144
1.0
145
0.0
146
1.5
147
0.09
 71
     0
 72
     0
 73
     0
 74
     1
 75
     0
 76
     0
 77
     0
 78
     4
170
     1
171
     2
172
     0
173
     0
174
     0
175
     0
176
     0
177
     0
178
     0
270
     7
271
     6
272
     6
273
     2
274
     2
340
470
275
     0
280
     0
281
     0
282
     0
283
     1
284
     4
285
     4
286
     4
287
     5
288
     1
  0
DIMSTYLE
105
512
102
{ACAD_XDICTIONARY
360
6EEDB
102
}
100
AcDbSymbolTableRecord
100
AcDbDimStyleTableRecord
  2
ABECAD_3D
 70
     0
  3

  4

  5

  6

  7

 40
1.0
 41
0.18
 42
0.0625
 43
0.375
 44
0.18
 45
0.0
 46
0.0
 47
0.0
 48
0.0
140
0.18
141
0.09
142
0.0
143
25.4
144
1.0
145
0.0
146
1.5
147
0.09
 71
     0
 72
     0
 73
     0
 74
     1
 75
     0
 76
     0
 77
     0
 78
     4
170
     1
171
     2
172
     0
173
     0
174
     0
175
     0
176
     0
177
     0
178
     0
270
     7
271
     6
272
     6
273
     2
274
     2
340
470
275
     0
280
     0
281
     0
282
     0
283
     1
284
     4
285
     4
286
     4
287
     5
288
     1
  0
ENDTAB
  0
TABLE
  2
BLOCK_RECORD
  5
462
100
AcDbSymbolTable
 70
     3
  0
BLOCK_RECORD
  5
478
102
{ACAD_XDICTIONARY
360
4D2
102
}
100
AcDbSymbolTableRecord
100
AcDbBlockTableRecord
  2
*MODEL_SPACE
  0
BLOCK_RECORD
  5
475
102
{ACAD_XDICTIONARY
360
4D0
102
}
100
AcDbSymbolTableRecord
100
AcDbBlockTableRecord
  2
*PAPER_SPACE
  0
BLOCK_RECORD
  5
6EA62
100
AcDbSymbolTableRecord
100
AcDbBlockTableRecord
  2
*D0
  0
BLOCK_RECORD
  5
6EA6E
100
AcDbSymbolTableRecord
100
AcDbBlockTableRecord
  2
*D1
  0
BLOCK_RECORD
  5
6EA8D
100
AcDbSymbolTableRecord
100
AcDbBlockTableRecord
  2
*D2
  0
ENDTAB
  0
ENDSEC
  0
SECTION
  2
BLOCKS
  0
BLOCK
  5
48B
100
AcDbEntity
  8
0
100
AcDbBlockBegin
  2
*MODEL_SPACE
 70
     0
 10
0.0
 20
0.0
 30
0.0
  3
*MODEL_SPACE
  1

  0
ENDBLK
  5
48C
100
AcDbEntity
  8
0
100
AcDbBlockEnd
  0
BLOCK
  5
489
100
AcDbEntity
 67
     1
  8
0
100
AcDbBlockBegin
  2
*PAPER_SPACE
 70
     0
 10
0.0
 20
0.0
 30
0.0
  3
*PAPER_SPACE
  1

  0
ENDBLK
  5
48A
100
AcDbEntity
 67
     1
  8
0
100
AcDbBlockEnd
  0
BLOCK
  5
6EA6C
100
AcDbEntity
  8
0
100
AcDbBlockBegin
  2
*D0
 70
     1
 10
0.0
 20
0.0
 30
0.0
  3
*D0
  1

  0
LINE
  5
6EAAE
100
AcDbEntity
  8
AREA1
 62
     0
100
AcDbLine
 10
-1.018567
 20
-0.8975
 30
0.0
 11
-1.347123
 21
-0.8975
 31
0.0
1001
ACAD
1000
RTLwPs
1070
   158
  0
LINE
  5
6EAAF
100
AcDbEntity
  8
AREA1
 62
     0
100
AcDbLine
 10
-1.018567
 20
0.8975
 30
0.0
 11
-1.347123
 21
0.8975
 31
0.0
1001
ACAD
1000
RTLwPs
1070
   158
  0
LINE
  5
6EAB0
100
AcDbEntity
  8
AREA1
 62
     0
100
AcDbLine
 10
-1.291555
 20
-1.008635
 30
0.0
 11
-1.291555
 21
-1.119769
 31
0.0
1001
ACAD
1000
RTLwPs
1070
   158
  0
LINE
  5
6EAB1
100
AcDbEntity
  8
AREA1
 62
     0
100
AcDbLine
 10
-1.291555
 20
1.008635
 30
0.0
 11
-1.291555
 21
1.119769
 31
0.0
1001
ACAD
1000
RTLwPs
1070
   158
  0
MTEXT
  5
6EAB2
100
AcDbEntity
  8
AREA1
 62
     0
100
AcDbMText
 10
-1.291555
 20
-0.008042
 30
0.0
 40
0.111135
 41
0.0
 71
     5
 72
     1
  1
\A1;1 51/64 [45.59]
 11
0.0
 21
1.0
 31
0.0
1001
ACAD
1000
MTEXTBEGIN
1070
    73
1070
     1
1070
    44
1040
1.0
1070
    74
1070
     0
1000
MTEXTEND
1000
MTEXTBEGIN
1070
    73
1070
     1
1070
    44
1040
1.0
1070
    74
1070
     0
1000
MTEXTEND
1000
MTEXTBEGIN
1070
    73
1070
     1
1070
    44
1040
1.0
1070
    74
1070
     0
1000
MTEXTEND
1000
MTEXTBEGIN
1070
    73
1070
     1
1070
    44
1040
1.0
1070
    74
1070
     0
1000
MTEXTEND
1000
MTEXTBEGIN
1070
    73
1070
     1
1070
    44
1040
1.0
1070
    74
1070
     0
1000
MTEXTEND
1000
MTEXTBEGIN
1070
    73
1070
     1
1070
    44
1040
1.0
1070
    74
1070
     0
1000
MTEXTEND
1000
MTEXTBEGIN
1070
    73
1070
     1
1070
    44
1040
1.0
1070
    74
1070
     0
1000
MTEXTEND
1000
MTEXTBEGIN
1070
    73
1070
     1
1070
    44
1040
1.0
1070
    74
1070
     0
1000
MTEXTEND
1000
MTEXTBEGIN
1070
    73
1070
     1
1070
    44
1040
1.0
1070
    74
1070
     0
1000
MTEXTEND
1000
MTEXTBEGIN
1070
    73
1070
     1
1070
    44
1040
1.0
1070
    74
1070
     0
1000
MTEXTEND
1000
MTEXTBEGIN
1070
    73
1070
     1
1070
    44
1040
1.0
1070
    74
1070
     0
1000
MTEXTEND
1000
MTEXTBEGIN
1070
    73
1070
     1
1070
    44
1040
1.0
1070
    74
1070
     0
1000
MTEXTEND
1000
MTEXTBEGIN
1070
    73
1070
     1
1070
    44
1040
1.0
1070
    74
1070
     0
1000
MTEXTEND
1000
MTEXTBEGIN
1070
    73
1070
     1
1070
    44
1040
1.0
1070
    74
1070
     0
1000
MTEXTEND
1000
MTEXTBEGIN
1070
    73
1070
     1
1070
    44
1040
1.0
1070
    74
1070
     0
1000
MTEXTEND
1000
MTEXTBEGIN
1070
    73
1070
     1
1070
    44
1040
1.0
1070
    74
1070
     0
1000
MTEXTEND
1000
MTEXTBEGIN
1070
    73
1070
     1
1070
    44
1040
1.0
1070
    74
1070
     0
1000
MTEXTEND
1000
MTEXTBEGIN
1070
    73
1070
     1
1070
    44
1040
1.0
1070
    74
1070
     0
1000
MTEXTEND
1000
MTEXTBEGIN
1070
    73
1070
     1
1070
    44
1040
1.0
1070
    74
1070
     0
1000
MTEXTEND
  0
SOLID
  5
6EAB3
100
AcDbEntity
  8
AREA1
 62
     0
100
AcDbTrace
 10
-1.310078
 20
-1.008635
 30
0.0
 11
-1.273033
 21
-1.008635
 31
0.0
 12
-1.291555
 22
-0.8975
 32
0.0
 13
-1.291555
 23
-0.8975
 33
0.0
  0
SOLID
  5
6EAB4
100
AcDbEntity
  8
AREA1
 62
     0
100
AcDbTrace
 10
-1.310078
 20
1.008635
 30
0.0
 11
-1.273033
 21
1.008635
 31
0.0
 12
-1.291555
 22
0.8975
 32
0.0
 13
-1.291555
 23
0.8975
 33
0.0
  0
POINT
  5
6EAB5
100
AcDbEntity
  8
DEFPOINTS
 62
     0
100
AcDbPoint
 10
-0.963
 20
-0.8975
 30
-0.18
  0
POINT
  5
6EAB6
100
AcDbEntity
  8
DEFPOINTS
 62
     0
100
AcDbPoint
 10
-0.963
 20
0.8975
 30
-0.18
  0
POINT
  5
6EAB7
100
AcDbEntity
  8
DEFPOINTS
 62
     0
100
AcDbPoint
 10
-1.291555
 20
0.8975
 30
0.0
  0
ENDBLK
  5
6EA6D
100
AcDbEntity
  8
0
100
AcDbBlockEnd
  0
BLOCK
  5
6EA78
100
AcDbEntity
  8
0
100
AcDbBlockBegin
  2
*D1
 70
     1
 10
0.0
 20
0.0
 30
0.0
  3
*D1
  1

  0
LINE
  5
6EAA5
100
AcDbEntity
  8
AREA1
 62
     0
100
AcDbLine
 10
-0.963
 20
0.953067
 30
0.0
 11
-0.963
 21
1.179773
 31
0.0
1001
ACAD
1000
RTLwPs
1070
   158
  0
LINE
  5
6EAA6
100
AcDbEntity
  8
AREA1
 62
     0
100
AcDbLine
 10
0.106
 20
0.870067
 30
0.0
 11
0.106
 21
1.179773
 31
0.0
1001
ACAD
1000
RTLwPs
1070
   158
  0
LINE
  5
6EAA7
100
AcDbEntity
  8
AREA1
 62
     0
100
AcDbLine
 10
-0.851865
 20
1.124206
 30
0.0
 11
-0.005135
 21
1.124206
 31
0.0
1001
ACAD
1000
RTLwPs
1070
   158
  0
MTEXT
  5
6EAA8
100
AcDbEntity
  8
AREA1
 62
     0
100
AcDbMText
 10
-0.429004
 20
1.301648
 30
0.0
 40
0.111135
 41
0.0
 71
     5
 72
     1
  1
\A1;1 1/16 [27.15]
1001
ACAD
1000
MTEXTBEGIN
1070
    73
1070
     1
1070
    44
1040
1.0
1070
    74
1070
     0
1000
MTEXTEND
1000
MTEXTBEGIN
1070
    73
1070
     1
1070
    44
1040
1.0
1070
    74
1070
     0
1000
MTEXTEND
1000
MTEXTBEGIN
1070
    73
1070
     1
1070
    44
1040
1.0
1070
    74
1070
     0
1000
MTEXTEND
1000
MTEXTBEGIN
1070
    73
1070
     1
1070
    44
1040
1.0
1070
    74
1070
     0
1000
MTEXTEND
1000
MTEXTBEGIN
1070
    73
1070
     1
1070
    44
1040
1.0
1070
    74
1070
     0
1000
MTEXTEND
1000
MTEXTBEGIN
1070
    73
1070
     1
1070
    44
1040
1.0
1070
    74
1070
     0
1000
MTEXTEND
1000
MTEXTBEGIN
1070
    73
1070
     1
1070
    44
1040
1.0
1070
    74
1070
     0
1000
MTEXTEND
1000
MTEXTBEGIN
1070
    73
1070
     1
1070
    44
1040
1.0
1070
    74
1070
     0
1000
MTEXTEND
1000
MTEXTBEGIN
1070
    73
1070
     1
1070
    44
1040
1.0
1070
    74
1070
     0
1000
MTEXTEND
1000
MTEXTBEGIN
1070
    73
1070
     1
1070
    44
1040
1.0
1070
    74
1070
     0
1000
MTEXTEND
1000
MTEXTBEGIN
1070
    73
1070
     1
1070
    44
1040
1.0
1070
    74
1070
     0
1000
MTEXTEND
1000
MTEXTBEGIN
1070
    73
1070
     1
1070
    44
1040
1.0
1070
    74
1070
     0
1000
MTEXTEND
1000
MTEXTBEGIN
1070
    73
1070
     1
1070
    44
1040
1.0
1070
    74
1070
     0
1000
MTEXTEND
1000
MTEXTBEGIN
1070
    73
1070
     1
1070
    44
1040
1.0
1070
    74
1070
     0
1000
MTEXTEND
1000
MTEXTBEGIN
1070
    73
1070
     1
1070
    44
1040
1.0
1070
    74
1070
     0
1000
MTEXTEND
1000
MTEXTBEGIN
1070
    73
1070
     1
1070
    44
1040
1.0
1070
    74
1070
     0
1000
MTEXTEND
1000
MTEXTBEGIN
1070
    73
1070
     1
1070
    44
1040
1.0
1070
    74
1070
     0
1000
MTEXTEND
1000
MTEXTBEGIN
1070
    73
1070
     1
1070
    44
1040
1.0
1070
    74
1070
     0
1000
MTEXTEND
1000
MTEXTBEGIN
1070
    73
1070
     1
1070
    44
1040
1.0
1070
    74
1070
     0
1000
MTEXTEND
  0
SOLID
  5
6EAA9
100
AcDbEntity
  8
AREA1
 62
     0
100
AcDbTrace
 10
-0.851865
 20
1.142728
 30
0.0
 11
-0.851865
 21
1.105684
 31
0.0
 12
-0.963
 22
1.124206
 32
0.0
 13
-0.963
 23
1.124206
 33
0.0
  0
SOLID
  5
6EAAA
100
AcDbEntity
  8
AREA1
 62
     0
100
AcDbTrace
 10
-0.005135
 20
1.142728
 30
0.0
 11
-0.005135
 21
1.105684
 31
0.0
 12
0.106
 22
1.124206
 32
0.0
 13
0.106
 23
1.124206
 33
0.0
  0
POINT
  5
6EAAB
100
AcDbEntity
  8
DEFPOINTS
 62
     0
100
AcDbPoint
 10
-0.963
 20
0.8975
 30
-0.18
  0
POINT
  5
6EAAC
100
AcDbEntity
  8
DEFPOINTS
 62
     0
100
AcDbPoint
 10
0.106
 20
0.8145
 30
0.0
  0
POINT
  5
6EAAD
100
AcDbEntity
  8
DEFPOINTS
 62
     0
100
AcDbPoint
 10
0.106
 20
1.124206
 30
0.0
  0
ENDBLK
  5
6EA79
100
AcDbEntity
  8
0
100
AcDbBlockEnd
  0
BLOCK
  5
6EA97
100
AcDbEntity
  8
0
100
AcDbBlockBegin
  2
*D2
 70
     1
 10
0.0
 20
0.0
 30
0.0
  3
*D2
  1

  0
LINE
  5
6EA9B
100
AcDbEntity
  8
AREA2
 62
     0
100
AcDbLine
 10
-1.018567
 20
0.0
 30
0.0
 11
-1.300348
 21
0.0
 31
0.0
1001
ACAD
1000
RTLwPs
1070
   158
  0
LINE
  5
6EA9C
100
AcDbEntity
  8
AREA2
 62
     0
100
AcDbLine
 10
-1.018567
 20
-1.57
 30
0.0
 11
-1.300348
 21
-1.57
 31
0.0
1001
ACAD
1000
RTLwPs
1070
   158
  0
LINE
  5
6EA9D
100
AcDbEntity
  8
AREA2
 62
     0
100
AcDbLine
 10
-1.24478
 20
0.111135
 30
0.0
 11
-1.24478
 21
0.222269
 31
0.0
1001
ACAD
1000
RTLwPs
1070
   158
  0
LINE
  5
6EA9E
100
AcDbEntity
  8
AREA2
 62
     0
100
AcDbLine
 10
-1.24478
 20
-1.681135
 30
0.0
 11
-1.24478
 21
-1.792269
 31
0.0
1001
ACAD
1000
RTLwPs
1070
   158
  0
MTEXT
  5
6EA9F
100
AcDbEntity
  8
AREA2
 62
     0
100
AcDbMText
 10
-1.24478
 20
-0.775927
 30
0.0
 40
0.111135
 41
0.0
 71
     5
 72
     1
  1
\A1;1 9/16 [39.88]
 11
0.0
 21
1.0
 31
0.0
1001
ACAD
1000
MTEXTBEGIN
1070
    73
1070
     1
1070
    44
1040
1.0
1070
    74
1070
     0
1000
MTEXTEND
1000
MTEXTBEGIN
1070
    73
1070
     1
1070
    44
1040
1.0
1070
    74
1070
     0
1000
MTEXTEND
1000
MTEXTBEGIN
1070
    73
1070
     1
1070
    44
1040
1.0
1070
    74
1070
     0
1000
MTEXTEND
1000
MTEXTBEGIN
1070
    73
1070
     1
1070
    44
1040
1.0
1070
    74
1070
     0
1000
MTEXTEND
1000
MTEXTBEGIN
1070
    73
1070
     1
1070
    44
1040
1.0
1070
    74
1070
     0
1000
MTEXTEND
1000
MTEXTBEGIN
1070
    73
1070
     1
1070
    44
1040
1.0
1070
    74
1070
     0
1000
MTEXTEND
1000
MTEXTBEGIN
1070
    73
1070
     1
1070
    44
1040
1.0
1070
    74
1070
     0
1000
MTEXTEND
1000
MTEXTBEGIN
1070
    73
1070
     1
1070
    44
1040
1.0
1070
    74
1070
     0
1000
MTEXTEND
1000
MTEXTBEGIN
1070
    73
1070
     1
1070
    44
1040
1.0
1070
    74
1070
     0
1000
MTEXTEND
1000
MTEXTBEGIN
1070
    73
1070
     1
1070
    44
1040
1.0
1070
    74
1070
     0
1000
MTEXTEND
1000
MTEXTBEGIN
1070
    73
1070
     1
1070
    44
1040
1.0
1070
    74
1070
     0
1000
MTEXTEND
1000
MTEXTBEGIN
1070
    73
1070
     1
1070
    44
1040
1.0
1070
    74
1070
     0
1000
MTEXTEND
1000
MTEXTBEGIN
1070
    73
1070
     1
1070
    44
1040
1.0
1070
    74
1070
     0
1000
MTEXTEND
1000
MTEXTBEGIN
1070
    73
1070
     1
1070
    44
1040
1.0
1070
    74
1070
     0
1000
MTEXTEND
1000
MTEXTBEGIN
1070
    73
1070
     1
1070
    44
1040
1.0
1070
    74
1070
     0
1000
MTEXTEND
1000
MTEXTBEGIN
1070
    73
1070
     1
1070
    44
1040
1.0
1070
    74
1070
     0
1000
MTEXTEND
1000
MTEXTBEGIN
1070
    73
1070
     1
1070
    44
1040
1.0
1070
    74
1070
     0
1000
MTEXTEND
1000
MTEXTBEGIN
1070
    73
1070
     1
1070
    44
1040
1.0
1070
    74
1070
     0
1000
MTEXTEND
1000
MTEXTBEGIN
1070
    73
1070
     1
1070
    44
1040
1.0
1070
    74
1070
     0
1000
MTEXTEND
  0
SOLID
  5
6EAA0
100
AcDbEntity
  8
AREA2
 62
     0
100
AcDbTrace
 10
-1.263303
 20
0.111135
 30
0.0
 11
-1.226258
 21
0.111135
 31
0.0
 12
-1.24478
 22
0.0
 32
0.0
 13
-1.24478
 23
0.0
 33
0.0
  0
SOLID
  5
6EAA1
100
AcDbEntity
  8
AREA2
 62
     0
100
AcDbTrace
 10
-1.263303
 20
-1.681135
 30
0.0
 11
-1.226258
 21
-1.681135
 31
0.0
 12
-1.24478
 22
-1.57
 32
0.0
 13
-1.24478
 23
-1.57
 33
0.0
  0
POINT
  5
6EAA2
100
AcDbEntity
  8
DEFPOINTS
 62
     0
100
AcDbPoint
 10
-0.963
 20
0.0
 30
-1.124206
  0
POINT
  5
6EAA3
100
AcDbEntity
  8
DEFPOINTS
 62
     0
100
AcDbPoint
 10
-0.963
 20
-1.57
 30
-0.3555
  0
POINT
  5
6EAA4
100
AcDbEntity
  8
DEFPOINTS
 62
     0
100
AcDbPoint
 10
-1.24478
 20
-1.57
 30
0.0
  0
ENDBLK
  5
6EA98
100
AcDbEntity
  8
0
100
AcDbBlockEnd
  0
ENDSEC
  0
SECTION
  2
ENTITIES
  0
POINT
  5
6E8BB
100
AcDbEntity
  8
SNAP_POINTS
100
AcDbPoint
 10
0.0
 20
0.0
 30
0.0
  0
POLYLINE
  5
6E8BC
100
AcDbEntity
  8
0
100
AcDbPolygonMesh
 66
     1
 10
0.0
 20
0.0
 30
0.0
 70
    16
 71
     6
 72
     3
  0
VERTEX
  5
6E8BD
100
AcDbEntity
  8
0
100
AcDbVertex
100
AcDbPolygonMeshVertex
 10
-0.468
 20
0.8145
 30
-1.57
 70
    64
  0
VERTEX
  5
6E8BE
100
AcDbEntity
  8
0
100
AcDbVertex
100
AcDbPolygonMeshVertex
 10
-0.468
 20
0.8145
 30
0.0
 70
    64
  0
VERTEX
  5
6E8BF
100
AcDbEntity
  8
0
100
AcDbVertex
100
AcDbPolygonMeshVertex
 10
-0.468
 20
0.8145
 30
0.0
 70
    64
  0
VERTEX
  5
6E8C0
100
AcDbEntity
  8
0
100
AcDbVertex
100
AcDbPolygonMeshVertex
 10
-0.468
 20
-0.8145
 30
-1.57
 70
    64
  0
VERTEX
  5
6E8C1
100
AcDbEntity
  8
0
100
AcDbVertex
100
AcDbPolygonMeshVertex
 10
-0.468
 20
-0.8145
 30
0.0
 70
    64
  0
VERTEX
  5
6E8C2
100
AcDbEntity
  8
0
100
AcDbVertex
100
AcDbPolygonMeshVertex
 10
-0.468
 20
-0.8145
 30
0.0
 70
    64
  0
VERTEX
  5
6E8C3
100
AcDbEntity
  8
0
100
AcDbVertex
100
AcDbPolygonMeshVertex
 10
-0.126
 20
-0.8145
 30
-1.57
 70
    64
  0
VERTEX
  5
6E8C4
100
AcDbEntity
  8
0
100
AcDbVertex
100
AcDbPolygonMeshVertex
 10
-0.126
 20
-0.8145
 30
0.0
 70
    64
  0
VERTEX
  5
6E8C5
100
AcDbEntity
  8
0
100
AcDbVertex
100
AcDbPolygonMeshVertex
 10
-0.468
 20
-0.8145
 30
0.0
 70
    64
  0
VERTEX
  5
6E8C6
100
AcDbEntity
  8
0
100
AcDbVertex
100
AcDbPolygonMeshVertex
 10
-0.126
 20
0.8145
 30
-1.57
 70
    64
  0
VERTEX
  5
6E8C7
100
AcDbEntity
  8
0
100
AcDbVertex
100
AcDbPolygonMeshVertex
 10
-0.126
 20
0.8145
 30
0.0
 70
    64
  0
VERTEX
  5
6E8C8
100
AcDbEntity
  8
0
100
AcDbVertex
100
AcDbPolygonMeshVertex
 10
-0.468
 20
0.8145
 30
0.0
 70
    64
  0
VERTEX
  5
6E8C9
100
AcDbEntity
  8
0
100
AcDbVertex
100
AcDbPolygonMeshVertex
 10
-0.126
 20
0.8145
 30
-1.57
 70
    64
  0
VERTEX
  5
6E8CA
100
AcDbEntity
  8
0
100
AcDbVertex
100
AcDbPolygonMeshVertex
 10
-0.126
 20
0.8145
 30
-1.57
 70
    64
  0
VERTEX
  5
6E8CB
100
AcDbEntity
  8
0
100
AcDbVertex
100
AcDbPolygonMeshVertex
 10
-0.468
 20
0.8145
 30
-1.57
 70
    64
  0
VERTEX
  5
6E8CC
100
AcDbEntity
  8
0
100
AcDbVertex
100
AcDbPolygonMeshVertex
 10
-0.126
 20
-0.8145
 30
-1.57
 70
    64
  0
VERTEX
  5
6E8CD
100
AcDbEntity
  8
0
100
AcDbVertex
100
AcDbPolygonMeshVertex
 10
-0.126
 20
-0.8145
 30
-1.57
 70
    64
  0
VERTEX
  5
6E8CE
100
AcDbEntity
  8
0
100
AcDbVertex
100
AcDbPolygonMeshVertex
 10
-0.468
 20
-0.8145
 30
-1.57
 70
    64
  0
SEQEND
  5
6E8CF
100
AcDbEntity
  8
0
  0
POLYLINE
  5
6E8D0
100
AcDbEntity
  8
0
100
AcDbPolygonMesh
 66
     1
 10
0.0
 20
0.0
 30
0.0
 70
    16
 71
     6
 72
     3
  0
VERTEX
  5
6E8D1
100
AcDbEntity
  8
0
100
AcDbVertex
100
AcDbPolygonMeshVertex
 10
-0.963
 20
-0.3555
 30
-1.57
 70
    64
  0
VERTEX
  5
6E8D2
100
AcDbEntity
  8
0
100
AcDbVertex
100
AcDbPolygonMeshVertex
 10
-0.963
 20
-0.3555
 30
-1.024
 70
    64
  0
VERTEX
  5
6E8D3
100
AcDbEntity
  8
0
100
AcDbVertex
100
AcDbPolygonMeshVertex
 10
-0.963
 20
-0.3555
 30
-1.024
 70
    64
  0
VERTEX
  5
6E8D4
100
AcDbEntity
  8
0
100
AcDbVertex
100
AcDbPolygonMeshVertex
 10
-0.963
 20
-0.8975
 30
-1.57
 70
    64
  0
VERTEX
  5
6E8D5
100
AcDbEntity
  8
0
100
AcDbVertex
100
AcDbPolygonMeshVertex
 10
-0.963
 20
-0.8975
 30
-1.024
 70
    64
  0
VERTEX
  5
6E8D6
100
AcDbEntity
  8
0
100
AcDbVertex
100
AcDbPolygonMeshVertex
 10
-0.963
 20
-0.8975
 30
-1.024
 70
    64
  0
VERTEX
  5
6E8D7
100
AcDbEntity
  8
0
100
AcDbVertex
100
AcDbPolygonMeshVertex
 10
-0.468
 20
-0.8975
 30
-1.57
 70
    64
  0
VERTEX
  5
6E8D8
100
AcDbEntity
  8
0
100
AcDbVertex
100
AcDbPolygonMeshVertex
 10
-0.468
 20
-0.8975
 30
-1.024
 70
    64
  0
VERTEX
  5
6E8D9
100
AcDbEntity
  8
0
100
AcDbVertex
100
AcDbPolygonMeshVertex
 10
-0.963
 20
-0.8975
 30
-1.024
 70
    64
  0
VERTEX
  5
6E8DA
100
AcDbEntity
  8
0
100
AcDbVertex
100
AcDbPolygonMeshVertex
 10
-0.468
 20
-0.3555
 30
-1.57
 70
    64
  0
VERTEX
  5
6E8DB
100
AcDbEntity
  8
0
100
AcDbVertex
100
AcDbPolygonMeshVertex
 10
-0.468
 20
-0.3555
 30
-1.024
 70
    64
  0
VERTEX
  5
6E8DC
100
AcDbEntity
  8
0
100
AcDbVertex
100
AcDbPolygonMeshVertex
 10
-0.963
 20
-0.3555
 30
-1.024
 70
    64
  0
VERTEX
  5
6E8DD
100
AcDbEntity
  8
0
100
AcDbVertex
100
AcDbPolygonMeshVertex
 10
-0.468
 20
-0.3555
 30
-1.57
 70
    64
  0
VERTEX
  5
6E8DE
100
AcDbEntity
  8
0
100
AcDbVertex
100
AcDbPolygonMeshVertex
 10
-0.468
 20
-0.3555
 30
-1.57
 70
    64
  0
VERTEX
  5
6E8DF
100
AcDbEntity
  8
0
100
AcDbVertex
100
AcDbPolygonMeshVertex
 10
-0.963
 20
-0.3555
 30
-1.57
 70
    64
  0
VERTEX
  5
6E8E0
100
AcDbEntity
  8
0
100
AcDbVertex
100
AcDbPolygonMeshVertex
 10
-0.468
 20
-0.8975
 30
-1.57
 70
    64
  0
VERTEX
  5
6E8E1
100
AcDbEntity
  8
0
100
AcDbVertex
100
AcDbPolygonMeshVertex
 10
-0.468
 20
-0.8975
 30
-1.57
 70
    64
  0
VERTEX
  5
6E8E2
100
AcDbEntity
  8
0
100
AcDbVertex
100
AcDbPolygonMeshVertex
 10
-0.963
 20
-0.8975
 30
-1.57
 70
    64
  0
SEQEND
  5
6E8E3
100
AcDbEntity
  8
0
  0
POLYLINE
  5
6E8E4
100
AcDbEntity
  8
0
100
AcDbPolygonMesh
 66
     1
 10
0.0
 20
0.0
 30
0.0
 70
    16
 71
     6
 72
     3
  0
VERTEX
  5
6E8E5
100
AcDbEntity
  8
0
100
AcDbVertex
100
AcDbPolygonMeshVertex
 10
-0.963
 20
0.8975
 30
-1.57
 70
    64
  0
VERTEX
  5
6E8E6
100
AcDbEntity
  8
0
100
AcDbVertex
100
AcDbPolygonMeshVertex
 10
-0.963
 20
0.8975
 30
-1.024
 70
    64
  0
VERTEX
  5
6E8E7
100
AcDbEntity
  8
0
100
AcDbVertex
100
AcDbPolygonMeshVertex
 10
-0.963
 20
0.8975
 30
-1.024
 70
    64
  0
VERTEX
  5
6E8E8
100
AcDbEntity
  8
0
100
AcDbVertex
100
AcDbPolygonMeshVertex
 10
-0.963
 20
0.3555
 30
-1.57
 70
    64
  0
VERTEX
  5
6E8E9
100
AcDbEntity
  8
0
100
AcDbVertex
100
AcDbPolygonMeshVertex
 10
-0.963
 20
0.3555
 30
-1.024
 70
    64
  0
VERTEX
  5
6E8EA
100
AcDbEntity
  8
0
100
AcDbVertex
100
AcDbPolygonMeshVertex
 10
-0.963
 20
0.3555
 30
-1.024
 70
    64
  0
VERTEX
  5
6E8EB
100
AcDbEntity
  8
0
100
AcDbVertex
100
AcDbPolygonMeshVertex
 10
-0.468
 20
0.3555
 30
-1.57
 70
    64
  0
VERTEX
  5
6E8EC
100
AcDbEntity
  8
0
100
AcDbVertex
100
AcDbPolygonMeshVertex
 10
-0.468
 20
0.3555
 30
-1.024
 70
    64
  0
VERTEX
  5
6E8ED
100
AcDbEntity
  8
0
100
AcDbVertex
100
AcDbPolygonMeshVertex
 10
-0.963
 20
0.3555
 30
-1.024
 70
    64
  0
VERTEX
  5
6E8EE
100
AcDbEntity
  8
0
100
AcDbVertex
100
AcDbPolygonMeshVertex
 10
-0.468
 20
0.8975
 30
-1.57
 70
    64
  0
VERTEX
  5
6E8EF
100
AcDbEntity
  8
0
100
AcDbVertex
100
AcDbPolygonMeshVertex
 10
-0.468
 20
0.8975
 30
-1.024
 70
    64
  0
VERTEX
  5
6E8F0
100
AcDbEntity
  8
0
100
AcDbVertex
100
AcDbPolygonMeshVertex
 10
-0.963
 20
0.8975
 30
-1.024
 70
    64
  0
VERTEX
  5
6E8F1
100
AcDbEntity
  8
0
100
AcDbVertex
100
AcDbPolygonMeshVertex
 10
-0.468
 20
0.8975
 30
-1.57
 70
    64
  0
VERTEX
  5
6E8F2
100
AcDbEntity
  8
0
100
AcDbVertex
100
AcDbPolygonMeshVertex
 10
-0.468
 20
0.8975
 30
-1.57
 70
    64
  0
VERTEX
  5
6E8F3
100
AcDbEntity
  8
0
100
AcDbVertex
100
AcDbPolygonMeshVertex
 10
-0.963
 20
0.8975
 30
-1.57
 70
    64
  0
VERTEX
  5
6E8F4
100
AcDbEntity
  8
0
100
AcDbVertex
100
AcDbPolygonMeshVertex
 10
-0.468
 20
0.3555
 30
-1.57
 70
    64
  0
VERTEX
  5
6E8F5
100
AcDbEntity
  8
0
100
AcDbVertex
100
AcDbPolygonMeshVertex
 10
-0.468
 20
0.3555
 30
-1.57
 70
    64
  0
VERTEX
  5
6E8F6
100
AcDbEntity
  8
0
100
AcDbVertex
100
AcDbPolygonMeshVertex
 10
-0.963
 20
0.3555
 30
-1.57
 70
    64
  0
SEQEND
  5
6E8F7
100
AcDbEntity
  8
0
  0
POLYLINE
  5
6E8F8
100
AcDbEntity
  8
0
100
AcDbPolygonMesh
 66
     1
 10
0.0
 20
0.0
 30
0.0
 70
    16
 71
     6
 72
     3
  0
VERTEX
  5
6E8F9
100
AcDbEntity
  8
0
100
AcDbVertex
100
AcDbPolygonMeshVertex
 10
-0.468
 20
0.8975
 30
-0.18
 70
    64
  0
VERTEX
  5
6E8FA
100
AcDbEntity
  8
0
100
AcDbVertex
100
AcDbPolygonMeshVertex
 10
-0.468
 20
0.8975
 30
-0.18
 70
    64
  0
VERTEX
  5
6E8FB
100
AcDbEntity
  8
0
100
AcDbVertex
100
AcDbPolygonMeshVertex
 10
-0.468
 20
0.8975
 30
-0.18
 70
    64
  0
VERTEX
  5
6E8FC
100
AcDbEntity
  8
0
100
AcDbVertex
100
AcDbPolygonMeshVertex
 10
-0.468
 20
0.3555
 30
-1.024
 70
    64
  0
VERTEX
  5
6E8FD
100
AcDbEntity
  8
0
100
AcDbVertex
100
AcDbPolygonMeshVertex
 10
-0.468
 20
0.8975
 30
-1.024
 70
    64
  0
VERTEX
  5
6E8FE
100
AcDbEntity
  8
0
100
AcDbVertex
100
AcDbPolygonMeshVertex
 10
-0.468
 20
0.8975
 30
-1.024
 70
    64
  0
VERTEX
  5
6E8FF
100
AcDbEntity
  8
0
100
AcDbVertex
100
AcDbPolygonMeshVertex
 10
-0.963
 20
0.3555
 30
-1.024
 70
    64
  0
VERTEX
  5
6E900
100
AcDbEntity
  8
0
100
AcDbVertex
100
AcDbPolygonMeshVertex
 10
-0.963
 20
0.8975
 30
-1.024
 70
    64
  0
VERTEX
  5
6E901
100
AcDbEntity
  8
0
100
AcDbVertex
100
AcDbPolygonMeshVertex
 10
-0.468
 20
0.8975
 30
-1.024
 70
    64
  0
VERTEX
  5
6E902
100
AcDbEntity
  8
0
100
AcDbVertex
100
AcDbPolygonMeshVertex
 10
-0.963
 20
0.8975
 30
-0.18
 70
    64
  0
VERTEX
  5
6E903
100
AcDbEntity
  8
0
100
AcDbVertex
100
AcDbPolygonMeshVertex
 10
-0.963
 20
0.8975
 30
-0.18
 70
    64
  0
VERTEX
  5
6E904
100
AcDbEntity
  8
0
100
AcDbVertex
100
AcDbPolygonMeshVertex
 10
-0.468
 20
0.8975
 30
-0.18
 70
    64
  0
VERTEX
  5
6E905
100
AcDbEntity
  8
0
100
AcDbVertex
100
AcDbPolygonMeshVertex
 10
-0.963
 20
0.8975
 30
-0.18
 70
    64
  0
VERTEX
  5
6E906
100
AcDbEntity
  8
0
100
AcDbVertex
100
AcDbPolygonMeshVertex
 10
-0.963
 20
0.8975
 30
-0.18
 70
    64
  0
VERTEX
  5
6E907
100
AcDbEntity
  8
0
100
AcDbVertex
100
AcDbPolygonMeshVertex
 10
-0.468
 20
0.8975
 30
-0.18
 70
    64
  0
VERTEX
  5
6E908
100
AcDbEntity
  8
0
100
AcDbVertex
100
AcDbPolygonMeshVertex
 10
-0.963
 20
0.3555
 30
-1.024
 70
    64
  0
VERTEX
  5
6E909
100
AcDbEntity
  8
0
100
AcDbVertex
100
AcDbPolygonMeshVertex
 10
-0.963
 20
0.3555
 30
-1.024
 70
    64
  0
VERTEX
  5
6E90A
100
AcDbEntity
  8
0
100
AcDbVertex
100
AcDbPolygonMeshVertex
 10
-0.468
 20
0.3555
 30
-1.024
 70
    64
  0
SEQEND
  5
6E90B
100
AcDbEntity
  8
0
  0
POLYLINE
  5
6E90C
100
AcDbEntity
  8
0
100
AcDbPolygonMesh
 66
     1
 10
0.0
 20
0.0
 30
0.0
 70
    16
 71
     6
 72
     3
  0
VERTEX
  5
6E90D
100
AcDbEntity
  8
0
100
AcDbVertex
100
AcDbPolygonMeshVertex
 10
-0.468
 20
-0.8975
 30
-0.18
 70
    64
  0
VERTEX
  5
6E90E
100
AcDbEntity
  8
0
100
AcDbVertex
100
AcDbPolygonMeshVertex
 10
-0.468
 20
-0.8975
 30
-0.18
 70
    64
  0
VERTEX
  5
6E90F
100
AcDbEntity
  8
0
100
AcDbVertex
100
AcDbPolygonMeshVertex
 10
-0.468
 20
-0.8975
 30
-0.18
 70
    64
  0
VERTEX
  5
6E910
100
AcDbEntity
  8
0
100
AcDbVertex
100
AcDbPolygonMeshVertex
 10
-0.468
 20
-0.3555
 30
-1.024
 70
    64
  0
VERTEX
  5
6E911
100
AcDbEntity
  8
0
100
AcDbVertex
100
AcDbPolygonMeshVertex
 10
-0.468
 20
-0.8975
 30
-1.024
 70
    64
  0
VERTEX
  5
6E912
100
AcDbEntity
  8
0
100
AcDbVertex
100
AcDbPolygonMeshVertex
 10
-0.468
 20
-0.8975
 30
-1.024
 70
    64
  0
VERTEX
  5
6E913
100
AcDbEntity
  8
0
100
AcDbVertex
100
AcDbPolygonMeshVertex
 10
-0.963
 20
-0.3555
 30
-1.024
 70
    64
  0
VERTEX
  5
6E914
100
AcDbEntity
  8
0
100
AcDbVertex
100
AcDbPolygonMeshVertex
 10
-0.963
 20
-0.8975
 30
-1.024
 70
    64
  0
VERTEX
  5
6E915
100
AcDbEntity
  8
0
100
AcDbVertex
100
AcDbPolygonMeshVertex
 10
-0.468
 20
-0.8975
 30
-1.024
 70
    64
  0
VERTEX
  5
6E916
100
AcDbEntity
  8
0
100
AcDbVertex
100
AcDbPolygonMeshVertex
 10
-0.963
 20
-0.8975
 30
-0.18
 70
    64
  0
VERTEX
  5
6E917
100
AcDbEntity
  8
0
100
AcDbVertex
100
AcDbPolygonMeshVertex
 10
-0.963
 20
-0.8975
 30
-0.18
 70
    64
  0
VERTEX
  5
6E918
100
AcDbEntity
  8
0
100
AcDbVertex
100
AcDbPolygonMeshVertex
 10
-0.468
 20
-0.8975
 30
-0.18
 70
    64
  0
VERTEX
  5
6E919
100
AcDbEntity
  8
0
100
AcDbVertex
100
AcDbPolygonMeshVertex
 10
-0.963
 20
-0.8975
 30
-0.18
 70
    64
  0
VERTEX
  5
6E91A
100
AcDbEntity
  8
0
100
AcDbVertex
100
AcDbPolygonMeshVertex
 10
-0.963
 20
-0.8975
 30
-0.18
 70
    64
  0
VERTEX
  5
6E91B
100
AcDbEntity
  8
0
100
AcDbVertex
100
AcDbPolygonMeshVertex
 10
-0.468
 20
-0.8975
 30
-0.18
 70
    64
  0
VERTEX
  5
6E91C
100
AcDbEntity
  8
0
100
AcDbVertex
100
AcDbPolygonMeshVertex
 10
-0.963
 20
-0.3555
 30
-1.024
 70
    64
  0
VERTEX
  5
6E91D
100
AcDbEntity
  8
0
100
AcDbVertex
100
AcDbPolygonMeshVertex
 10
-0.963
 20
-0.3555
 30
-1.024
 70
    64
  0
VERTEX
  5
6E91E
100
AcDbEntity
  8
0
100
AcDbVertex
100
AcDbPolygonMeshVertex
 10
-0.468
 20
-0.3555
 30
-1.024
 70
    64
  0
SEQEND
  5
6E91F
100
AcDbEntity
  8
0
  0
POLYLINE
  5
6E920
100
AcDbEntity
  8
0
100
AcDbPolygonMesh
 66
     1
 10
0.0
 20
0.0
 30
0.0
 70
    16
 71
     6
 72
     3
  0
VERTEX
  5
6E921
100
AcDbEntity
  8
0
100
AcDbVertex
100
AcDbPolygonMeshVertex
 10
-0.963
 20
0.462368
 30
-0.857586
 70
    64
  0
VERTEX
  5
6E922
100
AcDbEntity
  8
0
100
AcDbVertex
100
AcDbPolygonMeshVertex
 10
-0.963
 20
0.767668
 30
-0.382174
 70
    64
  0
VERTEX
  5
6E923
100
AcDbEntity
  8
0
100
AcDbVertex
100
AcDbPolygonMeshVertex
 10
-0.963
 20
0.767668
 30
-0.382174
 70
    64
  0
VERTEX
  5
6E924
100
AcDbEntity
  8
0
100
AcDbVertex
100
AcDbPolygonMeshVertex
 10
-0.963
 20
0.147585
 30
-0.655439
 70
    64
  0
VERTEX
  5
6E925
100
AcDbEntity
  8
0
100
AcDbVertex
100
AcDbPolygonMeshVertex
 10
-0.963
 20
0.452885
 30
-0.180027
 70
    64
  0
VERTEX
  5
6E926
100
AcDbEntity
  8
0
100
AcDbVertex
100
AcDbPolygonMeshVertex
 10
-0.963
 20
0.452885
 30
-0.180027
 70
    64
  0
VERTEX
  5
6E927
100
AcDbEntity
  8
0
100
AcDbVertex
100
AcDbPolygonMeshVertex
 10
-0.468
 20
0.147585
 30
-0.655439
 70
    64
  0
VERTEX
  5
6E928
100
AcDbEntity
  8
0
100
AcDbVertex
100
AcDbPolygonMeshVertex
 10
-0.468
 20
0.452885
 30
-0.180027
 70
    64
  0
VERTEX
  5
6E929
100
AcDbEntity
  8
0
100
AcDbVertex
100
AcDbPolygonMeshVertex
 10
-0.963
 20
0.452885
 30
-0.180027
 70
    64
  0
VERTEX
  5
6E92A
100
AcDbEntity
  8
0
100
AcDbVertex
100
AcDbPolygonMeshVertex
 10
-0.468
 20
0.462368
 30
-0.857586
 70
    64
  0
VERTEX
  5
6E92B
100
AcDbEntity
  8
0
100
AcDbVertex
100
AcDbPolygonMeshVertex
 10
-0.468
 20
0.767668
 30
-0.382174
 70
    64
  0
VERTEX
  5
6E92C
100
AcDbEntity
  8
0
100
AcDbVertex
100
AcDbPolygonMeshVertex
 10
-0.963
 20
0.767668
 30
-0.382174
 70
    64
  0
VERTEX
  5
6E92D
100
AcDbEntity
  8
0
100
AcDbVertex
100
AcDbPolygonMeshVertex
 10
-0.468
 20
0.462368
 30
-0.857586
 70
    64
  0
VERTEX
  5
6E92E
100
AcDbEntity
  8
0
100
AcDbVertex
100
AcDbPolygonMeshVertex
 10
-0.468
 20
0.462368
 30
-0.857586
 70
    64
  0
VERTEX
  5
6E92F
100
AcDbEntity
  8
0
100
AcDbVertex
100
AcDbPolygonMeshVertex
 10
-0.963
 20
0.462368
 30
-0.857586
 70
    64
  0
VERTEX
  5
6E930
100
AcDbEntity
  8
0
100
AcDbVertex
100
AcDbPolygonMeshVertex
 10
-0.468
 20
0.147585
 30
-0.655439
 70
    64
  0
VERTEX
  5
6E931
100
AcDbEntity
  8
0
100
AcDbVertex
100
AcDbPolygonMeshVertex
 10
-0.468
 20
0.147585
 30
-0.655439
 70
    64
  0
VERTEX
  5
6E932
100
AcDbEntity
  8
0
100
AcDbVertex
100
AcDbPolygonMeshVertex
 10
-0.963
 20
0.147585
 30
-0.655439
 70
    64
  0
SEQEND
  5
6E933
100
AcDbEntity
  8
0
  0
POLYLINE
  5
6E934
100
AcDbEntity
  8
0
100
AcDbPolygonMesh
 66
     1
 10
0.0
 20
0.0
 30
0.0
 70
    16
 71
     6
 72
     3
  0
VERTEX
  5
6E935
100
AcDbEntity
  8
0
100
AcDbVertex
100
AcDbPolygonMeshVertex
 10
-0.963
 20
0.452885
 30
-0.180027
 70
    64
  0
VERTEX
  5
6E936
100
AcDbEntity
  8
0
100
AcDbVertex
100
AcDbPolygonMeshVertex
 10
-0.963
 20
0.452885
 30
-0.180027
 70
    64
  0
VERTEX
  5
6E937
100
AcDbEntity
  8
0
100
AcDbVertex
100
AcDbPolygonMeshVertex
 10
-0.963
 20
0.452885
 30
-0.180027
 70
    64
  0
VERTEX
  5
6E938
100
AcDbEntity
  8
0
100
AcDbVertex
100
AcDbPolygonMeshVertex
 10
-0.963
 20
0.8975
 30
-0.18
 70
    64
  0
VERTEX
  5
6E939
100
AcDbEntity
  8
0
100
AcDbVertex
100
AcDbPolygonMeshVertex
 10
-0.963
 20
0.767668
 30
-0.382174
 70
    64
  0
VERTEX
  5
6E93A
100
AcDbEntity
  8
0
100
AcDbVertex
100
AcDbPolygonMeshVertex
 10
-0.963
 20
0.767668
 30
-0.382174
 70
    64
  0
VERTEX
  5
6E93B
100
AcDbEntity
  8
0
100
AcDbVertex
100
AcDbPolygonMeshVertex
 10
-0.468
 20
0.8975
 30
-0.18
 70
    64
  0
VERTEX
  5
6E93C
100
AcDbEntity
  8
0
100
AcDbVertex
100
AcDbPolygonMeshVertex
 10
-0.468
 20
0.767668
 30
-0.382174
 70
    64
  0
VERTEX
  5
6E93D
100
AcDbEntity
  8
0
100
AcDbVertex
100
AcDbPolygonMeshVertex
 10
-0.963
 20
0.767668
 30
-0.382174
 70
    64
  0
VERTEX
  5
6E93E
100
AcDbEntity
  8
0
100
AcDbVertex
100
AcDbPolygonMeshVertex
 10
-0.468
 20
0.452885
 30
-0.180027
 70
    64
  0
VERTEX
  5
6E93F
100
AcDbEntity
  8
0
100
AcDbVertex
100
AcDbPolygonMeshVertex
 10
-0.468
 20
0.452885
 30
-0.180027
 70
    64
  0
VERTEX
  5
6E940
100
AcDbEntity
  8
0
100
AcDbVertex
100
AcDbPolygonMeshVertex
 10
-0.963
 20
0.452885
 30
-0.180027
 70
    64
  0
VERTEX
  5
6E941
100
AcDbEntity
  8
0
100
AcDbVertex
100
AcDbPolygonMeshVertex
 10
-0.468
 20
0.452885
 30
-0.180027
 70
    64
  0
VERTEX
  5
6E942
100
AcDbEntity
  8
0
100
AcDbVertex
100
AcDbPolygonMeshVertex
 10
-0.468
 20
0.452885
 30
-0.180027
 70
    64
  0
VERTEX
  5
6E943
100
AcDbEntity
  8
0
100
AcDbVertex
100
AcDbPolygonMeshVertex
 10
-0.963
 20
0.452885
 30
-0.180027
 70
    64
  0
VERTEX
  5
6E944
100
AcDbEntity
  8
0
100
AcDbVertex
100
AcDbPolygonMeshVertex
 10
-0.468
 20
0.8975
 30
-0.18
 70
    64
  0
VERTEX
  5
6E945
100
AcDbEntity
  8
0
100
AcDbVertex
100
AcDbPolygonMeshVertex
 10
-0.468
 20
0.8975
 30
-0.18
 70
    64
  0
VERTEX
  5
6E946
100
AcDbEntity
  8
0
100
AcDbVertex
100
AcDbPolygonMeshVertex
 10
-0.963
 20
0.8975
 30
-0.18
 70
    64
  0
SEQEND
  5
6E947
100
AcDbEntity
  8
0
  0
POLYLINE
  5
6E948
100
AcDbEntity
  8
0
100
AcDbPolygonMesh
 66
     1
 10
0.0
 20
0.0
 30
0.0
 70
    16
 71
     6
 72
     3
  0
VERTEX
  5
6E949
100
AcDbEntity
  8
0
100
AcDbVertex
100
AcDbPolygonMeshVertex
 10
-0.963
 20
-0.452885
 30
-0.180027
 70
    64
  0
VERTEX
  5
6E94A
100
AcDbEntity
  8
0
100
AcDbVertex
100
AcDbPolygonMeshVertex
 10
-0.963
 20
-0.452885
 30
-0.180027
 70
    64
  0
VERTEX
  5
6E94B
100
AcDbEntity
  8
0
100
AcDbVertex
100
AcDbPolygonMeshVertex
 10
-0.963
 20
-0.452885
 30
-0.180027
 70
    64
  0
VERTEX
  5
6E94C
100
AcDbEntity
  8
0
100
AcDbVertex
100
AcDbPolygonMeshVertex
 10
-0.963
 20
-0.8975
 30
-0.18
 70
    64
  0
VERTEX
  5
6E94D
100
AcDbEntity
  8
0
100
AcDbVertex
100
AcDbPolygonMeshVertex
 10
-0.963
 20
-0.767668
 30
-0.382174
 70
    64
  0
VERTEX
  5
6E94E
100
AcDbEntity
  8
0
100
AcDbVertex
100
AcDbPolygonMeshVertex
 10
-0.963
 20
-0.767668
 30
-0.382174
 70
    64
  0
VERTEX
  5
6E94F
100
AcDbEntity
  8
0
100
AcDbVertex
100
AcDbPolygonMeshVertex
 10
-0.468
 20
-0.8975
 30
-0.18
 70
    64
  0
VERTEX
  5
6E950
100
AcDbEntity
  8
0
100
AcDbVertex
100
AcDbPolygonMeshVertex
 10
-0.468
 20
-0.767668
 30
-0.382174
 70
    64
  0
VERTEX
  5
6E951
100
AcDbEntity
  8
0
100
AcDbVertex
100
AcDbPolygonMeshVertex
 10
-0.963
 20
-0.767668
 30
-0.382174
 70
    64
  0
VERTEX
  5
6E952
100
AcDbEntity
  8
0
100
AcDbVertex
100
AcDbPolygonMeshVertex
 10
-0.468
 20
-0.452885
 30
-0.180027
 70
    64
  0
VERTEX
  5
6E953
100
AcDbEntity
  8
0
100
AcDbVertex
100
AcDbPolygonMeshVertex
 10
-0.468
 20
-0.452885
 30
-0.180027
 70
    64
  0
VERTEX
  5
6E954
100
AcDbEntity
  8
0
100
AcDbVertex
100
AcDbPolygonMeshVertex
 10
-0.963
 20
-0.452885
 30
-0.180027
 70
    64
  0
VERTEX
  5
6E955
100
AcDbEntity
  8
0
100
AcDbVertex
100
AcDbPolygonMeshVertex
 10
-0.468
 20
-0.452885
 30
-0.180027
 70
    64
  0
VERTEX
  5
6E956
100
AcDbEntity
  8
0
100
AcDbVertex
100
AcDbPolygonMeshVertex
 10
-0.468
 20
-0.452885
 30
-0.180027
 70
    64
  0
VERTEX
  5
6E957
100
AcDbEntity
  8
0
100
AcDbVertex
100
AcDbPolygonMeshVertex
 10
-0.963
 20
-0.452885
 30
-0.180027
 70
    64
  0
VERTEX
  5
6E958
100
AcDbEntity
  8
0
100
AcDbVertex
100
AcDbPolygonMeshVertex
 10
-0.468
 20
-0.8975
 30
-0.18
 70
    64
  0
VERTEX
  5
6E959
100
AcDbEntity
  8
0
100
AcDbVertex
100
AcDbPolygonMeshVertex
 10
-0.468
 20
-0.8975
 30
-0.18
 70
    64
  0
VERTEX
  5
6E95A
100
AcDbEntity
  8
0
100
AcDbVertex
100
AcDbPolygonMeshVertex
 10
-0.963
 20
-0.8975
 30
-0.18
 70
    64
  0
SEQEND
  5
6E95B
100
AcDbEntity
  8
0
  0
POLYLINE
  5
6E95C
100
AcDbEntity
  8
0
100
AcDbPolygonMesh
 66
     1
 10
0.0
 20
0.0
 30
0.0
 70
    16
 71
     6
 72
     3
  0
VERTEX
  5
6E95D
100
AcDbEntity
  8
0
100
AcDbVertex
100
AcDbPolygonMeshVertex
 10
-0.963
 20
-0.462368
 30
-0.857586
 70
    64
  0
VERTEX
  5
6E95E
100
AcDbEntity
  8
0
100
AcDbVertex
100
AcDbPolygonMeshVertex
 10
-0.963
 20
-0.767668
 30
-0.382174
 70
    64
  0
VERTEX
  5
6E95F
100
AcDbEntity
  8
0
100
AcDbVertex
100
AcDbPolygonMeshVertex
 10
-0.963
 20
-0.767668
 30
-0.382174
 70
    64
  0
VERTEX
  5
6E960
100
AcDbEntity
  8
0
100
AcDbVertex
100
AcDbPolygonMeshVertex
 10
-0.963
 20
-0.147585
 30
-0.655439
 70
    64
  0
VERTEX
  5
6E961
100
AcDbEntity
  8
0
100
AcDbVertex
100
AcDbPolygonMeshVertex
 10
-0.963
 20
-0.452885
 30
-0.180027
 70
    64
  0
VERTEX
  5
6E962
100
AcDbEntity
  8
0
100
AcDbVertex
100
AcDbPolygonMeshVertex
 10
-0.963
 20
-0.452885
 30
-0.180027
 70
    64
  0
VERTEX
  5
6E963
100
AcDbEntity
  8
0
100
AcDbVertex
100
AcDbPolygonMeshVertex
 10
-0.468
 20
-0.147585
 30
-0.655439
 70
    64
  0
VERTEX
  5
6E964
100
AcDbEntity
  8
0
100
AcDbVertex
100
AcDbPolygonMeshVertex
 10
-0.468
 20
-0.452885
 30
-0.180027
 70
    64
  0
VERTEX
  5
6E965
100
AcDbEntity
  8
0
100
AcDbVertex
100
AcDbPolygonMeshVertex
 10
-0.963
 20
-0.452885
 30
-0.180027
 70
    64
  0
VERTEX
  5
6E966
100
AcDbEntity
  8
0
100
AcDbVertex
100
AcDbPolygonMeshVertex
 10
-0.468
 20
-0.462368
 30
-0.857586
 70
    64
  0
VERTEX
  5
6E967
100
AcDbEntity
  8
0
100
AcDbVertex
100
AcDbPolygonMeshVertex
 10
-0.468
 20
-0.767668
 30
-0.382174
 70
    64
  0
VERTEX
  5
6E968
100
AcDbEntity
  8
0
100
AcDbVertex
100
AcDbPolygonMeshVertex
 10
-0.963
 20
-0.767668
 30
-0.382174
 70
    64
  0
VERTEX
  5
6E969
100
AcDbEntity
  8
0
100
AcDbVertex
100
AcDbPolygonMeshVertex
 10
-0.468
 20
-0.462368
 30
-0.857586
 70
    64
  0
VERTEX
  5
6E96A
100
AcDbEntity
  8
0
100
AcDbVertex
100
AcDbPolygonMeshVertex
 10
-0.468
 20
-0.462368
 30
-0.857586
 70
    64
  0
VERTEX
  5
6E96B
100
AcDbEntity
  8
0
100
AcDbVertex
100
AcDbPolygonMeshVertex
 10
-0.963
 20
-0.462368
 30
-0.857586
 70
    64
  0
VERTEX
  5
6E96C
100
AcDbEntity
  8
0
100
AcDbVertex
100
AcDbPolygonMeshVertex
 10
-0.468
 20
-0.147585
 30
-0.655439
 70
    64
  0
VERTEX
  5
6E96D
100
AcDbEntity
  8
0
100
AcDbVertex
100
AcDbPolygonMeshVertex
 10
-0.468
 20
-0.147585
 30
-0.655439
 70
    64
  0
VERTEX
  5
6E96E
100
AcDbEntity
  8
0
100
AcDbVertex
100
AcDbPolygonMeshVertex
 10
-0.963
 20
-0.147585
 30
-0.655439
 70
    64
  0
SEQEND
  5
6E96F
100
AcDbEntity
  8
0
  0
CIRCLE
  5
6E970
100
AcDbEntity
  8
0
100
AcDbCircle
 10
-0.7155
 20
-0.723954
 30
0.471763
 40
0.1285
210
-0.0000000000000054
220
-0.5403544246916719
230
-0.8414375174165533
  0
CIRCLE
  5
6E971
100
AcDbEntity
  8
0
100
AcDbCircle
 10
0.7155
 20
-0.723954
 30
0.471763
 40
0.1285
210
-0.0000000000000054
220
0.5403544246916719
230
-0.8414375174165533
  0
LINE
  5
6E972
100
AcDbEntity
  8
0
100
AcDbLine
 10
-0.7355
 20
0.46105
 30
-0.85674
 11
-0.7355
 21
0.247436
 31
-0.719561
210
-0.0000000000000044
220
-0.5403544246916709
230
-0.841437517416554
  0
LINE
  5
6E973
100
AcDbEntity
  8
0
100
AcDbLine
 10
-0.6955
 20
0.46105
 30
-0.85674
 11
-0.6955
 21
0.247436
 31
-0.719561
210
-0.0000000000000044
220
-0.5403544246916709
230
-0.841437517416554
  0
LINE
  5
6E974
100
AcDbEntity
  8
0
100
AcDbLine
 10
-0.6955
 20
-0.46105
 30
-0.85674
 11
-0.6955
 21
-0.247436
 31
-0.719561
210
-0.0000000000000044
220
0.5403544246916709
230
-0.841437517416554
  0
LINE
  5
6E975
100
AcDbEntity
  8
0
100
AcDbLine
 10
-0.7355
 20
-0.46105
 30
-0.85674
 11
-0.7355
 21
-0.247436
 31
-0.719561
210
-0.0000000000000044
220
0.5403544246916709
230
-0.841437517416554
  0
CIRCLE
  5
6E976
100
AcDbEntity
  8
0
100
AcDbCircle
 10
0.7155
 20
0.6265
 30
1.57
 40
0.1285
210
0.0
220
0.0
230
-1.0
  0
LINE
  5
6E977
100
AcDbEntity
  8
0
100
AcDbLine
 10
-0.7355
 20
0.753434
 30
-1.57
 11
-0.7355
 21
0.499566
 31
-1.57
210
0.0
220
0.0
230
-1.0
  0
LINE
  5
6E978
100
AcDbEntity
  8
0
100
AcDbLine
 10
-0.6955
 20
0.753434
 30
-1.57
 11
-0.6955
 21
0.499566
 31
-1.57
210
0.0
220
0.0
230
-1.0
  0
CIRCLE
  5
6E979
100
AcDbEntity
  8
0
100
AcDbCircle
 10
0.7155
 20
-0.6265
 30
1.57
 40
0.1285
210
0.0
220
0.0
230
-1.0
  0
LINE
  5
6E97A
100
AcDbEntity
  8
0
100
AcDbLine
 10
-0.6955
 20
-0.753434
 30
-1.57
 11
-0.6955
 21
-0.499566
 31
-1.57
210
0.0
220
0.0
230
-1.0
  0
LINE
  5
6E97B
100
AcDbEntity
  8
0
100
AcDbLine
 10
-0.7355
 20
-0.753434
 30
-1.57
 11
-0.7355
 21
-0.499566
 31
-1.57
210
0.0
220
0.0
230
-1.0
  0
POLYLINE
  5
6E97C
100
AcDbEntity
  8
0
100
AcDbPolygonMesh
 66
     1
 10
0.0
 20
0.0
 30
0.0
 70
    16
 71
     6
 72
     3
  0
VERTEX
  5
6E97D
100
AcDbEntity
  8
0
100
AcDbVertex
100
AcDbPolygonMeshVertex
 10
0.0
 20
0.373
 30
-1.03
 70
    64
  0
VERTEX
  5
6E97E
100
AcDbEntity
  8
0
100
AcDbVertex
100
AcDbPolygonMeshVertex
 10
0.0
 20
0.373
 30
0.0
 70
    64
  0
VERTEX
  5
6E97F
100
AcDbEntity
  8
0
100
AcDbVertex
100
AcDbPolygonMeshVertex
 10
0.0
 20
0.373
 30
0.0
 70
    64
  0
VERTEX
  5
6E980
100
AcDbEntity
  8
0
100
AcDbVertex
100
AcDbPolygonMeshVertex
 10
0.0
 20
0.8145
 30
-1.03
 70
    64
  0
VERTEX
  5
6E981
100
AcDbEntity
  8
0
100
AcDbVertex
100
AcDbPolygonMeshVertex
 10
0.0
 20
0.8145
 30
0.0
 70
    64
  0
VERTEX
  5
6E982
100
AcDbEntity
  8
0
100
AcDbVertex
100
AcDbPolygonMeshVertex
 10
0.0
 20
0.8145
 30
0.0
 70
    64
  0
VERTEX
  5
6E983
100
AcDbEntity
  8
0
100
AcDbVertex
100
AcDbPolygonMeshVertex
 10
-0.126
 20
0.8145
 30
-1.03
 70
    64
  0
VERTEX
  5
6E984
100
AcDbEntity
  8
0
100
AcDbVertex
100
AcDbPolygonMeshVertex
 10
-0.126
 20
0.8145
 30
0.0
 70
    64
  0
VERTEX
  5
6E985
100
AcDbEntity
  8
0
100
AcDbVertex
100
AcDbPolygonMeshVertex
 10
0.0
 20
0.8145
 30
0.0
 70
    64
  0
VERTEX
  5
6E986
100
AcDbEntity
  8
0
100
AcDbVertex
100
AcDbPolygonMeshVertex
 10
-0.126
 20
0.373
 30
-1.03
 70
    64
  0
VERTEX
  5
6E987
100
AcDbEntity
  8
0
100
AcDbVertex
100
AcDbPolygonMeshVertex
 10
-0.126
 20
0.373
 30
0.0
 70
    64
  0
VERTEX
  5
6E988
100
AcDbEntity
  8
0
100
AcDbVertex
100
AcDbPolygonMeshVertex
 10
0.0
 20
0.373
 30
0.0
 70
    64
  0
VERTEX
  5
6E989
100
AcDbEntity
  8
0
100
AcDbVertex
100
AcDbPolygonMeshVertex
 10
-0.126
 20
0.373
 30
-1.03
 70
    64
  0
VERTEX
  5
6E98A
100
AcDbEntity
  8
0
100
AcDbVertex
100
AcDbPolygonMeshVertex
 10
-0.126
 20
0.373
 30
-1.03
 70
    64
  0
VERTEX
  5
6E98B
100
AcDbEntity
  8
0
100
AcDbVertex
100
AcDbPolygonMeshVertex
 10
0.0
 20
0.373
 30
-1.03
 70
    64
  0
VERTEX
  5
6E98C
100
AcDbEntity
  8
0
100
AcDbVertex
100
AcDbPolygonMeshVertex
 10
-0.126
 20
0.8145
 30
-1.03
 70
    64
  0
VERTEX
  5
6E98D
100
AcDbEntity
  8
0
100
AcDbVertex
100
AcDbPolygonMeshVertex
 10
-0.126
 20
0.8145
 30
-1.03
 70
    64
  0
VERTEX
  5
6E98E
100
AcDbEntity
  8
0
100
AcDbVertex
100
AcDbPolygonMeshVertex
 10
0.0
 20
0.8145
 30
-1.03
 70
    64
  0
SEQEND
  5
6E98F
100
AcDbEntity
  8
0
  0
POLYLINE
  5
6E990
100
AcDbEntity
  8
0
100
AcDbPolygonMesh
 66
     1
 10
0.0
 20
0.0
 30
0.0
 70
    16
 71
     6
 72
     3
  0
VERTEX
  5
6E991
100
AcDbEntity
  8
0
100
AcDbVertex
100
AcDbPolygonMeshVertex
 10
0.0
 20
-0.8145
 30
-1.03
 70
    64
  0
VERTEX
  5
6E992
100
AcDbEntity
  8
0
100
AcDbVertex
100
AcDbPolygonMeshVertex
 10
0.0
 20
-0.8145
 30
0.0
 70
    64
  0
VERTEX
  5
6E993
100
AcDbEntity
  8
0
100
AcDbVertex
100
AcDbPolygonMeshVertex
 10
0.0
 20
-0.8145
 30
0.0
 70
    64
  0
VERTEX
  5
6E994
100
AcDbEntity
  8
0
100
AcDbVertex
100
AcDbPolygonMeshVertex
 10
0.0
 20
-0.373
 30
-1.03
 70
    64
  0
VERTEX
  5
6E995
100
AcDbEntity
  8
0
100
AcDbVertex
100
AcDbPolygonMeshVertex
 10
0.0
 20
-0.373
 30
0.0
 70
    64
  0
VERTEX
  5
6E996
100
AcDbEntity
  8
0
100
AcDbVertex
100
AcDbPolygonMeshVertex
 10
0.0
 20
-0.373
 30
0.0
 70
    64
  0
VERTEX
  5
6E997
100
AcDbEntity
  8
0
100
AcDbVertex
100
AcDbPolygonMeshVertex
 10
-0.126
 20
-0.373
 30
-1.03
 70
    64
  0
VERTEX
  5
6E998
100
AcDbEntity
  8
0
100
AcDbVertex
100
AcDbPolygonMeshVertex
 10
-0.126
 20
-0.373
 30
0.0
 70
    64
  0
VERTEX
  5
6E999
100
AcDbEntity
  8
0
100
AcDbVertex
100
AcDbPolygonMeshVertex
 10
0.0
 20
-0.373
 30
0.0
 70
    64
  0
VERTEX
  5
6E99A
100
AcDbEntity
  8
0
100
AcDbVertex
100
AcDbPolygonMeshVertex
 10
-0.126
 20
-0.8145
 30
-1.03
 70
    64
  0
VERTEX
  5
6E99B
100
AcDbEntity
  8
0
100
AcDbVertex
100
AcDbPolygonMeshVertex
 10
-0.126
 20
-0.8145
 30
0.0
 70
    64
  0
VERTEX
  5
6E99C
100
AcDbEntity
  8
0
100
AcDbVertex
100
AcDbPolygonMeshVertex
 10
0.0
 20
-0.8145
 30
0.0
 70
    64
  0
VERTEX
  5
6E99D
100
AcDbEntity
  8
0
100
AcDbVertex
100
AcDbPolygonMeshVertex
 10
-0.126
 20
-0.8145
 30
-1.03
 70
    64
  0
VERTEX
  5
6E99E
100
AcDbEntity
  8
0
100
AcDbVertex
100
AcDbPolygonMeshVertex
 10
-0.126
 20
-0.8145
 30
-1.03
 70
    64
  0
VERTEX
  5
6E99F
100
AcDbEntity
  8
0
100
AcDbVertex
100
AcDbPolygonMeshVertex
 10
0.0
 20
-0.8145
 30
-1.03
 70
    64
  0
VERTEX
  5
6E9A0
100
AcDbEntity
  8
0
100
AcDbVertex
100
AcDbPolygonMeshVertex
 10
-0.126
 20
-0.373
 30
-1.03
 70
    64
  0
VERTEX
  5
6E9A1
100
AcDbEntity
  8
0
100
AcDbVertex
100
AcDbPolygonMeshVertex
 10
-0.126
 20
-0.373
 30
-1.03
 70
    64
  0
VERTEX
  5
6E9A2
100
AcDbEntity
  8
0
100
AcDbVertex
100
AcDbPolygonMeshVertex
 10
0.0
 20
-0.373
 30
-1.03
 70
    64
  0
SEQEND
  5
6E9A3
100
AcDbEntity
  8
0
  0
ARC
  5
6E9A4
100
AcDbEntity
  8
0
100
AcDbCircle
 10
-0.003
 20
0.59375
 30
1.57
 40
0.187
210
0.0
220
0.0
230
-1.0
100
AcDbArc
 50
313.617411
 51
46.382589
  0
ARC
  5
6E9A5
100
AcDbEntity
  8
0
100
AcDbCircle
 10
0.0
 20
0.59375
 30
1.03
 40
0.1145
210
0.0
220
0.0
230
-1.0
100
AcDbArc
 50
270.0
 51
90.0
  0
ARC
  5
6E9A6
100
AcDbEntity
  8
0
100
AcDbCircle
 10
0.0
 20
-0.59375
 30
1.03
 40
0.1145
210
0.0
220
0.0
230
-1.0
100
AcDbArc
 50
270.0
 51
90.0
  0
ARC
  5
6E9A7
100
AcDbEntity
  8
0
100
AcDbCircle
 10
-0.003
 20
-0.59375
 30
1.57
 40
0.187
210
0.0
220
0.0
230
-1.0
100
AcDbArc
 50
313.617411
 51
46.382589
  0
LINE
  5
6E9A8
100
AcDbEntity
  8
0
100
AcDbLine
 10
-0.126
 20
-0.729131
 30
-1.57
 11
-0.126
 21
-0.729131
 31
-1.03
210
0.0
220
0.0
230
-1.0
  0
LINE
  5
6E9A9
100
AcDbEntity
  8
0
100
AcDbLine
 10
-0.126
 20
-0.458369
 30
-1.57
 11
-0.126
 21
-0.458369
 31
-1.03
210
0.0
220
0.0
230
-1.0
  0
LINE
  5
6E9AA
100
AcDbEntity
  8
0
100
AcDbLine
 10
-0.126
 20
0.458369
 30
-1.57
 11
-0.126
 21
0.458369
 31
-1.03
210
0.0
220
0.0
230
-1.0
  0
LINE
  5
6E9AB
100
AcDbEntity
  8
0
100
AcDbLine
 10
-0.126
 20
0.729131
 30
-1.57
 11
-0.126
 21
0.729131
 31
-1.03
210
0.0
220
0.0
230
-1.0
  0
LINE
  5
6E9AC
100
AcDbEntity
  8
0
100
AcDbLine
 10
0.0
 20
-0.70825
 30
-1.03
 11
0.0
 21
-0.70825
 31
0.0
210
0.0
220
0.0
230
-1.0
  0
LINE
  5
6E9AD
100
AcDbEntity
  8
0
100
AcDbLine
 10
0.0
 20
-0.47925
 30
-1.03
 11
0.0
 21
-0.47925
 31
0.0
210
0.0
220
0.0
230
-1.0
  0
LINE
  5
6E9AE
100
AcDbEntity
  8
0
100
AcDbLine
 10
0.0
 20
0.47925
 30
-1.03
 11
0.0
 21
0.47925
 31
0.0
210
0.0
220
0.0
230
-1.0
  0
LINE
  5
6E9AF
100
AcDbEntity
  8
0
100
AcDbLine
 10
0.0
 20
0.70825
 30
-1.03
 11
0.0
 21
0.70825
 31
0.0
210
0.0
220
0.0
230
-1.0
  0
POLYLINE
  5
6E9B0
100
AcDbEntity
  8
0
100
AcDbPolygonMesh
 66
     1
 10
0.0
 20
0.0
 30
0.0
 70
    16
 71
     6
 72
     3
  0
VERTEX
  5
6E9B1
100
AcDbEntity
  8
0
100
AcDbVertex
100
AcDbPolygonMeshVertex
 10
0.0
 20
0.8145
 30
-0.275
 70
    64
  0
VERTEX
  5
6E9B2
100
AcDbEntity
  8
0
100
AcDbVertex
100
AcDbPolygonMeshVertex
 10
0.0
 20
0.8145
 30
0.0
 70
    64
  0
VERTEX
  5
6E9B3
100
AcDbEntity
  8
0
100
AcDbVertex
100
AcDbPolygonMeshVertex
 10
0.0
 20
0.8145
 30
0.0
 70
    64
  0
VERTEX
  5
6E9B4
100
AcDbEntity
  8
0
100
AcDbVertex
100
AcDbPolygonMeshVertex
 10
0.0
 20
0.70825
 30
-0.275
 70
    64
  0
VERTEX
  5
6E9B5
100
AcDbEntity
  8
0
100
AcDbVertex
100
AcDbPolygonMeshVertex
 10
0.0
 20
0.70825
 30
0.0
 70
    64
  0
VERTEX
  5
6E9B6
100
AcDbEntity
  8
0
100
AcDbVertex
100
AcDbPolygonMeshVertex
 10
0.0
 20
0.70825
 30
0.0
 70
    64
  0
VERTEX
  5
6E9B7
100
AcDbEntity
  8
0
100
AcDbVertex
100
AcDbPolygonMeshVertex
 10
0.106
 20
0.70825
 30
-0.275
 70
    64
  0
VERTEX
  5
6E9B8
100
AcDbEntity
  8
0
100
AcDbVertex
100
AcDbPolygonMeshVertex
 10
0.106
 20
0.70825
 30
0.0
 70
    64
  0
VERTEX
  5
6E9B9
100
AcDbEntity
  8
0
100
AcDbVertex
100
AcDbPolygonMeshVertex
 10
0.0
 20
0.70825
 30
0.0
 70
    64
  0
VERTEX
  5
6E9BA
100
AcDbEntity
  8
0
100
AcDbVertex
100
AcDbPolygonMeshVertex
 10
0.106
 20
0.8145
 30
-0.275
 70
    64
  0
VERTEX
  5
6E9BB
100
AcDbEntity
  8
0
100
AcDbVertex
100
AcDbPolygonMeshVertex
 10
0.106
 20
0.8145
 30
0.0
 70
    64
  0
VERTEX
  5
6E9BC
100
AcDbEntity
  8
0
100
AcDbVertex
100
AcDbPolygonMeshVertex
 10
0.0
 20
0.8145
 30
0.0
 70
    64
  0
VERTEX
  5
6E9BD
100
AcDbEntity
  8
0
100
AcDbVertex
100
AcDbPolygonMeshVertex
 10
0.106
 20
0.8145
 30
-0.275
 70
    64
  0
VERTEX
  5
6E9BE
100
AcDbEntity
  8
0
100
AcDbVertex
100
AcDbPolygonMeshVertex
 10
0.106
 20
0.8145
 30
-0.275
 70
    64
  0
VERTEX
  5
6E9BF
100
AcDbEntity
  8
0
100
AcDbVertex
100
AcDbPolygonMeshVertex
 10
0.0
 20
0.8145
 30
-0.275
 70
    64
  0
VERTEX
  5
6E9C0
100
AcDbEntity
  8
0
100
AcDbVertex
100
AcDbPolygonMeshVertex
 10
0.106
 20
0.70825
 30
-0.275
 70
    64
  0
VERTEX
  5
6E9C1
100
AcDbEntity
  8
0
100
AcDbVertex
100
AcDbPolygonMeshVertex
 10
0.106
 20
0.70825
 30
-0.275
 70
    64
  0
VERTEX
  5
6E9C2
100
AcDbEntity
  8
0
100
AcDbVertex
100
AcDbPolygonMeshVertex
 10
0.0
 20
0.70825
 30
-0.275
 70
    64
  0
SEQEND
  5
6E9C3
100
AcDbEntity
  8
0
  0
POLYLINE
  5
6E9C4
100
AcDbEntity
  8
0
100
AcDbPolygonMesh
 66
     1
 10
0.0
 20
0.0
 30
0.0
 70
    16
 71
     6
 72
     3
  0
VERTEX
  5
6E9C5
100
AcDbEntity
  8
0
100
AcDbVertex
100
AcDbPolygonMeshVertex
 10
0.0
 20
-0.47925
 30
-0.275
 70
    64
  0
VERTEX
  5
6E9C6
100
AcDbEntity
  8
0
100
AcDbVertex
100
AcDbPolygonMeshVertex
 10
0.0
 20
-0.47925
 30
0.0
 70
    64
  0
VERTEX
  5
6E9C7
100
AcDbEntity
  8
0
100
AcDbVertex
100
AcDbPolygonMeshVertex
 10
0.0
 20
-0.47925
 30
0.0
 70
    64
  0
VERTEX
  5
6E9C8
100
AcDbEntity
  8
0
100
AcDbVertex
100
AcDbPolygonMeshVertex
 10
0.0
 20
-0.373
 30
-0.275
 70
    64
  0
VERTEX
  5
6E9C9
100
AcDbEntity
  8
0
100
AcDbVertex
100
AcDbPolygonMeshVertex
 10
0.0
 20
-0.373
 30
0.0
 70
    64
  0
VERTEX
  5
6E9CA
100
AcDbEntity
  8
0
100
AcDbVertex
100
AcDbPolygonMeshVertex
 10
0.0
 20
-0.373
 30
0.0
 70
    64
  0
VERTEX
  5
6E9CB
100
AcDbEntity
  8
0
100
AcDbVertex
100
AcDbPolygonMeshVertex
 10
0.106
 20
-0.373
 30
-0.275
 70
    64
  0
VERTEX
  5
6E9CC
100
AcDbEntity
  8
0
100
AcDbVertex
100
AcDbPolygonMeshVertex
 10
0.106
 20
-0.373
 30
0.0
 70
    64
  0
VERTEX
  5
6E9CD
100
AcDbEntity
  8
0
100
AcDbVertex
100
AcDbPolygonMeshVertex
 10
0.0
 20
-0.373
 30
0.0
 70
    64
  0
VERTEX
  5
6E9CE
100
AcDbEntity
  8
0
100
AcDbVertex
100
AcDbPolygonMeshVertex
 10
0.106
 20
-0.47925
 30
-0.275
 70
    64
  0
VERTEX
  5
6E9CF
100
AcDbEntity
  8
0
100
AcDbVertex
100
AcDbPolygonMeshVertex
 10
0.106
 20
-0.47925
 30
0.0
 70
    64
  0
VERTEX
  5
6E9D0
100
AcDbEntity
  8
0
100
AcDbVertex
100
AcDbPolygonMeshVertex
 10
0.0
 20
-0.47925
 30
0.0
 70
    64
  0
VERTEX
  5
6E9D1
100
AcDbEntity
  8
0
100
AcDbVertex
100
AcDbPolygonMeshVertex
 10
0.106
 20
-0.47925
 30
-0.275
 70
    64
  0
VERTEX
  5
6E9D2
100
AcDbEntity
  8
0
100
AcDbVertex
100
AcDbPolygonMeshVertex
 10
0.106
 20
-0.47925
 30
-0.275
 70
    64
  0
VERTEX
  5
6E9D3
100
AcDbEntity
  8
0
100
AcDbVertex
100
AcDbPolygonMeshVertex
 10
0.0
 20
-0.47925
 30
-0.275
 70
    64
  0
VERTEX
  5
6E9D4
100
AcDbEntity
  8
0
100
AcDbVertex
100
AcDbPolygonMeshVertex
 10
0.106
 20
-0.373
 30
-0.275
 70
    64
  0
VERTEX
  5
6E9D5
100
AcDbEntity
  8
0
100
AcDbVertex
100
AcDbPolygonMeshVertex
 10
0.106
 20
-0.373
 30
-0.275
 70
    64
  0
VERTEX
  5
6E9D6
100
AcDbEntity
  8
0
100
AcDbVertex
100
AcDbPolygonMeshVertex
 10
0.0
 20
-0.373
 30
-0.275
 70
    64
  0
SEQEND
  5
6E9D7
100
AcDbEntity
  8
0
  0
POLYLINE
  5
6E9D8
100
AcDbEntity
  8
0
100
AcDbPolygonMesh
 66
     1
 10
0.0
 20
0.0
 30
0.0
 70
    16
 71
     6
 72
     3
  0
VERTEX
  5
6E9D9
100
AcDbEntity
  8
0
100
AcDbVertex
100
AcDbPolygonMeshVertex
 10
-0.568
 20
0.8975
 30
-0.18
 70
    64
  0
VERTEX
  5
6E9DA
100
AcDbEntity
  8
0
100
AcDbVertex
100
AcDbPolygonMeshVertex
 10
-0.568
 20
0.8975
 30
0.0
 70
    64
  0
VERTEX
  5
6E9DB
100
AcDbEntity
  8
0
100
AcDbVertex
100
AcDbPolygonMeshVertex
 10
-0.568
 20
0.8975
 30
0.0
 70
    64
  0
VERTEX
  5
6E9DC
100
AcDbEntity
  8
0
100
AcDbVertex
100
AcDbPolygonMeshVertex
 10
-0.568
 20
-0.8975
 30
-0.18
 70
    64
  0
VERTEX
  5
6E9DD
100
AcDbEntity
  8
0
100
AcDbVertex
100
AcDbPolygonMeshVertex
 10
-0.568
 20
-0.8975
 30
0.0
 70
    64
  0
VERTEX
  5
6E9DE
100
AcDbEntity
  8
0
100
AcDbVertex
100
AcDbPolygonMeshVertex
 10
-0.568
 20
-0.8975
 30
0.0
 70
    64
  0
VERTEX
  5
6E9DF
100
AcDbEntity
  8
0
100
AcDbVertex
100
AcDbPolygonMeshVertex
 10
-0.468
 20
-0.8975
 30
-0.18
 70
    64
  0
VERTEX
  5
6E9E0
100
AcDbEntity
  8
0
100
AcDbVertex
100
AcDbPolygonMeshVertex
 10
-0.468
 20
-0.8975
 30
0.0
 70
    64
  0
VERTEX
  5
6E9E1
100
AcDbEntity
  8
0
100
AcDbVertex
100
AcDbPolygonMeshVertex
 10
-0.568
 20
-0.8975
 30
0.0
 70
    64
  0
VERTEX
  5
6E9E2
100
AcDbEntity
  8
0
100
AcDbVertex
100
AcDbPolygonMeshVertex
 10
-0.468
 20
0.8975
 30
-0.18
 70
    64
  0
VERTEX
  5
6E9E3
100
AcDbEntity
  8
0
100
AcDbVertex
100
AcDbPolygonMeshVertex
 10
-0.468
 20
0.8975
 30
0.0
 70
    64
  0
VERTEX
  5
6E9E4
100
AcDbEntity
  8
0
100
AcDbVertex
100
AcDbPolygonMeshVertex
 10
-0.568
 20
0.8975
 30
0.0
 70
    64
  0
VERTEX
  5
6E9E5
100
AcDbEntity
  8
0
100
AcDbVertex
100
AcDbPolygonMeshVertex
 10
-0.468
 20
0.8975
 30
-0.18
 70
    64
  0
VERTEX
  5
6E9E6
100
AcDbEntity
  8
0
100
AcDbVertex
100
AcDbPolygonMeshVertex
 10
-0.468
 20
0.8975
 30
-0.18
 70
    64
  0
VERTEX
  5
6E9E7
100
AcDbEntity
  8
0
100
AcDbVertex
100
AcDbPolygonMeshVertex
 10
-0.568
 20
0.8975
 30
-0.18
 70
    64
  0
VERTEX
  5
6E9E8
100
AcDbEntity
  8
0
100
AcDbVertex
100
AcDbPolygonMeshVertex
 10
-0.468
 20
-0.8975
 30
-0.18
 70
    64
  0
VERTEX
  5
6E9E9
100
AcDbEntity
  8
0
100
AcDbVertex
100
AcDbPolygonMeshVertex
 10
-0.468
 20
-0.8975
 30
-0.18
 70
    64
  0
VERTEX
  5
6E9EA
100
AcDbEntity
  8
0
100
AcDbVertex
100
AcDbPolygonMeshVertex
 10
-0.568
 20
-0.8975
 30
-0.18
 70
    64
  0
SEQEND
  5
6E9EB
100
AcDbEntity
  8
0
  0
POLYLINE
  5
6E9EC
100
AcDbEntity
  8
0
100
AcDbPolygonMesh
 66
     1
 10
0.0
 20
0.0
 30
0.0
 70
    16
 71
     6
 72
     3
  0
VERTEX
  5
6E9ED
100
AcDbEntity
  8
0
100
AcDbVertex
100
AcDbPolygonMeshVertex
 10
-0.963
 20
0.427198
 30
-0.220027
 70
    64
  0
VERTEX
  5
6E9EE
100
AcDbEntity
  8
0
100
AcDbVertex
100
AcDbPolygonMeshVertex
 10
-0.963
 20
0.427198
 30
-0.180027
 70
    64
  0
VERTEX
  5
6E9EF
100
AcDbEntity
  8
0
100
AcDbVertex
100
AcDbPolygonMeshVertex
 10
-0.963
 20
0.427198
 30
-0.180027
 70
    64
  0
VERTEX
  5
6E9F0
100
AcDbEntity
  8
0
100
AcDbVertex
100
AcDbPolygonMeshVertex
 10
-0.963
 20
-0.427198
 30
-0.220027
 70
    64
  0
VERTEX
  5
6E9F1
100
AcDbEntity
  8
0
100
AcDbVertex
100
AcDbPolygonMeshVertex
 10
-0.963
 20
-0.427198
 30
-0.180027
 70
    64
  0
VERTEX
  5
6E9F2
100
AcDbEntity
  8
0
100
AcDbVertex
100
AcDbPolygonMeshVertex
 10
-0.963
 20
-0.427198
 30
-0.180027
 70
    64
  0
VERTEX
  5
6E9F3
100
AcDbEntity
  8
0
100
AcDbVertex
100
AcDbPolygonMeshVertex
 10
-0.468
 20
-0.427198
 30
-0.220027
 70
    64
  0
VERTEX
  5
6E9F4
100
AcDbEntity
  8
0
100
AcDbVertex
100
AcDbPolygonMeshVertex
 10
-0.468
 20
-0.427198
 30
-0.180027
 70
    64
  0
VERTEX
  5
6E9F5
100
AcDbEntity
  8
0
100
AcDbVertex
100
AcDbPolygonMeshVertex
 10
-0.963
 20
-0.427198
 30
-0.180027
 70
    64
  0
VERTEX
  5
6E9F6
100
AcDbEntity
  8
0
100
AcDbVertex
100
AcDbPolygonMeshVertex
 10
-0.468
 20
0.427198
 30
-0.220027
 70
    64
  0
VERTEX
  5
6E9F7
100
AcDbEntity
  8
0
100
AcDbVertex
100
AcDbPolygonMeshVertex
 10
-0.468
 20
0.427198
 30
-0.180027
 70
    64
  0
VERTEX
  5
6E9F8
100
AcDbEntity
  8
0
100
AcDbVertex
100
AcDbPolygonMeshVertex
 10
-0.963
 20
0.427198
 30
-0.180027
 70
    64
  0
VERTEX
  5
6E9F9
100
AcDbEntity
  8
0
100
AcDbVertex
100
AcDbPolygonMeshVertex
 10
-0.468
 20
0.427198
 30
-0.220027
 70
    64
  0
VERTEX
  5
6E9FA
100
AcDbEntity
  8
0
100
AcDbVertex
100
AcDbPolygonMeshVertex
 10
-0.468
 20
0.427198
 30
-0.220027
 70
    64
  0
VERTEX
  5
6E9FB
100
AcDbEntity
  8
0
100
AcDbVertex
100
AcDbPolygonMeshVertex
 10
-0.963
 20
0.427198
 30
-0.220027
 70
    64
  0
VERTEX
  5
6E9FC
100
AcDbEntity
  8
0
100
AcDbVertex
100
AcDbPolygonMeshVertex
 10
-0.468
 20
-0.427198
 30
-0.220027
 70
    64
  0
VERTEX
  5
6E9FD
100
AcDbEntity
  8
0
100
AcDbVertex
100
AcDbPolygonMeshVertex
 10
-0.468
 20
-0.427198
 30
-0.220027
 70
    64
  0
VERTEX
  5
6E9FE
100
AcDbEntity
  8
0
100
AcDbVertex
100
AcDbPolygonMeshVertex
 10
-0.963
 20
-0.427198
 30
-0.220027
 70
    64
  0
SEQEND
  5
6E9FF
100
AcDbEntity
  8
0
  0
POLYLINE
  5
6EA00
100
AcDbEntity
  8
0
100
AcDbPolygonMesh
 66
     1
 10
0.0
 20
0.0
 30
0.0
 70
    16
 71
     6
 72
     3
  0
VERTEX
  5
6EA01
100
AcDbEntity
  8
0
100
AcDbVertex
100
AcDbPolygonMeshVertex
 10
-0.568
 20
-0.8975
 30
-0.18
 70
    64
  0
VERTEX
  5
6EA02
100
AcDbEntity
  8
0
100
AcDbVertex
100
AcDbPolygonMeshVertex
 10
-0.568
 20
-0.8975
 30
0.0
 70
    64
  0
VERTEX
  5
6EA03
100
AcDbEntity
  8
0
100
AcDbVertex
100
AcDbPolygonMeshVertex
 10
-0.568
 20
-0.8975
 30
0.0
 70
    64
  0
VERTEX
  5
6EA04
100
AcDbEntity
  8
0
100
AcDbVertex
100
AcDbPolygonMeshVertex
 10
-0.568
 20
-0.8145
 30
-0.18
 70
    64
  0
VERTEX
  5
6EA05
100
AcDbEntity
  8
0
100
AcDbVertex
100
AcDbPolygonMeshVertex
 10
-0.568
 20
-0.8145
 30
0.0
 70
    64
  0
VERTEX
  5
6EA06
100
AcDbEntity
  8
0
100
AcDbVertex
100
AcDbPolygonMeshVertex
 10
-0.568
 20
-0.8145
 30
0.0
 70
    64
  0
VERTEX
  5
6EA07
100
AcDbEntity
  8
0
100
AcDbVertex
100
AcDbPolygonMeshVertex
 10
-0.963
 20
-0.8145
 30
-0.18
 70
    64
  0
VERTEX
  5
6EA08
100
AcDbEntity
  8
0
100
AcDbVertex
100
AcDbPolygonMeshVertex
 10
-0.963
 20
-0.8145
 30
0.0
 70
    64
  0
VERTEX
  5
6EA09
100
AcDbEntity
  8
0
100
AcDbVertex
100
AcDbPolygonMeshVertex
 10
-0.568
 20
-0.8145
 30
0.0
 70
    64
  0
VERTEX
  5
6EA0A
100
AcDbEntity
  8
0
100
AcDbVertex
100
AcDbPolygonMeshVertex
 10
-0.963
 20
-0.8975
 30
-0.18
 70
    64
  0
VERTEX
  5
6EA0B
100
AcDbEntity
  8
0
100
AcDbVertex
100
AcDbPolygonMeshVertex
 10
-0.963
 20
-0.8975
 30
0.0
 70
    64
  0
VERTEX
  5
6EA0C
100
AcDbEntity
  8
0
100
AcDbVertex
100
AcDbPolygonMeshVertex
 10
-0.568
 20
-0.8975
 30
0.0
 70
    64
  0
VERTEX
  5
6EA0D
100
AcDbEntity
  8
0
100
AcDbVertex
100
AcDbPolygonMeshVertex
 10
-0.963
 20
-0.8975
 30
-0.18
 70
    64
  0
VERTEX
  5
6EA0E
100
AcDbEntity
  8
0
100
AcDbVertex
100
AcDbPolygonMeshVertex
 10
-0.963
 20
-0.8975
 30
-0.18
 70
    64
  0
VERTEX
  5
6EA0F
100
AcDbEntity
  8
0
100
AcDbVertex
100
AcDbPolygonMeshVertex
 10
-0.568
 20
-0.8975
 30
-0.18
 70
    64
  0
VERTEX
  5
6EA10
100
AcDbEntity
  8
0
100
AcDbVertex
100
AcDbPolygonMeshVertex
 10
-0.963
 20
-0.8145
 30
-0.18
 70
    64
  0
VERTEX
  5
6EA11
100
AcDbEntity
  8
0
100
AcDbVertex
100
AcDbPolygonMeshVertex
 10
-0.963
 20
-0.8145
 30
-0.18
 70
    64
  0
VERTEX
  5
6EA12
100
AcDbEntity
  8
0
100
AcDbVertex
100
AcDbPolygonMeshVertex
 10
-0.568
 20
-0.8145
 30
-0.18
 70
    64
  0
SEQEND
  5
6EA13
100
AcDbEntity
  8
0
  0
POLYLINE
  5
6EA14
100
AcDbEntity
  8
0
100
AcDbPolygonMesh
 66
     1
 10
0.0
 20
0.0
 30
0.0
 70
    16
 71
     6
 72
     3
  0
VERTEX
  5
6EA15
100
AcDbEntity
  8
0
100
AcDbVertex
100
AcDbPolygonMeshVertex
 10
-0.568
 20
0.8145
 30
-0.18
 70
    64
  0
VERTEX
  5
6EA16
100
AcDbEntity
  8
0
100
AcDbVertex
100
AcDbPolygonMeshVertex
 10
-0.568
 20
0.8145
 30
0.0
 70
    64
  0
VERTEX
  5
6EA17
100
AcDbEntity
  8
0
100
AcDbVertex
100
AcDbPolygonMeshVertex
 10
-0.568
 20
0.8145
 30
0.0
 70
    64
  0
VERTEX
  5
6EA18
100
AcDbEntity
  8
0
100
AcDbVertex
100
AcDbPolygonMeshVertex
 10
-0.568
 20
0.8975
 30
-0.18
 70
    64
  0
VERTEX
  5
6EA19
100
AcDbEntity
  8
0
100
AcDbVertex
100
AcDbPolygonMeshVertex
 10
-0.568
 20
0.8975
 30
0.0
 70
    64
  0
VERTEX
  5
6EA1A
100
AcDbEntity
  8
0
100
AcDbVertex
100
AcDbPolygonMeshVertex
 10
-0.568
 20
0.8975
 30
0.0
 70
    64
  0
VERTEX
  5
6EA1B
100
AcDbEntity
  8
0
100
AcDbVertex
100
AcDbPolygonMeshVertex
 10
-0.963
 20
0.8975
 30
-0.18
 70
    64
  0
VERTEX
  5
6EA1C
100
AcDbEntity
  8
0
100
AcDbVertex
100
AcDbPolygonMeshVertex
 10
-0.963
 20
0.8975
 30
0.0
 70
    64
  0
VERTEX
  5
6EA1D
100
AcDbEntity
  8
0
100
AcDbVertex
100
AcDbPolygonMeshVertex
 10
-0.568
 20
0.8975
 30
0.0
 70
    64
  0
VERTEX
  5
6EA1E
100
AcDbEntity
  8
0
100
AcDbVertex
100
AcDbPolygonMeshVertex
 10
-0.963
 20
0.8145
 30
-0.18
 70
    64
  0
VERTEX
  5
6EA1F
100
AcDbEntity
  8
0
100
AcDbVertex
100
AcDbPolygonMeshVertex
 10
-0.963
 20
0.8145
 30
0.0
 70
    64
  0
VERTEX
  5
6EA20
100
AcDbEntity
  8
0
100
AcDbVertex
100
AcDbPolygonMeshVertex
 10
-0.568
 20
0.8145
 30
0.0
 70
    64
  0
VERTEX
  5
6EA21
100
AcDbEntity
  8
0
100
AcDbVertex
100
AcDbPolygonMeshVertex
 10
-0.963
 20
0.8145
 30
-0.18
 70
    64
  0
VERTEX
  5
6EA22
100
AcDbEntity
  8
0
100
AcDbVertex
100
AcDbPolygonMeshVertex
 10
-0.963
 20
0.8145
 30
-0.18
 70
    64
  0
VERTEX
  5
6EA23
100
AcDbEntity
  8
0
100
AcDbVertex
100
AcDbPolygonMeshVertex
 10
-0.568
 20
0.8145
 30
-0.18
 70
    64
  0
VERTEX
  5
6EA24
100
AcDbEntity
  8
0
100
AcDbVertex
100
AcDbPolygonMeshVertex
 10
-0.963
 20
0.8975
 30
-0.18
 70
    64
  0
VERTEX
  5
6EA25
100
AcDbEntity
  8
0
100
AcDbVertex
100
AcDbPolygonMeshVertex
 10
-0.963
 20
0.8975
 30
-0.18
 70
    64
  0
VERTEX
  5
6EA26
100
AcDbEntity
  8
0
100
AcDbVertex
100
AcDbPolygonMeshVertex
 10
-0.568
 20
0.8975
 30
-0.18
 70
    64
  0
SEQEND
  5
6EA27
100
AcDbEntity
  8
0
  0
LINE
  5
6EA28
100
AcDbEntity
  8
0
100
AcDbLine
 10
-0.468
 20
0.1425
 30
0.0
 11
-0.126
 21
0.1425
 31
0.0
210
0.0
220
0.0
230
-1.0
  0
LINE
  5
6EA29
100
AcDbEntity
  8
0
100
AcDbLine
 10
-0.468
 20
-0.1425
 30
0.0
 11
-0.126
 21
-0.1425
 31
0.0
210
0.0
220
0.0
230
-1.0
  0
POLYLINE
  5
6EA2A
100
AcDbEntity
  8
0
100
AcDbPolygonMesh
 66
     1
 10
0.0
 20
0.0
 30
0.0
 70
    16
 71
     6
 72
     3
  0
VERTEX
  5
6EA2B
100
AcDbEntity
  8
0
100
AcDbVertex
100
AcDbPolygonMeshVertex
 10
-0.03
 20
-0.373
 30
-1.57
 70
    64
  0
VERTEX
  5
6EA2C
100
AcDbEntity
  8
0
100
AcDbVertex
100
AcDbPolygonMeshVertex
 10
-0.03
 20
-0.373
 30
-0.288
 70
    64
  0
VERTEX
  5
6EA2D
100
AcDbEntity
  8
0
100
AcDbVertex
100
AcDbPolygonMeshVertex
 10
-0.03
 20
-0.373
 30
-0.288
 70
    64
  0
VERTEX
  5
6EA2E
100
AcDbEntity
  8
0
100
AcDbVertex
100
AcDbPolygonMeshVertex
 10
-0.03
 20
0.373
 30
-1.57
 70
    64
  0
VERTEX
  5
6EA2F
100
AcDbEntity
  8
0
100
AcDbVertex
100
AcDbPolygonMeshVertex
 10
-0.03
 20
0.373
 30
-0.288
 70
    64
  0
VERTEX
  5
6EA30
100
AcDbEntity
  8
0
100
AcDbVertex
100
AcDbPolygonMeshVertex
 10
-0.03
 20
0.373
 30
-0.288
 70
    64
  0
VERTEX
  5
6EA31
100
AcDbEntity
  8
0
100
AcDbVertex
100
AcDbPolygonMeshVertex
 10
-0.126
 20
0.373
 30
-1.57
 70
    64
  0
VERTEX
  5
6EA32
100
AcDbEntity
  8
0
100
AcDbVertex
100
AcDbPolygonMeshVertex
 10
-0.126
 20
0.373
 30
-0.288
 70
    64
  0
VERTEX
  5
6EA33
100
AcDbEntity
  8
0
100
AcDbVertex
100
AcDbPolygonMeshVertex
 10
-0.03
 20
0.373
 30
-0.288
 70
    64
  0
VERTEX
  5
6EA34
100
AcDbEntity
  8
0
100
AcDbVertex
100
AcDbPolygonMeshVertex
 10
-0.126
 20
-0.373
 30
-1.57
 70
    64
  0
VERTEX
  5
6EA35
100
AcDbEntity
  8
0
100
AcDbVertex
100
AcDbPolygonMeshVertex
 10
-0.126
 20
-0.373
 30
-0.288
 70
    64
  0
VERTEX
  5
6EA36
100
AcDbEntity
  8
0
100
AcDbVertex
100
AcDbPolygonMeshVertex
 10
-0.03
 20
-0.373
 30
-0.288
 70
    64
  0
VERTEX
  5
6EA37
100
AcDbEntity
  8
0
100
AcDbVertex
100
AcDbPolygonMeshVertex
 10
-0.126
 20
-0.373
 30
-1.57
 70
    64
  0
VERTEX
  5
6EA38
100
AcDbEntity
  8
0
100
AcDbVertex
100
AcDbPolygonMeshVertex
 10
-0.126
 20
-0.373
 30
-1.57
 70
    64
  0
VERTEX
  5
6EA39
100
AcDbEntity
  8
0
100
AcDbVertex
100
AcDbPolygonMeshVertex
 10
-0.03
 20
-0.373
 30
-1.57
 70
    64
  0
VERTEX
  5
6EA3A
100
AcDbEntity
  8
0
100
AcDbVertex
100
AcDbPolygonMeshVertex
 10
-0.126
 20
0.373
 30
-1.57
 70
    64
  0
VERTEX
  5
6EA3B
100
AcDbEntity
  8
0
100
AcDbVertex
100
AcDbPolygonMeshVertex
 10
-0.126
 20
0.373
 30
-1.57
 70
    64
  0
VERTEX
  5
6EA3C
100
AcDbEntity
  8
0
100
AcDbVertex
100
AcDbPolygonMeshVertex
 10
-0.03
 20
0.373
 30
-1.57
 70
    64
  0
SEQEND
  5
6EA3D
100
AcDbEntity
  8
0
  0
LINE
  5
6EA3E
100
AcDbEntity
  8
0
100
AcDbLine
 10
-0.126
 20
-0.1425
 30
0.0
 11
-0.126
 21
-0.1425
 31
-0.288
  0
LINE
  5
6EA3F
100
AcDbEntity
  8
0
100
AcDbLine
 10
-0.126
 20
0.1425
 30
0.0
 11
-0.126
 21
0.1425
 31
-0.288
  0
LINE
  5
6EA40
100
AcDbEntity
  8
0
100
AcDbLine
 10
-0.126
 20
0.1425
 30
-1.57
 11
-0.468
 21
0.1425
 31
-1.57
  0
LINE
  5
6EA41
100
AcDbEntity
  8
0
100
AcDbLine
 10
-0.126
 20
-0.1425
 30
-1.57
 11
-0.468
 21
-0.1425
 31
-1.57
  0
ARC
  5
6EA42
100
AcDbEntity
  8
0
100
AcDbCircle
 10
-0.2775
 20
0.0
 30
-1.57
 40
0.1015
100
AcDbArc
 50
122.94559
 51
237.05441
  0
LINE
  5
6EA43
100
AcDbEntity
  8
0
100
AcDbLine
 10
-0.3327
 20
-0.1425
 30
-1.57
 11
-0.3327
 21
-0.085178
 31
-1.57
  0
LINE
  5
6EA44
100
AcDbEntity
  8
0
100
AcDbLine
 10
-0.2223
 20
-0.1425
 30
-1.57
 11
-0.2223
 21
-0.085178
 31
-1.57
  0
LINE
  5
6EA45
100
AcDbEntity
  8
0
100
AcDbLine
 10
-0.2223
 20
0.085178
 30
-1.57
 11
-0.2223
 21
0.1425
 31
-1.57
  0
LINE
  5
6EA46
100
AcDbEntity
  8
0
100
AcDbLine
 10
-0.3327
 20
0.085178
 30
-1.57
 11
-0.3327
 21
0.1425
 31
-1.57
  0
ARC
  5
6EA47
100
AcDbEntity
  8
0
100
AcDbCircle
 10
-0.2775
 20
0.0
 30
-1.57
 40
0.1015
100
AcDbArc
 50
302.94559
 51
57.05441
  0
LINE
  5
6EA48
100
AcDbEntity
  8
0
100
AcDbLine
 10
-0.468
 20
0.1425
 30
-1.433
 11
-0.468
 21
-0.1425
 31
-1.433
  0
LINE
  5
6EA49
100
AcDbEntity
  8
0
100
AcDbLine
 10
-0.468
 20
-0.1425
 30
-1.57
 11
-0.468
 21
-0.1425
 31
-1.433
  0
LINE
  5
6EA4A
100
AcDbEntity
  8
0
100
AcDbLine
 10
-0.468
 20
0.1425
 30
-1.57
 11
-0.468
 21
0.1425
 31
-1.433
  0
ATTDEF
  5
6EA4B
100
AcDbEntity
  8
ATTRIBUTES
100
AcDbText
 10
-0.917123
 20
0.124104
 30
0.0
 40
0.045068
  1
ALLEN-BRADLEY
100
AcDbAttributeDefinition
  3
MANUFACTURER NAME?
  2
AC_VND_LABEL
 70
     0
  0
ATTDEF
  5
6EA4C
100
AcDbEntity
  8
ATTRIBUTES
100
AcDbText
 10
-0.917123
 20
0.030211
 30
0.0
 40
0.045068
  1
800T-XA4Y
100
AcDbAttributeDefinition
  3
CATALOG NUMBER?
  2
AC_PART_NO
 70
     0
  0
ATTDEF
  5
6EA4D
100
AcDbEntity
  8
ATTRIBUTES
100
AcDbText
 10
-0.917123
 20
-0.063682
 30
0.0
 40
0.045068
  1
NEMA STACKABLE SEALED SWITCH (YASKAWA)2 CIRCUIT CONTACT BLOCK, 2 N.C.
100
AcDbAttributeDefinition
  3
PART DESCRIPTION?
  2
AC_DESCRIPTION
 70
     0
  0
ATTDEF
  5
6EA4E
100
AcDbEntity
  8
ATTRIBUTES
100
AcDbText
 10
-0.917123
 20
-0.157574
 30
0.0
 40
0.045068
  1

100
AcDbAttributeDefinition
  3
DEVICE ID?
  2
DEVICE_ID
 70
     0
  0
ATTDEF
  5
6EA4F
100
AcDbEntity
  8
ATTRIBUTES
100
AcDbText
 10
-0.917123
 20
-0.251467
 30
0.0
 40
0.045068
  1

100
AcDbAttributeDefinition
  3
CUSTOMER PART NUMBER?
  2
AC_CPART_NO
 70
     0
  0
ATTDEF
  5
6EA50
100
AcDbEntity
  8
ATTRIBUTES
100
AcDbText
 10
-0.917123
 20
-0.34536
 30
0.0
 40
0.045068
  1

100
AcDbAttributeDefinition
  3
CUSTOMER NOTE?
  2
AC_NOTE
 70
     0
  0
ATTDEF
  5
6EA51
100
AcDbEntity
  8
ATTRIBUTES
100
AcDbText
 10
-0.917123
 20
-0.439252
 30
0.0
 40
0.045068
  1

100
AcDbAttributeDefinition
  3
FASTENER DATA?
  2
FASTENER
 70
     0
  0
ATTDEF
  5
6EA52
100
AcDbEntity
  8
ATTRIBUTES
100
AcDbText
 10
-0.917123
 20
-0.533145
 30
0.0
 40
0.045068
  1

100
AcDbAttributeDefinition
  3
UNIT OF SCALE?
  2
AC_SCALE_UNIT
 70
     0
  0
ATTDEF
  5
6EA53
100
AcDbEntity
  8
ATTRIBUTES
100
AcDbText
 10
-0.917123
 20
-0.627038
 30
0.0
 40
0.045068
  1

100
AcDbAttributeDefinition
  3
VIEW CODE?
  2
AC_VIEW_CODE
 70
     0
  0
POINT
  5
6EA54
100
AcDbEntity
  8
SNAP_POINTS
100
AcDbPoint
 10
0.0
 20
0.0
 30
-1.57
  0
DIMENSION
  5
6EA55
100
AcDbEntity
  8
AREA1
100
AcDbDimension
  2
*D0
 10
-1.291555
 20
0.8975
 30
0.0
 11
-1.291555
 21
-0.008042
 31
0.0
 70
   160
  3
ABECAD_3V
100
AcDbAlignedDimension
 13
-0.963
 23
-0.8975
 33
-0.18
 14
-0.963
 24
0.8975
 34
-0.18
 50
90.0
100
AcDbRotatedDimension
1001
ACAD
1000
DSTYLE
1002
{
1070
    40
1040
0.889078
1002
}
  0
DIMENSION
  5
6EA56
100
AcDbEntity
  8
AREA1
100
AcDbDimension
  2
*D1
 10
0.106
 20
1.124206
 30
0.0
 11
-0.429004
 21
1.301648
 31
0.0
 70
   160
  3
ABECAD_3V
100
AcDbAlignedDimension
 13
-0.963
 23
0.8975
 33
-0.18
 14
0.106
 24
0.8145
 34
0.0
100
AcDbRotatedDimension
1001
ACAD
1000
DSTYLE
1002
{
1070
    40
1040
0.889078
1002
}
  0
LWPOLYLINE
  5
6EA57
100
AcDbEntity
  8
SCALE
100
AcDbPolyline
 90
        4
 70
     1
 43
0.0
 10
0.25716
 20
0.004479
 10
1.392789
 20
0.004479
 10
1.392789
 20
-0.837131
 10
0.25716
 20
-0.837131
  0
LINE
  5
6EA58
100
AcDbEntity
  8
SCALE
100
AcDbLine
 10
0.315159
 20
-0.3756
 30
0.0
 11
1.315159
 21
-0.3756
 31
0.0
  0
LINE
  5
6EA59
100
AcDbEntity
  8
SCALE
100
AcDbLine
 10
0.315159
 20
-0.6756
 30
0.0
 11
0.708859
 21
-0.6756
 31
0.0
  0
LINE
  5
6EA5A
100
AcDbEntity
  8
SCALE
100
AcDbLine
 10
0.315159
 20
-0.4756
 30
0.0
 11
0.315159
 21
-0.2756
 31
0.0
  0
TEXT
  5
6EA5B
100
AcDbEntity
  8
SCALE
100
AcDbText
 10
0.371135
 20
-0.627915
 30
0.0
 40
0.0625
  1
[10mm]
100
AcDbText
  0
LINE
  5
6EA5C
100
AcDbEntity
  8
SCALE
100
AcDbLine
 10
0.315159
 20
-0.7756
 30
0.0
 11
0.315159
 21
-0.5756
 31
0.0
  0
TEXT
  5
6EA5D
100
AcDbEntity
  8
SCALE
100
AcDbText
 10
0.316689
 20
-0.100723
 30
0.0
 40
0.0625
  1
SCALE:
100
AcDbText
  0
LINE
  5
6EA5E
100
AcDbEntity
  8
SCALE
100
AcDbLine
 10
0.708859
 20
-0.7756
 30
0.0
 11
0.708859
 21
-0.5756
 31
0.0
  0
TEXT
  5
6EA5F
100
AcDbEntity
  8
SCALE
100
AcDbText
 10
0.678442
 20
-0.306551
 30
0.0
 40
0.0625
  1
1 Inch
100
AcDbText
  0
LINE
  5
6EA60
100
AcDbEntity
  8
SCALE
100
AcDbLine
 10
1.315159
 20
-0.3756
 30
0.0
 11
1.315159
 21
-0.4756
 31
0.0
  0
LINE
  5
6EA61
100
AcDbEntity
  8
SCALE
100
AcDbLine
 10
1.315159
 20
-0.4756
 30
0.0
 11
1.315159
 21
-0.2756
 31
0.0
  0
DIMENSION
  5
6EA8C
100
AcDbEntity
  8
AREA2
100
AcDbDimension
  2
*D2
 10
-1.24478
 20
0.0
 30
-1.57
 11
-1.24478
 21
-0.775927
 31
0.0
 70
   160
210
0.0
220
-1.0
230
0.0
  3
ABECAD_3V
100
AcDbAlignedDimension
 13
-0.963
 23
1.124206
 33
0.0
 14
-0.963
 24
0.3555
 34
-1.57
 50
90.0
100
AcDbRotatedDimension
1001
ACAD
1000
DSTYLE
1002
{
1070
    40
1040
0.889078
1002
}
  0
VIEWPORT
  5
2C
102
{ACAD_XDICTIONARY
360
6EECB
102
}
100
AcDbEntity
 67
     1
  8
0
100
AcDbViewport
 10
4.999849
 20
3.750155
 30
0.0
 40
13.389022
 41
7.577951
 68
     1
 69
     1
1001
ACAD
1000
MVIEW
1002
{
1070
    16
1010
0.0
1020
0.0
1030
0.0
1010
0.0
1020
0.0
1030
1.0
1040
0.0
1040
7.577951
1040
4.999849
1040
3.750155
1040
50.0
1040
0.0
1040
0.0
1070
     0
1070
   100
1070
     1
1070
     1
1070
     0
1070
     0
1070
     0
1070
     0
1040
0.0
1040
0.0
1040
0.0
1040
1.0
1040
1.0
1040
0.0
1040
0.0
1070
     0
1002
{
1002
}
1002
}
  0
VIEWPORT
  5
2D
102
{ACAD_XDICTIONARY
360
6EECD
102
}
100
AcDbEntity
 67
     1
  8
0
100
AcDbViewport
 10
2.5
 20
5.625
 30
0.0
 40
5.0
 41
3.75
 68
     3
 69
     2
1001
ACAD
1000
MVIEW
1002
{
1070
    16
1010
0.0
1020
0.0
1030
0.0
1010
0.0
1020
0.0
1030
1.0
1040
0.0
1040
3.334042
1040
-0.613579
1040
0.120198
1040
50.0
1040
0.0
1040
0.0
1070
     0
1070
   100
1070
     1
1070
     0
1070
     0
1070
     0
1070
     0
1070
     0
1040
0.0
1040
0.0
1040
0.0
1040
1.0
1040
1.0
1040
0.0
1040
0.0
1070
     0
1002
{
1003
AREA2
1002
}
1002
}
  0
VIEWPORT
  5
2E
102
{ACAD_XDICTIONARY
360
6EECF
102
}
100
AcDbEntity
 67
     1
  8
0
100
AcDbViewport
 10
2.5
 20
1.875
 30
0.0
 40
5.0
 41
3.75
 68
     4
 69
     3
1001
ACAD
1000
MVIEW
1002
{
1070
    16
1010
0.0
1020
0.0
1030
0.0
1010
0.0
1020
-1.0
1030
0.0
1040
0.0
1040
3.334042
1040
-0.613579
1040
-0.88
1040
50.0
1040
0.0
1040
0.0
1070
     0
1070
   100
1070
     1
1070
     0
1070
     0
1070
     0
1070
     0
1070
     0
1040
0.0
1040
0.0
1040
0.0
1040
1.0
1040
1.0
1040
0.0
1040
0.0
1070
     0
1002
{
1003
AREA1
1002
}
1002
}
  0
VIEWPORT
  5
2F
102
{ACAD_XDICTIONARY
360
6EED1
102
}
100
AcDbEntity
 67
     1
  8
0
100
AcDbViewport
 10
7.5
 20
3.75
 30
0.0
 40
5.0
 41
7.5
 68
     2
 69
     4
1001
ACAD
1000
MVIEW
1002
{
1070
    16
1010
0.0
1020
0.0
1030
0.0
1010
-1.0
1020
-1.0
1030
1.0
1040
0.0
1040
4.691064
1040
-0.633935
1040
-0.621804
1040
50.0
1040
0.0
1040
0.0
1070
     0
1070
   100
1070
     1
1070
     0
1070
     0
1070
     0
1070
     0
1070
     0
1040
0.0
1040
0.0
1040
0.0
1040
1.0
1040
1.0
1040
0.0
1040
0.0
1070
     0
1002
{
1003
AREA1
1003
AREA2
1002
}
1002
}
  0
TEXT
  5
42D
100
AcDbEntity
 67
     1
  8
0
100
AcDbText
 10
5.253785
 20
7.092701
 30
0.0
 40
0.2
  1

100
AcDbText
  0
TEXT
  5
431
100
AcDbEntity
 67
     1
  8
0
100
AcDbText
 10
5.253785
 20
6.759368
 30
0.0
 40
0.2
  1

100
AcDbText
1001
ACAD
1000
R13OBJECT
1002
{
1005
42D
1002
}
  0
TEXT
  5
11D16
100
AcDbEntity
 67
     1
  8
AREA2
100
AcDbText
 10
5.101109
 20
7.152637
 30
0.0
 40
0.2
  1
800T-XA4Y
100
AcDbText
  0
TEXT
  5
24C0A
100
AcDbEntity
 67
     1
  8
AREA2
100
AcDbText
 10
5.101109
 20
6.881437
 30
0.0
 40
0.2
  1
NEMA STACKABLE SEALED 
100
AcDbText
  0
TEXT
  5
2F662
100
AcDbEntity
 67
     1
  8
AREA2
100
AcDbText
 10
5.101109
 20
6.599834
 30
0.0
 40
0.2
  1

100
AcDbText
  0
TEXT
  5
4B785
100
AcDbEntity
 67
     1
  8
AREA2
100
AcDbText
 10
5.101109
 20
6.310076
 30
0.0
 40
0.2
  1

100
AcDbText
  0
TEXT
  5
64888
100
AcDbEntity
 67
     1
  8
AREA2
100
AcDbText
 10
5.101109
 20
6.317557
 30
0.0
 40
0.2
  1

100
AcDbText
  0
TEXT
  5
651DC
100
AcDbEntity
 67
     1
  8
AREA2
100
AcDbText
 10
5.101109
 20
6.599161
 30
0.0
 40
0.2
  1

100
AcDbText
  0
TEXT
  5
65724
100
AcDbEntity
 67
     1
  8
AREA2
100
AcDbText
 10
5.101109
 20
6.331741
 30
0.0
 40
0.2
  1

100
AcDbText
  0
TEXT
  5
65FDD
100
AcDbEntity
 67
     1
  8
AREA2
100
AcDbText
 10
5.101109
 20
6.302028
 30
0.0
 40
0.2
  1

100
AcDbText
  0
TEXT
  5
66E77
100
AcDbEntity
 67
     1
  8
AREA2
100
AcDbText
 10
5.101109
 20
6.318596
 30
0.0
 40
0.2
  1

100
AcDbText
  0
TEXT
  5
67914
100
AcDbEntity
 67
     1
  8
AREA2
100
AcDbText
 10
5.101109
 20
6.591198
 30
0.0
 40
0.2
  1
SWITCH (YASKAWA)2 CIRCUIT 
100
AcDbText
  0
TEXT
  5
691A5
100
AcDbEntity
 67
     1
  8
AREA2
100
AcDbText
 10
5.101109
 20
6.289433
 30
0.0
 40
0.2
  1

100
AcDbText
  0
TEXT
  5
699EC
100
AcDbEntity
 67
     1
  8
AREA2
100
AcDbText
 10
5.101109
 20
6.275064
 30
0.0
 40
0.2
  1

100
AcDbText
  0
TEXT
  5
6AB31
100
AcDbEntity
 67
     1
  8
AREA2
100
AcDbText
 10
5.101109
 20
6.303803
 30
0.0
 40
0.2
  1

100
AcDbText
  0
TEXT
  5
6C3EC
100
AcDbEntity
 67
     1
  8
AREA2
100
AcDbText
 10
5.101109
 20
6.302592
 30
0.0
 40
0.2
  1

100
AcDbText
  0
TEXT
  5
6D015
100
AcDbEntity
 67
     1
  8
AREA2
100
AcDbText
 10
5.101109
 20
6.288162
 30
0.0
 40
0.2
  1

100
AcDbText
  0
TEXT
  5
6DB77
100
AcDbEntity
 67
     1
  8
AREA2
100
AcDbText
 10
5.101109
 20
6.288162
 30
0.0
 40
0.2
  1
CONTACT BLOCK, 2 N.C.
100
AcDbText
  0
TEXT
  5
6E29A
100
AcDbEntity
 67
     1
  8
AREA2
100
AcDbText
 10
5.101109
 20
5.999555
 30
0.0
 40
0.2
  1

100
AcDbText
  0
ENDSEC
  0
SECTION
  2
OBJECTS
  0
DICTIONARY
  5
46D
100
AcDbDictionary
  3
ACAD_GROUP
350
46E
  3
ACAD_LAYOUT
350
49E
  3
ACAD_MLINESTYLE
350
47B
  3
ACAD_PLOTSETTINGS
350
49F
  3
ACAD_PLOTSTYLENAME
350
49C
  3
ACDBHEADERROUNDTRIPXREC
350
6EEAA
  3
ACDBVARIABLEDICTIONARY
350
48D
  0
DICTIONARY
  5
6EEA8
100
AcDbDictionary
280
     1
  3
ACAD_XREC_ROUNDTRIP
360
6EEA9
  0
DICTIONARY
  5
6EED5
100
AcDbDictionary
280
     1
  3
ACAD_XREC_ROUNDTRIP
360
6EED6
  0
DICTIONARY
  5
6EED7
100
AcDbDictionary
280
     1
  3
ACAD_XREC_ROUNDTRIP
360
6EED8
  0
DICTIONARY
  5
6EEDB
100
AcDbDictionary
280
     1
  3
ACAD_XREC_ROUNDTRIP
360
6EEDC
  0
DICTIONARY
  5
4D2
100
AcDbDictionary
280
     1
  3
ACAD_LAYOUTSELFREF
360
6EED4
  0
DICTIONARY
  5
4D0
100
AcDbDictionary
280
     1
  3
ACAD_LAYOUTSELFREF
360
6EED3
  0
DICTIONARY
  5
6EECB
100
AcDbDictionary
280
     1
  3
ACAD_XREC_ROUNDTRIP
360
6EECC
  0
DICTIONARY
  5
6EECD
100
AcDbDictionary
280
     1
  3
ACAD_XREC_ROUNDTRIP
360
6EECE
  0
DICTIONARY
  5
6EECF
100
AcDbDictionary
280
     1
  3
ACAD_XREC_ROUNDTRIP
360
6EED0
  0
DICTIONARY
  5
6EED1
100
AcDbDictionary
280
     1
  3
ACAD_XREC_ROUNDTRIP
360
6EED2
  0
DICTIONARY
  5
46E
102
{ACAD_REACTORS
330
46D
102
}
100
AcDbDictionary
  0
DICTIONARY
  5
49E
102
{ACAD_XDICTIONARY
360
6EED9
102
}
102
{ACAD_REACTORS
330
46D
102
}
100
AcDbDictionary
  3
LAYOUT1
350
4A1
  3
MODEL
350
4A0
  0
DICTIONARY
  5
47B
102
{ACAD_REACTORS
330
46D
102
}
100
AcDbDictionary
  3
STANDARD
350
47C
  0
DICTIONARY
  5
49F
102
{ACAD_REACTORS
330
46D
102
}
100
AcDbDictionary
  0
ACAD_PROXY_OBJECT
  5
49C
102
{ACAD_REACTORS
330
46D
102
}
100
AcDbProxyObject
 90
      499
 91
      501
 93
       86
310
405010041939BDC9B585B1
350
49D
340
49D
 94
        0
  0
DICTIONARY
  5
6EEAA
102
{ACAD_REACTORS
330
46D
102
}
100
AcDbDictionary
  3
CEPSNTYPE
350
6EEB4
  3
DIMSTYLEDATA
350
6EEB8
  3
FINGERPRINTGUID
350
6EEB5
  3
HYPERLINKBASE
350
6EEAD
  3
INSUNITS
350
6EEB3
  3
LAYOUTDICT
350
6EEAF
  3
LWETCUNION
350
6EEB2
  3
PLOTSETDICT
350
6EEB0
  3
PLOTSTYLNAMDICT
350
6EEB1
  3
PSVPSCALE
350
6EEB7
  3
PUCSBASE
350
6EEBB
  3
PUCSORGBACK
350
6EEC1
  3
PUCSORGBOTTOM
350
6EEBD
  3
PUCSORGFRONT
350
6EEC0
  3
PUCSORGLEFT
350
6EEBE
  3
PUCSORGRIGHT
350
6EEBF
  3
PUCSORGTOP
350
6EEBC
  3
PUCSORTHOREF
350
6EEB9
  3
PUCSORTHOVIEW
350
6EEBA
  3
STYLESHEET
350
6EEAE
  3
TSTACKALIGN
350
6EEAB
  3
TSTACKSIZE
350
6EEAC
  3
UCSBASE
350
6EEC4
  3
UCSORGBACK
350
6EECA
  3
UCSORGBOTTOM
350
6EEC6
  3
UCSORGFRONT
350
6EEC9
  3
UCSORGLEFT
350
6EEC7
  3
UCSORGRIGHT
350
6EEC8
  3
UCSORGTOP
350
6EEC5
  3
UCSORTHOREF
350
6EEC2
  3
UCSORTHOVIEW
350
6EEC3
  3
VERSIONGUID
350
6EEB6
  0
DICTIONARY
  5
48D
102
{ACAD_REACTORS
330
46D
102
}
100
AcDbDictionary
  3
DIMADEC
350
48E
  0
XRECORD
  5
6EEA9
102
{ACAD_REACTORS
330
6EEA8
102
}
100
AcDbXrecord
102
EXTNAMES
  1
*ACTIVE
  2
*Active
102
UCS
 74
     0
 71
     1
 10
0.0
 20
0.0
 30
0.0
 10
1.0
 20
0.0
 30
0.0
 10
0.0
 20
1.0
 30
0.0
146
0.0
 79
     1
102
VIEW
281
     1
  0
XRECORD
  5
6EED6
102
{ACAD_REACTORS
330
6EED5
102
}
100
AcDbXrecord
102
PLOTBIT
280
     0
  0
XRECORD
  5
6EED8
102
{ACAD_REACTORS
330
6EED7
102
}
100
AcDbXrecord
102
ACADR14ROUNDTRIP
1000
DSTYLE
1002
{
1070
   276
 70
     2
1070
   277
 70
     5
1070
   279
 70
     2
1002
}
  0
XRECORD
  5
6EEDC
102
{ACAD_REACTORS
330
6EEDB
102
}
100
AcDbXrecord
102
ACADR14ROUNDTRIP
1000
DSTYLE
1002
{
1070
   276
 70
     2
1070
   277
 70
     5
1070
   279
 70
     2
1070
   289
 70
     2
1002
}
  0
XRECORD
  5
6EED4
102
{ACAD_REACTORS
330
4D2
102
}
100
AcDbXrecord
340
478
  0
XRECORD
  5
6EED3
102
{ACAD_REACTORS
330
4D0
102
}
100
AcDbXrecord
340
475
  0
XRECORD
  5
6EECC
102
{ACAD_REACTORS
330
6EECB
102
}
100
AcDbXrecord
102
UCS
 74
     0
 71
     1
 10
0.0
 20
0.0
 30
0.0
 10
1.0
 20
0.0
 30
0.0
 10
0.0
 20
1.0
 30
0.0
146
0.0
 79
     0
102
VIEW
281
     0
102
NEWVIEWCONTROL
280
     4
  0
XRECORD
  5
6EECE
102
{ACAD_REACTORS
330
6EECD
102
}
100
AcDbXrecord
102
UCS
 74
     0
 71
     1
 10
0.0
 20
0.0
 30
0.0
 10
1.0
 20
0.0
 30
0.0
 10
0.0
 20
1.0
 30
0.0
146
0.0
 79
     1
102
VIEW
281
     0
102
NEWVIEWCONTROL
280
     4
  0
XRECORD
  5
6EED0
102
{ACAD_REACTORS
330
6EECF
102
}
100
AcDbXrecord
102
UCS
 74
     0
 71
     1
 10
0.0
 20
0.0
 30
0.0
 10
1.0
 20
0.0
 30
0.0
 10
0.0
 20
0.0
 30
1.0
146
0.0
 79
     3
102
VIEW
281
     0
102
NEWVIEWCONTROL
280
     4
  0
XRECORD
  5
6EED2
102
{ACAD_REACTORS
330
6EED1
102
}
100
AcDbXrecord
102
UCS
 74
     0
 71
     1
 10
0.0
 20
0.0
 30
0.0
 10
1.0
 20
0.0
 30
0.0
 10
0.0
 20
1.0
 30
0.0
146
0.0
 79
     0
102
VIEW
281
     0
102
NEWVIEWCONTROL
280
     4
  0
DICTIONARY
  5
6EED9
100
AcDbDictionary
280
     1
  3
ACAD_XREC_ROUNDTRIP
360
6EEDA
  0
ACAD_PROXY_OBJECT
  5
4A1
102
{ACAD_REACTORS
330
49E
102
}
100
AcDbProxyObject
 90
      499
 91
      503
 93
     2044
310
91D4850204C617365724A65742035303030205365726965732050434C20362C008000000C0BB1B1440000000102F06C510000000000BC1B1440000000002E06C5100000000C0CCFC6A4000000018199D9C501064C6574746572A901406AA427D84144352EEE3F47D11959985D5B1D08148C4D081C195B88185CDCDA59DB9B5
310
95B9D1CCB98DD18A30EDE3B1BBFDBC0FC1D572C8D6D0C833F1A2B3054E9249F0FD074C61796F75743140501A97D7DB4AA43C31EFF91E46EBA53B71EFD1F32A15809809100B6537F8EAD447D02A6A6A00200C0093BD106FC0000F06EE366FABE0000374A23C9C36F44424FF2920002440160B7F435600079000000006A48D4E
310
43C0
330
475
330
2C
340
0
340
0
 94
        0
  0
ACAD_PROXY_OBJECT
  5
4A0
102
{ACAD_REACTORS
330
49E
102
}
100
AcDbProxyObject
 90
      499
 91
      503
 93
      924
310
91D4850204C617365724A65742035303030205365726965732050434C20362C01AAAAAAAAA547D11959985D5B1D08148C4D081C195B88185CDCDA59DB9B595B9D1CCB98DD18A69054D6F64656C901A800000000000000000000000000000000000000000000A1000000000000008902A6A6AAAA0
330
478
330
0
340
0
340
0
 94
        0
  0
MLINESTYLE
  5
47C
102
{ACAD_REACTORS
330
47B
102
}
100
AcDbMlineStyle
  2
STANDARD
 70
     0
  3

 62
   256
 51
90.0
 52
90.0
 71
     2
 49
0.5
 62
   256
  6
BYLAYER
 49
-0.5
 62
   256
  6
BYLAYER
  0
ACAD_PROXY_OBJECT
  5
49D
102
{ACAD_REACTORS
330
49C
102
}
100
AcDbProxyObject
 90
      499
 91
      502
 93
        0
 94
        0
  0
XRECORD
  5
6EEB4
102
{ACAD_REACTORS
330
6EEAA
102
}
100
AcDbXrecord
 90
        0
  0
XRECORD
  5
6EEB8
102
{ACAD_REACTORS
330
6EEAA
102
}
100
AcDbXrecord
1000
DSTYLE
1002
{
1070
   276
 70
     2
1070
   277
 70
     5
1070
   279
 70
     2
1002
}
  0
XRECORD
  5
6EEB5
102
{ACAD_REACTORS
330
6EEAA
102
}
100
AcDbXrecord
  1
{6E0CF4B5-225E-11D4-A150-00A0CC3303EC}
  0
XRECORD
  5
6EEAD
102
{ACAD_REACTORS
330
6EEAA
102
}
100
AcDbXrecord
  1

  0
XRECORD
  5
6EEB3
102
{ACAD_REACTORS
330
6EEAA
102
}
100
AcDbXrecord
 90
        0
  0
XRECORD
  5
6EEAF
102
{ACAD_REACTORS
330
6EEAA
102
}
100
AcDbXrecord
340
49E
  0
XRECORD
  5
6EEB2
102
{ACAD_REACTORS
330
6EEAA
102
}
100
AcDbXrecord
 90
    14877
  0
XRECORD
  5
6EEB0
102
{ACAD_REACTORS
330
6EEAA
102
}
100
AcDbXrecord
340
49F
  0
XRECORD
  5
6EEB1
102
{ACAD_REACTORS
330
6EEAA
102
}
100
AcDbXrecord
340
49C
  0
XRECORD
  5
6EEB7
102
{ACAD_REACTORS
330
6EEAA
102
}
100
AcDbXrecord
 40
0.0
  0
XRECORD
  5
6EEBB
102
{ACAD_REACTORS
330
6EEAA
102
}
100
AcDbXrecord
340
0
  0
XRECORD
  5
6EEC1
102
{ACAD_REACTORS
330
6EEAA
102
}
100
AcDbXrecord
 10
0.0
 20
0.0
 30
0.0
  0
XRECORD
  5
6EEBD
102
{ACAD_REACTORS
330
6EEAA
102
}
100
AcDbXrecord
 10
0.0
 20
0.0
 30
0.0
  0
XRECORD
  5
6EEC0
102
{ACAD_REACTORS
330
6EEAA
102
}
100
AcDbXrecord
 10
0.0
 20
0.0
 30
0.0
  0
XRECORD
  5
6EEBE
102
{ACAD_REACTORS
330
6EEAA
102
}
100
AcDbXrecord
 10
0.0
 20
0.0
 30
0.0
  0
XRECORD
  5
6EEBF
102
{ACAD_REACTORS
330
6EEAA
102
}
100
AcDbXrecord
 10
0.0
 20
0.0
 30
0.0
  0
XRECORD
  5
6EEBC
102
{ACAD_REACTORS
330
6EEAA
102
}
100
AcDbXrecord
 10
0.0
 20
0.0
 30
0.0
  0
XRECORD
  5
6EEB9
102
{ACAD_REACTORS
330
6EEAA
102
}
100
AcDbXrecord
340
0
  0
XRECORD
  5
6EEBA
102
{ACAD_REACTORS
330
6EEAA
102
}
100
AcDbXrecord
 70
     0
  0
XRECORD
  5
6EEAE
102
{ACAD_REACTORS
330
6EEAA
102
}
100
AcDbXrecord
  1

  0
XRECORD
  5
6EEAB
102
{ACAD_REACTORS
330
6EEAA
102
}
100
AcDbXrecord
 90
        1
  0
XRECORD
  5
6EEAC
102
{ACAD_REACTORS
330
6EEAA
102
}
100
AcDbXrecord
 90
       70
  0
XRECORD
  5
6EEC4
102
{ACAD_REACTORS
330
6EEAA
102
}
100
AcDbXrecord
340
0
  0
XRECORD
  5
6EECA
102
{ACAD_REACTORS
330
6EEAA
102
}
100
AcDbXrecord
 10
0.0
 20
0.0
 30
0.0
  0
XRECORD
  5
6EEC6
102
{ACAD_REACTORS
330
6EEAA
102
}
100
AcDbXrecord
 10
0.0
 20
0.0
 30
0.0
  0
XRECORD
  5
6EEC9
102
{ACAD_REACTORS
330
6EEAA
102
}
100
AcDbXrecord
 10
0.0
 20
0.0
 30
0.0
  0
XRECORD
  5
6EEC7
102
{ACAD_REACTORS
330
6EEAA
102
}
100
AcDbXrecord
 10
0.0
 20
0.0
 30
0.0
  0
XRECORD
  5
6EEC8
102
{ACAD_REACTORS
330
6EEAA
102
}
100
AcDbXrecord
 10
0.0
 20
0.0
 30
0.0
  0
XRECORD
  5
6EEC5
102
{ACAD_REACTORS
330
6EEAA
102
}
100
AcDbXrecord
 10
0.0
 20
0.0
 30
0.0
  0
XRECORD
  5
6EEC2
102
{ACAD_REACTORS
330
6EEAA
102
}
100
AcDbXrecord
340
0
  0
XRECORD
  5
6EEC3
102
{ACAD_REACTORS
330
6EEAA
102
}
100
AcDbXrecord
 70
     0
  0
XRECORD
  5
6EEB6
102
{ACAD_REACTORS
330
6EEAA
102
}
100
AcDbXrecord
  1
{EF7C6E8E-2579-42CE-825A-2BA543B7191E}
  0
DICTIONARYVAR
  5
48E
102
{ACAD_REACTORS
330
48D
102
}
100
DictionaryVariables
280
     0
  1
0
  0
XRECORD
  5
6EEDA
102
{ACAD_REACTORS
330
6EED9
102
}
100
AcDbXrecord
102
EXTNAMES
  1
LAYOUT1
  2
Layout1
  1
MODEL
  2
Model
  0
ENDSEC
  0
EOF
