  0
SECTION
  2
HEADER
  9
$ACADVER
  1
AC1014
  9
$ACADMAINTVER
 70
     8
  9
$DWGCODEPAGE
  3
ANSI_1252
  9
$INSBASE
 10
0.0
 20
0.0
 30
0.0
  9
$EXTMIN
 10
-1.391555
 20
-0.8975
 30
-1.57
  9
$EXTMAX
 10
1.392789
 20
1.351648
 30
0.0
  9
$LIMMIN
 10
0.0
 20
0.0
  9
$LIMMAX
 10
12.0
 20
9.0
  9
$ORTHOMODE
 70
     0
  9
$REGENMODE
 70
     1
  9
$FILLMODE
 70
     1
  9
$QTEXTMODE
 70
     0
  9
$MIRRTEXT
 70
     1
  9
$DRAGMODE
 70
     2
  9
$LTSCALE
 40
1.0
  9
$OSMODE
 70
    37
  9
$ATTMODE
 70
     1
  9
$TEXTSIZE
 40
0.12
  9
$TRACEWID
 40
0.05
  9
$TEXTSTYLE
  7
STANDARD
  9
$CLAYER
  8
0
  9
$CELTYPE
  6
BYLAYER
  9
$CECOLOR
 62
   256
  9
$CELTSCALE
 40
1.0
  9
$DELOBJ
 70
     1
  9
$DISPSILH
 70
     0
  9
$DIMSCALE
 40
1.0
  9
$DIMASZ
 40
0.1
  9
$DIMEXO
 40
0.1
  9
$DIMDLI
 40
0.375
  9
$DIMRND
 40
0.0
  9
$DIMDLE
 40
0.0
  9
$DIMEXE
 40
0.1
  9
$DIMTP
 40
0.0
  9
$DIMTM
 40
0.0
  9
$DIMTXT
 40
0.1
  9
$DIMCEN
 40
0.09
  9
$DIMTSZ
 40
0.0
  9
$DIMTOL
 70
     0
  9
$DIMLIM
 70
     0
  9
$DIMTIH
 70
     0
  9
$DIMTOH
 70
     1
  9
$DIMSE1
 70
     0
  9
$DIMSE2
 70
     0
  9
$DIMTAD
 70
     0
  9
$DIMZIN
 70
     4
  9
$DIMBLK
  1

  9
$DIMASO
 70
     1
  9
$DIMSHO
 70
     1
  9
$DIMPOST
  1

  9
$DIMAPOST
  1

  9
$DIMALT
 70
     1
  9
$DIMALTD
 70
     2
  9
$DIMALTF
 40
25.4
  9
$DIMLFAC
 40
1.0
  9
$DIMTOFL
 70
     0
  9
$DIMTVP
 40
0.0
  9
$DIMTIX
 70
     0
  9
$DIMSOXD
 70
     0
  9
$DIMSAH
 70
     0
  9
$DIMBLK1
  1

  9
$DIMBLK2
  1

  9
$DIMSTYLE
  2
ABECAD_3D
  9
$DIMCLRD
 70
     0
  9
$DIMCLRE
 70
     0
  9
$DIMCLRT
 70
     0
  9
$DIMTFAC
 40
1.5
  9
$DIMGAP
 40
0.09
  9
$DIMJUST
 70
     0
  9
$DIMSD1
 70
     0
  9
$DIMSD2
 70
     0
  9
$DIMTOLJ
 70
     1
  9
$DIMTZIN
 70
     4
  9
$DIMALTZ
 70
     4
  9
$DIMALTTZ
 70
     4
  9
$DIMFIT
 70
     5
  9
$DIMUPT
 70
     1
  9
$DIMUNIT
 70
     7
  9
$DIMDEC
 70
     6
  9
$DIMTDEC
 70
     6
  9
$DIMALTU
 70
     2
  9
$DIMALTTD
 70
     2
  9
$DIMTXSTY
  7
STANDARD
  9
$DIMAUNIT
 70
     0
  9
$LUNITS
 70
     2
  9
$LUPREC
 70
     4
  9
$SKETCHINC
 40
0.1
  9
$FILLETRAD
 40
0.0
  9
$AUNITS
 70
     0
  9
$AUPREC
 70
     0
  9
$MENU
  1
ACAD
  9
$ELEVATION
 40
0.0
  9
$PELEVATION
 40
0.0
  9
$THICKNESS
 40
0.0
  9
$LIMCHECK
 70
     0
  9
$BLIPMODE
 70
     0
  9
$CHAMFERA
 40
0.0
  9
$CHAMFERB
 40
0.0
  9
$CHAMFERC
 40
0.0
  9
$CHAMFERD
 40
0.0
  9
$SKPOLY
 70
     0
  9
$TDCREATE
 40
2451726.438389120
  9
$TDUPDATE
 40
2452100.671940278
  9
$TDINDWG
 40
1.4200206019
  9
$TDUSRTIMER
 40
1.4200206019
  9
$USRTIMER
 70
     1
  9
$ANGBASE
 50
0.0
  9
$ANGDIR
 70
     0
  9
$PDMODE
 70
     3
  9
$PDSIZE
 40
0.09
  9
$PLINEWID
 40
0.0
  9
$COORDS
 70
     1
  9
$SPLFRAME
 70
     1
  9
$SPLINETYPE
 70
     6
  9
$SPLINESEGS
 70
     8
  9
$ATTDIA
 70
     0
  9
$ATTREQ
 70
     1
  9
$HANDLING
 70
     1
  9
$HANDSEED
  5
AA6A7
  9
$SURFTAB1
 70
     6
  9
$SURFTAB2
 70
     6
  9
$SURFTYPE
 70
     6
  9
$SURFU
 70
     6
  9
$SURFV
 70
     6
  9
$UCSNAME
  2

  9
$UCSORG
 10
0.0
 20
0.0
 30
0.0
  9
$UCSXDIR
 10
1.0
 20
0.0
 30
0.0
  9
$UCSYDIR
 10
0.0
 20
1.0
 30
0.0
  9
$PUCSNAME
  2

  9
$PUCSORG
 10
0.0
 20
0.0
 30
0.0
  9
$PUCSXDIR
 10
1.0
 20
0.0
 30
0.0
  9
$PUCSYDIR
 10
0.0
 20
1.0
 30
0.0
  9
$USERI1
 70
     0
  9
$USERI2
 70
     0
  9
$USERI3
 70
     0
  9
$USERI4
 70
     0
  9
$USERI5
 70
     0
  9
$USERR1
 40
0.0
  9
$USERR2
 40
0.0
  9
$USERR3
 40
0.0
  9
$USERR4
 40
0.0
  9
$USERR5
 40
0.0
  9
$WORLDVIEW
 70
     1
  9
$SHADEDGE
 70
     3
  9
$SHADEDIF
 70
    70
  9
$TILEMODE
 70
     1
  9
$MAXACTVP
 70
    16
  9
$PINSBASE
 10
0.0
 20
0.0
 30
0.0
  9
$PLIMCHECK
 70
     0
  9
$PEXTMIN
 10
1.05
 20
0.8
 30
0.0
  9
$PEXTMAX
 10
9.45
 20
7.2
 30
0.0
  9
$PLIMMIN
 10
-0.25
 20
-0.25
  9
$PLIMMAX
 10
10.75
 20
8.25
  9
$UNITMODE
 70
     0
  9
$VISRETAIN
 70
     0
  9
$PLINEGEN
 70
     0
  9
$PSLTSCALE
 70
     1
  9
$TREEDEPTH
 70
  3020
  9
$PICKSTYLE
 70
     1
  9
$CMLSTYLE
  2
STANDARD
  9
$CMLJUST
 70
     0
  9
$CMLSCALE
 40
1.0
  9
$PROXYGRAPHICS
 70
     1
  9
$MEASUREMENT
 70
     0
  0
ENDSEC
  0
SECTION
  2
CLASSES
  0
CLASS
  1
DICTIONARYVAR
  2
AcDbDictionaryVar
  3
"AutoCAD"
 90
        0
280
     0
281
     0
  0
CLASS
  1
ACDBDICTIONARYWDFLT
  2
AcDbDictionaryWithDefault
  3
AutoCAD 2000
 90
        0
280
     0
281
     0
  0
CLASS
  1
ACDBPLACEHOLDER
  2
AcDbPlaceHolder
  3
AutoCAD 2000
 90
        0
280
     0
281
     0
  0
CLASS
  1
LAYOUT
  2
AcDbLayout
  3
AutoCAD 2000
 90
        0
280
     0
281
     0
  0
CLASS
  1
LONG_TRANSACTION
  2
AcDbLongTransaction
  3
AutoCAD 2000
 90
        0
280
     0
281
     0
  0
CLASS
  1
LWPOLYLINE
  2
AcDbPolyline
  3
"AutoCAD"
 90
        0
280
     0
281
     1
  0
CLASS
  1
HATCH
  2
AcDbHatch
  3
"ACAD_SEDONA"
 90
        0
280
     0
281
     1
  0
CLASS
  1
XRECORD
  2
AcDbXrecord
  3
"<Built In>"
 90
        0
280
     0
281
     0
  0
CLASS
  1
LONG_TRANSACTION
  2
AcDbLongTransaction
  3
AutoCAD 2000
 90
        0
280
     0
281
     0
  0
CLASS
  1
LWPOLYLINE
  2
AcDbPolyline
  3
"AutoCAD"
 90
        0
280
     0
281
     1
  0
CLASS
  1
HATCH
  2
AcDbHatch
  3
"ACAD_SEDONA"
 90
        0
280
     0
281
     1
  0
CLASS
  1
XRECORD
  2
AcDbXrecord
  3
"<Built In>"
 90
        0
280
     0
281
     0
  0
CLASS
  1
LONG_TRANSACTION
  2
AcDbLongTransaction
  3
AutoCAD 2000
 90
        0
280
     0
281
     0
  0
CLASS
  1
LWPOLYLINE
  2
AcDbPolyline
  3
"AutoCAD"
 90
        0
280
     0
281
     1
  0
CLASS
  1
HATCH
  2
AcDbHatch
  3
"ACAD_SEDONA"
 90
        0
280
     0
281
     1
  0
CLASS
  1
XRECORD
  2
AcDbXrecord
  3
"<Built In>"
 90
        0
280
     0
281
     0
  0
CLASS
  1
LONG_TRANSACTION
  2
AcDbLongTransaction
  3
AutoCAD 2000
 90
        0
280
     0
281
     0
  0
CLASS
  1
LWPOLYLINE
  2
AcDbPolyline
  3
"AutoCAD"
 90
        0
280
     0
281
     1
  0
CLASS
  1
HATCH
  2
AcDbHatch
  3
"ACAD_SEDONA"
 90
        0
280
     0
281
     1
  0
CLASS
  1
XRECORD
  2
AcDbXrecord
  3
"<Built In>"
 90
        0
280
     0
281
     0
  0
CLASS
  1
LONG_TRANSACTION
  2
AcDbLongTransaction
  3
AutoCAD 2000
 90
        0
280
     0
281
     0
  0
CLASS
  1
LWPOLYLINE
  2
AcDbPolyline
  3
"AutoCAD"
 90
        0
280
     0
281
     1
  0
CLASS
  1
HATCH
  2
AcDbHatch
  3
"ACAD_SEDONA"
 90
        0
280
     0
281
     1
  0
CLASS
  1
XRECORD
  2
AcDbXrecord
  3
"<Built In>"
 90
        0
280
     0
281
     0
  0
CLASS
  1
LONG_TRANSACTION
  2
AcDbLongTransaction
  3
AutoCAD 2000
 90
        0
280
     0
281
     0
  0
CLASS
  1
LWPOLYLINE
  2
AcDbPolyline
  3
"AutoCAD"
 90
        0
280
     0
281
     1
  0
CLASS
  1
HATCH
  2
AcDbHatch
  3
"ACAD_SEDONA"
 90
        0
280
     0
281
     1
  0
CLASS
  1
XRECORD
  2
AcDbXrecord
  3
"<Built In>"
 90
        0
280
     0
281
     0
  0
CLASS
  1
LONG_TRANSACTION
  2
AcDbLongTransaction
  3
AutoCAD 2000
 90
        0
280
     0
281
     0
  0
CLASS
  1
LWPOLYLINE
  2
AcDbPolyline
  3
"AutoCAD"
 90
        0
280
     0
281
     1
  0
CLASS
  1
HATCH
  2
AcDbHatch
  3
"ACAD_SEDONA"
 90
        0
280
     0
281
     1
  0
CLASS
  1
XRECORD
  2
AcDbXrecord
  3
"<Built In>"
 90
        0
280
     0
281
     0
  0
CLASS
  1
LONG_TRANSACTION
  2
AcDbLongTransaction
  3
AutoCAD 2000
 90
        0
280
     0
281
     0
  0
CLASS
  1
LWPOLYLINE
  2
AcDbPolyline
  3
"AutoCAD"
 90
        0
280
     0
281
     1
  0
CLASS
  1
HATCH
  2
AcDbHatch
  3
"ACAD_SEDONA"
 90
        0
280
     0
281
     1
  0
CLASS
  1
XRECORD
  2
AcDbXrecord
  3
"<Built In>"
 90
        0
280
     0
281
     0
  0
CLASS
  1
LONG_TRANSACTION
  2
AcDbLongTransaction
  3
AutoCAD 2000
 90
        0
280
     0
281
     0
  0
CLASS
  1
LWPOLYLINE
  2
AcDbPolyline
  3
"AutoCAD"
 90
        0
280
     0
281
     1
  0
CLASS
  1
HATCH
  2
AcDbHatch
  3
"ACAD_SEDONA"
 90
        0
280
     0
281
     1
  0
CLASS
  1
XRECORD
  2
AcDbXrecord
  3
"<Built In>"
 90
        0
280
     0
281
     0
  0
CLASS
  1
LONG_TRANSACTION
  2
AcDbLongTransaction
  3
AutoCAD 2000
 90
        0
280
     0
281
     0
  0
CLASS
  1
LWPOLYLINE
  2
AcDbPolyline
  3
"AutoCAD"
 90
        0
280
     0
281
     1
  0
CLASS
  1
HATCH
  2
AcDbHatch
  3
"ACAD_SEDONA"
 90
        0
280
     0
281
     1
  0
CLASS
  1
XRECORD
  2
AcDbXrecord
  3
"<Built In>"
 90
        0
280
     0
281
     0
  0
CLASS
  1
LONG_TRANSACTION
  2
AcDbLongTransaction
  3
AutoCAD 2000
 90
        0
280
     0
281
     0
  0
CLASS
  1
LWPOLYLINE
  2
AcDbPolyline
  3
"AutoCAD"
 90
        0
280
     0
281
     1
  0
CLASS
  1
HATCH
  2
AcDbHatch
  3
"ACAD_SEDONA"
 90
        0
280
     0
281
     1
  0
CLASS
  1
XRECORD
  2
AcDbXrecord
  3
"<Built In>"
 90
        0
280
     0
281
     0
  0
CLASS
  1
LONG_TRANSACTION
  2
AcDbLongTransaction
  3
AutoCAD 2000
 90
        0
280
     0
281
     0
  0
CLASS
  1
LWPOLYLINE
  2
AcDbPolyline
  3
"AutoCAD"
 90
        0
280
     0
281
     1
  0
CLASS
  1
HATCH
  2
AcDbHatch
  3
"ACAD_SEDONA"
 90
        0
280
     0
281
     1
  0
CLASS
  1
XRECORD
  2
AcDbXrecord
  3
"<Built In>"
 90
        0
280
     0
281
     0
  0
CLASS
  1
LONG_TRANSACTION
  2
AcDbLongTransaction
  3
AutoCAD 2000
 90
        0
280
     0
281
     0
  0
CLASS
  1
LWPOLYLINE
  2
AcDbPolyline
  3
"AutoCAD"
 90
        0
280
     0
281
     1
  0
CLASS
  1
HATCH
  2
AcDbHatch
  3
"ACAD_SEDONA"
 90
        0
280
     0
281
     1
  0
CLASS
  1
XRECORD
  2
AcDbXrecord
  3
"<Built In>"
 90
        0
280
     0
281
     0
  0
CLASS
  1
LONG_TRANSACTION
  2
AcDbLongTransaction
  3
AutoCAD 2000
 90
        0
280
     0
281
     0
  0
CLASS
  1
LWPOLYLINE
  2
AcDbPolyline
  3
"AutoCAD"
 90
        0
280
     0
281
     1
  0
CLASS
  1
HATCH
  2
AcDbHatch
  3
"ACAD_SEDONA"
 90
        0
280
     0
281
     1
  0
CLASS
  1
XRECORD
  2
AcDbXrecord
  3
"<Built In>"
 90
        0
280
     0
281
     0
  0
CLASS
  1
LONG_TRANSACTION
  2
AcDbLongTransaction
  3
AutoCAD 2000
 90
        0
280
     0
281
     0
  0
CLASS
  1
LWPOLYLINE
  2
AcDbPolyline
  3
"AutoCAD"
 90
        0
280
     0
281
     1
  0
CLASS
  1
HATCH
  2
AcDbHatch
  3
"ACAD_SEDONA"
 90
        0
280
     0
281
     1
  0
CLASS
  1
XRECORD
  2
AcDbXrecord
  3
"<Built In>"
 90
        0
280
     0
281
     0
  0
CLASS
  1
LONG_TRANSACTION
  2
AcDbLongTransaction
  3
AutoCAD 2000
 90
        0
280
     0
281
     0
  0
CLASS
  1
LWPOLYLINE
  2
AcDbPolyline
  3
"AutoCAD"
 90
        0
280
     0
281
     1
  0
CLASS
  1
HATCH
  2
AcDbHatch
  3
"ACAD_SEDONA"
 90
        0
280
     0
281
     1
  0
CLASS
  1
XRECORD
  2
AcDbXrecord
  3
"<Built In>"
 90
        0
280
     0
281
     0
  0
CLASS
  1
LONG_TRANSACTION
  2
AcDbLongTransaction
  3
AutoCAD 2000
 90
        0
280
     0
281
     0
  0
CLASS
  1
LWPOLYLINE
  2
AcDbPolyline
  3
"AutoCAD"
 90
        0
280
     0
281
     1
  0
CLASS
  1
HATCH
  2
AcDbHatch
  3
"ACAD_SEDONA"
 90
        0
280
     0
281
     1
  0
CLASS
  1
XRECORD
  2
AcDbXrecord
  3
"<Built In>"
 90
        0
280
     0
281
     0
  0
CLASS
  1
LONG_TRANSACTION
  2
AcDbLongTransaction
  3
AutoCAD 2000
 90
        0
280
     0
281
     0
  0
CLASS
  1
LWPOLYLINE
  2
AcDbPolyline
  3
"AutoCAD"
 90
        0
280
     0
281
     1
  0
CLASS
  1
HATCH
  2
AcDbHatch
  3
"ACAD_SEDONA"
 90
        0
280
     0
281
     1
  0
CLASS
  1
XRECORD
  2
AcDbXrecord
  3
"<Built In>"
 90
        0
280
     0
281
     0
  0
CLASS
  1
LONG_TRANSACTION
  2
AcDbLongTransaction
  3
AutoCAD 2000
 90
        0
280
     0
281
     0
  0
CLASS
  1
LWPOLYLINE
  2
AcDbPolyline
  3
"AutoCAD"
 90
        0
280
     0
281
     1
  0
CLASS
  1
HATCH
  2
AcDbHatch
  3
"ACAD_SEDONA"
 90
        0
280
     0
281
     1
  0
CLASS
  1
XRECORD
  2
AcDbXrecord
  3
"<Built In>"
 90
        0
280
     0
281
     0
  0
CLASS
  1
LONG_TRANSACTION
  2
AcDbLongTransaction
  3
AutoCAD 2000
 90
        0
280
     0
281
     0
  0
CLASS
  1
LWPOLYLINE
  2
AcDbPolyline
  3
"AutoCAD"
 90
        0
280
     0
281
     1
  0
CLASS
  1
HATCH
  2
AcDbHatch
  3
"ACAD_SEDONA"
 90
        0
280
     0
281
     1
  0
CLASS
  1
XRECORD
  2
AcDbXrecord
  3
"<Built In>"
 90
        0
280
     0
281
     0
  0
CLASS
  1
LONG_TRANSACTION
  2
AcDbLongTransaction
  3
AutoCAD 2000
 90
        0
280
     0
281
     0
  0
CLASS
  1
LWPOLYLINE
  2
AcDbPolyline
  3
"AutoCAD"
 90
        0
280
     0
281
     1
  0
CLASS
  1
HATCH
  2
AcDbHatch
  3
"ACAD_SEDONA"
 90
        0
280
     0
281
     1
  0
CLASS
  1
XRECORD
  2
AcDbXrecord
  3
"<Built In>"
 90
        0
280
     0
281
     0
  0
CLASS
  1
LONG_TRANSACTION
  2
AcDbLongTransaction
  3
AutoCAD 2000
 90
        0
280
     0
281
     0
  0
CLASS
  1
LWPOLYLINE
  2
AcDbPolyline
  3
"AutoCAD"
 90
        0
280
     0
281
     1
  0
CLASS
  1
HATCH
  2
AcDbHatch
  3
"ACAD_SEDONA"
 90
        0
280
     0
281
     1
  0
CLASS
  1
XRECORD
  2
AcDbXrecord
  3
"<Built In>"
 90
        0
280
     0
281
     0
  0
CLASS
  1
LONG_TRANSACTION
  2
AcDbLongTransaction
  3
AutoCAD 2000
 90
        0
280
     0
281
     0
  0
CLASS
  1
LWPOLYLINE
  2
AcDbPolyline
  3
"AutoCAD"
 90
        0
280
     0
281
     1
  0
CLASS
  1
HATCH
  2
AcDbHatch
  3
"ACAD_SEDONA"
 90
        0
280
     0
281
     1
  0
CLASS
  1
XRECORD
  2
AcDbXrecord
  3
"<Built In>"
 90
        0
280
     0
281
     0
  0
CLASS
  1
LONG_TRANSACTION
  2
AcDbLongTransaction
  3
AutoCAD 2000
 90
        0
280
     0
281
     0
  0
CLASS
  1
LWPOLYLINE
  2
AcDbPolyline
  3
"AutoCAD"
 90
        0
280
     0
281
     1
  0
CLASS
  1
HATCH
  2
AcDbHatch
  3
"ACAD_SEDONA"
 90
        0
280
     0
281
     1
  0
CLASS
  1
XRECORD
  2
AcDbXrecord
  3
"<Built In>"
 90
        0
280
     0
281
     0
  0
CLASS
  1
LONG_TRANSACTION
  2
AcDbLongTransaction
  3
AutoCAD 2000
 90
        0
280
     0
281
     0
  0
CLASS
  1
LWPOLYLINE
  2
AcDbPolyline
  3
"AutoCAD"
 90
        0
280
     0
281
     1
  0
CLASS
  1
HATCH
  2
AcDbHatch
  3
"ACAD_SEDONA"
 90
        0
280
     0
281
     1
  0
CLASS
  1
XRECORD
  2
AcDbXrecord
  3
"<Built In>"
 90
        0
280
     0
281
     0
  0
CLASS
  1
LONG_TRANSACTION
  2
AcDbLongTransaction
  3
AutoCAD 2000
 90
        0
280
     0
281
     0
  0
CLASS
  1
LWPOLYLINE
  2
AcDbPolyline
  3
"AutoCAD"
 90
        0
280
     0
281
     1
  0
CLASS
  1
HATCH
  2
AcDbHatch
  3
"ACAD_SEDONA"
 90
        0
280
     0
281
     1
  0
CLASS
  1
XRECORD
  2
AcDbXrecord
  3
"<Built In>"
 90
        0
280
     0
281
     0
  0
CLASS
  1
LONG_TRANSACTION
  2
AcDbLongTransaction
  3
AutoCAD 2000
 90
        0
280
     0
281
     0
  0
CLASS
  1
LWPOLYLINE
  2
AcDbPolyline
  3
"AutoCAD"
 90
        0
280
     0
281
     1
  0
CLASS
  1
HATCH
  2
AcDbHatch
  3
"ACAD_SEDONA"
 90
        0
280
     0
281
     1
  0
CLASS
  1
XRECORD
  2
AcDbXrecord
  3
"<Built In>"
 90
        0
280
     0
281
     0
  0
CLASS
  1
LONG_TRANSACTION
  2
AcDbLongTransaction
  3
AutoCAD 2000
 90
        0
280
     0
281
     0
  0
CLASS
  1
LWPOLYLINE
  2
AcDbPolyline
  3
"AutoCAD"
 90
        0
280
     0
281
     1
  0
CLASS
  1
HATCH
  2
AcDbHatch
  3
"ACAD_SEDONA"
 90
        0
280
     0
281
     1
  0
CLASS
  1
XRECORD
  2
AcDbXrecord
  3
"<Built In>"
 90
        0
280
     0
281
     0
  0
CLASS
  1
LONG_TRANSACTION
  2
AcDbLongTransaction
  3
AutoCAD 2000
 90
        0
280
     0
281
     0
  0
CLASS
  1
LWPOLYLINE
  2
AcDbPolyline
  3
"AutoCAD"
 90
        0
280
     0
281
     1
  0
CLASS
  1
HATCH
  2
AcDbHatch
  3
"ACAD_SEDONA"
 90
        0
280
     0
281
     1
  0
CLASS
  1
XRECORD
  2
AcDbXrecord
  3
"<Built In>"
 90
        0
280
     0
281
     0
  0
CLASS
  1
LONG_TRANSACTION
  2
AcDbLongTransaction
  3
AutoCAD 2000
 90
        0
280
     0
281
     0
  0
CLASS
  1
LWPOLYLINE
  2
AcDbPolyline
  3
"AutoCAD"
 90
        0
280
     0
281
     1
  0
CLASS
  1
HATCH
  2
AcDbHatch
  3
"ACAD_SEDONA"
 90
        0
280
     0
281
     1
  0
CLASS
  1
XRECORD
  2
AcDbXrecord
  3
"<Built In>"
 90
        0
280
     0
281
     0
  0
CLASS
  1
LONG_TRANSACTION
  2
AcDbLongTransaction
  3
AutoCAD 2000
 90
        0
280
     0
281
     0
  0
CLASS
  1
LWPOLYLINE
  2
AcDbPolyline
  3
"AutoCAD"
 90
        0
280
     0
281
     1
  0
CLASS
  1
HATCH
  2
AcDbHatch
  3
"ACAD_SEDONA"
 90
        0
280
     0
281
     1
  0
CLASS
  1
XRECORD
  2
AcDbXrecord
  3
"<Built In>"
 90
        0
280
     0
281
     0
  0
CLASS
  1
LONG_TRANSACTION
  2
AcDbLongTransaction
  3
AutoCAD 2000
 90
        0
280
     0
281
     0
  0
CLASS
  1
LWPOLYLINE
  2
AcDbPolyline
  3
"AutoCAD"
 90
        0
280
     0
281
     1
  0
CLASS
  1
HATCH
  2
AcDbHatch
  3
"ACAD_SEDONA"
 90
        0
280
     0
281
     1
  0
CLASS
  1
XRECORD
  2
AcDbXrecord
  3
"<Built In>"
 90
        0
280
     0
281
     0
  0
CLASS
  1
LONG_TRANSACTION
  2
AcDbLongTransaction
  3
AutoCAD 2000
 90
        0
280
     0
281
     0
  0
CLASS
  1
LWPOLYLINE
  2
AcDbPolyline
  3
"AutoCAD"
 90
        0
280
     0
281
     1
  0
CLASS
  1
HATCH
  2
AcDbHatch
  3
"ACAD_SEDONA"
 90
        0
280
     0
281
     1
  0
CLASS
  1
XRECORD
  2
AcDbXrecord
  3
"<Built In>"
 90
        0
280
     0
281
     0
  0
CLASS
  1
LONG_TRANSACTION
  2
AcDbLongTransaction
  3
AutoCAD 2000
 90
        0
280
     0
281
     0
  0
CLASS
  1
LWPOLYLINE
  2
AcDbPolyline
  3
"AutoCAD"
 90
        0
280
     0
281
     1
  0
CLASS
  1
HATCH
  2
AcDbHatch
  3
"ACAD_SEDONA"
 90
        0
280
     0
281
     1
  0
CLASS
  1
XRECORD
  2
AcDbXrecord
  3
"<Built In>"
 90
        0
280
     0
281
     0
  0
CLASS
  1
LONG_TRANSACTION
  2
AcDbLongTransaction
  3
AutoCAD 2000
 90
        0
280
     0
281
     0
  0
CLASS
  1
LWPOLYLINE
  2
AcDbPolyline
  3
"AutoCAD"
 90
        0
280
     0
281
     1
  0
CLASS
  1
HATCH
  2
AcDbHatch
  3
"ACAD_SEDONA"
 90
        0
280
     0
281
     1
  0
CLASS
  1
XRECORD
  2
AcDbXrecord
  3
"<Built In>"
 90
        0
280
     0
281
     0
  0
CLASS
  1
LONG_TRANSACTION
  2
AcDbLongTransaction
  3
AutoCAD 2000
 90
        0
280
     0
281
     0
  0
CLASS
  1
LWPOLYLINE
  2
AcDbPolyline
  3
"AutoCAD"
 90
        0
280
     0
281
     1
  0
CLASS
  1
HATCH
  2
AcDbHatch
  3
"ACAD_SEDONA"
 90
        0
280
     0
281
     1
  0
CLASS
  1
XRECORD
  2
AcDbXrecord
  3
"<Built In>"
 90
        0
280
     0
281
     0
  0
CLASS
  1
LONG_TRANSACTION
  2
AcDbLongTransaction
  3
AutoCAD 2000
 90
        0
280
     0
281
     0
  0
CLASS
  1
LWPOLYLINE
  2
AcDbPolyline
  3
"AutoCAD"
 90
        0
280
     0
281
     1
  0
CLASS
  1
HATCH
  2
AcDbHatch
  3
"ACAD_SEDONA"
 90
        0
280
     0
281
     1
  0
CLASS
  1
XRECORD
  2
AcDbXrecord
  3
"<Built In>"
 90
        0
280
     0
281
     0
  0
CLASS
  1
LONG_TRANSACTION
  2
AcDbLongTransaction
  3
AutoCAD 2000
 90
        0
280
     0
281
     0
  0
CLASS
  1
LWPOLYLINE
  2
AcDbPolyline
  3
"AutoCAD"
 90
        0
280
     0
281
     1
  0
CLASS
  1
HATCH
  2
AcDbHatch
  3
"ACAD_SEDONA"
 90
        0
280
     0
281
     1
  0
CLASS
  1
XRECORD
  2
AcDbXrecord
  3
"<Built In>"
 90
        0
280
     0
281
     0
  0
CLASS
  1
LONG_TRANSACTION
  2
AcDbLongTransaction
  3
AutoCAD 2000
 90
        0
280
     0
281
     0
  0
CLASS
  1
LWPOLYLINE
  2
AcDbPolyline
  3
"AutoCAD"
 90
        0
280
     0
281
     1
  0
CLASS
  1
HATCH
  2
AcDbHatch
  3
"ACAD_SEDONA"
 90
        0
280
     0
281
     1
  0
CLASS
  1
XRECORD
  2
AcDbXrecord
  3
"<Built In>"
 90
        0
280
     0
281
     0
  0
CLASS
  1
LONG_TRANSACTION
  2
AcDbLongTransaction
  3
AutoCAD 2000
 90
        0
280
     0
281
     0
  0
CLASS
  1
LWPOLYLINE
  2
AcDbPolyline
  3
"AutoCAD"
 90
        0
280
     0
281
     1
  0
CLASS
  1
HATCH
  2
AcDbHatch
  3
"ACAD_SEDONA"
 90
        0
280
     0
281
     1
  0
CLASS
  1
XRECORD
  2
AcDbXrecord
  3
"<Built In>"
 90
        0
280
     0
281
     0
  0
CLASS
  1
LONG_TRANSACTION
  2
AcDbLongTransaction
  3
AutoCAD 2000
 90
        0
280
     0
281
     0
  0
CLASS
  1
LWPOLYLINE
  2
AcDbPolyline
  3
"AutoCAD"
 90
        0
280
     0
281
     1
  0
CLASS
  1
HATCH
  2
AcDbHatch
  3
"ACAD_SEDONA"
 90
        0
280
     0
281
     1
  0
CLASS
  1
XRECORD
  2
AcDbXrecord
  3
"<Built In>"
 90
        0
280
     0
281
     0
  0
CLASS
  1
LONG_TRANSACTION
  2
AcDbLongTransaction
  3
AutoCAD 2000
 90
        0
280
     0
281
     0
  0
CLASS
  1
LWPOLYLINE
  2
AcDbPolyline
  3
"AutoCAD"
 90
        0
280
     0
281
     1
  0
CLASS
  1
HATCH
  2
AcDbHatch
  3
"ACAD_SEDONA"
 90
        0
280
     0
281
     1
  0
CLASS
  1
XRECORD
  2
AcDbXrecord
  3
"<Built In>"
 90
        0
280
     0
281
     0
  0
CLASS
  1
LONG_TRANSACTION
  2
AcDbLongTransaction
  3
AutoCAD 2000
 90
        0
280
     0
281
     0
  0
CLASS
  1
LWPOLYLINE
  2
AcDbPolyline
  3
"AutoCAD"
 90
        0
280
     0
281
     1
  0
CLASS
  1
HATCH
  2
AcDbHatch
  3
"ACAD_SEDONA"
 90
        0
280
     0
281
     1
  0
CLASS
  1
XRECORD
  2
AcDbXrecord
  3
"<Built In>"
 90
        0
280
     0
281
     0
  0
CLASS
  1
LONG_TRANSACTION
  2
AcDbLongTransaction
  3
AutoCAD 2000
 90
        0
280
     0
281
     0
  0
CLASS
  1
LWPOLYLINE
  2
AcDbPolyline
  3
"AutoCAD"
 90
        0
280
     0
281
     1
  0
CLASS
  1
HATCH
  2
AcDbHatch
  3
"ACAD_SEDONA"
 90
        0
280
     0
281
     1
  0
CLASS
  1
XRECORD
  2
AcDbXrecord
  3
"<Built In>"
 90
        0
280
     0
281
     0
  0
ENDSEC
  0
SECTION
  2
TABLES
  0
TABLE
  2
VPORT
  5
458C7
100
AcDbSymbolTable
 70
     1
  0
VPORT
  5
AA672
102
{ACAD_XDICTIONARY
360
AA675
102
}
100
AcDbSymbolTableRecord
100
AcDbViewportTableRecord
  2
*ACTIVE
 70
     0
 10
0.0
 20
0.0
 11
1.0
 21
1.0
 12
1.002851
 22
1.135804
 13
0.0
 23
0.0
 14
0.25
 24
0.25
 15
0.25
 25
0.25
 16
0.0
 26
0.0
 36
1.0
 17
-1.002245
 27
-0.908856
 37
0.745855
 40
2.272651
 41
1.829897
 42
50.0
 43
0.0
 44
0.0
 50
0.0
 51
0.0
 71
     0
 72
 20000
 73
     1
 74
     1
 75
     0
 76
     0
 77
     0
 78
     0
  0
ENDTAB
  0
TABLE
  2
LTYPE
  5
458C4
100
AcDbSymbolTable
 70
     1
  0
LTYPE
  5
458D0
100
AcDbSymbolTableRecord
100
AcDbLinetypeTableRecord
  2
BYBLOCK
 70
     0
  3

 72
    65
 73
     0
 40
0.0
  0
LTYPE
  5
458D1
100
AcDbSymbolTableRecord
100
AcDbLinetypeTableRecord
  2
BYLAYER
 70
     0
  3

 72
    65
 73
     0
 40
0.0
  0
LTYPE
  5
458D2
100
AcDbSymbolTableRecord
100
AcDbLinetypeTableRecord
  2
CONTINUOUS
 70
     0
  3
Solid line
 72
    65
 73
     0
 40
0.0
  0
ENDTAB
  0
TABLE
  2
LAYER
  5
458C1
100
AcDbSymbolTable
 70
     7
  0
LAYER
  5
458CD
100
AcDbSymbolTableRecord
100
AcDbLayerTableRecord
  2
0
 70
     0
 62
     7
  6
CONTINUOUS
  0
LAYER
  5
458EA
100
AcDbSymbolTableRecord
100
AcDbLayerTableRecord
  2
DIMS-MTG-HOLES
 70
     0
 62
     1
  6
CONTINUOUS
  0
LAYER
  5
458EB
100
AcDbSymbolTableRecord
100
AcDbLayerTableRecord
  2
ATTRIBUTES
 70
     0
 62
     7
  6
CONTINUOUS
  0
LAYER
  5
4593B
102
{ACAD_XDICTIONARY
360
AA69E
102
}
100
AcDbSymbolTableRecord
100
AcDbLayerTableRecord
  2
AREA1
 70
     0
 62
    -7
  6
CONTINUOUS
  0
LAYER
  5
45940
102
{ACAD_XDICTIONARY
360
AA673
102
}
100
AcDbSymbolTableRecord
100
AcDbLayerTableRecord
  2
DEFPOINTS
 70
     0
 62
    -7
  6
CONTINUOUS
  0
LAYER
  5
45954
100
AcDbSymbolTableRecord
100
AcDbLayerTableRecord
  2
SCALE
 70
     0
 62
    -7
  6
CONTINUOUS
  0
LAYER
  5
4D59A
100
AcDbSymbolTableRecord
100
AcDbLayerTableRecord
  2
SNAP_POINTS
 70
     0
 62
    -1
  6
CONTINUOUS
  0
ENDTAB
  0
TABLE
  2
STYLE
  5
458C2
100
AcDbSymbolTable
 70
     1
  0
STYLE
  5
458CE
100
AcDbSymbolTableRecord
100
AcDbTextStyleTableRecord
  2
STANDARD
 70
     0
 40
0.0
 41
1.0
 50
0.0
 71
     0
 42
0.12
  3
txt
  4

  0
ENDTAB
  0
TABLE
  2
VIEW
  5
458C5
100
AcDbSymbolTable
 70
     0
  0
ENDTAB
  0
TABLE
  2
UCS
  5
458C6
100
AcDbSymbolTable
 70
     0
  0
ENDTAB
  0
TABLE
  2
APPID
  5
458C8
100
AcDbSymbolTable
 70
     2
  0
APPID
  5
458CF
100
AcDbSymbolTableRecord
100
AcDbRegAppTableRecord
  2
ACAD
 70
     0
  0
APPID
  5
5FD5B
100
AcDbSymbolTableRecord
100
AcDbRegAppTableRecord
  2
AVE_RENDER
 70
     0
  0
ENDTAB
  0
TABLE
  2
DIMSTYLE
  5
458C9
100
AcDbSymbolTable
 70
     1
  0
DIMSTYLE
105
458F6
102
{ACAD_XDICTIONARY
360
AA69A
102
}
102
{ACAD_REACTORS
330
AA595
330
AA5A3
102
}
100
AcDbSymbolTableRecord
100
AcDbDimStyleTableRecord
  2
ABECAD_3D
 70
     0
  3

  4

  5

  6

  7

 40
1.0
 41
0.1
 42
0.1
 43
0.375
 44
0.1
 45
0.0
 46
0.0
 47
0.0
 48
0.0
140
0.1
141
0.09
142
0.0
143
25.4
144
1.0
145
0.0
146
1.5
147
0.09
 71
     0
 72
     0
 73
     0
 74
     1
 75
     0
 76
     0
 77
     0
 78
     4
170
     1
171
     2
172
     0
173
     0
174
     0
175
     0
176
     0
177
     0
178
     0
270
     7
271
     6
272
     6
273
     2
274
     2
340
458CE
275
     0
280
     0
281
     0
282
     0
283
     1
284
     4
285
     4
286
     4
287
     5
288
     1
  0
ENDTAB
  0
TABLE
  2
BLOCK_RECORD
  5
458C0
100
AcDbSymbolTable
 70
     2
  0
BLOCK_RECORD
  5
458D6
102
{ACAD_XDICTIONARY
360
4592C
102
}
100
AcDbSymbolTableRecord
100
AcDbBlockTableRecord
  2
*MODEL_SPACE
  0
BLOCK_RECORD
  5
458D3
102
{ACAD_XDICTIONARY
360
4592A
102
}
100
AcDbSymbolTableRecord
100
AcDbBlockTableRecord
  2
*PAPER_SPACE
  0
BLOCK_RECORD
  5
AA596
100
AcDbSymbolTableRecord
100
AcDbBlockTableRecord
  2
*D0
  0
BLOCK_RECORD
  5
AA5A4
100
AcDbSymbolTableRecord
100
AcDbBlockTableRecord
  2
*D1
  0
ENDTAB
  0
ENDSEC
  0
SECTION
  2
BLOCKS
  0
BLOCK
  5
458DF
100
AcDbEntity
  8
0
100
AcDbBlockBegin
  2
*MODEL_SPACE
 70
     0
 10
0.0
 20
0.0
 30
0.0
  3
*MODEL_SPACE
  1

  0
ENDBLK
  5
458E0
100
AcDbEntity
  8
0
100
AcDbBlockEnd
  0
BLOCK
  5
458DD
100
AcDbEntity
 67
     1
  8
0
100
AcDbBlockBegin
  2
*PAPER_SPACE
 70
     0
 10
0.0
 20
0.0
 30
0.0
  3
*PAPER_SPACE
  1

  0
ENDBLK
  5
458DE
100
AcDbEntity
 67
     1
  8
0
100
AcDbBlockEnd
  0
BLOCK
  5
AA5A1
100
AcDbEntity
  8
0
100
AcDbBlockBegin
  2
*D0
 70
     1
 10
0.0
 20
0.0
 30
0.0
  3
*D0
  1

  0
LINE
  5
AA597
100
AcDbEntity
  8
AREA1
 62
     0
100
AcDbLine
 10
-1.063
 20
-0.8975
 30
0.0
 11
-1.391555
 21
-0.8975
 31
0.0
1001
ACAD
1000
RTLwPs
1070
   158
  0
LINE
  5
AA598
100
AcDbEntity
  8
AREA1
 62
     0
100
AcDbLine
 10
-1.063
 20
0.8975
 30
0.0
 11
-1.391555
 21
0.8975
 31
0.0
1001
ACAD
1000
RTLwPs
1070
   158
  0
LINE
  5
AA599
100
AcDbEntity
  8
AREA1
 62
     0
100
AcDbLine
 10
-1.291555
 20
-0.7975
 30
0.0
 11
-1.291555
 21
-0.731375
 31
0.0
1001
ACAD
1000
RTLwPs
1070
   158
  0
LINE
  5
AA59A
100
AcDbEntity
  8
AREA1
 62
     0
100
AcDbLine
 10
-1.291555
 20
0.7975
 30
0.0
 11
-1.291555
 21
0.715292
 31
0.0
1001
ACAD
1000
RTLwPs
1070
   158
  0
MTEXT
  5
AA59B
100
AcDbEntity
  8
AREA1
 62
     0
100
AcDbMText
 10
-1.291555
 20
-0.008042
 30
0.0
 40
0.1
 41
0.0
 71
     5
 72
     1
  1
\A1;1 51/64 [45.59]
 11
0.0
 21
1.0
 31
0.0
1001
ACAD
1000
MTEXTBEGIN
1070
    73
1070
     1
1070
    44
1040
1.0
1070
    74
1070
     0
1000
MTEXTEND
1000
MTEXTBEGIN
1070
    73
1070
     1
1070
    44
1040
1.0
1070
    74
1070
     0
1000
MTEXTEND
1000
MTEXTBEGIN
1070
    73
1070
     1
1070
    44
1040
1.0
1070
    74
1070
     0
1000
MTEXTEND
1000
MTEXTBEGIN
1070
    73
1070
     1
1070
    44
1040
1.0
1070
    74
1070
     0
1000
MTEXTEND
  0
SOLID
  5
AA59C
100
AcDbEntity
  8
AREA1
 62
     0
100
AcDbTrace
 10
-1.308222
 20
-0.7975
 30
0.0
 11
-1.274889
 21
-0.7975
 31
0.0
 12
-1.291555
 22
-0.8975
 32
0.0
 13
-1.291555
 23
-0.8975
 33
0.0
  0
SOLID
  5
AA59D
100
AcDbEntity
  8
AREA1
 62
     0
100
AcDbTrace
 10
-1.308222
 20
0.7975
 30
0.0
 11
-1.274889
 21
0.7975
 31
0.0
 12
-1.291555
 22
0.8975
 32
0.0
 13
-1.291555
 23
0.8975
 33
0.0
  0
POINT
  5
AA59E
100
AcDbEntity
  8
DEFPOINTS
 62
     0
100
AcDbPoint
 10
-0.963
 20
-0.8975
 30
-0.18
  0
POINT
  5
AA59F
100
AcDbEntity
  8
DEFPOINTS
 62
     0
100
AcDbPoint
 10
-0.963
 20
0.8975
 30
-0.18
  0
POINT
  5
AA5A0
100
AcDbEntity
  8
DEFPOINTS
 62
     0
100
AcDbPoint
 10
-1.291555
 20
0.8975
 30
0.0
  0
ENDBLK
  5
AA5A2
100
AcDbEntity
  8
0
100
AcDbBlockEnd
  0
BLOCK
  5
AA5AE
100
AcDbEntity
  8
0
100
AcDbBlockBegin
  2
*D1
 70
     1
 10
0.0
 20
0.0
 30
0.0
  3
*D1
  1

  0
LINE
  5
AA5B0
100
AcDbEntity
  8
AREA1
 62
     0
100
AcDbLine
 10
-0.963
 20
0.9975
 30
0.0
 11
-0.963
 21
1.224206
 31
0.0
1001
ACAD
1000
RTLwPs
1070
   158
  0
LINE
  5
AA5B1
100
AcDbEntity
  8
AREA1
 62
     0
100
AcDbLine
 10
0.106
 20
0.9145
 30
0.0
 11
0.106
 21
1.224206
 31
0.0
1001
ACAD
1000
RTLwPs
1070
   158
  0
LINE
  5
AA5B2
100
AcDbEntity
  8
AREA1
 62
     0
100
AcDbLine
 10
-0.863
 20
1.124206
 30
0.0
 11
0.006
 21
1.124206
 31
0.0
1001
ACAD
1000
RTLwPs
1070
   158
  0
MTEXT
  5
AA5B3
100
AcDbEntity
  8
AREA1
 62
     0
100
AcDbMText
 10
-0.429004
 20
1.301648
 30
0.0
 40
0.1
 41
0.0
 71
     5
 72
     1
  1
\A1;1 1/16 [27.15]
1001
ACAD
1000
MTEXTBEGIN
1070
    73
1070
     1
1070
    44
1040
1.0
1070
    74
1070
     0
1000
MTEXTEND
1000
MTEXTBEGIN
1070
    73
1070
     1
1070
    44
1040
1.0
1070
    74
1070
     0
1000
MTEXTEND
1000
MTEXTBEGIN
1070
    73
1070
     1
1070
    44
1040
1.0
1070
    74
1070
     0
1000
MTEXTEND
1000
MTEXTBEGIN
1070
    73
1070
     1
1070
    44
1040
1.0
1070
    74
1070
     0
1000
MTEXTEND
  0
SOLID
  5
AA5B4
100
AcDbEntity
  8
AREA1
 62
     0
100
AcDbTrace
 10
-0.863
 20
1.140873
 30
0.0
 11
-0.863
 21
1.107539
 31
0.0
 12
-0.963
 22
1.124206
 32
0.0
 13
-0.963
 23
1.124206
 33
0.0
  0
SOLID
  5
AA5B5
100
AcDbEntity
  8
AREA1
 62
     0
100
AcDbTrace
 10
0.006
 20
1.140873
 30
0.0
 11
0.006
 21
1.107539
 31
0.0
 12
0.106
 22
1.124206
 32
0.0
 13
0.106
 23
1.124206
 33
0.0
  0
POINT
  5
AA5B6
100
AcDbEntity
  8
DEFPOINTS
 62
     0
100
AcDbPoint
 10
-0.963
 20
0.8975
 30
-0.18
  0
POINT
  5
AA5B7
100
AcDbEntity
  8
DEFPOINTS
 62
     0
100
AcDbPoint
 10
0.106
 20
0.8145
 30
0.0
  0
POINT
  5
AA5B8
100
AcDbEntity
  8
DEFPOINTS
 62
     0
100
AcDbPoint
 10
0.106
 20
1.124206
 30
0.0
  0
ENDBLK
  5
AA5AF
100
AcDbEntity
  8
0
100
AcDbBlockEnd
  0
ENDSEC
  0
SECTION
  2
ENTITIES
  0
POINT
  5
AA3FB
100
AcDbEntity
  8
SNAP_POINTS
100
AcDbPoint
 10
0.0
 20
0.0
 30
0.0
  0
POLYLINE
  5
AA3FC
100
AcDbEntity
  8
0
100
AcDbPolygonMesh
 66
     1
 10
0.0
 20
0.0
 30
0.0
 70
    16
 71
     6
 72
     3
  0
VERTEX
  5
AA3FD
100
AcDbEntity
  8
0
100
AcDbVertex
100
AcDbPolygonMeshVertex
 10
-0.468
 20
0.8145
 30
-1.57
 70
    64
  0
VERTEX
  5
AA3FE
100
AcDbEntity
  8
0
100
AcDbVertex
100
AcDbPolygonMeshVertex
 10
-0.468
 20
0.8145
 30
0.0
 70
    64
  0
VERTEX
  5
AA3FF
100
AcDbEntity
  8
0
100
AcDbVertex
100
AcDbPolygonMeshVertex
 10
-0.468
 20
0.8145
 30
0.0
 70
    64
  0
VERTEX
  5
AA400
100
AcDbEntity
  8
0
100
AcDbVertex
100
AcDbPolygonMeshVertex
 10
-0.468
 20
-0.8145
 30
-1.57
 70
    64
  0
VERTEX
  5
AA401
100
AcDbEntity
  8
0
100
AcDbVertex
100
AcDbPolygonMeshVertex
 10
-0.468
 20
-0.8145
 30
0.0
 70
    64
  0
VERTEX
  5
AA402
100
AcDbEntity
  8
0
100
AcDbVertex
100
AcDbPolygonMeshVertex
 10
-0.468
 20
-0.8145
 30
0.0
 70
    64
  0
VERTEX
  5
AA403
100
AcDbEntity
  8
0
100
AcDbVertex
100
AcDbPolygonMeshVertex
 10
-0.126
 20
-0.8145
 30
-1.57
 70
    64
  0
VERTEX
  5
AA404
100
AcDbEntity
  8
0
100
AcDbVertex
100
AcDbPolygonMeshVertex
 10
-0.126
 20
-0.8145
 30
0.0
 70
    64
  0
VERTEX
  5
AA405
100
AcDbEntity
  8
0
100
AcDbVertex
100
AcDbPolygonMeshVertex
 10
-0.468
 20
-0.8145
 30
0.0
 70
    64
  0
VERTEX
  5
AA406
100
AcDbEntity
  8
0
100
AcDbVertex
100
AcDbPolygonMeshVertex
 10
-0.126
 20
0.8145
 30
-1.57
 70
    64
  0
VERTEX
  5
AA407
100
AcDbEntity
  8
0
100
AcDbVertex
100
AcDbPolygonMeshVertex
 10
-0.126
 20
0.8145
 30
0.0
 70
    64
  0
VERTEX
  5
AA408
100
AcDbEntity
  8
0
100
AcDbVertex
100
AcDbPolygonMeshVertex
 10
-0.468
 20
0.8145
 30
0.0
 70
    64
  0
VERTEX
  5
AA409
100
AcDbEntity
  8
0
100
AcDbVertex
100
AcDbPolygonMeshVertex
 10
-0.126
 20
0.8145
 30
-1.57
 70
    64
  0
VERTEX
  5
AA40A
100
AcDbEntity
  8
0
100
AcDbVertex
100
AcDbPolygonMeshVertex
 10
-0.126
 20
0.8145
 30
-1.57
 70
    64
  0
VERTEX
  5
AA40B
100
AcDbEntity
  8
0
100
AcDbVertex
100
AcDbPolygonMeshVertex
 10
-0.468
 20
0.8145
 30
-1.57
 70
    64
  0
VERTEX
  5
AA40C
100
AcDbEntity
  8
0
100
AcDbVertex
100
AcDbPolygonMeshVertex
 10
-0.126
 20
-0.8145
 30
-1.57
 70
    64
  0
VERTEX
  5
AA40D
100
AcDbEntity
  8
0
100
AcDbVertex
100
AcDbPolygonMeshVertex
 10
-0.126
 20
-0.8145
 30
-1.57
 70
    64
  0
VERTEX
  5
AA40E
100
AcDbEntity
  8
0
100
AcDbVertex
100
AcDbPolygonMeshVertex
 10
-0.468
 20
-0.8145
 30
-1.57
 70
    64
  0
SEQEND
  5
AA40F
100
AcDbEntity
  8
0
  0
POLYLINE
  5
AA410
100
AcDbEntity
  8
0
100
AcDbPolygonMesh
 66
     1
 10
0.0
 20
0.0
 30
0.0
 70
    16
 71
     6
 72
     3
  0
VERTEX
  5
AA411
100
AcDbEntity
  8
0
100
AcDbVertex
100
AcDbPolygonMeshVertex
 10
-0.963
 20
-0.3555
 30
-1.57
 70
    64
  0
VERTEX
  5
AA412
100
AcDbEntity
  8
0
100
AcDbVertex
100
AcDbPolygonMeshVertex
 10
-0.963
 20
-0.3555
 30
-1.024
 70
    64
  0
VERTEX
  5
AA413
100
AcDbEntity
  8
0
100
AcDbVertex
100
AcDbPolygonMeshVertex
 10
-0.963
 20
-0.3555
 30
-1.024
 70
    64
  0
VERTEX
  5
AA414
100
AcDbEntity
  8
0
100
AcDbVertex
100
AcDbPolygonMeshVertex
 10
-0.963
 20
-0.8975
 30
-1.57
 70
    64
  0
VERTEX
  5
AA415
100
AcDbEntity
  8
0
100
AcDbVertex
100
AcDbPolygonMeshVertex
 10
-0.963
 20
-0.8975
 30
-1.024
 70
    64
  0
VERTEX
  5
AA416
100
AcDbEntity
  8
0
100
AcDbVertex
100
AcDbPolygonMeshVertex
 10
-0.963
 20
-0.8975
 30
-1.024
 70
    64
  0
VERTEX
  5
AA417
100
AcDbEntity
  8
0
100
AcDbVertex
100
AcDbPolygonMeshVertex
 10
-0.468
 20
-0.8975
 30
-1.57
 70
    64
  0
VERTEX
  5
AA418
100
AcDbEntity
  8
0
100
AcDbVertex
100
AcDbPolygonMeshVertex
 10
-0.468
 20
-0.8975
 30
-1.024
 70
    64
  0
VERTEX
  5
AA419
100
AcDbEntity
  8
0
100
AcDbVertex
100
AcDbPolygonMeshVertex
 10
-0.963
 20
-0.8975
 30
-1.024
 70
    64
  0
VERTEX
  5
AA41A
100
AcDbEntity
  8
0
100
AcDbVertex
100
AcDbPolygonMeshVertex
 10
-0.468
 20
-0.3555
 30
-1.57
 70
    64
  0
VERTEX
  5
AA41B
100
AcDbEntity
  8
0
100
AcDbVertex
100
AcDbPolygonMeshVertex
 10
-0.468
 20
-0.3555
 30
-1.024
 70
    64
  0
VERTEX
  5
AA41C
100
AcDbEntity
  8
0
100
AcDbVertex
100
AcDbPolygonMeshVertex
 10
-0.963
 20
-0.3555
 30
-1.024
 70
    64
  0
VERTEX
  5
AA41D
100
AcDbEntity
  8
0
100
AcDbVertex
100
AcDbPolygonMeshVertex
 10
-0.468
 20
-0.3555
 30
-1.57
 70
    64
  0
VERTEX
  5
AA41E
100
AcDbEntity
  8
0
100
AcDbVertex
100
AcDbPolygonMeshVertex
 10
-0.468
 20
-0.3555
 30
-1.57
 70
    64
  0
VERTEX
  5
AA41F
100
AcDbEntity
  8
0
100
AcDbVertex
100
AcDbPolygonMeshVertex
 10
-0.963
 20
-0.3555
 30
-1.57
 70
    64
  0
VERTEX
  5
AA420
100
AcDbEntity
  8
0
100
AcDbVertex
100
AcDbPolygonMeshVertex
 10
-0.468
 20
-0.8975
 30
-1.57
 70
    64
  0
VERTEX
  5
AA421
100
AcDbEntity
  8
0
100
AcDbVertex
100
AcDbPolygonMeshVertex
 10
-0.468
 20
-0.8975
 30
-1.57
 70
    64
  0
VERTEX
  5
AA422
100
AcDbEntity
  8
0
100
AcDbVertex
100
AcDbPolygonMeshVertex
 10
-0.963
 20
-0.8975
 30
-1.57
 70
    64
  0
SEQEND
  5
AA423
100
AcDbEntity
  8
0
  0
POLYLINE
  5
AA424
100
AcDbEntity
  8
0
100
AcDbPolygonMesh
 66
     1
 10
0.0
 20
0.0
 30
0.0
 70
    16
 71
     6
 72
     3
  0
VERTEX
  5
AA425
100
AcDbEntity
  8
0
100
AcDbVertex
100
AcDbPolygonMeshVertex
 10
-0.963
 20
0.8975
 30
-1.57
 70
    64
  0
VERTEX
  5
AA426
100
AcDbEntity
  8
0
100
AcDbVertex
100
AcDbPolygonMeshVertex
 10
-0.963
 20
0.8975
 30
-1.024
 70
    64
  0
VERTEX
  5
AA427
100
AcDbEntity
  8
0
100
AcDbVertex
100
AcDbPolygonMeshVertex
 10
-0.963
 20
0.8975
 30
-1.024
 70
    64
  0
VERTEX
  5
AA428
100
AcDbEntity
  8
0
100
AcDbVertex
100
AcDbPolygonMeshVertex
 10
-0.963
 20
0.3555
 30
-1.57
 70
    64
  0
VERTEX
  5
AA429
100
AcDbEntity
  8
0
100
AcDbVertex
100
AcDbPolygonMeshVertex
 10
-0.963
 20
0.3555
 30
-1.024
 70
    64
  0
VERTEX
  5
AA42A
100
AcDbEntity
  8
0
100
AcDbVertex
100
AcDbPolygonMeshVertex
 10
-0.963
 20
0.3555
 30
-1.024
 70
    64
  0
VERTEX
  5
AA42B
100
AcDbEntity
  8
0
100
AcDbVertex
100
AcDbPolygonMeshVertex
 10
-0.468
 20
0.3555
 30
-1.57
 70
    64
  0
VERTEX
  5
AA42C
100
AcDbEntity
  8
0
100
AcDbVertex
100
AcDbPolygonMeshVertex
 10
-0.468
 20
0.3555
 30
-1.024
 70
    64
  0
VERTEX
  5
AA42D
100
AcDbEntity
  8
0
100
AcDbVertex
100
AcDbPolygonMeshVertex
 10
-0.963
 20
0.3555
 30
-1.024
 70
    64
  0
VERTEX
  5
AA42E
100
AcDbEntity
  8
0
100
AcDbVertex
100
AcDbPolygonMeshVertex
 10
-0.468
 20
0.8975
 30
-1.57
 70
    64
  0
VERTEX
  5
AA42F
100
AcDbEntity
  8
0
100
AcDbVertex
100
AcDbPolygonMeshVertex
 10
-0.468
 20
0.8975
 30
-1.024
 70
    64
  0
VERTEX
  5
AA430
100
AcDbEntity
  8
0
100
AcDbVertex
100
AcDbPolygonMeshVertex
 10
-0.963
 20
0.8975
 30
-1.024
 70
    64
  0
VERTEX
  5
AA431
100
AcDbEntity
  8
0
100
AcDbVertex
100
AcDbPolygonMeshVertex
 10
-0.468
 20
0.8975
 30
-1.57
 70
    64
  0
VERTEX
  5
AA432
100
AcDbEntity
  8
0
100
AcDbVertex
100
AcDbPolygonMeshVertex
 10
-0.468
 20
0.8975
 30
-1.57
 70
    64
  0
VERTEX
  5
AA433
100
AcDbEntity
  8
0
100
AcDbVertex
100
AcDbPolygonMeshVertex
 10
-0.963
 20
0.8975
 30
-1.57
 70
    64
  0
VERTEX
  5
AA434
100
AcDbEntity
  8
0
100
AcDbVertex
100
AcDbPolygonMeshVertex
 10
-0.468
 20
0.3555
 30
-1.57
 70
    64
  0
VERTEX
  5
AA435
100
AcDbEntity
  8
0
100
AcDbVertex
100
AcDbPolygonMeshVertex
 10
-0.468
 20
0.3555
 30
-1.57
 70
    64
  0
VERTEX
  5
AA436
100
AcDbEntity
  8
0
100
AcDbVertex
100
AcDbPolygonMeshVertex
 10
-0.963
 20
0.3555
 30
-1.57
 70
    64
  0
SEQEND
  5
AA437
100
AcDbEntity
  8
0
  0
POLYLINE
  5
AA438
100
AcDbEntity
  8
0
100
AcDbPolygonMesh
 66
     1
 10
0.0
 20
0.0
 30
0.0
 70
    16
 71
     6
 72
     3
  0
VERTEX
  5
AA439
100
AcDbEntity
  8
0
100
AcDbVertex
100
AcDbPolygonMeshVertex
 10
-0.468
 20
0.8975
 30
-0.18
 70
    64
  0
VERTEX
  5
AA43A
100
AcDbEntity
  8
0
100
AcDbVertex
100
AcDbPolygonMeshVertex
 10
-0.468
 20
0.8975
 30
-0.18
 70
    64
  0
VERTEX
  5
AA43B
100
AcDbEntity
  8
0
100
AcDbVertex
100
AcDbPolygonMeshVertex
 10
-0.468
 20
0.8975
 30
-0.18
 70
    64
  0
VERTEX
  5
AA43C
100
AcDbEntity
  8
0
100
AcDbVertex
100
AcDbPolygonMeshVertex
 10
-0.468
 20
0.3555
 30
-1.024
 70
    64
  0
VERTEX
  5
AA43D
100
AcDbEntity
  8
0
100
AcDbVertex
100
AcDbPolygonMeshVertex
 10
-0.468
 20
0.8975
 30
-1.024
 70
    64
  0
VERTEX
  5
AA43E
100
AcDbEntity
  8
0
100
AcDbVertex
100
AcDbPolygonMeshVertex
 10
-0.468
 20
0.8975
 30
-1.024
 70
    64
  0
VERTEX
  5
AA43F
100
AcDbEntity
  8
0
100
AcDbVertex
100
AcDbPolygonMeshVertex
 10
-0.963
 20
0.3555
 30
-1.024
 70
    64
  0
VERTEX
  5
AA440
100
AcDbEntity
  8
0
100
AcDbVertex
100
AcDbPolygonMeshVertex
 10
-0.963
 20
0.8975
 30
-1.024
 70
    64
  0
VERTEX
  5
AA441
100
AcDbEntity
  8
0
100
AcDbVertex
100
AcDbPolygonMeshVertex
 10
-0.468
 20
0.8975
 30
-1.024
 70
    64
  0
VERTEX
  5
AA442
100
AcDbEntity
  8
0
100
AcDbVertex
100
AcDbPolygonMeshVertex
 10
-0.963
 20
0.8975
 30
-0.18
 70
    64
  0
VERTEX
  5
AA443
100
AcDbEntity
  8
0
100
AcDbVertex
100
AcDbPolygonMeshVertex
 10
-0.963
 20
0.8975
 30
-0.18
 70
    64
  0
VERTEX
  5
AA444
100
AcDbEntity
  8
0
100
AcDbVertex
100
AcDbPolygonMeshVertex
 10
-0.468
 20
0.8975
 30
-0.18
 70
    64
  0
VERTEX
  5
AA445
100
AcDbEntity
  8
0
100
AcDbVertex
100
AcDbPolygonMeshVertex
 10
-0.963
 20
0.8975
 30
-0.18
 70
    64
  0
VERTEX
  5
AA446
100
AcDbEntity
  8
0
100
AcDbVertex
100
AcDbPolygonMeshVertex
 10
-0.963
 20
0.8975
 30
-0.18
 70
    64
  0
VERTEX
  5
AA447
100
AcDbEntity
  8
0
100
AcDbVertex
100
AcDbPolygonMeshVertex
 10
-0.468
 20
0.8975
 30
-0.18
 70
    64
  0
VERTEX
  5
AA448
100
AcDbEntity
  8
0
100
AcDbVertex
100
AcDbPolygonMeshVertex
 10
-0.963
 20
0.3555
 30
-1.024
 70
    64
  0
VERTEX
  5
AA449
100
AcDbEntity
  8
0
100
AcDbVertex
100
AcDbPolygonMeshVertex
 10
-0.963
 20
0.3555
 30
-1.024
 70
    64
  0
VERTEX
  5
AA44A
100
AcDbEntity
  8
0
100
AcDbVertex
100
AcDbPolygonMeshVertex
 10
-0.468
 20
0.3555
 30
-1.024
 70
    64
  0
SEQEND
  5
AA44B
100
AcDbEntity
  8
0
  0
POLYLINE
  5
AA44C
100
AcDbEntity
  8
0
100
AcDbPolygonMesh
 66
     1
 10
0.0
 20
0.0
 30
0.0
 70
    16
 71
     6
 72
     3
  0
VERTEX
  5
AA44D
100
AcDbEntity
  8
0
100
AcDbVertex
100
AcDbPolygonMeshVertex
 10
-0.468
 20
-0.8975
 30
-0.18
 70
    64
  0
VERTEX
  5
AA44E
100
AcDbEntity
  8
0
100
AcDbVertex
100
AcDbPolygonMeshVertex
 10
-0.468
 20
-0.8975
 30
-0.18
 70
    64
  0
VERTEX
  5
AA44F
100
AcDbEntity
  8
0
100
AcDbVertex
100
AcDbPolygonMeshVertex
 10
-0.468
 20
-0.8975
 30
-0.18
 70
    64
  0
VERTEX
  5
AA450
100
AcDbEntity
  8
0
100
AcDbVertex
100
AcDbPolygonMeshVertex
 10
-0.468
 20
-0.3555
 30
-1.024
 70
    64
  0
VERTEX
  5
AA451
100
AcDbEntity
  8
0
100
AcDbVertex
100
AcDbPolygonMeshVertex
 10
-0.468
 20
-0.8975
 30
-1.024
 70
    64
  0
VERTEX
  5
AA452
100
AcDbEntity
  8
0
100
AcDbVertex
100
AcDbPolygonMeshVertex
 10
-0.468
 20
-0.8975
 30
-1.024
 70
    64
  0
VERTEX
  5
AA453
100
AcDbEntity
  8
0
100
AcDbVertex
100
AcDbPolygonMeshVertex
 10
-0.963
 20
-0.3555
 30
-1.024
 70
    64
  0
VERTEX
  5
AA454
100
AcDbEntity
  8
0
100
AcDbVertex
100
AcDbPolygonMeshVertex
 10
-0.963
 20
-0.8975
 30
-1.024
 70
    64
  0
VERTEX
  5
AA455
100
AcDbEntity
  8
0
100
AcDbVertex
100
AcDbPolygonMeshVertex
 10
-0.468
 20
-0.8975
 30
-1.024
 70
    64
  0
VERTEX
  5
AA456
100
AcDbEntity
  8
0
100
AcDbVertex
100
AcDbPolygonMeshVertex
 10
-0.963
 20
-0.8975
 30
-0.18
 70
    64
  0
VERTEX
  5
AA457
100
AcDbEntity
  8
0
100
AcDbVertex
100
AcDbPolygonMeshVertex
 10
-0.963
 20
-0.8975
 30
-0.18
 70
    64
  0
VERTEX
  5
AA458
100
AcDbEntity
  8
0
100
AcDbVertex
100
AcDbPolygonMeshVertex
 10
-0.468
 20
-0.8975
 30
-0.18
 70
    64
  0
VERTEX
  5
AA459
100
AcDbEntity
  8
0
100
AcDbVertex
100
AcDbPolygonMeshVertex
 10
-0.963
 20
-0.8975
 30
-0.18
 70
    64
  0
VERTEX
  5
AA45A
100
AcDbEntity
  8
0
100
AcDbVertex
100
AcDbPolygonMeshVertex
 10
-0.963
 20
-0.8975
 30
-0.18
 70
    64
  0
VERTEX
  5
AA45B
100
AcDbEntity
  8
0
100
AcDbVertex
100
AcDbPolygonMeshVertex
 10
-0.468
 20
-0.8975
 30
-0.18
 70
    64
  0
VERTEX
  5
AA45C
100
AcDbEntity
  8
0
100
AcDbVertex
100
AcDbPolygonMeshVertex
 10
-0.963
 20
-0.3555
 30
-1.024
 70
    64
  0
VERTEX
  5
AA45D
100
AcDbEntity
  8
0
100
AcDbVertex
100
AcDbPolygonMeshVertex
 10
-0.963
 20
-0.3555
 30
-1.024
 70
    64
  0
VERTEX
  5
AA45E
100
AcDbEntity
  8
0
100
AcDbVertex
100
AcDbPolygonMeshVertex
 10
-0.468
 20
-0.3555
 30
-1.024
 70
    64
  0
SEQEND
  5
AA45F
100
AcDbEntity
  8
0
  0
POLYLINE
  5
AA460
100
AcDbEntity
  8
0
100
AcDbPolygonMesh
 66
     1
 10
0.0
 20
0.0
 30
0.0
 70
    16
 71
     6
 72
     3
  0
VERTEX
  5
AA461
100
AcDbEntity
  8
0
100
AcDbVertex
100
AcDbPolygonMeshVertex
 10
-0.963
 20
0.462368
 30
-0.857586
 70
    64
  0
VERTEX
  5
AA462
100
AcDbEntity
  8
0
100
AcDbVertex
100
AcDbPolygonMeshVertex
 10
-0.963
 20
0.767668
 30
-0.382174
 70
    64
  0
VERTEX
  5
AA463
100
AcDbEntity
  8
0
100
AcDbVertex
100
AcDbPolygonMeshVertex
 10
-0.963
 20
0.767668
 30
-0.382174
 70
    64
  0
VERTEX
  5
AA464
100
AcDbEntity
  8
0
100
AcDbVertex
100
AcDbPolygonMeshVertex
 10
-0.963
 20
0.147585
 30
-0.655439
 70
    64
  0
VERTEX
  5
AA465
100
AcDbEntity
  8
0
100
AcDbVertex
100
AcDbPolygonMeshVertex
 10
-0.963
 20
0.452885
 30
-0.180027
 70
    64
  0
VERTEX
  5
AA466
100
AcDbEntity
  8
0
100
AcDbVertex
100
AcDbPolygonMeshVertex
 10
-0.963
 20
0.452885
 30
-0.180027
 70
    64
  0
VERTEX
  5
AA467
100
AcDbEntity
  8
0
100
AcDbVertex
100
AcDbPolygonMeshVertex
 10
-0.468
 20
0.147585
 30
-0.655439
 70
    64
  0
VERTEX
  5
AA468
100
AcDbEntity
  8
0
100
AcDbVertex
100
AcDbPolygonMeshVertex
 10
-0.468
 20
0.452885
 30
-0.180027
 70
    64
  0
VERTEX
  5
AA469
100
AcDbEntity
  8
0
100
AcDbVertex
100
AcDbPolygonMeshVertex
 10
-0.963
 20
0.452885
 30
-0.180027
 70
    64
  0
VERTEX
  5
AA46A
100
AcDbEntity
  8
0
100
AcDbVertex
100
AcDbPolygonMeshVertex
 10
-0.468
 20
0.462368
 30
-0.857586
 70
    64
  0
VERTEX
  5
AA46B
100
AcDbEntity
  8
0
100
AcDbVertex
100
AcDbPolygonMeshVertex
 10
-0.468
 20
0.767668
 30
-0.382174
 70
    64
  0
VERTEX
  5
AA46C
100
AcDbEntity
  8
0
100
AcDbVertex
100
AcDbPolygonMeshVertex
 10
-0.963
 20
0.767668
 30
-0.382174
 70
    64
  0
VERTEX
  5
AA46D
100
AcDbEntity
  8
0
100
AcDbVertex
100
AcDbPolygonMeshVertex
 10
-0.468
 20
0.462368
 30
-0.857586
 70
    64
  0
VERTEX
  5
AA46E
100
AcDbEntity
  8
0
100
AcDbVertex
100
AcDbPolygonMeshVertex
 10
-0.468
 20
0.462368
 30
-0.857586
 70
    64
  0
VERTEX
  5
AA46F
100
AcDbEntity
  8
0
100
AcDbVertex
100
AcDbPolygonMeshVertex
 10
-0.963
 20
0.462368
 30
-0.857586
 70
    64
  0
VERTEX
  5
AA470
100
AcDbEntity
  8
0
100
AcDbVertex
100
AcDbPolygonMeshVertex
 10
-0.468
 20
0.147585
 30
-0.655439
 70
    64
  0
VERTEX
  5
AA471
100
AcDbEntity
  8
0
100
AcDbVertex
100
AcDbPolygonMeshVertex
 10
-0.468
 20
0.147585
 30
-0.655439
 70
    64
  0
VERTEX
  5
AA472
100
AcDbEntity
  8
0
100
AcDbVertex
100
AcDbPolygonMeshVertex
 10
-0.963
 20
0.147585
 30
-0.655439
 70
    64
  0
SEQEND
  5
AA473
100
AcDbEntity
  8
0
  0
POLYLINE
  5
AA474
100
AcDbEntity
  8
0
100
AcDbPolygonMesh
 66
     1
 10
0.0
 20
0.0
 30
0.0
 70
    16
 71
     6
 72
     3
  0
VERTEX
  5
AA475
100
AcDbEntity
  8
0
100
AcDbVertex
100
AcDbPolygonMeshVertex
 10
-0.963
 20
0.452885
 30
-0.180027
 70
    64
  0
VERTEX
  5
AA476
100
AcDbEntity
  8
0
100
AcDbVertex
100
AcDbPolygonMeshVertex
 10
-0.963
 20
0.452885
 30
-0.180027
 70
    64
  0
VERTEX
  5
AA477
100
AcDbEntity
  8
0
100
AcDbVertex
100
AcDbPolygonMeshVertex
 10
-0.963
 20
0.452885
 30
-0.180027
 70
    64
  0
VERTEX
  5
AA478
100
AcDbEntity
  8
0
100
AcDbVertex
100
AcDbPolygonMeshVertex
 10
-0.963
 20
0.8975
 30
-0.18
 70
    64
  0
VERTEX
  5
AA479
100
AcDbEntity
  8
0
100
AcDbVertex
100
AcDbPolygonMeshVertex
 10
-0.963
 20
0.767668
 30
-0.382174
 70
    64
  0
VERTEX
  5
AA47A
100
AcDbEntity
  8
0
100
AcDbVertex
100
AcDbPolygonMeshVertex
 10
-0.963
 20
0.767668
 30
-0.382174
 70
    64
  0
VERTEX
  5
AA47B
100
AcDbEntity
  8
0
100
AcDbVertex
100
AcDbPolygonMeshVertex
 10
-0.468
 20
0.8975
 30
-0.18
 70
    64
  0
VERTEX
  5
AA47C
100
AcDbEntity
  8
0
100
AcDbVertex
100
AcDbPolygonMeshVertex
 10
-0.468
 20
0.767668
 30
-0.382174
 70
    64
  0
VERTEX
  5
AA47D
100
AcDbEntity
  8
0
100
AcDbVertex
100
AcDbPolygonMeshVertex
 10
-0.963
 20
0.767668
 30
-0.382174
 70
    64
  0
VERTEX
  5
AA47E
100
AcDbEntity
  8
0
100
AcDbVertex
100
AcDbPolygonMeshVertex
 10
-0.468
 20
0.452885
 30
-0.180027
 70
    64
  0
VERTEX
  5
AA47F
100
AcDbEntity
  8
0
100
AcDbVertex
100
AcDbPolygonMeshVertex
 10
-0.468
 20
0.452885
 30
-0.180027
 70
    64
  0
VERTEX
  5
AA480
100
AcDbEntity
  8
0
100
AcDbVertex
100
AcDbPolygonMeshVertex
 10
-0.963
 20
0.452885
 30
-0.180027
 70
    64
  0
VERTEX
  5
AA481
100
AcDbEntity
  8
0
100
AcDbVertex
100
AcDbPolygonMeshVertex
 10
-0.468
 20
0.452885
 30
-0.180027
 70
    64
  0
VERTEX
  5
AA482
100
AcDbEntity
  8
0
100
AcDbVertex
100
AcDbPolygonMeshVertex
 10
-0.468
 20
0.452885
 30
-0.180027
 70
    64
  0
VERTEX
  5
AA483
100
AcDbEntity
  8
0
100
AcDbVertex
100
AcDbPolygonMeshVertex
 10
-0.963
 20
0.452885
 30
-0.180027
 70
    64
  0
VERTEX
  5
AA484
100
AcDbEntity
  8
0
100
AcDbVertex
100
AcDbPolygonMeshVertex
 10
-0.468
 20
0.8975
 30
-0.18
 70
    64
  0
VERTEX
  5
AA485
100
AcDbEntity
  8
0
100
AcDbVertex
100
AcDbPolygonMeshVertex
 10
-0.468
 20
0.8975
 30
-0.18
 70
    64
  0
VERTEX
  5
AA486
100
AcDbEntity
  8
0
100
AcDbVertex
100
AcDbPolygonMeshVertex
 10
-0.963
 20
0.8975
 30
-0.18
 70
    64
  0
SEQEND
  5
AA487
100
AcDbEntity
  8
0
  0
POLYLINE
  5
AA488
100
AcDbEntity
  8
0
100
AcDbPolygonMesh
 66
     1
 10
0.0
 20
0.0
 30
0.0
 70
    16
 71
     6
 72
     3
  0
VERTEX
  5
AA489
100
AcDbEntity
  8
0
100
AcDbVertex
100
AcDbPolygonMeshVertex
 10
-0.963
 20
-0.452885
 30
-0.180027
 70
    64
  0
VERTEX
  5
AA48A
100
AcDbEntity
  8
0
100
AcDbVertex
100
AcDbPolygonMeshVertex
 10
-0.963
 20
-0.452885
 30
-0.180027
 70
    64
  0
VERTEX
  5
AA48B
100
AcDbEntity
  8
0
100
AcDbVertex
100
AcDbPolygonMeshVertex
 10
-0.963
 20
-0.452885
 30
-0.180027
 70
    64
  0
VERTEX
  5
AA48C
100
AcDbEntity
  8
0
100
AcDbVertex
100
AcDbPolygonMeshVertex
 10
-0.963
 20
-0.8975
 30
-0.18
 70
    64
  0
VERTEX
  5
AA48D
100
AcDbEntity
  8
0
100
AcDbVertex
100
AcDbPolygonMeshVertex
 10
-0.963
 20
-0.767668
 30
-0.382174
 70
    64
  0
VERTEX
  5
AA48E
100
AcDbEntity
  8
0
100
AcDbVertex
100
AcDbPolygonMeshVertex
 10
-0.963
 20
-0.767668
 30
-0.382174
 70
    64
  0
VERTEX
  5
AA48F
100
AcDbEntity
  8
0
100
AcDbVertex
100
AcDbPolygonMeshVertex
 10
-0.468
 20
-0.8975
 30
-0.18
 70
    64
  0
VERTEX
  5
AA490
100
AcDbEntity
  8
0
100
AcDbVertex
100
AcDbPolygonMeshVertex
 10
-0.468
 20
-0.767668
 30
-0.382174
 70
    64
  0
VERTEX
  5
AA491
100
AcDbEntity
  8
0
100
AcDbVertex
100
AcDbPolygonMeshVertex
 10
-0.963
 20
-0.767668
 30
-0.382174
 70
    64
  0
VERTEX
  5
AA492
100
AcDbEntity
  8
0
100
AcDbVertex
100
AcDbPolygonMeshVertex
 10
-0.468
 20
-0.452885
 30
-0.180027
 70
    64
  0
VERTEX
  5
AA493
100
AcDbEntity
  8
0
100
AcDbVertex
100
AcDbPolygonMeshVertex
 10
-0.468
 20
-0.452885
 30
-0.180027
 70
    64
  0
VERTEX
  5
AA494
100
AcDbEntity
  8
0
100
AcDbVertex
100
AcDbPolygonMeshVertex
 10
-0.963
 20
-0.452885
 30
-0.180027
 70
    64
  0
VERTEX
  5
AA495
100
AcDbEntity
  8
0
100
AcDbVertex
100
AcDbPolygonMeshVertex
 10
-0.468
 20
-0.452885
 30
-0.180027
 70
    64
  0
VERTEX
  5
AA496
100
AcDbEntity
  8
0
100
AcDbVertex
100
AcDbPolygonMeshVertex
 10
-0.468
 20
-0.452885
 30
-0.180027
 70
    64
  0
VERTEX
  5
AA497
100
AcDbEntity
  8
0
100
AcDbVertex
100
AcDbPolygonMeshVertex
 10
-0.963
 20
-0.452885
 30
-0.180027
 70
    64
  0
VERTEX
  5
AA498
100
AcDbEntity
  8
0
100
AcDbVertex
100
AcDbPolygonMeshVertex
 10
-0.468
 20
-0.8975
 30
-0.18
 70
    64
  0
VERTEX
  5
AA499
100
AcDbEntity
  8
0
100
AcDbVertex
100
AcDbPolygonMeshVertex
 10
-0.468
 20
-0.8975
 30
-0.18
 70
    64
  0
VERTEX
  5
AA49A
100
AcDbEntity
  8
0
100
AcDbVertex
100
AcDbPolygonMeshVertex
 10
-0.963
 20
-0.8975
 30
-0.18
 70
    64
  0
SEQEND
  5
AA49B
100
AcDbEntity
  8
0
  0
POLYLINE
  5
AA49C
100
AcDbEntity
  8
0
100
AcDbPolygonMesh
 66
     1
 10
0.0
 20
0.0
 30
0.0
 70
    16
 71
     6
 72
     3
  0
VERTEX
  5
AA49D
100
AcDbEntity
  8
0
100
AcDbVertex
100
AcDbPolygonMeshVertex
 10
-0.963
 20
-0.462368
 30
-0.857586
 70
    64
  0
VERTEX
  5
AA49E
100
AcDbEntity
  8
0
100
AcDbVertex
100
AcDbPolygonMeshVertex
 10
-0.963
 20
-0.767668
 30
-0.382174
 70
    64
  0
VERTEX
  5
AA49F
100
AcDbEntity
  8
0
100
AcDbVertex
100
AcDbPolygonMeshVertex
 10
-0.963
 20
-0.767668
 30
-0.382174
 70
    64
  0
VERTEX
  5
AA4A0
100
AcDbEntity
  8
0
100
AcDbVertex
100
AcDbPolygonMeshVertex
 10
-0.963
 20
-0.147585
 30
-0.655439
 70
    64
  0
VERTEX
  5
AA4A1
100
AcDbEntity
  8
0
100
AcDbVertex
100
AcDbPolygonMeshVertex
 10
-0.963
 20
-0.452885
 30
-0.180027
 70
    64
  0
VERTEX
  5
AA4A2
100
AcDbEntity
  8
0
100
AcDbVertex
100
AcDbPolygonMeshVertex
 10
-0.963
 20
-0.452885
 30
-0.180027
 70
    64
  0
VERTEX
  5
AA4A3
100
AcDbEntity
  8
0
100
AcDbVertex
100
AcDbPolygonMeshVertex
 10
-0.468
 20
-0.147585
 30
-0.655439
 70
    64
  0
VERTEX
  5
AA4A4
100
AcDbEntity
  8
0
100
AcDbVertex
100
AcDbPolygonMeshVertex
 10
-0.468
 20
-0.452885
 30
-0.180027
 70
    64
  0
VERTEX
  5
AA4A5
100
AcDbEntity
  8
0
100
AcDbVertex
100
AcDbPolygonMeshVertex
 10
-0.963
 20
-0.452885
 30
-0.180027
 70
    64
  0
VERTEX
  5
AA4A6
100
AcDbEntity
  8
0
100
AcDbVertex
100
AcDbPolygonMeshVertex
 10
-0.468
 20
-0.462368
 30
-0.857586
 70
    64
  0
VERTEX
  5
AA4A7
100
AcDbEntity
  8
0
100
AcDbVertex
100
AcDbPolygonMeshVertex
 10
-0.468
 20
-0.767668
 30
-0.382174
 70
    64
  0
VERTEX
  5
AA4A8
100
AcDbEntity
  8
0
100
AcDbVertex
100
AcDbPolygonMeshVertex
 10
-0.963
 20
-0.767668
 30
-0.382174
 70
    64
  0
VERTEX
  5
AA4A9
100
AcDbEntity
  8
0
100
AcDbVertex
100
AcDbPolygonMeshVertex
 10
-0.468
 20
-0.462368
 30
-0.857586
 70
    64
  0
VERTEX
  5
AA4AA
100
AcDbEntity
  8
0
100
AcDbVertex
100
AcDbPolygonMeshVertex
 10
-0.468
 20
-0.462368
 30
-0.857586
 70
    64
  0
VERTEX
  5
AA4AB
100
AcDbEntity
  8
0
100
AcDbVertex
100
AcDbPolygonMeshVertex
 10
-0.963
 20
-0.462368
 30
-0.857586
 70
    64
  0
VERTEX
  5
AA4AC
100
AcDbEntity
  8
0
100
AcDbVertex
100
AcDbPolygonMeshVertex
 10
-0.468
 20
-0.147585
 30
-0.655439
 70
    64
  0
VERTEX
  5
AA4AD
100
AcDbEntity
  8
0
100
AcDbVertex
100
AcDbPolygonMeshVertex
 10
-0.468
 20
-0.147585
 30
-0.655439
 70
    64
  0
VERTEX
  5
AA4AE
100
AcDbEntity
  8
0
100
AcDbVertex
100
AcDbPolygonMeshVertex
 10
-0.963
 20
-0.147585
 30
-0.655439
 70
    64
  0
SEQEND
  5
AA4AF
100
AcDbEntity
  8
0
  0
CIRCLE
  5
AA4B0
100
AcDbEntity
  8
0
100
AcDbCircle
 10
-0.7155
 20
-0.723954
 30
0.471763
 40
0.1285
210
-0.0000000000000054
220
-0.5403544246916719
230
-0.8414375174165533
  0
CIRCLE
  5
AA4B1
100
AcDbEntity
  8
0
100
AcDbCircle
 10
0.7155
 20
-0.723954
 30
0.471763
 40
0.1285
210
-0.0000000000000054
220
0.5403544246916719
230
-0.8414375174165533
  0
LINE
  5
AA4B2
100
AcDbEntity
  8
0
100
AcDbLine
 10
-0.7355
 20
0.46105
 30
-0.85674
 11
-0.7355
 21
0.247436
 31
-0.719561
210
-0.0000000000000044
220
-0.5403544246916709
230
-0.841437517416554
  0
LINE
  5
AA4B3
100
AcDbEntity
  8
0
100
AcDbLine
 10
-0.6955
 20
0.46105
 30
-0.85674
 11
-0.6955
 21
0.247436
 31
-0.719561
210
-0.0000000000000044
220
-0.5403544246916709
230
-0.841437517416554
  0
LINE
  5
AA4B4
100
AcDbEntity
  8
0
100
AcDbLine
 10
-0.6955
 20
-0.46105
 30
-0.85674
 11
-0.6955
 21
-0.247436
 31
-0.719561
210
-0.0000000000000044
220
0.5403544246916709
230
-0.841437517416554
  0
LINE
  5
AA4B5
100
AcDbEntity
  8
0
100
AcDbLine
 10
-0.7355
 20
-0.46105
 30
-0.85674
 11
-0.7355
 21
-0.247436
 31
-0.719561
210
-0.0000000000000044
220
0.5403544246916709
230
-0.841437517416554
  0
CIRCLE
  5
AA4B6
100
AcDbEntity
  8
0
100
AcDbCircle
 10
0.7155
 20
0.6265
 30
1.57
 40
0.1285
210
0.0
220
0.0
230
-1.0
  0
LINE
  5
AA4B7
100
AcDbEntity
  8
0
100
AcDbLine
 10
-0.7355
 20
0.753434
 30
-1.57
 11
-0.7355
 21
0.499566
 31
-1.57
210
0.0
220
0.0
230
-1.0
  0
LINE
  5
AA4B8
100
AcDbEntity
  8
0
100
AcDbLine
 10
-0.6955
 20
0.753434
 30
-1.57
 11
-0.6955
 21
0.499566
 31
-1.57
210
0.0
220
0.0
230
-1.0
  0
CIRCLE
  5
AA4B9
100
AcDbEntity
  8
0
100
AcDbCircle
 10
0.7155
 20
-0.6265
 30
1.57
 40
0.1285
210
0.0
220
0.0
230
-1.0
  0
LINE
  5
AA4BA
100
AcDbEntity
  8
0
100
AcDbLine
 10
-0.6955
 20
-0.753434
 30
-1.57
 11
-0.6955
 21
-0.499566
 31
-1.57
210
0.0
220
0.0
230
-1.0
  0
LINE
  5
AA4BB
100
AcDbEntity
  8
0
100
AcDbLine
 10
-0.7355
 20
-0.753434
 30
-1.57
 11
-0.7355
 21
-0.499566
 31
-1.57
210
0.0
220
0.0
230
-1.0
  0
POLYLINE
  5
AA4BC
100
AcDbEntity
  8
0
100
AcDbPolygonMesh
 66
     1
 10
0.0
 20
0.0
 30
0.0
 70
    16
 71
     6
 72
     3
  0
VERTEX
  5
AA4BD
100
AcDbEntity
  8
0
100
AcDbVertex
100
AcDbPolygonMeshVertex
 10
0.0
 20
0.373
 30
-1.03
 70
    64
  0
VERTEX
  5
AA4BE
100
AcDbEntity
  8
0
100
AcDbVertex
100
AcDbPolygonMeshVertex
 10
0.0
 20
0.373
 30
0.0
 70
    64
  0
VERTEX
  5
AA4BF
100
AcDbEntity
  8
0
100
AcDbVertex
100
AcDbPolygonMeshVertex
 10
0.0
 20
0.373
 30
0.0
 70
    64
  0
VERTEX
  5
AA4C0
100
AcDbEntity
  8
0
100
AcDbVertex
100
AcDbPolygonMeshVertex
 10
0.0
 20
0.8145
 30
-1.03
 70
    64
  0
VERTEX
  5
AA4C1
100
AcDbEntity
  8
0
100
AcDbVertex
100
AcDbPolygonMeshVertex
 10
0.0
 20
0.8145
 30
0.0
 70
    64
  0
VERTEX
  5
AA4C2
100
AcDbEntity
  8
0
100
AcDbVertex
100
AcDbPolygonMeshVertex
 10
0.0
 20
0.8145
 30
0.0
 70
    64
  0
VERTEX
  5
AA4C3
100
AcDbEntity
  8
0
100
AcDbVertex
100
AcDbPolygonMeshVertex
 10
-0.126
 20
0.8145
 30
-1.03
 70
    64
  0
VERTEX
  5
AA4C4
100
AcDbEntity
  8
0
100
AcDbVertex
100
AcDbPolygonMeshVertex
 10
-0.126
 20
0.8145
 30
0.0
 70
    64
  0
VERTEX
  5
AA4C5
100
AcDbEntity
  8
0
100
AcDbVertex
100
AcDbPolygonMeshVertex
 10
0.0
 20
0.8145
 30
0.0
 70
    64
  0
VERTEX
  5
AA4C6
100
AcDbEntity
  8
0
100
AcDbVertex
100
AcDbPolygonMeshVertex
 10
-0.126
 20
0.373
 30
-1.03
 70
    64
  0
VERTEX
  5
AA4C7
100
AcDbEntity
  8
0
100
AcDbVertex
100
AcDbPolygonMeshVertex
 10
-0.126
 20
0.373
 30
0.0
 70
    64
  0
VERTEX
  5
AA4C8
100
AcDbEntity
  8
0
100
AcDbVertex
100
AcDbPolygonMeshVertex
 10
0.0
 20
0.373
 30
0.0
 70
    64
  0
VERTEX
  5
AA4C9
100
AcDbEntity
  8
0
100
AcDbVertex
100
AcDbPolygonMeshVertex
 10
-0.126
 20
0.373
 30
-1.03
 70
    64
  0
VERTEX
  5
AA4CA
100
AcDbEntity
  8
0
100
AcDbVertex
100
AcDbPolygonMeshVertex
 10
-0.126
 20
0.373
 30
-1.03
 70
    64
  0
VERTEX
  5
AA4CB
100
AcDbEntity
  8
0
100
AcDbVertex
100
AcDbPolygonMeshVertex
 10
0.0
 20
0.373
 30
-1.03
 70
    64
  0
VERTEX
  5
AA4CC
100
AcDbEntity
  8
0
100
AcDbVertex
100
AcDbPolygonMeshVertex
 10
-0.126
 20
0.8145
 30
-1.03
 70
    64
  0
VERTEX
  5
AA4CD
100
AcDbEntity
  8
0
100
AcDbVertex
100
AcDbPolygonMeshVertex
 10
-0.126
 20
0.8145
 30
-1.03
 70
    64
  0
VERTEX
  5
AA4CE
100
AcDbEntity
  8
0
100
AcDbVertex
100
AcDbPolygonMeshVertex
 10
0.0
 20
0.8145
 30
-1.03
 70
    64
  0
SEQEND
  5
AA4CF
100
AcDbEntity
  8
0
  0
POLYLINE
  5
AA4D0
100
AcDbEntity
  8
0
100
AcDbPolygonMesh
 66
     1
 10
0.0
 20
0.0
 30
0.0
 70
    16
 71
     6
 72
     3
  0
VERTEX
  5
AA4D1
100
AcDbEntity
  8
0
100
AcDbVertex
100
AcDbPolygonMeshVertex
 10
0.0
 20
-0.8145
 30
-1.03
 70
    64
  0
VERTEX
  5
AA4D2
100
AcDbEntity
  8
0
100
AcDbVertex
100
AcDbPolygonMeshVertex
 10
0.0
 20
-0.8145
 30
0.0
 70
    64
  0
VERTEX
  5
AA4D3
100
AcDbEntity
  8
0
100
AcDbVertex
100
AcDbPolygonMeshVertex
 10
0.0
 20
-0.8145
 30
0.0
 70
    64
  0
VERTEX
  5
AA4D4
100
AcDbEntity
  8
0
100
AcDbVertex
100
AcDbPolygonMeshVertex
 10
0.0
 20
-0.373
 30
-1.03
 70
    64
  0
VERTEX
  5
AA4D5
100
AcDbEntity
  8
0
100
AcDbVertex
100
AcDbPolygonMeshVertex
 10
0.0
 20
-0.373
 30
0.0
 70
    64
  0
VERTEX
  5
AA4D6
100
AcDbEntity
  8
0
100
AcDbVertex
100
AcDbPolygonMeshVertex
 10
0.0
 20
-0.373
 30
0.0
 70
    64
  0
VERTEX
  5
AA4D7
100
AcDbEntity
  8
0
100
AcDbVertex
100
AcDbPolygonMeshVertex
 10
-0.126
 20
-0.373
 30
-1.03
 70
    64
  0
VERTEX
  5
AA4D8
100
AcDbEntity
  8
0
100
AcDbVertex
100
AcDbPolygonMeshVertex
 10
-0.126
 20
-0.373
 30
0.0
 70
    64
  0
VERTEX
  5
AA4D9
100
AcDbEntity
  8
0
100
AcDbVertex
100
AcDbPolygonMeshVertex
 10
0.0
 20
-0.373
 30
0.0
 70
    64
  0
VERTEX
  5
AA4DA
100
AcDbEntity
  8
0
100
AcDbVertex
100
AcDbPolygonMeshVertex
 10
-0.126
 20
-0.8145
 30
-1.03
 70
    64
  0
VERTEX
  5
AA4DB
100
AcDbEntity
  8
0
100
AcDbVertex
100
AcDbPolygonMeshVertex
 10
-0.126
 20
-0.8145
 30
0.0
 70
    64
  0
VERTEX
  5
AA4DC
100
AcDbEntity
  8
0
100
AcDbVertex
100
AcDbPolygonMeshVertex
 10
0.0
 20
-0.8145
 30
0.0
 70
    64
  0
VERTEX
  5
AA4DD
100
AcDbEntity
  8
0
100
AcDbVertex
100
AcDbPolygonMeshVertex
 10
-0.126
 20
-0.8145
 30
-1.03
 70
    64
  0
VERTEX
  5
AA4DE
100
AcDbEntity
  8
0
100
AcDbVertex
100
AcDbPolygonMeshVertex
 10
-0.126
 20
-0.8145
 30
-1.03
 70
    64
  0
VERTEX
  5
AA4DF
100
AcDbEntity
  8
0
100
AcDbVertex
100
AcDbPolygonMeshVertex
 10
0.0
 20
-0.8145
 30
-1.03
 70
    64
  0
VERTEX
  5
AA4E0
100
AcDbEntity
  8
0
100
AcDbVertex
100
AcDbPolygonMeshVertex
 10
-0.126
 20
-0.373
 30
-1.03
 70
    64
  0
VERTEX
  5
AA4E1
100
AcDbEntity
  8
0
100
AcDbVertex
100
AcDbPolygonMeshVertex
 10
-0.126
 20
-0.373
 30
-1.03
 70
    64
  0
VERTEX
  5
AA4E2
100
AcDbEntity
  8
0
100
AcDbVertex
100
AcDbPolygonMeshVertex
 10
0.0
 20
-0.373
 30
-1.03
 70
    64
  0
SEQEND
  5
AA4E3
100
AcDbEntity
  8
0
  0
ARC
  5
AA4E4
100
AcDbEntity
  8
0
100
AcDbCircle
 10
-0.003
 20
0.59375
 30
1.57
 40
0.187
210
0.0
220
0.0
230
-1.0
100
AcDbArc
 50
313.617411
 51
46.382589
  0
ARC
  5
AA4E5
100
AcDbEntity
  8
0
100
AcDbCircle
 10
0.0
 20
0.59375
 30
1.03
 40
0.1145
210
0.0
220
0.0
230
-1.0
100
AcDbArc
 50
270.0
 51
90.0
  0
ARC
  5
AA4E6
100
AcDbEntity
  8
0
100
AcDbCircle
 10
0.0
 20
-0.59375
 30
1.03
 40
0.1145
210
0.0
220
0.0
230
-1.0
100
AcDbArc
 50
270.0
 51
90.0
  0
ARC
  5
AA4E7
100
AcDbEntity
  8
0
100
AcDbCircle
 10
-0.003
 20
-0.59375
 30
1.57
 40
0.187
210
0.0
220
0.0
230
-1.0
100
AcDbArc
 50
313.617411
 51
46.382589
  0
LINE
  5
AA4E8
100
AcDbEntity
  8
0
100
AcDbLine
 10
-0.126
 20
-0.729131
 30
-1.57
 11
-0.126
 21
-0.729131
 31
-1.03
210
0.0
220
0.0
230
-1.0
  0
LINE
  5
AA4E9
100
AcDbEntity
  8
0
100
AcDbLine
 10
-0.126
 20
-0.458369
 30
-1.57
 11
-0.126
 21
-0.458369
 31
-1.03
210
0.0
220
0.0
230
-1.0
  0
LINE
  5
AA4EA
100
AcDbEntity
  8
0
100
AcDbLine
 10
-0.126
 20
0.458369
 30
-1.57
 11
-0.126
 21
0.458369
 31
-1.03
210
0.0
220
0.0
230
-1.0
  0
LINE
  5
AA4EB
100
AcDbEntity
  8
0
100
AcDbLine
 10
-0.126
 20
0.729131
 30
-1.57
 11
-0.126
 21
0.729131
 31
-1.03
210
0.0
220
0.0
230
-1.0
  0
LINE
  5
AA4EC
100
AcDbEntity
  8
0
100
AcDbLine
 10
0.0
 20
-0.70825
 30
-1.03
 11
0.0
 21
-0.70825
 31
0.0
210
0.0
220
0.0
230
-1.0
  0
LINE
  5
AA4ED
100
AcDbEntity
  8
0
100
AcDbLine
 10
0.0
 20
-0.47925
 30
-1.03
 11
0.0
 21
-0.47925
 31
0.0
210
0.0
220
0.0
230
-1.0
  0
LINE
  5
AA4EE
100
AcDbEntity
  8
0
100
AcDbLine
 10
0.0
 20
0.47925
 30
-1.03
 11
0.0
 21
0.47925
 31
0.0
210
0.0
220
0.0
230
-1.0
  0
LINE
  5
AA4EF
100
AcDbEntity
  8
0
100
AcDbLine
 10
0.0
 20
0.70825
 30
-1.03
 11
0.0
 21
0.70825
 31
0.0
210
0.0
220
0.0
230
-1.0
  0
POLYLINE
  5
AA4F0
100
AcDbEntity
  8
0
100
AcDbPolygonMesh
 66
     1
 10
0.0
 20
0.0
 30
0.0
 70
    16
 71
     6
 72
     3
  0
VERTEX
  5
AA4F1
100
AcDbEntity
  8
0
100
AcDbVertex
100
AcDbPolygonMeshVertex
 10
0.0
 20
0.8145
 30
-0.275
 70
    64
  0
VERTEX
  5
AA4F2
100
AcDbEntity
  8
0
100
AcDbVertex
100
AcDbPolygonMeshVertex
 10
0.0
 20
0.8145
 30
0.0
 70
    64
  0
VERTEX
  5
AA4F3
100
AcDbEntity
  8
0
100
AcDbVertex
100
AcDbPolygonMeshVertex
 10
0.0
 20
0.8145
 30
0.0
 70
    64
  0
VERTEX
  5
AA4F4
100
AcDbEntity
  8
0
100
AcDbVertex
100
AcDbPolygonMeshVertex
 10
0.0
 20
0.70825
 30
-0.275
 70
    64
  0
VERTEX
  5
AA4F5
100
AcDbEntity
  8
0
100
AcDbVertex
100
AcDbPolygonMeshVertex
 10
0.0
 20
0.70825
 30
0.0
 70
    64
  0
VERTEX
  5
AA4F6
100
AcDbEntity
  8
0
100
AcDbVertex
100
AcDbPolygonMeshVertex
 10
0.0
 20
0.70825
 30
0.0
 70
    64
  0
VERTEX
  5
AA4F7
100
AcDbEntity
  8
0
100
AcDbVertex
100
AcDbPolygonMeshVertex
 10
0.106
 20
0.70825
 30
-0.275
 70
    64
  0
VERTEX
  5
AA4F8
100
AcDbEntity
  8
0
100
AcDbVertex
100
AcDbPolygonMeshVertex
 10
0.106
 20
0.70825
 30
0.0
 70
    64
  0
VERTEX
  5
AA4F9
100
AcDbEntity
  8
0
100
AcDbVertex
100
AcDbPolygonMeshVertex
 10
0.0
 20
0.70825
 30
0.0
 70
    64
  0
VERTEX
  5
AA4FA
100
AcDbEntity
  8
0
100
AcDbVertex
100
AcDbPolygonMeshVertex
 10
0.106
 20
0.8145
 30
-0.275
 70
    64
  0
VERTEX
  5
AA4FB
100
AcDbEntity
  8
0
100
AcDbVertex
100
AcDbPolygonMeshVertex
 10
0.106
 20
0.8145
 30
0.0
 70
    64
  0
VERTEX
  5
AA4FC
100
AcDbEntity
  8
0
100
AcDbVertex
100
AcDbPolygonMeshVertex
 10
0.0
 20
0.8145
 30
0.0
 70
    64
  0
VERTEX
  5
AA4FD
100
AcDbEntity
  8
0
100
AcDbVertex
100
AcDbPolygonMeshVertex
 10
0.106
 20
0.8145
 30
-0.275
 70
    64
  0
VERTEX
  5
AA4FE
100
AcDbEntity
  8
0
100
AcDbVertex
100
AcDbPolygonMeshVertex
 10
0.106
 20
0.8145
 30
-0.275
 70
    64
  0
VERTEX
  5
AA4FF
100
AcDbEntity
  8
0
100
AcDbVertex
100
AcDbPolygonMeshVertex
 10
0.0
 20
0.8145
 30
-0.275
 70
    64
  0
VERTEX
  5
AA500
100
AcDbEntity
  8
0
100
AcDbVertex
100
AcDbPolygonMeshVertex
 10
0.106
 20
0.70825
 30
-0.275
 70
    64
  0
VERTEX
  5
AA501
100
AcDbEntity
  8
0
100
AcDbVertex
100
AcDbPolygonMeshVertex
 10
0.106
 20
0.70825
 30
-0.275
 70
    64
  0
VERTEX
  5
AA502
100
AcDbEntity
  8
0
100
AcDbVertex
100
AcDbPolygonMeshVertex
 10
0.0
 20
0.70825
 30
-0.275
 70
    64
  0
SEQEND
  5
AA503
100
AcDbEntity
  8
0
  0
POLYLINE
  5
AA504
100
AcDbEntity
  8
0
100
AcDbPolygonMesh
 66
     1
 10
0.0
 20
0.0
 30
0.0
 70
    16
 71
     6
 72
     3
  0
VERTEX
  5
AA505
100
AcDbEntity
  8
0
100
AcDbVertex
100
AcDbPolygonMeshVertex
 10
0.0
 20
-0.47925
 30
-0.275
 70
    64
  0
VERTEX
  5
AA506
100
AcDbEntity
  8
0
100
AcDbVertex
100
AcDbPolygonMeshVertex
 10
0.0
 20
-0.47925
 30
0.0
 70
    64
  0
VERTEX
  5
AA507
100
AcDbEntity
  8
0
100
AcDbVertex
100
AcDbPolygonMeshVertex
 10
0.0
 20
-0.47925
 30
0.0
 70
    64
  0
VERTEX
  5
AA508
100
AcDbEntity
  8
0
100
AcDbVertex
100
AcDbPolygonMeshVertex
 10
0.0
 20
-0.373
 30
-0.275
 70
    64
  0
VERTEX
  5
AA509
100
AcDbEntity
  8
0
100
AcDbVertex
100
AcDbPolygonMeshVertex
 10
0.0
 20
-0.373
 30
0.0
 70
    64
  0
VERTEX
  5
AA50A
100
AcDbEntity
  8
0
100
AcDbVertex
100
AcDbPolygonMeshVertex
 10
0.0
 20
-0.373
 30
0.0
 70
    64
  0
VERTEX
  5
AA50B
100
AcDbEntity
  8
0
100
AcDbVertex
100
AcDbPolygonMeshVertex
 10
0.106
 20
-0.373
 30
-0.275
 70
    64
  0
VERTEX
  5
AA50C
100
AcDbEntity
  8
0
100
AcDbVertex
100
AcDbPolygonMeshVertex
 10
0.106
 20
-0.373
 30
0.0
 70
    64
  0
VERTEX
  5
AA50D
100
AcDbEntity
  8
0
100
AcDbVertex
100
AcDbPolygonMeshVertex
 10
0.0
 20
-0.373
 30
0.0
 70
    64
  0
VERTEX
  5
AA50E
100
AcDbEntity
  8
0
100
AcDbVertex
100
AcDbPolygonMeshVertex
 10
0.106
 20
-0.47925
 30
-0.275
 70
    64
  0
VERTEX
  5
AA50F
100
AcDbEntity
  8
0
100
AcDbVertex
100
AcDbPolygonMeshVertex
 10
0.106
 20
-0.47925
 30
0.0
 70
    64
  0
VERTEX
  5
AA510
100
AcDbEntity
  8
0
100
AcDbVertex
100
AcDbPolygonMeshVertex
 10
0.0
 20
-0.47925
 30
0.0
 70
    64
  0
VERTEX
  5
AA511
100
AcDbEntity
  8
0
100
AcDbVertex
100
AcDbPolygonMeshVertex
 10
0.106
 20
-0.47925
 30
-0.275
 70
    64
  0
VERTEX
  5
AA512
100
AcDbEntity
  8
0
100
AcDbVertex
100
AcDbPolygonMeshVertex
 10
0.106
 20
-0.47925
 30
-0.275
 70
    64
  0
VERTEX
  5
AA513
100
AcDbEntity
  8
0
100
AcDbVertex
100
AcDbPolygonMeshVertex
 10
0.0
 20
-0.47925
 30
-0.275
 70
    64
  0
VERTEX
  5
AA514
100
AcDbEntity
  8
0
100
AcDbVertex
100
AcDbPolygonMeshVertex
 10
0.106
 20
-0.373
 30
-0.275
 70
    64
  0
VERTEX
  5
AA515
100
AcDbEntity
  8
0
100
AcDbVertex
100
AcDbPolygonMeshVertex
 10
0.106
 20
-0.373
 30
-0.275
 70
    64
  0
VERTEX
  5
AA516
100
AcDbEntity
  8
0
100
AcDbVertex
100
AcDbPolygonMeshVertex
 10
0.0
 20
-0.373
 30
-0.275
 70
    64
  0
SEQEND
  5
AA517
100
AcDbEntity
  8
0
  0
POLYLINE
  5
AA518
100
AcDbEntity
  8
0
100
AcDbPolygonMesh
 66
     1
 10
0.0
 20
0.0
 30
0.0
 70
    16
 71
     6
 72
     3
  0
VERTEX
  5
AA519
100
AcDbEntity
  8
0
100
AcDbVertex
100
AcDbPolygonMeshVertex
 10
-0.568
 20
0.8975
 30
-0.18
 70
    64
  0
VERTEX
  5
AA51A
100
AcDbEntity
  8
0
100
AcDbVertex
100
AcDbPolygonMeshVertex
 10
-0.568
 20
0.8975
 30
0.0
 70
    64
  0
VERTEX
  5
AA51B
100
AcDbEntity
  8
0
100
AcDbVertex
100
AcDbPolygonMeshVertex
 10
-0.568
 20
0.8975
 30
0.0
 70
    64
  0
VERTEX
  5
AA51C
100
AcDbEntity
  8
0
100
AcDbVertex
100
AcDbPolygonMeshVertex
 10
-0.568
 20
-0.8975
 30
-0.18
 70
    64
  0
VERTEX
  5
AA51D
100
AcDbEntity
  8
0
100
AcDbVertex
100
AcDbPolygonMeshVertex
 10
-0.568
 20
-0.8975
 30
0.0
 70
    64
  0
VERTEX
  5
AA51E
100
AcDbEntity
  8
0
100
AcDbVertex
100
AcDbPolygonMeshVertex
 10
-0.568
 20
-0.8975
 30
0.0
 70
    64
  0
VERTEX
  5
AA51F
100
AcDbEntity
  8
0
100
AcDbVertex
100
AcDbPolygonMeshVertex
 10
-0.468
 20
-0.8975
 30
-0.18
 70
    64
  0
VERTEX
  5
AA520
100
AcDbEntity
  8
0
100
AcDbVertex
100
AcDbPolygonMeshVertex
 10
-0.468
 20
-0.8975
 30
0.0
 70
    64
  0
VERTEX
  5
AA521
100
AcDbEntity
  8
0
100
AcDbVertex
100
AcDbPolygonMeshVertex
 10
-0.568
 20
-0.8975
 30
0.0
 70
    64
  0
VERTEX
  5
AA522
100
AcDbEntity
  8
0
100
AcDbVertex
100
AcDbPolygonMeshVertex
 10
-0.468
 20
0.8975
 30
-0.18
 70
    64
  0
VERTEX
  5
AA523
100
AcDbEntity
  8
0
100
AcDbVertex
100
AcDbPolygonMeshVertex
 10
-0.468
 20
0.8975
 30
0.0
 70
    64
  0
VERTEX
  5
AA524
100
AcDbEntity
  8
0
100
AcDbVertex
100
AcDbPolygonMeshVertex
 10
-0.568
 20
0.8975
 30
0.0
 70
    64
  0
VERTEX
  5
AA525
100
AcDbEntity
  8
0
100
AcDbVertex
100
AcDbPolygonMeshVertex
 10
-0.468
 20
0.8975
 30
-0.18
 70
    64
  0
VERTEX
  5
AA526
100
AcDbEntity
  8
0
100
AcDbVertex
100
AcDbPolygonMeshVertex
 10
-0.468
 20
0.8975
 30
-0.18
 70
    64
  0
VERTEX
  5
AA527
100
AcDbEntity
  8
0
100
AcDbVertex
100
AcDbPolygonMeshVertex
 10
-0.568
 20
0.8975
 30
-0.18
 70
    64
  0
VERTEX
  5
AA528
100
AcDbEntity
  8
0
100
AcDbVertex
100
AcDbPolygonMeshVertex
 10
-0.468
 20
-0.8975
 30
-0.18
 70
    64
  0
VERTEX
  5
AA529
100
AcDbEntity
  8
0
100
AcDbVertex
100
AcDbPolygonMeshVertex
 10
-0.468
 20
-0.8975
 30
-0.18
 70
    64
  0
VERTEX
  5
AA52A
100
AcDbEntity
  8
0
100
AcDbVertex
100
AcDbPolygonMeshVertex
 10
-0.568
 20
-0.8975
 30
-0.18
 70
    64
  0
SEQEND
  5
AA52B
100
AcDbEntity
  8
0
  0
POLYLINE
  5
AA52C
100
AcDbEntity
  8
0
100
AcDbPolygonMesh
 66
     1
 10
0.0
 20
0.0
 30
0.0
 70
    16
 71
     6
 72
     3
  0
VERTEX
  5
AA52D
100
AcDbEntity
  8
0
100
AcDbVertex
100
AcDbPolygonMeshVertex
 10
-0.963
 20
0.427198
 30
-0.220027
 70
    64
  0
VERTEX
  5
AA52E
100
AcDbEntity
  8
0
100
AcDbVertex
100
AcDbPolygonMeshVertex
 10
-0.963
 20
0.427198
 30
-0.180027
 70
    64
  0
VERTEX
  5
AA52F
100
AcDbEntity
  8
0
100
AcDbVertex
100
AcDbPolygonMeshVertex
 10
-0.963
 20
0.427198
 30
-0.180027
 70
    64
  0
VERTEX
  5
AA530
100
AcDbEntity
  8
0
100
AcDbVertex
100
AcDbPolygonMeshVertex
 10
-0.963
 20
-0.427198
 30
-0.220027
 70
    64
  0
VERTEX
  5
AA531
100
AcDbEntity
  8
0
100
AcDbVertex
100
AcDbPolygonMeshVertex
 10
-0.963
 20
-0.427198
 30
-0.180027
 70
    64
  0
VERTEX
  5
AA532
100
AcDbEntity
  8
0
100
AcDbVertex
100
AcDbPolygonMeshVertex
 10
-0.963
 20
-0.427198
 30
-0.180027
 70
    64
  0
VERTEX
  5
AA533
100
AcDbEntity
  8
0
100
AcDbVertex
100
AcDbPolygonMeshVertex
 10
-0.468
 20
-0.427198
 30
-0.220027
 70
    64
  0
VERTEX
  5
AA534
100
AcDbEntity
  8
0
100
AcDbVertex
100
AcDbPolygonMeshVertex
 10
-0.468
 20
-0.427198
 30
-0.180027
 70
    64
  0
VERTEX
  5
AA535
100
AcDbEntity
  8
0
100
AcDbVertex
100
AcDbPolygonMeshVertex
 10
-0.963
 20
-0.427198
 30
-0.180027
 70
    64
  0
VERTEX
  5
AA536
100
AcDbEntity
  8
0
100
AcDbVertex
100
AcDbPolygonMeshVertex
 10
-0.468
 20
0.427198
 30
-0.220027
 70
    64
  0
VERTEX
  5
AA537
100
AcDbEntity
  8
0
100
AcDbVertex
100
AcDbPolygonMeshVertex
 10
-0.468
 20
0.427198
 30
-0.180027
 70
    64
  0
VERTEX
  5
AA538
100
AcDbEntity
  8
0
100
AcDbVertex
100
AcDbPolygonMeshVertex
 10
-0.963
 20
0.427198
 30
-0.180027
 70
    64
  0
VERTEX
  5
AA539
100
AcDbEntity
  8
0
100
AcDbVertex
100
AcDbPolygonMeshVertex
 10
-0.468
 20
0.427198
 30
-0.220027
 70
    64
  0
VERTEX
  5
AA53A
100
AcDbEntity
  8
0
100
AcDbVertex
100
AcDbPolygonMeshVertex
 10
-0.468
 20
0.427198
 30
-0.220027
 70
    64
  0
VERTEX
  5
AA53B
100
AcDbEntity
  8
0
100
AcDbVertex
100
AcDbPolygonMeshVertex
 10
-0.963
 20
0.427198
 30
-0.220027
 70
    64
  0
VERTEX
  5
AA53C
100
AcDbEntity
  8
0
100
AcDbVertex
100
AcDbPolygonMeshVertex
 10
-0.468
 20
-0.427198
 30
-0.220027
 70
    64
  0
VERTEX
  5
AA53D
100
AcDbEntity
  8
0
100
AcDbVertex
100
AcDbPolygonMeshVertex
 10
-0.468
 20
-0.427198
 30
-0.220027
 70
    64
  0
VERTEX
  5
AA53E
100
AcDbEntity
  8
0
100
AcDbVertex
100
AcDbPolygonMeshVertex
 10
-0.963
 20
-0.427198
 30
-0.220027
 70
    64
  0
SEQEND
  5
AA53F
100
AcDbEntity
  8
0
  0
POLYLINE
  5
AA540
100
AcDbEntity
  8
0
100
AcDbPolygonMesh
 66
     1
 10
0.0
 20
0.0
 30
0.0
 70
    16
 71
     6
 72
     3
  0
VERTEX
  5
AA541
100
AcDbEntity
  8
0
100
AcDbVertex
100
AcDbPolygonMeshVertex
 10
-0.568
 20
-0.8975
 30
-0.18
 70
    64
  0
VERTEX
  5
AA542
100
AcDbEntity
  8
0
100
AcDbVertex
100
AcDbPolygonMeshVertex
 10
-0.568
 20
-0.8975
 30
0.0
 70
    64
  0
VERTEX
  5
AA543
100
AcDbEntity
  8
0
100
AcDbVertex
100
AcDbPolygonMeshVertex
 10
-0.568
 20
-0.8975
 30
0.0
 70
    64
  0
VERTEX
  5
AA544
100
AcDbEntity
  8
0
100
AcDbVertex
100
AcDbPolygonMeshVertex
 10
-0.568
 20
-0.8145
 30
-0.18
 70
    64
  0
VERTEX
  5
AA545
100
AcDbEntity
  8
0
100
AcDbVertex
100
AcDbPolygonMeshVertex
 10
-0.568
 20
-0.8145
 30
0.0
 70
    64
  0
VERTEX
  5
AA546
100
AcDbEntity
  8
0
100
AcDbVertex
100
AcDbPolygonMeshVertex
 10
-0.568
 20
-0.8145
 30
0.0
 70
    64
  0
VERTEX
  5
AA547
100
AcDbEntity
  8
0
100
AcDbVertex
100
AcDbPolygonMeshVertex
 10
-0.963
 20
-0.8145
 30
-0.18
 70
    64
  0
VERTEX
  5
AA548
100
AcDbEntity
  8
0
100
AcDbVertex
100
AcDbPolygonMeshVertex
 10
-0.963
 20
-0.8145
 30
0.0
 70
    64
  0
VERTEX
  5
AA549
100
AcDbEntity
  8
0
100
AcDbVertex
100
AcDbPolygonMeshVertex
 10
-0.568
 20
-0.8145
 30
0.0
 70
    64
  0
VERTEX
  5
AA54A
100
AcDbEntity
  8
0
100
AcDbVertex
100
AcDbPolygonMeshVertex
 10
-0.963
 20
-0.8975
 30
-0.18
 70
    64
  0
VERTEX
  5
AA54B
100
AcDbEntity
  8
0
100
AcDbVertex
100
AcDbPolygonMeshVertex
 10
-0.963
 20
-0.8975
 30
0.0
 70
    64
  0
VERTEX
  5
AA54C
100
AcDbEntity
  8
0
100
AcDbVertex
100
AcDbPolygonMeshVertex
 10
-0.568
 20
-0.8975
 30
0.0
 70
    64
  0
VERTEX
  5
AA54D
100
AcDbEntity
  8
0
100
AcDbVertex
100
AcDbPolygonMeshVertex
 10
-0.963
 20
-0.8975
 30
-0.18
 70
    64
  0
VERTEX
  5
AA54E
100
AcDbEntity
  8
0
100
AcDbVertex
100
AcDbPolygonMeshVertex
 10
-0.963
 20
-0.8975
 30
-0.18
 70
    64
  0
VERTEX
  5
AA54F
100
AcDbEntity
  8
0
100
AcDbVertex
100
AcDbPolygonMeshVertex
 10
-0.568
 20
-0.8975
 30
-0.18
 70
    64
  0
VERTEX
  5
AA550
100
AcDbEntity
  8
0
100
AcDbVertex
100
AcDbPolygonMeshVertex
 10
-0.963
 20
-0.8145
 30
-0.18
 70
    64
  0
VERTEX
  5
AA551
100
AcDbEntity
  8
0
100
AcDbVertex
100
AcDbPolygonMeshVertex
 10
-0.963
 20
-0.8145
 30
-0.18
 70
    64
  0
VERTEX
  5
AA552
100
AcDbEntity
  8
0
100
AcDbVertex
100
AcDbPolygonMeshVertex
 10
-0.568
 20
-0.8145
 30
-0.18
 70
    64
  0
SEQEND
  5
AA553
100
AcDbEntity
  8
0
  0
POLYLINE
  5
AA554
100
AcDbEntity
  8
0
100
AcDbPolygonMesh
 66
     1
 10
0.0
 20
0.0
 30
0.0
 70
    16
 71
     6
 72
     3
  0
VERTEX
  5
AA555
100
AcDbEntity
  8
0
100
AcDbVertex
100
AcDbPolygonMeshVertex
 10
-0.568
 20
0.8145
 30
-0.18
 70
    64
  0
VERTEX
  5
AA556
100
AcDbEntity
  8
0
100
AcDbVertex
100
AcDbPolygonMeshVertex
 10
-0.568
 20
0.8145
 30
0.0
 70
    64
  0
VERTEX
  5
AA557
100
AcDbEntity
  8
0
100
AcDbVertex
100
AcDbPolygonMeshVertex
 10
-0.568
 20
0.8145
 30
0.0
 70
    64
  0
VERTEX
  5
AA558
100
AcDbEntity
  8
0
100
AcDbVertex
100
AcDbPolygonMeshVertex
 10
-0.568
 20
0.8975
 30
-0.18
 70
    64
  0
VERTEX
  5
AA559
100
AcDbEntity
  8
0
100
AcDbVertex
100
AcDbPolygonMeshVertex
 10
-0.568
 20
0.8975
 30
0.0
 70
    64
  0
VERTEX
  5
AA55A
100
AcDbEntity
  8
0
100
AcDbVertex
100
AcDbPolygonMeshVertex
 10
-0.568
 20
0.8975
 30
0.0
 70
    64
  0
VERTEX
  5
AA55B
100
AcDbEntity
  8
0
100
AcDbVertex
100
AcDbPolygonMeshVertex
 10
-0.963
 20
0.8975
 30
-0.18
 70
    64
  0
VERTEX
  5
AA55C
100
AcDbEntity
  8
0
100
AcDbVertex
100
AcDbPolygonMeshVertex
 10
-0.963
 20
0.8975
 30
0.0
 70
    64
  0
VERTEX
  5
AA55D
100
AcDbEntity
  8
0
100
AcDbVertex
100
AcDbPolygonMeshVertex
 10
-0.568
 20
0.8975
 30
0.0
 70
    64
  0
VERTEX
  5
AA55E
100
AcDbEntity
  8
0
100
AcDbVertex
100
AcDbPolygonMeshVertex
 10
-0.963
 20
0.8145
 30
-0.18
 70
    64
  0
VERTEX
  5
AA55F
100
AcDbEntity
  8
0
100
AcDbVertex
100
AcDbPolygonMeshVertex
 10
-0.963
 20
0.8145
 30
0.0
 70
    64
  0
VERTEX
  5
AA560
100
AcDbEntity
  8
0
100
AcDbVertex
100
AcDbPolygonMeshVertex
 10
-0.568
 20
0.8145
 30
0.0
 70
    64
  0
VERTEX
  5
AA561
100
AcDbEntity
  8
0
100
AcDbVertex
100
AcDbPolygonMeshVertex
 10
-0.963
 20
0.8145
 30
-0.18
 70
    64
  0
VERTEX
  5
AA562
100
AcDbEntity
  8
0
100
AcDbVertex
100
AcDbPolygonMeshVertex
 10
-0.963
 20
0.8145
 30
-0.18
 70
    64
  0
VERTEX
  5
AA563
100
AcDbEntity
  8
0
100
AcDbVertex
100
AcDbPolygonMeshVertex
 10
-0.568
 20
0.8145
 30
-0.18
 70
    64
  0
VERTEX
  5
AA564
100
AcDbEntity
  8
0
100
AcDbVertex
100
AcDbPolygonMeshVertex
 10
-0.963
 20
0.8975
 30
-0.18
 70
    64
  0
VERTEX
  5
AA565
100
AcDbEntity
  8
0
100
AcDbVertex
100
AcDbPolygonMeshVertex
 10
-0.963
 20
0.8975
 30
-0.18
 70
    64
  0
VERTEX
  5
AA566
100
AcDbEntity
  8
0
100
AcDbVertex
100
AcDbPolygonMeshVertex
 10
-0.568
 20
0.8975
 30
-0.18
 70
    64
  0
SEQEND
  5
AA567
100
AcDbEntity
  8
0
  0
LINE
  5
AA568
100
AcDbEntity
  8
0
100
AcDbLine
 10
-0.468
 20
0.1425
 30
0.0
 11
-0.126
 21
0.1425
 31
0.0
210
0.0
220
0.0
230
-1.0
  0
LINE
  5
AA569
100
AcDbEntity
  8
0
100
AcDbLine
 10
-0.468
 20
-0.1425
 30
0.0
 11
-0.126
 21
-0.1425
 31
0.0
210
0.0
220
0.0
230
-1.0
  0
POLYLINE
  5
AA56A
100
AcDbEntity
  8
0
100
AcDbPolygonMesh
 66
     1
 10
0.0
 20
0.0
 30
0.0
 70
    16
 71
     6
 72
     3
  0
VERTEX
  5
AA56B
100
AcDbEntity
  8
0
100
AcDbVertex
100
AcDbPolygonMeshVertex
 10
-0.03
 20
-0.373
 30
-1.57
 70
    64
  0
VERTEX
  5
AA56C
100
AcDbEntity
  8
0
100
AcDbVertex
100
AcDbPolygonMeshVertex
 10
-0.03
 20
-0.373
 30
-0.288
 70
    64
  0
VERTEX
  5
AA56D
100
AcDbEntity
  8
0
100
AcDbVertex
100
AcDbPolygonMeshVertex
 10
-0.03
 20
-0.373
 30
-0.288
 70
    64
  0
VERTEX
  5
AA56E
100
AcDbEntity
  8
0
100
AcDbVertex
100
AcDbPolygonMeshVertex
 10
-0.03
 20
0.373
 30
-1.57
 70
    64
  0
VERTEX
  5
AA56F
100
AcDbEntity
  8
0
100
AcDbVertex
100
AcDbPolygonMeshVertex
 10
-0.03
 20
0.373
 30
-0.288
 70
    64
  0
VERTEX
  5
AA570
100
AcDbEntity
  8
0
100
AcDbVertex
100
AcDbPolygonMeshVertex
 10
-0.03
 20
0.373
 30
-0.288
 70
    64
  0
VERTEX
  5
AA571
100
AcDbEntity
  8
0
100
AcDbVertex
100
AcDbPolygonMeshVertex
 10
-0.126
 20
0.373
 30
-1.57
 70
    64
  0
VERTEX
  5
AA572
100
AcDbEntity
  8
0
100
AcDbVertex
100
AcDbPolygonMeshVertex
 10
-0.126
 20
0.373
 30
-0.288
 70
    64
  0
VERTEX
  5
AA573
100
AcDbEntity
  8
0
100
AcDbVertex
100
AcDbPolygonMeshVertex
 10
-0.03
 20
0.373
 30
-0.288
 70
    64
  0
VERTEX
  5
AA574
100
AcDbEntity
  8
0
100
AcDbVertex
100
AcDbPolygonMeshVertex
 10
-0.126
 20
-0.373
 30
-1.57
 70
    64
  0
VERTEX
  5
AA575
100
AcDbEntity
  8
0
100
AcDbVertex
100
AcDbPolygonMeshVertex
 10
-0.126
 20
-0.373
 30
-0.288
 70
    64
  0
VERTEX
  5
AA576
100
AcDbEntity
  8
0
100
AcDbVertex
100
AcDbPolygonMeshVertex
 10
-0.03
 20
-0.373
 30
-0.288
 70
    64
  0
VERTEX
  5
AA577
100
AcDbEntity
  8
0
100
AcDbVertex
100
AcDbPolygonMeshVertex
 10
-0.126
 20
-0.373
 30
-1.57
 70
    64
  0
VERTEX
  5
AA578
100
AcDbEntity
  8
0
100
AcDbVertex
100
AcDbPolygonMeshVertex
 10
-0.126
 20
-0.373
 30
-1.57
 70
    64
  0
VERTEX
  5
AA579
100
AcDbEntity
  8
0
100
AcDbVertex
100
AcDbPolygonMeshVertex
 10
-0.03
 20
-0.373
 30
-1.57
 70
    64
  0
VERTEX
  5
AA57A
100
AcDbEntity
  8
0
100
AcDbVertex
100
AcDbPolygonMeshVertex
 10
-0.126
 20
0.373
 30
-1.57
 70
    64
  0
VERTEX
  5
AA57B
100
AcDbEntity
  8
0
100
AcDbVertex
100
AcDbPolygonMeshVertex
 10
-0.126
 20
0.373
 30
-1.57
 70
    64
  0
VERTEX
  5
AA57C
100
AcDbEntity
  8
0
100
AcDbVertex
100
AcDbPolygonMeshVertex
 10
-0.03
 20
0.373
 30
-1.57
 70
    64
  0
SEQEND
  5
AA57D
100
AcDbEntity
  8
0
  0
LINE
  5
AA57E
100
AcDbEntity
  8
0
100
AcDbLine
 10
-0.126
 20
-0.1425
 30
0.0
 11
-0.126
 21
-0.1425
 31
-0.288
  0
LINE
  5
AA57F
100
AcDbEntity
  8
0
100
AcDbLine
 10
-0.126
 20
0.1425
 30
0.0
 11
-0.126
 21
0.1425
 31
-0.288
  0
LINE
  5
AA580
100
AcDbEntity
  8
0
100
AcDbLine
 10
-0.126
 20
0.1425
 30
-1.57
 11
-0.468
 21
0.1425
 31
-1.57
  0
LINE
  5
AA581
100
AcDbEntity
  8
0
100
AcDbLine
 10
-0.126
 20
-0.1425
 30
-1.57
 11
-0.468
 21
-0.1425
 31
-1.57
  0
ARC
  5
AA582
100
AcDbEntity
  8
0
100
AcDbCircle
 10
-0.2775
 20
0.0
 30
-1.57
 40
0.1015
100
AcDbArc
 50
122.94559
 51
237.05441
  0
LINE
  5
AA583
100
AcDbEntity
  8
0
100
AcDbLine
 10
-0.3327
 20
-0.1425
 30
-1.57
 11
-0.3327
 21
-0.085178
 31
-1.57
  0
LINE
  5
AA584
100
AcDbEntity
  8
0
100
AcDbLine
 10
-0.2223
 20
-0.1425
 30
-1.57
 11
-0.2223
 21
-0.085178
 31
-1.57
  0
LINE
  5
AA585
100
AcDbEntity
  8
0
100
AcDbLine
 10
-0.2223
 20
0.085178
 30
-1.57
 11
-0.2223
 21
0.1425
 31
-1.57
  0
LINE
  5
AA586
100
AcDbEntity
  8
0
100
AcDbLine
 10
-0.3327
 20
0.085178
 30
-1.57
 11
-0.3327
 21
0.1425
 31
-1.57
  0
ARC
  5
AA587
100
AcDbEntity
  8
0
100
AcDbCircle
 10
-0.2775
 20
0.0
 30
-1.57
 40
0.1015
100
AcDbArc
 50
302.94559
 51
57.05441
  0
LINE
  5
AA588
100
AcDbEntity
  8
0
100
AcDbLine
 10
-0.468
 20
0.1425
 30
-1.433
 11
-0.468
 21
-0.1425
 31
-1.433
  0
LINE
  5
AA589
100
AcDbEntity
  8
0
100
AcDbLine
 10
-0.468
 20
-0.1425
 30
-1.57
 11
-0.468
 21
-0.1425
 31
-1.433
  0
LINE
  5
AA58A
100
AcDbEntity
  8
0
100
AcDbLine
 10
-0.468
 20
0.1425
 30
-1.57
 11
-0.468
 21
0.1425
 31
-1.433
  0
ATTDEF
  5
AA58B
100
AcDbEntity
  8
ATTRIBUTES
100
AcDbText
 10
-0.917123
 20
0.124104
 30
0.0
 40
0.045068
  1
ALLEN-BRADLEY
100
AcDbAttributeDefinition
  3
MANUFACTURER NAME?
  2
AC_VND_LABEL
 70
     0
  0
ATTDEF
  5
AA58C
100
AcDbEntity
  8
ATTRIBUTES
100
AcDbText
 10
-0.917123
 20
0.030211
 30
0.0
 40
0.045068
  1
800T-XA4Y
100
AcDbAttributeDefinition
  3
CATALOG NUMBER?
  2
AC_PART_NO
 70
     0
  0
ATTDEF
  5
AA58D
100
AcDbEntity
  8
ATTRIBUTES
100
AcDbText
 10
-0.917123
 20
-0.063682
 30
0.0
 40
0.045068
  1
NEMA STACKABLE SEALED SWITCH (YASKAWA)2 CIRCUIT CONTACT BLOCK, 2 N.C.
100
AcDbAttributeDefinition
  3
PART DESCRIPTION?
  2
AC_DESCRIPTION
 70
     0
  0
ATTDEF
  5
AA58E
100
AcDbEntity
  8
ATTRIBUTES
100
AcDbText
 10
-0.917123
 20
-0.157574
 30
0.0
 40
0.045068
  1

100
AcDbAttributeDefinition
  3
DEVICE ID?
  2
DEVICE_ID
 70
     0
  0
ATTDEF
  5
AA58F
100
AcDbEntity
  8
ATTRIBUTES
100
AcDbText
 10
-0.917123
 20
-0.251467
 30
0.0
 40
0.045068
  1

100
AcDbAttributeDefinition
  3
CUSTOMER PART NUMBER?
  2
AC_CPART_NO
 70
     0
  0
ATTDEF
  5
AA590
100
AcDbEntity
  8
ATTRIBUTES
100
AcDbText
 10
-0.917123
 20
-0.34536
 30
0.0
 40
0.045068
  1

100
AcDbAttributeDefinition
  3
CUSTOMER NOTE?
  2
AC_NOTE
 70
     0
  0
ATTDEF
  5
AA591
100
AcDbEntity
  8
ATTRIBUTES
100
AcDbText
 10
-0.917123
 20
-0.439252
 30
0.0
 40
0.045068
  1

100
AcDbAttributeDefinition
  3
FASTENER DATA?
  2
FASTENER
 70
     0
  0
ATTDEF
  5
AA592
100
AcDbEntity
  8
ATTRIBUTES
100
AcDbText
 10
-0.917123
 20
-0.533145
 30
0.0
 40
0.045068
  1

100
AcDbAttributeDefinition
  3
UNIT OF SCALE?
  2
AC_SCALE_UNIT
 70
     0
  0
ATTDEF
  5
AA593
100
AcDbEntity
  8
ATTRIBUTES
100
AcDbText
 10
-0.917123
 20
-0.627038
 30
0.0
 40
0.045068
  1

100
AcDbAttributeDefinition
  3
VIEW CODE?
  2
AC_VIEW_CODE
 70
     0
  0
POINT
  5
AA594
100
AcDbEntity
  8
SNAP_POINTS
100
AcDbPoint
 10
0.0
 20
0.0
 30
-1.57
  0
DIMENSION
  5
AA595
100
AcDbEntity
  8
AREA1
100
AcDbDimension
  2
*D0
 10
-1.291555
 20
0.8975
 30
0.0
 11
-1.291555
 21
-0.008042
 31
0.0
 70
   160
  3
ABECAD_3D
100
AcDbAlignedDimension
 13
-0.963
 23
-0.8975
 33
-0.18
 14
-0.963
 24
0.8975
 34
-0.18
 50
90.0
100
AcDbRotatedDimension
  0
DIMENSION
  5
AA5A3
100
AcDbEntity
  8
AREA1
100
AcDbDimension
  2
*D1
 10
0.106
 20
1.124206
 30
0.0
 11
-0.429004
 21
1.301648
 31
0.0
 70
   160
  3
ABECAD_3D
100
AcDbAlignedDimension
 13
-0.963
 23
0.8975
 33
-0.18
 14
0.106
 24
0.8145
 34
0.0
100
AcDbRotatedDimension
  0
LWPOLYLINE
  5
AA5C8
100
AcDbEntity
  8
SCALE
100
AcDbPolyline
 90
        4
 70
     1
 43
0.0
 10
0.25716
 20
0.004479
 10
1.392789
 20
0.004479
 10
1.392789
 20
-0.837131
 10
0.25716
 20
-0.837131
  0
LINE
  5
AA5C9
100
AcDbEntity
  8
SCALE
100
AcDbLine
 10
0.315159
 20
-0.3756
 30
0.0
 11
1.315159
 21
-0.3756
 31
0.0
  0
LINE
  5
AA5CA
100
AcDbEntity
  8
SCALE
100
AcDbLine
 10
0.315159
 20
-0.6756
 30
0.0
 11
0.708859
 21
-0.6756
 31
0.0
  0
LINE
  5
AA5CB
100
AcDbEntity
  8
SCALE
100
AcDbLine
 10
0.315159
 20
-0.4756
 30
0.0
 11
0.315159
 21
-0.2756
 31
0.0
  0
TEXT
  5
AA5CC
100
AcDbEntity
  8
SCALE
100
AcDbText
 10
0.371135
 20
-0.627915
 30
0.0
 40
0.0625
  1
[10mm]
100
AcDbText
  0
LINE
  5
AA5CD
100
AcDbEntity
  8
SCALE
100
AcDbLine
 10
0.315159
 20
-0.7756
 30
0.0
 11
0.315159
 21
-0.5756
 31
0.0
  0
TEXT
  5
AA5CE
100
AcDbEntity
  8
SCALE
100
AcDbText
 10
0.316689
 20
-0.100723
 30
0.0
 40
0.0625
  1
SCALE:
100
AcDbText
  0
LINE
  5
AA5CF
100
AcDbEntity
  8
SCALE
100
AcDbLine
 10
0.708859
 20
-0.7756
 30
0.0
 11
0.708859
 21
-0.5756
 31
0.0
  0
TEXT
  5
AA5D0
100
AcDbEntity
  8
SCALE
100
AcDbText
 10
0.678442
 20
-0.306551
 30
0.0
 40
0.0625
  1
1 Inch
100
AcDbText
  0
LINE
  5
AA5D1
100
AcDbEntity
  8
SCALE
100
AcDbLine
 10
1.315159
 20
-0.3756
 30
0.0
 11
1.315159
 21
-0.4756
 31
0.0
  0
LINE
  5
AA5D2
100
AcDbEntity
  8
SCALE
100
AcDbLine
 10
1.315159
 20
-0.4756
 30
0.0
 11
1.315159
 21
-0.2756
 31
0.0
  0
VIEWPORT
  5
5677D
102
{ACAD_XDICTIONARY
360
AA6A0
102
}
100
AcDbEntity
 67
     1
  8
0
100
AcDbViewport
 10
5.25
 20
4.0
 30
0.0
 40
16.386862
 41
8.993
 68
    -1
 69
     1
1001
ACAD
1000
MVIEW
1002
{
1070
    16
1010
0.0
1020
0.0
1030
0.0
1010
0.0
1020
0.0
1030
1.0
1040
0.0
1040
8.993
1040
5.25
1040
4.0
1040
50.0
1040
0.0
1040
0.0
1070
     0
1070
 20000
1070
     1
1070
     1
1070
     0
1070
     0
1070
     0
1070
     0
1040
0.0
1040
0.0
1040
0.0
1040
0.5
1040
0.5
1040
0.5
1040
0.5
1070
     0
1002
{
1002
}
1002
}
  0
VIEWPORT
  5
5677F
102
{ACAD_XDICTIONARY
360
AA6A2
102
}
100
AcDbEntity
 67
     1
  8
AREA1
100
AcDbViewport
 10
5.25
 20
4.0
 30
0.0
 40
8.4
 41
6.4
 68
     1
 69
     2
1001
ACAD
1000
MVIEW
1002
{
1070
    16
1010
0.563444
1020
-0.880137
1030
1.686493
1010
0.0
1020
0.0
1030
1.0
1040
0.0
1040
4.582914
1040
-1.017175
1040
0.747813
1040
50.0
1040
0.0
1040
0.0
1070
     0
1070
 20000
1070
     1
1070
     1
1070
     0
1070
     0
1070
     0
1070
     0
1040
0.0
1040
0.0
1040
0.0
1040
0.25
1040
0.25
1040
0.25
1040
0.25
1070
     0
1002
{
1002
}
1002
}
  0
ENDSEC
  0
SECTION
  2
OBJECTS
  0
DICTIONARY
  5
458CB
100
AcDbDictionary
  3
ACAD_GROUP
350
458CC
  3
ACAD_LAYOUT
350
458FB
  3
ACAD_MLINESTYLE
350
458D9
  3
ACAD_PLOTSETTINGS
350
458FC
  3
ACAD_PLOTSTYLENAME
350
458F9
  3
ACDBHEADERROUNDTRIPXREC
350
AA677
  3
ACDBVARIABLEDICTIONARY
350
458E1
  3
DWGPROPS
350
45901
  0
DICTIONARY
  5
AA675
100
AcDbDictionary
280
     1
  3
ACAD_XREC_ROUNDTRIP
360
AA676
  0
DICTIONARY
  5
AA69E
100
AcDbDictionary
280
     1
  3
ACAD_XREC_ROUNDTRIP
360
AA69F
  0
DICTIONARY
  5
AA673
100
AcDbDictionary
280
     1
  3
ACAD_XREC_ROUNDTRIP
360
AA674
  0
DICTIONARY
  5
AA69A
100
AcDbDictionary
280
     1
  3
ACAD_XREC_ROUNDTRIP
360
AA69B
  0
DICTIONARY
  5
4592C
100
AcDbDictionary
280
     1
  3
ACAD_LAYOUTSELFREF
360
AA699
  0
DICTIONARY
  5
4592A
100
AcDbDictionary
280
     1
  3
ACAD_LAYOUTSELFREF
360
AA698
  0
DICTIONARY
  5
AA6A0
100
AcDbDictionary
280
     1
  3
ACAD_XREC_ROUNDTRIP
360
AA6A1
  0
DICTIONARY
  5
AA6A2
100
AcDbDictionary
280
     1
  3
ACAD_XREC_ROUNDTRIP
360
AA6A3
  0
DICTIONARY
  5
458CC
102
{ACAD_REACTORS
330
458CB
102
}
100
AcDbDictionary
  0
DICTIONARY
  5
458FB
102
{ACAD_XDICTIONARY
360
AA69C
102
}
102
{ACAD_REACTORS
330
458CB
102
}
100
AcDbDictionary
  3
LAYOUT1
350
458FE
  3
MODEL
350
458FD
  0
DICTIONARY
  5
458D9
102
{ACAD_REACTORS
330
458CB
102
}
100
AcDbDictionary
  3
STANDARD
350
458DA
  0
DICTIONARY
  5
458FC
102
{ACAD_REACTORS
330
458CB
102
}
100
AcDbDictionary
  0
ACAD_PROXY_OBJECT
  5
458F9
102
{ACAD_REACTORS
330
458CB
102
}
100
AcDbProxyObject
 90
      499
 91
      501
 93
       86
310
405010041939BDC9B585B0
350
458FA
340
458FA
 94
        0
  0
DICTIONARY
  5
AA677
102
{ACAD_REACTORS
330
458CB
102
}
100
AcDbDictionary
  3
CEPSNTYPE
350
AA681
  3
DIMSTYLEDATA
350
AA685
  3
FINGERPRINTGUID
350
AA682
  3
HYPERLINKBASE
350
AA67A
  3
INSUNITS
350
AA680
  3
LAYOUTDICT
350
AA67C
  3
LWETCUNION
350
AA67F
  3
PLOTSETDICT
350
AA67D
  3
PLOTSTYLNAMDICT
350
AA67E
  3
PSVPSCALE
350
AA684
  3
PUCSBASE
350
AA688
  3
PUCSORGBACK
350
AA68E
  3
PUCSORGBOTTOM
350
AA68A
  3
PUCSORGFRONT
350
AA68D
  3
PUCSORGLEFT
350
AA68B
  3
PUCSORGRIGHT
350
AA68C
  3
PUCSORGTOP
350
AA689
  3
PUCSORTHOREF
350
AA686
  3
PUCSORTHOVIEW
350
AA687
  3
STYLESHEET
350
AA67B
  3
TSTACKALIGN
350
AA678
  3
TSTACKSIZE
350
AA679
  3
UCSBASE
350
AA691
  3
UCSORGBACK
350
AA697
  3
UCSORGBOTTOM
350
AA693
  3
UCSORGFRONT
350
AA696
  3
UCSORGLEFT
350
AA694
  3
UCSORGRIGHT
350
AA695
  3
UCSORGTOP
350
AA692
  3
UCSORTHOREF
350
AA68F
  3
UCSORTHOVIEW
350
AA690
  3
VERSIONGUID
350
AA683
  0
DICTIONARY
  5
458E1
102
{ACAD_REACTORS
330
458CB
102
}
100
AcDbDictionary
  3
DIMADEC
350
458E2
  0
XRECORD
  5
45901
102
{ACAD_REACTORS
330
458CB
102
}
100
AcDbXrecord
  1
DWGPROPS COOKIE
  2

  3

  4

  6

  7

  8
colin
  9

300
=
301
=
302
=
303
=
304
=
305
=
306
=
307
=
308
=
309
=
 40
0.000599
 41
2451670.444777
 42
2451670.445376
  1

 90
        0
  0
XRECORD
  5
AA676
102
{ACAD_REACTORS
330
AA675
102
}
100
AcDbXrecord
102
EXTNAMES
  1
*ACTIVE
  2
*Active
102
UCS
 74
     0
 71
     1
 10
0.0
 20
0.0
 30
0.0
 10
1.0
 20
0.0
 30
0.0
 10
0.0
 20
1.0
 30
0.0
146
0.0
 79
     1
102
VIEW
281
     1
  0
XRECORD
  5
AA69F
102
{ACAD_REACTORS
330
AA69E
102
}
100
AcDbXrecord
102
PLOTBIT
280
     0
  0
XRECORD
  5
AA674
102
{ACAD_REACTORS
330
AA673
102
}
100
AcDbXrecord
102
EXTNAMES
  1
DEFPOINTS
  2
Defpoints
102
PLOTBIT
280
     0
  0
XRECORD
  5
AA69B
102
{ACAD_REACTORS
330
AA69A
102
}
100
AcDbXrecord
102
ACADR14ROUNDTRIP
1000
DSTYLE
1002
{
1070
   276
 70
     2
1070
   277
 70
     5
1070
   279
 70
     2
1070
   289
 70
     2
1002
}
  0
XRECORD
  5
AA699
102
{ACAD_REACTORS
330
4592C
102
}
100
AcDbXrecord
340
458D6
  0
XRECORD
  5
AA698
102
{ACAD_REACTORS
330
4592A
102
}
100
AcDbXrecord
340
458D3
  0
XRECORD
  5
AA6A1
102
{ACAD_REACTORS
330
AA6A0
102
}
100
AcDbXrecord
102
UCS
 74
     0
 71
     1
 10
0.0
 20
0.0
 30
0.0
 10
1.0
 20
0.0
 30
0.0
 10
0.0
 20
1.0
 30
0.0
146
0.0
 79
     0
102
VIEW
281
     0
102
NEWVIEWCONTROL
280
     4
  0
XRECORD
  5
AA6A3
102
{ACAD_REACTORS
330
AA6A2
102
}
100
AcDbXrecord
102
UCS
 74
     0
 71
     1
 10
0.0
 20
0.0
 30
0.0
 10
1.0
 20
0.0
 30
0.0
 10
0.0
 20
1.0
 30
0.0
146
0.0
 79
     1
102
VIEW
281
     1
102
NEWVIEWCONTROL
280
     4
  0
DICTIONARY
  5
AA69C
100
AcDbDictionary
280
     1
  3
ACAD_XREC_ROUNDTRIP
360
AA69D
  0
ACAD_PROXY_OBJECT
  5
458FE
102
{ACAD_REACTORS
330
458FB
102
}
100
AcDbProxyObject
 90
      499
 91
      503
 93
     1700
310
90B6E6F6E655F6465766963652C0080000006066661940000000181999865000000000068661940000000001A1986500000000C0CCFC6A4000000018199D9C5011C4C65747465725F28382E35305F785F31312E30305F496E6368657329A901416AA547D11959985D5B1D08148C4D081C195B88185CDCDA59DB9B595B9D1CC
310
B98DD1891069074C61796F75743140501A840201008040342FEFF7FBFDFFFFF3EFDFAFF7FBFFDFC9501008043E3FDFC8102A6A6A0000003033333C0FC000000809999E93F8FFFFFF5766E622403FFFFFEBF333071020
330
458D3
330
5677D
340
0
340
0
 94
        0
  0
ACAD_PROXY_OBJECT
  5
458FD
102
{ACAD_REACTORS
330
458FB
102
}
100
AcDbProxyObject
 90
      499
 91
      503
 93
      924
310
91D4850204C617365724A65742035303030205365726965732050434C20362C01AAAAAAAAA547D11959985D5B1D08148C4D081C195B88185CDCDA59DB9B595B9D1CCB98DD18A69054D6F64656C901A800000000000000000000000000000000000000000000A1000000000000008902A6A6AAAAA
330
458D6
330
0
340
0
340
0
 94
        0
  0
MLINESTYLE
  5
458DA
102
{ACAD_REACTORS
330
458D9
102
}
100
AcDbMlineStyle
  2
STANDARD
 70
     0
  3

 62
   256
 51
90.0
 52
90.0
 71
     2
 49
0.5
 62
   256
  6
BYLAYER
 49
-0.5
 62
   256
  6
BYLAYER
  0
ACAD_PROXY_OBJECT
  5
458FA
102
{ACAD_REACTORS
330
458F9
102
}
100
AcDbProxyObject
 90
      499
 91
      502
 93
        0
 94
        0
  0
XRECORD
  5
AA681
102
{ACAD_REACTORS
330
AA677
102
}
100
AcDbXrecord
 90
        0
  0
XRECORD
  5
AA685
102
{ACAD_REACTORS
330
AA677
102
}
100
AcDbXrecord
1000
DSTYLE
1002
{
1070
   276
 70
     2
1070
   277
 70
     5
1070
   279
 70
     2
1070
   289
 70
     2
1002
}
  0
XRECORD
  5
AA682
102
{ACAD_REACTORS
330
AA677
102
}
100
AcDbXrecord
  1
{6E0CF4B8-225E-11D4-A150-00A0CC3303EC}
  0
XRECORD
  5
AA67A
102
{ACAD_REACTORS
330
AA677
102
}
100
AcDbXrecord
  1

  0
XRECORD
  5
AA680
102
{ACAD_REACTORS
330
AA677
102
}
100
AcDbXrecord
 90
        0
  0
XRECORD
  5
AA67C
102
{ACAD_REACTORS
330
AA677
102
}
100
AcDbXrecord
340
458FB
  0
XRECORD
  5
AA67F
102
{ACAD_REACTORS
330
AA677
102
}
100
AcDbXrecord
 90
    14877
  0
XRECORD
  5
AA67D
102
{ACAD_REACTORS
330
AA677
102
}
100
AcDbXrecord
340
458FC
  0
XRECORD
  5
AA67E
102
{ACAD_REACTORS
330
AA677
102
}
100
AcDbXrecord
340
458F9
  0
XRECORD
  5
AA684
102
{ACAD_REACTORS
330
AA677
102
}
100
AcDbXrecord
 40
0.0
  0
XRECORD
  5
AA688
102
{ACAD_REACTORS
330
AA677
102
}
100
AcDbXrecord
340
0
  0
XRECORD
  5
AA68E
102
{ACAD_REACTORS
330
AA677
102
}
100
AcDbXrecord
 10
0.0
 20
0.0
 30
0.0
  0
XRECORD
  5
AA68A
102
{ACAD_REACTORS
330
AA677
102
}
100
AcDbXrecord
 10
0.0
 20
0.0
 30
0.0
  0
XRECORD
  5
AA68D
102
{ACAD_REACTORS
330
AA677
102
}
100
AcDbXrecord
 10
0.0
 20
0.0
 30
0.0
  0
XRECORD
  5
AA68B
102
{ACAD_REACTORS
330
AA677
102
}
100
AcDbXrecord
 10
0.0
 20
0.0
 30
0.0
  0
XRECORD
  5
AA68C
102
{ACAD_REACTORS
330
AA677
102
}
100
AcDbXrecord
 10
0.0
 20
0.0
 30
0.0
  0
XRECORD
  5
AA689
102
{ACAD_REACTORS
330
AA677
102
}
100
AcDbXrecord
 10
0.0
 20
0.0
 30
0.0
  0
XRECORD
  5
AA686
102
{ACAD_REACTORS
330
AA677
102
}
100
AcDbXrecord
340
0
  0
XRECORD
  5
AA687
102
{ACAD_REACTORS
330
AA677
102
}
100
AcDbXrecord
 70
     0
  0
XRECORD
  5
AA67B
102
{ACAD_REACTORS
330
AA677
102
}
100
AcDbXrecord
  1

  0
XRECORD
  5
AA678
102
{ACAD_REACTORS
330
AA677
102
}
100
AcDbXrecord
 90
        1
  0
XRECORD
  5
AA679
102
{ACAD_REACTORS
330
AA677
102
}
100
AcDbXrecord
 90
       70
  0
XRECORD
  5
AA691
102
{ACAD_REACTORS
330
AA677
102
}
100
AcDbXrecord
340
0
  0
XRECORD
  5
AA697
102
{ACAD_REACTORS
330
AA677
102
}
100
AcDbXrecord
 10
0.0
 20
0.0
 30
0.0
  0
XRECORD
  5
AA693
102
{ACAD_REACTORS
330
AA677
102
}
100
AcDbXrecord
 10
0.0
 20
0.0
 30
0.0
  0
XRECORD
  5
AA696
102
{ACAD_REACTORS
330
AA677
102
}
100
AcDbXrecord
 10
0.0
 20
0.0
 30
0.0
  0
XRECORD
  5
AA694
102
{ACAD_REACTORS
330
AA677
102
}
100
AcDbXrecord
 10
0.0
 20
0.0
 30
0.0
  0
XRECORD
  5
AA695
102
{ACAD_REACTORS
330
AA677
102
}
100
AcDbXrecord
 10
0.0
 20
0.0
 30
0.0
  0
XRECORD
  5
AA692
102
{ACAD_REACTORS
330
AA677
102
}
100
AcDbXrecord
 10
0.0
 20
0.0
 30
0.0
  0
XRECORD
  5
AA68F
102
{ACAD_REACTORS
330
AA677
102
}
100
AcDbXrecord
340
0
  0
XRECORD
  5
AA690
102
{ACAD_REACTORS
330
AA677
102
}
100
AcDbXrecord
 70
     1
  0
XRECORD
  5
AA683
102
{ACAD_REACTORS
330
AA677
102
}
100
AcDbXrecord
  1
{3A71CAB7-B6F9-4524-A0A4-181F3E4E6BF4}
  0
DICTIONARYVAR
  5
458E2
102
{ACAD_REACTORS
330
458E1
102
}
100
DictionaryVariables
280
     0
  1
0
  0
XRECORD
  5
AA69D
102
{ACAD_REACTORS
330
AA69C
102
}
100
AcDbXrecord
102
EXTNAMES
  1
LAYOUT1
  2
Layout1
  1
MODEL
  2
Model
  0
ENDSEC
  0
EOF
