  0
SECTION
  2
HEADER
  9
$ACADVER
  1
AC1014
  9
$ACADMAINTVER
 70
     8
  9
$DWGCODEPAGE
  3
ANSI_1252
  9
$INSBASE
 10
0.0
 20
0.0
 30
0.0
  9
$EXTMIN
 10
-1.337892
 20
-1.119769
 30
-1.792269
  9
$EXTMAX
 10
1.495508
 20
1.4406
 30
0.222269
  9
$LIMMIN
 10
0.0
 20
0.0
  9
$LIMMAX
 10
12.0
 20
9.0
  9
$ORTHOMODE
 70
     0
  9
$REGENMODE
 70
     1
  9
$FILLMODE
 70
     1
  9
$QTEXTMODE
 70
     0
  9
$MIRRTEXT
 70
     1
  9
$DRAGMODE
 70
     2
  9
$LTSCALE
 40
1.0
  9
$OSMODE
 70
    23
  9
$ATTMODE
 70
     0
  9
$TEXTSIZE
 40
0.2
  9
$TRACEWID
 40
0.05
  9
$TEXTSTYLE
  7
STANDARD
  9
$CLAYER
  8
0
  9
$CELTYPE
  6
BYLAYER
  9
$CECOLOR
 62
   256
  9
$CELTSCALE
 40
1.0
  9
$DELOBJ
 70
     1
  9
$DISPSILH
 70
     0
  9
$DIMSCALE
 40
0.0
  9
$DIMASZ
 40
0.125
  9
$DIMEXO
 40
0.0625
  9
$DIMDLI
 40
0.375
  9
$DIMRND
 40
0.0
  9
$DIMDLE
 40
0.0
  9
$DIMEXE
 40
0.0625
  9
$DIMTP
 40
0.0
  9
$DIMTM
 40
0.0
  9
$DIMTXT
 40
0.125
  9
$DIMCEN
 40
0.09
  9
$DIMTSZ
 40
0.0
  9
$DIMTOL
 70
     0
  9
$DIMLIM
 70
     0
  9
$DIMTIH
 70
     0
  9
$DIMTOH
 70
     1
  9
$DIMSE1
 70
     0
  9
$DIMSE2
 70
     0
  9
$DIMTAD
 70
     0
  9
$DIMZIN
 70
     4
  9
$DIMBLK
  1

  9
$DIMASO
 70
     1
  9
$DIMSHO
 70
     1
  9
$DIMPOST
  1

  9
$DIMAPOST
  1

  9
$DIMALT
 70
     1
  9
$DIMALTD
 70
     2
  9
$DIMALTF
 40
25.4
  9
$DIMLFAC
 40
1.0
  9
$DIMTOFL
 70
     0
  9
$DIMTVP
 40
0.0
  9
$DIMTIX
 70
     0
  9
$DIMSOXD
 70
     0
  9
$DIMSAH
 70
     0
  9
$DIMBLK1
  1

  9
$DIMBLK2
  1

  9
$DIMSTYLE
  2
ABECAD_3V
  9
$DIMCLRD
 70
     0
  9
$DIMCLRE
 70
     0
  9
$DIMCLRT
 70
     0
  9
$DIMTFAC
 40
1.5
  9
$DIMGAP
 40
0.09
  9
$DIMJUST
 70
     0
  9
$DIMSD1
 70
     0
  9
$DIMSD2
 70
     0
  9
$DIMTOLJ
 70
     1
  9
$DIMTZIN
 70
     4
  9
$DIMALTZ
 70
     4
  9
$DIMALTTZ
 70
     4
  9
$DIMFIT
 70
     5
  9
$DIMUPT
 70
     1
  9
$DIMUNIT
 70
     7
  9
$DIMDEC
 70
     6
  9
$DIMTDEC
 70
     6
  9
$DIMALTU
 70
     2
  9
$DIMALTTD
 70
     2
  9
$DIMTXSTY
  7
STANDARD
  9
$DIMAUNIT
 70
     0
  9
$LUNITS
 70
     2
  9
$LUPREC
 70
     6
  9
$SKETCHINC
 40
0.1
  9
$FILLETRAD
 40
0.0
  9
$AUNITS
 70
     0
  9
$AUPREC
 70
     0
  9
$MENU
  1
acad
  9
$ELEVATION
 40
0.0
  9
$PELEVATION
 40
0.0
  9
$THICKNESS
 40
0.0
  9
$LIMCHECK
 70
     0
  9
$BLIPMODE
 70
     0
  9
$CHAMFERA
 40
0.0
  9
$CHAMFERB
 40
0.0
  9
$CHAMFERC
 40
0.0
  9
$CHAMFERD
 40
0.0
  9
$SKPOLY
 70
     0
  9
$TDCREATE
 40
2451726.438362384
  9
$TDUPDATE
 40
2452577.378433449
  9
$TDINDWG
 40
1.4390784722
  9
$TDUSRTIMER
 40
1.4390784722
  9
$USRTIMER
 70
     1
  9
$ANGBASE
 50
0.0
  9
$ANGDIR
 70
     0
  9
$PDMODE
 70
     3
  9
$PDSIZE
 40
0.18
  9
$PLINEWID
 40
0.0
  9
$COORDS
 70
     1
  9
$SPLFRAME
 70
     0
  9
$SPLINETYPE
 70
     6
  9
$SPLINESEGS
 70
     8
  9
$ATTDIA
 70
     0
  9
$ATTREQ
 70
     1
  9
$HANDLING
 70
     1
  9
$HANDSEED
  5
6E6E0
  9
$SURFTAB1
 70
     6
  9
$SURFTAB2
 70
     6
  9
$SURFTYPE
 70
     6
  9
$SURFU
 70
     6
  9
$SURFV
 70
     6
  9
$UCSNAME
  2

  9
$UCSORG
 10
0.0
 20
0.0
 30
0.0
  9
$UCSXDIR
 10
1.0
 20
0.0
 30
0.0
  9
$UCSYDIR
 10
0.0
 20
1.0
 30
0.0
  9
$PUCSNAME
  2

  9
$PUCSORG
 10
0.0
 20
0.0
 30
0.0
  9
$PUCSXDIR
 10
1.0
 20
0.0
 30
0.0
  9
$PUCSYDIR
 10
0.0
 20
1.0
 30
0.0
  9
$USERI1
 70
     0
  9
$USERI2
 70
     0
  9
$USERI3
 70
     0
  9
$USERI4
 70
     0
  9
$USERI5
 70
     0
  9
$USERR1
 40
0.0
  9
$USERR2
 40
0.0
  9
$USERR3
 40
0.0
  9
$USERR4
 40
0.0
  9
$USERR5
 40
0.0
  9
$WORLDVIEW
 70
     1
  9
$SHADEDGE
 70
     3
  9
$SHADEDIF
 70
    70
  9
$TILEMODE
 70
     0
  9
$MAXACTVP
 70
    16
  9
$PINSBASE
 10
0.0
 20
0.0
 30
0.0
  9
$PLIMCHECK
 70
     0
  9
$PEXTMIN
 10
0.0
 20
0.0
 30
0.0
  9
$PEXTMAX
 10
10.0
 20
7.5
 30
0.0
  9
$PLIMMIN
 10
-0.187029
 20
-0.186938
  9
$PLIMMAX
 10
10.187518
 20
7.829757
  9
$UNITMODE
 70
     0
  9
$VISRETAIN
 70
     0
  9
$PLINEGEN
 70
     0
  9
$PSLTSCALE
 70
     1
  9
$TREEDEPTH
 70
  3020
  9
$PICKSTYLE
 70
     1
  9
$CMLSTYLE
  2
STANDARD
  9
$CMLJUST
 70
     0
  9
$CMLSCALE
 40
1.0
  9
$PROXYGRAPHICS
 70
     1
  9
$MEASUREMENT
 70
     0
  0
ENDSEC
  0
SECTION
  2
CLASSES
  0
CLASS
  1
DICTIONARYVAR
  2
AcDbDictionaryVar
  3
"AutoCAD"
 90
        0
280
     0
281
     0
  0
CLASS
  1
ACDBDICTIONARYWDFLT
  2
AcDbDictionaryWithDefault
  3
AutoCAD 2000
 90
        0
280
     0
281
     0
  0
CLASS
  1
ACDBPLACEHOLDER
  2
AcDbPlaceHolder
  3
AutoCAD 2000
 90
        0
280
     0
281
     0
  0
CLASS
  1
LAYOUT
  2
AcDbLayout
  3
AutoCAD 2000
 90
        0
280
     0
281
     0
  0
CLASS
  1
LONG_TRANSACTION
  2
AcDbLongTransaction
  3
AutoCAD 2000
 90
        0
280
     0
281
     0
  0
CLASS
  1
LWPOLYLINE
  2
AcDbPolyline
  3
"AutoCAD"
 90
        0
280
     0
281
     1
  0
CLASS
  1
HATCH
  2
AcDbHatch
  3
"ACAD_SEDONA"
 90
        0
280
     0
281
     1
  0
CLASS
  1
XRECORD
  2
AcDbXrecord
  3
"<Built In>"
 90
        0
280
     0
281
     0
  0
CLASS
  1
LONG_TRANSACTION
  2
AcDbLongTransaction
  3
AutoCAD 2000
 90
        0
280
     0
281
     0
  0
CLASS
  1
LWPOLYLINE
  2
AcDbPolyline
  3
"AutoCAD"
 90
        0
280
     0
281
     1
  0
CLASS
  1
HATCH
  2
AcDbHatch
  3
"ACAD_SEDONA"
 90
        0
280
     0
281
     1
  0
CLASS
  1
XRECORD
  2
AcDbXrecord
  3
"<Built In>"
 90
        0
280
     0
281
     0
  0
CLASS
  1
LONG_TRANSACTION
  2
AcDbLongTransaction
  3
AutoCAD 2000
 90
        0
280
     0
281
     0
  0
CLASS
  1
LWPOLYLINE
  2
AcDbPolyline
  3
"AutoCAD"
 90
        0
280
     0
281
     1
  0
CLASS
  1
HATCH
  2
AcDbHatch
  3
"ACAD_SEDONA"
 90
        0
280
     0
281
     1
  0
CLASS
  1
XRECORD
  2
AcDbXrecord
  3
"<Built In>"
 90
        0
280
     0
281
     0
  0
CLASS
  1
LONG_TRANSACTION
  2
AcDbLongTransaction
  3
AutoCAD 2000
 90
        0
280
     0
281
     0
  0
CLASS
  1
LWPOLYLINE
  2
AcDbPolyline
  3
"AutoCAD"
 90
        0
280
     0
281
     1
  0
CLASS
  1
HATCH
  2
AcDbHatch
  3
"ACAD_SEDONA"
 90
        0
280
     0
281
     1
  0
CLASS
  1
XRECORD
  2
AcDbXrecord
  3
"<Built In>"
 90
        0
280
     0
281
     0
  0
CLASS
  1
LONG_TRANSACTION
  2
AcDbLongTransaction
  3
AutoCAD 2000
 90
        0
280
     0
281
     0
  0
CLASS
  1
LWPOLYLINE
  2
AcDbPolyline
  3
"AutoCAD"
 90
        0
280
     0
281
     1
  0
CLASS
  1
HATCH
  2
AcDbHatch
  3
"ACAD_SEDONA"
 90
        0
280
     0
281
     1
  0
CLASS
  1
XRECORD
  2
AcDbXrecord
  3
"<Built In>"
 90
        0
280
     0
281
     0
  0
CLASS
  1
LONG_TRANSACTION
  2
AcDbLongTransaction
  3
AutoCAD 2000
 90
        0
280
     0
281
     0
  0
CLASS
  1
LWPOLYLINE
  2
AcDbPolyline
  3
"AutoCAD"
 90
        0
280
     0
281
     1
  0
CLASS
  1
HATCH
  2
AcDbHatch
  3
"ACAD_SEDONA"
 90
        0
280
     0
281
     1
  0
CLASS
  1
XRECORD
  2
AcDbXrecord
  3
"<Built In>"
 90
        0
280
     0
281
     0
  0
CLASS
  1
LONG_TRANSACTION
  2
AcDbLongTransaction
  3
AutoCAD 2000
 90
        0
280
     0
281
     0
  0
CLASS
  1
LWPOLYLINE
  2
AcDbPolyline
  3
"AutoCAD"
 90
        0
280
     0
281
     1
  0
CLASS
  1
HATCH
  2
AcDbHatch
  3
"ACAD_SEDONA"
 90
        0
280
     0
281
     1
  0
CLASS
  1
XRECORD
  2
AcDbXrecord
  3
"<Built In>"
 90
        0
280
     0
281
     0
  0
CLASS
  1
LONG_TRANSACTION
  2
AcDbLongTransaction
  3
AutoCAD 2000
 90
        0
280
     0
281
     0
  0
CLASS
  1
LWPOLYLINE
  2
AcDbPolyline
  3
"AutoCAD"
 90
        0
280
     0
281
     1
  0
CLASS
  1
HATCH
  2
AcDbHatch
  3
"ACAD_SEDONA"
 90
        0
280
     0
281
     1
  0
CLASS
  1
XRECORD
  2
AcDbXrecord
  3
"<Built In>"
 90
        0
280
     0
281
     0
  0
CLASS
  1
LONG_TRANSACTION
  2
AcDbLongTransaction
  3
AutoCAD 2000
 90
        0
280
     0
281
     0
  0
CLASS
  1
LWPOLYLINE
  2
AcDbPolyline
  3
"AutoCAD"
 90
        0
280
     0
281
     1
  0
CLASS
  1
HATCH
  2
AcDbHatch
  3
"ACAD_SEDONA"
 90
        0
280
     0
281
     1
  0
CLASS
  1
XRECORD
  2
AcDbXrecord
  3
"<Built In>"
 90
        0
280
     0
281
     0
  0
CLASS
  1
LONG_TRANSACTION
  2
AcDbLongTransaction
  3
AutoCAD 2000
 90
        0
280
     0
281
     0
  0
CLASS
  1
LWPOLYLINE
  2
AcDbPolyline
  3
"AutoCAD"
 90
        0
280
     0
281
     1
  0
CLASS
  1
HATCH
  2
AcDbHatch
  3
"ACAD_SEDONA"
 90
        0
280
     0
281
     1
  0
CLASS
  1
XRECORD
  2
AcDbXrecord
  3
"<Built In>"
 90
        0
280
     0
281
     0
  0
CLASS
  1
LONG_TRANSACTION
  2
AcDbLongTransaction
  3
AutoCAD 2000
 90
        0
280
     0
281
     0
  0
CLASS
  1
LWPOLYLINE
  2
AcDbPolyline
  3
"AutoCAD"
 90
        0
280
     0
281
     1
  0
CLASS
  1
HATCH
  2
AcDbHatch
  3
"ACAD_SEDONA"
 90
        0
280
     0
281
     1
  0
CLASS
  1
XRECORD
  2
AcDbXrecord
  3
"<Built In>"
 90
        0
280
     0
281
     0
  0
CLASS
  1
LONG_TRANSACTION
  2
AcDbLongTransaction
  3
AutoCAD 2000
 90
        0
280
     0
281
     0
  0
CLASS
  1
LWPOLYLINE
  2
AcDbPolyline
  3
"AutoCAD"
 90
        0
280
     0
281
     1
  0
CLASS
  1
HATCH
  2
AcDbHatch
  3
"ACAD_SEDONA"
 90
        0
280
     0
281
     1
  0
CLASS
  1
XRECORD
  2
AcDbXrecord
  3
"<Built In>"
 90
        0
280
     0
281
     0
  0
CLASS
  1
LONG_TRANSACTION
  2
AcDbLongTransaction
  3
AutoCAD 2000
 90
        0
280
     0
281
     0
  0
CLASS
  1
LWPOLYLINE
  2
AcDbPolyline
  3
"AutoCAD"
 90
        0
280
     0
281
     1
  0
CLASS
  1
HATCH
  2
AcDbHatch
  3
"ACAD_SEDONA"
 90
        0
280
     0
281
     1
  0
CLASS
  1
XRECORD
  2
AcDbXrecord
  3
"<Built In>"
 90
        0
280
     0
281
     0
  0
CLASS
  1
LONG_TRANSACTION
  2
AcDbLongTransaction
  3
AutoCAD 2000
 90
        0
280
     0
281
     0
  0
CLASS
  1
LWPOLYLINE
  2
AcDbPolyline
  3
"AutoCAD"
 90
        0
280
     0
281
     1
  0
CLASS
  1
HATCH
  2
AcDbHatch
  3
"ACAD_SEDONA"
 90
        0
280
     0
281
     1
  0
CLASS
  1
XRECORD
  2
AcDbXrecord
  3
"<Built In>"
 90
        0
280
     0
281
     0
  0
CLASS
  1
LONG_TRANSACTION
  2
AcDbLongTransaction
  3
AutoCAD 2000
 90
        0
280
     0
281
     0
  0
CLASS
  1
LWPOLYLINE
  2
AcDbPolyline
  3
"AutoCAD"
 90
        0
280
     0
281
     1
  0
CLASS
  1
HATCH
  2
AcDbHatch
  3
"ACAD_SEDONA"
 90
        0
280
     0
281
     1
  0
CLASS
  1
XRECORD
  2
AcDbXrecord
  3
"<Built In>"
 90
        0
280
     0
281
     0
  0
CLASS
  1
LONG_TRANSACTION
  2
AcDbLongTransaction
  3
AutoCAD 2000
 90
        0
280
     0
281
     0
  0
CLASS
  1
LWPOLYLINE
  2
AcDbPolyline
  3
"AutoCAD"
 90
        0
280
     0
281
     1
  0
CLASS
  1
HATCH
  2
AcDbHatch
  3
"ACAD_SEDONA"
 90
        0
280
     0
281
     1
  0
CLASS
  1
XRECORD
  2
AcDbXrecord
  3
"<Built In>"
 90
        0
280
     0
281
     0
  0
CLASS
  1
LONG_TRANSACTION
  2
AcDbLongTransaction
  3
AutoCAD 2000
 90
        0
280
     0
281
     0
  0
CLASS
  1
LWPOLYLINE
  2
AcDbPolyline
  3
"AutoCAD"
 90
        0
280
     0
281
     1
  0
CLASS
  1
HATCH
  2
AcDbHatch
  3
"ACAD_SEDONA"
 90
        0
280
     0
281
     1
  0
CLASS
  1
XRECORD
  2
AcDbXrecord
  3
"<Built In>"
 90
        0
280
     0
281
     0
  0
CLASS
  1
LONG_TRANSACTION
  2
AcDbLongTransaction
  3
AutoCAD 2000
 90
        0
280
     0
281
     0
  0
CLASS
  1
LWPOLYLINE
  2
AcDbPolyline
  3
"AutoCAD"
 90
        0
280
     0
281
     1
  0
CLASS
  1
HATCH
  2
AcDbHatch
  3
"ACAD_SEDONA"
 90
        0
280
     0
281
     1
  0
CLASS
  1
XRECORD
  2
AcDbXrecord
  3
"<Built In>"
 90
        0
280
     0
281
     0
  0
CLASS
  1
LONG_TRANSACTION
  2
AcDbLongTransaction
  3
AutoCAD 2000
 90
        0
280
     0
281
     0
  0
CLASS
  1
LWPOLYLINE
  2
AcDbPolyline
  3
"AutoCAD"
 90
        0
280
     0
281
     1
  0
CLASS
  1
HATCH
  2
AcDbHatch
  3
"ACAD_SEDONA"
 90
        0
280
     0
281
     1
  0
CLASS
  1
XRECORD
  2
AcDbXrecord
  3
"<Built In>"
 90
        0
280
     0
281
     0
  0
CLASS
  1
LONG_TRANSACTION
  2
AcDbLongTransaction
  3
AutoCAD 2000
 90
        0
280
     0
281
     0
  0
CLASS
  1
LWPOLYLINE
  2
AcDbPolyline
  3
"AutoCAD"
 90
        0
280
     0
281
     1
  0
CLASS
  1
HATCH
  2
AcDbHatch
  3
"ACAD_SEDONA"
 90
        0
280
     0
281
     1
  0
CLASS
  1
XRECORD
  2
AcDbXrecord
  3
"<Built In>"
 90
        0
280
     0
281
     0
  0
CLASS
  1
LONG_TRANSACTION
  2
AcDbLongTransaction
  3
AutoCAD 2000
 90
        0
280
     0
281
     0
  0
CLASS
  1
LWPOLYLINE
  2
AcDbPolyline
  3
"AutoCAD"
 90
        0
280
     0
281
     1
  0
CLASS
  1
HATCH
  2
AcDbHatch
  3
"ACAD_SEDONA"
 90
        0
280
     0
281
     1
  0
CLASS
  1
XRECORD
  2
AcDbXrecord
  3
"<Built In>"
 90
        0
280
     0
281
     0
  0
CLASS
  1
LONG_TRANSACTION
  2
AcDbLongTransaction
  3
AutoCAD 2000
 90
        0
280
     0
281
     0
  0
CLASS
  1
LWPOLYLINE
  2
AcDbPolyline
  3
"AutoCAD"
 90
        0
280
     0
281
     1
  0
CLASS
  1
HATCH
  2
AcDbHatch
  3
"ACAD_SEDONA"
 90
        0
280
     0
281
     1
  0
CLASS
  1
XRECORD
  2
AcDbXrecord
  3
"<Built In>"
 90
        0
280
     0
281
     0
  0
CLASS
  1
LONG_TRANSACTION
  2
AcDbLongTransaction
  3
AutoCAD 2000
 90
        0
280
     0
281
     0
  0
CLASS
  1
LWPOLYLINE
  2
AcDbPolyline
  3
"AutoCAD"
 90
        0
280
     0
281
     1
  0
CLASS
  1
HATCH
  2
AcDbHatch
  3
"ACAD_SEDONA"
 90
        0
280
     0
281
     1
  0
CLASS
  1
XRECORD
  2
AcDbXrecord
  3
"<Built In>"
 90
        0
280
     0
281
     0
  0
CLASS
  1
LONG_TRANSACTION
  2
AcDbLongTransaction
  3
AutoCAD 2000
 90
        0
280
     0
281
     0
  0
CLASS
  1
LWPOLYLINE
  2
AcDbPolyline
  3
"AutoCAD"
 90
        0
280
     0
281
     1
  0
CLASS
  1
HATCH
  2
AcDbHatch
  3
"ACAD_SEDONA"
 90
        0
280
     0
281
     1
  0
CLASS
  1
XRECORD
  2
AcDbXrecord
  3
"<Built In>"
 90
        0
280
     0
281
     0
  0
CLASS
  1
LONG_TRANSACTION
  2
AcDbLongTransaction
  3
AutoCAD 2000
 90
        0
280
     0
281
     0
  0
CLASS
  1
LWPOLYLINE
  2
AcDbPolyline
  3
"AutoCAD"
 90
        0
280
     0
281
     1
  0
CLASS
  1
HATCH
  2
AcDbHatch
  3
"ACAD_SEDONA"
 90
        0
280
     0
281
     1
  0
CLASS
  1
XRECORD
  2
AcDbXrecord
  3
"<Built In>"
 90
        0
280
     0
281
     0
  0
CLASS
  1
LONG_TRANSACTION
  2
AcDbLongTransaction
  3
AutoCAD 2000
 90
        0
280
     0
281
     0
  0
CLASS
  1
LWPOLYLINE
  2
AcDbPolyline
  3
"AutoCAD"
 90
        0
280
     0
281
     1
  0
CLASS
  1
HATCH
  2
AcDbHatch
  3
"ACAD_SEDONA"
 90
        0
280
     0
281
     1
  0
CLASS
  1
XRECORD
  2
AcDbXrecord
  3
"<Built In>"
 90
        0
280
     0
281
     0
  0
CLASS
  1
LONG_TRANSACTION
  2
AcDbLongTransaction
  3
AutoCAD 2000
 90
        0
280
     0
281
     0
  0
CLASS
  1
LWPOLYLINE
  2
AcDbPolyline
  3
"AutoCAD"
 90
        0
280
     0
281
     1
  0
CLASS
  1
HATCH
  2
AcDbHatch
  3
"ACAD_SEDONA"
 90
        0
280
     0
281
     1
  0
CLASS
  1
XRECORD
  2
AcDbXrecord
  3
"<Built In>"
 90
        0
280
     0
281
     0
  0
CLASS
  1
LONG_TRANSACTION
  2
AcDbLongTransaction
  3
AutoCAD 2000
 90
        0
280
     0
281
     0
  0
CLASS
  1
LWPOLYLINE
  2
AcDbPolyline
  3
"AutoCAD"
 90
        0
280
     0
281
     1
  0
CLASS
  1
HATCH
  2
AcDbHatch
  3
"ACAD_SEDONA"
 90
        0
280
     0
281
     1
  0
CLASS
  1
XRECORD
  2
AcDbXrecord
  3
"<Built In>"
 90
        0
280
     0
281
     0
  0
CLASS
  1
LONG_TRANSACTION
  2
AcDbLongTransaction
  3
AutoCAD 2000
 90
        0
280
     0
281
     0
  0
CLASS
  1
LWPOLYLINE
  2
AcDbPolyline
  3
"AutoCAD"
 90
        0
280
     0
281
     1
  0
CLASS
  1
HATCH
  2
AcDbHatch
  3
"ACAD_SEDONA"
 90
        0
280
     0
281
     1
  0
CLASS
  1
XRECORD
  2
AcDbXrecord
  3
"<Built In>"
 90
        0
280
     0
281
     0
  0
CLASS
  1
LONG_TRANSACTION
  2
AcDbLongTransaction
  3
AutoCAD 2000
 90
        0
280
     0
281
     0
  0
CLASS
  1
LWPOLYLINE
  2
AcDbPolyline
  3
"AutoCAD"
 90
        0
280
     0
281
     1
  0
CLASS
  1
HATCH
  2
AcDbHatch
  3
"ACAD_SEDONA"
 90
        0
280
     0
281
     1
  0
CLASS
  1
XRECORD
  2
AcDbXrecord
  3
"<Built In>"
 90
        0
280
     0
281
     0
  0
CLASS
  1
LONG_TRANSACTION
  2
AcDbLongTransaction
  3
AutoCAD 2000
 90
        0
280
     0
281
     0
  0
CLASS
  1
LWPOLYLINE
  2
AcDbPolyline
  3
"AutoCAD"
 90
        0
280
     0
281
     1
  0
CLASS
  1
HATCH
  2
AcDbHatch
  3
"ACAD_SEDONA"
 90
        0
280
     0
281
     1
  0
CLASS
  1
XRECORD
  2
AcDbXrecord
  3
"<Built In>"
 90
        0
280
     0
281
     0
  0
CLASS
  1
LONG_TRANSACTION
  2
AcDbLongTransaction
  3
AutoCAD 2000
 90
        0
280
     0
281
     0
  0
CLASS
  1
LWPOLYLINE
  2
AcDbPolyline
  3
"AutoCAD"
 90
        0
280
     0
281
     1
  0
CLASS
  1
HATCH
  2
AcDbHatch
  3
"ACAD_SEDONA"
 90
        0
280
     0
281
     1
  0
CLASS
  1
XRECORD
  2
AcDbXrecord
  3
"<Built In>"
 90
        0
280
     0
281
     0
  0
CLASS
  1
LONG_TRANSACTION
  2
AcDbLongTransaction
  3
AutoCAD 2000
 90
        0
280
     0
281
     0
  0
CLASS
  1
LWPOLYLINE
  2
AcDbPolyline
  3
"AutoCAD"
 90
        0
280
     0
281
     1
  0
CLASS
  1
HATCH
  2
AcDbHatch
  3
"ACAD_SEDONA"
 90
        0
280
     0
281
     1
  0
CLASS
  1
XRECORD
  2
AcDbXrecord
  3
"<Built In>"
 90
        0
280
     0
281
     0
  0
CLASS
  1
LONG_TRANSACTION
  2
AcDbLongTransaction
  3
AutoCAD 2000
 90
        0
280
     0
281
     0
  0
CLASS
  1
LWPOLYLINE
  2
AcDbPolyline
  3
"AutoCAD"
 90
        0
280
     0
281
     1
  0
CLASS
  1
HATCH
  2
AcDbHatch
  3
"ACAD_SEDONA"
 90
        0
280
     0
281
     1
  0
CLASS
  1
XRECORD
  2
AcDbXrecord
  3
"<Built In>"
 90
        0
280
     0
281
     0
  0
CLASS
  1
LONG_TRANSACTION
  2
AcDbLongTransaction
  3
AutoCAD 2000
 90
        0
280
     0
281
     0
  0
CLASS
  1
LWPOLYLINE
  2
AcDbPolyline
  3
"AutoCAD"
 90
        0
280
     0
281
     1
  0
CLASS
  1
HATCH
  2
AcDbHatch
  3
"ACAD_SEDONA"
 90
        0
280
     0
281
     1
  0
CLASS
  1
XRECORD
  2
AcDbXrecord
  3
"<Built In>"
 90
        0
280
     0
281
     0
  0
CLASS
  1
LONG_TRANSACTION
  2
AcDbLongTransaction
  3
AutoCAD 2000
 90
        0
280
     0
281
     0
  0
CLASS
  1
LWPOLYLINE
  2
AcDbPolyline
  3
"AutoCAD"
 90
        0
280
     0
281
     1
  0
CLASS
  1
HATCH
  2
AcDbHatch
  3
"ACAD_SEDONA"
 90
        0
280
     0
281
     1
  0
CLASS
  1
XRECORD
  2
AcDbXrecord
  3
"<Built In>"
 90
        0
280
     0
281
     0
  0
CLASS
  1
LONG_TRANSACTION
  2
AcDbLongTransaction
  3
AutoCAD 2000
 90
        0
280
     0
281
     0
  0
CLASS
  1
LWPOLYLINE
  2
AcDbPolyline
  3
"AutoCAD"
 90
        0
280
     0
281
     1
  0
CLASS
  1
HATCH
  2
AcDbHatch
  3
"ACAD_SEDONA"
 90
        0
280
     0
281
     1
  0
CLASS
  1
XRECORD
  2
AcDbXrecord
  3
"<Built In>"
 90
        0
280
     0
281
     0
  0
CLASS
  1
LONG_TRANSACTION
  2
AcDbLongTransaction
  3
AutoCAD 2000
 90
        0
280
     0
281
     0
  0
CLASS
  1
LWPOLYLINE
  2
AcDbPolyline
  3
"AutoCAD"
 90
        0
280
     0
281
     1
  0
CLASS
  1
HATCH
  2
AcDbHatch
  3
"ACAD_SEDONA"
 90
        0
280
     0
281
     1
  0
CLASS
  1
XRECORD
  2
AcDbXrecord
  3
"<Built In>"
 90
        0
280
     0
281
     0
  0
CLASS
  1
LONG_TRANSACTION
  2
AcDbLongTransaction
  3
AutoCAD 2000
 90
        0
280
     0
281
     0
  0
CLASS
  1
LWPOLYLINE
  2
AcDbPolyline
  3
"AutoCAD"
 90
        0
280
     0
281
     1
  0
CLASS
  1
HATCH
  2
AcDbHatch
  3
"ACAD_SEDONA"
 90
        0
280
     0
281
     1
  0
CLASS
  1
XRECORD
  2
AcDbXrecord
  3
"<Built In>"
 90
        0
280
     0
281
     0
  0
CLASS
  1
LONG_TRANSACTION
  2
AcDbLongTransaction
  3
AutoCAD 2000
 90
        0
280
     0
281
     0
  0
CLASS
  1
LWPOLYLINE
  2
AcDbPolyline
  3
"AutoCAD"
 90
        0
280
     0
281
     1
  0
CLASS
  1
HATCH
  2
AcDbHatch
  3
"ACAD_SEDONA"
 90
        0
280
     0
281
     1
  0
CLASS
  1
XRECORD
  2
AcDbXrecord
  3
"<Built In>"
 90
        0
280
     0
281
     0
  0
CLASS
  1
LONG_TRANSACTION
  2
AcDbLongTransaction
  3
AutoCAD 2000
 90
        0
280
     0
281
     0
  0
CLASS
  1
LWPOLYLINE
  2
AcDbPolyline
  3
"AutoCAD"
 90
        0
280
     0
281
     1
  0
CLASS
  1
HATCH
  2
AcDbHatch
  3
"ACAD_SEDONA"
 90
        0
280
     0
281
     1
  0
CLASS
  1
XRECORD
  2
AcDbXrecord
  3
"<Built In>"
 90
        0
280
     0
281
     0
  0
CLASS
  1
LONG_TRANSACTION
  2
AcDbLongTransaction
  3
AutoCAD 2000
 90
        0
280
     0
281
     0
  0
CLASS
  1
LWPOLYLINE
  2
AcDbPolyline
  3
"AutoCAD"
 90
        0
280
     0
281
     1
  0
CLASS
  1
HATCH
  2
AcDbHatch
  3
"ACAD_SEDONA"
 90
        0
280
     0
281
     1
  0
CLASS
  1
XRECORD
  2
AcDbXrecord
  3
"<Built In>"
 90
        0
280
     0
281
     0
  0
CLASS
  1
LONG_TRANSACTION
  2
AcDbLongTransaction
  3
AutoCAD 2000
 90
        0
280
     0
281
     0
  0
CLASS
  1
LWPOLYLINE
  2
AcDbPolyline
  3
"AutoCAD"
 90
        0
280
     0
281
     1
  0
CLASS
  1
HATCH
  2
AcDbHatch
  3
"ACAD_SEDONA"
 90
        0
280
     0
281
     1
  0
CLASS
  1
XRECORD
  2
AcDbXrecord
  3
"<Built In>"
 90
        0
280
     0
281
     0
  0
CLASS
  1
LONG_TRANSACTION
  2
AcDbLongTransaction
  3
AutoCAD 2000
 90
        0
280
     0
281
     0
  0
CLASS
  1
LWPOLYLINE
  2
AcDbPolyline
  3
"AutoCAD"
 90
        0
280
     0
281
     1
  0
CLASS
  1
HATCH
  2
AcDbHatch
  3
"ACAD_SEDONA"
 90
        0
280
     0
281
     1
  0
CLASS
  1
XRECORD
  2
AcDbXrecord
  3
"<Built In>"
 90
        0
280
     0
281
     0
  0
CLASS
  1
LONG_TRANSACTION
  2
AcDbLongTransaction
  3
AutoCAD 2000
 90
        0
280
     0
281
     0
  0
CLASS
  1
LWPOLYLINE
  2
AcDbPolyline
  3
"AutoCAD"
 90
        0
280
     0
281
     1
  0
CLASS
  1
HATCH
  2
AcDbHatch
  3
"ACAD_SEDONA"
 90
        0
280
     0
281
     1
  0
CLASS
  1
XRECORD
  2
AcDbXrecord
  3
"<Built In>"
 90
        0
280
     0
281
     0
  0
CLASS
  1
LONG_TRANSACTION
  2
AcDbLongTransaction
  3
AutoCAD 2000
 90
        0
280
     0
281
     0
  0
CLASS
  1
LWPOLYLINE
  2
AcDbPolyline
  3
"AutoCAD"
 90
        0
280
     0
281
     1
  0
CLASS
  1
HATCH
  2
AcDbHatch
  3
"ACAD_SEDONA"
 90
        0
280
     0
281
     1
  0
CLASS
  1
XRECORD
  2
AcDbXrecord
  3
"<Built In>"
 90
        0
280
     0
281
     0
  0
CLASS
  1
LONG_TRANSACTION
  2
AcDbLongTransaction
  3
AutoCAD 2000
 90
        0
280
     0
281
     0
  0
CLASS
  1
LWPOLYLINE
  2
AcDbPolyline
  3
"AutoCAD"
 90
        0
280
     0
281
     1
  0
CLASS
  1
HATCH
  2
AcDbHatch
  3
"ACAD_SEDONA"
 90
        0
280
     0
281
     1
  0
CLASS
  1
XRECORD
  2
AcDbXrecord
  3
"<Built In>"
 90
        0
280
     0
281
     0
  0
CLASS
  1
LONG_TRANSACTION
  2
AcDbLongTransaction
  3
AutoCAD 2000
 90
        0
280
     0
281
     0
  0
CLASS
  1
LWPOLYLINE
  2
AcDbPolyline
  3
"AutoCAD"
 90
        0
280
     0
281
     1
  0
CLASS
  1
HATCH
  2
AcDbHatch
  3
"ACAD_SEDONA"
 90
        0
280
     0
281
     1
  0
CLASS
  1
XRECORD
  2
AcDbXrecord
  3
"<Built In>"
 90
        0
280
     0
281
     0
  0
CLASS
  1
LONG_TRANSACTION
  2
AcDbLongTransaction
  3
AutoCAD 2000
 90
        0
280
     0
281
     0
  0
CLASS
  1
LWPOLYLINE
  2
AcDbPolyline
  3
"AutoCAD"
 90
        0
280
     0
281
     1
  0
CLASS
  1
HATCH
  2
AcDbHatch
  3
"ACAD_SEDONA"
 90
        0
280
     0
281
     1
  0
CLASS
  1
XRECORD
  2
AcDbXrecord
  3
"<Built In>"
 90
        0
280
     0
281
     0
  0
CLASS
  1
LONG_TRANSACTION
  2
AcDbLongTransaction
  3
AutoCAD 2000
 90
        0
280
     0
281
     0
  0
CLASS
  1
LWPOLYLINE
  2
AcDbPolyline
  3
"AutoCAD"
 90
        0
280
     0
281
     1
  0
CLASS
  1
HATCH
  2
AcDbHatch
  3
"ACAD_SEDONA"
 90
        0
280
     0
281
     1
  0
CLASS
  1
XRECORD
  2
AcDbXrecord
  3
"<Built In>"
 90
        0
280
     0
281
     0
  0
CLASS
  1
LONG_TRANSACTION
  2
AcDbLongTransaction
  3
AutoCAD 2000
 90
        0
280
     0
281
     0
  0
CLASS
  1
LWPOLYLINE
  2
AcDbPolyline
  3
"AutoCAD"
 90
        0
280
     0
281
     1
  0
CLASS
  1
HATCH
  2
AcDbHatch
  3
"ACAD_SEDONA"
 90
        0
280
     0
281
     1
  0
CLASS
  1
XRECORD
  2
AcDbXrecord
  3
"<Built In>"
 90
        0
280
     0
281
     0
  0
CLASS
  1
LONG_TRANSACTION
  2
AcDbLongTransaction
  3
AutoCAD 2000
 90
        0
280
     0
281
     0
  0
CLASS
  1
LWPOLYLINE
  2
AcDbPolyline
  3
"AutoCAD"
 90
        0
280
     0
281
     1
  0
CLASS
  1
HATCH
  2
AcDbHatch
  3
"ACAD_SEDONA"
 90
        0
280
     0
281
     1
  0
CLASS
  1
XRECORD
  2
AcDbXrecord
  3
"<Built In>"
 90
        0
280
     0
281
     0
  0
CLASS
  1
LONG_TRANSACTION
  2
AcDbLongTransaction
  3
AutoCAD 2000
 90
        0
280
     0
281
     0
  0
CLASS
  1
LWPOLYLINE
  2
AcDbPolyline
  3
"AutoCAD"
 90
        0
280
     0
281
     1
  0
CLASS
  1
HATCH
  2
AcDbHatch
  3
"ACAD_SEDONA"
 90
        0
280
     0
281
     1
  0
CLASS
  1
XRECORD
  2
AcDbXrecord
  3
"<Built In>"
 90
        0
280
     0
281
     0
  0
CLASS
  1
LONG_TRANSACTION
  2
AcDbLongTransaction
  3
AutoCAD 2000
 90
        0
280
     0
281
     0
  0
CLASS
  1
LWPOLYLINE
  2
AcDbPolyline
  3
"AutoCAD"
 90
        0
280
     0
281
     1
  0
CLASS
  1
HATCH
  2
AcDbHatch
  3
"ACAD_SEDONA"
 90
        0
280
     0
281
     1
  0
CLASS
  1
XRECORD
  2
AcDbXrecord
  3
"<Built In>"
 90
        0
280
     0
281
     0
  0
CLASS
  1
LONG_TRANSACTION
  2
AcDbLongTransaction
  3
AutoCAD 2000
 90
        0
280
     0
281
     0
  0
CLASS
  1
LWPOLYLINE
  2
AcDbPolyline
  3
"AutoCAD"
 90
        0
280
     0
281
     1
  0
CLASS
  1
HATCH
  2
AcDbHatch
  3
"ACAD_SEDONA"
 90
        0
280
     0
281
     1
  0
CLASS
  1
XRECORD
  2
AcDbXrecord
  3
"<Built In>"
 90
        0
280
     0
281
     0
  0
CLASS
  1
LONG_TRANSACTION
  2
AcDbLongTransaction
  3
AutoCAD 2000
 90
        0
280
     0
281
     0
  0
CLASS
  1
LWPOLYLINE
  2
AcDbPolyline
  3
"AutoCAD"
 90
        0
280
     0
281
     1
  0
CLASS
  1
HATCH
  2
AcDbHatch
  3
"ACAD_SEDONA"
 90
        0
280
     0
281
     1
  0
CLASS
  1
XRECORD
  2
AcDbXrecord
  3
"<Built In>"
 90
        0
280
     0
281
     0
  0
CLASS
  1
LONG_TRANSACTION
  2
AcDbLongTransaction
  3
AutoCAD 2000
 90
        0
280
     0
281
     0
  0
CLASS
  1
LWPOLYLINE
  2
AcDbPolyline
  3
"AutoCAD"
 90
        0
280
     0
281
     1
  0
CLASS
  1
HATCH
  2
AcDbHatch
  3
"ACAD_SEDONA"
 90
        0
280
     0
281
     1
  0
CLASS
  1
XRECORD
  2
AcDbXrecord
  3
"<Built In>"
 90
        0
280
     0
281
     0
  0
CLASS
  1
LONG_TRANSACTION
  2
AcDbLongTransaction
  3
AutoCAD 2000
 90
        0
280
     0
281
     0
  0
CLASS
  1
LWPOLYLINE
  2
AcDbPolyline
  3
"AutoCAD"
 90
        0
280
     0
281
     1
  0
CLASS
  1
HATCH
  2
AcDbHatch
  3
"ACAD_SEDONA"
 90
        0
280
     0
281
     1
  0
CLASS
  1
XRECORD
  2
AcDbXrecord
  3
"<Built In>"
 90
        0
280
     0
281
     0
  0
CLASS
  1
LONG_TRANSACTION
  2
AcDbLongTransaction
  3
AutoCAD 2000
 90
        0
280
     0
281
     0
  0
CLASS
  1
LWPOLYLINE
  2
AcDbPolyline
  3
"AutoCAD"
 90
        0
280
     0
281
     1
  0
CLASS
  1
HATCH
  2
AcDbHatch
  3
"ACAD_SEDONA"
 90
        0
280
     0
281
     1
  0
CLASS
  1
XRECORD
  2
AcDbXrecord
  3
"<Built In>"
 90
        0
280
     0
281
     0
  0
CLASS
  1
LONG_TRANSACTION
  2
AcDbLongTransaction
  3
AutoCAD 2000
 90
        0
280
     0
281
     0
  0
CLASS
  1
LWPOLYLINE
  2
AcDbPolyline
  3
"AutoCAD"
 90
        0
280
     0
281
     1
  0
CLASS
  1
HATCH
  2
AcDbHatch
  3
"ACAD_SEDONA"
 90
        0
280
     0
281
     1
  0
CLASS
  1
XRECORD
  2
AcDbXrecord
  3
"<Built In>"
 90
        0
280
     0
281
     0
  0
CLASS
  1
LONG_TRANSACTION
  2
AcDbLongTransaction
  3
AutoCAD 2000
 90
        0
280
     0
281
     0
  0
CLASS
  1
LWPOLYLINE
  2
AcDbPolyline
  3
"AutoCAD"
 90
        0
280
     0
281
     1
  0
CLASS
  1
HATCH
  2
AcDbHatch
  3
"ACAD_SEDONA"
 90
        0
280
     0
281
     1
  0
CLASS
  1
XRECORD
  2
AcDbXrecord
  3
"<Built In>"
 90
        0
280
     0
281
     0
  0
CLASS
  1
LONG_TRANSACTION
  2
AcDbLongTransaction
  3
AutoCAD 2000
 90
        0
280
     0
281
     0
  0
CLASS
  1
LWPOLYLINE
  2
AcDbPolyline
  3
"AutoCAD"
 90
        0
280
     0
281
     1
  0
CLASS
  1
HATCH
  2
AcDbHatch
  3
"ACAD_SEDONA"
 90
        0
280
     0
281
     1
  0
CLASS
  1
XRECORD
  2
AcDbXrecord
  3
"<Built In>"
 90
        0
280
     0
281
     0
  0
CLASS
  1
LONG_TRANSACTION
  2
AcDbLongTransaction
  3
AutoCAD 2000
 90
        0
280
     0
281
     0
  0
CLASS
  1
LWPOLYLINE
  2
AcDbPolyline
  3
"AutoCAD"
 90
        0
280
     0
281
     1
  0
CLASS
  1
HATCH
  2
AcDbHatch
  3
"ACAD_SEDONA"
 90
        0
280
     0
281
     1
  0
CLASS
  1
XRECORD
  2
AcDbXrecord
  3
"<Built In>"
 90
        0
280
     0
281
     0
  0
CLASS
  1
LONG_TRANSACTION
  2
AcDbLongTransaction
  3
AutoCAD 2000
 90
        0
280
     0
281
     0
  0
CLASS
  1
LWPOLYLINE
  2
AcDbPolyline
  3
"AutoCAD"
 90
        0
280
     0
281
     1
  0
CLASS
  1
HATCH
  2
AcDbHatch
  3
"ACAD_SEDONA"
 90
        0
280
     0
281
     1
  0
CLASS
  1
XRECORD
  2
AcDbXrecord
  3
"<Built In>"
 90
        0
280
     0
281
     0
  0
ENDSEC
  0
SECTION
  2
TABLES
  0
TABLE
  2
VPORT
  5
469
100
AcDbSymbolTable
 70
     1
  0
VPORT
  5
6E299
102
{ACAD_XDICTIONARY
360
6E6A8
102
}
100
AcDbSymbolTableRecord
100
AcDbViewportTableRecord
  2
*ACTIVE
 70
     0
 10
0.0
 20
0.0
 11
1.0
 21
1.0
 12
-0.631684
 22
6.302891
 13
0.0
 23
0.0
 14
1.0
 24
1.0
 15
0.0
 25
0.0
 16
0.0
 26
0.0
 36
1.0
 17
0.648805
 27
-6.132183
 37
2.586733
 40
2.637159
 41
1.786496
 42
50.0
 43
0.0
 44
0.0
 50
0.0
 51
0.0
 71
     0
 72
   100
 73
     1
 74
     1
 75
     0
 76
     0
 77
     0
 78
     0
  0
ENDTAB
  0
TABLE
  2
LTYPE
  5
466
100
AcDbSymbolTable
 70
     1
  0
LTYPE
  5
472
100
AcDbSymbolTableRecord
100
AcDbLinetypeTableRecord
  2
BYBLOCK
 70
     0
  3

 72
    65
 73
     0
 40
0.0
  0
LTYPE
  5
473
100
AcDbSymbolTableRecord
100
AcDbLinetypeTableRecord
  2
BYLAYER
 70
     0
  3

 72
    65
 73
     0
 40
0.0
  0
LTYPE
  5
474
100
AcDbSymbolTableRecord
100
AcDbLinetypeTableRecord
  2
CONTINUOUS
 70
     0
  3
Solid line
 72
    65
 73
     0
 40
0.0
  0
ENDTAB
  0
TABLE
  2
LAYER
  5
463
100
AcDbSymbolTable
 70
     8
  0
LAYER
  5
46F
100
AcDbSymbolTableRecord
100
AcDbLayerTableRecord
  2
0
 70
     0
 62
     7
  6
CONTINUOUS
  0
LAYER
  5
485
100
AcDbSymbolTableRecord
100
AcDbLayerTableRecord
  2
AREA1
 70
     0
 62
     7
  6
CONTINUOUS
  0
LAYER
  5
486
100
AcDbSymbolTableRecord
100
AcDbLayerTableRecord
  2
AREA2
 70
     0
 62
     7
  6
CONTINUOUS
  0
LAYER
  5
494
102
{ACAD_XDICTIONARY
360
6E6D5
102
}
100
AcDbSymbolTableRecord
100
AcDbLayerTableRecord
  2
DEFPOINTS
 70
     0
 62
    -7
  6
CONTINUOUS
  0
LAYER
  5
495
100
AcDbSymbolTableRecord
100
AcDbLayerTableRecord
  2
DIMS-MTG-HOLES
 70
     0
 62
    -1
  6
CONTINUOUS
  0
LAYER
  5
4E6
100
AcDbSymbolTableRecord
100
AcDbLayerTableRecord
  2
SCALE
 70
     0
 62
    -7
  6
CONTINUOUS
  0
LAYER
  5
4ED
100
AcDbSymbolTableRecord
100
AcDbLayerTableRecord
  2
SNAP_POINTS
 70
     0
 62
    -1
  6
CONTINUOUS
  0
LAYER
  5
4F1
100
AcDbSymbolTableRecord
100
AcDbLayerTableRecord
  2
ATTRIBUTES
 70
     0
 62
    -7
  6
CONTINUOUS
  0
ENDTAB
  0
TABLE
  2
STYLE
  5
464
100
AcDbSymbolTable
 70
     1
  0
STYLE
  5
470
100
AcDbSymbolTableRecord
100
AcDbTextStyleTableRecord
  2
STANDARD
 70
     0
 40
0.0
 41
1.0
 50
0.0
 71
     0
 42
0.2
  3
txt
  4

  0
ENDTAB
  0
TABLE
  2
VIEW
  5
467
100
AcDbSymbolTable
 70
     0
  0
ENDTAB
  0
TABLE
  2
UCS
  5
468
100
AcDbSymbolTable
 70
     0
  0
ENDTAB
  0
TABLE
  2
APPID
  5
46A
100
AcDbSymbolTable
 70
     2
  0
APPID
  5
471
100
AcDbSymbolTableRecord
100
AcDbRegAppTableRecord
  2
ACAD
 70
     0
  0
APPID
  5
47E
100
AcDbSymbolTableRecord
100
AcDbRegAppTableRecord
  2
AVE_RENDER
 70
     0
  0
ENDTAB
  0
TABLE
  2
DIMSTYLE
  5
46B
100
AcDbSymbolTable
 70
     2
  0
DIMSTYLE
105
49A
102
{ACAD_XDICTIONARY
360
6E6D7
102
}
102
{ACAD_REACTORS
330
6E28C
330
6E256
330
6E255
102
}
100
AcDbSymbolTableRecord
100
AcDbDimStyleTableRecord
  2
ABECAD_3V
 70
     0
  3

  4

  5

  6

  7

 40
0.0
 41
0.125
 42
0.0625
 43
0.375
 44
0.0625
 45
0.0
 46
0.0
 47
0.0
 48
0.0
140
0.125
141
0.09
142
0.0
143
25.4
144
1.0
145
0.0
146
1.5
147
0.09
 71
     0
 72
     0
 73
     0
 74
     1
 75
     0
 76
     0
 77
     0
 78
     4
170
     1
171
     2
172
     0
173
     0
174
     0
175
     0
176
     0
177
     0
178
     0
270
     7
271
     6
272
     6
273
     2
274
     2
340
470
275
     0
280
     0
281
     0
282
     0
283
     1
284
     4
285
     4
286
     4
287
     5
288
     1
  0
DIMSTYLE
105
512
102
{ACAD_XDICTIONARY
360
6E6DB
102
}
100
AcDbSymbolTableRecord
100
AcDbDimStyleTableRecord
  2
ABECAD_3D
 70
     0
  3

  4

  5

  6

  7

 40
1.0
 41
0.18
 42
0.0625
 43
0.375
 44
0.18
 45
0.0
 46
0.0
 47
0.0
 48
0.0
140
0.18
141
0.09
142
0.0
143
25.4
144
1.0
145
0.0
146
1.5
147
0.09
 71
     0
 72
     0
 73
     0
 74
     1
 75
     0
 76
     0
 77
     0
 78
     4
170
     1
171
     2
172
     0
173
     0
174
     0
175
     0
176
     0
177
     0
178
     0
270
     7
271
     6
272
     6
273
     2
274
     2
340
470
275
     0
280
     0
281
     0
282
     0
283
     1
284
     4
285
     4
286
     4
287
     5
288
     1
  0
ENDTAB
  0
TABLE
  2
BLOCK_RECORD
  5
462
100
AcDbSymbolTable
 70
     3
  0
BLOCK_RECORD
  5
478
102
{ACAD_XDICTIONARY
360
4D2
102
}
100
AcDbSymbolTableRecord
100
AcDbBlockTableRecord
  2
*MODEL_SPACE
  0
BLOCK_RECORD
  5
475
102
{ACAD_XDICTIONARY
360
4D0
102
}
100
AcDbSymbolTableRecord
100
AcDbBlockTableRecord
  2
*PAPER_SPACE
  0
BLOCK_RECORD
  5
6E262
100
AcDbSymbolTableRecord
100
AcDbBlockTableRecord
  2
*D0
  0
BLOCK_RECORD
  5
6E26E
100
AcDbSymbolTableRecord
100
AcDbBlockTableRecord
  2
*D1
  0
BLOCK_RECORD
  5
6E28D
100
AcDbSymbolTableRecord
100
AcDbBlockTableRecord
  2
*D2
  0
ENDTAB
  0
ENDSEC
  0
SECTION
  2
BLOCKS
  0
BLOCK
  5
48B
100
AcDbEntity
  8
0
100
AcDbBlockBegin
  2
*MODEL_SPACE
 70
     0
 10
0.0
 20
0.0
 30
0.0
  3
*MODEL_SPACE
  1

  0
ENDBLK
  5
48C
100
AcDbEntity
  8
0
100
AcDbBlockEnd
  0
BLOCK
  5
489
100
AcDbEntity
 67
     1
  8
0
100
AcDbBlockBegin
  2
*PAPER_SPACE
 70
     0
 10
0.0
 20
0.0
 30
0.0
  3
*PAPER_SPACE
  1

  0
ENDBLK
  5
48A
100
AcDbEntity
 67
     1
  8
0
100
AcDbBlockEnd
  0
BLOCK
  5
6E26C
100
AcDbEntity
  8
0
100
AcDbBlockBegin
  2
*D0
 70
     1
 10
0.0
 20
0.0
 30
0.0
  3
*D0
  1

  0
LINE
  5
6E2AE
100
AcDbEntity
  8
AREA1
 62
     0
100
AcDbLine
 10
-1.018567
 20
0.8975
 30
0.0
 11
-1.336833
 21
0.8975
 31
0.0
1001
ACAD
1000
RTLwPs
1070
   158
  0
LINE
  5
6E2AF
100
AcDbEntity
  8
AREA1
 62
     0
100
AcDbLine
 10
-1.018567
 20
-0.8975
 30
0.0
 11
-1.336833
 21
-0.8975
 31
0.0
1001
ACAD
1000
RTLwPs
1070
   158
  0
LINE
  5
6E2B0
100
AcDbEntity
  8
AREA1
 62
     0
100
AcDbLine
 10
-1.281266
 20
1.008635
 30
0.0
 11
-1.281266
 21
1.119769
 31
0.0
1001
ACAD
1000
RTLwPs
1070
   158
  0
LINE
  5
6E2B1
100
AcDbEntity
  8
AREA1
 62
     0
100
AcDbLine
 10
-1.281266
 20
-1.008635
 30
0.0
 11
-1.281266
 21
-1.119769
 31
0.0
1001
ACAD
1000
RTLwPs
1070
   158
  0
MTEXT
  5
6E2B2
100
AcDbEntity
  8
AREA1
 62
     0
100
AcDbMText
 10
-1.281266
 20
0.006383
 30
0.0
 40
0.111135
 41
0.0
 71
     5
 72
     1
  1
\A1;1 51/64 [45.59]
 11
0.0
 21
1.0
 31
0.0
1001
ACAD
1000
MTEXTBEGIN
1070
    73
1070
     1
1070
    44
1040
1.0
1070
    74
1070
     0
1000
MTEXTEND
1000
MTEXTBEGIN
1070
    73
1070
     1
1070
    44
1040
1.0
1070
    74
1070
     0
1000
MTEXTEND
1000
MTEXTBEGIN
1070
    73
1070
     1
1070
    44
1040
1.0
1070
    74
1070
     0
1000
MTEXTEND
1000
MTEXTBEGIN
1070
    73
1070
     1
1070
    44
1040
1.0
1070
    74
1070
     0
1000
MTEXTEND
1000
MTEXTBEGIN
1070
    73
1070
     1
1070
    44
1040
1.0
1070
    74
1070
     0
1000
MTEXTEND
1000
MTEXTBEGIN
1070
    73
1070
     1
1070
    44
1040
1.0
1070
    74
1070
     0
1000
MTEXTEND
1000
MTEXTBEGIN
1070
    73
1070
     1
1070
    44
1040
1.0
1070
    74
1070
     0
1000
MTEXTEND
1000
MTEXTBEGIN
1070
    73
1070
     1
1070
    44
1040
1.0
1070
    74
1070
     0
1000
MTEXTEND
1000
MTEXTBEGIN
1070
    73
1070
     1
1070
    44
1040
1.0
1070
    74
1070
     0
1000
MTEXTEND
1000
MTEXTBEGIN
1070
    73
1070
     1
1070
    44
1040
1.0
1070
    74
1070
     0
1000
MTEXTEND
1000
MTEXTBEGIN
1070
    73
1070
     1
1070
    44
1040
1.0
1070
    74
1070
     0
1000
MTEXTEND
1000
MTEXTBEGIN
1070
    73
1070
     1
1070
    44
1040
1.0
1070
    74
1070
     0
1000
MTEXTEND
1000
MTEXTBEGIN
1070
    73
1070
     1
1070
    44
1040
1.0
1070
    74
1070
     0
1000
MTEXTEND
1000
MTEXTBEGIN
1070
    73
1070
     1
1070
    44
1040
1.0
1070
    74
1070
     0
1000
MTEXTEND
1000
MTEXTBEGIN
1070
    73
1070
     1
1070
    44
1040
1.0
1070
    74
1070
     0
1000
MTEXTEND
1000
MTEXTBEGIN
1070
    73
1070
     1
1070
    44
1040
1.0
1070
    74
1070
     0
1000
MTEXTEND
1000
MTEXTBEGIN
1070
    73
1070
     1
1070
    44
1040
1.0
1070
    74
1070
     0
1000
MTEXTEND
1000
MTEXTBEGIN
1070
    73
1070
     1
1070
    44
1040
1.0
1070
    74
1070
     0
1000
MTEXTEND
1000
MTEXTBEGIN
1070
    73
1070
     1
1070
    44
1040
1.0
1070
    74
1070
     0
1000
MTEXTEND
  0
SOLID
  5
6E2B3
100
AcDbEntity
  8
AREA1
 62
     0
100
AcDbTrace
 10
-1.299788
 20
1.008635
 30
0.0
 11
-1.262743
 21
1.008635
 31
0.0
 12
-1.281266
 22
0.8975
 32
0.0
 13
-1.281266
 23
0.8975
 33
0.0
  0
SOLID
  5
6E2B4
100
AcDbEntity
  8
AREA1
 62
     0
100
AcDbTrace
 10
-1.299788
 20
-1.008635
 30
0.0
 11
-1.262743
 21
-1.008635
 31
0.0
 12
-1.281266
 22
-0.8975
 32
0.0
 13
-1.281266
 23
-0.8975
 33
0.0
  0
POINT
  5
6E2B5
100
AcDbEntity
  8
DEFPOINTS
 62
     0
100
AcDbPoint
 10
-0.963
 20
0.8975
 30
-0.18
  0
POINT
  5
6E2B6
100
AcDbEntity
  8
DEFPOINTS
 62
     0
100
AcDbPoint
 10
-0.963
 20
-0.8975
 30
0.0
  0
POINT
  5
6E2B7
100
AcDbEntity
  8
DEFPOINTS
 62
     0
100
AcDbPoint
 10
-1.281266
 20
-0.8975
 30
0.0
  0
ENDBLK
  5
6E26D
100
AcDbEntity
  8
0
100
AcDbBlockEnd
  0
BLOCK
  5
6E278
100
AcDbEntity
  8
0
100
AcDbBlockBegin
  2
*D1
 70
     1
 10
0.0
 20
0.0
 30
0.0
  3
*D1
  1

  0
LINE
  5
6E2A5
100
AcDbEntity
  8
AREA1
 62
     0
100
AcDbLine
 10
-0.963
 20
0.953067
 30
0.0
 11
-0.963
 21
1.249121
 31
0.0
1001
ACAD
1000
RTLwPs
1070
   158
  0
LINE
  5
6E2A6
100
AcDbEntity
  8
AREA1
 62
     0
100
AcDbLine
 10
0.106
 20
0.870067
 30
0.0
 11
0.106
 21
1.249121
 31
0.0
1001
ACAD
1000
RTLwPs
1070
   158
  0
LINE
  5
6E2A7
100
AcDbEntity
  8
AREA1
 62
     0
100
AcDbLine
 10
-0.851865
 20
1.193553
 30
0.0
 11
-0.005135
 21
1.193553
 31
0.0
1001
ACAD
1000
RTLwPs
1070
   158
  0
MTEXT
  5
6E2A8
100
AcDbEntity
  8
AREA1
 62
     0
100
AcDbMText
 10
-0.431694
 20
1.385032
 30
0.0
 40
0.111135
 41
0.0
 71
     5
 72
     1
  1
\A1;1 1/16 [27.15]
1001
ACAD
1000
MTEXTBEGIN
1070
    73
1070
     1
1070
    44
1040
1.0
1070
    74
1070
     0
1000
MTEXTEND
1000
MTEXTBEGIN
1070
    73
1070
     1
1070
    44
1040
1.0
1070
    74
1070
     0
1000
MTEXTEND
1000
MTEXTBEGIN
1070
    73
1070
     1
1070
    44
1040
1.0
1070
    74
1070
     0
1000
MTEXTEND
1000
MTEXTBEGIN
1070
    73
1070
     1
1070
    44
1040
1.0
1070
    74
1070
     0
1000
MTEXTEND
1000
MTEXTBEGIN
1070
    73
1070
     1
1070
    44
1040
1.0
1070
    74
1070
     0
1000
MTEXTEND
1000
MTEXTBEGIN
1070
    73
1070
     1
1070
    44
1040
1.0
1070
    74
1070
     0
1000
MTEXTEND
1000
MTEXTBEGIN
1070
    73
1070
     1
1070
    44
1040
1.0
1070
    74
1070
     0
1000
MTEXTEND
1000
MTEXTBEGIN
1070
    73
1070
     1
1070
    44
1040
1.0
1070
    74
1070
     0
1000
MTEXTEND
1000
MTEXTBEGIN
1070
    73
1070
     1
1070
    44
1040
1.0
1070
    74
1070
     0
1000
MTEXTEND
1000
MTEXTBEGIN
1070
    73
1070
     1
1070
    44
1040
1.0
1070
    74
1070
     0
1000
MTEXTEND
1000
MTEXTBEGIN
1070
    73
1070
     1
1070
    44
1040
1.0
1070
    74
1070
     0
1000
MTEXTEND
1000
MTEXTBEGIN
1070
    73
1070
     1
1070
    44
1040
1.0
1070
    74
1070
     0
1000
MTEXTEND
1000
MTEXTBEGIN
1070
    73
1070
     1
1070
    44
1040
1.0
1070
    74
1070
     0
1000
MTEXTEND
1000
MTEXTBEGIN
1070
    73
1070
     1
1070
    44
1040
1.0
1070
    74
1070
     0
1000
MTEXTEND
1000
MTEXTBEGIN
1070
    73
1070
     1
1070
    44
1040
1.0
1070
    74
1070
     0
1000
MTEXTEND
1000
MTEXTBEGIN
1070
    73
1070
     1
1070
    44
1040
1.0
1070
    74
1070
     0
1000
MTEXTEND
1000
MTEXTBEGIN
1070
    73
1070
     1
1070
    44
1040
1.0
1070
    74
1070
     0
1000
MTEXTEND
1000
MTEXTBEGIN
1070
    73
1070
     1
1070
    44
1040
1.0
1070
    74
1070
     0
1000
MTEXTEND
1000
MTEXTBEGIN
1070
    73
1070
     1
1070
    44
1040
1.0
1070
    74
1070
     0
1000
MTEXTEND
  0
SOLID
  5
6E2A9
100
AcDbEntity
  8
AREA1
 62
     0
100
AcDbTrace
 10
-0.851865
 20
1.212076
 30
0.0
 11
-0.851865
 21
1.175031
 31
0.0
 12
-0.963
 22
1.193553
 32
0.0
 13
-0.963
 23
1.193553
 33
0.0
  0
SOLID
  5
6E2AA
100
AcDbEntity
  8
AREA1
 62
     0
100
AcDbTrace
 10
-0.005135
 20
1.212076
 30
0.0
 11
-0.005135
 21
1.175031
 31
0.0
 12
0.106
 22
1.193553
 32
0.0
 13
0.106
 23
1.193553
 33
0.0
  0
POINT
  5
6E2AB
100
AcDbEntity
  8
DEFPOINTS
 62
     0
100
AcDbPoint
 10
-0.963
 20
0.8975
 30
0.0
  0
POINT
  5
6E2AC
100
AcDbEntity
  8
DEFPOINTS
 62
     0
100
AcDbPoint
 10
0.106
 20
0.8145
 30
0.0
  0
POINT
  5
6E2AD
100
AcDbEntity
  8
DEFPOINTS
 62
     0
100
AcDbPoint
 10
0.106
 20
1.193553
 30
0.0
  0
ENDBLK
  5
6E279
100
AcDbEntity
  8
0
100
AcDbBlockEnd
  0
BLOCK
  5
6E297
100
AcDbEntity
  8
0
100
AcDbBlockBegin
  2
*D2
 70
     1
 10
0.0
 20
0.0
 30
0.0
  3
*D2
  1

  0
LINE
  5
6E29B
100
AcDbEntity
  8
AREA2
 62
     0
100
AcDbLine
 10
-1.018567
 20
0.0
 30
0.0
 11
-1.337892
 21
0.0
 31
0.0
1001
ACAD
1000
RTLwPs
1070
   158
  0
LINE
  5
6E29C
100
AcDbEntity
  8
AREA2
 62
     0
100
AcDbLine
 10
-1.018567
 20
-1.57
 30
0.0
 11
-1.337892
 21
-1.57
 31
0.0
1001
ACAD
1000
RTLwPs
1070
   158
  0
LINE
  5
6E29D
100
AcDbEntity
  8
AREA2
 62
     0
100
AcDbLine
 10
-1.282325
 20
0.111135
 30
0.0
 11
-1.282325
 21
0.222269
 31
0.0
1001
ACAD
1000
RTLwPs
1070
   158
  0
LINE
  5
6E29E
100
AcDbEntity
  8
AREA2
 62
     0
100
AcDbLine
 10
-1.282325
 20
-1.681135
 30
0.0
 11
-1.282325
 21
-1.792269
 31
0.0
1001
ACAD
1000
RTLwPs
1070
   158
  0
MTEXT
  5
6E29F
100
AcDbEntity
  8
AREA2
 62
     0
100
AcDbMText
 10
-1.282325
 20
-0.785
 30
0.0
 40
0.111135
 41
0.0
 71
     5
 72
     1
  1
\A1;1 9/16 [39.88]
 11
0.0
 21
1.0
 31
0.0
1001
ACAD
1000
MTEXTBEGIN
1070
    73
1070
     1
1070
    44
1040
1.0
1070
    74
1070
     0
1000
MTEXTEND
1000
MTEXTBEGIN
1070
    73
1070
     1
1070
    44
1040
1.0
1070
    74
1070
     0
1000
MTEXTEND
1000
MTEXTBEGIN
1070
    73
1070
     1
1070
    44
1040
1.0
1070
    74
1070
     0
1000
MTEXTEND
1000
MTEXTBEGIN
1070
    73
1070
     1
1070
    44
1040
1.0
1070
    74
1070
     0
1000
MTEXTEND
1000
MTEXTBEGIN
1070
    73
1070
     1
1070
    44
1040
1.0
1070
    74
1070
     0
1000
MTEXTEND
1000
MTEXTBEGIN
1070
    73
1070
     1
1070
    44
1040
1.0
1070
    74
1070
     0
1000
MTEXTEND
1000
MTEXTBEGIN
1070
    73
1070
     1
1070
    44
1040
1.0
1070
    74
1070
     0
1000
MTEXTEND
1000
MTEXTBEGIN
1070
    73
1070
     1
1070
    44
1040
1.0
1070
    74
1070
     0
1000
MTEXTEND
1000
MTEXTBEGIN
1070
    73
1070
     1
1070
    44
1040
1.0
1070
    74
1070
     0
1000
MTEXTEND
1000
MTEXTBEGIN
1070
    73
1070
     1
1070
    44
1040
1.0
1070
    74
1070
     0
1000
MTEXTEND
1000
MTEXTBEGIN
1070
    73
1070
     1
1070
    44
1040
1.0
1070
    74
1070
     0
1000
MTEXTEND
1000
MTEXTBEGIN
1070
    73
1070
     1
1070
    44
1040
1.0
1070
    74
1070
     0
1000
MTEXTEND
1000
MTEXTBEGIN
1070
    73
1070
     1
1070
    44
1040
1.0
1070
    74
1070
     0
1000
MTEXTEND
1000
MTEXTBEGIN
1070
    73
1070
     1
1070
    44
1040
1.0
1070
    74
1070
     0
1000
MTEXTEND
1000
MTEXTBEGIN
1070
    73
1070
     1
1070
    44
1040
1.0
1070
    74
1070
     0
1000
MTEXTEND
1000
MTEXTBEGIN
1070
    73
1070
     1
1070
    44
1040
1.0
1070
    74
1070
     0
1000
MTEXTEND
1000
MTEXTBEGIN
1070
    73
1070
     1
1070
    44
1040
1.0
1070
    74
1070
     0
1000
MTEXTEND
1000
MTEXTBEGIN
1070
    73
1070
     1
1070
    44
1040
1.0
1070
    74
1070
     0
1000
MTEXTEND
1000
MTEXTBEGIN
1070
    73
1070
     1
1070
    44
1040
1.0
1070
    74
1070
     0
1000
MTEXTEND
  0
SOLID
  5
6E2A0
100
AcDbEntity
  8
AREA2
 62
     0
100
AcDbTrace
 10
-1.300847
 20
0.111135
 30
0.0
 11
-1.263802
 21
0.111135
 31
0.0
 12
-1.282325
 22
0.0
 32
0.0
 13
-1.282325
 23
0.0
 33
0.0
  0
SOLID
  5
6E2A1
100
AcDbEntity
  8
AREA2
 62
     0
100
AcDbTrace
 10
-1.300847
 20
-1.681135
 30
0.0
 11
-1.263802
 21
-1.681135
 31
0.0
 12
-1.282325
 22
-1.57
 32
0.0
 13
-1.282325
 23
-1.57
 33
0.0
  0
POINT
  5
6E2A2
100
AcDbEntity
  8
DEFPOINTS
 62
     0
100
AcDbPoint
 10
-0.963
 20
0.0
 30
0.8145
  0
POINT
  5
6E2A3
100
AcDbEntity
  8
DEFPOINTS
 62
     0
100
AcDbPoint
 10
-0.963
 20
-1.57
 30
-0.3555
  0
POINT
  5
6E2A4
100
AcDbEntity
  8
DEFPOINTS
 62
     0
100
AcDbPoint
 10
-1.282325
 20
-1.57
 30
0.0
  0
ENDBLK
  5
6E298
100
AcDbEntity
  8
0
100
AcDbBlockEnd
  0
ENDSEC
  0
SECTION
  2
ENTITIES
  0
POINT
  5
6E0BB
100
AcDbEntity
  8
SNAP_POINTS
100
AcDbPoint
 10
0.0
 20
0.0
 30
0.0
  0
POLYLINE
  5
6E0BC
100
AcDbEntity
  8
0
100
AcDbPolygonMesh
 66
     1
 10
0.0
 20
0.0
 30
0.0
 70
    16
 71
     6
 72
     3
  0
VERTEX
  5
6E0BD
100
AcDbEntity
  8
0
100
AcDbVertex
100
AcDbPolygonMeshVertex
 10
-0.468
 20
0.8145
 30
-1.57
 70
    64
  0
VERTEX
  5
6E0BE
100
AcDbEntity
  8
0
100
AcDbVertex
100
AcDbPolygonMeshVertex
 10
-0.468
 20
0.8145
 30
0.0
 70
    64
  0
VERTEX
  5
6E0BF
100
AcDbEntity
  8
0
100
AcDbVertex
100
AcDbPolygonMeshVertex
 10
-0.468
 20
0.8145
 30
0.0
 70
    64
  0
VERTEX
  5
6E0C0
100
AcDbEntity
  8
0
100
AcDbVertex
100
AcDbPolygonMeshVertex
 10
-0.468
 20
-0.8145
 30
-1.57
 70
    64
  0
VERTEX
  5
6E0C1
100
AcDbEntity
  8
0
100
AcDbVertex
100
AcDbPolygonMeshVertex
 10
-0.468
 20
-0.8145
 30
0.0
 70
    64
  0
VERTEX
  5
6E0C2
100
AcDbEntity
  8
0
100
AcDbVertex
100
AcDbPolygonMeshVertex
 10
-0.468
 20
-0.8145
 30
0.0
 70
    64
  0
VERTEX
  5
6E0C3
100
AcDbEntity
  8
0
100
AcDbVertex
100
AcDbPolygonMeshVertex
 10
-0.126
 20
-0.8145
 30
-1.57
 70
    64
  0
VERTEX
  5
6E0C4
100
AcDbEntity
  8
0
100
AcDbVertex
100
AcDbPolygonMeshVertex
 10
-0.126
 20
-0.8145
 30
0.0
 70
    64
  0
VERTEX
  5
6E0C5
100
AcDbEntity
  8
0
100
AcDbVertex
100
AcDbPolygonMeshVertex
 10
-0.468
 20
-0.8145
 30
0.0
 70
    64
  0
VERTEX
  5
6E0C6
100
AcDbEntity
  8
0
100
AcDbVertex
100
AcDbPolygonMeshVertex
 10
-0.126
 20
0.8145
 30
-1.57
 70
    64
  0
VERTEX
  5
6E0C7
100
AcDbEntity
  8
0
100
AcDbVertex
100
AcDbPolygonMeshVertex
 10
-0.126
 20
0.8145
 30
0.0
 70
    64
  0
VERTEX
  5
6E0C8
100
AcDbEntity
  8
0
100
AcDbVertex
100
AcDbPolygonMeshVertex
 10
-0.468
 20
0.8145
 30
0.0
 70
    64
  0
VERTEX
  5
6E0C9
100
AcDbEntity
  8
0
100
AcDbVertex
100
AcDbPolygonMeshVertex
 10
-0.126
 20
0.8145
 30
-1.57
 70
    64
  0
VERTEX
  5
6E0CA
100
AcDbEntity
  8
0
100
AcDbVertex
100
AcDbPolygonMeshVertex
 10
-0.126
 20
0.8145
 30
-1.57
 70
    64
  0
VERTEX
  5
6E0CB
100
AcDbEntity
  8
0
100
AcDbVertex
100
AcDbPolygonMeshVertex
 10
-0.468
 20
0.8145
 30
-1.57
 70
    64
  0
VERTEX
  5
6E0CC
100
AcDbEntity
  8
0
100
AcDbVertex
100
AcDbPolygonMeshVertex
 10
-0.126
 20
-0.8145
 30
-1.57
 70
    64
  0
VERTEX
  5
6E0CD
100
AcDbEntity
  8
0
100
AcDbVertex
100
AcDbPolygonMeshVertex
 10
-0.126
 20
-0.8145
 30
-1.57
 70
    64
  0
VERTEX
  5
6E0CE
100
AcDbEntity
  8
0
100
AcDbVertex
100
AcDbPolygonMeshVertex
 10
-0.468
 20
-0.8145
 30
-1.57
 70
    64
  0
SEQEND
  5
6E0CF
100
AcDbEntity
  8
0
  0
POLYLINE
  5
6E0D0
100
AcDbEntity
  8
0
100
AcDbPolygonMesh
 66
     1
 10
0.0
 20
0.0
 30
0.0
 70
    16
 71
     6
 72
     3
  0
VERTEX
  5
6E0D1
100
AcDbEntity
  8
0
100
AcDbVertex
100
AcDbPolygonMeshVertex
 10
-0.963
 20
-0.3555
 30
-1.57
 70
    64
  0
VERTEX
  5
6E0D2
100
AcDbEntity
  8
0
100
AcDbVertex
100
AcDbPolygonMeshVertex
 10
-0.963
 20
-0.3555
 30
-1.024
 70
    64
  0
VERTEX
  5
6E0D3
100
AcDbEntity
  8
0
100
AcDbVertex
100
AcDbPolygonMeshVertex
 10
-0.963
 20
-0.3555
 30
-1.024
 70
    64
  0
VERTEX
  5
6E0D4
100
AcDbEntity
  8
0
100
AcDbVertex
100
AcDbPolygonMeshVertex
 10
-0.963
 20
-0.8975
 30
-1.57
 70
    64
  0
VERTEX
  5
6E0D5
100
AcDbEntity
  8
0
100
AcDbVertex
100
AcDbPolygonMeshVertex
 10
-0.963
 20
-0.8975
 30
-1.024
 70
    64
  0
VERTEX
  5
6E0D6
100
AcDbEntity
  8
0
100
AcDbVertex
100
AcDbPolygonMeshVertex
 10
-0.963
 20
-0.8975
 30
-1.024
 70
    64
  0
VERTEX
  5
6E0D7
100
AcDbEntity
  8
0
100
AcDbVertex
100
AcDbPolygonMeshVertex
 10
-0.468
 20
-0.8975
 30
-1.57
 70
    64
  0
VERTEX
  5
6E0D8
100
AcDbEntity
  8
0
100
AcDbVertex
100
AcDbPolygonMeshVertex
 10
-0.468
 20
-0.8975
 30
-1.024
 70
    64
  0
VERTEX
  5
6E0D9
100
AcDbEntity
  8
0
100
AcDbVertex
100
AcDbPolygonMeshVertex
 10
-0.963
 20
-0.8975
 30
-1.024
 70
    64
  0
VERTEX
  5
6E0DA
100
AcDbEntity
  8
0
100
AcDbVertex
100
AcDbPolygonMeshVertex
 10
-0.468
 20
-0.3555
 30
-1.57
 70
    64
  0
VERTEX
  5
6E0DB
100
AcDbEntity
  8
0
100
AcDbVertex
100
AcDbPolygonMeshVertex
 10
-0.468
 20
-0.3555
 30
-1.024
 70
    64
  0
VERTEX
  5
6E0DC
100
AcDbEntity
  8
0
100
AcDbVertex
100
AcDbPolygonMeshVertex
 10
-0.963
 20
-0.3555
 30
-1.024
 70
    64
  0
VERTEX
  5
6E0DD
100
AcDbEntity
  8
0
100
AcDbVertex
100
AcDbPolygonMeshVertex
 10
-0.468
 20
-0.3555
 30
-1.57
 70
    64
  0
VERTEX
  5
6E0DE
100
AcDbEntity
  8
0
100
AcDbVertex
100
AcDbPolygonMeshVertex
 10
-0.468
 20
-0.3555
 30
-1.57
 70
    64
  0
VERTEX
  5
6E0DF
100
AcDbEntity
  8
0
100
AcDbVertex
100
AcDbPolygonMeshVertex
 10
-0.963
 20
-0.3555
 30
-1.57
 70
    64
  0
VERTEX
  5
6E0E0
100
AcDbEntity
  8
0
100
AcDbVertex
100
AcDbPolygonMeshVertex
 10
-0.468
 20
-0.8975
 30
-1.57
 70
    64
  0
VERTEX
  5
6E0E1
100
AcDbEntity
  8
0
100
AcDbVertex
100
AcDbPolygonMeshVertex
 10
-0.468
 20
-0.8975
 30
-1.57
 70
    64
  0
VERTEX
  5
6E0E2
100
AcDbEntity
  8
0
100
AcDbVertex
100
AcDbPolygonMeshVertex
 10
-0.963
 20
-0.8975
 30
-1.57
 70
    64
  0
SEQEND
  5
6E0E3
100
AcDbEntity
  8
0
  0
POLYLINE
  5
6E0E4
100
AcDbEntity
  8
0
100
AcDbPolygonMesh
 66
     1
 10
0.0
 20
0.0
 30
0.0
 70
    16
 71
     6
 72
     3
  0
VERTEX
  5
6E0E5
100
AcDbEntity
  8
0
100
AcDbVertex
100
AcDbPolygonMeshVertex
 10
-0.963
 20
0.8975
 30
-1.57
 70
    64
  0
VERTEX
  5
6E0E6
100
AcDbEntity
  8
0
100
AcDbVertex
100
AcDbPolygonMeshVertex
 10
-0.963
 20
0.8975
 30
-1.024
 70
    64
  0
VERTEX
  5
6E0E7
100
AcDbEntity
  8
0
100
AcDbVertex
100
AcDbPolygonMeshVertex
 10
-0.963
 20
0.8975
 30
-1.024
 70
    64
  0
VERTEX
  5
6E0E8
100
AcDbEntity
  8
0
100
AcDbVertex
100
AcDbPolygonMeshVertex
 10
-0.963
 20
0.3555
 30
-1.57
 70
    64
  0
VERTEX
  5
6E0E9
100
AcDbEntity
  8
0
100
AcDbVertex
100
AcDbPolygonMeshVertex
 10
-0.963
 20
0.3555
 30
-1.024
 70
    64
  0
VERTEX
  5
6E0EA
100
AcDbEntity
  8
0
100
AcDbVertex
100
AcDbPolygonMeshVertex
 10
-0.963
 20
0.3555
 30
-1.024
 70
    64
  0
VERTEX
  5
6E0EB
100
AcDbEntity
  8
0
100
AcDbVertex
100
AcDbPolygonMeshVertex
 10
-0.468
 20
0.3555
 30
-1.57
 70
    64
  0
VERTEX
  5
6E0EC
100
AcDbEntity
  8
0
100
AcDbVertex
100
AcDbPolygonMeshVertex
 10
-0.468
 20
0.3555
 30
-1.024
 70
    64
  0
VERTEX
  5
6E0ED
100
AcDbEntity
  8
0
100
AcDbVertex
100
AcDbPolygonMeshVertex
 10
-0.963
 20
0.3555
 30
-1.024
 70
    64
  0
VERTEX
  5
6E0EE
100
AcDbEntity
  8
0
100
AcDbVertex
100
AcDbPolygonMeshVertex
 10
-0.468
 20
0.8975
 30
-1.57
 70
    64
  0
VERTEX
  5
6E0EF
100
AcDbEntity
  8
0
100
AcDbVertex
100
AcDbPolygonMeshVertex
 10
-0.468
 20
0.8975
 30
-1.024
 70
    64
  0
VERTEX
  5
6E0F0
100
AcDbEntity
  8
0
100
AcDbVertex
100
AcDbPolygonMeshVertex
 10
-0.963
 20
0.8975
 30
-1.024
 70
    64
  0
VERTEX
  5
6E0F1
100
AcDbEntity
  8
0
100
AcDbVertex
100
AcDbPolygonMeshVertex
 10
-0.468
 20
0.8975
 30
-1.57
 70
    64
  0
VERTEX
  5
6E0F2
100
AcDbEntity
  8
0
100
AcDbVertex
100
AcDbPolygonMeshVertex
 10
-0.468
 20
0.8975
 30
-1.57
 70
    64
  0
VERTEX
  5
6E0F3
100
AcDbEntity
  8
0
100
AcDbVertex
100
AcDbPolygonMeshVertex
 10
-0.963
 20
0.8975
 30
-1.57
 70
    64
  0
VERTEX
  5
6E0F4
100
AcDbEntity
  8
0
100
AcDbVertex
100
AcDbPolygonMeshVertex
 10
-0.468
 20
0.3555
 30
-1.57
 70
    64
  0
VERTEX
  5
6E0F5
100
AcDbEntity
  8
0
100
AcDbVertex
100
AcDbPolygonMeshVertex
 10
-0.468
 20
0.3555
 30
-1.57
 70
    64
  0
VERTEX
  5
6E0F6
100
AcDbEntity
  8
0
100
AcDbVertex
100
AcDbPolygonMeshVertex
 10
-0.963
 20
0.3555
 30
-1.57
 70
    64
  0
SEQEND
  5
6E0F7
100
AcDbEntity
  8
0
  0
POLYLINE
  5
6E0F8
100
AcDbEntity
  8
0
100
AcDbPolygonMesh
 66
     1
 10
0.0
 20
0.0
 30
0.0
 70
    16
 71
     6
 72
     3
  0
VERTEX
  5
6E0F9
100
AcDbEntity
  8
0
100
AcDbVertex
100
AcDbPolygonMeshVertex
 10
-0.468
 20
0.8975
 30
-0.18
 70
    64
  0
VERTEX
  5
6E0FA
100
AcDbEntity
  8
0
100
AcDbVertex
100
AcDbPolygonMeshVertex
 10
-0.468
 20
0.8975
 30
-0.18
 70
    64
  0
VERTEX
  5
6E0FB
100
AcDbEntity
  8
0
100
AcDbVertex
100
AcDbPolygonMeshVertex
 10
-0.468
 20
0.8975
 30
-0.18
 70
    64
  0
VERTEX
  5
6E0FC
100
AcDbEntity
  8
0
100
AcDbVertex
100
AcDbPolygonMeshVertex
 10
-0.468
 20
0.3555
 30
-1.024
 70
    64
  0
VERTEX
  5
6E0FD
100
AcDbEntity
  8
0
100
AcDbVertex
100
AcDbPolygonMeshVertex
 10
-0.468
 20
0.8975
 30
-1.024
 70
    64
  0
VERTEX
  5
6E0FE
100
AcDbEntity
  8
0
100
AcDbVertex
100
AcDbPolygonMeshVertex
 10
-0.468
 20
0.8975
 30
-1.024
 70
    64
  0
VERTEX
  5
6E0FF
100
AcDbEntity
  8
0
100
AcDbVertex
100
AcDbPolygonMeshVertex
 10
-0.963
 20
0.3555
 30
-1.024
 70
    64
  0
VERTEX
  5
6E100
100
AcDbEntity
  8
0
100
AcDbVertex
100
AcDbPolygonMeshVertex
 10
-0.963
 20
0.8975
 30
-1.024
 70
    64
  0
VERTEX
  5
6E101
100
AcDbEntity
  8
0
100
AcDbVertex
100
AcDbPolygonMeshVertex
 10
-0.468
 20
0.8975
 30
-1.024
 70
    64
  0
VERTEX
  5
6E102
100
AcDbEntity
  8
0
100
AcDbVertex
100
AcDbPolygonMeshVertex
 10
-0.963
 20
0.8975
 30
-0.18
 70
    64
  0
VERTEX
  5
6E103
100
AcDbEntity
  8
0
100
AcDbVertex
100
AcDbPolygonMeshVertex
 10
-0.963
 20
0.8975
 30
-0.18
 70
    64
  0
VERTEX
  5
6E104
100
AcDbEntity
  8
0
100
AcDbVertex
100
AcDbPolygonMeshVertex
 10
-0.468
 20
0.8975
 30
-0.18
 70
    64
  0
VERTEX
  5
6E105
100
AcDbEntity
  8
0
100
AcDbVertex
100
AcDbPolygonMeshVertex
 10
-0.963
 20
0.8975
 30
-0.18
 70
    64
  0
VERTEX
  5
6E106
100
AcDbEntity
  8
0
100
AcDbVertex
100
AcDbPolygonMeshVertex
 10
-0.963
 20
0.8975
 30
-0.18
 70
    64
  0
VERTEX
  5
6E107
100
AcDbEntity
  8
0
100
AcDbVertex
100
AcDbPolygonMeshVertex
 10
-0.468
 20
0.8975
 30
-0.18
 70
    64
  0
VERTEX
  5
6E108
100
AcDbEntity
  8
0
100
AcDbVertex
100
AcDbPolygonMeshVertex
 10
-0.963
 20
0.3555
 30
-1.024
 70
    64
  0
VERTEX
  5
6E109
100
AcDbEntity
  8
0
100
AcDbVertex
100
AcDbPolygonMeshVertex
 10
-0.963
 20
0.3555
 30
-1.024
 70
    64
  0
VERTEX
  5
6E10A
100
AcDbEntity
  8
0
100
AcDbVertex
100
AcDbPolygonMeshVertex
 10
-0.468
 20
0.3555
 30
-1.024
 70
    64
  0
SEQEND
  5
6E10B
100
AcDbEntity
  8
0
  0
POLYLINE
  5
6E10C
100
AcDbEntity
  8
0
100
AcDbPolygonMesh
 66
     1
 10
0.0
 20
0.0
 30
0.0
 70
    16
 71
     6
 72
     3
  0
VERTEX
  5
6E10D
100
AcDbEntity
  8
0
100
AcDbVertex
100
AcDbPolygonMeshVertex
 10
-0.468
 20
-0.8975
 30
-0.18
 70
    64
  0
VERTEX
  5
6E10E
100
AcDbEntity
  8
0
100
AcDbVertex
100
AcDbPolygonMeshVertex
 10
-0.468
 20
-0.8975
 30
-0.18
 70
    64
  0
VERTEX
  5
6E10F
100
AcDbEntity
  8
0
100
AcDbVertex
100
AcDbPolygonMeshVertex
 10
-0.468
 20
-0.8975
 30
-0.18
 70
    64
  0
VERTEX
  5
6E110
100
AcDbEntity
  8
0
100
AcDbVertex
100
AcDbPolygonMeshVertex
 10
-0.468
 20
-0.3555
 30
-1.024
 70
    64
  0
VERTEX
  5
6E111
100
AcDbEntity
  8
0
100
AcDbVertex
100
AcDbPolygonMeshVertex
 10
-0.468
 20
-0.8975
 30
-1.024
 70
    64
  0
VERTEX
  5
6E112
100
AcDbEntity
  8
0
100
AcDbVertex
100
AcDbPolygonMeshVertex
 10
-0.468
 20
-0.8975
 30
-1.024
 70
    64
  0
VERTEX
  5
6E113
100
AcDbEntity
  8
0
100
AcDbVertex
100
AcDbPolygonMeshVertex
 10
-0.963
 20
-0.3555
 30
-1.024
 70
    64
  0
VERTEX
  5
6E114
100
AcDbEntity
  8
0
100
AcDbVertex
100
AcDbPolygonMeshVertex
 10
-0.963
 20
-0.8975
 30
-1.024
 70
    64
  0
VERTEX
  5
6E115
100
AcDbEntity
  8
0
100
AcDbVertex
100
AcDbPolygonMeshVertex
 10
-0.468
 20
-0.8975
 30
-1.024
 70
    64
  0
VERTEX
  5
6E116
100
AcDbEntity
  8
0
100
AcDbVertex
100
AcDbPolygonMeshVertex
 10
-0.963
 20
-0.8975
 30
-0.18
 70
    64
  0
VERTEX
  5
6E117
100
AcDbEntity
  8
0
100
AcDbVertex
100
AcDbPolygonMeshVertex
 10
-0.963
 20
-0.8975
 30
-0.18
 70
    64
  0
VERTEX
  5
6E118
100
AcDbEntity
  8
0
100
AcDbVertex
100
AcDbPolygonMeshVertex
 10
-0.468
 20
-0.8975
 30
-0.18
 70
    64
  0
VERTEX
  5
6E119
100
AcDbEntity
  8
0
100
AcDbVertex
100
AcDbPolygonMeshVertex
 10
-0.963
 20
-0.8975
 30
-0.18
 70
    64
  0
VERTEX
  5
6E11A
100
AcDbEntity
  8
0
100
AcDbVertex
100
AcDbPolygonMeshVertex
 10
-0.963
 20
-0.8975
 30
-0.18
 70
    64
  0
VERTEX
  5
6E11B
100
AcDbEntity
  8
0
100
AcDbVertex
100
AcDbPolygonMeshVertex
 10
-0.468
 20
-0.8975
 30
-0.18
 70
    64
  0
VERTEX
  5
6E11C
100
AcDbEntity
  8
0
100
AcDbVertex
100
AcDbPolygonMeshVertex
 10
-0.963
 20
-0.3555
 30
-1.024
 70
    64
  0
VERTEX
  5
6E11D
100
AcDbEntity
  8
0
100
AcDbVertex
100
AcDbPolygonMeshVertex
 10
-0.963
 20
-0.3555
 30
-1.024
 70
    64
  0
VERTEX
  5
6E11E
100
AcDbEntity
  8
0
100
AcDbVertex
100
AcDbPolygonMeshVertex
 10
-0.468
 20
-0.3555
 30
-1.024
 70
    64
  0
SEQEND
  5
6E11F
100
AcDbEntity
  8
0
  0
POLYLINE
  5
6E120
100
AcDbEntity
  8
0
100
AcDbPolygonMesh
 66
     1
 10
0.0
 20
0.0
 30
0.0
 70
    16
 71
     6
 72
     3
  0
VERTEX
  5
6E121
100
AcDbEntity
  8
0
100
AcDbVertex
100
AcDbPolygonMeshVertex
 10
-0.963
 20
0.462368
 30
-0.857586
 70
    64
  0
VERTEX
  5
6E122
100
AcDbEntity
  8
0
100
AcDbVertex
100
AcDbPolygonMeshVertex
 10
-0.963
 20
0.767668
 30
-0.382174
 70
    64
  0
VERTEX
  5
6E123
100
AcDbEntity
  8
0
100
AcDbVertex
100
AcDbPolygonMeshVertex
 10
-0.963
 20
0.767668
 30
-0.382174
 70
    64
  0
VERTEX
  5
6E124
100
AcDbEntity
  8
0
100
AcDbVertex
100
AcDbPolygonMeshVertex
 10
-0.963
 20
0.147585
 30
-0.655439
 70
    64
  0
VERTEX
  5
6E125
100
AcDbEntity
  8
0
100
AcDbVertex
100
AcDbPolygonMeshVertex
 10
-0.963
 20
0.452885
 30
-0.180027
 70
    64
  0
VERTEX
  5
6E126
100
AcDbEntity
  8
0
100
AcDbVertex
100
AcDbPolygonMeshVertex
 10
-0.963
 20
0.452885
 30
-0.180027
 70
    64
  0
VERTEX
  5
6E127
100
AcDbEntity
  8
0
100
AcDbVertex
100
AcDbPolygonMeshVertex
 10
-0.468
 20
0.147585
 30
-0.655439
 70
    64
  0
VERTEX
  5
6E128
100
AcDbEntity
  8
0
100
AcDbVertex
100
AcDbPolygonMeshVertex
 10
-0.468
 20
0.452885
 30
-0.180027
 70
    64
  0
VERTEX
  5
6E129
100
AcDbEntity
  8
0
100
AcDbVertex
100
AcDbPolygonMeshVertex
 10
-0.963
 20
0.452885
 30
-0.180027
 70
    64
  0
VERTEX
  5
6E12A
100
AcDbEntity
  8
0
100
AcDbVertex
100
AcDbPolygonMeshVertex
 10
-0.468
 20
0.462368
 30
-0.857586
 70
    64
  0
VERTEX
  5
6E12B
100
AcDbEntity
  8
0
100
AcDbVertex
100
AcDbPolygonMeshVertex
 10
-0.468
 20
0.767668
 30
-0.382174
 70
    64
  0
VERTEX
  5
6E12C
100
AcDbEntity
  8
0
100
AcDbVertex
100
AcDbPolygonMeshVertex
 10
-0.963
 20
0.767668
 30
-0.382174
 70
    64
  0
VERTEX
  5
6E12D
100
AcDbEntity
  8
0
100
AcDbVertex
100
AcDbPolygonMeshVertex
 10
-0.468
 20
0.462368
 30
-0.857586
 70
    64
  0
VERTEX
  5
6E12E
100
AcDbEntity
  8
0
100
AcDbVertex
100
AcDbPolygonMeshVertex
 10
-0.468
 20
0.462368
 30
-0.857586
 70
    64
  0
VERTEX
  5
6E12F
100
AcDbEntity
  8
0
100
AcDbVertex
100
AcDbPolygonMeshVertex
 10
-0.963
 20
0.462368
 30
-0.857586
 70
    64
  0
VERTEX
  5
6E130
100
AcDbEntity
  8
0
100
AcDbVertex
100
AcDbPolygonMeshVertex
 10
-0.468
 20
0.147585
 30
-0.655439
 70
    64
  0
VERTEX
  5
6E131
100
AcDbEntity
  8
0
100
AcDbVertex
100
AcDbPolygonMeshVertex
 10
-0.468
 20
0.147585
 30
-0.655439
 70
    64
  0
VERTEX
  5
6E132
100
AcDbEntity
  8
0
100
AcDbVertex
100
AcDbPolygonMeshVertex
 10
-0.963
 20
0.147585
 30
-0.655439
 70
    64
  0
SEQEND
  5
6E133
100
AcDbEntity
  8
0
  0
POLYLINE
  5
6E134
100
AcDbEntity
  8
0
100
AcDbPolygonMesh
 66
     1
 10
0.0
 20
0.0
 30
0.0
 70
    16
 71
     6
 72
     3
  0
VERTEX
  5
6E135
100
AcDbEntity
  8
0
100
AcDbVertex
100
AcDbPolygonMeshVertex
 10
-0.963
 20
0.452885
 30
-0.180027
 70
    64
  0
VERTEX
  5
6E136
100
AcDbEntity
  8
0
100
AcDbVertex
100
AcDbPolygonMeshVertex
 10
-0.963
 20
0.452885
 30
-0.180027
 70
    64
  0
VERTEX
  5
6E137
100
AcDbEntity
  8
0
100
AcDbVertex
100
AcDbPolygonMeshVertex
 10
-0.963
 20
0.452885
 30
-0.180027
 70
    64
  0
VERTEX
  5
6E138
100
AcDbEntity
  8
0
100
AcDbVertex
100
AcDbPolygonMeshVertex
 10
-0.963
 20
0.8975
 30
-0.18
 70
    64
  0
VERTEX
  5
6E139
100
AcDbEntity
  8
0
100
AcDbVertex
100
AcDbPolygonMeshVertex
 10
-0.963
 20
0.767668
 30
-0.382174
 70
    64
  0
VERTEX
  5
6E13A
100
AcDbEntity
  8
0
100
AcDbVertex
100
AcDbPolygonMeshVertex
 10
-0.963
 20
0.767668
 30
-0.382174
 70
    64
  0
VERTEX
  5
6E13B
100
AcDbEntity
  8
0
100
AcDbVertex
100
AcDbPolygonMeshVertex
 10
-0.468
 20
0.8975
 30
-0.18
 70
    64
  0
VERTEX
  5
6E13C
100
AcDbEntity
  8
0
100
AcDbVertex
100
AcDbPolygonMeshVertex
 10
-0.468
 20
0.767668
 30
-0.382174
 70
    64
  0
VERTEX
  5
6E13D
100
AcDbEntity
  8
0
100
AcDbVertex
100
AcDbPolygonMeshVertex
 10
-0.963
 20
0.767668
 30
-0.382174
 70
    64
  0
VERTEX
  5
6E13E
100
AcDbEntity
  8
0
100
AcDbVertex
100
AcDbPolygonMeshVertex
 10
-0.468
 20
0.452885
 30
-0.180027
 70
    64
  0
VERTEX
  5
6E13F
100
AcDbEntity
  8
0
100
AcDbVertex
100
AcDbPolygonMeshVertex
 10
-0.468
 20
0.452885
 30
-0.180027
 70
    64
  0
VERTEX
  5
6E140
100
AcDbEntity
  8
0
100
AcDbVertex
100
AcDbPolygonMeshVertex
 10
-0.963
 20
0.452885
 30
-0.180027
 70
    64
  0
VERTEX
  5
6E141
100
AcDbEntity
  8
0
100
AcDbVertex
100
AcDbPolygonMeshVertex
 10
-0.468
 20
0.452885
 30
-0.180027
 70
    64
  0
VERTEX
  5
6E142
100
AcDbEntity
  8
0
100
AcDbVertex
100
AcDbPolygonMeshVertex
 10
-0.468
 20
0.452885
 30
-0.180027
 70
    64
  0
VERTEX
  5
6E143
100
AcDbEntity
  8
0
100
AcDbVertex
100
AcDbPolygonMeshVertex
 10
-0.963
 20
0.452885
 30
-0.180027
 70
    64
  0
VERTEX
  5
6E144
100
AcDbEntity
  8
0
100
AcDbVertex
100
AcDbPolygonMeshVertex
 10
-0.468
 20
0.8975
 30
-0.18
 70
    64
  0
VERTEX
  5
6E145
100
AcDbEntity
  8
0
100
AcDbVertex
100
AcDbPolygonMeshVertex
 10
-0.468
 20
0.8975
 30
-0.18
 70
    64
  0
VERTEX
  5
6E146
100
AcDbEntity
  8
0
100
AcDbVertex
100
AcDbPolygonMeshVertex
 10
-0.963
 20
0.8975
 30
-0.18
 70
    64
  0
SEQEND
  5
6E147
100
AcDbEntity
  8
0
  0
POLYLINE
  5
6E148
100
AcDbEntity
  8
0
100
AcDbPolygonMesh
 66
     1
 10
0.0
 20
0.0
 30
0.0
 70
    16
 71
     6
 72
     3
  0
VERTEX
  5
6E149
100
AcDbEntity
  8
0
100
AcDbVertex
100
AcDbPolygonMeshVertex
 10
-0.963
 20
-0.452885
 30
-0.180027
 70
    64
  0
VERTEX
  5
6E14A
100
AcDbEntity
  8
0
100
AcDbVertex
100
AcDbPolygonMeshVertex
 10
-0.963
 20
-0.452885
 30
-0.180027
 70
    64
  0
VERTEX
  5
6E14B
100
AcDbEntity
  8
0
100
AcDbVertex
100
AcDbPolygonMeshVertex
 10
-0.963
 20
-0.452885
 30
-0.180027
 70
    64
  0
VERTEX
  5
6E14C
100
AcDbEntity
  8
0
100
AcDbVertex
100
AcDbPolygonMeshVertex
 10
-0.963
 20
-0.8975
 30
-0.18
 70
    64
  0
VERTEX
  5
6E14D
100
AcDbEntity
  8
0
100
AcDbVertex
100
AcDbPolygonMeshVertex
 10
-0.963
 20
-0.767668
 30
-0.382174
 70
    64
  0
VERTEX
  5
6E14E
100
AcDbEntity
  8
0
100
AcDbVertex
100
AcDbPolygonMeshVertex
 10
-0.963
 20
-0.767668
 30
-0.382174
 70
    64
  0
VERTEX
  5
6E14F
100
AcDbEntity
  8
0
100
AcDbVertex
100
AcDbPolygonMeshVertex
 10
-0.468
 20
-0.8975
 30
-0.18
 70
    64
  0
VERTEX
  5
6E150
100
AcDbEntity
  8
0
100
AcDbVertex
100
AcDbPolygonMeshVertex
 10
-0.468
 20
-0.767668
 30
-0.382174
 70
    64
  0
VERTEX
  5
6E151
100
AcDbEntity
  8
0
100
AcDbVertex
100
AcDbPolygonMeshVertex
 10
-0.963
 20
-0.767668
 30
-0.382174
 70
    64
  0
VERTEX
  5
6E152
100
AcDbEntity
  8
0
100
AcDbVertex
100
AcDbPolygonMeshVertex
 10
-0.468
 20
-0.452885
 30
-0.180027
 70
    64
  0
VERTEX
  5
6E153
100
AcDbEntity
  8
0
100
AcDbVertex
100
AcDbPolygonMeshVertex
 10
-0.468
 20
-0.452885
 30
-0.180027
 70
    64
  0
VERTEX
  5
6E154
100
AcDbEntity
  8
0
100
AcDbVertex
100
AcDbPolygonMeshVertex
 10
-0.963
 20
-0.452885
 30
-0.180027
 70
    64
  0
VERTEX
  5
6E155
100
AcDbEntity
  8
0
100
AcDbVertex
100
AcDbPolygonMeshVertex
 10
-0.468
 20
-0.452885
 30
-0.180027
 70
    64
  0
VERTEX
  5
6E156
100
AcDbEntity
  8
0
100
AcDbVertex
100
AcDbPolygonMeshVertex
 10
-0.468
 20
-0.452885
 30
-0.180027
 70
    64
  0
VERTEX
  5
6E157
100
AcDbEntity
  8
0
100
AcDbVertex
100
AcDbPolygonMeshVertex
 10
-0.963
 20
-0.452885
 30
-0.180027
 70
    64
  0
VERTEX
  5
6E158
100
AcDbEntity
  8
0
100
AcDbVertex
100
AcDbPolygonMeshVertex
 10
-0.468
 20
-0.8975
 30
-0.18
 70
    64
  0
VERTEX
  5
6E159
100
AcDbEntity
  8
0
100
AcDbVertex
100
AcDbPolygonMeshVertex
 10
-0.468
 20
-0.8975
 30
-0.18
 70
    64
  0
VERTEX
  5
6E15A
100
AcDbEntity
  8
0
100
AcDbVertex
100
AcDbPolygonMeshVertex
 10
-0.963
 20
-0.8975
 30
-0.18
 70
    64
  0
SEQEND
  5
6E15B
100
AcDbEntity
  8
0
  0
POLYLINE
  5
6E15C
100
AcDbEntity
  8
0
100
AcDbPolygonMesh
 66
     1
 10
0.0
 20
0.0
 30
0.0
 70
    16
 71
     6
 72
     3
  0
VERTEX
  5
6E15D
100
AcDbEntity
  8
0
100
AcDbVertex
100
AcDbPolygonMeshVertex
 10
-0.963
 20
-0.462368
 30
-0.857586
 70
    64
  0
VERTEX
  5
6E15E
100
AcDbEntity
  8
0
100
AcDbVertex
100
AcDbPolygonMeshVertex
 10
-0.963
 20
-0.767668
 30
-0.382174
 70
    64
  0
VERTEX
  5
6E15F
100
AcDbEntity
  8
0
100
AcDbVertex
100
AcDbPolygonMeshVertex
 10
-0.963
 20
-0.767668
 30
-0.382174
 70
    64
  0
VERTEX
  5
6E160
100
AcDbEntity
  8
0
100
AcDbVertex
100
AcDbPolygonMeshVertex
 10
-0.963
 20
-0.147585
 30
-0.655439
 70
    64
  0
VERTEX
  5
6E161
100
AcDbEntity
  8
0
100
AcDbVertex
100
AcDbPolygonMeshVertex
 10
-0.963
 20
-0.452885
 30
-0.180027
 70
    64
  0
VERTEX
  5
6E162
100
AcDbEntity
  8
0
100
AcDbVertex
100
AcDbPolygonMeshVertex
 10
-0.963
 20
-0.452885
 30
-0.180027
 70
    64
  0
VERTEX
  5
6E163
100
AcDbEntity
  8
0
100
AcDbVertex
100
AcDbPolygonMeshVertex
 10
-0.468
 20
-0.147585
 30
-0.655439
 70
    64
  0
VERTEX
  5
6E164
100
AcDbEntity
  8
0
100
AcDbVertex
100
AcDbPolygonMeshVertex
 10
-0.468
 20
-0.452885
 30
-0.180027
 70
    64
  0
VERTEX
  5
6E165
100
AcDbEntity
  8
0
100
AcDbVertex
100
AcDbPolygonMeshVertex
 10
-0.963
 20
-0.452885
 30
-0.180027
 70
    64
  0
VERTEX
  5
6E166
100
AcDbEntity
  8
0
100
AcDbVertex
100
AcDbPolygonMeshVertex
 10
-0.468
 20
-0.462368
 30
-0.857586
 70
    64
  0
VERTEX
  5
6E167
100
AcDbEntity
  8
0
100
AcDbVertex
100
AcDbPolygonMeshVertex
 10
-0.468
 20
-0.767668
 30
-0.382174
 70
    64
  0
VERTEX
  5
6E168
100
AcDbEntity
  8
0
100
AcDbVertex
100
AcDbPolygonMeshVertex
 10
-0.963
 20
-0.767668
 30
-0.382174
 70
    64
  0
VERTEX
  5
6E169
100
AcDbEntity
  8
0
100
AcDbVertex
100
AcDbPolygonMeshVertex
 10
-0.468
 20
-0.462368
 30
-0.857586
 70
    64
  0
VERTEX
  5
6E16A
100
AcDbEntity
  8
0
100
AcDbVertex
100
AcDbPolygonMeshVertex
 10
-0.468
 20
-0.462368
 30
-0.857586
 70
    64
  0
VERTEX
  5
6E16B
100
AcDbEntity
  8
0
100
AcDbVertex
100
AcDbPolygonMeshVertex
 10
-0.963
 20
-0.462368
 30
-0.857586
 70
    64
  0
VERTEX
  5
6E16C
100
AcDbEntity
  8
0
100
AcDbVertex
100
AcDbPolygonMeshVertex
 10
-0.468
 20
-0.147585
 30
-0.655439
 70
    64
  0
VERTEX
  5
6E16D
100
AcDbEntity
  8
0
100
AcDbVertex
100
AcDbPolygonMeshVertex
 10
-0.468
 20
-0.147585
 30
-0.655439
 70
    64
  0
VERTEX
  5
6E16E
100
AcDbEntity
  8
0
100
AcDbVertex
100
AcDbPolygonMeshVertex
 10
-0.963
 20
-0.147585
 30
-0.655439
 70
    64
  0
SEQEND
  5
6E16F
100
AcDbEntity
  8
0
  0
CIRCLE
  5
6E170
100
AcDbEntity
  8
0
100
AcDbCircle
 10
-0.7155
 20
-0.723954
 30
0.471763
 40
0.1285
210
-0.0000000000000054
220
-0.5403544246916719
230
-0.8414375174165533
  0
CIRCLE
  5
6E171
100
AcDbEntity
  8
0
100
AcDbCircle
 10
0.7155
 20
-0.723954
 30
0.471763
 40
0.1285
210
-0.0000000000000054
220
0.5403544246916719
230
-0.8414375174165533
  0
LINE
  5
6E172
100
AcDbEntity
  8
0
100
AcDbLine
 10
-0.7355
 20
0.46105
 30
-0.85674
 11
-0.7355
 21
0.247436
 31
-0.719561
210
-0.0000000000000044
220
-0.5403544246916709
230
-0.841437517416554
  0
LINE
  5
6E173
100
AcDbEntity
  8
0
100
AcDbLine
 10
-0.6955
 20
0.46105
 30
-0.85674
 11
-0.6955
 21
0.247436
 31
-0.719561
210
-0.0000000000000044
220
-0.5403544246916709
230
-0.841437517416554
  0
LINE
  5
6E174
100
AcDbEntity
  8
0
100
AcDbLine
 10
-0.6955
 20
-0.46105
 30
-0.85674
 11
-0.6955
 21
-0.247436
 31
-0.719561
210
-0.0000000000000044
220
0.5403544246916709
230
-0.841437517416554
  0
LINE
  5
6E175
100
AcDbEntity
  8
0
100
AcDbLine
 10
-0.7355
 20
-0.46105
 30
-0.85674
 11
-0.7355
 21
-0.247436
 31
-0.719561
210
-0.0000000000000044
220
0.5403544246916709
230
-0.841437517416554
  0
CIRCLE
  5
6E176
100
AcDbEntity
  8
0
100
AcDbCircle
 10
0.7155
 20
0.6265
 30
1.57
 40
0.1285
210
0.0
220
0.0
230
-1.0
  0
LINE
  5
6E177
100
AcDbEntity
  8
0
100
AcDbLine
 10
-0.7355
 20
0.753434
 30
-1.57
 11
-0.7355
 21
0.499566
 31
-1.57
210
0.0
220
0.0
230
-1.0
  0
LINE
  5
6E178
100
AcDbEntity
  8
0
100
AcDbLine
 10
-0.6955
 20
0.753434
 30
-1.57
 11
-0.6955
 21
0.499566
 31
-1.57
210
0.0
220
0.0
230
-1.0
  0
CIRCLE
  5
6E179
100
AcDbEntity
  8
0
100
AcDbCircle
 10
0.7155
 20
-0.6265
 30
1.57
 40
0.1285
210
0.0
220
0.0
230
-1.0
  0
LINE
  5
6E17A
100
AcDbEntity
  8
0
100
AcDbLine
 10
-0.6955
 20
-0.753434
 30
-1.57
 11
-0.6955
 21
-0.499566
 31
-1.57
210
0.0
220
0.0
230
-1.0
  0
LINE
  5
6E17B
100
AcDbEntity
  8
0
100
AcDbLine
 10
-0.7355
 20
-0.753434
 30
-1.57
 11
-0.7355
 21
-0.499566
 31
-1.57
210
0.0
220
0.0
230
-1.0
  0
POLYLINE
  5
6E17C
100
AcDbEntity
  8
0
100
AcDbPolygonMesh
 66
     1
 10
0.0
 20
0.0
 30
0.0
 70
    16
 71
     6
 72
     3
  0
VERTEX
  5
6E17D
100
AcDbEntity
  8
0
100
AcDbVertex
100
AcDbPolygonMeshVertex
 10
0.0
 20
0.373
 30
-1.03
 70
    64
  0
VERTEX
  5
6E17E
100
AcDbEntity
  8
0
100
AcDbVertex
100
AcDbPolygonMeshVertex
 10
0.0
 20
0.373
 30
0.0
 70
    64
  0
VERTEX
  5
6E17F
100
AcDbEntity
  8
0
100
AcDbVertex
100
AcDbPolygonMeshVertex
 10
0.0
 20
0.373
 30
0.0
 70
    64
  0
VERTEX
  5
6E180
100
AcDbEntity
  8
0
100
AcDbVertex
100
AcDbPolygonMeshVertex
 10
0.0
 20
0.8145
 30
-1.03
 70
    64
  0
VERTEX
  5
6E181
100
AcDbEntity
  8
0
100
AcDbVertex
100
AcDbPolygonMeshVertex
 10
0.0
 20
0.8145
 30
0.0
 70
    64
  0
VERTEX
  5
6E182
100
AcDbEntity
  8
0
100
AcDbVertex
100
AcDbPolygonMeshVertex
 10
0.0
 20
0.8145
 30
0.0
 70
    64
  0
VERTEX
  5
6E183
100
AcDbEntity
  8
0
100
AcDbVertex
100
AcDbPolygonMeshVertex
 10
-0.126
 20
0.8145
 30
-1.03
 70
    64
  0
VERTEX
  5
6E184
100
AcDbEntity
  8
0
100
AcDbVertex
100
AcDbPolygonMeshVertex
 10
-0.126
 20
0.8145
 30
0.0
 70
    64
  0
VERTEX
  5
6E185
100
AcDbEntity
  8
0
100
AcDbVertex
100
AcDbPolygonMeshVertex
 10
0.0
 20
0.8145
 30
0.0
 70
    64
  0
VERTEX
  5
6E186
100
AcDbEntity
  8
0
100
AcDbVertex
100
AcDbPolygonMeshVertex
 10
-0.126
 20
0.373
 30
-1.03
 70
    64
  0
VERTEX
  5
6E187
100
AcDbEntity
  8
0
100
AcDbVertex
100
AcDbPolygonMeshVertex
 10
-0.126
 20
0.373
 30
0.0
 70
    64
  0
VERTEX
  5
6E188
100
AcDbEntity
  8
0
100
AcDbVertex
100
AcDbPolygonMeshVertex
 10
0.0
 20
0.373
 30
0.0
 70
    64
  0
VERTEX
  5
6E189
100
AcDbEntity
  8
0
100
AcDbVertex
100
AcDbPolygonMeshVertex
 10
-0.126
 20
0.373
 30
-1.03
 70
    64
  0
VERTEX
  5
6E18A
100
AcDbEntity
  8
0
100
AcDbVertex
100
AcDbPolygonMeshVertex
 10
-0.126
 20
0.373
 30
-1.03
 70
    64
  0
VERTEX
  5
6E18B
100
AcDbEntity
  8
0
100
AcDbVertex
100
AcDbPolygonMeshVertex
 10
0.0
 20
0.373
 30
-1.03
 70
    64
  0
VERTEX
  5
6E18C
100
AcDbEntity
  8
0
100
AcDbVertex
100
AcDbPolygonMeshVertex
 10
-0.126
 20
0.8145
 30
-1.03
 70
    64
  0
VERTEX
  5
6E18D
100
AcDbEntity
  8
0
100
AcDbVertex
100
AcDbPolygonMeshVertex
 10
-0.126
 20
0.8145
 30
-1.03
 70
    64
  0
VERTEX
  5
6E18E
100
AcDbEntity
  8
0
100
AcDbVertex
100
AcDbPolygonMeshVertex
 10
0.0
 20
0.8145
 30
-1.03
 70
    64
  0
SEQEND
  5
6E18F
100
AcDbEntity
  8
0
  0
POLYLINE
  5
6E190
100
AcDbEntity
  8
0
100
AcDbPolygonMesh
 66
     1
 10
0.0
 20
0.0
 30
0.0
 70
    16
 71
     6
 72
     3
  0
VERTEX
  5
6E191
100
AcDbEntity
  8
0
100
AcDbVertex
100
AcDbPolygonMeshVertex
 10
0.0
 20
-0.8145
 30
-1.03
 70
    64
  0
VERTEX
  5
6E192
100
AcDbEntity
  8
0
100
AcDbVertex
100
AcDbPolygonMeshVertex
 10
0.0
 20
-0.8145
 30
0.0
 70
    64
  0
VERTEX
  5
6E193
100
AcDbEntity
  8
0
100
AcDbVertex
100
AcDbPolygonMeshVertex
 10
0.0
 20
-0.8145
 30
0.0
 70
    64
  0
VERTEX
  5
6E194
100
AcDbEntity
  8
0
100
AcDbVertex
100
AcDbPolygonMeshVertex
 10
0.0
 20
-0.373
 30
-1.03
 70
    64
  0
VERTEX
  5
6E195
100
AcDbEntity
  8
0
100
AcDbVertex
100
AcDbPolygonMeshVertex
 10
0.0
 20
-0.373
 30
0.0
 70
    64
  0
VERTEX
  5
6E196
100
AcDbEntity
  8
0
100
AcDbVertex
100
AcDbPolygonMeshVertex
 10
0.0
 20
-0.373
 30
0.0
 70
    64
  0
VERTEX
  5
6E197
100
AcDbEntity
  8
0
100
AcDbVertex
100
AcDbPolygonMeshVertex
 10
-0.126
 20
-0.373
 30
-1.03
 70
    64
  0
VERTEX
  5
6E198
100
AcDbEntity
  8
0
100
AcDbVertex
100
AcDbPolygonMeshVertex
 10
-0.126
 20
-0.373
 30
0.0
 70
    64
  0
VERTEX
  5
6E199
100
AcDbEntity
  8
0
100
AcDbVertex
100
AcDbPolygonMeshVertex
 10
0.0
 20
-0.373
 30
0.0
 70
    64
  0
VERTEX
  5
6E19A
100
AcDbEntity
  8
0
100
AcDbVertex
100
AcDbPolygonMeshVertex
 10
-0.126
 20
-0.8145
 30
-1.03
 70
    64
  0
VERTEX
  5
6E19B
100
AcDbEntity
  8
0
100
AcDbVertex
100
AcDbPolygonMeshVertex
 10
-0.126
 20
-0.8145
 30
0.0
 70
    64
  0
VERTEX
  5
6E19C
100
AcDbEntity
  8
0
100
AcDbVertex
100
AcDbPolygonMeshVertex
 10
0.0
 20
-0.8145
 30
0.0
 70
    64
  0
VERTEX
  5
6E19D
100
AcDbEntity
  8
0
100
AcDbVertex
100
AcDbPolygonMeshVertex
 10
-0.126
 20
-0.8145
 30
-1.03
 70
    64
  0
VERTEX
  5
6E19E
100
AcDbEntity
  8
0
100
AcDbVertex
100
AcDbPolygonMeshVertex
 10
-0.126
 20
-0.8145
 30
-1.03
 70
    64
  0
VERTEX
  5
6E19F
100
AcDbEntity
  8
0
100
AcDbVertex
100
AcDbPolygonMeshVertex
 10
0.0
 20
-0.8145
 30
-1.03
 70
    64
  0
VERTEX
  5
6E1A0
100
AcDbEntity
  8
0
100
AcDbVertex
100
AcDbPolygonMeshVertex
 10
-0.126
 20
-0.373
 30
-1.03
 70
    64
  0
VERTEX
  5
6E1A1
100
AcDbEntity
  8
0
100
AcDbVertex
100
AcDbPolygonMeshVertex
 10
-0.126
 20
-0.373
 30
-1.03
 70
    64
  0
VERTEX
  5
6E1A2
100
AcDbEntity
  8
0
100
AcDbVertex
100
AcDbPolygonMeshVertex
 10
0.0
 20
-0.373
 30
-1.03
 70
    64
  0
SEQEND
  5
6E1A3
100
AcDbEntity
  8
0
  0
ARC
  5
6E1A4
100
AcDbEntity
  8
0
100
AcDbCircle
 10
-0.003
 20
0.59375
 30
1.57
 40
0.187
210
0.0
220
0.0
230
-1.0
100
AcDbArc
 50
313.617411
 51
46.382589
  0
ARC
  5
6E1A5
100
AcDbEntity
  8
0
100
AcDbCircle
 10
0.0
 20
0.59375
 30
1.03
 40
0.1145
210
0.0
220
0.0
230
-1.0
100
AcDbArc
 50
270.0
 51
90.0
  0
ARC
  5
6E1A6
100
AcDbEntity
  8
0
100
AcDbCircle
 10
0.0
 20
-0.59375
 30
1.03
 40
0.1145
210
0.0
220
0.0
230
-1.0
100
AcDbArc
 50
270.0
 51
90.0
  0
ARC
  5
6E1A7
100
AcDbEntity
  8
0
100
AcDbCircle
 10
-0.003
 20
-0.59375
 30
1.57
 40
0.187
210
0.0
220
0.0
230
-1.0
100
AcDbArc
 50
313.617411
 51
46.382589
  0
LINE
  5
6E1A8
100
AcDbEntity
  8
0
100
AcDbLine
 10
-0.126
 20
-0.729131
 30
-1.57
 11
-0.126
 21
-0.729131
 31
-1.03
210
0.0
220
0.0
230
-1.0
  0
LINE
  5
6E1A9
100
AcDbEntity
  8
0
100
AcDbLine
 10
-0.126
 20
-0.458369
 30
-1.57
 11
-0.126
 21
-0.458369
 31
-1.03
210
0.0
220
0.0
230
-1.0
  0
LINE
  5
6E1AA
100
AcDbEntity
  8
0
100
AcDbLine
 10
-0.126
 20
0.458369
 30
-1.57
 11
-0.126
 21
0.458369
 31
-1.03
210
0.0
220
0.0
230
-1.0
  0
LINE
  5
6E1AB
100
AcDbEntity
  8
0
100
AcDbLine
 10
-0.126
 20
0.729131
 30
-1.57
 11
-0.126
 21
0.729131
 31
-1.03
210
0.0
220
0.0
230
-1.0
  0
LINE
  5
6E1AC
100
AcDbEntity
  8
0
100
AcDbLine
 10
0.0
 20
-0.70825
 30
-1.03
 11
0.0
 21
-0.70825
 31
0.0
210
0.0
220
0.0
230
-1.0
  0
LINE
  5
6E1AD
100
AcDbEntity
  8
0
100
AcDbLine
 10
0.0
 20
-0.47925
 30
-1.03
 11
0.0
 21
-0.47925
 31
0.0
210
0.0
220
0.0
230
-1.0
  0
LINE
  5
6E1AE
100
AcDbEntity
  8
0
100
AcDbLine
 10
0.0
 20
0.47925
 30
-1.03
 11
0.0
 21
0.47925
 31
0.0
210
0.0
220
0.0
230
-1.0
  0
LINE
  5
6E1AF
100
AcDbEntity
  8
0
100
AcDbLine
 10
0.0
 20
0.70825
 30
-1.03
 11
0.0
 21
0.70825
 31
0.0
210
0.0
220
0.0
230
-1.0
  0
POLYLINE
  5
6E1B0
100
AcDbEntity
  8
0
100
AcDbPolygonMesh
 66
     1
 10
0.0
 20
0.0
 30
0.0
 70
    16
 71
     6
 72
     3
  0
VERTEX
  5
6E1B1
100
AcDbEntity
  8
0
100
AcDbVertex
100
AcDbPolygonMeshVertex
 10
0.0
 20
0.8145
 30
-0.275
 70
    64
  0
VERTEX
  5
6E1B2
100
AcDbEntity
  8
0
100
AcDbVertex
100
AcDbPolygonMeshVertex
 10
0.0
 20
0.8145
 30
0.0
 70
    64
  0
VERTEX
  5
6E1B3
100
AcDbEntity
  8
0
100
AcDbVertex
100
AcDbPolygonMeshVertex
 10
0.0
 20
0.8145
 30
0.0
 70
    64
  0
VERTEX
  5
6E1B4
100
AcDbEntity
  8
0
100
AcDbVertex
100
AcDbPolygonMeshVertex
 10
0.0
 20
0.70825
 30
-0.275
 70
    64
  0
VERTEX
  5
6E1B5
100
AcDbEntity
  8
0
100
AcDbVertex
100
AcDbPolygonMeshVertex
 10
0.0
 20
0.70825
 30
0.0
 70
    64
  0
VERTEX
  5
6E1B6
100
AcDbEntity
  8
0
100
AcDbVertex
100
AcDbPolygonMeshVertex
 10
0.0
 20
0.70825
 30
0.0
 70
    64
  0
VERTEX
  5
6E1B7
100
AcDbEntity
  8
0
100
AcDbVertex
100
AcDbPolygonMeshVertex
 10
0.106
 20
0.70825
 30
-0.275
 70
    64
  0
VERTEX
  5
6E1B8
100
AcDbEntity
  8
0
100
AcDbVertex
100
AcDbPolygonMeshVertex
 10
0.106
 20
0.70825
 30
0.0
 70
    64
  0
VERTEX
  5
6E1B9
100
AcDbEntity
  8
0
100
AcDbVertex
100
AcDbPolygonMeshVertex
 10
0.0
 20
0.70825
 30
0.0
 70
    64
  0
VERTEX
  5
6E1BA
100
AcDbEntity
  8
0
100
AcDbVertex
100
AcDbPolygonMeshVertex
 10
0.106
 20
0.8145
 30
-0.275
 70
    64
  0
VERTEX
  5
6E1BB
100
AcDbEntity
  8
0
100
AcDbVertex
100
AcDbPolygonMeshVertex
 10
0.106
 20
0.8145
 30
0.0
 70
    64
  0
VERTEX
  5
6E1BC
100
AcDbEntity
  8
0
100
AcDbVertex
100
AcDbPolygonMeshVertex
 10
0.0
 20
0.8145
 30
0.0
 70
    64
  0
VERTEX
  5
6E1BD
100
AcDbEntity
  8
0
100
AcDbVertex
100
AcDbPolygonMeshVertex
 10
0.106
 20
0.8145
 30
-0.275
 70
    64
  0
VERTEX
  5
6E1BE
100
AcDbEntity
  8
0
100
AcDbVertex
100
AcDbPolygonMeshVertex
 10
0.106
 20
0.8145
 30
-0.275
 70
    64
  0
VERTEX
  5
6E1BF
100
AcDbEntity
  8
0
100
AcDbVertex
100
AcDbPolygonMeshVertex
 10
0.0
 20
0.8145
 30
-0.275
 70
    64
  0
VERTEX
  5
6E1C0
100
AcDbEntity
  8
0
100
AcDbVertex
100
AcDbPolygonMeshVertex
 10
0.106
 20
0.70825
 30
-0.275
 70
    64
  0
VERTEX
  5
6E1C1
100
AcDbEntity
  8
0
100
AcDbVertex
100
AcDbPolygonMeshVertex
 10
0.106
 20
0.70825
 30
-0.275
 70
    64
  0
VERTEX
  5
6E1C2
100
AcDbEntity
  8
0
100
AcDbVertex
100
AcDbPolygonMeshVertex
 10
0.0
 20
0.70825
 30
-0.275
 70
    64
  0
SEQEND
  5
6E1C3
100
AcDbEntity
  8
0
  0
POLYLINE
  5
6E1C4
100
AcDbEntity
  8
0
100
AcDbPolygonMesh
 66
     1
 10
0.0
 20
0.0
 30
0.0
 70
    16
 71
     6
 72
     3
  0
VERTEX
  5
6E1C5
100
AcDbEntity
  8
0
100
AcDbVertex
100
AcDbPolygonMeshVertex
 10
0.0
 20
-0.47925
 30
-0.275
 70
    64
  0
VERTEX
  5
6E1C6
100
AcDbEntity
  8
0
100
AcDbVertex
100
AcDbPolygonMeshVertex
 10
0.0
 20
-0.47925
 30
0.0
 70
    64
  0
VERTEX
  5
6E1C7
100
AcDbEntity
  8
0
100
AcDbVertex
100
AcDbPolygonMeshVertex
 10
0.0
 20
-0.47925
 30
0.0
 70
    64
  0
VERTEX
  5
6E1C8
100
AcDbEntity
  8
0
100
AcDbVertex
100
AcDbPolygonMeshVertex
 10
0.0
 20
-0.373
 30
-0.275
 70
    64
  0
VERTEX
  5
6E1C9
100
AcDbEntity
  8
0
100
AcDbVertex
100
AcDbPolygonMeshVertex
 10
0.0
 20
-0.373
 30
0.0
 70
    64
  0
VERTEX
  5
6E1CA
100
AcDbEntity
  8
0
100
AcDbVertex
100
AcDbPolygonMeshVertex
 10
0.0
 20
-0.373
 30
0.0
 70
    64
  0
VERTEX
  5
6E1CB
100
AcDbEntity
  8
0
100
AcDbVertex
100
AcDbPolygonMeshVertex
 10
0.106
 20
-0.373
 30
-0.275
 70
    64
  0
VERTEX
  5
6E1CC
100
AcDbEntity
  8
0
100
AcDbVertex
100
AcDbPolygonMeshVertex
 10
0.106
 20
-0.373
 30
0.0
 70
    64
  0
VERTEX
  5
6E1CD
100
AcDbEntity
  8
0
100
AcDbVertex
100
AcDbPolygonMeshVertex
 10
0.0
 20
-0.373
 30
0.0
 70
    64
  0
VERTEX
  5
6E1CE
100
AcDbEntity
  8
0
100
AcDbVertex
100
AcDbPolygonMeshVertex
 10
0.106
 20
-0.47925
 30
-0.275
 70
    64
  0
VERTEX
  5
6E1CF
100
AcDbEntity
  8
0
100
AcDbVertex
100
AcDbPolygonMeshVertex
 10
0.106
 20
-0.47925
 30
0.0
 70
    64
  0
VERTEX
  5
6E1D0
100
AcDbEntity
  8
0
100
AcDbVertex
100
AcDbPolygonMeshVertex
 10
0.0
 20
-0.47925
 30
0.0
 70
    64
  0
VERTEX
  5
6E1D1
100
AcDbEntity
  8
0
100
AcDbVertex
100
AcDbPolygonMeshVertex
 10
0.106
 20
-0.47925
 30
-0.275
 70
    64
  0
VERTEX
  5
6E1D2
100
AcDbEntity
  8
0
100
AcDbVertex
100
AcDbPolygonMeshVertex
 10
0.106
 20
-0.47925
 30
-0.275
 70
    64
  0
VERTEX
  5
6E1D3
100
AcDbEntity
  8
0
100
AcDbVertex
100
AcDbPolygonMeshVertex
 10
0.0
 20
-0.47925
 30
-0.275
 70
    64
  0
VERTEX
  5
6E1D4
100
AcDbEntity
  8
0
100
AcDbVertex
100
AcDbPolygonMeshVertex
 10
0.106
 20
-0.373
 30
-0.275
 70
    64
  0
VERTEX
  5
6E1D5
100
AcDbEntity
  8
0
100
AcDbVertex
100
AcDbPolygonMeshVertex
 10
0.106
 20
-0.373
 30
-0.275
 70
    64
  0
VERTEX
  5
6E1D6
100
AcDbEntity
  8
0
100
AcDbVertex
100
AcDbPolygonMeshVertex
 10
0.0
 20
-0.373
 30
-0.275
 70
    64
  0
SEQEND
  5
6E1D7
100
AcDbEntity
  8
0
  0
POLYLINE
  5
6E1D8
100
AcDbEntity
  8
0
100
AcDbPolygonMesh
 66
     1
 10
0.0
 20
0.0
 30
0.0
 70
    16
 71
     6
 72
     3
  0
VERTEX
  5
6E1D9
100
AcDbEntity
  8
0
100
AcDbVertex
100
AcDbPolygonMeshVertex
 10
-0.568
 20
0.8975
 30
-0.18
 70
    64
  0
VERTEX
  5
6E1DA
100
AcDbEntity
  8
0
100
AcDbVertex
100
AcDbPolygonMeshVertex
 10
-0.568
 20
0.8975
 30
0.0
 70
    64
  0
VERTEX
  5
6E1DB
100
AcDbEntity
  8
0
100
AcDbVertex
100
AcDbPolygonMeshVertex
 10
-0.568
 20
0.8975
 30
0.0
 70
    64
  0
VERTEX
  5
6E1DC
100
AcDbEntity
  8
0
100
AcDbVertex
100
AcDbPolygonMeshVertex
 10
-0.568
 20
-0.8975
 30
-0.18
 70
    64
  0
VERTEX
  5
6E1DD
100
AcDbEntity
  8
0
100
AcDbVertex
100
AcDbPolygonMeshVertex
 10
-0.568
 20
-0.8975
 30
0.0
 70
    64
  0
VERTEX
  5
6E1DE
100
AcDbEntity
  8
0
100
AcDbVertex
100
AcDbPolygonMeshVertex
 10
-0.568
 20
-0.8975
 30
0.0
 70
    64
  0
VERTEX
  5
6E1DF
100
AcDbEntity
  8
0
100
AcDbVertex
100
AcDbPolygonMeshVertex
 10
-0.468
 20
-0.8975
 30
-0.18
 70
    64
  0
VERTEX
  5
6E1E0
100
AcDbEntity
  8
0
100
AcDbVertex
100
AcDbPolygonMeshVertex
 10
-0.468
 20
-0.8975
 30
0.0
 70
    64
  0
VERTEX
  5
6E1E1
100
AcDbEntity
  8
0
100
AcDbVertex
100
AcDbPolygonMeshVertex
 10
-0.568
 20
-0.8975
 30
0.0
 70
    64
  0
VERTEX
  5
6E1E2
100
AcDbEntity
  8
0
100
AcDbVertex
100
AcDbPolygonMeshVertex
 10
-0.468
 20
0.8975
 30
-0.18
 70
    64
  0
VERTEX
  5
6E1E3
100
AcDbEntity
  8
0
100
AcDbVertex
100
AcDbPolygonMeshVertex
 10
-0.468
 20
0.8975
 30
0.0
 70
    64
  0
VERTEX
  5
6E1E4
100
AcDbEntity
  8
0
100
AcDbVertex
100
AcDbPolygonMeshVertex
 10
-0.568
 20
0.8975
 30
0.0
 70
    64
  0
VERTEX
  5
6E1E5
100
AcDbEntity
  8
0
100
AcDbVertex
100
AcDbPolygonMeshVertex
 10
-0.468
 20
0.8975
 30
-0.18
 70
    64
  0
VERTEX
  5
6E1E6
100
AcDbEntity
  8
0
100
AcDbVertex
100
AcDbPolygonMeshVertex
 10
-0.468
 20
0.8975
 30
-0.18
 70
    64
  0
VERTEX
  5
6E1E7
100
AcDbEntity
  8
0
100
AcDbVertex
100
AcDbPolygonMeshVertex
 10
-0.568
 20
0.8975
 30
-0.18
 70
    64
  0
VERTEX
  5
6E1E8
100
AcDbEntity
  8
0
100
AcDbVertex
100
AcDbPolygonMeshVertex
 10
-0.468
 20
-0.8975
 30
-0.18
 70
    64
  0
VERTEX
  5
6E1E9
100
AcDbEntity
  8
0
100
AcDbVertex
100
AcDbPolygonMeshVertex
 10
-0.468
 20
-0.8975
 30
-0.18
 70
    64
  0
VERTEX
  5
6E1EA
100
AcDbEntity
  8
0
100
AcDbVertex
100
AcDbPolygonMeshVertex
 10
-0.568
 20
-0.8975
 30
-0.18
 70
    64
  0
SEQEND
  5
6E1EB
100
AcDbEntity
  8
0
  0
POLYLINE
  5
6E1EC
100
AcDbEntity
  8
0
100
AcDbPolygonMesh
 66
     1
 10
0.0
 20
0.0
 30
0.0
 70
    16
 71
     6
 72
     3
  0
VERTEX
  5
6E1ED
100
AcDbEntity
  8
0
100
AcDbVertex
100
AcDbPolygonMeshVertex
 10
-0.963
 20
0.427198
 30
-0.220027
 70
    64
  0
VERTEX
  5
6E1EE
100
AcDbEntity
  8
0
100
AcDbVertex
100
AcDbPolygonMeshVertex
 10
-0.963
 20
0.427198
 30
-0.180027
 70
    64
  0
VERTEX
  5
6E1EF
100
AcDbEntity
  8
0
100
AcDbVertex
100
AcDbPolygonMeshVertex
 10
-0.963
 20
0.427198
 30
-0.180027
 70
    64
  0
VERTEX
  5
6E1F0
100
AcDbEntity
  8
0
100
AcDbVertex
100
AcDbPolygonMeshVertex
 10
-0.963
 20
-0.427198
 30
-0.220027
 70
    64
  0
VERTEX
  5
6E1F1
100
AcDbEntity
  8
0
100
AcDbVertex
100
AcDbPolygonMeshVertex
 10
-0.963
 20
-0.427198
 30
-0.180027
 70
    64
  0
VERTEX
  5
6E1F2
100
AcDbEntity
  8
0
100
AcDbVertex
100
AcDbPolygonMeshVertex
 10
-0.963
 20
-0.427198
 30
-0.180027
 70
    64
  0
VERTEX
  5
6E1F3
100
AcDbEntity
  8
0
100
AcDbVertex
100
AcDbPolygonMeshVertex
 10
-0.468
 20
-0.427198
 30
-0.220027
 70
    64
  0
VERTEX
  5
6E1F4
100
AcDbEntity
  8
0
100
AcDbVertex
100
AcDbPolygonMeshVertex
 10
-0.468
 20
-0.427198
 30
-0.180027
 70
    64
  0
VERTEX
  5
6E1F5
100
AcDbEntity
  8
0
100
AcDbVertex
100
AcDbPolygonMeshVertex
 10
-0.963
 20
-0.427198
 30
-0.180027
 70
    64
  0
VERTEX
  5
6E1F6
100
AcDbEntity
  8
0
100
AcDbVertex
100
AcDbPolygonMeshVertex
 10
-0.468
 20
0.427198
 30
-0.220027
 70
    64
  0
VERTEX
  5
6E1F7
100
AcDbEntity
  8
0
100
AcDbVertex
100
AcDbPolygonMeshVertex
 10
-0.468
 20
0.427198
 30
-0.180027
 70
    64
  0
VERTEX
  5
6E1F8
100
AcDbEntity
  8
0
100
AcDbVertex
100
AcDbPolygonMeshVertex
 10
-0.963
 20
0.427198
 30
-0.180027
 70
    64
  0
VERTEX
  5
6E1F9
100
AcDbEntity
  8
0
100
AcDbVertex
100
AcDbPolygonMeshVertex
 10
-0.468
 20
0.427198
 30
-0.220027
 70
    64
  0
VERTEX
  5
6E1FA
100
AcDbEntity
  8
0
100
AcDbVertex
100
AcDbPolygonMeshVertex
 10
-0.468
 20
0.427198
 30
-0.220027
 70
    64
  0
VERTEX
  5
6E1FB
100
AcDbEntity
  8
0
100
AcDbVertex
100
AcDbPolygonMeshVertex
 10
-0.963
 20
0.427198
 30
-0.220027
 70
    64
  0
VERTEX
  5
6E1FC
100
AcDbEntity
  8
0
100
AcDbVertex
100
AcDbPolygonMeshVertex
 10
-0.468
 20
-0.427198
 30
-0.220027
 70
    64
  0
VERTEX
  5
6E1FD
100
AcDbEntity
  8
0
100
AcDbVertex
100
AcDbPolygonMeshVertex
 10
-0.468
 20
-0.427198
 30
-0.220027
 70
    64
  0
VERTEX
  5
6E1FE
100
AcDbEntity
  8
0
100
AcDbVertex
100
AcDbPolygonMeshVertex
 10
-0.963
 20
-0.427198
 30
-0.220027
 70
    64
  0
SEQEND
  5
6E1FF
100
AcDbEntity
  8
0
  0
POLYLINE
  5
6E200
100
AcDbEntity
  8
0
100
AcDbPolygonMesh
 66
     1
 10
0.0
 20
0.0
 30
0.0
 70
    16
 71
     6
 72
     3
  0
VERTEX
  5
6E201
100
AcDbEntity
  8
0
100
AcDbVertex
100
AcDbPolygonMeshVertex
 10
-0.568
 20
-0.8975
 30
-0.18
 70
    64
  0
VERTEX
  5
6E202
100
AcDbEntity
  8
0
100
AcDbVertex
100
AcDbPolygonMeshVertex
 10
-0.568
 20
-0.8975
 30
0.0
 70
    64
  0
VERTEX
  5
6E203
100
AcDbEntity
  8
0
100
AcDbVertex
100
AcDbPolygonMeshVertex
 10
-0.568
 20
-0.8975
 30
0.0
 70
    64
  0
VERTEX
  5
6E204
100
AcDbEntity
  8
0
100
AcDbVertex
100
AcDbPolygonMeshVertex
 10
-0.568
 20
-0.8145
 30
-0.18
 70
    64
  0
VERTEX
  5
6E205
100
AcDbEntity
  8
0
100
AcDbVertex
100
AcDbPolygonMeshVertex
 10
-0.568
 20
-0.8145
 30
0.0
 70
    64
  0
VERTEX
  5
6E206
100
AcDbEntity
  8
0
100
AcDbVertex
100
AcDbPolygonMeshVertex
 10
-0.568
 20
-0.8145
 30
0.0
 70
    64
  0
VERTEX
  5
6E207
100
AcDbEntity
  8
0
100
AcDbVertex
100
AcDbPolygonMeshVertex
 10
-0.963
 20
-0.8145
 30
-0.18
 70
    64
  0
VERTEX
  5
6E208
100
AcDbEntity
  8
0
100
AcDbVertex
100
AcDbPolygonMeshVertex
 10
-0.963
 20
-0.8145
 30
0.0
 70
    64
  0
VERTEX
  5
6E209
100
AcDbEntity
  8
0
100
AcDbVertex
100
AcDbPolygonMeshVertex
 10
-0.568
 20
-0.8145
 30
0.0
 70
    64
  0
VERTEX
  5
6E20A
100
AcDbEntity
  8
0
100
AcDbVertex
100
AcDbPolygonMeshVertex
 10
-0.963
 20
-0.8975
 30
-0.18
 70
    64
  0
VERTEX
  5
6E20B
100
AcDbEntity
  8
0
100
AcDbVertex
100
AcDbPolygonMeshVertex
 10
-0.963
 20
-0.8975
 30
0.0
 70
    64
  0
VERTEX
  5
6E20C
100
AcDbEntity
  8
0
100
AcDbVertex
100
AcDbPolygonMeshVertex
 10
-0.568
 20
-0.8975
 30
0.0
 70
    64
  0
VERTEX
  5
6E20D
100
AcDbEntity
  8
0
100
AcDbVertex
100
AcDbPolygonMeshVertex
 10
-0.963
 20
-0.8975
 30
-0.18
 70
    64
  0
VERTEX
  5
6E20E
100
AcDbEntity
  8
0
100
AcDbVertex
100
AcDbPolygonMeshVertex
 10
-0.963
 20
-0.8975
 30
-0.18
 70
    64
  0
VERTEX
  5
6E20F
100
AcDbEntity
  8
0
100
AcDbVertex
100
AcDbPolygonMeshVertex
 10
-0.568
 20
-0.8975
 30
-0.18
 70
    64
  0
VERTEX
  5
6E210
100
AcDbEntity
  8
0
100
AcDbVertex
100
AcDbPolygonMeshVertex
 10
-0.963
 20
-0.8145
 30
-0.18
 70
    64
  0
VERTEX
  5
6E211
100
AcDbEntity
  8
0
100
AcDbVertex
100
AcDbPolygonMeshVertex
 10
-0.963
 20
-0.8145
 30
-0.18
 70
    64
  0
VERTEX
  5
6E212
100
AcDbEntity
  8
0
100
AcDbVertex
100
AcDbPolygonMeshVertex
 10
-0.568
 20
-0.8145
 30
-0.18
 70
    64
  0
SEQEND
  5
6E213
100
AcDbEntity
  8
0
  0
POLYLINE
  5
6E214
100
AcDbEntity
  8
0
100
AcDbPolygonMesh
 66
     1
 10
0.0
 20
0.0
 30
0.0
 70
    16
 71
     6
 72
     3
  0
VERTEX
  5
6E215
100
AcDbEntity
  8
0
100
AcDbVertex
100
AcDbPolygonMeshVertex
 10
-0.568
 20
0.8145
 30
-0.18
 70
    64
  0
VERTEX
  5
6E216
100
AcDbEntity
  8
0
100
AcDbVertex
100
AcDbPolygonMeshVertex
 10
-0.568
 20
0.8145
 30
0.0
 70
    64
  0
VERTEX
  5
6E217
100
AcDbEntity
  8
0
100
AcDbVertex
100
AcDbPolygonMeshVertex
 10
-0.568
 20
0.8145
 30
0.0
 70
    64
  0
VERTEX
  5
6E218
100
AcDbEntity
  8
0
100
AcDbVertex
100
AcDbPolygonMeshVertex
 10
-0.568
 20
0.8975
 30
-0.18
 70
    64
  0
VERTEX
  5
6E219
100
AcDbEntity
  8
0
100
AcDbVertex
100
AcDbPolygonMeshVertex
 10
-0.568
 20
0.8975
 30
0.0
 70
    64
  0
VERTEX
  5
6E21A
100
AcDbEntity
  8
0
100
AcDbVertex
100
AcDbPolygonMeshVertex
 10
-0.568
 20
0.8975
 30
0.0
 70
    64
  0
VERTEX
  5
6E21B
100
AcDbEntity
  8
0
100
AcDbVertex
100
AcDbPolygonMeshVertex
 10
-0.963
 20
0.8975
 30
-0.18
 70
    64
  0
VERTEX
  5
6E21C
100
AcDbEntity
  8
0
100
AcDbVertex
100
AcDbPolygonMeshVertex
 10
-0.963
 20
0.8975
 30
0.0
 70
    64
  0
VERTEX
  5
6E21D
100
AcDbEntity
  8
0
100
AcDbVertex
100
AcDbPolygonMeshVertex
 10
-0.568
 20
0.8975
 30
0.0
 70
    64
  0
VERTEX
  5
6E21E
100
AcDbEntity
  8
0
100
AcDbVertex
100
AcDbPolygonMeshVertex
 10
-0.963
 20
0.8145
 30
-0.18
 70
    64
  0
VERTEX
  5
6E21F
100
AcDbEntity
  8
0
100
AcDbVertex
100
AcDbPolygonMeshVertex
 10
-0.963
 20
0.8145
 30
0.0
 70
    64
  0
VERTEX
  5
6E220
100
AcDbEntity
  8
0
100
AcDbVertex
100
AcDbPolygonMeshVertex
 10
-0.568
 20
0.8145
 30
0.0
 70
    64
  0
VERTEX
  5
6E221
100
AcDbEntity
  8
0
100
AcDbVertex
100
AcDbPolygonMeshVertex
 10
-0.963
 20
0.8145
 30
-0.18
 70
    64
  0
VERTEX
  5
6E222
100
AcDbEntity
  8
0
100
AcDbVertex
100
AcDbPolygonMeshVertex
 10
-0.963
 20
0.8145
 30
-0.18
 70
    64
  0
VERTEX
  5
6E223
100
AcDbEntity
  8
0
100
AcDbVertex
100
AcDbPolygonMeshVertex
 10
-0.568
 20
0.8145
 30
-0.18
 70
    64
  0
VERTEX
  5
6E224
100
AcDbEntity
  8
0
100
AcDbVertex
100
AcDbPolygonMeshVertex
 10
-0.963
 20
0.8975
 30
-0.18
 70
    64
  0
VERTEX
  5
6E225
100
AcDbEntity
  8
0
100
AcDbVertex
100
AcDbPolygonMeshVertex
 10
-0.963
 20
0.8975
 30
-0.18
 70
    64
  0
VERTEX
  5
6E226
100
AcDbEntity
  8
0
100
AcDbVertex
100
AcDbPolygonMeshVertex
 10
-0.568
 20
0.8975
 30
-0.18
 70
    64
  0
SEQEND
  5
6E227
100
AcDbEntity
  8
0
  0
LINE
  5
6E228
100
AcDbEntity
  8
0
100
AcDbLine
 10
-0.468
 20
0.1425
 30
0.0
 11
-0.126
 21
0.1425
 31
0.0
210
0.0
220
0.0
230
-1.0
  0
LINE
  5
6E229
100
AcDbEntity
  8
0
100
AcDbLine
 10
-0.468
 20
-0.1425
 30
0.0
 11
-0.126
 21
-0.1425
 31
0.0
210
0.0
220
0.0
230
-1.0
  0
POLYLINE
  5
6E22A
100
AcDbEntity
  8
0
100
AcDbPolygonMesh
 66
     1
 10
0.0
 20
0.0
 30
0.0
 70
    16
 71
     6
 72
     3
  0
VERTEX
  5
6E22B
100
AcDbEntity
  8
0
100
AcDbVertex
100
AcDbPolygonMeshVertex
 10
-0.03
 20
-0.373
 30
-1.57
 70
    64
  0
VERTEX
  5
6E22C
100
AcDbEntity
  8
0
100
AcDbVertex
100
AcDbPolygonMeshVertex
 10
-0.03
 20
-0.373
 30
-0.288
 70
    64
  0
VERTEX
  5
6E22D
100
AcDbEntity
  8
0
100
AcDbVertex
100
AcDbPolygonMeshVertex
 10
-0.03
 20
-0.373
 30
-0.288
 70
    64
  0
VERTEX
  5
6E22E
100
AcDbEntity
  8
0
100
AcDbVertex
100
AcDbPolygonMeshVertex
 10
-0.03
 20
0.373
 30
-1.57
 70
    64
  0
VERTEX
  5
6E22F
100
AcDbEntity
  8
0
100
AcDbVertex
100
AcDbPolygonMeshVertex
 10
-0.03
 20
0.373
 30
-0.288
 70
    64
  0
VERTEX
  5
6E230
100
AcDbEntity
  8
0
100
AcDbVertex
100
AcDbPolygonMeshVertex
 10
-0.03
 20
0.373
 30
-0.288
 70
    64
  0
VERTEX
  5
6E231
100
AcDbEntity
  8
0
100
AcDbVertex
100
AcDbPolygonMeshVertex
 10
-0.126
 20
0.373
 30
-1.57
 70
    64
  0
VERTEX
  5
6E232
100
AcDbEntity
  8
0
100
AcDbVertex
100
AcDbPolygonMeshVertex
 10
-0.126
 20
0.373
 30
-0.288
 70
    64
  0
VERTEX
  5
6E233
100
AcDbEntity
  8
0
100
AcDbVertex
100
AcDbPolygonMeshVertex
 10
-0.03
 20
0.373
 30
-0.288
 70
    64
  0
VERTEX
  5
6E234
100
AcDbEntity
  8
0
100
AcDbVertex
100
AcDbPolygonMeshVertex
 10
-0.126
 20
-0.373
 30
-1.57
 70
    64
  0
VERTEX
  5
6E235
100
AcDbEntity
  8
0
100
AcDbVertex
100
AcDbPolygonMeshVertex
 10
-0.126
 20
-0.373
 30
-0.288
 70
    64
  0
VERTEX
  5
6E236
100
AcDbEntity
  8
0
100
AcDbVertex
100
AcDbPolygonMeshVertex
 10
-0.03
 20
-0.373
 30
-0.288
 70
    64
  0
VERTEX
  5
6E237
100
AcDbEntity
  8
0
100
AcDbVertex
100
AcDbPolygonMeshVertex
 10
-0.126
 20
-0.373
 30
-1.57
 70
    64
  0
VERTEX
  5
6E238
100
AcDbEntity
  8
0
100
AcDbVertex
100
AcDbPolygonMeshVertex
 10
-0.126
 20
-0.373
 30
-1.57
 70
    64
  0
VERTEX
  5
6E239
100
AcDbEntity
  8
0
100
AcDbVertex
100
AcDbPolygonMeshVertex
 10
-0.03
 20
-0.373
 30
-1.57
 70
    64
  0
VERTEX
  5
6E23A
100
AcDbEntity
  8
0
100
AcDbVertex
100
AcDbPolygonMeshVertex
 10
-0.126
 20
0.373
 30
-1.57
 70
    64
  0
VERTEX
  5
6E23B
100
AcDbEntity
  8
0
100
AcDbVertex
100
AcDbPolygonMeshVertex
 10
-0.126
 20
0.373
 30
-1.57
 70
    64
  0
VERTEX
  5
6E23C
100
AcDbEntity
  8
0
100
AcDbVertex
100
AcDbPolygonMeshVertex
 10
-0.03
 20
0.373
 30
-1.57
 70
    64
  0
SEQEND
  5
6E23D
100
AcDbEntity
  8
0
  0
LINE
  5
6E23E
100
AcDbEntity
  8
0
100
AcDbLine
 10
-0.126
 20
-0.1425
 30
0.0
 11
-0.126
 21
-0.1425
 31
-0.288
  0
LINE
  5
6E23F
100
AcDbEntity
  8
0
100
AcDbLine
 10
-0.126
 20
0.1425
 30
0.0
 11
-0.126
 21
0.1425
 31
-0.288
  0
LINE
  5
6E240
100
AcDbEntity
  8
0
100
AcDbLine
 10
-0.126
 20
0.1425
 30
-1.57
 11
-0.468
 21
0.1425
 31
-1.57
  0
LINE
  5
6E241
100
AcDbEntity
  8
0
100
AcDbLine
 10
-0.126
 20
-0.1425
 30
-1.57
 11
-0.468
 21
-0.1425
 31
-1.57
  0
ARC
  5
6E242
100
AcDbEntity
  8
0
100
AcDbCircle
 10
-0.2775
 20
0.0
 30
-1.57
 40
0.1015
100
AcDbArc
 50
122.94559
 51
237.05441
  0
LINE
  5
6E243
100
AcDbEntity
  8
0
100
AcDbLine
 10
-0.3327
 20
-0.1425
 30
-1.57
 11
-0.3327
 21
-0.085178
 31
-1.57
  0
LINE
  5
6E244
100
AcDbEntity
  8
0
100
AcDbLine
 10
-0.2223
 20
-0.1425
 30
-1.57
 11
-0.2223
 21
-0.085178
 31
-1.57
  0
LINE
  5
6E245
100
AcDbEntity
  8
0
100
AcDbLine
 10
-0.2223
 20
0.085178
 30
-1.57
 11
-0.2223
 21
0.1425
 31
-1.57
  0
LINE
  5
6E246
100
AcDbEntity
  8
0
100
AcDbLine
 10
-0.3327
 20
0.085178
 30
-1.57
 11
-0.3327
 21
0.1425
 31
-1.57
  0
ARC
  5
6E247
100
AcDbEntity
  8
0
100
AcDbCircle
 10
-0.2775
 20
0.0
 30
-1.57
 40
0.1015
100
AcDbArc
 50
302.94559
 51
57.05441
  0
LINE
  5
6E248
100
AcDbEntity
  8
0
100
AcDbLine
 10
-0.468
 20
0.1425
 30
-1.433
 11
-0.468
 21
-0.1425
 31
-1.433
  0
LINE
  5
6E249
100
AcDbEntity
  8
0
100
AcDbLine
 10
-0.468
 20
-0.1425
 30
-1.57
 11
-0.468
 21
-0.1425
 31
-1.433
  0
LINE
  5
6E24A
100
AcDbEntity
  8
0
100
AcDbLine
 10
-0.468
 20
0.1425
 30
-1.57
 11
-0.468
 21
0.1425
 31
-1.433
  0
ATTDEF
  5
6E24B
100
AcDbEntity
  8
ATTRIBUTES
100
AcDbText
 10
-0.917123
 20
0.124104
 30
0.0
 40
0.045068
  1
ALLEN-BRADLEY
100
AcDbAttributeDefinition
  3
MANUFACTURER NAME?
  2
AC_VND_LABEL
 70
     0
  0
ATTDEF
  5
6E24C
100
AcDbEntity
  8
ATTRIBUTES
100
AcDbText
 10
-0.917123
 20
0.030211
 30
0.0
 40
0.045068
  1
800T-XAY
100
AcDbAttributeDefinition
  3
CATALOG NUMBER?
  2
AC_PART_NO
 70
     0
  0
ATTDEF
  5
6E24D
100
AcDbEntity
  8
ATTRIBUTES
100
AcDbText
 10
-0.917123
 20
-0.063682
 30
0.0
 40
0.045068
  1
NEMA STACKABLE SEALED SWITCH (YASKAWA)2 CIRCUIT CONTACT BLOCK, 1 N.O. - 1 N.C.
100
AcDbAttributeDefinition
  3
PART DESCRIPTION?
  2
AC_DESCRIPTION
 70
     0
  0
ATTDEF
  5
6E24E
100
AcDbEntity
  8
ATTRIBUTES
100
AcDbText
 10
-0.917123
 20
-0.157574
 30
0.0
 40
0.045068
  1

100
AcDbAttributeDefinition
  3
DEVICE ID?
  2
DEVICE_ID
 70
     0
  0
ATTDEF
  5
6E24F
100
AcDbEntity
  8
ATTRIBUTES
100
AcDbText
 10
-0.917123
 20
-0.251467
 30
0.0
 40
0.045068
  1

100
AcDbAttributeDefinition
  3
CUSTOMER PART NUMBER?
  2
AC_CPART_NO
 70
     0
  0
ATTDEF
  5
6E250
100
AcDbEntity
  8
ATTRIBUTES
100
AcDbText
 10
-0.917123
 20
-0.34536
 30
0.0
 40
0.045068
  1

100
AcDbAttributeDefinition
  3
CUSTOMER NOTE?
  2
AC_NOTE
 70
     0
  0
ATTDEF
  5
6E251
100
AcDbEntity
  8
ATTRIBUTES
100
AcDbText
 10
-0.917123
 20
-0.439252
 30
0.0
 40
0.045068
  1

100
AcDbAttributeDefinition
  3
FASTENER DATA?
  2
FASTENER
 70
     0
  0
ATTDEF
  5
6E252
100
AcDbEntity
  8
ATTRIBUTES
100
AcDbText
 10
-0.917123
 20
-0.533145
 30
0.0
 40
0.045068
  1

100
AcDbAttributeDefinition
  3
UNIT OF SCALE?
  2
AC_SCALE_UNIT
 70
     0
  0
ATTDEF
  5
6E253
100
AcDbEntity
  8
ATTRIBUTES
100
AcDbText
 10
-0.917123
 20
-0.627038
 30
0.0
 40
0.045068
  1

100
AcDbAttributeDefinition
  3
VIEW CODE?
  2
AC_VIEW_CODE
 70
     0
  0
POINT
  5
6E254
100
AcDbEntity
  8
SNAP_POINTS
100
AcDbPoint
 10
0.0
 20
0.0
 30
-1.57
  0
DIMENSION
  5
6E255
100
AcDbEntity
  8
AREA1
100
AcDbDimension
  2
*D0
 10
-1.281266
 20
-0.8975
 30
0.0
 11
-1.281266
 21
0.006383
 31
0.0
 70
   160
  3
ABECAD_3V
100
AcDbAlignedDimension
 13
-0.963
 23
0.8975
 33
-0.18
 14
-0.963
 24
-0.8975
 34
0.0
 50
90.0
100
AcDbRotatedDimension
1001
ACAD
1000
DSTYLE
1002
{
1070
    40
1040
0.889078
1002
}
  0
DIMENSION
  5
6E256
100
AcDbEntity
  8
AREA1
100
AcDbDimension
  2
*D1
 10
0.106
 20
1.193553
 30
0.0
 11
-0.431694
 21
1.385032
 31
0.0
 70
   160
  3
ABECAD_3V
100
AcDbAlignedDimension
 13
-0.963
 23
0.8975
 33
0.0
 14
0.106
 24
0.8145
 34
0.0
100
AcDbRotatedDimension
1001
ACAD
1000
DSTYLE
1002
{
1070
    40
1040
0.889078
1002
}
  0
LWPOLYLINE
  5
6E257
100
AcDbEntity
  8
SCALE
100
AcDbPolyline
 90
        4
 70
     1
 43
0.0
 10
0.359879
 20
0.003503
 10
1.495508
 20
0.003503
 10
1.495508
 20
-0.838107
 10
0.359879
 20
-0.838107
  0
LINE
  5
6E258
100
AcDbEntity
  8
SCALE
100
AcDbLine
 10
0.417878
 20
-0.376576
 30
0.0
 11
1.417878
 21
-0.376576
 31
0.0
  0
LINE
  5
6E259
100
AcDbEntity
  8
SCALE
100
AcDbLine
 10
0.417878
 20
-0.676576
 30
0.0
 11
0.811578
 21
-0.676576
 31
0.0
  0
LINE
  5
6E25A
100
AcDbEntity
  8
SCALE
100
AcDbLine
 10
0.417878
 20
-0.476576
 30
0.0
 11
0.417878
 21
-0.276576
 31
0.0
  0
TEXT
  5
6E25B
100
AcDbEntity
  8
SCALE
100
AcDbText
 10
0.473854
 20
-0.628891
 30
0.0
 40
0.0625
  1
[10mm]
100
AcDbText
  0
LINE
  5
6E25C
100
AcDbEntity
  8
SCALE
100
AcDbLine
 10
0.417878
 20
-0.776576
 30
0.0
 11
0.417878
 21
-0.576576
 31
0.0
  0
TEXT
  5
6E25D
100
AcDbEntity
  8
SCALE
100
AcDbText
 10
0.419408
 20
-0.101698
 30
0.0
 40
0.0625
  1
SCALE:
100
AcDbText
  0
LINE
  5
6E25E
100
AcDbEntity
  8
SCALE
100
AcDbLine
 10
0.811578
 20
-0.776576
 30
0.0
 11
0.811578
 21
-0.576576
 31
0.0
  0
TEXT
  5
6E25F
100
AcDbEntity
  8
SCALE
100
AcDbText
 10
0.781161
 20
-0.307527
 30
0.0
 40
0.0625
  1
1 Inch
100
AcDbText
  0
LINE
  5
6E260
100
AcDbEntity
  8
SCALE
100
AcDbLine
 10
1.417878
 20
-0.376576
 30
0.0
 11
1.417878
 21
-0.476576
 31
0.0
  0
LINE
  5
6E261
100
AcDbEntity
  8
SCALE
100
AcDbLine
 10
1.417878
 20
-0.476576
 30
0.0
 11
1.417878
 21
-0.276576
 31
0.0
  0
DIMENSION
  5
6E28C
100
AcDbEntity
  8
AREA2
100
AcDbDimension
  2
*D2
 10
-1.282325
 20
0.0
 30
-1.57
 11
-1.282325
 21
-0.785
 31
0.0
 70
   160
210
0.0
220
-1.0
230
0.0
  3
ABECAD_3V
100
AcDbAlignedDimension
 13
-0.963
 23
-0.8145
 33
0.0
 14
-0.963
 24
0.3555
 34
-1.57
 50
90.0
100
AcDbRotatedDimension
1001
ACAD
1000
DSTYLE
1002
{
1070
    40
1040
0.889078
1002
}
  0
VIEWPORT
  5
2C
102
{ACAD_XDICTIONARY
360
6E6CB
102
}
100
AcDbEntity
 67
     1
  8
0
100
AcDbViewport
 10
4.999849
 20
3.750155
 30
0.0
 40
13.389022
 41
7.577951
 68
     1
 69
     1
1001
ACAD
1000
MVIEW
1002
{
1070
    16
1010
0.0
1020
0.0
1030
0.0
1010
0.0
1020
0.0
1030
1.0
1040
0.0
1040
7.577951
1040
4.999849
1040
3.750155
1040
50.0
1040
0.0
1040
0.0
1070
     0
1070
   100
1070
     1
1070
     1
1070
     0
1070
     0
1070
     0
1070
     0
1040
0.0
1040
0.0
1040
0.0
1040
1.0
1040
1.0
1040
0.0
1040
0.0
1070
     0
1002
{
1002
}
1002
}
  0
VIEWPORT
  5
2D
102
{ACAD_XDICTIONARY
360
6E6CD
102
}
100
AcDbEntity
 67
     1
  8
0
100
AcDbViewport
 10
2.5
 20
5.625
 30
0.0
 40
5.0
 41
3.75
 68
     2
 69
     2
1001
ACAD
1000
MVIEW
1002
{
1070
    16
1010
0.0
1020
0.0
1030
0.0
1010
0.0
1020
0.0
1030
1.0
1040
0.0
1040
3.334042
1040
-0.613579
1040
0.120198
1040
50.0
1040
0.0
1040
0.0
1070
     0
1070
   100
1070
     1
1070
     0
1070
     0
1070
     0
1070
     0
1070
     0
1040
0.0
1040
0.0
1040
0.0
1040
1.0
1040
1.0
1040
0.0
1040
0.0
1070
     0
1002
{
1003
AREA2
1002
}
1002
}
  0
VIEWPORT
  5
2E
102
{ACAD_XDICTIONARY
360
6E6CF
102
}
100
AcDbEntity
 67
     1
  8
0
100
AcDbViewport
 10
2.5
 20
1.875
 30
0.0
 40
5.0
 41
3.75
 68
     3
 69
     3
1001
ACAD
1000
MVIEW
1002
{
1070
    16
1010
0.0
1020
0.0
1030
0.0
1010
0.0
1020
-1.0
1030
0.0
1040
0.0
1040
3.334042
1040
-0.613579
1040
-0.88
1040
50.0
1040
0.0
1040
0.0
1070
     0
1070
   100
1070
     1
1070
     0
1070
     0
1070
     0
1070
     0
1070
     0
1040
0.0
1040
0.0
1040
0.0
1040
1.0
1040
1.0
1040
0.0
1040
0.0
1070
     0
1002
{
1003
AREA1
1002
}
1002
}
  0
VIEWPORT
  5
2F
102
{ACAD_XDICTIONARY
360
6E6D1
102
}
100
AcDbEntity
 67
     1
  8
0
100
AcDbViewport
 10
7.5
 20
3.75
 30
0.0
 40
5.0
 41
7.5
 68
     4
 69
     4
1001
ACAD
1000
MVIEW
1002
{
1070
    16
1010
0.0
1020
0.0
1030
0.0
1010
-1.0
1020
-1.0
1030
1.0
1040
0.0
1040
4.691064
1040
-0.633935
1040
-0.621804
1040
50.0
1040
0.0
1040
0.0
1070
     0
1070
   100
1070
     1
1070
     0
1070
     0
1070
     0
1070
     0
1070
     0
1040
0.0
1040
0.0
1040
0.0
1040
1.0
1040
1.0
1040
0.0
1040
0.0
1070
     0
1002
{
1003
AREA1
1003
AREA2
1002
}
1002
}
  0
TEXT
  5
42D
100
AcDbEntity
 67
     1
  8
0
100
AcDbText
 10
5.253785
 20
7.092701
 30
0.0
 40
0.2
  1

100
AcDbText
  0
TEXT
  5
431
100
AcDbEntity
 67
     1
  8
0
100
AcDbText
 10
5.253785
 20
6.759368
 30
0.0
 40
0.2
  1

100
AcDbText
1001
ACAD
1000
R13OBJECT
1002
{
1005
42D
1002
}
  0
TEXT
  5
11D16
100
AcDbEntity
 67
     1
  8
AREA2
100
AcDbText
 10
5.101109
 20
7.152637
 30
0.0
 40
0.2
  1
800T-XAY
100
AcDbText
  0
TEXT
  5
24C0A
100
AcDbEntity
 67
     1
  8
AREA2
100
AcDbText
 10
5.101109
 20
6.881437
 30
0.0
 40
0.2
  1
NEMA STACKABLE SEALED 
100
AcDbText
  0
TEXT
  5
2F662
100
AcDbEntity
 67
     1
  8
AREA2
100
AcDbText
 10
5.101109
 20
6.599834
 30
0.0
 40
0.2
  1

100
AcDbText
  0
TEXT
  5
4B785
100
AcDbEntity
 67
     1
  8
AREA2
100
AcDbText
 10
5.101109
 20
6.310076
 30
0.0
 40
0.2
  1

100
AcDbText
  0
TEXT
  5
64888
100
AcDbEntity
 67
     1
  8
AREA2
100
AcDbText
 10
5.101109
 20
6.317557
 30
0.0
 40
0.2
  1

100
AcDbText
  0
TEXT
  5
651DC
100
AcDbEntity
 67
     1
  8
AREA2
100
AcDbText
 10
5.101109
 20
6.599161
 30
0.0
 40
0.2
  1

100
AcDbText
  0
TEXT
  5
65724
100
AcDbEntity
 67
     1
  8
AREA2
100
AcDbText
 10
5.101109
 20
6.331741
 30
0.0
 40
0.2
  1

100
AcDbText
  0
TEXT
  5
65FDD
100
AcDbEntity
 67
     1
  8
AREA2
100
AcDbText
 10
5.101109
 20
6.302028
 30
0.0
 40
0.2
  1

100
AcDbText
  0
TEXT
  5
66E77
100
AcDbEntity
 67
     1
  8
AREA2
100
AcDbText
 10
5.101109
 20
6.318596
 30
0.0
 40
0.2
  1

100
AcDbText
  0
TEXT
  5
67914
100
AcDbEntity
 67
     1
  8
AREA2
100
AcDbText
 10
5.101109
 20
6.591198
 30
0.0
 40
0.2
  1
SWITCH (YASKAWA)2 CIRCUIT 
100
AcDbText
  0
TEXT
  5
691A5
100
AcDbEntity
 67
     1
  8
AREA2
100
AcDbText
 10
5.101109
 20
6.289433
 30
0.0
 40
0.2
  1

100
AcDbText
  0
TEXT
  5
699EC
100
AcDbEntity
 67
     1
  8
AREA2
100
AcDbText
 10
5.101109
 20
6.275064
 30
0.0
 40
0.2
  1

100
AcDbText
  0
TEXT
  5
6AB31
100
AcDbEntity
 67
     1
  8
AREA2
100
AcDbText
 10
5.101109
 20
6.303803
 30
0.0
 40
0.2
  1

100
AcDbText
  0
TEXT
  5
6C3EC
100
AcDbEntity
 67
     1
  8
AREA2
100
AcDbText
 10
5.101109
 20
6.302592
 30
0.0
 40
0.2
  1

100
AcDbText
  0
TEXT
  5
6D015
100
AcDbEntity
 67
     1
  8
AREA2
100
AcDbText
 10
5.101109
 20
6.288162
 30
0.0
 40
0.2
  1

100
AcDbText
  0
TEXT
  5
6DB77
100
AcDbEntity
 67
     1
  8
AREA2
100
AcDbText
 10
5.101109
 20
6.288162
 30
0.0
 40
0.2
  1
CONTACT BLOCK, 1 N.O. - 
100
AcDbText
  0
TEXT
  5
6E29A
100
AcDbEntity
 67
     1
  8
AREA2
100
AcDbText
 10
5.101109
 20
5.999555
 30
0.0
 40
0.2
  1
1 N.C.
100
AcDbText
  0
ENDSEC
  0
SECTION
  2
OBJECTS
  0
DICTIONARY
  5
46D
100
AcDbDictionary
  3
ACAD_GROUP
350
46E
  3
ACAD_LAYOUT
350
49E
  3
ACAD_MLINESTYLE
350
47B
  3
ACAD_PLOTSETTINGS
350
49F
  3
ACAD_PLOTSTYLENAME
350
49C
  3
ACDBHEADERROUNDTRIPXREC
350
6E6AA
  3
ACDBVARIABLEDICTIONARY
350
48D
  0
DICTIONARY
  5
6E6A8
100
AcDbDictionary
280
     1
  3
ACAD_XREC_ROUNDTRIP
360
6E6A9
  0
DICTIONARY
  5
6E6D5
100
AcDbDictionary
280
     1
  3
ACAD_XREC_ROUNDTRIP
360
6E6D6
  0
DICTIONARY
  5
6E6D7
100
AcDbDictionary
280
     1
  3
ACAD_XREC_ROUNDTRIP
360
6E6D8
  0
DICTIONARY
  5
6E6DB
100
AcDbDictionary
280
     1
  3
ACAD_XREC_ROUNDTRIP
360
6E6DC
  0
DICTIONARY
  5
4D2
100
AcDbDictionary
280
     1
  3
ACAD_LAYOUTSELFREF
360
6E6D4
  0
DICTIONARY
  5
4D0
100
AcDbDictionary
280
     1
  3
ACAD_LAYOUTSELFREF
360
6E6D3
  0
DICTIONARY
  5
6E6CB
100
AcDbDictionary
280
     1
  3
ACAD_XREC_ROUNDTRIP
360
6E6CC
  0
DICTIONARY
  5
6E6CD
100
AcDbDictionary
280
     1
  3
ACAD_XREC_ROUNDTRIP
360
6E6CE
  0
DICTIONARY
  5
6E6CF
100
AcDbDictionary
280
     1
  3
ACAD_XREC_ROUNDTRIP
360
6E6D0
  0
DICTIONARY
  5
6E6D1
100
AcDbDictionary
280
     1
  3
ACAD_XREC_ROUNDTRIP
360
6E6D2
  0
DICTIONARY
  5
46E
102
{ACAD_REACTORS
330
46D
102
}
100
AcDbDictionary
  0
DICTIONARY
  5
49E
102
{ACAD_XDICTIONARY
360
6E6D9
102
}
102
{ACAD_REACTORS
330
46D
102
}
100
AcDbDictionary
  3
LAYOUT1
350
4A1
  3
MODEL
350
4A0
  0
DICTIONARY
  5
47B
102
{ACAD_REACTORS
330
46D
102
}
100
AcDbDictionary
  3
STANDARD
350
47C
  0
DICTIONARY
  5
49F
102
{ACAD_REACTORS
330
46D
102
}
100
AcDbDictionary
  0
ACAD_PROXY_OBJECT
  5
49C
102
{ACAD_REACTORS
330
46D
102
}
100
AcDbProxyObject
 90
      499
 91
      501
 93
       86
310
405010041939BDC9B585B1
350
49D
340
49D
 94
        0
  0
DICTIONARY
  5
6E6AA
102
{ACAD_REACTORS
330
46D
102
}
100
AcDbDictionary
  3
CEPSNTYPE
350
6E6B4
  3
DIMSTYLEDATA
350
6E6B8
  3
FINGERPRINTGUID
350
6E6B5
  3
HYPERLINKBASE
350
6E6AD
  3
INSUNITS
350
6E6B3
  3
LAYOUTDICT
350
6E6AF
  3
LWETCUNION
350
6E6B2
  3
PLOTSETDICT
350
6E6B0
  3
PLOTSTYLNAMDICT
350
6E6B1
  3
PSVPSCALE
350
6E6B7
  3
PUCSBASE
350
6E6BB
  3
PUCSORGBACK
350
6E6C1
  3
PUCSORGBOTTOM
350
6E6BD
  3
PUCSORGFRONT
350
6E6C0
  3
PUCSORGLEFT
350
6E6BE
  3
PUCSORGRIGHT
350
6E6BF
  3
PUCSORGTOP
350
6E6BC
  3
PUCSORTHOREF
350
6E6B9
  3
PUCSORTHOVIEW
350
6E6BA
  3
STYLESHEET
350
6E6AE
  3
TSTACKALIGN
350
6E6AB
  3
TSTACKSIZE
350
6E6AC
  3
UCSBASE
350
6E6C4
  3
UCSORGBACK
350
6E6CA
  3
UCSORGBOTTOM
350
6E6C6
  3
UCSORGFRONT
350
6E6C9
  3
UCSORGLEFT
350
6E6C7
  3
UCSORGRIGHT
350
6E6C8
  3
UCSORGTOP
350
6E6C5
  3
UCSORTHOREF
350
6E6C2
  3
UCSORTHOVIEW
350
6E6C3
  3
VERSIONGUID
350
6E6B6
  0
DICTIONARY
  5
48D
102
{ACAD_REACTORS
330
46D
102
}
100
AcDbDictionary
  3
DIMADEC
350
48E
  0
XRECORD
  5
6E6A9
102
{ACAD_REACTORS
330
6E6A8
102
}
100
AcDbXrecord
102
EXTNAMES
  1
*ACTIVE
  2
*Active
102
UCS
 74
     0
 71
     1
 10
0.0
 20
0.0
 30
0.0
 10
1.0
 20
0.0
 30
0.0
 10
0.0
 20
1.0
 30
0.0
146
0.0
 79
     1
102
VIEW
281
     1
  0
XRECORD
  5
6E6D6
102
{ACAD_REACTORS
330
6E6D5
102
}
100
AcDbXrecord
102
PLOTBIT
280
     0
  0
XRECORD
  5
6E6D8
102
{ACAD_REACTORS
330
6E6D7
102
}
100
AcDbXrecord
102
ACADR14ROUNDTRIP
1000
DSTYLE
1002
{
1070
   276
 70
     2
1070
   277
 70
     5
1070
   279
 70
     2
1002
}
  0
XRECORD
  5
6E6DC
102
{ACAD_REACTORS
330
6E6DB
102
}
100
AcDbXrecord
102
ACADR14ROUNDTRIP
1000
DSTYLE
1002
{
1070
   276
 70
     2
1070
   277
 70
     5
1070
   279
 70
     2
1070
   289
 70
     2
1002
}
  0
XRECORD
  5
6E6D4
102
{ACAD_REACTORS
330
4D2
102
}
100
AcDbXrecord
340
478
  0
XRECORD
  5
6E6D3
102
{ACAD_REACTORS
330
4D0
102
}
100
AcDbXrecord
340
475
  0
XRECORD
  5
6E6CC
102
{ACAD_REACTORS
330
6E6CB
102
}
100
AcDbXrecord
102
UCS
 74
     0
 71
     1
 10
0.0
 20
0.0
 30
0.0
 10
1.0
 20
0.0
 30
0.0
 10
0.0
 20
1.0
 30
0.0
146
0.0
 79
     0
102
VIEW
281
     0
102
NEWVIEWCONTROL
280
     4
  0
XRECORD
  5
6E6CE
102
{ACAD_REACTORS
330
6E6CD
102
}
100
AcDbXrecord
102
UCS
 74
     0
 71
     1
 10
0.0
 20
0.0
 30
0.0
 10
1.0
 20
0.0
 30
0.0
 10
0.0
 20
1.0
 30
0.0
146
0.0
 79
     1
102
VIEW
281
     0
102
NEWVIEWCONTROL
280
     4
  0
XRECORD
  5
6E6D0
102
{ACAD_REACTORS
330
6E6CF
102
}
100
AcDbXrecord
102
UCS
 74
     0
 71
     1
 10
0.0
 20
0.0
 30
0.0
 10
1.0
 20
0.0
 30
0.0
 10
0.0
 20
0.0
 30
1.0
146
0.0
 79
     3
102
VIEW
281
     0
102
NEWVIEWCONTROL
280
     4
  0
XRECORD
  5
6E6D2
102
{ACAD_REACTORS
330
6E6D1
102
}
100
AcDbXrecord
102
UCS
 74
     0
 71
     1
 10
0.0
 20
0.0
 30
0.0
 10
1.0
 20
0.0
 30
0.0
 10
0.0
 20
1.0
 30
0.0
146
0.0
 79
     0
102
VIEW
281
     0
102
NEWVIEWCONTROL
280
     4
  0
DICTIONARY
  5
6E6D9
100
AcDbDictionary
280
     1
  3
ACAD_XREC_ROUNDTRIP
360
6E6DA
  0
ACAD_PROXY_OBJECT
  5
4A1
102
{ACAD_REACTORS
330
49E
102
}
100
AcDbProxyObject
 90
      499
 91
      503
 93
     2044
310
91D4850204C617365724A65742035303030205365726965732050434C20362C008000000C0BB1B1440000000102F06C510000000000BC1B1440000000002E06C5100000000C0CCFC6A4000000018199D9C501064C6574746572A901406AA427D84144352EEE3F47D11959985D5B1D08148C4D081C195B88185CDCDA59DB9B5
310
95B9D1CCB98DD18A30EDE3B1BBFDBC0FC1D572C8D6D0C833F1A2B3054E9249F0FD074C61796F75743140501A97D7DB4AA43C31EFF91E46EBA53B71EFD1F32A15809809100B6537F8EAD447D02A6A6A00200C0093BD106FC0000F06EE366FABE0000374A23C9C36F44424FF2920002440160B7F435600079000000006A48D4E
310
43C0
330
475
330
2C
340
0
340
0
 94
        0
  0
ACAD_PROXY_OBJECT
  5
4A0
102
{ACAD_REACTORS
330
49E
102
}
100
AcDbProxyObject
 90
      499
 91
      503
 93
      924
310
91D4850204C617365724A65742035303030205365726965732050434C20362C01AAAAAAAAA547D11959985D5B1D08148C4D081C195B88185CDCDA59DB9B595B9D1CCB98DD18A69054D6F64656C901A800000000000000000000000000000000000000000000A1000000000000008902A6A6AAAA8
330
478
330
0
340
0
340
0
 94
        0
  0
MLINESTYLE
  5
47C
102
{ACAD_REACTORS
330
47B
102
}
100
AcDbMlineStyle
  2
STANDARD
 70
     0
  3

 62
   256
 51
90.0
 52
90.0
 71
     2
 49
0.5
 62
   256
  6
BYLAYER
 49
-0.5
 62
   256
  6
BYLAYER
  0
ACAD_PROXY_OBJECT
  5
49D
102
{ACAD_REACTORS
330
49C
102
}
100
AcDbProxyObject
 90
      499
 91
      502
 93
        0
 94
        0
  0
XRECORD
  5
6E6B4
102
{ACAD_REACTORS
330
6E6AA
102
}
100
AcDbXrecord
 90
        0
  0
XRECORD
  5
6E6B8
102
{ACAD_REACTORS
330
6E6AA
102
}
100
AcDbXrecord
1000
DSTYLE
1002
{
1070
   276
 70
     2
1070
   277
 70
     5
1070
   279
 70
     2
1002
}
  0
XRECORD
  5
6E6B5
102
{ACAD_REACTORS
330
6E6AA
102
}
100
AcDbXrecord
  1
{6E0CF4B5-225E-11D4-A150-00A0CC3303EC}
  0
XRECORD
  5
6E6AD
102
{ACAD_REACTORS
330
6E6AA
102
}
100
AcDbXrecord
  1

  0
XRECORD
  5
6E6B3
102
{ACAD_REACTORS
330
6E6AA
102
}
100
AcDbXrecord
 90
        0
  0
XRECORD
  5
6E6AF
102
{ACAD_REACTORS
330
6E6AA
102
}
100
AcDbXrecord
340
49E
  0
XRECORD
  5
6E6B2
102
{ACAD_REACTORS
330
6E6AA
102
}
100
AcDbXrecord
 90
    14877
  0
XRECORD
  5
6E6B0
102
{ACAD_REACTORS
330
6E6AA
102
}
100
AcDbXrecord
340
49F
  0
XRECORD
  5
6E6B1
102
{ACAD_REACTORS
330
6E6AA
102
}
100
AcDbXrecord
340
49C
  0
XRECORD
  5
6E6B7
102
{ACAD_REACTORS
330
6E6AA
102
}
100
AcDbXrecord
 40
0.0
  0
XRECORD
  5
6E6BB
102
{ACAD_REACTORS
330
6E6AA
102
}
100
AcDbXrecord
340
0
  0
XRECORD
  5
6E6C1
102
{ACAD_REACTORS
330
6E6AA
102
}
100
AcDbXrecord
 10
0.0
 20
0.0
 30
0.0
  0
XRECORD
  5
6E6BD
102
{ACAD_REACTORS
330
6E6AA
102
}
100
AcDbXrecord
 10
0.0
 20
0.0
 30
0.0
  0
XRECORD
  5
6E6C0
102
{ACAD_REACTORS
330
6E6AA
102
}
100
AcDbXrecord
 10
0.0
 20
0.0
 30
0.0
  0
XRECORD
  5
6E6BE
102
{ACAD_REACTORS
330
6E6AA
102
}
100
AcDbXrecord
 10
0.0
 20
0.0
 30
0.0
  0
XRECORD
  5
6E6BF
102
{ACAD_REACTORS
330
6E6AA
102
}
100
AcDbXrecord
 10
0.0
 20
0.0
 30
0.0
  0
XRECORD
  5
6E6BC
102
{ACAD_REACTORS
330
6E6AA
102
}
100
AcDbXrecord
 10
0.0
 20
0.0
 30
0.0
  0
XRECORD
  5
6E6B9
102
{ACAD_REACTORS
330
6E6AA
102
}
100
AcDbXrecord
340
0
  0
XRECORD
  5
6E6BA
102
{ACAD_REACTORS
330
6E6AA
102
}
100
AcDbXrecord
 70
     0
  0
XRECORD
  5
6E6AE
102
{ACAD_REACTORS
330
6E6AA
102
}
100
AcDbXrecord
  1

  0
XRECORD
  5
6E6AB
102
{ACAD_REACTORS
330
6E6AA
102
}
100
AcDbXrecord
 90
        1
  0
XRECORD
  5
6E6AC
102
{ACAD_REACTORS
330
6E6AA
102
}
100
AcDbXrecord
 90
       70
  0
XRECORD
  5
6E6C4
102
{ACAD_REACTORS
330
6E6AA
102
}
100
AcDbXrecord
340
0
  0
XRECORD
  5
6E6CA
102
{ACAD_REACTORS
330
6E6AA
102
}
100
AcDbXrecord
 10
0.0
 20
0.0
 30
0.0
  0
XRECORD
  5
6E6C6
102
{ACAD_REACTORS
330
6E6AA
102
}
100
AcDbXrecord
 10
0.0
 20
0.0
 30
0.0
  0
XRECORD
  5
6E6C9
102
{ACAD_REACTORS
330
6E6AA
102
}
100
AcDbXrecord
 10
0.0
 20
0.0
 30
0.0
  0
XRECORD
  5
6E6C7
102
{ACAD_REACTORS
330
6E6AA
102
}
100
AcDbXrecord
 10
0.0
 20
0.0
 30
0.0
  0
XRECORD
  5
6E6C8
102
{ACAD_REACTORS
330
6E6AA
102
}
100
AcDbXrecord
 10
0.0
 20
0.0
 30
0.0
  0
XRECORD
  5
6E6C5
102
{ACAD_REACTORS
330
6E6AA
102
}
100
AcDbXrecord
 10
0.0
 20
0.0
 30
0.0
  0
XRECORD
  5
6E6C2
102
{ACAD_REACTORS
330
6E6AA
102
}
100
AcDbXrecord
340
0
  0
XRECORD
  5
6E6C3
102
{ACAD_REACTORS
330
6E6AA
102
}
100
AcDbXrecord
 70
     1
  0
XRECORD
  5
6E6B6
102
{ACAD_REACTORS
330
6E6AA
102
}
100
AcDbXrecord
  1
{DAEFD063-E5D7-44E9-AE71-00B183521CA8}
  0
DICTIONARYVAR
  5
48E
102
{ACAD_REACTORS
330
48D
102
}
100
DictionaryVariables
280
     0
  1
0
  0
XRECORD
  5
6E6DA
102
{ACAD_REACTORS
330
6E6D9
102
}
100
AcDbXrecord
102
EXTNAMES
  1
LAYOUT1
  2
Layout1
  1
MODEL
  2
Model
  0
ENDSEC
  0
EOF
