  0
SECTION
  2
HEADER
  9
$ACADVER
  1
AC1014
  9
$ACADMAINTVER
 70
     8
  9
$DWGCODEPAGE
  3
ANSI_1252
  9
$INSBASE
 10
0.0
 20
0.0
 30
0.0
  9
$EXTMIN
 10
-2.695063
 20
-0.969269
 30
-1.827
  9
$EXTMAX
 10
1.51013
 20
1.115875
 30
0.067
  9
$LIMMIN
 10
0.0
 20
0.0
  9
$LIMMAX
 10
12.0
 20
9.0
  9
$ORTHOMODE
 70
     0
  9
$REGENMODE
 70
     1
  9
$FILLMODE
 70
     1
  9
$QTEXTMODE
 70
     0
  9
$MIRRTEXT
 70
     1
  9
$DRAGMODE
 70
     2
  9
$LTSCALE
 40
1.0
  9
$OSMODE
 70
    23
  9
$ATTMODE
 70
     0
  9
$TEXTSIZE
 40
0.2
  9
$TRACEWID
 40
0.05
  9
$TEXTSTYLE
  7
STANDARD
  9
$CLAYER
  8
0
  9
$CELTYPE
  6
BYLAYER
  9
$CECOLOR
 62
   256
  9
$CELTSCALE
 40
1.0
  9
$DELOBJ
 70
     1
  9
$DISPSILH
 70
     0
  9
$DIMSCALE
 40
0.0
  9
$DIMASZ
 40
0.125
  9
$DIMEXO
 40
0.0625
  9
$DIMDLI
 40
0.375
  9
$DIMRND
 40
0.0
  9
$DIMDLE
 40
0.0
  9
$DIMEXE
 40
0.0625
  9
$DIMTP
 40
0.0
  9
$DIMTM
 40
0.0
  9
$DIMTXT
 40
0.125
  9
$DIMCEN
 40
0.09
  9
$DIMTSZ
 40
0.0
  9
$DIMTOL
 70
     0
  9
$DIMLIM
 70
     0
  9
$DIMTIH
 70
     0
  9
$DIMTOH
 70
     1
  9
$DIMSE1
 70
     0
  9
$DIMSE2
 70
     0
  9
$DIMTAD
 70
     0
  9
$DIMZIN
 70
     4
  9
$DIMBLK
  1

  9
$DIMASO
 70
     1
  9
$DIMSHO
 70
     1
  9
$DIMPOST
  1

  9
$DIMAPOST
  1

  9
$DIMALT
 70
     1
  9
$DIMALTD
 70
     2
  9
$DIMALTF
 40
25.4
  9
$DIMLFAC
 40
1.0
  9
$DIMTOFL
 70
     0
  9
$DIMTVP
 40
0.0
  9
$DIMTIX
 70
     0
  9
$DIMSOXD
 70
     0
  9
$DIMSAH
 70
     0
  9
$DIMBLK1
  1

  9
$DIMBLK2
  1

  9
$DIMSTYLE
  2
ABECAD_3V
  9
$DIMCLRD
 70
     0
  9
$DIMCLRE
 70
     0
  9
$DIMCLRT
 70
     0
  9
$DIMTFAC
 40
1.5
  9
$DIMGAP
 40
0.09
  9
$DIMJUST
 70
     0
  9
$DIMSD1
 70
     0
  9
$DIMSD2
 70
     0
  9
$DIMTOLJ
 70
     1
  9
$DIMTZIN
 70
     4
  9
$DIMALTZ
 70
     4
  9
$DIMALTTZ
 70
     4
  9
$DIMFIT
 70
     5
  9
$DIMUPT
 70
     1
  9
$DIMUNIT
 70
     7
  9
$DIMDEC
 70
     6
  9
$DIMTDEC
 70
     6
  9
$DIMALTU
 70
     2
  9
$DIMALTTD
 70
     2
  9
$DIMTXSTY
  7
STANDARD
  9
$DIMAUNIT
 70
     0
  9
$LUNITS
 70
     2
  9
$LUPREC
 70
     6
  9
$SKETCHINC
 40
0.1
  9
$FILLETRAD
 40
0.0
  9
$AUNITS
 70
     0
  9
$AUPREC
 70
     0
  9
$MENU
  1
acad
  9
$ELEVATION
 40
0.0
  9
$PELEVATION
 40
0.0
  9
$THICKNESS
 40
0.0
  9
$LIMCHECK
 70
     0
  9
$BLIPMODE
 70
     0
  9
$CHAMFERA
 40
0.0
  9
$CHAMFERB
 40
0.0
  9
$CHAMFERC
 40
0.0
  9
$CHAMFERD
 40
0.0
  9
$SKPOLY
 70
     0
  9
$TDCREATE
 40
2451726.438362384
  9
$TDUPDATE
 40
2452577.378787499
  9
$TDINDWG
 40
1.4398951389
  9
$TDUSRTIMER
 40
1.4398951389
  9
$USRTIMER
 70
     1
  9
$ANGBASE
 50
0.0
  9
$ANGDIR
 70
     0
  9
$PDMODE
 70
     3
  9
$PDSIZE
 40
0.18
  9
$PLINEWID
 40
0.0
  9
$COORDS
 70
     1
  9
$SPLFRAME
 70
     0
  9
$SPLINETYPE
 70
     6
  9
$SPLINESEGS
 70
     8
  9
$ATTDIA
 70
     0
  9
$ATTREQ
 70
     1
  9
$HANDLING
 70
     1
  9
$HANDSEED
  5
6DCD4
  9
$SURFTAB1
 70
     6
  9
$SURFTAB2
 70
     6
  9
$SURFTYPE
 70
     6
  9
$SURFU
 70
     6
  9
$SURFV
 70
     6
  9
$UCSNAME
  2

  9
$UCSORG
 10
0.0
 20
0.0
 30
0.0
  9
$UCSXDIR
 10
1.0
 20
0.0
 30
0.0
  9
$UCSYDIR
 10
0.0
 20
1.0
 30
0.0
  9
$PUCSNAME
  2

  9
$PUCSORG
 10
0.0
 20
0.0
 30
0.0
  9
$PUCSXDIR
 10
1.0
 20
0.0
 30
0.0
  9
$PUCSYDIR
 10
0.0
 20
1.0
 30
0.0
  9
$USERI1
 70
     0
  9
$USERI2
 70
     0
  9
$USERI3
 70
     0
  9
$USERI4
 70
     0
  9
$USERI5
 70
     0
  9
$USERR1
 40
0.0
  9
$USERR2
 40
0.0
  9
$USERR3
 40
0.0
  9
$USERR4
 40
0.0
  9
$USERR5
 40
0.0
  9
$WORLDVIEW
 70
     1
  9
$SHADEDGE
 70
     3
  9
$SHADEDIF
 70
    70
  9
$TILEMODE
 70
     0
  9
$MAXACTVP
 70
    16
  9
$PINSBASE
 10
0.0
 20
0.0
 30
0.0
  9
$PLIMCHECK
 70
     0
  9
$PEXTMIN
 10
0.0
 20
0.0
 30
0.0
  9
$PEXTMAX
 10
10.0
 20
7.5
 30
0.0
  9
$PLIMMIN
 10
-0.187029
 20
-0.186938
  9
$PLIMMAX
 10
10.187518
 20
7.829757
  9
$UNITMODE
 70
     0
  9
$VISRETAIN
 70
     0
  9
$PLINEGEN
 70
     0
  9
$PSLTSCALE
 70
     1
  9
$TREEDEPTH
 70
  3020
  9
$PICKSTYLE
 70
     1
  9
$CMLSTYLE
  2
STANDARD
  9
$CMLJUST
 70
     0
  9
$CMLSCALE
 40
1.0
  9
$PROXYGRAPHICS
 70
     1
  9
$MEASUREMENT
 70
     0
  0
ENDSEC
  0
SECTION
  2
CLASSES
  0
CLASS
  1
DICTIONARYVAR
  2
AcDbDictionaryVar
  3
"AutoCAD"
 90
        0
280
     0
281
     0
  0
CLASS
  1
ACDBDICTIONARYWDFLT
  2
AcDbDictionaryWithDefault
  3
AutoCAD 2000
 90
        0
280
     0
281
     0
  0
CLASS
  1
ACDBPLACEHOLDER
  2
AcDbPlaceHolder
  3
AutoCAD 2000
 90
        0
280
     0
281
     0
  0
CLASS
  1
LAYOUT
  2
AcDbLayout
  3
AutoCAD 2000
 90
        0
280
     0
281
     0
  0
CLASS
  1
LONG_TRANSACTION
  2
AcDbLongTransaction
  3
AutoCAD 2000
 90
        0
280
     0
281
     0
  0
CLASS
  1
LWPOLYLINE
  2
AcDbPolyline
  3
"AutoCAD"
 90
        0
280
     0
281
     1
  0
CLASS
  1
HATCH
  2
AcDbHatch
  3
"ACAD_SEDONA"
 90
        0
280
     0
281
     1
  0
CLASS
  1
XRECORD
  2
AcDbXrecord
  3
"<Built In>"
 90
        0
280
     0
281
     0
  0
CLASS
  1
LONG_TRANSACTION
  2
AcDbLongTransaction
  3
AutoCAD 2000
 90
        0
280
     0
281
     0
  0
CLASS
  1
LWPOLYLINE
  2
AcDbPolyline
  3
"AutoCAD"
 90
        0
280
     0
281
     1
  0
CLASS
  1
HATCH
  2
AcDbHatch
  3
"ACAD_SEDONA"
 90
        0
280
     0
281
     1
  0
CLASS
  1
XRECORD
  2
AcDbXrecord
  3
"<Built In>"
 90
        0
280
     0
281
     0
  0
CLASS
  1
LONG_TRANSACTION
  2
AcDbLongTransaction
  3
AutoCAD 2000
 90
        0
280
     0
281
     0
  0
CLASS
  1
LWPOLYLINE
  2
AcDbPolyline
  3
"AutoCAD"
 90
        0
280
     0
281
     1
  0
CLASS
  1
HATCH
  2
AcDbHatch
  3
"ACAD_SEDONA"
 90
        0
280
     0
281
     1
  0
CLASS
  1
XRECORD
  2
AcDbXrecord
  3
"<Built In>"
 90
        0
280
     0
281
     0
  0
CLASS
  1
LONG_TRANSACTION
  2
AcDbLongTransaction
  3
AutoCAD 2000
 90
        0
280
     0
281
     0
  0
CLASS
  1
LWPOLYLINE
  2
AcDbPolyline
  3
"AutoCAD"
 90
        0
280
     0
281
     1
  0
CLASS
  1
HATCH
  2
AcDbHatch
  3
"ACAD_SEDONA"
 90
        0
280
     0
281
     1
  0
CLASS
  1
XRECORD
  2
AcDbXrecord
  3
"<Built In>"
 90
        0
280
     0
281
     0
  0
CLASS
  1
LONG_TRANSACTION
  2
AcDbLongTransaction
  3
AutoCAD 2000
 90
        0
280
     0
281
     0
  0
CLASS
  1
LWPOLYLINE
  2
AcDbPolyline
  3
"AutoCAD"
 90
        0
280
     0
281
     1
  0
CLASS
  1
HATCH
  2
AcDbHatch
  3
"ACAD_SEDONA"
 90
        0
280
     0
281
     1
  0
CLASS
  1
XRECORD
  2
AcDbXrecord
  3
"<Built In>"
 90
        0
280
     0
281
     0
  0
CLASS
  1
LONG_TRANSACTION
  2
AcDbLongTransaction
  3
AutoCAD 2000
 90
        0
280
     0
281
     0
  0
CLASS
  1
LWPOLYLINE
  2
AcDbPolyline
  3
"AutoCAD"
 90
        0
280
     0
281
     1
  0
CLASS
  1
HATCH
  2
AcDbHatch
  3
"ACAD_SEDONA"
 90
        0
280
     0
281
     1
  0
CLASS
  1
XRECORD
  2
AcDbXrecord
  3
"<Built In>"
 90
        0
280
     0
281
     0
  0
CLASS
  1
LONG_TRANSACTION
  2
AcDbLongTransaction
  3
AutoCAD 2000
 90
        0
280
     0
281
     0
  0
CLASS
  1
LWPOLYLINE
  2
AcDbPolyline
  3
"AutoCAD"
 90
        0
280
     0
281
     1
  0
CLASS
  1
HATCH
  2
AcDbHatch
  3
"ACAD_SEDONA"
 90
        0
280
     0
281
     1
  0
CLASS
  1
XRECORD
  2
AcDbXrecord
  3
"<Built In>"
 90
        0
280
     0
281
     0
  0
CLASS
  1
LONG_TRANSACTION
  2
AcDbLongTransaction
  3
AutoCAD 2000
 90
        0
280
     0
281
     0
  0
CLASS
  1
LWPOLYLINE
  2
AcDbPolyline
  3
"AutoCAD"
 90
        0
280
     0
281
     1
  0
CLASS
  1
HATCH
  2
AcDbHatch
  3
"ACAD_SEDONA"
 90
        0
280
     0
281
     1
  0
CLASS
  1
XRECORD
  2
AcDbXrecord
  3
"<Built In>"
 90
        0
280
     0
281
     0
  0
CLASS
  1
LONG_TRANSACTION
  2
AcDbLongTransaction
  3
AutoCAD 2000
 90
        0
280
     0
281
     0
  0
CLASS
  1
LWPOLYLINE
  2
AcDbPolyline
  3
"AutoCAD"
 90
        0
280
     0
281
     1
  0
CLASS
  1
HATCH
  2
AcDbHatch
  3
"ACAD_SEDONA"
 90
        0
280
     0
281
     1
  0
CLASS
  1
XRECORD
  2
AcDbXrecord
  3
"<Built In>"
 90
        0
280
     0
281
     0
  0
CLASS
  1
LONG_TRANSACTION
  2
AcDbLongTransaction
  3
AutoCAD 2000
 90
        0
280
     0
281
     0
  0
CLASS
  1
LWPOLYLINE
  2
AcDbPolyline
  3
"AutoCAD"
 90
        0
280
     0
281
     1
  0
CLASS
  1
HATCH
  2
AcDbHatch
  3
"ACAD_SEDONA"
 90
        0
280
     0
281
     1
  0
CLASS
  1
XRECORD
  2
AcDbXrecord
  3
"<Built In>"
 90
        0
280
     0
281
     0
  0
CLASS
  1
LONG_TRANSACTION
  2
AcDbLongTransaction
  3
AutoCAD 2000
 90
        0
280
     0
281
     0
  0
CLASS
  1
LWPOLYLINE
  2
AcDbPolyline
  3
"AutoCAD"
 90
        0
280
     0
281
     1
  0
CLASS
  1
HATCH
  2
AcDbHatch
  3
"ACAD_SEDONA"
 90
        0
280
     0
281
     1
  0
CLASS
  1
XRECORD
  2
AcDbXrecord
  3
"<Built In>"
 90
        0
280
     0
281
     0
  0
CLASS
  1
LONG_TRANSACTION
  2
AcDbLongTransaction
  3
AutoCAD 2000
 90
        0
280
     0
281
     0
  0
CLASS
  1
LWPOLYLINE
  2
AcDbPolyline
  3
"AutoCAD"
 90
        0
280
     0
281
     1
  0
CLASS
  1
HATCH
  2
AcDbHatch
  3
"ACAD_SEDONA"
 90
        0
280
     0
281
     1
  0
CLASS
  1
XRECORD
  2
AcDbXrecord
  3
"<Built In>"
 90
        0
280
     0
281
     0
  0
CLASS
  1
LONG_TRANSACTION
  2
AcDbLongTransaction
  3
AutoCAD 2000
 90
        0
280
     0
281
     0
  0
CLASS
  1
LWPOLYLINE
  2
AcDbPolyline
  3
"AutoCAD"
 90
        0
280
     0
281
     1
  0
CLASS
  1
HATCH
  2
AcDbHatch
  3
"ACAD_SEDONA"
 90
        0
280
     0
281
     1
  0
CLASS
  1
XRECORD
  2
AcDbXrecord
  3
"<Built In>"
 90
        0
280
     0
281
     0
  0
CLASS
  1
LONG_TRANSACTION
  2
AcDbLongTransaction
  3
AutoCAD 2000
 90
        0
280
     0
281
     0
  0
CLASS
  1
LWPOLYLINE
  2
AcDbPolyline
  3
"AutoCAD"
 90
        0
280
     0
281
     1
  0
CLASS
  1
HATCH
  2
AcDbHatch
  3
"ACAD_SEDONA"
 90
        0
280
     0
281
     1
  0
CLASS
  1
XRECORD
  2
AcDbXrecord
  3
"<Built In>"
 90
        0
280
     0
281
     0
  0
CLASS
  1
LONG_TRANSACTION
  2
AcDbLongTransaction
  3
AutoCAD 2000
 90
        0
280
     0
281
     0
  0
CLASS
  1
LWPOLYLINE
  2
AcDbPolyline
  3
"AutoCAD"
 90
        0
280
     0
281
     1
  0
CLASS
  1
HATCH
  2
AcDbHatch
  3
"ACAD_SEDONA"
 90
        0
280
     0
281
     1
  0
CLASS
  1
XRECORD
  2
AcDbXrecord
  3
"<Built In>"
 90
        0
280
     0
281
     0
  0
CLASS
  1
LONG_TRANSACTION
  2
AcDbLongTransaction
  3
AutoCAD 2000
 90
        0
280
     0
281
     0
  0
CLASS
  1
LWPOLYLINE
  2
AcDbPolyline
  3
"AutoCAD"
 90
        0
280
     0
281
     1
  0
CLASS
  1
HATCH
  2
AcDbHatch
  3
"ACAD_SEDONA"
 90
        0
280
     0
281
     1
  0
CLASS
  1
XRECORD
  2
AcDbXrecord
  3
"<Built In>"
 90
        0
280
     0
281
     0
  0
CLASS
  1
LONG_TRANSACTION
  2
AcDbLongTransaction
  3
AutoCAD 2000
 90
        0
280
     0
281
     0
  0
CLASS
  1
LWPOLYLINE
  2
AcDbPolyline
  3
"AutoCAD"
 90
        0
280
     0
281
     1
  0
CLASS
  1
HATCH
  2
AcDbHatch
  3
"ACAD_SEDONA"
 90
        0
280
     0
281
     1
  0
CLASS
  1
XRECORD
  2
AcDbXrecord
  3
"<Built In>"
 90
        0
280
     0
281
     0
  0
CLASS
  1
LONG_TRANSACTION
  2
AcDbLongTransaction
  3
AutoCAD 2000
 90
        0
280
     0
281
     0
  0
CLASS
  1
LWPOLYLINE
  2
AcDbPolyline
  3
"AutoCAD"
 90
        0
280
     0
281
     1
  0
CLASS
  1
HATCH
  2
AcDbHatch
  3
"ACAD_SEDONA"
 90
        0
280
     0
281
     1
  0
CLASS
  1
XRECORD
  2
AcDbXrecord
  3
"<Built In>"
 90
        0
280
     0
281
     0
  0
CLASS
  1
LONG_TRANSACTION
  2
AcDbLongTransaction
  3
AutoCAD 2000
 90
        0
280
     0
281
     0
  0
CLASS
  1
LWPOLYLINE
  2
AcDbPolyline
  3
"AutoCAD"
 90
        0
280
     0
281
     1
  0
CLASS
  1
HATCH
  2
AcDbHatch
  3
"ACAD_SEDONA"
 90
        0
280
     0
281
     1
  0
CLASS
  1
XRECORD
  2
AcDbXrecord
  3
"<Built In>"
 90
        0
280
     0
281
     0
  0
CLASS
  1
LONG_TRANSACTION
  2
AcDbLongTransaction
  3
AutoCAD 2000
 90
        0
280
     0
281
     0
  0
CLASS
  1
LWPOLYLINE
  2
AcDbPolyline
  3
"AutoCAD"
 90
        0
280
     0
281
     1
  0
CLASS
  1
HATCH
  2
AcDbHatch
  3
"ACAD_SEDONA"
 90
        0
280
     0
281
     1
  0
CLASS
  1
XRECORD
  2
AcDbXrecord
  3
"<Built In>"
 90
        0
280
     0
281
     0
  0
CLASS
  1
LONG_TRANSACTION
  2
AcDbLongTransaction
  3
AutoCAD 2000
 90
        0
280
     0
281
     0
  0
CLASS
  1
LWPOLYLINE
  2
AcDbPolyline
  3
"AutoCAD"
 90
        0
280
     0
281
     1
  0
CLASS
  1
HATCH
  2
AcDbHatch
  3
"ACAD_SEDONA"
 90
        0
280
     0
281
     1
  0
CLASS
  1
XRECORD
  2
AcDbXrecord
  3
"<Built In>"
 90
        0
280
     0
281
     0
  0
CLASS
  1
LONG_TRANSACTION
  2
AcDbLongTransaction
  3
AutoCAD 2000
 90
        0
280
     0
281
     0
  0
CLASS
  1
LWPOLYLINE
  2
AcDbPolyline
  3
"AutoCAD"
 90
        0
280
     0
281
     1
  0
CLASS
  1
HATCH
  2
AcDbHatch
  3
"ACAD_SEDONA"
 90
        0
280
     0
281
     1
  0
CLASS
  1
XRECORD
  2
AcDbXrecord
  3
"<Built In>"
 90
        0
280
     0
281
     0
  0
CLASS
  1
LONG_TRANSACTION
  2
AcDbLongTransaction
  3
AutoCAD 2000
 90
        0
280
     0
281
     0
  0
CLASS
  1
LWPOLYLINE
  2
AcDbPolyline
  3
"AutoCAD"
 90
        0
280
     0
281
     1
  0
CLASS
  1
HATCH
  2
AcDbHatch
  3
"ACAD_SEDONA"
 90
        0
280
     0
281
     1
  0
CLASS
  1
XRECORD
  2
AcDbXrecord
  3
"<Built In>"
 90
        0
280
     0
281
     0
  0
CLASS
  1
LONG_TRANSACTION
  2
AcDbLongTransaction
  3
AutoCAD 2000
 90
        0
280
     0
281
     0
  0
CLASS
  1
LWPOLYLINE
  2
AcDbPolyline
  3
"AutoCAD"
 90
        0
280
     0
281
     1
  0
CLASS
  1
HATCH
  2
AcDbHatch
  3
"ACAD_SEDONA"
 90
        0
280
     0
281
     1
  0
CLASS
  1
XRECORD
  2
AcDbXrecord
  3
"<Built In>"
 90
        0
280
     0
281
     0
  0
CLASS
  1
LONG_TRANSACTION
  2
AcDbLongTransaction
  3
AutoCAD 2000
 90
        0
280
     0
281
     0
  0
CLASS
  1
LWPOLYLINE
  2
AcDbPolyline
  3
"AutoCAD"
 90
        0
280
     0
281
     1
  0
CLASS
  1
HATCH
  2
AcDbHatch
  3
"ACAD_SEDONA"
 90
        0
280
     0
281
     1
  0
CLASS
  1
XRECORD
  2
AcDbXrecord
  3
"<Built In>"
 90
        0
280
     0
281
     0
  0
CLASS
  1
LONG_TRANSACTION
  2
AcDbLongTransaction
  3
AutoCAD 2000
 90
        0
280
     0
281
     0
  0
CLASS
  1
LWPOLYLINE
  2
AcDbPolyline
  3
"AutoCAD"
 90
        0
280
     0
281
     1
  0
CLASS
  1
HATCH
  2
AcDbHatch
  3
"ACAD_SEDONA"
 90
        0
280
     0
281
     1
  0
CLASS
  1
XRECORD
  2
AcDbXrecord
  3
"<Built In>"
 90
        0
280
     0
281
     0
  0
CLASS
  1
LONG_TRANSACTION
  2
AcDbLongTransaction
  3
AutoCAD 2000
 90
        0
280
     0
281
     0
  0
CLASS
  1
LWPOLYLINE
  2
AcDbPolyline
  3
"AutoCAD"
 90
        0
280
     0
281
     1
  0
CLASS
  1
HATCH
  2
AcDbHatch
  3
"ACAD_SEDONA"
 90
        0
280
     0
281
     1
  0
CLASS
  1
XRECORD
  2
AcDbXrecord
  3
"<Built In>"
 90
        0
280
     0
281
     0
  0
CLASS
  1
LONG_TRANSACTION
  2
AcDbLongTransaction
  3
AutoCAD 2000
 90
        0
280
     0
281
     0
  0
CLASS
  1
LWPOLYLINE
  2
AcDbPolyline
  3
"AutoCAD"
 90
        0
280
     0
281
     1
  0
CLASS
  1
HATCH
  2
AcDbHatch
  3
"ACAD_SEDONA"
 90
        0
280
     0
281
     1
  0
CLASS
  1
XRECORD
  2
AcDbXrecord
  3
"<Built In>"
 90
        0
280
     0
281
     0
  0
CLASS
  1
LONG_TRANSACTION
  2
AcDbLongTransaction
  3
AutoCAD 2000
 90
        0
280
     0
281
     0
  0
CLASS
  1
LWPOLYLINE
  2
AcDbPolyline
  3
"AutoCAD"
 90
        0
280
     0
281
     1
  0
CLASS
  1
HATCH
  2
AcDbHatch
  3
"ACAD_SEDONA"
 90
        0
280
     0
281
     1
  0
CLASS
  1
XRECORD
  2
AcDbXrecord
  3
"<Built In>"
 90
        0
280
     0
281
     0
  0
CLASS
  1
LONG_TRANSACTION
  2
AcDbLongTransaction
  3
AutoCAD 2000
 90
        0
280
     0
281
     0
  0
CLASS
  1
LWPOLYLINE
  2
AcDbPolyline
  3
"AutoCAD"
 90
        0
280
     0
281
     1
  0
CLASS
  1
HATCH
  2
AcDbHatch
  3
"ACAD_SEDONA"
 90
        0
280
     0
281
     1
  0
CLASS
  1
XRECORD
  2
AcDbXrecord
  3
"<Built In>"
 90
        0
280
     0
281
     0
  0
CLASS
  1
LONG_TRANSACTION
  2
AcDbLongTransaction
  3
AutoCAD 2000
 90
        0
280
     0
281
     0
  0
CLASS
  1
LWPOLYLINE
  2
AcDbPolyline
  3
"AutoCAD"
 90
        0
280
     0
281
     1
  0
CLASS
  1
HATCH
  2
AcDbHatch
  3
"ACAD_SEDONA"
 90
        0
280
     0
281
     1
  0
CLASS
  1
XRECORD
  2
AcDbXrecord
  3
"<Built In>"
 90
        0
280
     0
281
     0
  0
CLASS
  1
LONG_TRANSACTION
  2
AcDbLongTransaction
  3
AutoCAD 2000
 90
        0
280
     0
281
     0
  0
CLASS
  1
LWPOLYLINE
  2
AcDbPolyline
  3
"AutoCAD"
 90
        0
280
     0
281
     1
  0
CLASS
  1
HATCH
  2
AcDbHatch
  3
"ACAD_SEDONA"
 90
        0
280
     0
281
     1
  0
CLASS
  1
XRECORD
  2
AcDbXrecord
  3
"<Built In>"
 90
        0
280
     0
281
     0
  0
CLASS
  1
LONG_TRANSACTION
  2
AcDbLongTransaction
  3
AutoCAD 2000
 90
        0
280
     0
281
     0
  0
CLASS
  1
LWPOLYLINE
  2
AcDbPolyline
  3
"AutoCAD"
 90
        0
280
     0
281
     1
  0
CLASS
  1
HATCH
  2
AcDbHatch
  3
"ACAD_SEDONA"
 90
        0
280
     0
281
     1
  0
CLASS
  1
XRECORD
  2
AcDbXrecord
  3
"<Built In>"
 90
        0
280
     0
281
     0
  0
CLASS
  1
LONG_TRANSACTION
  2
AcDbLongTransaction
  3
AutoCAD 2000
 90
        0
280
     0
281
     0
  0
CLASS
  1
LWPOLYLINE
  2
AcDbPolyline
  3
"AutoCAD"
 90
        0
280
     0
281
     1
  0
CLASS
  1
HATCH
  2
AcDbHatch
  3
"ACAD_SEDONA"
 90
        0
280
     0
281
     1
  0
CLASS
  1
XRECORD
  2
AcDbXrecord
  3
"<Built In>"
 90
        0
280
     0
281
     0
  0
CLASS
  1
LONG_TRANSACTION
  2
AcDbLongTransaction
  3
AutoCAD 2000
 90
        0
280
     0
281
     0
  0
CLASS
  1
LWPOLYLINE
  2
AcDbPolyline
  3
"AutoCAD"
 90
        0
280
     0
281
     1
  0
CLASS
  1
HATCH
  2
AcDbHatch
  3
"ACAD_SEDONA"
 90
        0
280
     0
281
     1
  0
CLASS
  1
XRECORD
  2
AcDbXrecord
  3
"<Built In>"
 90
        0
280
     0
281
     0
  0
CLASS
  1
LONG_TRANSACTION
  2
AcDbLongTransaction
  3
AutoCAD 2000
 90
        0
280
     0
281
     0
  0
CLASS
  1
LWPOLYLINE
  2
AcDbPolyline
  3
"AutoCAD"
 90
        0
280
     0
281
     1
  0
CLASS
  1
HATCH
  2
AcDbHatch
  3
"ACAD_SEDONA"
 90
        0
280
     0
281
     1
  0
CLASS
  1
XRECORD
  2
AcDbXrecord
  3
"<Built In>"
 90
        0
280
     0
281
     0
  0
CLASS
  1
LONG_TRANSACTION
  2
AcDbLongTransaction
  3
AutoCAD 2000
 90
        0
280
     0
281
     0
  0
CLASS
  1
LWPOLYLINE
  2
AcDbPolyline
  3
"AutoCAD"
 90
        0
280
     0
281
     1
  0
CLASS
  1
HATCH
  2
AcDbHatch
  3
"ACAD_SEDONA"
 90
        0
280
     0
281
     1
  0
CLASS
  1
XRECORD
  2
AcDbXrecord
  3
"<Built In>"
 90
        0
280
     0
281
     0
  0
CLASS
  1
LONG_TRANSACTION
  2
AcDbLongTransaction
  3
AutoCAD 2000
 90
        0
280
     0
281
     0
  0
CLASS
  1
LWPOLYLINE
  2
AcDbPolyline
  3
"AutoCAD"
 90
        0
280
     0
281
     1
  0
CLASS
  1
HATCH
  2
AcDbHatch
  3
"ACAD_SEDONA"
 90
        0
280
     0
281
     1
  0
CLASS
  1
XRECORD
  2
AcDbXrecord
  3
"<Built In>"
 90
        0
280
     0
281
     0
  0
CLASS
  1
LONG_TRANSACTION
  2
AcDbLongTransaction
  3
AutoCAD 2000
 90
        0
280
     0
281
     0
  0
CLASS
  1
LWPOLYLINE
  2
AcDbPolyline
  3
"AutoCAD"
 90
        0
280
     0
281
     1
  0
CLASS
  1
HATCH
  2
AcDbHatch
  3
"ACAD_SEDONA"
 90
        0
280
     0
281
     1
  0
CLASS
  1
XRECORD
  2
AcDbXrecord
  3
"<Built In>"
 90
        0
280
     0
281
     0
  0
CLASS
  1
LONG_TRANSACTION
  2
AcDbLongTransaction
  3
AutoCAD 2000
 90
        0
280
     0
281
     0
  0
CLASS
  1
LWPOLYLINE
  2
AcDbPolyline
  3
"AutoCAD"
 90
        0
280
     0
281
     1
  0
CLASS
  1
HATCH
  2
AcDbHatch
  3
"ACAD_SEDONA"
 90
        0
280
     0
281
     1
  0
CLASS
  1
XRECORD
  2
AcDbXrecord
  3
"<Built In>"
 90
        0
280
     0
281
     0
  0
CLASS
  1
LONG_TRANSACTION
  2
AcDbLongTransaction
  3
AutoCAD 2000
 90
        0
280
     0
281
     0
  0
CLASS
  1
LWPOLYLINE
  2
AcDbPolyline
  3
"AutoCAD"
 90
        0
280
     0
281
     1
  0
CLASS
  1
HATCH
  2
AcDbHatch
  3
"ACAD_SEDONA"
 90
        0
280
     0
281
     1
  0
CLASS
  1
XRECORD
  2
AcDbXrecord
  3
"<Built In>"
 90
        0
280
     0
281
     0
  0
CLASS
  1
LONG_TRANSACTION
  2
AcDbLongTransaction
  3
AutoCAD 2000
 90
        0
280
     0
281
     0
  0
CLASS
  1
LWPOLYLINE
  2
AcDbPolyline
  3
"AutoCAD"
 90
        0
280
     0
281
     1
  0
CLASS
  1
HATCH
  2
AcDbHatch
  3
"ACAD_SEDONA"
 90
        0
280
     0
281
     1
  0
CLASS
  1
XRECORD
  2
AcDbXrecord
  3
"<Built In>"
 90
        0
280
     0
281
     0
  0
CLASS
  1
LONG_TRANSACTION
  2
AcDbLongTransaction
  3
AutoCAD 2000
 90
        0
280
     0
281
     0
  0
CLASS
  1
LWPOLYLINE
  2
AcDbPolyline
  3
"AutoCAD"
 90
        0
280
     0
281
     1
  0
CLASS
  1
HATCH
  2
AcDbHatch
  3
"ACAD_SEDONA"
 90
        0
280
     0
281
     1
  0
CLASS
  1
XRECORD
  2
AcDbXrecord
  3
"<Built In>"
 90
        0
280
     0
281
     0
  0
CLASS
  1
LONG_TRANSACTION
  2
AcDbLongTransaction
  3
AutoCAD 2000
 90
        0
280
     0
281
     0
  0
CLASS
  1
LWPOLYLINE
  2
AcDbPolyline
  3
"AutoCAD"
 90
        0
280
     0
281
     1
  0
CLASS
  1
HATCH
  2
AcDbHatch
  3
"ACAD_SEDONA"
 90
        0
280
     0
281
     1
  0
CLASS
  1
XRECORD
  2
AcDbXrecord
  3
"<Built In>"
 90
        0
280
     0
281
     0
  0
CLASS
  1
LONG_TRANSACTION
  2
AcDbLongTransaction
  3
AutoCAD 2000
 90
        0
280
     0
281
     0
  0
CLASS
  1
LWPOLYLINE
  2
AcDbPolyline
  3
"AutoCAD"
 90
        0
280
     0
281
     1
  0
CLASS
  1
HATCH
  2
AcDbHatch
  3
"ACAD_SEDONA"
 90
        0
280
     0
281
     1
  0
CLASS
  1
XRECORD
  2
AcDbXrecord
  3
"<Built In>"
 90
        0
280
     0
281
     0
  0
CLASS
  1
LONG_TRANSACTION
  2
AcDbLongTransaction
  3
AutoCAD 2000
 90
        0
280
     0
281
     0
  0
CLASS
  1
LWPOLYLINE
  2
AcDbPolyline
  3
"AutoCAD"
 90
        0
280
     0
281
     1
  0
CLASS
  1
HATCH
  2
AcDbHatch
  3
"ACAD_SEDONA"
 90
        0
280
     0
281
     1
  0
CLASS
  1
XRECORD
  2
AcDbXrecord
  3
"<Built In>"
 90
        0
280
     0
281
     0
  0
CLASS
  1
LONG_TRANSACTION
  2
AcDbLongTransaction
  3
AutoCAD 2000
 90
        0
280
     0
281
     0
  0
CLASS
  1
LWPOLYLINE
  2
AcDbPolyline
  3
"AutoCAD"
 90
        0
280
     0
281
     1
  0
CLASS
  1
HATCH
  2
AcDbHatch
  3
"ACAD_SEDONA"
 90
        0
280
     0
281
     1
  0
CLASS
  1
XRECORD
  2
AcDbXrecord
  3
"<Built In>"
 90
        0
280
     0
281
     0
  0
CLASS
  1
LONG_TRANSACTION
  2
AcDbLongTransaction
  3
AutoCAD 2000
 90
        0
280
     0
281
     0
  0
CLASS
  1
LWPOLYLINE
  2
AcDbPolyline
  3
"AutoCAD"
 90
        0
280
     0
281
     1
  0
CLASS
  1
HATCH
  2
AcDbHatch
  3
"ACAD_SEDONA"
 90
        0
280
     0
281
     1
  0
CLASS
  1
XRECORD
  2
AcDbXrecord
  3
"<Built In>"
 90
        0
280
     0
281
     0
  0
CLASS
  1
LONG_TRANSACTION
  2
AcDbLongTransaction
  3
AutoCAD 2000
 90
        0
280
     0
281
     0
  0
CLASS
  1
LWPOLYLINE
  2
AcDbPolyline
  3
"AutoCAD"
 90
        0
280
     0
281
     1
  0
CLASS
  1
HATCH
  2
AcDbHatch
  3
"ACAD_SEDONA"
 90
        0
280
     0
281
     1
  0
CLASS
  1
XRECORD
  2
AcDbXrecord
  3
"<Built In>"
 90
        0
280
     0
281
     0
  0
CLASS
  1
LONG_TRANSACTION
  2
AcDbLongTransaction
  3
AutoCAD 2000
 90
        0
280
     0
281
     0
  0
CLASS
  1
LWPOLYLINE
  2
AcDbPolyline
  3
"AutoCAD"
 90
        0
280
     0
281
     1
  0
CLASS
  1
HATCH
  2
AcDbHatch
  3
"ACAD_SEDONA"
 90
        0
280
     0
281
     1
  0
CLASS
  1
XRECORD
  2
AcDbXrecord
  3
"<Built In>"
 90
        0
280
     0
281
     0
  0
CLASS
  1
LONG_TRANSACTION
  2
AcDbLongTransaction
  3
AutoCAD 2000
 90
        0
280
     0
281
     0
  0
CLASS
  1
LWPOLYLINE
  2
AcDbPolyline
  3
"AutoCAD"
 90
        0
280
     0
281
     1
  0
CLASS
  1
HATCH
  2
AcDbHatch
  3
"ACAD_SEDONA"
 90
        0
280
     0
281
     1
  0
CLASS
  1
XRECORD
  2
AcDbXrecord
  3
"<Built In>"
 90
        0
280
     0
281
     0
  0
CLASS
  1
LONG_TRANSACTION
  2
AcDbLongTransaction
  3
AutoCAD 2000
 90
        0
280
     0
281
     0
  0
CLASS
  1
LWPOLYLINE
  2
AcDbPolyline
  3
"AutoCAD"
 90
        0
280
     0
281
     1
  0
CLASS
  1
HATCH
  2
AcDbHatch
  3
"ACAD_SEDONA"
 90
        0
280
     0
281
     1
  0
CLASS
  1
XRECORD
  2
AcDbXrecord
  3
"<Built In>"
 90
        0
280
     0
281
     0
  0
CLASS
  1
LONG_TRANSACTION
  2
AcDbLongTransaction
  3
AutoCAD 2000
 90
        0
280
     0
281
     0
  0
CLASS
  1
LWPOLYLINE
  2
AcDbPolyline
  3
"AutoCAD"
 90
        0
280
     0
281
     1
  0
CLASS
  1
HATCH
  2
AcDbHatch
  3
"ACAD_SEDONA"
 90
        0
280
     0
281
     1
  0
CLASS
  1
XRECORD
  2
AcDbXrecord
  3
"<Built In>"
 90
        0
280
     0
281
     0
  0
CLASS
  1
LONG_TRANSACTION
  2
AcDbLongTransaction
  3
AutoCAD 2000
 90
        0
280
     0
281
     0
  0
CLASS
  1
LWPOLYLINE
  2
AcDbPolyline
  3
"AutoCAD"
 90
        0
280
     0
281
     1
  0
CLASS
  1
HATCH
  2
AcDbHatch
  3
"ACAD_SEDONA"
 90
        0
280
     0
281
     1
  0
CLASS
  1
XRECORD
  2
AcDbXrecord
  3
"<Built In>"
 90
        0
280
     0
281
     0
  0
CLASS
  1
LONG_TRANSACTION
  2
AcDbLongTransaction
  3
AutoCAD 2000
 90
        0
280
     0
281
     0
  0
CLASS
  1
LWPOLYLINE
  2
AcDbPolyline
  3
"AutoCAD"
 90
        0
280
     0
281
     1
  0
CLASS
  1
HATCH
  2
AcDbHatch
  3
"ACAD_SEDONA"
 90
        0
280
     0
281
     1
  0
CLASS
  1
XRECORD
  2
AcDbXrecord
  3
"<Built In>"
 90
        0
280
     0
281
     0
  0
CLASS
  1
LONG_TRANSACTION
  2
AcDbLongTransaction
  3
AutoCAD 2000
 90
        0
280
     0
281
     0
  0
CLASS
  1
LWPOLYLINE
  2
AcDbPolyline
  3
"AutoCAD"
 90
        0
280
     0
281
     1
  0
CLASS
  1
HATCH
  2
AcDbHatch
  3
"ACAD_SEDONA"
 90
        0
280
     0
281
     1
  0
CLASS
  1
XRECORD
  2
AcDbXrecord
  3
"<Built In>"
 90
        0
280
     0
281
     0
  0
CLASS
  1
LONG_TRANSACTION
  2
AcDbLongTransaction
  3
AutoCAD 2000
 90
        0
280
     0
281
     0
  0
CLASS
  1
LWPOLYLINE
  2
AcDbPolyline
  3
"AutoCAD"
 90
        0
280
     0
281
     1
  0
CLASS
  1
HATCH
  2
AcDbHatch
  3
"ACAD_SEDONA"
 90
        0
280
     0
281
     1
  0
CLASS
  1
XRECORD
  2
AcDbXrecord
  3
"<Built In>"
 90
        0
280
     0
281
     0
  0
CLASS
  1
LONG_TRANSACTION
  2
AcDbLongTransaction
  3
AutoCAD 2000
 90
        0
280
     0
281
     0
  0
CLASS
  1
LWPOLYLINE
  2
AcDbPolyline
  3
"AutoCAD"
 90
        0
280
     0
281
     1
  0
CLASS
  1
HATCH
  2
AcDbHatch
  3
"ACAD_SEDONA"
 90
        0
280
     0
281
     1
  0
CLASS
  1
XRECORD
  2
AcDbXrecord
  3
"<Built In>"
 90
        0
280
     0
281
     0
  0
CLASS
  1
LONG_TRANSACTION
  2
AcDbLongTransaction
  3
AutoCAD 2000
 90
        0
280
     0
281
     0
  0
CLASS
  1
LWPOLYLINE
  2
AcDbPolyline
  3
"AutoCAD"
 90
        0
280
     0
281
     1
  0
CLASS
  1
HATCH
  2
AcDbHatch
  3
"ACAD_SEDONA"
 90
        0
280
     0
281
     1
  0
CLASS
  1
XRECORD
  2
AcDbXrecord
  3
"<Built In>"
 90
        0
280
     0
281
     0
  0
CLASS
  1
LONG_TRANSACTION
  2
AcDbLongTransaction
  3
AutoCAD 2000
 90
        0
280
     0
281
     0
  0
CLASS
  1
LWPOLYLINE
  2
AcDbPolyline
  3
"AutoCAD"
 90
        0
280
     0
281
     1
  0
CLASS
  1
HATCH
  2
AcDbHatch
  3
"ACAD_SEDONA"
 90
        0
280
     0
281
     1
  0
CLASS
  1
XRECORD
  2
AcDbXrecord
  3
"<Built In>"
 90
        0
280
     0
281
     0
  0
CLASS
  1
LONG_TRANSACTION
  2
AcDbLongTransaction
  3
AutoCAD 2000
 90
        0
280
     0
281
     0
  0
CLASS
  1
LWPOLYLINE
  2
AcDbPolyline
  3
"AutoCAD"
 90
        0
280
     0
281
     1
  0
CLASS
  1
HATCH
  2
AcDbHatch
  3
"ACAD_SEDONA"
 90
        0
280
     0
281
     1
  0
CLASS
  1
XRECORD
  2
AcDbXrecord
  3
"<Built In>"
 90
        0
280
     0
281
     0
  0
CLASS
  1
LONG_TRANSACTION
  2
AcDbLongTransaction
  3
AutoCAD 2000
 90
        0
280
     0
281
     0
  0
CLASS
  1
LWPOLYLINE
  2
AcDbPolyline
  3
"AutoCAD"
 90
        0
280
     0
281
     1
  0
CLASS
  1
HATCH
  2
AcDbHatch
  3
"ACAD_SEDONA"
 90
        0
280
     0
281
     1
  0
CLASS
  1
XRECORD
  2
AcDbXrecord
  3
"<Built In>"
 90
        0
280
     0
281
     0
  0
CLASS
  1
LONG_TRANSACTION
  2
AcDbLongTransaction
  3
AutoCAD 2000
 90
        0
280
     0
281
     0
  0
CLASS
  1
LWPOLYLINE
  2
AcDbPolyline
  3
"AutoCAD"
 90
        0
280
     0
281
     1
  0
CLASS
  1
HATCH
  2
AcDbHatch
  3
"ACAD_SEDONA"
 90
        0
280
     0
281
     1
  0
CLASS
  1
XRECORD
  2
AcDbXrecord
  3
"<Built In>"
 90
        0
280
     0
281
     0
  0
CLASS
  1
LONG_TRANSACTION
  2
AcDbLongTransaction
  3
AutoCAD 2000
 90
        0
280
     0
281
     0
  0
CLASS
  1
LWPOLYLINE
  2
AcDbPolyline
  3
"AutoCAD"
 90
        0
280
     0
281
     1
  0
CLASS
  1
HATCH
  2
AcDbHatch
  3
"ACAD_SEDONA"
 90
        0
280
     0
281
     1
  0
CLASS
  1
XRECORD
  2
AcDbXrecord
  3
"<Built In>"
 90
        0
280
     0
281
     0
  0
CLASS
  1
LONG_TRANSACTION
  2
AcDbLongTransaction
  3
AutoCAD 2000
 90
        0
280
     0
281
     0
  0
CLASS
  1
LWPOLYLINE
  2
AcDbPolyline
  3
"AutoCAD"
 90
        0
280
     0
281
     1
  0
CLASS
  1
HATCH
  2
AcDbHatch
  3
"ACAD_SEDONA"
 90
        0
280
     0
281
     1
  0
CLASS
  1
XRECORD
  2
AcDbXrecord
  3
"<Built In>"
 90
        0
280
     0
281
     0
  0
CLASS
  1
LONG_TRANSACTION
  2
AcDbLongTransaction
  3
AutoCAD 2000
 90
        0
280
     0
281
     0
  0
CLASS
  1
LWPOLYLINE
  2
AcDbPolyline
  3
"AutoCAD"
 90
        0
280
     0
281
     1
  0
CLASS
  1
HATCH
  2
AcDbHatch
  3
"ACAD_SEDONA"
 90
        0
280
     0
281
     1
  0
CLASS
  1
XRECORD
  2
AcDbXrecord
  3
"<Built In>"
 90
        0
280
     0
281
     0
  0
CLASS
  1
LONG_TRANSACTION
  2
AcDbLongTransaction
  3
AutoCAD 2000
 90
        0
280
     0
281
     0
  0
CLASS
  1
LWPOLYLINE
  2
AcDbPolyline
  3
"AutoCAD"
 90
        0
280
     0
281
     1
  0
CLASS
  1
HATCH
  2
AcDbHatch
  3
"ACAD_SEDONA"
 90
        0
280
     0
281
     1
  0
CLASS
  1
XRECORD
  2
AcDbXrecord
  3
"<Built In>"
 90
        0
280
     0
281
     0
  0
CLASS
  1
LONG_TRANSACTION
  2
AcDbLongTransaction
  3
AutoCAD 2000
 90
        0
280
     0
281
     0
  0
CLASS
  1
LWPOLYLINE
  2
AcDbPolyline
  3
"AutoCAD"
 90
        0
280
     0
281
     1
  0
CLASS
  1
HATCH
  2
AcDbHatch
  3
"ACAD_SEDONA"
 90
        0
280
     0
281
     1
  0
CLASS
  1
XRECORD
  2
AcDbXrecord
  3
"<Built In>"
 90
        0
280
     0
281
     0
  0
CLASS
  1
LONG_TRANSACTION
  2
AcDbLongTransaction
  3
AutoCAD 2000
 90
        0
280
     0
281
     0
  0
CLASS
  1
LWPOLYLINE
  2
AcDbPolyline
  3
"AutoCAD"
 90
        0
280
     0
281
     1
  0
CLASS
  1
HATCH
  2
AcDbHatch
  3
"ACAD_SEDONA"
 90
        0
280
     0
281
     1
  0
CLASS
  1
XRECORD
  2
AcDbXrecord
  3
"<Built In>"
 90
        0
280
     0
281
     0
  0
ENDSEC
  0
SECTION
  2
TABLES
  0
TABLE
  2
VPORT
  5
469
100
AcDbSymbolTable
 70
     1
  0
VPORT
  5
6D775
102
{ACAD_XDICTIONARY
360
6DC9C
102
}
100
AcDbSymbolTableRecord
100
AcDbViewportTableRecord
  2
*ACTIVE
 70
     0
 10
0.0
 20
0.0
 11
1.0
 21
1.0
 12
-1.303488
 22
6.273814
 13
0.0
 23
0.0
 14
1.0
 24
1.0
 15
0.0
 25
0.0
 16
0.0
 26
0.0
 36
1.0
 17
0.648805
 27
-6.132183
 37
2.586733
 40
2.438367
 41
1.786496
 42
50.0
 43
0.0
 44
0.0
 50
0.0
 51
0.0
 71
     0
 72
   100
 73
     1
 74
     1
 75
     0
 76
     0
 77
     0
 78
     0
  0
ENDTAB
  0
TABLE
  2
LTYPE
  5
466
100
AcDbSymbolTable
 70
     1
  0
LTYPE
  5
472
100
AcDbSymbolTableRecord
100
AcDbLinetypeTableRecord
  2
BYBLOCK
 70
     0
  3

 72
    65
 73
     0
 40
0.0
  0
LTYPE
  5
473
100
AcDbSymbolTableRecord
100
AcDbLinetypeTableRecord
  2
BYLAYER
 70
     0
  3

 72
    65
 73
     0
 40
0.0
  0
LTYPE
  5
474
100
AcDbSymbolTableRecord
100
AcDbLinetypeTableRecord
  2
CONTINUOUS
 70
     0
  3
Solid line
 72
    65
 73
     0
 40
0.0
  0
ENDTAB
  0
TABLE
  2
LAYER
  5
463
100
AcDbSymbolTable
 70
     8
  0
LAYER
  5
46F
100
AcDbSymbolTableRecord
100
AcDbLayerTableRecord
  2
0
 70
     0
 62
     7
  6
CONTINUOUS
  0
LAYER
  5
485
100
AcDbSymbolTableRecord
100
AcDbLayerTableRecord
  2
AREA1
 70
     0
 62
     7
  6
CONTINUOUS
  0
LAYER
  5
486
100
AcDbSymbolTableRecord
100
AcDbLayerTableRecord
  2
AREA2
 70
     0
 62
     7
  6
CONTINUOUS
  0
LAYER
  5
494
102
{ACAD_XDICTIONARY
360
6DCC9
102
}
100
AcDbSymbolTableRecord
100
AcDbLayerTableRecord
  2
DEFPOINTS
 70
     0
 62
    -7
  6
CONTINUOUS
  0
LAYER
  5
495
100
AcDbSymbolTableRecord
100
AcDbLayerTableRecord
  2
DIMS-MTG-HOLES
 70
     0
 62
    -1
  6
CONTINUOUS
  0
LAYER
  5
4E6
100
AcDbSymbolTableRecord
100
AcDbLayerTableRecord
  2
SCALE
 70
     0
 62
    -7
  6
CONTINUOUS
  0
LAYER
  5
4ED
100
AcDbSymbolTableRecord
100
AcDbLayerTableRecord
  2
SNAP_POINTS
 70
     0
 62
    -1
  6
CONTINUOUS
  0
LAYER
  5
4F1
100
AcDbSymbolTableRecord
100
AcDbLayerTableRecord
  2
ATTRIBUTES
 70
     0
 62
    -7
  6
CONTINUOUS
  0
ENDTAB
  0
TABLE
  2
STYLE
  5
464
100
AcDbSymbolTable
 70
     1
  0
STYLE
  5
470
100
AcDbSymbolTableRecord
100
AcDbTextStyleTableRecord
  2
STANDARD
 70
     0
 40
0.0
 41
1.0
 50
0.0
 71
     0
 42
0.2
  3
txt
  4

  0
ENDTAB
  0
TABLE
  2
VIEW
  5
467
100
AcDbSymbolTable
 70
     0
  0
ENDTAB
  0
TABLE
  2
UCS
  5
468
100
AcDbSymbolTable
 70
     0
  0
ENDTAB
  0
TABLE
  2
APPID
  5
46A
100
AcDbSymbolTable
 70
     2
  0
APPID
  5
471
100
AcDbSymbolTableRecord
100
AcDbRegAppTableRecord
  2
ACAD
 70
     0
  0
APPID
  5
47E
100
AcDbSymbolTableRecord
100
AcDbRegAppTableRecord
  2
AVE_RENDER
 70
     0
  0
ENDTAB
  0
TABLE
  2
DIMSTYLE
  5
46B
100
AcDbSymbolTable
 70
     2
  0
DIMSTYLE
105
49A
102
{ACAD_XDICTIONARY
360
6DCCB
102
}
102
{ACAD_REACTORS
330
6D767
330
6D72F
330
6D72E
102
}
100
AcDbSymbolTableRecord
100
AcDbDimStyleTableRecord
  2
ABECAD_3V
 70
     0
  3

  4

  5

  6

  7

 40
0.0
 41
0.125
 42
0.0625
 43
0.375
 44
0.0625
 45
0.0
 46
0.0
 47
0.0
 48
0.0
140
0.125
141
0.09
142
0.0
143
25.4
144
1.0
145
0.0
146
1.5
147
0.09
 71
     0
 72
     0
 73
     0
 74
     1
 75
     0
 76
     0
 77
     0
 78
     4
170
     1
171
     2
172
     0
173
     0
174
     0
175
     0
176
     0
177
     0
178
     0
270
     7
271
     6
272
     6
273
     2
274
     2
340
470
275
     0
280
     0
281
     0
282
     0
283
     1
284
     4
285
     4
286
     4
287
     5
288
     1
  0
DIMSTYLE
105
512
102
{ACAD_XDICTIONARY
360
6DCCF
102
}
100
AcDbSymbolTableRecord
100
AcDbDimStyleTableRecord
  2
ABECAD_3D
 70
     0
  3

  4

  5

  6

  7

 40
1.0
 41
0.18
 42
0.0625
 43
0.375
 44
0.18
 45
0.0
 46
0.0
 47
0.0
 48
0.0
140
0.18
141
0.09
142
0.0
143
25.4
144
1.0
145
0.0
146
1.5
147
0.09
 71
     0
 72
     0
 73
     0
 74
     1
 75
     0
 76
     0
 77
     0
 78
     4
170
     1
171
     2
172
     0
173
     0
174
     0
175
     0
176
     0
177
     0
178
     0
270
     7
271
     6
272
     6
273
     2
274
     2
340
470
275
     0
280
     0
281
     0
282
     0
283
     1
284
     4
285
     4
286
     4
287
     5
288
     1
  0
ENDTAB
  0
TABLE
  2
BLOCK_RECORD
  5
462
100
AcDbSymbolTable
 70
     3
  0
BLOCK_RECORD
  5
478
102
{ACAD_XDICTIONARY
360
4D2
102
}
100
AcDbSymbolTableRecord
100
AcDbBlockTableRecord
  2
*MODEL_SPACE
  0
BLOCK_RECORD
  5
475
102
{ACAD_XDICTIONARY
360
4D0
102
}
100
AcDbSymbolTableRecord
100
AcDbBlockTableRecord
  2
*PAPER_SPACE
  0
BLOCK_RECORD
  5
6D73B
100
AcDbSymbolTableRecord
100
AcDbBlockTableRecord
  2
*D0
  0
BLOCK_RECORD
  5
6D747
100
AcDbSymbolTableRecord
100
AcDbBlockTableRecord
  2
*D1
  0
BLOCK_RECORD
  5
6D768
100
AcDbSymbolTableRecord
100
AcDbBlockTableRecord
  2
*D2
  0
ENDTAB
  0
ENDSEC
  0
SECTION
  2
BLOCKS
  0
BLOCK
  5
48B
100
AcDbEntity
  8
0
100
AcDbBlockBegin
  2
*MODEL_SPACE
 70
     0
 10
0.0
 20
0.0
 30
0.0
  3
*MODEL_SPACE
  1

  0
ENDBLK
  5
48C
100
AcDbEntity
  8
0
100
AcDbBlockEnd
  0
BLOCK
  5
489
100
AcDbEntity
 67
     1
  8
0
100
AcDbBlockBegin
  2
*PAPER_SPACE
 70
     0
 10
0.0
 20
0.0
 30
0.0
  3
*PAPER_SPACE
  1

  0
ENDBLK
  5
48A
100
AcDbEntity
 67
     1
  8
0
100
AcDbBlockEnd
  0
BLOCK
  5
6D745
100
AcDbEntity
  8
0
100
AcDbBlockBegin
  2
*D0
 70
     1
 10
0.0
 20
0.0
 30
0.0
  3
*D0
  1

  0
LINE
  5
6D78A
100
AcDbEntity
  8
AREA1
 62
     0
100
AcDbLine
 10
-0.30516
 20
-0.747
 30
0.0
 11
-2.695063
 21
-0.747
 31
0.0
1001
ACAD
1000
RTLwPs
1070
   158
  0
LINE
  5
6D78B
100
AcDbEntity
  8
AREA1
 62
     0
100
AcDbLine
 10
-0.30516
 20
0.747
 30
0.0
 11
-2.695063
 21
0.747
 31
0.0
1001
ACAD
1000
RTLwPs
1070
   158
  0
LINE
  5
6D78C
100
AcDbEntity
  8
AREA1
 62
     0
100
AcDbLine
 10
-2.639495
 20
-0.858135
 30
0.0
 11
-2.639495
 21
-0.969269
 31
0.0
1001
ACAD
1000
RTLwPs
1070
   158
  0
LINE
  5
6D78D
100
AcDbEntity
  8
AREA1
 62
     0
100
AcDbLine
 10
-2.639495
 20
0.858135
 30
0.0
 11
-2.639495
 21
0.969269
 31
0.0
1001
ACAD
1000
RTLwPs
1070
   158
  0
MTEXT
  5
6D78E
100
AcDbEntity
  8
AREA1
 62
     0
100
AcDbMText
 10
-2.639495
 20
0.002953
 30
0.0
 40
0.111135
 41
0.0
 71
     5
 72
     1
  1
\A1;1 1/2 [37.95]
 11
0.0
 21
1.0
 31
0.0
1001
ACAD
1000
MTEXTBEGIN
1070
    73
1070
     1
1070
    44
1040
1.0
1070
    74
1070
     0
1000
MTEXTEND
1000
MTEXTBEGIN
1070
    73
1070
     1
1070
    44
1040
1.0
1070
    74
1070
     0
1000
MTEXTEND
1000
MTEXTBEGIN
1070
    73
1070
     1
1070
    44
1040
1.0
1070
    74
1070
     0
1000
MTEXTEND
1000
MTEXTBEGIN
1070
    73
1070
     1
1070
    44
1040
1.0
1070
    74
1070
     0
1000
MTEXTEND
1000
MTEXTBEGIN
1070
    73
1070
     1
1070
    44
1040
1.0
1070
    74
1070
     0
1000
MTEXTEND
1000
MTEXTBEGIN
1070
    73
1070
     1
1070
    44
1040
1.0
1070
    74
1070
     0
1000
MTEXTEND
1000
MTEXTBEGIN
1070
    73
1070
     1
1070
    44
1040
1.0
1070
    74
1070
     0
1000
MTEXTEND
1000
MTEXTBEGIN
1070
    73
1070
     1
1070
    44
1040
1.0
1070
    74
1070
     0
1000
MTEXTEND
1000
MTEXTBEGIN
1070
    73
1070
     1
1070
    44
1040
1.0
1070
    74
1070
     0
1000
MTEXTEND
1000
MTEXTBEGIN
1070
    73
1070
     1
1070
    44
1040
1.0
1070
    74
1070
     0
1000
MTEXTEND
1000
MTEXTBEGIN
1070
    73
1070
     1
1070
    44
1040
1.0
1070
    74
1070
     0
1000
MTEXTEND
1000
MTEXTBEGIN
1070
    73
1070
     1
1070
    44
1040
1.0
1070
    74
1070
     0
1000
MTEXTEND
1000
MTEXTBEGIN
1070
    73
1070
     1
1070
    44
1040
1.0
1070
    74
1070
     0
1000
MTEXTEND
1000
MTEXTBEGIN
1070
    73
1070
     1
1070
    44
1040
1.0
1070
    74
1070
     0
1000
MTEXTEND
1000
MTEXTBEGIN
1070
    73
1070
     1
1070
    44
1040
1.0
1070
    74
1070
     0
1000
MTEXTEND
1000
MTEXTBEGIN
1070
    73
1070
     1
1070
    44
1040
1.0
1070
    74
1070
     0
1000
MTEXTEND
1000
MTEXTBEGIN
1070
    73
1070
     1
1070
    44
1040
1.0
1070
    74
1070
     0
1000
MTEXTEND
1000
MTEXTBEGIN
1070
    73
1070
     1
1070
    44
1040
1.0
1070
    74
1070
     0
1000
MTEXTEND
1000
MTEXTBEGIN
1070
    73
1070
     1
1070
    44
1040
1.0
1070
    74
1070
     0
1000
MTEXTEND
1000
MTEXTBEGIN
1070
    73
1070
     1
1070
    44
1040
1.0
1070
    74
1070
     0
1000
MTEXTEND
1000
MTEXTBEGIN
1070
    73
1070
     1
1070
    44
1040
1.0
1070
    74
1070
     0
1000
MTEXTEND
1000
MTEXTBEGIN
1070
    73
1070
     1
1070
    44
1040
1.0
1070
    74
1070
     0
1000
MTEXTEND
1000
MTEXTBEGIN
1070
    73
1070
     1
1070
    44
1040
1.0
1070
    74
1070
     0
1000
MTEXTEND
1000
MTEXTBEGIN
1070
    73
1070
     1
1070
    44
1040
1.0
1070
    74
1070
     0
1000
MTEXTEND
  0
SOLID
  5
6D78F
100
AcDbEntity
  8
AREA1
 62
     0
100
AcDbTrace
 10
-2.658018
 20
-0.858135
 30
0.0
 11
-2.620973
 21
-0.858135
 31
0.0
 12
-2.639495
 22
-0.747
 32
0.0
 13
-2.639495
 23
-0.747
 33
0.0
  0
SOLID
  5
6D790
100
AcDbEntity
  8
AREA1
 62
     0
100
AcDbTrace
 10
-2.658018
 20
0.858135
 30
0.0
 11
-2.620973
 21
0.858135
 31
0.0
 12
-2.639495
 22
0.747
 32
0.0
 13
-2.639495
 23
0.747
 33
0.0
  0
POINT
  5
6D791
100
AcDbEntity
  8
DEFPOINTS
 62
     0
100
AcDbPoint
 10
-0.249593
 20
-0.747
 30
0.0
  0
POINT
  5
6D792
100
AcDbEntity
  8
DEFPOINTS
 62
     0
100
AcDbPoint
 10
-0.249593
 20
0.747
 30
0.0
  0
POINT
  5
6D793
100
AcDbEntity
  8
DEFPOINTS
 62
     0
100
AcDbPoint
 10
-2.639495
 20
0.747
 30
0.0
  0
ENDBLK
  5
6D746
100
AcDbEntity
  8
0
100
AcDbBlockEnd
  0
BLOCK
  5
6D752
100
AcDbEntity
  8
0
100
AcDbBlockBegin
  2
*D1
 70
     1
 10
0.0
 20
0.0
 30
0.0
  3
*D1
  1

  0
LINE
  5
6D780
100
AcDbEntity
  8
AREA1
 62
     0
100
AcDbLine
 10
-2.228093
 20
0.595567
 30
0.0
 11
-2.228093
 21
1.115875
 31
0.0
1001
ACAD
1000
RTLwPs
1070
   158
  0
LINE
  5
6D781
100
AcDbEntity
  8
AREA1
 62
     0
100
AcDbLine
 10
0.143407
 20
0.802567
 30
0.0
 11
0.143407
 21
1.115875
 31
0.0
1001
ACAD
1000
RTLwPs
1070
   158
  0
LINE
  5
6D782
100
AcDbEntity
  8
AREA1
 62
     0
100
AcDbLine
 10
-2.116958
 20
1.060308
 30
0.0
 11
-1.80081
 21
1.060308
 31
0.0
1001
ACAD
1000
RTLwPs
1070
   158
  0
LINE
  5
6D783
100
AcDbEntity
  8
AREA1
 62
     0
100
AcDbLine
 10
0.032272
 20
1.060308
 30
0.0
 11
-0.399771
 21
1.060308
 31
0.0
1001
ACAD
1000
RTLwPs
1070
   158
  0
MTEXT
  5
6D784
100
AcDbEntity
  8
AREA1
 62
     0
100
AcDbMText
 10
-1.100291
 20
1.060308
 30
0.0
 40
0.111135
 41
0.0
 71
     5
 72
     1
  1
\A1;2 3/8 [60.24]
1001
ACAD
1000
MTEXTBEGIN
1070
    73
1070
     1
1070
    44
1040
1.0
1070
    74
1070
     0
1000
MTEXTEND
1000
MTEXTBEGIN
1070
    73
1070
     1
1070
    44
1040
1.0
1070
    74
1070
     0
1000
MTEXTEND
1000
MTEXTBEGIN
1070
    73
1070
     1
1070
    44
1040
1.0
1070
    74
1070
     0
1000
MTEXTEND
1000
MTEXTBEGIN
1070
    73
1070
     1
1070
    44
1040
1.0
1070
    74
1070
     0
1000
MTEXTEND
1000
MTEXTBEGIN
1070
    73
1070
     1
1070
    44
1040
1.0
1070
    74
1070
     0
1000
MTEXTEND
1000
MTEXTBEGIN
1070
    73
1070
     1
1070
    44
1040
1.0
1070
    74
1070
     0
1000
MTEXTEND
1000
MTEXTBEGIN
1070
    73
1070
     1
1070
    44
1040
1.0
1070
    74
1070
     0
1000
MTEXTEND
1000
MTEXTBEGIN
1070
    73
1070
     1
1070
    44
1040
1.0
1070
    74
1070
     0
1000
MTEXTEND
1000
MTEXTBEGIN
1070
    73
1070
     1
1070
    44
1040
1.0
1070
    74
1070
     0
1000
MTEXTEND
1000
MTEXTBEGIN
1070
    73
1070
     1
1070
    44
1040
1.0
1070
    74
1070
     0
1000
MTEXTEND
1000
MTEXTBEGIN
1070
    73
1070
     1
1070
    44
1040
1.0
1070
    74
1070
     0
1000
MTEXTEND
1000
MTEXTBEGIN
1070
    73
1070
     1
1070
    44
1040
1.0
1070
    74
1070
     0
1000
MTEXTEND
1000
MTEXTBEGIN
1070
    73
1070
     1
1070
    44
1040
1.0
1070
    74
1070
     0
1000
MTEXTEND
1000
MTEXTBEGIN
1070
    73
1070
     1
1070
    44
1040
1.0
1070
    74
1070
     0
1000
MTEXTEND
1000
MTEXTBEGIN
1070
    73
1070
     1
1070
    44
1040
1.0
1070
    74
1070
     0
1000
MTEXTEND
1000
MTEXTBEGIN
1070
    73
1070
     1
1070
    44
1040
1.0
1070
    74
1070
     0
1000
MTEXTEND
1000
MTEXTBEGIN
1070
    73
1070
     1
1070
    44
1040
1.0
1070
    74
1070
     0
1000
MTEXTEND
1000
MTEXTBEGIN
1070
    73
1070
     1
1070
    44
1040
1.0
1070
    74
1070
     0
1000
MTEXTEND
1000
MTEXTBEGIN
1070
    73
1070
     1
1070
    44
1040
1.0
1070
    74
1070
     0
1000
MTEXTEND
1000
MTEXTBEGIN
1070
    73
1070
     1
1070
    44
1040
1.0
1070
    74
1070
     0
1000
MTEXTEND
1000
MTEXTBEGIN
1070
    73
1070
     1
1070
    44
1040
1.0
1070
    74
1070
     0
1000
MTEXTEND
1000
MTEXTBEGIN
1070
    73
1070
     1
1070
    44
1040
1.0
1070
    74
1070
     0
1000
MTEXTEND
1000
MTEXTBEGIN
1070
    73
1070
     1
1070
    44
1040
1.0
1070
    74
1070
     0
1000
MTEXTEND
1000
MTEXTBEGIN
1070
    73
1070
     1
1070
    44
1040
1.0
1070
    74
1070
     0
1000
MTEXTEND
  0
SOLID
  5
6D785
100
AcDbEntity
  8
AREA1
 62
     0
100
AcDbTrace
 10
-2.116958
 20
1.07883
 30
0.0
 11
-2.116958
 21
1.041785
 31
0.0
 12
-2.228093
 22
1.060308
 32
0.0
 13
-2.228093
 23
1.060308
 33
0.0
  0
SOLID
  5
6D786
100
AcDbEntity
  8
AREA1
 62
     0
100
AcDbTrace
 10
0.032272
 20
1.07883
 30
0.0
 11
0.032272
 21
1.041785
 31
0.0
 12
0.143407
 22
1.060308
 32
0.0
 13
0.143407
 23
1.060308
 33
0.0
  0
POINT
  5
6D787
100
AcDbEntity
  8
DEFPOINTS
 62
     0
100
AcDbPoint
 10
-2.228093
 20
0.54
 30
-0.733
  0
POINT
  5
6D788
100
AcDbEntity
  8
DEFPOINTS
 62
     0
100
AcDbPoint
 10
0.143407
 20
0.747
 30
0.0
  0
POINT
  5
6D789
100
AcDbEntity
  8
DEFPOINTS
 62
     0
100
AcDbPoint
 10
0.143407
 20
1.060308
 30
0.0
  0
ENDBLK
  5
6D753
100
AcDbEntity
  8
0
100
AcDbBlockEnd
  0
BLOCK
  5
6D773
100
AcDbEntity
  8
0
100
AcDbBlockBegin
  2
*D2
 70
     1
 10
0.0
 20
0.0
 30
0.0
  3
*D2
  1

  0
LINE
  5
6D776
100
AcDbEntity
  8
AREA2
 62
     0
100
AcDbLine
 10
-0.55516
 20
0.067
 30
0.0
 11
-2.526046
 21
0.067
 31
0.0
1001
ACAD
1000
RTLwPs
1070
   158
  0
LINE
  5
6D777
100
AcDbEntity
  8
AREA2
 62
     0
100
AcDbLine
 10
-1.924432
 20
-1.827
 30
0.0
 11
-2.526046
 21
-1.827
 31
0.0
1001
ACAD
1000
RTLwPs
1070
   158
  0
LINE
  5
6D778
100
AcDbEntity
  8
AREA2
 62
     0
100
AcDbLine
 10
-2.470479
 20
-0.044135
 30
0.0
 11
-2.470479
 21
-0.101328
 31
0.0
1001
ACAD
1000
RTLwPs
1070
   158
  0
LINE
  5
6D779
100
AcDbEntity
  8
AREA2
 62
     0
100
AcDbLine
 10
-2.470479
 20
-1.715865
 30
0.0
 11
-2.470479
 21
-1.632024
 31
0.0
1001
ACAD
1000
RTLwPs
1070
   158
  0
MTEXT
  5
6D77A
100
AcDbEntity
  8
AREA2
 62
     0
100
AcDbMText
 10
-2.470479
 20
-0.866676
 30
0.0
 40
0.111135
 41
0.0
 71
     5
 72
     1
  1
\A1;1 57/64 [48.11]
 11
0.0
 21
1.0
 31
0.0
1001
ACAD
1000
MTEXTBEGIN
1070
    73
1070
     1
1070
    44
1040
1.0
1070
    74
1070
     0
1000
MTEXTEND
1000
MTEXTBEGIN
1070
    73
1070
     1
1070
    44
1040
1.0
1070
    74
1070
     0
1000
MTEXTEND
1000
MTEXTBEGIN
1070
    73
1070
     1
1070
    44
1040
1.0
1070
    74
1070
     0
1000
MTEXTEND
1000
MTEXTBEGIN
1070
    73
1070
     1
1070
    44
1040
1.0
1070
    74
1070
     0
1000
MTEXTEND
1000
MTEXTBEGIN
1070
    73
1070
     1
1070
    44
1040
1.0
1070
    74
1070
     0
1000
MTEXTEND
1000
MTEXTBEGIN
1070
    73
1070
     1
1070
    44
1040
1.0
1070
    74
1070
     0
1000
MTEXTEND
1000
MTEXTBEGIN
1070
    73
1070
     1
1070
    44
1040
1.0
1070
    74
1070
     0
1000
MTEXTEND
1000
MTEXTBEGIN
1070
    73
1070
     1
1070
    44
1040
1.0
1070
    74
1070
     0
1000
MTEXTEND
1000
MTEXTBEGIN
1070
    73
1070
     1
1070
    44
1040
1.0
1070
    74
1070
     0
1000
MTEXTEND
1000
MTEXTBEGIN
1070
    73
1070
     1
1070
    44
1040
1.0
1070
    74
1070
     0
1000
MTEXTEND
1000
MTEXTBEGIN
1070
    73
1070
     1
1070
    44
1040
1.0
1070
    74
1070
     0
1000
MTEXTEND
1000
MTEXTBEGIN
1070
    73
1070
     1
1070
    44
1040
1.0
1070
    74
1070
     0
1000
MTEXTEND
1000
MTEXTBEGIN
1070
    73
1070
     1
1070
    44
1040
1.0
1070
    74
1070
     0
1000
MTEXTEND
1000
MTEXTBEGIN
1070
    73
1070
     1
1070
    44
1040
1.0
1070
    74
1070
     0
1000
MTEXTEND
1000
MTEXTBEGIN
1070
    73
1070
     1
1070
    44
1040
1.0
1070
    74
1070
     0
1000
MTEXTEND
1000
MTEXTBEGIN
1070
    73
1070
     1
1070
    44
1040
1.0
1070
    74
1070
     0
1000
MTEXTEND
1000
MTEXTBEGIN
1070
    73
1070
     1
1070
    44
1040
1.0
1070
    74
1070
     0
1000
MTEXTEND
1000
MTEXTBEGIN
1070
    73
1070
     1
1070
    44
1040
1.0
1070
    74
1070
     0
1000
MTEXTEND
1000
MTEXTBEGIN
1070
    73
1070
     1
1070
    44
1040
1.0
1070
    74
1070
     0
1000
MTEXTEND
1000
MTEXTBEGIN
1070
    73
1070
     1
1070
    44
1040
1.0
1070
    74
1070
     0
1000
MTEXTEND
1000
MTEXTBEGIN
1070
    73
1070
     1
1070
    44
1040
1.0
1070
    74
1070
     0
1000
MTEXTEND
1000
MTEXTBEGIN
1070
    73
1070
     1
1070
    44
1040
1.0
1070
    74
1070
     0
1000
MTEXTEND
1000
MTEXTBEGIN
1070
    73
1070
     1
1070
    44
1040
1.0
1070
    74
1070
     0
1000
MTEXTEND
1000
MTEXTBEGIN
1070
    73
1070
     1
1070
    44
1040
1.0
1070
    74
1070
     0
1000
MTEXTEND
  0
SOLID
  5
6D77B
100
AcDbEntity
  8
AREA2
 62
     0
100
AcDbTrace
 10
-2.489001
 20
-0.044135
 30
0.0
 11
-2.451956
 21
-0.044135
 31
0.0
 12
-2.470479
 22
0.067
 32
0.0
 13
-2.470479
 23
0.067
 33
0.0
  0
SOLID
  5
6D77C
100
AcDbEntity
  8
AREA2
 62
     0
100
AcDbTrace
 10
-2.489001
 20
-1.715865
 30
0.0
 11
-2.451956
 21
-1.715865
 31
0.0
 12
-2.470479
 22
-1.827
 32
0.0
 13
-2.470479
 23
-1.827
 33
0.0
  0
POINT
  5
6D77D
100
AcDbEntity
  8
DEFPOINTS
 62
     0
100
AcDbPoint
 10
-0.499593
 20
0.067
 30
0.341
  0
POINT
  5
6D77E
100
AcDbEntity
  8
DEFPOINTS
 62
     0
100
AcDbPoint
 10
-1.868865
 20
-1.827
 30
-0.649121
  0
POINT
  5
6D77F
100
AcDbEntity
  8
DEFPOINTS
 62
     0
100
AcDbPoint
 10
-2.470479
 20
-1.827
 30
0.0
  0
ENDBLK
  5
6D774
100
AcDbEntity
  8
0
100
AcDbBlockEnd
  0
ENDSEC
  0
SECTION
  2
ENTITIES
  0
POLYLINE
  5
6D5BE
100
AcDbEntity
  8
0
100
AcDbPolygonMesh
 66
     1
 10
0.0
 20
0.0
 30
0.0
 70
    16
 71
     6
 72
     3
  0
VERTEX
  5
6D5BF
100
AcDbEntity
  8
0
100
AcDbVertex
100
AcDbPolygonMeshVertex
 10
-1.885093
 20
0.7
 30
-0.733
 70
    64
  0
VERTEX
  5
6D5C0
100
AcDbEntity
  8
0
100
AcDbVertex
100
AcDbPolygonMeshVertex
 10
-1.885093
 20
0.7
 30
-1.3
 70
    64
  0
VERTEX
  5
6D5C1
100
AcDbEntity
  8
0
100
AcDbVertex
100
AcDbPolygonMeshVertex
 10
-1.885093
 20
0.7
 30
-1.3
 70
    64
  0
VERTEX
  5
6D5C2
100
AcDbEntity
  8
0
100
AcDbVertex
100
AcDbPolygonMeshVertex
 10
-0.425093
 20
0.7
 30
-0.733
 70
    64
  0
VERTEX
  5
6D5C3
100
AcDbEntity
  8
0
100
AcDbVertex
100
AcDbPolygonMeshVertex
 10
-0.425093
 20
0.7
 30
-1.3
 70
    64
  0
VERTEX
  5
6D5C4
100
AcDbEntity
  8
0
100
AcDbVertex
100
AcDbPolygonMeshVertex
 10
-0.425093
 20
0.7
 30
-1.3
 70
    64
  0
VERTEX
  5
6D5C5
100
AcDbEntity
  8
0
100
AcDbVertex
100
AcDbPolygonMeshVertex
 10
-0.425093
 20
-0.7
 30
-0.733
 70
    64
  0
VERTEX
  5
6D5C6
100
AcDbEntity
  8
0
100
AcDbVertex
100
AcDbPolygonMeshVertex
 10
-0.425093
 20
-0.7
 30
-1.3
 70
    64
  0
VERTEX
  5
6D5C7
100
AcDbEntity
  8
0
100
AcDbVertex
100
AcDbPolygonMeshVertex
 10
-0.425093
 20
0.7
 30
-1.3
 70
    64
  0
VERTEX
  5
6D5C8
100
AcDbEntity
  8
0
100
AcDbVertex
100
AcDbPolygonMeshVertex
 10
-1.885093
 20
-0.7
 30
-0.733
 70
    64
  0
VERTEX
  5
6D5C9
100
AcDbEntity
  8
0
100
AcDbVertex
100
AcDbPolygonMeshVertex
 10
-1.885093
 20
-0.7
 30
-1.3
 70
    64
  0
VERTEX
  5
6D5CA
100
AcDbEntity
  8
0
100
AcDbVertex
100
AcDbPolygonMeshVertex
 10
-1.885093
 20
0.7
 30
-1.3
 70
    64
  0
VERTEX
  5
6D5CB
100
AcDbEntity
  8
0
100
AcDbVertex
100
AcDbPolygonMeshVertex
 10
-1.885093
 20
-0.7
 30
-0.733
 70
    64
  0
VERTEX
  5
6D5CC
100
AcDbEntity
  8
0
100
AcDbVertex
100
AcDbPolygonMeshVertex
 10
-1.885093
 20
-0.7
 30
-0.733
 70
    64
  0
VERTEX
  5
6D5CD
100
AcDbEntity
  8
0
100
AcDbVertex
100
AcDbPolygonMeshVertex
 10
-1.885093
 20
0.7
 30
-0.733
 70
    64
  0
VERTEX
  5
6D5CE
100
AcDbEntity
  8
0
100
AcDbVertex
100
AcDbPolygonMeshVertex
 10
-0.425093
 20
-0.7
 30
-0.733
 70
    64
  0
VERTEX
  5
6D5CF
100
AcDbEntity
  8
0
100
AcDbVertex
100
AcDbPolygonMeshVertex
 10
-0.425093
 20
-0.7
 30
-0.733
 70
    64
  0
VERTEX
  5
6D5D0
100
AcDbEntity
  8
0
100
AcDbVertex
100
AcDbPolygonMeshVertex
 10
-0.425093
 20
0.7
 30
-0.733
 70
    64
  0
SEQEND
  5
6D5D1
100
AcDbEntity
  8
0
  0
POLYLINE
  5
6D5D2
100
AcDbEntity
  8
0
100
AcDbPolygonMesh
 66
     1
 10
0.0
 20
0.0
 30
0.0
 70
    16
 71
     6
 72
     3
  0
VERTEX
  5
6D5D3
100
AcDbEntity
  8
0
100
AcDbVertex
100
AcDbPolygonMeshVertex
 10
-1.473093
 20
0.7
 30
-0.419
 70
    64
  0
VERTEX
  5
6D5D4
100
AcDbEntity
  8
0
100
AcDbVertex
100
AcDbPolygonMeshVertex
 10
-1.473093
 20
0.7
 30
-0.733
 70
    64
  0
VERTEX
  5
6D5D5
100
AcDbEntity
  8
0
100
AcDbVertex
100
AcDbPolygonMeshVertex
 10
-1.473093
 20
0.7
 30
-0.733
 70
    64
  0
VERTEX
  5
6D5D6
100
AcDbEntity
  8
0
100
AcDbVertex
100
AcDbPolygonMeshVertex
 10
-0.785093
 20
0.7
 30
-0.419
 70
    64
  0
VERTEX
  5
6D5D7
100
AcDbEntity
  8
0
100
AcDbVertex
100
AcDbPolygonMeshVertex
 10
-0.785093
 20
0.7
 30
-0.733
 70
    64
  0
VERTEX
  5
6D5D8
100
AcDbEntity
  8
0
100
AcDbVertex
100
AcDbPolygonMeshVertex
 10
-0.785093
 20
0.7
 30
-0.733
 70
    64
  0
VERTEX
  5
6D5D9
100
AcDbEntity
  8
0
100
AcDbVertex
100
AcDbPolygonMeshVertex
 10
-0.785093
 20
0.408
 30
-0.419
 70
    64
  0
VERTEX
  5
6D5DA
100
AcDbEntity
  8
0
100
AcDbVertex
100
AcDbPolygonMeshVertex
 10
-0.785093
 20
0.408
 30
-0.733
 70
    64
  0
VERTEX
  5
6D5DB
100
AcDbEntity
  8
0
100
AcDbVertex
100
AcDbPolygonMeshVertex
 10
-0.785093
 20
0.7
 30
-0.733
 70
    64
  0
VERTEX
  5
6D5DC
100
AcDbEntity
  8
0
100
AcDbVertex
100
AcDbPolygonMeshVertex
 10
-1.473093
 20
0.408
 30
-0.419
 70
    64
  0
VERTEX
  5
6D5DD
100
AcDbEntity
  8
0
100
AcDbVertex
100
AcDbPolygonMeshVertex
 10
-1.473093
 20
0.408
 30
-0.733
 70
    64
  0
VERTEX
  5
6D5DE
100
AcDbEntity
  8
0
100
AcDbVertex
100
AcDbPolygonMeshVertex
 10
-1.473093
 20
0.7
 30
-0.733
 70
    64
  0
VERTEX
  5
6D5DF
100
AcDbEntity
  8
0
100
AcDbVertex
100
AcDbPolygonMeshVertex
 10
-1.473093
 20
0.408
 30
-0.419
 70
    64
  0
VERTEX
  5
6D5E0
100
AcDbEntity
  8
0
100
AcDbVertex
100
AcDbPolygonMeshVertex
 10
-1.473093
 20
0.408
 30
-0.419
 70
    64
  0
VERTEX
  5
6D5E1
100
AcDbEntity
  8
0
100
AcDbVertex
100
AcDbPolygonMeshVertex
 10
-1.473093
 20
0.7
 30
-0.419
 70
    64
  0
VERTEX
  5
6D5E2
100
AcDbEntity
  8
0
100
AcDbVertex
100
AcDbPolygonMeshVertex
 10
-0.785093
 20
0.408
 30
-0.419
 70
    64
  0
VERTEX
  5
6D5E3
100
AcDbEntity
  8
0
100
AcDbVertex
100
AcDbPolygonMeshVertex
 10
-0.785093
 20
0.408
 30
-0.419
 70
    64
  0
VERTEX
  5
6D5E4
100
AcDbEntity
  8
0
100
AcDbVertex
100
AcDbPolygonMeshVertex
 10
-0.785093
 20
0.7
 30
-0.419
 70
    64
  0
SEQEND
  5
6D5E5
100
AcDbEntity
  8
0
  0
POLYLINE
  5
6D5E6
100
AcDbEntity
  8
0
100
AcDbPolygonMesh
 66
     1
 10
0.0
 20
0.0
 30
0.0
 70
    16
 71
     6
 72
     3
  0
VERTEX
  5
6D5E7
100
AcDbEntity
  8
0
100
AcDbVertex
100
AcDbPolygonMeshVertex
 10
-1.473093
 20
-0.408
 30
-0.419
 70
    64
  0
VERTEX
  5
6D5E8
100
AcDbEntity
  8
0
100
AcDbVertex
100
AcDbPolygonMeshVertex
 10
-1.473093
 20
-0.408
 30
-0.733
 70
    64
  0
VERTEX
  5
6D5E9
100
AcDbEntity
  8
0
100
AcDbVertex
100
AcDbPolygonMeshVertex
 10
-1.473093
 20
-0.408
 30
-0.733
 70
    64
  0
VERTEX
  5
6D5EA
100
AcDbEntity
  8
0
100
AcDbVertex
100
AcDbPolygonMeshVertex
 10
-0.785093
 20
-0.408
 30
-0.419
 70
    64
  0
VERTEX
  5
6D5EB
100
AcDbEntity
  8
0
100
AcDbVertex
100
AcDbPolygonMeshVertex
 10
-0.785093
 20
-0.408
 30
-0.733
 70
    64
  0
VERTEX
  5
6D5EC
100
AcDbEntity
  8
0
100
AcDbVertex
100
AcDbPolygonMeshVertex
 10
-0.785093
 20
-0.408
 30
-0.733
 70
    64
  0
VERTEX
  5
6D5ED
100
AcDbEntity
  8
0
100
AcDbVertex
100
AcDbPolygonMeshVertex
 10
-0.785093
 20
-0.7
 30
-0.419
 70
    64
  0
VERTEX
  5
6D5EE
100
AcDbEntity
  8
0
100
AcDbVertex
100
AcDbPolygonMeshVertex
 10
-0.785093
 20
-0.7
 30
-0.733
 70
    64
  0
VERTEX
  5
6D5EF
100
AcDbEntity
  8
0
100
AcDbVertex
100
AcDbPolygonMeshVertex
 10
-0.785093
 20
-0.408
 30
-0.733
 70
    64
  0
VERTEX
  5
6D5F0
100
AcDbEntity
  8
0
100
AcDbVertex
100
AcDbPolygonMeshVertex
 10
-1.473093
 20
-0.7
 30
-0.419
 70
    64
  0
VERTEX
  5
6D5F1
100
AcDbEntity
  8
0
100
AcDbVertex
100
AcDbPolygonMeshVertex
 10
-1.473093
 20
-0.7
 30
-0.733
 70
    64
  0
VERTEX
  5
6D5F2
100
AcDbEntity
  8
0
100
AcDbVertex
100
AcDbPolygonMeshVertex
 10
-1.473093
 20
-0.408
 30
-0.733
 70
    64
  0
VERTEX
  5
6D5F3
100
AcDbEntity
  8
0
100
AcDbVertex
100
AcDbPolygonMeshVertex
 10
-1.473093
 20
-0.7
 30
-0.419
 70
    64
  0
VERTEX
  5
6D5F4
100
AcDbEntity
  8
0
100
AcDbVertex
100
AcDbPolygonMeshVertex
 10
-1.473093
 20
-0.7
 30
-0.419
 70
    64
  0
VERTEX
  5
6D5F5
100
AcDbEntity
  8
0
100
AcDbVertex
100
AcDbPolygonMeshVertex
 10
-1.473093
 20
-0.408
 30
-0.419
 70
    64
  0
VERTEX
  5
6D5F6
100
AcDbEntity
  8
0
100
AcDbVertex
100
AcDbPolygonMeshVertex
 10
-0.785093
 20
-0.7
 30
-0.419
 70
    64
  0
VERTEX
  5
6D5F7
100
AcDbEntity
  8
0
100
AcDbVertex
100
AcDbPolygonMeshVertex
 10
-0.785093
 20
-0.7
 30
-0.419
 70
    64
  0
VERTEX
  5
6D5F8
100
AcDbEntity
  8
0
100
AcDbVertex
100
AcDbPolygonMeshVertex
 10
-0.785093
 20
-0.408
 30
-0.419
 70
    64
  0
SEQEND
  5
6D5F9
100
AcDbEntity
  8
0
  0
LWPOLYLINE
  5
6D5FA
100
AcDbEntity
  8
0
100
AcDbPolyline
 90
        8
 70
     1
 43
0.0
 38
-0.538
 39
0.119
 10
-1.624093
 20
0.191082
 10
-1.624093
 20
-0.191082
 10
-1.341794
 20
-0.408
 10
-1.473093
 20
-0.408
 10
-1.704093
 20
-0.2305
 10
-1.704093
 20
0.2305
 10
-1.473093
 20
0.408
 10
-1.341794
 20
0.408
  0
LWPOLYLINE
  5
6D5FB
100
AcDbEntity
  8
0
100
AcDbPolyline
 90
        2
 70
     0
 43
0.0
 38
-0.733
 39
0.195
 10
-1.473093
 20
0.30711
 10
-1.624093
 20
0.191082
  0
LWPOLYLINE
  5
6D5FC
100
AcDbEntity
  8
0
100
AcDbPolyline
 90
        3
 70
     0
 43
0.0
 38
-0.733
 39
0.195
 10
-1.624093
 20
0.191082
 10
-1.624093
 20
-0.191082
 10
-1.473093
 20
-0.30711
  0
LWPOLYLINE
  5
6D5FD
100
AcDbEntity
  8
0
100
AcDbPolyline
 90
        4
 70
     0
 43
0.0
 38
-0.733
 39
0.195
 10
-1.473093
 20
-0.408
 10
-1.704093
 20
-0.2305
 10
-1.704093
 20
0.2305
 10
-1.473093
 20
0.408
  0
3DFACE
  5
6D5FE
100
AcDbEntity
  8
0
100
AcDbFace
 10
-1.341794
 20
-0.408
 30
-0.419
 11
-1.624093
 21
-0.191082
 31
-0.419
 12
-1.704093
 22
-0.2305
 32
-0.419
 13
-1.473093
 23
-0.408
 33
-0.419
 70
    15
  0
3DFACE
  5
6D5FF
100
AcDbEntity
  8
0
100
AcDbFace
 10
-1.704093
 20
0.2305
 30
-0.419
 11
-1.624093
 21
0.191082
 31
-0.419
 12
-1.341794
 22
0.408
 32
-0.419
 13
-1.473093
 23
0.408
 33
-0.419
 70
    15
  0
3DFACE
  5
6D600
100
AcDbEntity
  8
0
100
AcDbFace
 10
-1.704093
 20
-0.2305
 30
-0.419
 11
-1.704093
 21
0.2305
 31
-0.419
 12
-1.624093
 22
0.191082
 32
-0.419
 13
-1.624093
 23
-0.191082
 33
-0.419
 70
    15
  0
3DFACE
  5
6D601
100
AcDbEntity
  8
0
100
AcDbFace
 10
-1.473093
 20
-0.30711
 30
-0.538
 11
-1.624093
 21
-0.191082
 31
-0.538
 12
-1.624093
 22
0.191082
 32
-0.538
 13
-1.473093
 23
0.30711
 33
-0.538
 70
    15
  0
CIRCLE
  5
6D602
100
AcDbEntity
  8
0
100
AcDbCircle
 39
0.245
 10
-1.209593
 20
0.0
 30
-0.374
 40
0.4245
  0
POLYLINE
  5
6D603
100
AcDbEntity
  8
0
100
AcDbPolygonMesh
 66
     1
 10
0.0
 20
0.0
 30
0.0
 70
    48
 71
     2
 72
    32
  0
VERTEX
  5
6D604
100
AcDbEntity
  8
0
100
AcDbVertex
100
AcDbPolygonMeshVertex
 10
-1.634093
 20
0.0
 30
-0.129
 70
    64
  0
VERTEX
  5
6D605
100
AcDbEntity
  8
0
100
AcDbVertex
100
AcDbPolygonMeshVertex
 10
-1.625936
 20
-0.082816
 30
-0.129
 70
    64
  0
VERTEX
  5
6D606
100
AcDbEntity
  8
0
100
AcDbVertex
100
AcDbPolygonMeshVertex
 10
-1.60178
 20
-0.162449
 30
-0.129
 70
    64
  0
VERTEX
  5
6D607
100
AcDbEntity
  8
0
100
AcDbVertex
100
AcDbPolygonMeshVertex
 10
-1.562552
 20
-0.23584
 30
-0.129
 70
    64
  0
VERTEX
  5
6D608
100
AcDbEntity
  8
0
100
AcDbVertex
100
AcDbPolygonMeshVertex
 10
-1.50976
 20
-0.300167
 30
-0.129
 70
    64
  0
VERTEX
  5
6D609
100
AcDbEntity
  8
0
100
AcDbVertex
100
AcDbPolygonMeshVertex
 10
-1.445433
 20
-0.352959
 30
-0.129
 70
    64
  0
VERTEX
  5
6D60A
100
AcDbEntity
  8
0
100
AcDbVertex
100
AcDbPolygonMeshVertex
 10
-1.372042
 20
-0.392187
 30
-0.129
 70
    64
  0
VERTEX
  5
6D60B
100
AcDbEntity
  8
0
100
AcDbVertex
100
AcDbPolygonMeshVertex
 10
-1.292409
 20
-0.416343
 30
-0.129
 70
    64
  0
VERTEX
  5
6D60C
100
AcDbEntity
  8
0
100
AcDbVertex
100
AcDbPolygonMeshVertex
 10
-1.209593
 20
-0.4245
 30
-0.129
 70
    64
  0
VERTEX
  5
6D60D
100
AcDbEntity
  8
0
100
AcDbVertex
100
AcDbPolygonMeshVertex
 10
-1.126777
 20
-0.416343
 30
-0.129
 70
    64
  0
VERTEX
  5
6D60E
100
AcDbEntity
  8
0
100
AcDbVertex
100
AcDbPolygonMeshVertex
 10
-1.047144
 20
-0.392187
 30
-0.129
 70
    64
  0
VERTEX
  5
6D60F
100
AcDbEntity
  8
0
100
AcDbVertex
100
AcDbPolygonMeshVertex
 10
-0.973753
 20
-0.352959
 30
-0.129
 70
    64
  0
VERTEX
  5
6D610
100
AcDbEntity
  8
0
100
AcDbVertex
100
AcDbPolygonMeshVertex
 10
-0.909426
 20
-0.300167
 30
-0.129
 70
    64
  0
VERTEX
  5
6D611
100
AcDbEntity
  8
0
100
AcDbVertex
100
AcDbPolygonMeshVertex
 10
-0.856634
 20
-0.23584
 30
-0.129
 70
    64
  0
VERTEX
  5
6D612
100
AcDbEntity
  8
0
100
AcDbVertex
100
AcDbPolygonMeshVertex
 10
-0.817406
 20
-0.162449
 30
-0.129
 70
    64
  0
VERTEX
  5
6D613
100
AcDbEntity
  8
0
100
AcDbVertex
100
AcDbPolygonMeshVertex
 10
-0.79325
 20
-0.082816
 30
-0.129
 70
    64
  0
VERTEX
  5
6D614
100
AcDbEntity
  8
0
100
AcDbVertex
100
AcDbPolygonMeshVertex
 10
-0.785093
 20
0.0
 30
-0.129
 70
    64
  0
VERTEX
  5
6D615
100
AcDbEntity
  8
0
100
AcDbVertex
100
AcDbPolygonMeshVertex
 10
-0.79325
 20
0.082816
 30
-0.129
 70
    64
  0
VERTEX
  5
6D616
100
AcDbEntity
  8
0
100
AcDbVertex
100
AcDbPolygonMeshVertex
 10
-0.817406
 20
0.162449
 30
-0.129
 70
    64
  0
VERTEX
  5
6D617
100
AcDbEntity
  8
0
100
AcDbVertex
100
AcDbPolygonMeshVertex
 10
-0.856634
 20
0.23584
 30
-0.129
 70
    64
  0
VERTEX
  5
6D618
100
AcDbEntity
  8
0
100
AcDbVertex
100
AcDbPolygonMeshVertex
 10
-0.909426
 20
0.300167
 30
-0.129
 70
    64
  0
VERTEX
  5
6D619
100
AcDbEntity
  8
0
100
AcDbVertex
100
AcDbPolygonMeshVertex
 10
-0.973753
 20
0.352959
 30
-0.129
 70
    64
  0
VERTEX
  5
6D61A
100
AcDbEntity
  8
0
100
AcDbVertex
100
AcDbPolygonMeshVertex
 10
-1.047144
 20
0.392187
 30
-0.129
 70
    64
  0
VERTEX
  5
6D61B
100
AcDbEntity
  8
0
100
AcDbVertex
100
AcDbPolygonMeshVertex
 10
-1.126777
 20
0.416343
 30
-0.129
 70
    64
  0
VERTEX
  5
6D61C
100
AcDbEntity
  8
0
100
AcDbVertex
100
AcDbPolygonMeshVertex
 10
-1.209593
 20
0.4245
 30
-0.129
 70
    64
  0
VERTEX
  5
6D61D
100
AcDbEntity
  8
0
100
AcDbVertex
100
AcDbPolygonMeshVertex
 10
-1.292409
 20
0.416343
 30
-0.129
 70
    64
  0
VERTEX
  5
6D61E
100
AcDbEntity
  8
0
100
AcDbVertex
100
AcDbPolygonMeshVertex
 10
-1.372042
 20
0.392187
 30
-0.129
 70
    64
  0
VERTEX
  5
6D61F
100
AcDbEntity
  8
0
100
AcDbVertex
100
AcDbPolygonMeshVertex
 10
-1.445433
 20
0.352959
 30
-0.129
 70
    64
  0
VERTEX
  5
6D620
100
AcDbEntity
  8
0
100
AcDbVertex
100
AcDbPolygonMeshVertex
 10
-1.50976
 20
0.300167
 30
-0.129
 70
    64
  0
VERTEX
  5
6D621
100
AcDbEntity
  8
0
100
AcDbVertex
100
AcDbPolygonMeshVertex
 10
-1.562552
 20
0.23584
 30
-0.129
 70
    64
  0
VERTEX
  5
6D622
100
AcDbEntity
  8
0
100
AcDbVertex
100
AcDbPolygonMeshVertex
 10
-1.60178
 20
0.162449
 30
-0.129
 70
    64
  0
VERTEX
  5
6D623
100
AcDbEntity
  8
0
100
AcDbVertex
100
AcDbPolygonMeshVertex
 10
-1.625936
 20
0.082816
 30
-0.129
 70
    64
  0
VERTEX
  5
6D624
100
AcDbEntity
  8
0
100
AcDbVertex
100
AcDbPolygonMeshVertex
 10
-1.553593
 20
0.0
 30
-0.039
 70
    64
  0
VERTEX
  5
6D625
100
AcDbEntity
  8
0
100
AcDbVertex
100
AcDbPolygonMeshVertex
 10
-1.546983
 20
-0.067111
 30
-0.039
 70
    64
  0
VERTEX
  5
6D626
100
AcDbEntity
  8
0
100
AcDbVertex
100
AcDbPolygonMeshVertex
 10
-1.527408
 20
-0.131643
 30
-0.039
 70
    64
  0
VERTEX
  5
6D627
100
AcDbEntity
  8
0
100
AcDbVertex
100
AcDbPolygonMeshVertex
 10
-1.495619
 20
-0.191116
 30
-0.039
 70
    64
  0
VERTEX
  5
6D628
100
AcDbEntity
  8
0
100
AcDbVertex
100
AcDbPolygonMeshVertex
 10
-1.452838
 20
-0.243245
 30
-0.039
 70
    64
  0
VERTEX
  5
6D629
100
AcDbEntity
  8
0
100
AcDbVertex
100
AcDbPolygonMeshVertex
 10
-1.400709
 20
-0.286026
 30
-0.039
 70
    64
  0
VERTEX
  5
6D62A
100
AcDbEntity
  8
0
100
AcDbVertex
100
AcDbPolygonMeshVertex
 10
-1.341236
 20
-0.317815
 30
-0.039
 70
    64
  0
VERTEX
  5
6D62B
100
AcDbEntity
  8
0
100
AcDbVertex
100
AcDbPolygonMeshVertex
 10
-1.276704
 20
-0.33739
 30
-0.039
 70
    64
  0
VERTEX
  5
6D62C
100
AcDbEntity
  8
0
100
AcDbVertex
100
AcDbPolygonMeshVertex
 10
-1.209593
 20
-0.344
 30
-0.039
 70
    64
  0
VERTEX
  5
6D62D
100
AcDbEntity
  8
0
100
AcDbVertex
100
AcDbPolygonMeshVertex
 10
-1.142482
 20
-0.33739
 30
-0.039
 70
    64
  0
VERTEX
  5
6D62E
100
AcDbEntity
  8
0
100
AcDbVertex
100
AcDbPolygonMeshVertex
 10
-1.07795
 20
-0.317815
 30
-0.039
 70
    64
  0
VERTEX
  5
6D62F
100
AcDbEntity
  8
0
100
AcDbVertex
100
AcDbPolygonMeshVertex
 10
-1.018477
 20
-0.286026
 30
-0.039
 70
    64
  0
VERTEX
  5
6D630
100
AcDbEntity
  8
0
100
AcDbVertex
100
AcDbPolygonMeshVertex
 10
-0.966348
 20
-0.243245
 30
-0.039
 70
    64
  0
VERTEX
  5
6D631
100
AcDbEntity
  8
0
100
AcDbVertex
100
AcDbPolygonMeshVertex
 10
-0.923567
 20
-0.191116
 30
-0.039
 70
    64
  0
VERTEX
  5
6D632
100
AcDbEntity
  8
0
100
AcDbVertex
100
AcDbPolygonMeshVertex
 10
-0.891778
 20
-0.131643
 30
-0.039
 70
    64
  0
VERTEX
  5
6D633
100
AcDbEntity
  8
0
100
AcDbVertex
100
AcDbPolygonMeshVertex
 10
-0.872203
 20
-0.067111
 30
-0.039
 70
    64
  0
VERTEX
  5
6D634
100
AcDbEntity
  8
0
100
AcDbVertex
100
AcDbPolygonMeshVertex
 10
-0.865593
 20
0.0
 30
-0.039
 70
    64
  0
VERTEX
  5
6D635
100
AcDbEntity
  8
0
100
AcDbVertex
100
AcDbPolygonMeshVertex
 10
-0.872203
 20
0.067111
 30
-0.039
 70
    64
  0
VERTEX
  5
6D636
100
AcDbEntity
  8
0
100
AcDbVertex
100
AcDbPolygonMeshVertex
 10
-0.891778
 20
0.131643
 30
-0.039
 70
    64
  0
VERTEX
  5
6D637
100
AcDbEntity
  8
0
100
AcDbVertex
100
AcDbPolygonMeshVertex
 10
-0.923567
 20
0.191116
 30
-0.039
 70
    64
  0
VERTEX
  5
6D638
100
AcDbEntity
  8
0
100
AcDbVertex
100
AcDbPolygonMeshVertex
 10
-0.966348
 20
0.243245
 30
-0.039
 70
    64
  0
VERTEX
  5
6D639
100
AcDbEntity
  8
0
100
AcDbVertex
100
AcDbPolygonMeshVertex
 10
-1.018477
 20
0.286026
 30
-0.039
 70
    64
  0
VERTEX
  5
6D63A
100
AcDbEntity
  8
0
100
AcDbVertex
100
AcDbPolygonMeshVertex
 10
-1.07795
 20
0.317815
 30
-0.039
 70
    64
  0
VERTEX
  5
6D63B
100
AcDbEntity
  8
0
100
AcDbVertex
100
AcDbPolygonMeshVertex
 10
-1.142482
 20
0.33739
 30
-0.039
 70
    64
  0
VERTEX
  5
6D63C
100
AcDbEntity
  8
0
100
AcDbVertex
100
AcDbPolygonMeshVertex
 10
-1.209593
 20
0.344
 30
-0.039
 70
    64
  0
VERTEX
  5
6D63D
100
AcDbEntity
  8
0
100
AcDbVertex
100
AcDbPolygonMeshVertex
 10
-1.276704
 20
0.33739
 30
-0.039
 70
    64
  0
VERTEX
  5
6D63E
100
AcDbEntity
  8
0
100
AcDbVertex
100
AcDbPolygonMeshVertex
 10
-1.341236
 20
0.317815
 30
-0.039
 70
    64
  0
VERTEX
  5
6D63F
100
AcDbEntity
  8
0
100
AcDbVertex
100
AcDbPolygonMeshVertex
 10
-1.400709
 20
0.286026
 30
-0.039
 70
    64
  0
VERTEX
  5
6D640
100
AcDbEntity
  8
0
100
AcDbVertex
100
AcDbPolygonMeshVertex
 10
-1.452838
 20
0.243245
 30
-0.039
 70
    64
  0
VERTEX
  5
6D641
100
AcDbEntity
  8
0
100
AcDbVertex
100
AcDbPolygonMeshVertex
 10
-1.495619
 20
0.191116
 30
-0.039
 70
    64
  0
VERTEX
  5
6D642
100
AcDbEntity
  8
0
100
AcDbVertex
100
AcDbPolygonMeshVertex
 10
-1.527408
 20
0.131643
 30
-0.039
 70
    64
  0
VERTEX
  5
6D643
100
AcDbEntity
  8
0
100
AcDbVertex
100
AcDbPolygonMeshVertex
 10
-1.546983
 20
0.067111
 30
-0.039
 70
    64
  0
SEQEND
  5
6D644
100
AcDbEntity
  8
0
  0
CIRCLE
  5
6D645
100
AcDbEntity
  8
0
100
AcDbCircle
 10
-1.209593
 20
0.0
 30
-0.039
 40
0.344
  0
CIRCLE
  5
6D646
100
AcDbEntity
  8
0
100
AcDbCircle
 39
0.164
 10
-1.209593
 20
0.0
 30
-0.538
 40
0.289
  0
CIRCLE
  5
6D647
100
AcDbEntity
  8
0
100
AcDbCircle
 10
-1.209593
 20
0.0
 30
-0.039
 40
0.186
  0
CIRCLE
  5
6D648
100
AcDbEntity
  8
0
100
AcDbCircle
 10
-0.605093
 20
0.43775
 30
-0.733
 40
0.04725
  0
CIRCLE
  5
6D649
100
AcDbEntity
  8
0
100
AcDbCircle
 10
-0.605093
 20
-0.43775
 30
-0.733
 40
0.04725
  0
POLYLINE
  5
6D64A
100
AcDbEntity
  8
0
100
AcDbPolygonMesh
 66
     1
 10
0.0
 20
0.0
 30
0.0
 70
    16
 71
     6
 72
     3
  0
VERTEX
  5
6D64B
100
AcDbEntity
  8
0
100
AcDbVertex
100
AcDbPolygonMeshVertex
 10
-1.885093
 20
-0.2305
 30
-0.591
 70
    64
  0
VERTEX
  5
6D64C
100
AcDbEntity
  8
0
100
AcDbVertex
100
AcDbPolygonMeshVertex
 10
-1.885093
 20
-0.2305
 30
-0.733
 70
    64
  0
VERTEX
  5
6D64D
100
AcDbEntity
  8
0
100
AcDbVertex
100
AcDbPolygonMeshVertex
 10
-1.885093
 20
-0.2305
 30
-0.733
 70
    64
  0
VERTEX
  5
6D64E
100
AcDbEntity
  8
0
100
AcDbVertex
100
AcDbPolygonMeshVertex
 10
-1.885093
 20
0.2305
 30
-0.591
 70
    64
  0
VERTEX
  5
6D64F
100
AcDbEntity
  8
0
100
AcDbVertex
100
AcDbPolygonMeshVertex
 10
-1.885093
 20
0.2305
 30
-0.733
 70
    64
  0
VERTEX
  5
6D650
100
AcDbEntity
  8
0
100
AcDbVertex
100
AcDbPolygonMeshVertex
 10
-1.885093
 20
0.2305
 30
-0.733
 70
    64
  0
VERTEX
  5
6D651
100
AcDbEntity
  8
0
100
AcDbVertex
100
AcDbPolygonMeshVertex
 10
-1.704093
 20
0.2305
 30
-0.591
 70
    64
  0
VERTEX
  5
6D652
100
AcDbEntity
  8
0
100
AcDbVertex
100
AcDbPolygonMeshVertex
 10
-1.704093
 20
0.2305
 30
-0.733
 70
    64
  0
VERTEX
  5
6D653
100
AcDbEntity
  8
0
100
AcDbVertex
100
AcDbPolygonMeshVertex
 10
-1.885093
 20
0.2305
 30
-0.733
 70
    64
  0
VERTEX
  5
6D654
100
AcDbEntity
  8
0
100
AcDbVertex
100
AcDbPolygonMeshVertex
 10
-1.704093
 20
-0.2305
 30
-0.591
 70
    64
  0
VERTEX
  5
6D655
100
AcDbEntity
  8
0
100
AcDbVertex
100
AcDbPolygonMeshVertex
 10
-1.704093
 20
-0.2305
 30
-0.733
 70
    64
  0
VERTEX
  5
6D656
100
AcDbEntity
  8
0
100
AcDbVertex
100
AcDbPolygonMeshVertex
 10
-1.885093
 20
-0.2305
 30
-0.733
 70
    64
  0
VERTEX
  5
6D657
100
AcDbEntity
  8
0
100
AcDbVertex
100
AcDbPolygonMeshVertex
 10
-1.704093
 20
-0.2305
 30
-0.591
 70
    64
  0
VERTEX
  5
6D658
100
AcDbEntity
  8
0
100
AcDbVertex
100
AcDbPolygonMeshVertex
 10
-1.704093
 20
-0.2305
 30
-0.591
 70
    64
  0
VERTEX
  5
6D659
100
AcDbEntity
  8
0
100
AcDbVertex
100
AcDbPolygonMeshVertex
 10
-1.885093
 20
-0.2305
 30
-0.591
 70
    64
  0
VERTEX
  5
6D65A
100
AcDbEntity
  8
0
100
AcDbVertex
100
AcDbPolygonMeshVertex
 10
-1.704093
 20
0.2305
 30
-0.591
 70
    64
  0
VERTEX
  5
6D65B
100
AcDbEntity
  8
0
100
AcDbVertex
100
AcDbPolygonMeshVertex
 10
-1.704093
 20
0.2305
 30
-0.591
 70
    64
  0
VERTEX
  5
6D65C
100
AcDbEntity
  8
0
100
AcDbVertex
100
AcDbPolygonMeshVertex
 10
-1.885093
 20
0.2305
 30
-0.591
 70
    64
  0
SEQEND
  5
6D65D
100
AcDbEntity
  8
0
  0
CIRCLE
  5
6D65E
100
AcDbEntity
  8
0
100
AcDbCircle
 39
0.116
 10
-2.056593
 20
0.3545
 30
-1.009
 40
0.12
  0
LINE
  5
6D65F
100
AcDbEntity
  8
0
100
AcDbLine
 10
-2.036593
 20
0.236178
 30
-1.009
 11
-2.036593
 21
0.472822
 31
-1.009
  0
LINE
  5
6D660
100
AcDbEntity
  8
0
100
AcDbLine
 10
-2.076593
 20
0.236178
 30
-1.009
 11
-2.076593
 21
0.472822
 31
-1.009
  0
POLYLINE
  5
6D661
100
AcDbEntity
  8
0
100
AcDbPolygonMesh
 66
     1
 10
0.0
 20
0.0
 30
0.0
 70
    16
 71
     6
 72
     3
  0
VERTEX
  5
6D662
100
AcDbEntity
  8
0
100
AcDbVertex
100
AcDbPolygonMeshVertex
 10
-2.228093
 20
0.169
 30
-0.733
 70
    64
  0
VERTEX
  5
6D663
100
AcDbEntity
  8
0
100
AcDbVertex
100
AcDbPolygonMeshVertex
 10
-2.228093
 20
0.169
 30
-0.893
 70
    64
  0
VERTEX
  5
6D664
100
AcDbEntity
  8
0
100
AcDbVertex
100
AcDbPolygonMeshVertex
 10
-2.228093
 20
0.169
 30
-0.893
 70
    64
  0
VERTEX
  5
6D665
100
AcDbEntity
  8
0
100
AcDbVertex
100
AcDbPolygonMeshVertex
 10
-2.228093
 20
0.54
 30
-0.733
 70
    64
  0
VERTEX
  5
6D666
100
AcDbEntity
  8
0
100
AcDbVertex
100
AcDbPolygonMeshVertex
 10
-2.228093
 20
0.54
 30
-0.893
 70
    64
  0
VERTEX
  5
6D667
100
AcDbEntity
  8
0
100
AcDbVertex
100
AcDbPolygonMeshVertex
 10
-2.228093
 20
0.54
 30
-0.893
 70
    64
  0
VERTEX
  5
6D668
100
AcDbEntity
  8
0
100
AcDbVertex
100
AcDbPolygonMeshVertex
 10
-1.885093
 20
0.54
 30
-0.733
 70
    64
  0
VERTEX
  5
6D669
100
AcDbEntity
  8
0
100
AcDbVertex
100
AcDbPolygonMeshVertex
 10
-1.885093
 20
0.54
 30
-0.893
 70
    64
  0
VERTEX
  5
6D66A
100
AcDbEntity
  8
0
100
AcDbVertex
100
AcDbPolygonMeshVertex
 10
-2.228093
 20
0.54
 30
-0.893
 70
    64
  0
VERTEX
  5
6D66B
100
AcDbEntity
  8
0
100
AcDbVertex
100
AcDbPolygonMeshVertex
 10
-1.885093
 20
0.169
 30
-0.733
 70
    64
  0
VERTEX
  5
6D66C
100
AcDbEntity
  8
0
100
AcDbVertex
100
AcDbPolygonMeshVertex
 10
-1.885093
 20
0.169
 30
-0.893
 70
    64
  0
VERTEX
  5
6D66D
100
AcDbEntity
  8
0
100
AcDbVertex
100
AcDbPolygonMeshVertex
 10
-2.228093
 20
0.169
 30
-0.893
 70
    64
  0
VERTEX
  5
6D66E
100
AcDbEntity
  8
0
100
AcDbVertex
100
AcDbPolygonMeshVertex
 10
-1.885093
 20
0.169
 30
-0.733
 70
    64
  0
VERTEX
  5
6D66F
100
AcDbEntity
  8
0
100
AcDbVertex
100
AcDbPolygonMeshVertex
 10
-1.885093
 20
0.169
 30
-0.733
 70
    64
  0
VERTEX
  5
6D670
100
AcDbEntity
  8
0
100
AcDbVertex
100
AcDbPolygonMeshVertex
 10
-2.228093
 20
0.169
 30
-0.733
 70
    64
  0
VERTEX
  5
6D671
100
AcDbEntity
  8
0
100
AcDbVertex
100
AcDbPolygonMeshVertex
 10
-1.885093
 20
0.54
 30
-0.733
 70
    64
  0
VERTEX
  5
6D672
100
AcDbEntity
  8
0
100
AcDbVertex
100
AcDbPolygonMeshVertex
 10
-1.885093
 20
0.54
 30
-0.733
 70
    64
  0
VERTEX
  5
6D673
100
AcDbEntity
  8
0
100
AcDbVertex
100
AcDbPolygonMeshVertex
 10
-2.228093
 20
0.54
 30
-0.733
 70
    64
  0
SEQEND
  5
6D674
100
AcDbEntity
  8
0
  0
POLYLINE
  5
6D675
100
AcDbEntity
  8
0
100
AcDbPolygonMesh
 66
     1
 10
0.0
 20
0.0
 30
0.0
 70
    16
 71
     6
 72
     3
  0
VERTEX
  5
6D676
100
AcDbEntity
  8
0
100
AcDbVertex
100
AcDbPolygonMeshVertex
 10
-2.228093
 20
-0.169
 30
-0.733
 70
    64
  0
VERTEX
  5
6D677
100
AcDbEntity
  8
0
100
AcDbVertex
100
AcDbPolygonMeshVertex
 10
-2.228093
 20
-0.169
 30
-0.893
 70
    64
  0
VERTEX
  5
6D678
100
AcDbEntity
  8
0
100
AcDbVertex
100
AcDbPolygonMeshVertex
 10
-2.228093
 20
-0.169
 30
-0.893
 70
    64
  0
VERTEX
  5
6D679
100
AcDbEntity
  8
0
100
AcDbVertex
100
AcDbPolygonMeshVertex
 10
-2.228093
 20
-0.54
 30
-0.733
 70
    64
  0
VERTEX
  5
6D67A
100
AcDbEntity
  8
0
100
AcDbVertex
100
AcDbPolygonMeshVertex
 10
-2.228093
 20
-0.54
 30
-0.893
 70
    64
  0
VERTEX
  5
6D67B
100
AcDbEntity
  8
0
100
AcDbVertex
100
AcDbPolygonMeshVertex
 10
-2.228093
 20
-0.54
 30
-0.893
 70
    64
  0
VERTEX
  5
6D67C
100
AcDbEntity
  8
0
100
AcDbVertex
100
AcDbPolygonMeshVertex
 10
-1.885093
 20
-0.54
 30
-0.733
 70
    64
  0
VERTEX
  5
6D67D
100
AcDbEntity
  8
0
100
AcDbVertex
100
AcDbPolygonMeshVertex
 10
-1.885093
 20
-0.54
 30
-0.893
 70
    64
  0
VERTEX
  5
6D67E
100
AcDbEntity
  8
0
100
AcDbVertex
100
AcDbPolygonMeshVertex
 10
-2.228093
 20
-0.54
 30
-0.893
 70
    64
  0
VERTEX
  5
6D67F
100
AcDbEntity
  8
0
100
AcDbVertex
100
AcDbPolygonMeshVertex
 10
-1.885093
 20
-0.169
 30
-0.733
 70
    64
  0
VERTEX
  5
6D680
100
AcDbEntity
  8
0
100
AcDbVertex
100
AcDbPolygonMeshVertex
 10
-1.885093
 20
-0.169
 30
-0.893
 70
    64
  0
VERTEX
  5
6D681
100
AcDbEntity
  8
0
100
AcDbVertex
100
AcDbPolygonMeshVertex
 10
-2.228093
 20
-0.169
 30
-0.893
 70
    64
  0
VERTEX
  5
6D682
100
AcDbEntity
  8
0
100
AcDbVertex
100
AcDbPolygonMeshVertex
 10
-1.885093
 20
-0.169
 30
-0.733
 70
    64
  0
VERTEX
  5
6D683
100
AcDbEntity
  8
0
100
AcDbVertex
100
AcDbPolygonMeshVertex
 10
-1.885093
 20
-0.169
 30
-0.733
 70
    64
  0
VERTEX
  5
6D684
100
AcDbEntity
  8
0
100
AcDbVertex
100
AcDbPolygonMeshVertex
 10
-2.228093
 20
-0.169
 30
-0.733
 70
    64
  0
VERTEX
  5
6D685
100
AcDbEntity
  8
0
100
AcDbVertex
100
AcDbPolygonMeshVertex
 10
-1.885093
 20
-0.54
 30
-0.733
 70
    64
  0
VERTEX
  5
6D686
100
AcDbEntity
  8
0
100
AcDbVertex
100
AcDbPolygonMeshVertex
 10
-1.885093
 20
-0.54
 30
-0.733
 70
    64
  0
VERTEX
  5
6D687
100
AcDbEntity
  8
0
100
AcDbVertex
100
AcDbPolygonMeshVertex
 10
-2.228093
 20
-0.54
 30
-0.733
 70
    64
  0
SEQEND
  5
6D688
100
AcDbEntity
  8
0
  0
CIRCLE
  5
6D689
100
AcDbEntity
  8
0
100
AcDbCircle
 39
0.116
 10
-2.056593
 20
-0.3545
 30
-1.009
 40
0.12
  0
LINE
  5
6D68A
100
AcDbEntity
  8
0
100
AcDbLine
 10
-2.036593
 20
-0.236178
 30
-1.009
 11
-2.036593
 21
-0.472822
 31
-1.009
  0
LINE
  5
6D68B
100
AcDbEntity
  8
0
100
AcDbLine
 10
-2.076593
 20
-0.236178
 30
-1.009
 11
-2.076593
 21
-0.472822
 31
-1.009
  0
LINE
  5
6D68C
100
AcDbEntity
  8
0
100
AcDbLine
 10
-1.847985
 20
0.118322
 30
-1.3
 11
-1.847985
 21
-0.118322
 31
-1.3
  0
LINE
  5
6D68D
100
AcDbEntity
  8
0
100
AcDbLine
 10
-1.887985
 20
0.118322
 30
-1.3
 11
-1.887985
 21
-0.118322
 31
-1.3
  0
CIRCLE
  5
6D68E
100
AcDbEntity
  8
0
100
AcDbCircle
 39
0.116
 10
-1.867985
 20
0.0
 30
-1.3
 40
0.12
  0
POLYLINE
  5
6D68F
100
AcDbEntity
  8
0
100
AcDbPolygonMesh
 66
     1
 10
0.0
 20
0.0
 30
0.0
 70
    16
 71
     6
 72
     3
  0
VERTEX
  5
6D690
100
AcDbEntity
  8
0
100
AcDbVertex
100
AcDbPolygonMeshVertex
 10
-2.060093
 20
-0.1685
 30
-0.591
 70
    64
  0
VERTEX
  5
6D691
100
AcDbEntity
  8
0
100
AcDbVertex
100
AcDbPolygonMeshVertex
 10
-2.060093
 20
-0.1685
 30
-1.184
 70
    64
  0
VERTEX
  5
6D692
100
AcDbEntity
  8
0
100
AcDbVertex
100
AcDbPolygonMeshVertex
 10
-2.060093
 20
-0.1685
 30
-1.184
 70
    64
  0
VERTEX
  5
6D693
100
AcDbEntity
  8
0
100
AcDbVertex
100
AcDbPolygonMeshVertex
 10
-2.060093
 20
0.1685
 30
-0.591
 70
    64
  0
VERTEX
  5
6D694
100
AcDbEntity
  8
0
100
AcDbVertex
100
AcDbPolygonMeshVertex
 10
-2.060093
 20
0.1685
 30
-1.184
 70
    64
  0
VERTEX
  5
6D695
100
AcDbEntity
  8
0
100
AcDbVertex
100
AcDbPolygonMeshVertex
 10
-2.060093
 20
0.1685
 30
-1.184
 70
    64
  0
VERTEX
  5
6D696
100
AcDbEntity
  8
0
100
AcDbVertex
100
AcDbPolygonMeshVertex
 10
-1.885093
 20
0.1685
 30
-0.591
 70
    64
  0
VERTEX
  5
6D697
100
AcDbEntity
  8
0
100
AcDbVertex
100
AcDbPolygonMeshVertex
 10
-1.885093
 20
0.1685
 30
-1.184
 70
    64
  0
VERTEX
  5
6D698
100
AcDbEntity
  8
0
100
AcDbVertex
100
AcDbPolygonMeshVertex
 10
-2.060093
 20
0.1685
 30
-1.184
 70
    64
  0
VERTEX
  5
6D699
100
AcDbEntity
  8
0
100
AcDbVertex
100
AcDbPolygonMeshVertex
 10
-1.885093
 20
-0.1685
 30
-0.591
 70
    64
  0
VERTEX
  5
6D69A
100
AcDbEntity
  8
0
100
AcDbVertex
100
AcDbPolygonMeshVertex
 10
-1.885093
 20
-0.1685
 30
-1.184
 70
    64
  0
VERTEX
  5
6D69B
100
AcDbEntity
  8
0
100
AcDbVertex
100
AcDbPolygonMeshVertex
 10
-2.060093
 20
-0.1685
 30
-1.184
 70
    64
  0
VERTEX
  5
6D69C
100
AcDbEntity
  8
0
100
AcDbVertex
100
AcDbPolygonMeshVertex
 10
-1.885093
 20
-0.1685
 30
-0.591
 70
    64
  0
VERTEX
  5
6D69D
100
AcDbEntity
  8
0
100
AcDbVertex
100
AcDbPolygonMeshVertex
 10
-1.885093
 20
-0.1685
 30
-0.591
 70
    64
  0
VERTEX
  5
6D69E
100
AcDbEntity
  8
0
100
AcDbVertex
100
AcDbPolygonMeshVertex
 10
-2.060093
 20
-0.1685
 30
-0.591
 70
    64
  0
VERTEX
  5
6D69F
100
AcDbEntity
  8
0
100
AcDbVertex
100
AcDbPolygonMeshVertex
 10
-1.885093
 20
0.1685
 30
-0.591
 70
    64
  0
VERTEX
  5
6D6A0
100
AcDbEntity
  8
0
100
AcDbVertex
100
AcDbPolygonMeshVertex
 10
-1.885093
 20
0.1685
 30
-0.591
 70
    64
  0
VERTEX
  5
6D6A1
100
AcDbEntity
  8
0
100
AcDbVertex
100
AcDbPolygonMeshVertex
 10
-2.060093
 20
0.1685
 30
-0.591
 70
    64
  0
SEQEND
  5
6D6A2
100
AcDbEntity
  8
0
  0
ARC
  5
6D6A3
100
AcDbEntity
  8
0
100
AcDbCircle
 10
-1.867985
 20
0.0
 30
-1.3
 40
0.156487
100
AcDbArc
 50
263.723506
 51
96.276494
  0
LINE
  5
6D6A4
100
AcDbEntity
  8
0
100
AcDbLine
 10
-1.885093
 20
-0.155549
 30
-1.3
 11
-1.885093
 21
-0.155549
 31
-1.184
  0
LINE
  5
6D6A5
100
AcDbEntity
  8
0
100
AcDbLine
 10
-1.885093
 20
0.155549
 30
-1.3
 11
-1.885093
 21
0.155549
 31
-1.184
  0
LWPOLYLINE
  5
6D6A6
100
AcDbEntity
  8
0
100
AcDbPolyline
 90
        6
 70
     1
 43
0.0
 38
-1.827
 39
0.527
 10
-0.866093
 20
0.076
 10
-1.839641
 20
0.672167
 10
-1.868865
 20
0.649121
 10
-1.530093
 20
-0.413
 10
-1.364747
 20
-0.363566
 10
-0.972139
 20
-0.053955
  0
3DFACE
  5
6D6A7
100
AcDbEntity
  8
0
100
AcDbFace
 10
-0.866093
 20
0.076
 30
-1.827
 11
-0.972139
 21
-0.053955
 31
-1.827
 12
-1.364747
 22
-0.363566
 32
-1.827
 13
-1.530093
 23
-0.413
 33
-1.827
 70
    15
  0
3DFACE
  5
6D6A8
100
AcDbEntity
  8
0
100
AcDbFace
 10
-0.866093
 20
0.076
 30
-1.827
 11
-1.530093
 21
-0.413
 31
-1.827
 12
-1.868865
 22
0.649121
 32
-1.827
 13
-1.839641
 23
0.672167
 33
-1.827
 70
    15
  0
CIRCLE
  5
6D6A9
100
AcDbEntity
  8
0
100
AcDbCircle
 10
-1.33039
 20
-0.003401
 30
-1.827
 40
0.094
  0
LINE
  5
6D6AA
100
AcDbEntity
  8
0
100
AcDbLine
 10
-1.390126
 20
-0.075979
 30
-1.827
 11
-1.245886
 21
0.037769
 31
-1.827
  0
LINE
  5
6D6AB
100
AcDbEntity
  8
0
100
AcDbLine
 10
-1.414895
 20
-0.04457
 30
-1.827
 11
-1.270655
 21
0.069178
 31
-1.827
  0
LWPOLYLINE
  5
6D6AC
100
AcDbEntity
  8
0
100
AcDbPolyline
 90
        2
 70
     0
 43
0.02
 38
-1.827
 10
-1.331834
 20
-0.149897
 42
0.352391
 10
-1.187594
 20
-0.036149
 42
0.352391
  0
LWPOLYLINE
  5
6D6AD
100
AcDbEntity
  8
0
100
AcDbPolyline
 90
        2
 70
     0
 38
-1.827
 10
-1.187594
 20
-0.036149
 40
0.04
 41
0.0
 10
-1.178598
 20
0.004306
 40
0.0
 41
0.0
  0
CIRCLE
  5
6D6AE
100
AcDbEntity
  8
0
100
AcDbCircle
 10
-0.552319
 20
0.0
 30
-1.3
 40
0.04725
  0
CIRCLE
  5
6D6AF
100
AcDbEntity
  8
0
100
AcDbCircle
 39
0.08
 10
-0.605093
 20
0.43775
 30
-1.38
 40
0.12
  0
LINE
  5
6D6B0
100
AcDbEntity
  8
0
100
AcDbLine
 10
-0.625093
 20
0.556072
 30
-1.38
 11
-0.625093
 21
0.319428
 31
-1.38
  0
LINE
  5
6D6B1
100
AcDbEntity
  8
0
100
AcDbLine
 10
-0.585093
 20
0.556072
 30
-1.38
 11
-0.585093
 21
0.319428
 31
-1.38
  0
CIRCLE
  5
6D6B2
100
AcDbEntity
  8
0
100
AcDbCircle
 39
0.08
 10
-0.605093
 20
-0.43775
 30
-1.38
 40
0.12
  0
LINE
  5
6D6B3
100
AcDbEntity
  8
0
100
AcDbLine
 10
-0.585093
 20
-0.556072
 30
-1.38
 11
-0.585093
 21
-0.319428
 31
-1.38
  0
LINE
  5
6D6B4
100
AcDbEntity
  8
0
100
AcDbLine
 10
-0.625093
 20
-0.556072
 30
-1.38
 11
-0.625093
 21
-0.319428
 31
-1.38
  0
CIRCLE
  5
6D6B5
100
AcDbEntity
  8
0
100
AcDbCircle
 39
0.08
 10
-0.552319
 20
0.0
 30
-1.38
 40
0.12
  0
LINE
  5
6D6B6
100
AcDbEntity
  8
0
100
AcDbLine
 10
-0.572319
 20
-0.118322
 30
-1.38
 11
-0.572319
 21
0.118322
 31
-1.38
  0
LINE
  5
6D6B7
100
AcDbEntity
  8
0
100
AcDbLine
 10
-0.532319
 20
-0.118322
 30
-1.38
 11
-0.532319
 21
0.118322
 31
-1.38
  0
LINE
  5
6D6B8
100
AcDbEntity
  8
0
100
AcDbLine
 10
-0.777593
 20
0.623
 30
-0.733
 11
-0.432593
 21
0.623
 31
-0.733
  0
LINE
  5
6D6B9
100
AcDbEntity
  8
0
100
AcDbLine
 10
-0.777593
 20
-0.623
 30
-0.733
 11
-0.432593
 21
-0.623
 31
-0.733
  0
LINE
  5
6D6BA
100
AcDbEntity
  8
0
100
AcDbLine
 10
-0.777593
 20
0.623
 30
-0.733
 11
-0.777593
 21
-0.623
 31
-0.733
  0
LINE
  5
6D6BB
100
AcDbEntity
  8
0
100
AcDbLine
 10
-0.432593
 20
0.623
 30
-0.733
 11
-0.432593
 21
-0.623
 31
-0.733
  0
POLYLINE
  5
6D6BC
100
AcDbEntity
  8
0
100
AcDbPolygonMesh
 66
     1
 10
0.0
 20
0.0
 30
0.0
 70
    16
 71
     6
 72
     3
  0
VERTEX
  5
6D6BD
100
AcDbEntity
  8
0
100
AcDbVertex
100
AcDbPolygonMeshVertex
 10
-0.777593
 20
0.623
 30
-0.666
 70
    64
  0
VERTEX
  5
6D6BE
100
AcDbEntity
  8
0
100
AcDbVertex
100
AcDbPolygonMeshVertex
 10
-0.777593
 20
0.623
 30
-0.733
 70
    64
  0
VERTEX
  5
6D6BF
100
AcDbEntity
  8
0
100
AcDbVertex
100
AcDbPolygonMeshVertex
 10
-0.777593
 20
0.623
 30
-0.733
 70
    64
  0
VERTEX
  5
6D6C0
100
AcDbEntity
  8
0
100
AcDbVertex
100
AcDbPolygonMeshVertex
 10
-0.432593
 20
0.623
 30
-0.666
 70
    64
  0
VERTEX
  5
6D6C1
100
AcDbEntity
  8
0
100
AcDbVertex
100
AcDbPolygonMeshVertex
 10
-0.432593
 20
0.623
 30
-0.733
 70
    64
  0
VERTEX
  5
6D6C2
100
AcDbEntity
  8
0
100
AcDbVertex
100
AcDbPolygonMeshVertex
 10
-0.432593
 20
0.623
 30
-0.733
 70
    64
  0
VERTEX
  5
6D6C3
100
AcDbEntity
  8
0
100
AcDbVertex
100
AcDbPolygonMeshVertex
 10
-0.432593
 20
-0.623
 30
-0.666
 70
    64
  0
VERTEX
  5
6D6C4
100
AcDbEntity
  8
0
100
AcDbVertex
100
AcDbPolygonMeshVertex
 10
-0.432593
 20
-0.623
 30
-0.733
 70
    64
  0
VERTEX
  5
6D6C5
100
AcDbEntity
  8
0
100
AcDbVertex
100
AcDbPolygonMeshVertex
 10
-0.432593
 20
0.623
 30
-0.733
 70
    64
  0
VERTEX
  5
6D6C6
100
AcDbEntity
  8
0
100
AcDbVertex
100
AcDbPolygonMeshVertex
 10
-0.777593
 20
-0.623
 30
-0.666
 70
    64
  0
VERTEX
  5
6D6C7
100
AcDbEntity
  8
0
100
AcDbVertex
100
AcDbPolygonMeshVertex
 10
-0.777593
 20
-0.623
 30
-0.733
 70
    64
  0
VERTEX
  5
6D6C8
100
AcDbEntity
  8
0
100
AcDbVertex
100
AcDbPolygonMeshVertex
 10
-0.777593
 20
0.623
 30
-0.733
 70
    64
  0
VERTEX
  5
6D6C9
100
AcDbEntity
  8
0
100
AcDbVertex
100
AcDbPolygonMeshVertex
 10
-0.777593
 20
-0.623
 30
-0.666
 70
    64
  0
VERTEX
  5
6D6CA
100
AcDbEntity
  8
0
100
AcDbVertex
100
AcDbPolygonMeshVertex
 10
-0.777593
 20
-0.623
 30
-0.666
 70
    64
  0
VERTEX
  5
6D6CB
100
AcDbEntity
  8
0
100
AcDbVertex
100
AcDbPolygonMeshVertex
 10
-0.777593
 20
0.623
 30
-0.666
 70
    64
  0
VERTEX
  5
6D6CC
100
AcDbEntity
  8
0
100
AcDbVertex
100
AcDbPolygonMeshVertex
 10
-0.432593
 20
-0.623
 30
-0.666
 70
    64
  0
VERTEX
  5
6D6CD
100
AcDbEntity
  8
0
100
AcDbVertex
100
AcDbPolygonMeshVertex
 10
-0.432593
 20
-0.623
 30
-0.666
 70
    64
  0
VERTEX
  5
6D6CE
100
AcDbEntity
  8
0
100
AcDbVertex
100
AcDbPolygonMeshVertex
 10
-0.432593
 20
0.623
 30
-0.666
 70
    64
  0
SEQEND
  5
6D6CF
100
AcDbEntity
  8
0
  0
POLYLINE
  5
6D6D0
100
AcDbEntity
  8
0
100
AcDbPolygonMesh
 66
     1
 10
0.0
 20
0.0
 30
0.0
 70
    16
 71
     6
 72
     3
  0
VERTEX
  5
6D6D1
100
AcDbEntity
  8
0
100
AcDbVertex
100
AcDbPolygonMeshVertex
 10
-0.499593
 20
0.623
 30
-0.408
 70
    64
  0
VERTEX
  5
6D6D2
100
AcDbEntity
  8
0
100
AcDbVertex
100
AcDbPolygonMeshVertex
 10
-0.499593
 20
0.623
 30
-0.666
 70
    64
  0
VERTEX
  5
6D6D3
100
AcDbEntity
  8
0
100
AcDbVertex
100
AcDbPolygonMeshVertex
 10
-0.499593
 20
0.623
 30
-0.666
 70
    64
  0
VERTEX
  5
6D6D4
100
AcDbEntity
  8
0
100
AcDbVertex
100
AcDbPolygonMeshVertex
 10
-0.432593
 20
0.623
 30
-0.408
 70
    64
  0
VERTEX
  5
6D6D5
100
AcDbEntity
  8
0
100
AcDbVertex
100
AcDbPolygonMeshVertex
 10
-0.432593
 20
0.623
 30
-0.666
 70
    64
  0
VERTEX
  5
6D6D6
100
AcDbEntity
  8
0
100
AcDbVertex
100
AcDbPolygonMeshVertex
 10
-0.432593
 20
0.623
 30
-0.666
 70
    64
  0
VERTEX
  5
6D6D7
100
AcDbEntity
  8
0
100
AcDbVertex
100
AcDbPolygonMeshVertex
 10
-0.432593
 20
-0.623
 30
-0.408
 70
    64
  0
VERTEX
  5
6D6D8
100
AcDbEntity
  8
0
100
AcDbVertex
100
AcDbPolygonMeshVertex
 10
-0.432593
 20
-0.623
 30
-0.666
 70
    64
  0
VERTEX
  5
6D6D9
100
AcDbEntity
  8
0
100
AcDbVertex
100
AcDbPolygonMeshVertex
 10
-0.432593
 20
0.623
 30
-0.666
 70
    64
  0
VERTEX
  5
6D6DA
100
AcDbEntity
  8
0
100
AcDbVertex
100
AcDbPolygonMeshVertex
 10
-0.499593
 20
-0.623
 30
-0.408
 70
    64
  0
VERTEX
  5
6D6DB
100
AcDbEntity
  8
0
100
AcDbVertex
100
AcDbPolygonMeshVertex
 10
-0.499593
 20
-0.623
 30
-0.666
 70
    64
  0
VERTEX
  5
6D6DC
100
AcDbEntity
  8
0
100
AcDbVertex
100
AcDbPolygonMeshVertex
 10
-0.499593
 20
0.623
 30
-0.666
 70
    64
  0
VERTEX
  5
6D6DD
100
AcDbEntity
  8
0
100
AcDbVertex
100
AcDbPolygonMeshVertex
 10
-0.499593
 20
-0.623
 30
-0.408
 70
    64
  0
VERTEX
  5
6D6DE
100
AcDbEntity
  8
0
100
AcDbVertex
100
AcDbPolygonMeshVertex
 10
-0.499593
 20
-0.623
 30
-0.408
 70
    64
  0
VERTEX
  5
6D6DF
100
AcDbEntity
  8
0
100
AcDbVertex
100
AcDbPolygonMeshVertex
 10
-0.499593
 20
0.623
 30
-0.408
 70
    64
  0
VERTEX
  5
6D6E0
100
AcDbEntity
  8
0
100
AcDbVertex
100
AcDbPolygonMeshVertex
 10
-0.432593
 20
-0.623
 30
-0.408
 70
    64
  0
VERTEX
  5
6D6E1
100
AcDbEntity
  8
0
100
AcDbVertex
100
AcDbPolygonMeshVertex
 10
-0.432593
 20
-0.623
 30
-0.408
 70
    64
  0
VERTEX
  5
6D6E2
100
AcDbEntity
  8
0
100
AcDbVertex
100
AcDbPolygonMeshVertex
 10
-0.432593
 20
0.623
 30
-0.408
 70
    64
  0
SEQEND
  5
6D6E3
100
AcDbEntity
  8
0
  0
POLYLINE
  5
6D6E4
100
AcDbEntity
  8
0
100
AcDbPolygonMesh
 66
     1
 10
0.0
 20
0.0
 30
0.0
 70
    16
 71
     6
 72
     3
  0
VERTEX
  5
6D6E5
100
AcDbEntity
  8
0
100
AcDbVertex
100
AcDbPolygonMeshVertex
 10
-0.499593
 20
0.623
 30
0.067
 70
    64
  0
VERTEX
  5
6D6E6
100
AcDbEntity
  8
0
100
AcDbVertex
100
AcDbPolygonMeshVertex
 10
-0.499593
 20
0.623
 30
-0.408
 70
    64
  0
VERTEX
  5
6D6E7
100
AcDbEntity
  8
0
100
AcDbVertex
100
AcDbPolygonMeshVertex
 10
-0.499593
 20
0.623
 30
-0.408
 70
    64
  0
VERTEX
  5
6D6E8
100
AcDbEntity
  8
0
100
AcDbVertex
100
AcDbPolygonMeshVertex
 10
-0.432593
 20
0.623
 30
0.067
 70
    64
  0
VERTEX
  5
6D6E9
100
AcDbEntity
  8
0
100
AcDbVertex
100
AcDbPolygonMeshVertex
 10
-0.432593
 20
0.623
 30
-0.408
 70
    64
  0
VERTEX
  5
6D6EA
100
AcDbEntity
  8
0
100
AcDbVertex
100
AcDbPolygonMeshVertex
 10
-0.432593
 20
0.623
 30
-0.408
 70
    64
  0
VERTEX
  5
6D6EB
100
AcDbEntity
  8
0
100
AcDbVertex
100
AcDbPolygonMeshVertex
 10
-0.432593
 20
0.341
 30
0.067
 70
    64
  0
VERTEX
  5
6D6EC
100
AcDbEntity
  8
0
100
AcDbVertex
100
AcDbPolygonMeshVertex
 10
-0.432593
 20
0.341
 30
-0.408
 70
    64
  0
VERTEX
  5
6D6ED
100
AcDbEntity
  8
0
100
AcDbVertex
100
AcDbPolygonMeshVertex
 10
-0.432593
 20
0.623
 30
-0.408
 70
    64
  0
VERTEX
  5
6D6EE
100
AcDbEntity
  8
0
100
AcDbVertex
100
AcDbPolygonMeshVertex
 10
-0.499593
 20
0.341
 30
0.067
 70
    64
  0
VERTEX
  5
6D6EF
100
AcDbEntity
  8
0
100
AcDbVertex
100
AcDbPolygonMeshVertex
 10
-0.499593
 20
0.341
 30
-0.408
 70
    64
  0
VERTEX
  5
6D6F0
100
AcDbEntity
  8
0
100
AcDbVertex
100
AcDbPolygonMeshVertex
 10
-0.499593
 20
0.623
 30
-0.408
 70
    64
  0
VERTEX
  5
6D6F1
100
AcDbEntity
  8
0
100
AcDbVertex
100
AcDbPolygonMeshVertex
 10
-0.499593
 20
0.341
 30
0.067
 70
    64
  0
VERTEX
  5
6D6F2
100
AcDbEntity
  8
0
100
AcDbVertex
100
AcDbPolygonMeshVertex
 10
-0.499593
 20
0.341
 30
0.067
 70
    64
  0
VERTEX
  5
6D6F3
100
AcDbEntity
  8
0
100
AcDbVertex
100
AcDbPolygonMeshVertex
 10
-0.499593
 20
0.623
 30
0.067
 70
    64
  0
VERTEX
  5
6D6F4
100
AcDbEntity
  8
0
100
AcDbVertex
100
AcDbPolygonMeshVertex
 10
-0.432593
 20
0.341
 30
0.067
 70
    64
  0
VERTEX
  5
6D6F5
100
AcDbEntity
  8
0
100
AcDbVertex
100
AcDbPolygonMeshVertex
 10
-0.432593
 20
0.341
 30
0.067
 70
    64
  0
VERTEX
  5
6D6F6
100
AcDbEntity
  8
0
100
AcDbVertex
100
AcDbPolygonMeshVertex
 10
-0.432593
 20
0.623
 30
0.067
 70
    64
  0
SEQEND
  5
6D6F7
100
AcDbEntity
  8
0
  0
POLYLINE
  5
6D6F8
100
AcDbEntity
  8
0
100
AcDbPolygonMesh
 66
     1
 10
0.0
 20
0.0
 30
0.0
 70
    16
 71
     6
 72
     3
  0
VERTEX
  5
6D6F9
100
AcDbEntity
  8
0
100
AcDbVertex
100
AcDbPolygonMeshVertex
 10
-0.499593
 20
-0.341
 30
0.067
 70
    64
  0
VERTEX
  5
6D6FA
100
AcDbEntity
  8
0
100
AcDbVertex
100
AcDbPolygonMeshVertex
 10
-0.499593
 20
-0.341
 30
-0.408
 70
    64
  0
VERTEX
  5
6D6FB
100
AcDbEntity
  8
0
100
AcDbVertex
100
AcDbPolygonMeshVertex
 10
-0.499593
 20
-0.341
 30
-0.408
 70
    64
  0
VERTEX
  5
6D6FC
100
AcDbEntity
  8
0
100
AcDbVertex
100
AcDbPolygonMeshVertex
 10
-0.432593
 20
-0.341
 30
0.067
 70
    64
  0
VERTEX
  5
6D6FD
100
AcDbEntity
  8
0
100
AcDbVertex
100
AcDbPolygonMeshVertex
 10
-0.432593
 20
-0.341
 30
-0.408
 70
    64
  0
VERTEX
  5
6D6FE
100
AcDbEntity
  8
0
100
AcDbVertex
100
AcDbPolygonMeshVertex
 10
-0.432593
 20
-0.341
 30
-0.408
 70
    64
  0
VERTEX
  5
6D6FF
100
AcDbEntity
  8
0
100
AcDbVertex
100
AcDbPolygonMeshVertex
 10
-0.432593
 20
-0.623
 30
0.067
 70
    64
  0
VERTEX
  5
6D700
100
AcDbEntity
  8
0
100
AcDbVertex
100
AcDbPolygonMeshVertex
 10
-0.432593
 20
-0.623
 30
-0.408
 70
    64
  0
VERTEX
  5
6D701
100
AcDbEntity
  8
0
100
AcDbVertex
100
AcDbPolygonMeshVertex
 10
-0.432593
 20
-0.341
 30
-0.408
 70
    64
  0
VERTEX
  5
6D702
100
AcDbEntity
  8
0
100
AcDbVertex
100
AcDbPolygonMeshVertex
 10
-0.499593
 20
-0.623
 30
0.067
 70
    64
  0
VERTEX
  5
6D703
100
AcDbEntity
  8
0
100
AcDbVertex
100
AcDbPolygonMeshVertex
 10
-0.499593
 20
-0.623
 30
-0.408
 70
    64
  0
VERTEX
  5
6D704
100
AcDbEntity
  8
0
100
AcDbVertex
100
AcDbPolygonMeshVertex
 10
-0.499593
 20
-0.341
 30
-0.408
 70
    64
  0
VERTEX
  5
6D705
100
AcDbEntity
  8
0
100
AcDbVertex
100
AcDbPolygonMeshVertex
 10
-0.499593
 20
-0.623
 30
0.067
 70
    64
  0
VERTEX
  5
6D706
100
AcDbEntity
  8
0
100
AcDbVertex
100
AcDbPolygonMeshVertex
 10
-0.499593
 20
-0.623
 30
0.067
 70
    64
  0
VERTEX
  5
6D707
100
AcDbEntity
  8
0
100
AcDbVertex
100
AcDbPolygonMeshVertex
 10
-0.499593
 20
-0.341
 30
0.067
 70
    64
  0
VERTEX
  5
6D708
100
AcDbEntity
  8
0
100
AcDbVertex
100
AcDbPolygonMeshVertex
 10
-0.432593
 20
-0.623
 30
0.067
 70
    64
  0
VERTEX
  5
6D709
100
AcDbEntity
  8
0
100
AcDbVertex
100
AcDbPolygonMeshVertex
 10
-0.432593
 20
-0.623
 30
0.067
 70
    64
  0
VERTEX
  5
6D70A
100
AcDbEntity
  8
0
100
AcDbVertex
100
AcDbPolygonMeshVertex
 10
-0.432593
 20
-0.341
 30
0.067
 70
    64
  0
SEQEND
  5
6D70B
100
AcDbEntity
  8
0
  0
LWPOLYLINE
  5
6D70C
100
AcDbEntity
  8
0
100
AcDbPolyline
 90
        6
 70
     0
 43
0.0
 39
0.067
 10
-0.432593
 20
0.341
 10
-0.066593
 20
0.425
 10
0.143407
 20
0.425
 10
0.143407
 20
0.747
 10
-0.249593
 20
0.747
 10
-0.432593
 20
0.623
  0
3DFACE
  5
6D70D
100
AcDbEntity
  8
0
100
AcDbFace
 10
-0.249593
 20
0.747
 30
0.067
 11
0.143407
 21
0.747
 31
0.067
 12
0.143407
 22
0.425
 32
0.067
 13
-0.066593
 23
0.425
 33
0.067
 70
    15
  0
3DFACE
  5
6D70E
100
AcDbEntity
  8
0
100
AcDbFace
 10
-0.249593
 20
0.747
 30
0.067
 11
-0.066593
 21
0.425
 31
0.067
 12
-0.432593
 22
0.341
 32
0.067
 13
-0.432593
 23
0.623
 33
0.067
 70
    15
  0
3DFACE
  5
6D70F
100
AcDbEntity
  8
0
100
AcDbFace
 10
-0.249593
 20
0.747
 30
0.0
 11
-0.066593
 21
0.425
 31
0.0
 12
-0.432593
 22
0.341
 32
0.0
 13
-0.432593
 23
0.623
 33
0.0
 70
    15
  0
3DFACE
  5
6D710
100
AcDbEntity
  8
0
100
AcDbFace
 10
-0.249593
 20
0.747
 30
0.0
 11
0.143407
 21
0.747
 31
0.0
 12
0.143407
 22
0.425
 32
0.0
 13
-0.066593
 23
0.425
 33
0.0
 70
    15
  0
CIRCLE
  5
6D711
100
AcDbEntity
  8
0
100
AcDbCircle
 10
0.0
 20
0.595906
 30
0.067
 40
0.088
  0
CIRCLE
  5
6D712
100
AcDbEntity
  8
0
100
AcDbCircle
 10
0.0
 20
-0.595906
 30
0.067
 40
0.088
  0
3DFACE
  5
6D713
100
AcDbEntity
  8
0
100
AcDbFace
 10
-0.249593
 20
-0.747
 30
0.0
 11
0.143407
 21
-0.747
 31
0.0
 12
0.143407
 22
-0.425
 32
0.0
 13
-0.066593
 23
-0.425
 33
0.0
 70
    15
  0
3DFACE
  5
6D714
100
AcDbEntity
  8
0
100
AcDbFace
 10
-0.249593
 20
-0.747
 30
0.0
 11
-0.066593
 21
-0.425
 31
0.0
 12
-0.432593
 22
-0.341
 32
0.0
 13
-0.432593
 23
-0.623
 33
0.0
 70
    15
  0
3DFACE
  5
6D715
100
AcDbEntity
  8
0
100
AcDbFace
 10
-0.249593
 20
-0.747
 30
0.067
 11
-0.066593
 21
-0.425
 31
0.067
 12
-0.432593
 22
-0.341
 32
0.067
 13
-0.432593
 23
-0.623
 33
0.067
 70
    15
  0
3DFACE
  5
6D716
100
AcDbEntity
  8
0
100
AcDbFace
 10
-0.249593
 20
-0.747
 30
0.067
 11
0.143407
 21
-0.747
 31
0.067
 12
0.143407
 22
-0.425
 32
0.067
 13
-0.066593
 23
-0.425
 33
0.067
 70
    15
  0
LWPOLYLINE
  5
6D717
100
AcDbEntity
  8
0
100
AcDbPolyline
 90
        6
 70
     0
 43
0.0
 39
0.067
 10
-0.432593
 20
-0.341
 10
-0.066593
 20
-0.425
 10
0.143407
 20
-0.425
 10
0.143407
 20
-0.747
 10
-0.249593
 20
-0.747
 10
-0.432593
 20
-0.623
  0
CIRCLE
  5
6D718
100
AcDbEntity
  8
0
100
AcDbCircle
 10
0.0
 20
0.595906
 30
0.0
 40
0.088
  0
CIRCLE
  5
6D719
100
AcDbEntity
  8
0
100
AcDbCircle
 10
0.0
 20
-0.595906
 30
0.0
 40
0.088
  0
TEXT
  5
6D71A
100
AcDbEntity
  8
0
100
AcDbText
 39
0.0
 10
1.633951
 20
0.016949
 30
1.827
 40
0.06
  1
INCREASE
 50
141.740643
210
0.0
220
0.0
230
-1.0
100
AcDbText
  0
LWPOLYLINE
  5
6D71B
100
AcDbEntity
  8
0
100
AcDbPolyline
 90
        6
 70
     1
 43
0.0
 38
-1.677
 10
-1.839641
 20
0.672167
 10
-0.866093
 20
0.076
 10
-0.972139
 20
-0.053955
 10
-1.364747
 20
-0.363566
 10
-1.530093
 20
-0.413
 10
-1.868865
 20
0.649121
  0
LWPOLYLINE
  5
6D71C
100
AcDbEntity
  8
0
100
AcDbPolyline
 90
        4
 70
     1
 43
0.0
 38
-1.09
 10
-1.885093
 20
0.7
 10
-1.885093
 20
-0.7
 10
-0.425093
 20
-0.7
 10
-0.425093
 20
0.7
  0
CIRCLE
  5
6D71D
100
AcDbEntity
  8
0
100
AcDbCircle
 10
-2.056593
 20
-0.3545
 30
-0.733
 40
0.064
  0
CIRCLE
  5
6D71E
100
AcDbEntity
  8
0
100
AcDbCircle
 10
-2.056593
 20
0.3545
 30
-0.733
 40
0.064
  0
CIRCLE
  5
6D71F
100
AcDbEntity
  8
0
100
AcDbCircle
 10
-1.678149
 20
-0.54
 30
-0.733
 40
0.0365
  0
LWPOLYLINE
  5
6D720
100
AcDbEntity
  8
0
100
AcDbPolyline
 90
        4
 70
     0
 43
0.0
 38
-0.733
 10
-1.885093
 20
-0.54
 10
-1.806649
 20
-0.54
 42
1.0
 10
-1.549649
 20
-0.54
 10
-1.473093
 20
-0.54
  0
LWPOLYLINE
  5
6D721
100
AcDbEntity
  8
0
100
AcDbPolyline
 90
        4
 70
     0
 43
0.0
 38
-0.733
 10
-1.885093
 20
0.54
 10
-1.806649
 20
0.54
 42
-1.0
 10
-1.549649
 20
0.54
 10
-1.473093
 20
0.54
  0
CIRCLE
  5
6D722
100
AcDbEntity
  8
0
100
AcDbCircle
 10
-1.678149
 20
0.54
 30
-0.733
 40
0.0365
  0
POINT
  5
6D723
100
AcDbEntity
  8
SNAP_POINTS
100
AcDbPoint
 10
0.0
 20
0.0
 30
0.0
  0
ATTDEF
  5
6D724
100
AcDbEntity
  8
ATTRIBUTES
100
AcDbText
 10
-1.770403
 20
0.312382
 30
-0.5
 40
0.045401
  1
ALLEN-BRADLEY
100
AcDbAttributeDefinition
  3
MANUFACTURER NAME?
  2
AC_VND_LABEL
 70
     0
  0
ATTDEF
  5
6D725
100
AcDbEntity
  8
ATTRIBUTES
100
AcDbText
 10
-1.770403
 20
0.217797
 30
-0.5
 40
0.045401
  1
800T-XS
100
AcDbAttributeDefinition
  3
CATALOG NUMBER?
  2
AC_PART_NO
 70
     0
  0
ATTDEF
  5
6D726
100
AcDbEntity
  8
ATTRIBUTES
100
AcDbText
 10
-1.770403
 20
0.123212
 30
-0.5
 40
0.045401
  1
NEMA TIME DELAY CONTACT BLOCK, 1 N.C.
100
AcDbAttributeDefinition
  3
PART DESCRIPTION?
  2
AC_DESCRIPTION
 70
     0
  0
ATTDEF
  5
6D727
100
AcDbEntity
  8
ATTRIBUTES
100
AcDbText
 10
-1.770403
 20
0.028627
 30
-0.5
 40
0.045401
  1

100
AcDbAttributeDefinition
  3
DEVICE ID?
  2
DEVICE_ID
 70
     0
  0
ATTDEF
  5
6D728
100
AcDbEntity
  8
ATTRIBUTES
100
AcDbText
 10
-1.770403
 20
-0.065957
 30
-0.5
 40
0.045401
  1

100
AcDbAttributeDefinition
  3
CUSTOMER PART NUMBER?
  2
AC_CPART_NO
 70
     0
  0
ATTDEF
  5
6D729
100
AcDbEntity
  8
ATTRIBUTES
100
AcDbText
 10
-1.770403
 20
-0.160542
 30
-0.5
 40
0.045401
  1

100
AcDbAttributeDefinition
  3
CUSTOMER NOTE?
  2
AC_NOTE
 70
     0
  0
ATTDEF
  5
6D72A
100
AcDbEntity
  8
ATTRIBUTES
100
AcDbText
 10
-1.770403
 20
-0.255127
 30
-0.5
 40
0.045401
  1

100
AcDbAttributeDefinition
  3
FASTENER DATA?
  2
FASTENER
 70
     0
  0
ATTDEF
  5
6D72B
100
AcDbEntity
  8
ATTRIBUTES
100
AcDbText
 10
-1.770403
 20
-0.349712
 30
-0.5
 40
0.045401
  1

100
AcDbAttributeDefinition
  3
UNIT OF SCALE?
  2
AC_SCALE_UNIT
 70
     0
  0
ATTDEF
  5
6D72C
100
AcDbEntity
  8
ATTRIBUTES
100
AcDbText
 10
-1.770403
 20
-0.444297
 30
-0.5
 40
0.045401
  1

100
AcDbAttributeDefinition
  3
VIEW CODE?
  2
AC_VIEW_CODE
 70
     0
  0
POINT
  5
6D72D
100
AcDbEntity
  8
SNAP_POINTS
100
AcDbPoint
 10
0.0
 20
0.0
 30
-1.827
  0
DIMENSION
  5
6D72E
100
AcDbEntity
  8
AREA1
100
AcDbDimension
  2
*D0
 10
-2.639495
 20
0.747
 30
0.0
 11
-2.639495
 21
0.002953
 31
0.0
 70
   160
  3
ABECAD_3V
100
AcDbAlignedDimension
 13
-0.249593
 23
-0.747
 33
0.0
 14
-0.249593
 24
0.747
 34
0.0
 50
90.0
100
AcDbRotatedDimension
1001
ACAD
1000
DSTYLE
1002
{
1070
    40
1040
0.889078
1002
}
  0
DIMENSION
  5
6D72F
100
AcDbEntity
  8
AREA1
100
AcDbDimension
  2
*D1
 10
0.143407
 20
1.060308
 30
0.0
 11
-1.100291
 21
1.060308
 31
0.0
 70
   160
  3
ABECAD_3V
100
AcDbAlignedDimension
 13
-2.228093
 23
0.54
 33
-0.733
 14
0.143407
 24
0.747
 34
0.0
100
AcDbRotatedDimension
1001
ACAD
1000
DSTYLE
1002
{
1070
    40
1040
0.889078
1002
}
  0
LWPOLYLINE
  5
6D730
100
AcDbEntity
  8
SCALE
100
AcDbPolyline
 90
        4
 70
     1
 43
0.0
 10
0.374502
 20
0.113887
 10
1.51013
 20
0.113887
 10
1.51013
 20
-0.727723
 10
0.374502
 20
-0.727723
  0
LINE
  5
6D731
100
AcDbEntity
  8
SCALE
100
AcDbLine
 10
0.4325
 20
-0.266191
 30
0.0
 11
1.4325
 21
-0.266191
 31
0.0
  0
LINE
  5
6D732
100
AcDbEntity
  8
SCALE
100
AcDbLine
 10
0.4325
 20
-0.566191
 30
0.0
 11
0.8262
 21
-0.566191
 31
0.0
  0
LINE
  5
6D733
100
AcDbEntity
  8
SCALE
100
AcDbLine
 10
0.4325
 20
-0.366191
 30
0.0
 11
0.4325
 21
-0.166191
 31
0.0
  0
TEXT
  5
6D734
100
AcDbEntity
  8
SCALE
100
AcDbText
 10
0.488476
 20
-0.518506
 30
0.0
 40
0.0625
  1
[10mm]
100
AcDbText
  0
LINE
  5
6D735
100
AcDbEntity
  8
SCALE
100
AcDbLine
 10
0.4325
 20
-0.666191
 30
0.0
 11
0.4325
 21
-0.466191
 31
0.0
  0
TEXT
  5
6D736
100
AcDbEntity
  8
SCALE
100
AcDbText
 10
0.434031
 20
0.008686
 30
0.0
 40
0.0625
  1
SCALE:
100
AcDbText
  0
LINE
  5
6D737
100
AcDbEntity
  8
SCALE
100
AcDbLine
 10
0.8262
 20
-0.666191
 30
0.0
 11
0.8262
 21
-0.466191
 31
0.0
  0
TEXT
  5
6D738
100
AcDbEntity
  8
SCALE
100
AcDbText
 10
0.795783
 20
-0.197143
 30
0.0
 40
0.0625
  1
1 Inch
100
AcDbText
  0
LINE
  5
6D739
100
AcDbEntity
  8
SCALE
100
AcDbLine
 10
1.4325
 20
-0.266191
 30
0.0
 11
1.4325
 21
-0.366191
 31
0.0
  0
LINE
  5
6D73A
100
AcDbEntity
  8
SCALE
100
AcDbLine
 10
1.4325
 20
-0.366191
 30
0.0
 11
1.4325
 21
-0.166191
 31
0.0
  0
DIMENSION
  5
6D767
100
AcDbEntity
  8
AREA2
100
AcDbDimension
  2
*D2
 10
-2.470479
 20
0.0
 30
-1.827
 11
-2.470479
 21
-0.866676
 31
0.0
 70
   160
210
0.0
220
-1.0
230
0.0
  3
ABECAD_3V
100
AcDbAlignedDimension
 13
-0.499593
 23
-0.341
 33
0.067
 14
-1.868865
 24
0.649121
 34
-1.827
 50
90.0
100
AcDbRotatedDimension
1001
ACAD
1000
DSTYLE
1002
{
1070
    40
1040
0.889078
1002
}
  0
VIEWPORT
  5
2C
102
{ACAD_XDICTIONARY
360
6DCBF
102
}
100
AcDbEntity
 67
     1
  8
0
100
AcDbViewport
 10
4.999849
 20
3.750155
 30
0.0
 40
13.389022
 41
7.577951
 68
     1
 69
     1
1001
ACAD
1000
MVIEW
1002
{
1070
    16
1010
0.0
1020
0.0
1030
0.0
1010
0.0
1020
0.0
1030
1.0
1040
0.0
1040
7.577951
1040
4.999849
1040
3.750155
1040
50.0
1040
0.0
1040
0.0
1070
     0
1070
   100
1070
     1
1070
     1
1070
     0
1070
     0
1070
     0
1070
     0
1040
0.0
1040
0.0
1040
0.0
1040
1.0
1040
1.0
1040
0.0
1040
0.0
1070
     0
1002
{
1002
}
1002
}
  0
VIEWPORT
  5
2D
102
{ACAD_XDICTIONARY
360
6DCC1
102
}
100
AcDbEntity
 67
     1
  8
0
100
AcDbViewport
 10
2.5
 20
5.625
 30
0.0
 40
5.0
 41
3.75
 68
     2
 69
     2
1001
ACAD
1000
MVIEW
1002
{
1070
    16
1010
0.0
1020
0.0
1030
0.0
1010
0.0
1020
0.0
1030
1.0
1040
0.0
1040
3.334042
1040
-0.613579
1040
0.120198
1040
50.0
1040
0.0
1040
0.0
1070
     0
1070
   100
1070
     1
1070
     0
1070
     0
1070
     0
1070
     0
1070
     0
1040
0.0
1040
0.0
1040
0.0
1040
1.0
1040
1.0
1040
0.0
1040
0.0
1070
     0
1002
{
1003
AREA2
1002
}
1002
}
  0
VIEWPORT
  5
2E
102
{ACAD_XDICTIONARY
360
6DCC3
102
}
100
AcDbEntity
 67
     1
  8
0
100
AcDbViewport
 10
2.5
 20
1.875
 30
0.0
 40
5.0
 41
3.75
 68
     3
 69
     3
1001
ACAD
1000
MVIEW
1002
{
1070
    16
1010
0.0
1020
0.0
1030
0.0
1010
0.0
1020
-1.0
1030
0.0
1040
0.0
1040
3.334042
1040
-0.613579
1040
-0.88
1040
50.0
1040
0.0
1040
0.0
1070
     0
1070
   100
1070
     1
1070
     0
1070
     0
1070
     0
1070
     0
1070
     0
1040
0.0
1040
0.0
1040
0.0
1040
1.0
1040
1.0
1040
0.0
1040
0.0
1070
     0
1002
{
1003
AREA1
1002
}
1002
}
  0
VIEWPORT
  5
2F
102
{ACAD_XDICTIONARY
360
6DCC5
102
}
100
AcDbEntity
 67
     1
  8
0
100
AcDbViewport
 10
7.5
 20
3.75
 30
0.0
 40
5.0
 41
7.5
 68
     4
 69
     4
1001
ACAD
1000
MVIEW
1002
{
1070
    16
1010
0.0
1020
0.0
1030
0.0
1010
-1.0
1020
-1.0
1030
1.0
1040
0.0
1040
4.691064
1040
-0.633935
1040
-0.621804
1040
50.0
1040
0.0
1040
0.0
1070
     0
1070
   100
1070
     1
1070
     0
1070
     0
1070
     0
1070
     0
1070
     0
1040
0.0
1040
0.0
1040
0.0
1040
1.0
1040
1.0
1040
0.0
1040
0.0
1070
     0
1002
{
1003
AREA1
1003
AREA2
1002
}
1002
}
  0
TEXT
  5
42D
100
AcDbEntity
 67
     1
  8
0
100
AcDbText
 10
5.253785
 20
7.092701
 30
0.0
 40
0.2
  1

100
AcDbText
  0
TEXT
  5
431
100
AcDbEntity
 67
     1
  8
0
100
AcDbText
 10
5.253785
 20
6.759368
 30
0.0
 40
0.2
  1

100
AcDbText
1001
ACAD
1000
R13OBJECT
1002
{
1005
42D
1002
}
  0
TEXT
  5
11D16
100
AcDbEntity
 67
     1
  8
AREA2
100
AcDbText
 10
5.101109
 20
7.152637
 30
0.0
 40
0.2
  1
800T-XS
100
AcDbText
  0
TEXT
  5
24C0A
100
AcDbEntity
 67
     1
  8
AREA2
100
AcDbText
 10
5.101109
 20
6.881437
 30
0.0
 40
0.2
  1
NEMA TIME DELAY CONTACT 
100
AcDbText
  0
TEXT
  5
2F662
100
AcDbEntity
 67
     1
  8
AREA2
100
AcDbText
 10
5.101109
 20
6.599834
 30
0.0
 40
0.2
  1

100
AcDbText
  0
TEXT
  5
4B785
100
AcDbEntity
 67
     1
  8
AREA2
100
AcDbText
 10
5.101109
 20
6.310076
 30
0.0
 40
0.2
  1

100
AcDbText
  0
TEXT
  5
64888
100
AcDbEntity
 67
     1
  8
AREA2
100
AcDbText
 10
5.101109
 20
6.317557
 30
0.0
 40
0.2
  1

100
AcDbText
  0
TEXT
  5
651DC
100
AcDbEntity
 67
     1
  8
AREA2
100
AcDbText
 10
5.101109
 20
6.599161
 30
0.0
 40
0.2
  1

100
AcDbText
  0
TEXT
  5
65724
100
AcDbEntity
 67
     1
  8
AREA2
100
AcDbText
 10
5.101109
 20
6.331741
 30
0.0
 40
0.2
  1

100
AcDbText
  0
TEXT
  5
65FDD
100
AcDbEntity
 67
     1
  8
AREA2
100
AcDbText
 10
5.101109
 20
6.302028
 30
0.0
 40
0.2
  1

100
AcDbText
  0
TEXT
  5
66E77
100
AcDbEntity
 67
     1
  8
AREA2
100
AcDbText
 10
5.101109
 20
6.318596
 30
0.0
 40
0.2
  1

100
AcDbText
  0
TEXT
  5
67914
100
AcDbEntity
 67
     1
  8
AREA2
100
AcDbText
 10
5.101109
 20
6.591198
 30
0.0
 40
0.2
  1
BLOCK, 1 N.C.
100
AcDbText
  0
TEXT
  5
691A5
100
AcDbEntity
 67
     1
  8
AREA2
100
AcDbText
 10
5.101109
 20
6.289433
 30
0.0
 40
0.2
  1

100
AcDbText
  0
TEXT
  5
699EC
100
AcDbEntity
 67
     1
  8
AREA2
100
AcDbText
 10
5.101109
 20
6.275064
 30
0.0
 40
0.2
  1

100
AcDbText
  0
TEXT
  5
6AB31
100
AcDbEntity
 67
     1
  8
AREA2
100
AcDbText
 10
5.101109
 20
6.303803
 30
0.0
 40
0.2
  1

100
AcDbText
  0
TEXT
  5
6C3EC
100
AcDbEntity
 67
     1
  8
AREA2
100
AcDbText
 10
5.101109
 20
6.302592
 30
0.0
 40
0.2
  1

100
AcDbText
  0
TEXT
  5
6D015
100
AcDbEntity
 67
     1
  8
AREA2
100
AcDbText
 10
5.101109
 20
6.288162
 30
0.0
 40
0.2
  1

100
AcDbText
  0
ENDSEC
  0
SECTION
  2
OBJECTS
  0
DICTIONARY
  5
46D
100
AcDbDictionary
  3
ACAD_GROUP
350
46E
  3
ACAD_LAYOUT
350
49E
  3
ACAD_MLINESTYLE
350
47B
  3
ACAD_PLOTSETTINGS
350
49F
  3
ACAD_PLOTSTYLENAME
350
49C
  3
ACDBHEADERROUNDTRIPXREC
350
6DC9E
  3
ACDBVARIABLEDICTIONARY
350
48D
  0
DICTIONARY
  5
6DC9C
100
AcDbDictionary
280
     1
  3
ACAD_XREC_ROUNDTRIP
360
6DC9D
  0
DICTIONARY
  5
6DCC9
100
AcDbDictionary
280
     1
  3
ACAD_XREC_ROUNDTRIP
360
6DCCA
  0
DICTIONARY
  5
6DCCB
100
AcDbDictionary
280
     1
  3
ACAD_XREC_ROUNDTRIP
360
6DCCC
  0
DICTIONARY
  5
6DCCF
100
AcDbDictionary
280
     1
  3
ACAD_XREC_ROUNDTRIP
360
6DCD0
  0
DICTIONARY
  5
4D2
100
AcDbDictionary
280
     1
  3
ACAD_LAYOUTSELFREF
360
6DCC8
  0
DICTIONARY
  5
4D0
100
AcDbDictionary
280
     1
  3
ACAD_LAYOUTSELFREF
360
6DCC7
  0
DICTIONARY
  5
6DCBF
100
AcDbDictionary
280
     1
  3
ACAD_XREC_ROUNDTRIP
360
6DCC0
  0
DICTIONARY
  5
6DCC1
100
AcDbDictionary
280
     1
  3
ACAD_XREC_ROUNDTRIP
360
6DCC2
  0
DICTIONARY
  5
6DCC3
100
AcDbDictionary
280
     1
  3
ACAD_XREC_ROUNDTRIP
360
6DCC4
  0
DICTIONARY
  5
6DCC5
100
AcDbDictionary
280
     1
  3
ACAD_XREC_ROUNDTRIP
360
6DCC6
  0
DICTIONARY
  5
46E
102
{ACAD_REACTORS
330
46D
102
}
100
AcDbDictionary
  0
DICTIONARY
  5
49E
102
{ACAD_XDICTIONARY
360
6DCCD
102
}
102
{ACAD_REACTORS
330
46D
102
}
100
AcDbDictionary
  3
LAYOUT1
350
4A1
  3
MODEL
350
4A0
  0
DICTIONARY
  5
47B
102
{ACAD_REACTORS
330
46D
102
}
100
AcDbDictionary
  3
STANDARD
350
47C
  0
DICTIONARY
  5
49F
102
{ACAD_REACTORS
330
46D
102
}
100
AcDbDictionary
  0
ACAD_PROXY_OBJECT
  5
49C
102
{ACAD_REACTORS
330
46D
102
}
100
AcDbProxyObject
 90
      499
 91
      501
 93
       86
310
405010041939BDC9B585B0
350
49D
340
49D
 94
        0
  0
DICTIONARY
  5
6DC9E
102
{ACAD_REACTORS
330
46D
102
}
100
AcDbDictionary
  3
CEPSNTYPE
350
6DCA8
  3
DIMSTYLEDATA
350
6DCAC
  3
FINGERPRINTGUID
350
6DCA9
  3
HYPERLINKBASE
350
6DCA1
  3
INSUNITS
350
6DCA7
  3
LAYOUTDICT
350
6DCA3
  3
LWETCUNION
350
6DCA6
  3
PLOTSETDICT
350
6DCA4
  3
PLOTSTYLNAMDICT
350
6DCA5
  3
PSVPSCALE
350
6DCAB
  3
PUCSBASE
350
6DCAF
  3
PUCSORGBACK
350
6DCB5
  3
PUCSORGBOTTOM
350
6DCB1
  3
PUCSORGFRONT
350
6DCB4
  3
PUCSORGLEFT
350
6DCB2
  3
PUCSORGRIGHT
350
6DCB3
  3
PUCSORGTOP
350
6DCB0
  3
PUCSORTHOREF
350
6DCAD
  3
PUCSORTHOVIEW
350
6DCAE
  3
STYLESHEET
350
6DCA2
  3
TSTACKALIGN
350
6DC9F
  3
TSTACKSIZE
350
6DCA0
  3
UCSBASE
350
6DCB8
  3
UCSORGBACK
350
6DCBE
  3
UCSORGBOTTOM
350
6DCBA
  3
UCSORGFRONT
350
6DCBD
  3
UCSORGLEFT
350
6DCBB
  3
UCSORGRIGHT
350
6DCBC
  3
UCSORGTOP
350
6DCB9
  3
UCSORTHOREF
350
6DCB6
  3
UCSORTHOVIEW
350
6DCB7
  3
VERSIONGUID
350
6DCAA
  0
DICTIONARY
  5
48D
102
{ACAD_REACTORS
330
46D
102
}
100
AcDbDictionary
  3
DIMADEC
350
48E
  0
XRECORD
  5
6DC9D
102
{ACAD_REACTORS
330
6DC9C
102
}
100
AcDbXrecord
102
EXTNAMES
  1
*ACTIVE
  2
*Active
102
UCS
 74
     0
 71
     1
 10
0.0
 20
0.0
 30
0.0
 10
1.0
 20
0.0
 30
0.0
 10
0.0
 20
1.0
 30
0.0
146
0.0
 79
     1
102
VIEW
281
     1
  0
XRECORD
  5
6DCCA
102
{ACAD_REACTORS
330
6DCC9
102
}
100
AcDbXrecord
102
PLOTBIT
280
     0
  0
XRECORD
  5
6DCCC
102
{ACAD_REACTORS
330
6DCCB
102
}
100
AcDbXrecord
102
ACADR14ROUNDTRIP
1000
DSTYLE
1002
{
1070
   276
 70
     2
1070
   277
 70
     5
1070
   279
 70
     2
1002
}
  0
XRECORD
  5
6DCD0
102
{ACAD_REACTORS
330
6DCCF
102
}
100
AcDbXrecord
102
ACADR14ROUNDTRIP
1000
DSTYLE
1002
{
1070
   276
 70
     2
1070
   277
 70
     5
1070
   279
 70
     2
1070
   289
 70
     2
1002
}
  0
XRECORD
  5
6DCC8
102
{ACAD_REACTORS
330
4D2
102
}
100
AcDbXrecord
340
478
  0
XRECORD
  5
6DCC7
102
{ACAD_REACTORS
330
4D0
102
}
100
AcDbXrecord
340
475
  0
XRECORD
  5
6DCC0
102
{ACAD_REACTORS
330
6DCBF
102
}
100
AcDbXrecord
102
UCS
 74
     0
 71
     1
 10
0.0
 20
0.0
 30
0.0
 10
1.0
 20
0.0
 30
0.0
 10
0.0
 20
1.0
 30
0.0
146
0.0
 79
     0
102
VIEW
281
     0
102
NEWVIEWCONTROL
280
     4
  0
XRECORD
  5
6DCC2
102
{ACAD_REACTORS
330
6DCC1
102
}
100
AcDbXrecord
102
UCS
 74
     0
 71
     1
 10
0.0
 20
0.0
 30
0.0
 10
1.0
 20
0.0
 30
0.0
 10
0.0
 20
1.0
 30
0.0
146
0.0
 79
     1
102
VIEW
281
     0
102
NEWVIEWCONTROL
280
     4
  0
XRECORD
  5
6DCC4
102
{ACAD_REACTORS
330
6DCC3
102
}
100
AcDbXrecord
102
UCS
 74
     0
 71
     1
 10
0.0
 20
0.0
 30
0.0
 10
1.0
 20
0.0
 30
0.0
 10
0.0
 20
0.0
 30
1.0
146
0.0
 79
     3
102
VIEW
281
     0
102
NEWVIEWCONTROL
280
     4
  0
XRECORD
  5
6DCC6
102
{ACAD_REACTORS
330
6DCC5
102
}
100
AcDbXrecord
102
UCS
 74
     0
 71
     1
 10
0.0
 20
0.0
 30
0.0
 10
1.0
 20
0.0
 30
0.0
 10
0.0
 20
1.0
 30
0.0
146
0.0
 79
     0
102
VIEW
281
     0
102
NEWVIEWCONTROL
280
     4
  0
DICTIONARY
  5
6DCCD
100
AcDbDictionary
280
     1
  3
ACAD_XREC_ROUNDTRIP
360
6DCCE
  0
ACAD_PROXY_OBJECT
  5
4A1
102
{ACAD_REACTORS
330
49E
102
}
100
AcDbProxyObject
 90
      499
 91
      503
 93
     2044
310
91D4850204C617365724A65742035303030205365726965732050434C20362C008000000C0BB1B1440000000102F06C510000000000BC1B1440000000002E06C5100000000C0CCFC6A4000000018199D9C501064C6574746572A901406AA427D84144352EEE3F47D11959985D5B1D08148C4D081C195B88185CDCDA59DB9B5
310
95B9D1CCB98DD18A30EDE3B1BBFDBC0FC1D572C8D6D0C833F1A2B3054E9249F0FD074C61796F75743140501A97D7DB4AA43C31EFF91E46EBA53B71EFD1F32A15809809100B6537F8EAD447D02A6A6A00200C0093BD106FC0000F06EE366FABE0000151CAAFBFDEF04424FF2920002440160B7F435600079000000328ACB640
310
63D0
330
475
330
2C
340
0
340
0
 94
        0
  0
ACAD_PROXY_OBJECT
  5
4A0
102
{ACAD_REACTORS
330
49E
102
}
100
AcDbProxyObject
 90
      499
 91
      503
 93
      924
310
91D4850204C617365724A65742035303030205365726965732050434C20362C01AAAAAAAAA547D11959985D5B1D08148C4D081C195B88185CDCDA59DB9B595B9D1CCB98DD18A69054D6F64656C901A800000000000000000000000000000000000000000000A1000000000000008902A6A6AAAA0
330
478
330
0
340
0
340
0
 94
        0
  0
MLINESTYLE
  5
47C
102
{ACAD_REACTORS
330
47B
102
}
100
AcDbMlineStyle
  2
STANDARD
 70
     0
  3

 62
   256
 51
90.0
 52
90.0
 71
     2
 49
0.5
 62
   256
  6
BYLAYER
 49
-0.5
 62
   256
  6
BYLAYER
  0
ACAD_PROXY_OBJECT
  5
49D
102
{ACAD_REACTORS
330
49C
102
}
100
AcDbProxyObject
 90
      499
 91
      502
 93
        0
 94
        0
  0
XRECORD
  5
6DCA8
102
{ACAD_REACTORS
330
6DC9E
102
}
100
AcDbXrecord
 90
        0
  0
XRECORD
  5
6DCAC
102
{ACAD_REACTORS
330
6DC9E
102
}
100
AcDbXrecord
1000
DSTYLE
1002
{
1070
   276
 70
     2
1070
   277
 70
     5
1070
   279
 70
     2
1002
}
  0
XRECORD
  5
6DCA9
102
{ACAD_REACTORS
330
6DC9E
102
}
100
AcDbXrecord
  1
{6E0CF4B5-225E-11D4-A150-00A0CC3303EC}
  0
XRECORD
  5
6DCA1
102
{ACAD_REACTORS
330
6DC9E
102
}
100
AcDbXrecord
  1

  0
XRECORD
  5
6DCA7
102
{ACAD_REACTORS
330
6DC9E
102
}
100
AcDbXrecord
 90
        0
  0
XRECORD
  5
6DCA3
102
{ACAD_REACTORS
330
6DC9E
102
}
100
AcDbXrecord
340
49E
  0
XRECORD
  5
6DCA6
102
{ACAD_REACTORS
330
6DC9E
102
}
100
AcDbXrecord
 90
    14877
  0
XRECORD
  5
6DCA4
102
{ACAD_REACTORS
330
6DC9E
102
}
100
AcDbXrecord
340
49F
  0
XRECORD
  5
6DCA5
102
{ACAD_REACTORS
330
6DC9E
102
}
100
AcDbXrecord
340
49C
  0
XRECORD
  5
6DCAB
102
{ACAD_REACTORS
330
6DC9E
102
}
100
AcDbXrecord
 40
0.0
  0
XRECORD
  5
6DCAF
102
{ACAD_REACTORS
330
6DC9E
102
}
100
AcDbXrecord
340
0
  0
XRECORD
  5
6DCB5
102
{ACAD_REACTORS
330
6DC9E
102
}
100
AcDbXrecord
 10
0.0
 20
0.0
 30
0.0
  0
XRECORD
  5
6DCB1
102
{ACAD_REACTORS
330
6DC9E
102
}
100
AcDbXrecord
 10
0.0
 20
0.0
 30
0.0
  0
XRECORD
  5
6DCB4
102
{ACAD_REACTORS
330
6DC9E
102
}
100
AcDbXrecord
 10
0.0
 20
0.0
 30
0.0
  0
XRECORD
  5
6DCB2
102
{ACAD_REACTORS
330
6DC9E
102
}
100
AcDbXrecord
 10
0.0
 20
0.0
 30
0.0
  0
XRECORD
  5
6DCB3
102
{ACAD_REACTORS
330
6DC9E
102
}
100
AcDbXrecord
 10
0.0
 20
0.0
 30
0.0
  0
XRECORD
  5
6DCB0
102
{ACAD_REACTORS
330
6DC9E
102
}
100
AcDbXrecord
 10
0.0
 20
0.0
 30
0.0
  0
XRECORD
  5
6DCAD
102
{ACAD_REACTORS
330
6DC9E
102
}
100
AcDbXrecord
340
0
  0
XRECORD
  5
6DCAE
102
{ACAD_REACTORS
330
6DC9E
102
}
100
AcDbXrecord
 70
     0
  0
XRECORD
  5
6DCA2
102
{ACAD_REACTORS
330
6DC9E
102
}
100
AcDbXrecord
  1

  0
XRECORD
  5
6DC9F
102
{ACAD_REACTORS
330
6DC9E
102
}
100
AcDbXrecord
 90
        1
  0
XRECORD
  5
6DCA0
102
{ACAD_REACTORS
330
6DC9E
102
}
100
AcDbXrecord
 90
       70
  0
XRECORD
  5
6DCB8
102
{ACAD_REACTORS
330
6DC9E
102
}
100
AcDbXrecord
340
0
  0
XRECORD
  5
6DCBE
102
{ACAD_REACTORS
330
6DC9E
102
}
100
AcDbXrecord
 10
0.0
 20
0.0
 30
0.0
  0
XRECORD
  5
6DCBA
102
{ACAD_REACTORS
330
6DC9E
102
}
100
AcDbXrecord
 10
0.0
 20
0.0
 30
0.0
  0
XRECORD
  5
6DCBD
102
{ACAD_REACTORS
330
6DC9E
102
}
100
AcDbXrecord
 10
0.0
 20
0.0
 30
0.0
  0
XRECORD
  5
6DCBB
102
{ACAD_REACTORS
330
6DC9E
102
}
100
AcDbXrecord
 10
0.0
 20
0.0
 30
0.0
  0
XRECORD
  5
6DCBC
102
{ACAD_REACTORS
330
6DC9E
102
}
100
AcDbXrecord
 10
0.0
 20
0.0
 30
0.0
  0
XRECORD
  5
6DCB9
102
{ACAD_REACTORS
330
6DC9E
102
}
100
AcDbXrecord
 10
0.0
 20
0.0
 30
0.0
  0
XRECORD
  5
6DCB6
102
{ACAD_REACTORS
330
6DC9E
102
}
100
AcDbXrecord
340
0
  0
XRECORD
  5
6DCB7
102
{ACAD_REACTORS
330
6DC9E
102
}
100
AcDbXrecord
 70
     1
  0
XRECORD
  5
6DCAA
102
{ACAD_REACTORS
330
6DC9E
102
}
100
AcDbXrecord
  1
{BAD84194-9291-4117-B23A-9F537E5DFEE9}
  0
DICTIONARYVAR
  5
48E
102
{ACAD_REACTORS
330
48D
102
}
100
DictionaryVariables
280
     0
  1
0
  0
XRECORD
  5
6DCCE
102
{ACAD_REACTORS
330
6DCCD
102
}
100
AcDbXrecord
102
EXTNAMES
  1
LAYOUT1
  2
Layout1
  1
MODEL
  2
Model
  0
ENDSEC
  0
EOF
