  0
SECTION
  2
HEADER
  9
$ACADVER
  1
AC1014
  9
$ACADMAINTVER
 70
     8
  9
$DWGCODEPAGE
  3
ANSI_1252
  9
$INSBASE
 10
0.0
 20
0.0
 30
0.0
  9
$EXTMIN
 10
-2.739495
 20
-0.747
 30
-1.827
  9
$EXTMAX
 10
1.51013
 20
1.160308
 30
0.067
  9
$LIMMIN
 10
0.0
 20
0.0
  9
$LIMMAX
 10
12.0
 20
9.0
  9
$ORTHOMODE
 70
     0
  9
$REGENMODE
 70
     1
  9
$FILLMODE
 70
     1
  9
$QTEXTMODE
 70
     0
  9
$MIRRTEXT
 70
     1
  9
$DRAGMODE
 70
     2
  9
$LTSCALE
 40
1.0
  9
$OSMODE
 70
    37
  9
$ATTMODE
 70
     1
  9
$TEXTSIZE
 40
0.12
  9
$TRACEWID
 40
0.05
  9
$TEXTSTYLE
  7
STANDARD
  9
$CLAYER
  8
0
  9
$CELTYPE
  6
BYLAYER
  9
$CECOLOR
 62
   256
  9
$CELTSCALE
 40
1.0
  9
$DELOBJ
 70
     1
  9
$DISPSILH
 70
     0
  9
$DIMSCALE
 40
1.0
  9
$DIMASZ
 40
0.1
  9
$DIMEXO
 40
0.1
  9
$DIMDLI
 40
0.375
  9
$DIMRND
 40
0.0
  9
$DIMDLE
 40
0.0
  9
$DIMEXE
 40
0.1
  9
$DIMTP
 40
0.0
  9
$DIMTM
 40
0.0
  9
$DIMTXT
 40
0.1
  9
$DIMCEN
 40
0.09
  9
$DIMTSZ
 40
0.0
  9
$DIMTOL
 70
     0
  9
$DIMLIM
 70
     0
  9
$DIMTIH
 70
     0
  9
$DIMTOH
 70
     1
  9
$DIMSE1
 70
     0
  9
$DIMSE2
 70
     0
  9
$DIMTAD
 70
     0
  9
$DIMZIN
 70
     4
  9
$DIMBLK
  1

  9
$DIMASO
 70
     1
  9
$DIMSHO
 70
     1
  9
$DIMPOST
  1

  9
$DIMAPOST
  1

  9
$DIMALT
 70
     1
  9
$DIMALTD
 70
     2
  9
$DIMALTF
 40
25.4
  9
$DIMLFAC
 40
1.0
  9
$DIMTOFL
 70
     0
  9
$DIMTVP
 40
0.0
  9
$DIMTIX
 70
     0
  9
$DIMSOXD
 70
     0
  9
$DIMSAH
 70
     0
  9
$DIMBLK1
  1

  9
$DIMBLK2
  1

  9
$DIMSTYLE
  2
ABECAD_3D
  9
$DIMCLRD
 70
     0
  9
$DIMCLRE
 70
     0
  9
$DIMCLRT
 70
     0
  9
$DIMTFAC
 40
1.5
  9
$DIMGAP
 40
0.09
  9
$DIMJUST
 70
     0
  9
$DIMSD1
 70
     0
  9
$DIMSD2
 70
     0
  9
$DIMTOLJ
 70
     1
  9
$DIMTZIN
 70
     4
  9
$DIMALTZ
 70
     4
  9
$DIMALTTZ
 70
     4
  9
$DIMFIT
 70
     5
  9
$DIMUPT
 70
     1
  9
$DIMUNIT
 70
     7
  9
$DIMDEC
 70
     6
  9
$DIMTDEC
 70
     6
  9
$DIMALTU
 70
     2
  9
$DIMALTTD
 70
     2
  9
$DIMTXSTY
  7
STANDARD
  9
$DIMAUNIT
 70
     0
  9
$LUNITS
 70
     2
  9
$LUPREC
 70
     4
  9
$SKETCHINC
 40
0.1
  9
$FILLETRAD
 40
0.0
  9
$AUNITS
 70
     0
  9
$AUPREC
 70
     0
  9
$MENU
  1
ACAD
  9
$ELEVATION
 40
0.0
  9
$PELEVATION
 40
0.0
  9
$THICKNESS
 40
0.0
  9
$LIMCHECK
 70
     0
  9
$BLIPMODE
 70
     0
  9
$CHAMFERA
 40
0.0
  9
$CHAMFERB
 40
0.0
  9
$CHAMFERC
 40
0.0
  9
$CHAMFERD
 40
0.0
  9
$SKPOLY
 70
     0
  9
$TDCREATE
 40
2451726.438389120
  9
$TDUPDATE
 40
2452100.671891897
  9
$TDINDWG
 40
1.4046178241
  9
$TDUSRTIMER
 40
1.4046178241
  9
$USRTIMER
 70
     1
  9
$ANGBASE
 50
0.0
  9
$ANGDIR
 70
     0
  9
$PDMODE
 70
     3
  9
$PDSIZE
 40
0.09
  9
$PLINEWID
 40
0.0
  9
$COORDS
 70
     1
  9
$SPLFRAME
 70
     1
  9
$SPLINETYPE
 70
     6
  9
$SPLINESEGS
 70
     8
  9
$ATTDIA
 70
     0
  9
$ATTREQ
 70
     1
  9
$HANDLING
 70
     1
  9
$HANDSEED
  5
A9506
  9
$SURFTAB1
 70
     6
  9
$SURFTAB2
 70
     6
  9
$SURFTYPE
 70
     6
  9
$SURFU
 70
     6
  9
$SURFV
 70
     6
  9
$UCSNAME
  2

  9
$UCSORG
 10
0.0
 20
0.0
 30
0.0
  9
$UCSXDIR
 10
1.0
 20
0.0
 30
0.0
  9
$UCSYDIR
 10
0.0
 20
1.0
 30
0.0
  9
$PUCSNAME
  2

  9
$PUCSORG
 10
0.0
 20
0.0
 30
0.0
  9
$PUCSXDIR
 10
1.0
 20
0.0
 30
0.0
  9
$PUCSYDIR
 10
0.0
 20
1.0
 30
0.0
  9
$USERI1
 70
     0
  9
$USERI2
 70
     0
  9
$USERI3
 70
     0
  9
$USERI4
 70
     0
  9
$USERI5
 70
     0
  9
$USERR1
 40
0.0
  9
$USERR2
 40
0.0
  9
$USERR3
 40
0.0
  9
$USERR4
 40
0.0
  9
$USERR5
 40
0.0
  9
$WORLDVIEW
 70
     1
  9
$SHADEDGE
 70
     3
  9
$SHADEDIF
 70
    70
  9
$TILEMODE
 70
     1
  9
$MAXACTVP
 70
    16
  9
$PINSBASE
 10
0.0
 20
0.0
 30
0.0
  9
$PLIMCHECK
 70
     0
  9
$PEXTMIN
 10
1.05
 20
0.8
 30
0.0
  9
$PEXTMAX
 10
9.45
 20
7.2
 30
0.0
  9
$PLIMMIN
 10
-0.25
 20
-0.25
  9
$PLIMMAX
 10
10.75
 20
8.25
  9
$UNITMODE
 70
     0
  9
$VISRETAIN
 70
     0
  9
$PLINEGEN
 70
     0
  9
$PSLTSCALE
 70
     1
  9
$TREEDEPTH
 70
  3020
  9
$PICKSTYLE
 70
     1
  9
$CMLSTYLE
  2
STANDARD
  9
$CMLJUST
 70
     0
  9
$CMLSCALE
 40
1.0
  9
$PROXYGRAPHICS
 70
     1
  9
$MEASUREMENT
 70
     0
  0
ENDSEC
  0
SECTION
  2
CLASSES
  0
CLASS
  1
DICTIONARYVAR
  2
AcDbDictionaryVar
  3
"AutoCAD"
 90
        0
280
     0
281
     0
  0
CLASS
  1
ACDBDICTIONARYWDFLT
  2
AcDbDictionaryWithDefault
  3
AutoCAD 2000
 90
        0
280
     0
281
     0
  0
CLASS
  1
ACDBPLACEHOLDER
  2
AcDbPlaceHolder
  3
AutoCAD 2000
 90
        0
280
     0
281
     0
  0
CLASS
  1
LAYOUT
  2
AcDbLayout
  3
AutoCAD 2000
 90
        0
280
     0
281
     0
  0
CLASS
  1
LONG_TRANSACTION
  2
AcDbLongTransaction
  3
AutoCAD 2000
 90
        0
280
     0
281
     0
  0
CLASS
  1
LWPOLYLINE
  2
AcDbPolyline
  3
"AutoCAD"
 90
        0
280
     0
281
     1
  0
CLASS
  1
HATCH
  2
AcDbHatch
  3
"ACAD_SEDONA"
 90
        0
280
     0
281
     1
  0
CLASS
  1
XRECORD
  2
AcDbXrecord
  3
"<Built In>"
 90
        0
280
     0
281
     0
  0
CLASS
  1
LONG_TRANSACTION
  2
AcDbLongTransaction
  3
AutoCAD 2000
 90
        0
280
     0
281
     0
  0
CLASS
  1
LWPOLYLINE
  2
AcDbPolyline
  3
"AutoCAD"
 90
        0
280
     0
281
     1
  0
CLASS
  1
HATCH
  2
AcDbHatch
  3
"ACAD_SEDONA"
 90
        0
280
     0
281
     1
  0
CLASS
  1
XRECORD
  2
AcDbXrecord
  3
"<Built In>"
 90
        0
280
     0
281
     0
  0
CLASS
  1
LONG_TRANSACTION
  2
AcDbLongTransaction
  3
AutoCAD 2000
 90
        0
280
     0
281
     0
  0
CLASS
  1
LWPOLYLINE
  2
AcDbPolyline
  3
"AutoCAD"
 90
        0
280
     0
281
     1
  0
CLASS
  1
HATCH
  2
AcDbHatch
  3
"ACAD_SEDONA"
 90
        0
280
     0
281
     1
  0
CLASS
  1
XRECORD
  2
AcDbXrecord
  3
"<Built In>"
 90
        0
280
     0
281
     0
  0
CLASS
  1
LONG_TRANSACTION
  2
AcDbLongTransaction
  3
AutoCAD 2000
 90
        0
280
     0
281
     0
  0
CLASS
  1
LWPOLYLINE
  2
AcDbPolyline
  3
"AutoCAD"
 90
        0
280
     0
281
     1
  0
CLASS
  1
HATCH
  2
AcDbHatch
  3
"ACAD_SEDONA"
 90
        0
280
     0
281
     1
  0
CLASS
  1
XRECORD
  2
AcDbXrecord
  3
"<Built In>"
 90
        0
280
     0
281
     0
  0
CLASS
  1
LONG_TRANSACTION
  2
AcDbLongTransaction
  3
AutoCAD 2000
 90
        0
280
     0
281
     0
  0
CLASS
  1
LWPOLYLINE
  2
AcDbPolyline
  3
"AutoCAD"
 90
        0
280
     0
281
     1
  0
CLASS
  1
HATCH
  2
AcDbHatch
  3
"ACAD_SEDONA"
 90
        0
280
     0
281
     1
  0
CLASS
  1
XRECORD
  2
AcDbXrecord
  3
"<Built In>"
 90
        0
280
     0
281
     0
  0
CLASS
  1
LONG_TRANSACTION
  2
AcDbLongTransaction
  3
AutoCAD 2000
 90
        0
280
     0
281
     0
  0
CLASS
  1
LWPOLYLINE
  2
AcDbPolyline
  3
"AutoCAD"
 90
        0
280
     0
281
     1
  0
CLASS
  1
HATCH
  2
AcDbHatch
  3
"ACAD_SEDONA"
 90
        0
280
     0
281
     1
  0
CLASS
  1
XRECORD
  2
AcDbXrecord
  3
"<Built In>"
 90
        0
280
     0
281
     0
  0
CLASS
  1
LONG_TRANSACTION
  2
AcDbLongTransaction
  3
AutoCAD 2000
 90
        0
280
     0
281
     0
  0
CLASS
  1
LWPOLYLINE
  2
AcDbPolyline
  3
"AutoCAD"
 90
        0
280
     0
281
     1
  0
CLASS
  1
HATCH
  2
AcDbHatch
  3
"ACAD_SEDONA"
 90
        0
280
     0
281
     1
  0
CLASS
  1
XRECORD
  2
AcDbXrecord
  3
"<Built In>"
 90
        0
280
     0
281
     0
  0
CLASS
  1
LONG_TRANSACTION
  2
AcDbLongTransaction
  3
AutoCAD 2000
 90
        0
280
     0
281
     0
  0
CLASS
  1
LWPOLYLINE
  2
AcDbPolyline
  3
"AutoCAD"
 90
        0
280
     0
281
     1
  0
CLASS
  1
HATCH
  2
AcDbHatch
  3
"ACAD_SEDONA"
 90
        0
280
     0
281
     1
  0
CLASS
  1
XRECORD
  2
AcDbXrecord
  3
"<Built In>"
 90
        0
280
     0
281
     0
  0
CLASS
  1
LONG_TRANSACTION
  2
AcDbLongTransaction
  3
AutoCAD 2000
 90
        0
280
     0
281
     0
  0
CLASS
  1
LWPOLYLINE
  2
AcDbPolyline
  3
"AutoCAD"
 90
        0
280
     0
281
     1
  0
CLASS
  1
HATCH
  2
AcDbHatch
  3
"ACAD_SEDONA"
 90
        0
280
     0
281
     1
  0
CLASS
  1
XRECORD
  2
AcDbXrecord
  3
"<Built In>"
 90
        0
280
     0
281
     0
  0
CLASS
  1
LONG_TRANSACTION
  2
AcDbLongTransaction
  3
AutoCAD 2000
 90
        0
280
     0
281
     0
  0
CLASS
  1
LWPOLYLINE
  2
AcDbPolyline
  3
"AutoCAD"
 90
        0
280
     0
281
     1
  0
CLASS
  1
HATCH
  2
AcDbHatch
  3
"ACAD_SEDONA"
 90
        0
280
     0
281
     1
  0
CLASS
  1
XRECORD
  2
AcDbXrecord
  3
"<Built In>"
 90
        0
280
     0
281
     0
  0
CLASS
  1
LONG_TRANSACTION
  2
AcDbLongTransaction
  3
AutoCAD 2000
 90
        0
280
     0
281
     0
  0
CLASS
  1
LWPOLYLINE
  2
AcDbPolyline
  3
"AutoCAD"
 90
        0
280
     0
281
     1
  0
CLASS
  1
HATCH
  2
AcDbHatch
  3
"ACAD_SEDONA"
 90
        0
280
     0
281
     1
  0
CLASS
  1
XRECORD
  2
AcDbXrecord
  3
"<Built In>"
 90
        0
280
     0
281
     0
  0
CLASS
  1
LONG_TRANSACTION
  2
AcDbLongTransaction
  3
AutoCAD 2000
 90
        0
280
     0
281
     0
  0
CLASS
  1
LWPOLYLINE
  2
AcDbPolyline
  3
"AutoCAD"
 90
        0
280
     0
281
     1
  0
CLASS
  1
HATCH
  2
AcDbHatch
  3
"ACAD_SEDONA"
 90
        0
280
     0
281
     1
  0
CLASS
  1
XRECORD
  2
AcDbXrecord
  3
"<Built In>"
 90
        0
280
     0
281
     0
  0
CLASS
  1
LONG_TRANSACTION
  2
AcDbLongTransaction
  3
AutoCAD 2000
 90
        0
280
     0
281
     0
  0
CLASS
  1
LWPOLYLINE
  2
AcDbPolyline
  3
"AutoCAD"
 90
        0
280
     0
281
     1
  0
CLASS
  1
HATCH
  2
AcDbHatch
  3
"ACAD_SEDONA"
 90
        0
280
     0
281
     1
  0
CLASS
  1
XRECORD
  2
AcDbXrecord
  3
"<Built In>"
 90
        0
280
     0
281
     0
  0
CLASS
  1
LONG_TRANSACTION
  2
AcDbLongTransaction
  3
AutoCAD 2000
 90
        0
280
     0
281
     0
  0
CLASS
  1
LWPOLYLINE
  2
AcDbPolyline
  3
"AutoCAD"
 90
        0
280
     0
281
     1
  0
CLASS
  1
HATCH
  2
AcDbHatch
  3
"ACAD_SEDONA"
 90
        0
280
     0
281
     1
  0
CLASS
  1
XRECORD
  2
AcDbXrecord
  3
"<Built In>"
 90
        0
280
     0
281
     0
  0
CLASS
  1
LONG_TRANSACTION
  2
AcDbLongTransaction
  3
AutoCAD 2000
 90
        0
280
     0
281
     0
  0
CLASS
  1
LWPOLYLINE
  2
AcDbPolyline
  3
"AutoCAD"
 90
        0
280
     0
281
     1
  0
CLASS
  1
HATCH
  2
AcDbHatch
  3
"ACAD_SEDONA"
 90
        0
280
     0
281
     1
  0
CLASS
  1
XRECORD
  2
AcDbXrecord
  3
"<Built In>"
 90
        0
280
     0
281
     0
  0
CLASS
  1
LONG_TRANSACTION
  2
AcDbLongTransaction
  3
AutoCAD 2000
 90
        0
280
     0
281
     0
  0
CLASS
  1
LWPOLYLINE
  2
AcDbPolyline
  3
"AutoCAD"
 90
        0
280
     0
281
     1
  0
CLASS
  1
HATCH
  2
AcDbHatch
  3
"ACAD_SEDONA"
 90
        0
280
     0
281
     1
  0
CLASS
  1
XRECORD
  2
AcDbXrecord
  3
"<Built In>"
 90
        0
280
     0
281
     0
  0
CLASS
  1
LONG_TRANSACTION
  2
AcDbLongTransaction
  3
AutoCAD 2000
 90
        0
280
     0
281
     0
  0
CLASS
  1
LWPOLYLINE
  2
AcDbPolyline
  3
"AutoCAD"
 90
        0
280
     0
281
     1
  0
CLASS
  1
HATCH
  2
AcDbHatch
  3
"ACAD_SEDONA"
 90
        0
280
     0
281
     1
  0
CLASS
  1
XRECORD
  2
AcDbXrecord
  3
"<Built In>"
 90
        0
280
     0
281
     0
  0
CLASS
  1
LONG_TRANSACTION
  2
AcDbLongTransaction
  3
AutoCAD 2000
 90
        0
280
     0
281
     0
  0
CLASS
  1
LWPOLYLINE
  2
AcDbPolyline
  3
"AutoCAD"
 90
        0
280
     0
281
     1
  0
CLASS
  1
HATCH
  2
AcDbHatch
  3
"ACAD_SEDONA"
 90
        0
280
     0
281
     1
  0
CLASS
  1
XRECORD
  2
AcDbXrecord
  3
"<Built In>"
 90
        0
280
     0
281
     0
  0
CLASS
  1
LONG_TRANSACTION
  2
AcDbLongTransaction
  3
AutoCAD 2000
 90
        0
280
     0
281
     0
  0
CLASS
  1
LWPOLYLINE
  2
AcDbPolyline
  3
"AutoCAD"
 90
        0
280
     0
281
     1
  0
CLASS
  1
HATCH
  2
AcDbHatch
  3
"ACAD_SEDONA"
 90
        0
280
     0
281
     1
  0
CLASS
  1
XRECORD
  2
AcDbXrecord
  3
"<Built In>"
 90
        0
280
     0
281
     0
  0
CLASS
  1
LONG_TRANSACTION
  2
AcDbLongTransaction
  3
AutoCAD 2000
 90
        0
280
     0
281
     0
  0
CLASS
  1
LWPOLYLINE
  2
AcDbPolyline
  3
"AutoCAD"
 90
        0
280
     0
281
     1
  0
CLASS
  1
HATCH
  2
AcDbHatch
  3
"ACAD_SEDONA"
 90
        0
280
     0
281
     1
  0
CLASS
  1
XRECORD
  2
AcDbXrecord
  3
"<Built In>"
 90
        0
280
     0
281
     0
  0
CLASS
  1
LONG_TRANSACTION
  2
AcDbLongTransaction
  3
AutoCAD 2000
 90
        0
280
     0
281
     0
  0
CLASS
  1
LWPOLYLINE
  2
AcDbPolyline
  3
"AutoCAD"
 90
        0
280
     0
281
     1
  0
CLASS
  1
HATCH
  2
AcDbHatch
  3
"ACAD_SEDONA"
 90
        0
280
     0
281
     1
  0
CLASS
  1
XRECORD
  2
AcDbXrecord
  3
"<Built In>"
 90
        0
280
     0
281
     0
  0
CLASS
  1
LONG_TRANSACTION
  2
AcDbLongTransaction
  3
AutoCAD 2000
 90
        0
280
     0
281
     0
  0
CLASS
  1
LWPOLYLINE
  2
AcDbPolyline
  3
"AutoCAD"
 90
        0
280
     0
281
     1
  0
CLASS
  1
HATCH
  2
AcDbHatch
  3
"ACAD_SEDONA"
 90
        0
280
     0
281
     1
  0
CLASS
  1
XRECORD
  2
AcDbXrecord
  3
"<Built In>"
 90
        0
280
     0
281
     0
  0
CLASS
  1
LONG_TRANSACTION
  2
AcDbLongTransaction
  3
AutoCAD 2000
 90
        0
280
     0
281
     0
  0
CLASS
  1
LWPOLYLINE
  2
AcDbPolyline
  3
"AutoCAD"
 90
        0
280
     0
281
     1
  0
CLASS
  1
HATCH
  2
AcDbHatch
  3
"ACAD_SEDONA"
 90
        0
280
     0
281
     1
  0
CLASS
  1
XRECORD
  2
AcDbXrecord
  3
"<Built In>"
 90
        0
280
     0
281
     0
  0
CLASS
  1
LONG_TRANSACTION
  2
AcDbLongTransaction
  3
AutoCAD 2000
 90
        0
280
     0
281
     0
  0
CLASS
  1
LWPOLYLINE
  2
AcDbPolyline
  3
"AutoCAD"
 90
        0
280
     0
281
     1
  0
CLASS
  1
HATCH
  2
AcDbHatch
  3
"ACAD_SEDONA"
 90
        0
280
     0
281
     1
  0
CLASS
  1
XRECORD
  2
AcDbXrecord
  3
"<Built In>"
 90
        0
280
     0
281
     0
  0
CLASS
  1
LONG_TRANSACTION
  2
AcDbLongTransaction
  3
AutoCAD 2000
 90
        0
280
     0
281
     0
  0
CLASS
  1
LWPOLYLINE
  2
AcDbPolyline
  3
"AutoCAD"
 90
        0
280
     0
281
     1
  0
CLASS
  1
HATCH
  2
AcDbHatch
  3
"ACAD_SEDONA"
 90
        0
280
     0
281
     1
  0
CLASS
  1
XRECORD
  2
AcDbXrecord
  3
"<Built In>"
 90
        0
280
     0
281
     0
  0
CLASS
  1
LONG_TRANSACTION
  2
AcDbLongTransaction
  3
AutoCAD 2000
 90
        0
280
     0
281
     0
  0
CLASS
  1
LWPOLYLINE
  2
AcDbPolyline
  3
"AutoCAD"
 90
        0
280
     0
281
     1
  0
CLASS
  1
HATCH
  2
AcDbHatch
  3
"ACAD_SEDONA"
 90
        0
280
     0
281
     1
  0
CLASS
  1
XRECORD
  2
AcDbXrecord
  3
"<Built In>"
 90
        0
280
     0
281
     0
  0
CLASS
  1
LONG_TRANSACTION
  2
AcDbLongTransaction
  3
AutoCAD 2000
 90
        0
280
     0
281
     0
  0
CLASS
  1
LWPOLYLINE
  2
AcDbPolyline
  3
"AutoCAD"
 90
        0
280
     0
281
     1
  0
CLASS
  1
HATCH
  2
AcDbHatch
  3
"ACAD_SEDONA"
 90
        0
280
     0
281
     1
  0
CLASS
  1
XRECORD
  2
AcDbXrecord
  3
"<Built In>"
 90
        0
280
     0
281
     0
  0
CLASS
  1
LONG_TRANSACTION
  2
AcDbLongTransaction
  3
AutoCAD 2000
 90
        0
280
     0
281
     0
  0
CLASS
  1
LWPOLYLINE
  2
AcDbPolyline
  3
"AutoCAD"
 90
        0
280
     0
281
     1
  0
CLASS
  1
HATCH
  2
AcDbHatch
  3
"ACAD_SEDONA"
 90
        0
280
     0
281
     1
  0
CLASS
  1
XRECORD
  2
AcDbXrecord
  3
"<Built In>"
 90
        0
280
     0
281
     0
  0
CLASS
  1
LONG_TRANSACTION
  2
AcDbLongTransaction
  3
AutoCAD 2000
 90
        0
280
     0
281
     0
  0
CLASS
  1
LWPOLYLINE
  2
AcDbPolyline
  3
"AutoCAD"
 90
        0
280
     0
281
     1
  0
CLASS
  1
HATCH
  2
AcDbHatch
  3
"ACAD_SEDONA"
 90
        0
280
     0
281
     1
  0
CLASS
  1
XRECORD
  2
AcDbXrecord
  3
"<Built In>"
 90
        0
280
     0
281
     0
  0
CLASS
  1
LONG_TRANSACTION
  2
AcDbLongTransaction
  3
AutoCAD 2000
 90
        0
280
     0
281
     0
  0
CLASS
  1
LWPOLYLINE
  2
AcDbPolyline
  3
"AutoCAD"
 90
        0
280
     0
281
     1
  0
CLASS
  1
HATCH
  2
AcDbHatch
  3
"ACAD_SEDONA"
 90
        0
280
     0
281
     1
  0
CLASS
  1
XRECORD
  2
AcDbXrecord
  3
"<Built In>"
 90
        0
280
     0
281
     0
  0
CLASS
  1
LONG_TRANSACTION
  2
AcDbLongTransaction
  3
AutoCAD 2000
 90
        0
280
     0
281
     0
  0
CLASS
  1
LWPOLYLINE
  2
AcDbPolyline
  3
"AutoCAD"
 90
        0
280
     0
281
     1
  0
CLASS
  1
HATCH
  2
AcDbHatch
  3
"ACAD_SEDONA"
 90
        0
280
     0
281
     1
  0
CLASS
  1
XRECORD
  2
AcDbXrecord
  3
"<Built In>"
 90
        0
280
     0
281
     0
  0
CLASS
  1
LONG_TRANSACTION
  2
AcDbLongTransaction
  3
AutoCAD 2000
 90
        0
280
     0
281
     0
  0
CLASS
  1
LWPOLYLINE
  2
AcDbPolyline
  3
"AutoCAD"
 90
        0
280
     0
281
     1
  0
CLASS
  1
HATCH
  2
AcDbHatch
  3
"ACAD_SEDONA"
 90
        0
280
     0
281
     1
  0
CLASS
  1
XRECORD
  2
AcDbXrecord
  3
"<Built In>"
 90
        0
280
     0
281
     0
  0
CLASS
  1
LONG_TRANSACTION
  2
AcDbLongTransaction
  3
AutoCAD 2000
 90
        0
280
     0
281
     0
  0
CLASS
  1
LWPOLYLINE
  2
AcDbPolyline
  3
"AutoCAD"
 90
        0
280
     0
281
     1
  0
CLASS
  1
HATCH
  2
AcDbHatch
  3
"ACAD_SEDONA"
 90
        0
280
     0
281
     1
  0
CLASS
  1
XRECORD
  2
AcDbXrecord
  3
"<Built In>"
 90
        0
280
     0
281
     0
  0
CLASS
  1
LONG_TRANSACTION
  2
AcDbLongTransaction
  3
AutoCAD 2000
 90
        0
280
     0
281
     0
  0
CLASS
  1
LWPOLYLINE
  2
AcDbPolyline
  3
"AutoCAD"
 90
        0
280
     0
281
     1
  0
CLASS
  1
HATCH
  2
AcDbHatch
  3
"ACAD_SEDONA"
 90
        0
280
     0
281
     1
  0
CLASS
  1
XRECORD
  2
AcDbXrecord
  3
"<Built In>"
 90
        0
280
     0
281
     0
  0
CLASS
  1
LONG_TRANSACTION
  2
AcDbLongTransaction
  3
AutoCAD 2000
 90
        0
280
     0
281
     0
  0
CLASS
  1
LWPOLYLINE
  2
AcDbPolyline
  3
"AutoCAD"
 90
        0
280
     0
281
     1
  0
CLASS
  1
HATCH
  2
AcDbHatch
  3
"ACAD_SEDONA"
 90
        0
280
     0
281
     1
  0
CLASS
  1
XRECORD
  2
AcDbXrecord
  3
"<Built In>"
 90
        0
280
     0
281
     0
  0
CLASS
  1
LONG_TRANSACTION
  2
AcDbLongTransaction
  3
AutoCAD 2000
 90
        0
280
     0
281
     0
  0
CLASS
  1
LWPOLYLINE
  2
AcDbPolyline
  3
"AutoCAD"
 90
        0
280
     0
281
     1
  0
CLASS
  1
HATCH
  2
AcDbHatch
  3
"ACAD_SEDONA"
 90
        0
280
     0
281
     1
  0
CLASS
  1
XRECORD
  2
AcDbXrecord
  3
"<Built In>"
 90
        0
280
     0
281
     0
  0
CLASS
  1
LONG_TRANSACTION
  2
AcDbLongTransaction
  3
AutoCAD 2000
 90
        0
280
     0
281
     0
  0
CLASS
  1
LWPOLYLINE
  2
AcDbPolyline
  3
"AutoCAD"
 90
        0
280
     0
281
     1
  0
CLASS
  1
HATCH
  2
AcDbHatch
  3
"ACAD_SEDONA"
 90
        0
280
     0
281
     1
  0
CLASS
  1
XRECORD
  2
AcDbXrecord
  3
"<Built In>"
 90
        0
280
     0
281
     0
  0
CLASS
  1
LONG_TRANSACTION
  2
AcDbLongTransaction
  3
AutoCAD 2000
 90
        0
280
     0
281
     0
  0
CLASS
  1
LWPOLYLINE
  2
AcDbPolyline
  3
"AutoCAD"
 90
        0
280
     0
281
     1
  0
CLASS
  1
HATCH
  2
AcDbHatch
  3
"ACAD_SEDONA"
 90
        0
280
     0
281
     1
  0
CLASS
  1
XRECORD
  2
AcDbXrecord
  3
"<Built In>"
 90
        0
280
     0
281
     0
  0
CLASS
  1
LONG_TRANSACTION
  2
AcDbLongTransaction
  3
AutoCAD 2000
 90
        0
280
     0
281
     0
  0
CLASS
  1
LWPOLYLINE
  2
AcDbPolyline
  3
"AutoCAD"
 90
        0
280
     0
281
     1
  0
CLASS
  1
HATCH
  2
AcDbHatch
  3
"ACAD_SEDONA"
 90
        0
280
     0
281
     1
  0
CLASS
  1
XRECORD
  2
AcDbXrecord
  3
"<Built In>"
 90
        0
280
     0
281
     0
  0
CLASS
  1
LONG_TRANSACTION
  2
AcDbLongTransaction
  3
AutoCAD 2000
 90
        0
280
     0
281
     0
  0
CLASS
  1
LWPOLYLINE
  2
AcDbPolyline
  3
"AutoCAD"
 90
        0
280
     0
281
     1
  0
CLASS
  1
HATCH
  2
AcDbHatch
  3
"ACAD_SEDONA"
 90
        0
280
     0
281
     1
  0
CLASS
  1
XRECORD
  2
AcDbXrecord
  3
"<Built In>"
 90
        0
280
     0
281
     0
  0
CLASS
  1
LONG_TRANSACTION
  2
AcDbLongTransaction
  3
AutoCAD 2000
 90
        0
280
     0
281
     0
  0
CLASS
  1
LWPOLYLINE
  2
AcDbPolyline
  3
"AutoCAD"
 90
        0
280
     0
281
     1
  0
CLASS
  1
HATCH
  2
AcDbHatch
  3
"ACAD_SEDONA"
 90
        0
280
     0
281
     1
  0
CLASS
  1
XRECORD
  2
AcDbXrecord
  3
"<Built In>"
 90
        0
280
     0
281
     0
  0
CLASS
  1
LONG_TRANSACTION
  2
AcDbLongTransaction
  3
AutoCAD 2000
 90
        0
280
     0
281
     0
  0
CLASS
  1
LWPOLYLINE
  2
AcDbPolyline
  3
"AutoCAD"
 90
        0
280
     0
281
     1
  0
CLASS
  1
HATCH
  2
AcDbHatch
  3
"ACAD_SEDONA"
 90
        0
280
     0
281
     1
  0
CLASS
  1
XRECORD
  2
AcDbXrecord
  3
"<Built In>"
 90
        0
280
     0
281
     0
  0
CLASS
  1
LONG_TRANSACTION
  2
AcDbLongTransaction
  3
AutoCAD 2000
 90
        0
280
     0
281
     0
  0
CLASS
  1
LWPOLYLINE
  2
AcDbPolyline
  3
"AutoCAD"
 90
        0
280
     0
281
     1
  0
CLASS
  1
HATCH
  2
AcDbHatch
  3
"ACAD_SEDONA"
 90
        0
280
     0
281
     1
  0
CLASS
  1
XRECORD
  2
AcDbXrecord
  3
"<Built In>"
 90
        0
280
     0
281
     0
  0
CLASS
  1
LONG_TRANSACTION
  2
AcDbLongTransaction
  3
AutoCAD 2000
 90
        0
280
     0
281
     0
  0
CLASS
  1
LWPOLYLINE
  2
AcDbPolyline
  3
"AutoCAD"
 90
        0
280
     0
281
     1
  0
CLASS
  1
HATCH
  2
AcDbHatch
  3
"ACAD_SEDONA"
 90
        0
280
     0
281
     1
  0
CLASS
  1
XRECORD
  2
AcDbXrecord
  3
"<Built In>"
 90
        0
280
     0
281
     0
  0
ENDSEC
  0
SECTION
  2
TABLES
  0
TABLE
  2
VPORT
  5
458C7
100
AcDbSymbolTable
 70
     1
  0
VPORT
  5
A94D1
102
{ACAD_XDICTIONARY
360
A94D4
102
}
100
AcDbSymbolTableRecord
100
AcDbViewportTableRecord
  2
*ACTIVE
 70
     0
 10
0.0
 20
0.0
 11
1.0
 21
1.0
 12
0.38767
 22
1.115645
 13
0.0
 23
0.0
 14
0.25
 24
0.25
 15
0.25
 25
0.25
 16
0.0
 26
0.0
 36
1.0
 17
-1.002245
 27
-0.908856
 37
0.745855
 40
2.336004
 41
1.829897
 42
50.0
 43
0.0
 44
0.0
 50
0.0
 51
0.0
 71
     0
 72
 20000
 73
     1
 74
     1
 75
     0
 76
     0
 77
     0
 78
     0
  0
ENDTAB
  0
TABLE
  2
LTYPE
  5
458C4
100
AcDbSymbolTable
 70
     1
  0
LTYPE
  5
458D0
100
AcDbSymbolTableRecord
100
AcDbLinetypeTableRecord
  2
BYBLOCK
 70
     0
  3

 72
    65
 73
     0
 40
0.0
  0
LTYPE
  5
458D1
100
AcDbSymbolTableRecord
100
AcDbLinetypeTableRecord
  2
BYLAYER
 70
     0
  3

 72
    65
 73
     0
 40
0.0
  0
LTYPE
  5
458D2
100
AcDbSymbolTableRecord
100
AcDbLinetypeTableRecord
  2
CONTINUOUS
 70
     0
  3
Solid line
 72
    65
 73
     0
 40
0.0
  0
ENDTAB
  0
TABLE
  2
LAYER
  5
458C1
100
AcDbSymbolTable
 70
     7
  0
LAYER
  5
458CD
100
AcDbSymbolTableRecord
100
AcDbLayerTableRecord
  2
0
 70
     0
 62
     7
  6
CONTINUOUS
  0
LAYER
  5
458EA
100
AcDbSymbolTableRecord
100
AcDbLayerTableRecord
  2
DIMS-MTG-HOLES
 70
     0
 62
     1
  6
CONTINUOUS
  0
LAYER
  5
458EB
100
AcDbSymbolTableRecord
100
AcDbLayerTableRecord
  2
ATTRIBUTES
 70
     0
 62
     7
  6
CONTINUOUS
  0
LAYER
  5
4593B
102
{ACAD_XDICTIONARY
360
A94FD
102
}
100
AcDbSymbolTableRecord
100
AcDbLayerTableRecord
  2
AREA1
 70
     0
 62
    -7
  6
CONTINUOUS
  0
LAYER
  5
45940
102
{ACAD_XDICTIONARY
360
A94D2
102
}
100
AcDbSymbolTableRecord
100
AcDbLayerTableRecord
  2
DEFPOINTS
 70
     0
 62
    -7
  6
CONTINUOUS
  0
LAYER
  5
45954
100
AcDbSymbolTableRecord
100
AcDbLayerTableRecord
  2
SCALE
 70
     0
 62
    -7
  6
CONTINUOUS
  0
LAYER
  5
4D59A
100
AcDbSymbolTableRecord
100
AcDbLayerTableRecord
  2
SNAP_POINTS
 70
     0
 62
    -1
  6
CONTINUOUS
  0
ENDTAB
  0
TABLE
  2
STYLE
  5
458C2
100
AcDbSymbolTable
 70
     1
  0
STYLE
  5
458CE
100
AcDbSymbolTableRecord
100
AcDbTextStyleTableRecord
  2
STANDARD
 70
     0
 40
0.0
 41
1.0
 50
0.0
 71
     0
 42
0.12
  3
txt
  4

  0
ENDTAB
  0
TABLE
  2
VIEW
  5
458C5
100
AcDbSymbolTable
 70
     0
  0
ENDTAB
  0
TABLE
  2
UCS
  5
458C6
100
AcDbSymbolTable
 70
     0
  0
ENDTAB
  0
TABLE
  2
APPID
  5
458C8
100
AcDbSymbolTable
 70
     2
  0
APPID
  5
458CF
100
AcDbSymbolTableRecord
100
AcDbRegAppTableRecord
  2
ACAD
 70
     0
  0
APPID
  5
5FD5B
100
AcDbSymbolTableRecord
100
AcDbRegAppTableRecord
  2
AVE_RENDER
 70
     0
  0
ENDTAB
  0
TABLE
  2
DIMSTYLE
  5
458C9
100
AcDbSymbolTable
 70
     1
  0
DIMSTYLE
105
458F6
102
{ACAD_XDICTIONARY
360
A94F9
102
}
102
{ACAD_REACTORS
330
A93FC
330
A940A
102
}
100
AcDbSymbolTableRecord
100
AcDbDimStyleTableRecord
  2
ABECAD_3D
 70
     0
  3

  4

  5

  6

  7

 40
1.0
 41
0.1
 42
0.1
 43
0.375
 44
0.1
 45
0.0
 46
0.0
 47
0.0
 48
0.0
140
0.1
141
0.09
142
0.0
143
25.4
144
1.0
145
0.0
146
1.5
147
0.09
 71
     0
 72
     0
 73
     0
 74
     1
 75
     0
 76
     0
 77
     0
 78
     4
170
     1
171
     2
172
     0
173
     0
174
     0
175
     0
176
     0
177
     0
178
     0
270
     7
271
     6
272
     6
273
     2
274
     2
340
458CE
275
     0
280
     0
281
     0
282
     0
283
     1
284
     4
285
     4
286
     4
287
     5
288
     1
  0
ENDTAB
  0
TABLE
  2
BLOCK_RECORD
  5
458C0
100
AcDbSymbolTable
 70
     2
  0
BLOCK_RECORD
  5
458D6
102
{ACAD_XDICTIONARY
360
4592C
102
}
100
AcDbSymbolTableRecord
100
AcDbBlockTableRecord
  2
*MODEL_SPACE
  0
BLOCK_RECORD
  5
458D3
102
{ACAD_XDICTIONARY
360
4592A
102
}
100
AcDbSymbolTableRecord
100
AcDbBlockTableRecord
  2
*PAPER_SPACE
  0
BLOCK_RECORD
  5
A93FD
100
AcDbSymbolTableRecord
100
AcDbBlockTableRecord
  2
*D0
  0
BLOCK_RECORD
  5
A940B
100
AcDbSymbolTableRecord
100
AcDbBlockTableRecord
  2
*D1
  0
ENDTAB
  0
ENDSEC
  0
SECTION
  2
BLOCKS
  0
BLOCK
  5
458DF
100
AcDbEntity
  8
0
100
AcDbBlockBegin
  2
*MODEL_SPACE
 70
     0
 10
0.0
 20
0.0
 30
0.0
  3
*MODEL_SPACE
  1

  0
ENDBLK
  5
458E0
100
AcDbEntity
  8
0
100
AcDbBlockEnd
  0
BLOCK
  5
458DD
100
AcDbEntity
 67
     1
  8
0
100
AcDbBlockBegin
  2
*PAPER_SPACE
 70
     0
 10
0.0
 20
0.0
 30
0.0
  3
*PAPER_SPACE
  1

  0
ENDBLK
  5
458DE
100
AcDbEntity
 67
     1
  8
0
100
AcDbBlockEnd
  0
BLOCK
  5
A9408
100
AcDbEntity
  8
0
100
AcDbBlockBegin
  2
*D0
 70
     1
 10
0.0
 20
0.0
 30
0.0
  3
*D0
  1

  0
LINE
  5
A93FE
100
AcDbEntity
  8
AREA1
 62
     0
100
AcDbLine
 10
-0.349593
 20
-0.747
 30
0.0
 11
-2.739495
 21
-0.747
 31
0.0
1001
ACAD
1000
RTLwPs
1070
   158
  0
LINE
  5
A93FF
100
AcDbEntity
  8
AREA1
 62
     0
100
AcDbLine
 10
-0.349593
 20
0.747
 30
0.0
 11
-2.739495
 21
0.747
 31
0.0
1001
ACAD
1000
RTLwPs
1070
   158
  0
LINE
  5
A9400
100
AcDbEntity
  8
AREA1
 62
     0
100
AcDbLine
 10
-2.639495
 20
-0.647
 30
0.0
 11
-2.639495
 21
-0.62038
 31
0.0
1001
ACAD
1000
RTLwPs
1070
   158
  0
LINE
  5
A9401
100
AcDbEntity
  8
AREA1
 62
     0
100
AcDbLine
 10
-2.639495
 20
0.647
 30
0.0
 11
-2.639495
 21
0.626287
 31
0.0
1001
ACAD
1000
RTLwPs
1070
   158
  0
MTEXT
  5
A9402
100
AcDbEntity
  8
AREA1
 62
     0
100
AcDbMText
 10
-2.639495
 20
0.002953
 30
0.0
 40
0.1
 41
0.0
 71
     5
 72
     1
  1
\A1;1 1/2 [37.95]
 11
0.0
 21
1.0
 31
0.0
1001
ACAD
1000
MTEXTBEGIN
1070
    73
1070
     1
1070
    44
1040
1.0
1070
    74
1070
     0
1000
MTEXTEND
1000
MTEXTBEGIN
1070
    73
1070
     1
1070
    44
1040
1.0
1070
    74
1070
     0
1000
MTEXTEND
1000
MTEXTBEGIN
1070
    73
1070
     1
1070
    44
1040
1.0
1070
    74
1070
     0
1000
MTEXTEND
1000
MTEXTBEGIN
1070
    73
1070
     1
1070
    44
1040
1.0
1070
    74
1070
     0
1000
MTEXTEND
  0
SOLID
  5
A9403
100
AcDbEntity
  8
AREA1
 62
     0
100
AcDbTrace
 10
-2.656162
 20
-0.647
 30
0.0
 11
-2.622829
 21
-0.647
 31
0.0
 12
-2.639495
 22
-0.747
 32
0.0
 13
-2.639495
 23
-0.747
 33
0.0
  0
SOLID
  5
A9404
100
AcDbEntity
  8
AREA1
 62
     0
100
AcDbTrace
 10
-2.656162
 20
0.647
 30
0.0
 11
-2.622829
 21
0.647
 31
0.0
 12
-2.639495
 22
0.747
 32
0.0
 13
-2.639495
 23
0.747
 33
0.0
  0
POINT
  5
A9405
100
AcDbEntity
  8
DEFPOINTS
 62
     0
100
AcDbPoint
 10
-0.249593
 20
-0.747
 30
0.0
  0
POINT
  5
A9406
100
AcDbEntity
  8
DEFPOINTS
 62
     0
100
AcDbPoint
 10
-0.249593
 20
0.747
 30
0.0
  0
POINT
  5
A9407
100
AcDbEntity
  8
DEFPOINTS
 62
     0
100
AcDbPoint
 10
-2.639495
 20
0.747
 30
0.0
  0
ENDBLK
  5
A9409
100
AcDbEntity
  8
0
100
AcDbBlockEnd
  0
BLOCK
  5
A9416
100
AcDbEntity
  8
0
100
AcDbBlockBegin
  2
*D1
 70
     1
 10
0.0
 20
0.0
 30
0.0
  3
*D1
  1

  0
LINE
  5
A940C
100
AcDbEntity
  8
AREA1
 62
     0
100
AcDbLine
 10
-2.228093
 20
0.64
 30
0.0
 11
-2.228093
 21
1.160308
 31
0.0
1001
ACAD
1000
RTLwPs
1070
   158
  0
LINE
  5
A940D
100
AcDbEntity
  8
AREA1
 62
     0
100
AcDbLine
 10
0.143407
 20
0.847
 30
0.0
 11
0.143407
 21
1.160308
 31
0.0
1001
ACAD
1000
RTLwPs
1070
   158
  0
LINE
  5
A940E
100
AcDbEntity
  8
AREA1
 62
     0
100
AcDbLine
 10
-2.128093
 20
1.060308
 30
0.0
 11
-1.748624
 21
1.060308
 31
0.0
1001
ACAD
1000
RTLwPs
1070
   158
  0
LINE
  5
A940F
100
AcDbEntity
  8
AREA1
 62
     0
100
AcDbLine
 10
0.043407
 20
1.060308
 30
0.0
 11
-0.451957
 21
1.060308
 31
0.0
1001
ACAD
1000
RTLwPs
1070
   158
  0
MTEXT
  5
A9410
100
AcDbEntity
  8
AREA1
 62
     0
100
AcDbMText
 10
-1.100291
 20
1.060308
 30
0.0
 40
0.1
 41
0.0
 71
     5
 72
     1
  1
\A1;2 3/8 [60.24]
1001
ACAD
1000
MTEXTBEGIN
1070
    73
1070
     1
1070
    44
1040
1.0
1070
    74
1070
     0
1000
MTEXTEND
1000
MTEXTBEGIN
1070
    73
1070
     1
1070
    44
1040
1.0
1070
    74
1070
     0
1000
MTEXTEND
1000
MTEXTBEGIN
1070
    73
1070
     1
1070
    44
1040
1.0
1070
    74
1070
     0
1000
MTEXTEND
1000
MTEXTBEGIN
1070
    73
1070
     1
1070
    44
1040
1.0
1070
    74
1070
     0
1000
MTEXTEND
  0
SOLID
  5
A9411
100
AcDbEntity
  8
AREA1
 62
     0
100
AcDbTrace
 10
-2.128093
 20
1.076975
 30
0.0
 11
-2.128093
 21
1.043641
 31
0.0
 12
-2.228093
 22
1.060308
 32
0.0
 13
-2.228093
 23
1.060308
 33
0.0
  0
SOLID
  5
A9412
100
AcDbEntity
  8
AREA1
 62
     0
100
AcDbTrace
 10
0.043407
 20
1.076975
 30
0.0
 11
0.043407
 21
1.043641
 31
0.0
 12
0.143407
 22
1.060308
 32
0.0
 13
0.143407
 23
1.060308
 33
0.0
  0
POINT
  5
A9413
100
AcDbEntity
  8
DEFPOINTS
 62
     0
100
AcDbPoint
 10
-2.228093
 20
0.54
 30
-0.733
  0
POINT
  5
A9414
100
AcDbEntity
  8
DEFPOINTS
 62
     0
100
AcDbPoint
 10
0.143407
 20
0.747
 30
0.0
  0
POINT
  5
A9415
100
AcDbEntity
  8
DEFPOINTS
 62
     0
100
AcDbPoint
 10
0.143407
 20
1.060308
 30
0.0
  0
ENDBLK
  5
A9417
100
AcDbEntity
  8
0
100
AcDbBlockEnd
  0
ENDSEC
  0
SECTION
  2
ENTITIES
  0
POLYLINE
  5
A928C
100
AcDbEntity
  8
0
100
AcDbPolygonMesh
 66
     1
 10
0.0
 20
0.0
 30
0.0
 70
    16
 71
     6
 72
     3
  0
VERTEX
  5
A928D
100
AcDbEntity
  8
0
100
AcDbVertex
100
AcDbPolygonMeshVertex
 10
-1.885093
 20
0.7
 30
-0.733
 70
    64
  0
VERTEX
  5
A928E
100
AcDbEntity
  8
0
100
AcDbVertex
100
AcDbPolygonMeshVertex
 10
-1.885093
 20
0.7
 30
-1.3
 70
    64
  0
VERTEX
  5
A928F
100
AcDbEntity
  8
0
100
AcDbVertex
100
AcDbPolygonMeshVertex
 10
-1.885093
 20
0.7
 30
-1.3
 70
    64
  0
VERTEX
  5
A9290
100
AcDbEntity
  8
0
100
AcDbVertex
100
AcDbPolygonMeshVertex
 10
-0.425093
 20
0.7
 30
-0.733
 70
    64
  0
VERTEX
  5
A9291
100
AcDbEntity
  8
0
100
AcDbVertex
100
AcDbPolygonMeshVertex
 10
-0.425093
 20
0.7
 30
-1.3
 70
    64
  0
VERTEX
  5
A9292
100
AcDbEntity
  8
0
100
AcDbVertex
100
AcDbPolygonMeshVertex
 10
-0.425093
 20
0.7
 30
-1.3
 70
    64
  0
VERTEX
  5
A9293
100
AcDbEntity
  8
0
100
AcDbVertex
100
AcDbPolygonMeshVertex
 10
-0.425093
 20
-0.7
 30
-0.733
 70
    64
  0
VERTEX
  5
A9294
100
AcDbEntity
  8
0
100
AcDbVertex
100
AcDbPolygonMeshVertex
 10
-0.425093
 20
-0.7
 30
-1.3
 70
    64
  0
VERTEX
  5
A9295
100
AcDbEntity
  8
0
100
AcDbVertex
100
AcDbPolygonMeshVertex
 10
-0.425093
 20
0.7
 30
-1.3
 70
    64
  0
VERTEX
  5
A9296
100
AcDbEntity
  8
0
100
AcDbVertex
100
AcDbPolygonMeshVertex
 10
-1.885093
 20
-0.7
 30
-0.733
 70
    64
  0
VERTEX
  5
A9297
100
AcDbEntity
  8
0
100
AcDbVertex
100
AcDbPolygonMeshVertex
 10
-1.885093
 20
-0.7
 30
-1.3
 70
    64
  0
VERTEX
  5
A9298
100
AcDbEntity
  8
0
100
AcDbVertex
100
AcDbPolygonMeshVertex
 10
-1.885093
 20
0.7
 30
-1.3
 70
    64
  0
VERTEX
  5
A9299
100
AcDbEntity
  8
0
100
AcDbVertex
100
AcDbPolygonMeshVertex
 10
-1.885093
 20
-0.7
 30
-0.733
 70
    64
  0
VERTEX
  5
A929A
100
AcDbEntity
  8
0
100
AcDbVertex
100
AcDbPolygonMeshVertex
 10
-1.885093
 20
-0.7
 30
-0.733
 70
    64
  0
VERTEX
  5
A929B
100
AcDbEntity
  8
0
100
AcDbVertex
100
AcDbPolygonMeshVertex
 10
-1.885093
 20
0.7
 30
-0.733
 70
    64
  0
VERTEX
  5
A929C
100
AcDbEntity
  8
0
100
AcDbVertex
100
AcDbPolygonMeshVertex
 10
-0.425093
 20
-0.7
 30
-0.733
 70
    64
  0
VERTEX
  5
A929D
100
AcDbEntity
  8
0
100
AcDbVertex
100
AcDbPolygonMeshVertex
 10
-0.425093
 20
-0.7
 30
-0.733
 70
    64
  0
VERTEX
  5
A929E
100
AcDbEntity
  8
0
100
AcDbVertex
100
AcDbPolygonMeshVertex
 10
-0.425093
 20
0.7
 30
-0.733
 70
    64
  0
SEQEND
  5
A929F
100
AcDbEntity
  8
0
  0
POLYLINE
  5
A92A0
100
AcDbEntity
  8
0
100
AcDbPolygonMesh
 66
     1
 10
0.0
 20
0.0
 30
0.0
 70
    16
 71
     6
 72
     3
  0
VERTEX
  5
A92A1
100
AcDbEntity
  8
0
100
AcDbVertex
100
AcDbPolygonMeshVertex
 10
-1.473093
 20
0.7
 30
-0.419
 70
    64
  0
VERTEX
  5
A92A2
100
AcDbEntity
  8
0
100
AcDbVertex
100
AcDbPolygonMeshVertex
 10
-1.473093
 20
0.7
 30
-0.733
 70
    64
  0
VERTEX
  5
A92A3
100
AcDbEntity
  8
0
100
AcDbVertex
100
AcDbPolygonMeshVertex
 10
-1.473093
 20
0.7
 30
-0.733
 70
    64
  0
VERTEX
  5
A92A4
100
AcDbEntity
  8
0
100
AcDbVertex
100
AcDbPolygonMeshVertex
 10
-0.785093
 20
0.7
 30
-0.419
 70
    64
  0
VERTEX
  5
A92A5
100
AcDbEntity
  8
0
100
AcDbVertex
100
AcDbPolygonMeshVertex
 10
-0.785093
 20
0.7
 30
-0.733
 70
    64
  0
VERTEX
  5
A92A6
100
AcDbEntity
  8
0
100
AcDbVertex
100
AcDbPolygonMeshVertex
 10
-0.785093
 20
0.7
 30
-0.733
 70
    64
  0
VERTEX
  5
A92A7
100
AcDbEntity
  8
0
100
AcDbVertex
100
AcDbPolygonMeshVertex
 10
-0.785093
 20
0.408
 30
-0.419
 70
    64
  0
VERTEX
  5
A92A8
100
AcDbEntity
  8
0
100
AcDbVertex
100
AcDbPolygonMeshVertex
 10
-0.785093
 20
0.408
 30
-0.733
 70
    64
  0
VERTEX
  5
A92A9
100
AcDbEntity
  8
0
100
AcDbVertex
100
AcDbPolygonMeshVertex
 10
-0.785093
 20
0.7
 30
-0.733
 70
    64
  0
VERTEX
  5
A92AA
100
AcDbEntity
  8
0
100
AcDbVertex
100
AcDbPolygonMeshVertex
 10
-1.473093
 20
0.408
 30
-0.419
 70
    64
  0
VERTEX
  5
A92AB
100
AcDbEntity
  8
0
100
AcDbVertex
100
AcDbPolygonMeshVertex
 10
-1.473093
 20
0.408
 30
-0.733
 70
    64
  0
VERTEX
  5
A92AC
100
AcDbEntity
  8
0
100
AcDbVertex
100
AcDbPolygonMeshVertex
 10
-1.473093
 20
0.7
 30
-0.733
 70
    64
  0
VERTEX
  5
A92AD
100
AcDbEntity
  8
0
100
AcDbVertex
100
AcDbPolygonMeshVertex
 10
-1.473093
 20
0.408
 30
-0.419
 70
    64
  0
VERTEX
  5
A92AE
100
AcDbEntity
  8
0
100
AcDbVertex
100
AcDbPolygonMeshVertex
 10
-1.473093
 20
0.408
 30
-0.419
 70
    64
  0
VERTEX
  5
A92AF
100
AcDbEntity
  8
0
100
AcDbVertex
100
AcDbPolygonMeshVertex
 10
-1.473093
 20
0.7
 30
-0.419
 70
    64
  0
VERTEX
  5
A92B0
100
AcDbEntity
  8
0
100
AcDbVertex
100
AcDbPolygonMeshVertex
 10
-0.785093
 20
0.408
 30
-0.419
 70
    64
  0
VERTEX
  5
A92B1
100
AcDbEntity
  8
0
100
AcDbVertex
100
AcDbPolygonMeshVertex
 10
-0.785093
 20
0.408
 30
-0.419
 70
    64
  0
VERTEX
  5
A92B2
100
AcDbEntity
  8
0
100
AcDbVertex
100
AcDbPolygonMeshVertex
 10
-0.785093
 20
0.7
 30
-0.419
 70
    64
  0
SEQEND
  5
A92B3
100
AcDbEntity
  8
0
  0
POLYLINE
  5
A92B4
100
AcDbEntity
  8
0
100
AcDbPolygonMesh
 66
     1
 10
0.0
 20
0.0
 30
0.0
 70
    16
 71
     6
 72
     3
  0
VERTEX
  5
A92B5
100
AcDbEntity
  8
0
100
AcDbVertex
100
AcDbPolygonMeshVertex
 10
-1.473093
 20
-0.408
 30
-0.419
 70
    64
  0
VERTEX
  5
A92B6
100
AcDbEntity
  8
0
100
AcDbVertex
100
AcDbPolygonMeshVertex
 10
-1.473093
 20
-0.408
 30
-0.733
 70
    64
  0
VERTEX
  5
A92B7
100
AcDbEntity
  8
0
100
AcDbVertex
100
AcDbPolygonMeshVertex
 10
-1.473093
 20
-0.408
 30
-0.733
 70
    64
  0
VERTEX
  5
A92B8
100
AcDbEntity
  8
0
100
AcDbVertex
100
AcDbPolygonMeshVertex
 10
-0.785093
 20
-0.408
 30
-0.419
 70
    64
  0
VERTEX
  5
A92B9
100
AcDbEntity
  8
0
100
AcDbVertex
100
AcDbPolygonMeshVertex
 10
-0.785093
 20
-0.408
 30
-0.733
 70
    64
  0
VERTEX
  5
A92BA
100
AcDbEntity
  8
0
100
AcDbVertex
100
AcDbPolygonMeshVertex
 10
-0.785093
 20
-0.408
 30
-0.733
 70
    64
  0
VERTEX
  5
A92BB
100
AcDbEntity
  8
0
100
AcDbVertex
100
AcDbPolygonMeshVertex
 10
-0.785093
 20
-0.7
 30
-0.419
 70
    64
  0
VERTEX
  5
A92BC
100
AcDbEntity
  8
0
100
AcDbVertex
100
AcDbPolygonMeshVertex
 10
-0.785093
 20
-0.7
 30
-0.733
 70
    64
  0
VERTEX
  5
A92BD
100
AcDbEntity
  8
0
100
AcDbVertex
100
AcDbPolygonMeshVertex
 10
-0.785093
 20
-0.408
 30
-0.733
 70
    64
  0
VERTEX
  5
A92BE
100
AcDbEntity
  8
0
100
AcDbVertex
100
AcDbPolygonMeshVertex
 10
-1.473093
 20
-0.7
 30
-0.419
 70
    64
  0
VERTEX
  5
A92BF
100
AcDbEntity
  8
0
100
AcDbVertex
100
AcDbPolygonMeshVertex
 10
-1.473093
 20
-0.7
 30
-0.733
 70
    64
  0
VERTEX
  5
A92C0
100
AcDbEntity
  8
0
100
AcDbVertex
100
AcDbPolygonMeshVertex
 10
-1.473093
 20
-0.408
 30
-0.733
 70
    64
  0
VERTEX
  5
A92C1
100
AcDbEntity
  8
0
100
AcDbVertex
100
AcDbPolygonMeshVertex
 10
-1.473093
 20
-0.7
 30
-0.419
 70
    64
  0
VERTEX
  5
A92C2
100
AcDbEntity
  8
0
100
AcDbVertex
100
AcDbPolygonMeshVertex
 10
-1.473093
 20
-0.7
 30
-0.419
 70
    64
  0
VERTEX
  5
A92C3
100
AcDbEntity
  8
0
100
AcDbVertex
100
AcDbPolygonMeshVertex
 10
-1.473093
 20
-0.408
 30
-0.419
 70
    64
  0
VERTEX
  5
A92C4
100
AcDbEntity
  8
0
100
AcDbVertex
100
AcDbPolygonMeshVertex
 10
-0.785093
 20
-0.7
 30
-0.419
 70
    64
  0
VERTEX
  5
A92C5
100
AcDbEntity
  8
0
100
AcDbVertex
100
AcDbPolygonMeshVertex
 10
-0.785093
 20
-0.7
 30
-0.419
 70
    64
  0
VERTEX
  5
A92C6
100
AcDbEntity
  8
0
100
AcDbVertex
100
AcDbPolygonMeshVertex
 10
-0.785093
 20
-0.408
 30
-0.419
 70
    64
  0
SEQEND
  5
A92C7
100
AcDbEntity
  8
0
  0
LWPOLYLINE
  5
A92C8
100
AcDbEntity
  8
0
100
AcDbPolyline
 90
        8
 70
     1
 43
0.0
 38
-0.538
 39
0.119
 10
-1.624093
 20
0.191082
 10
-1.624093
 20
-0.191082
 10
-1.341794
 20
-0.408
 10
-1.473093
 20
-0.408
 10
-1.704093
 20
-0.2305
 10
-1.704093
 20
0.2305
 10
-1.473093
 20
0.408
 10
-1.341794
 20
0.408
  0
LWPOLYLINE
  5
A92C9
100
AcDbEntity
  8
0
100
AcDbPolyline
 90
        2
 70
     0
 43
0.0
 38
-0.733
 39
0.195
 10
-1.473093
 20
0.30711
 10
-1.624093
 20
0.191082
  0
LWPOLYLINE
  5
A92CA
100
AcDbEntity
  8
0
100
AcDbPolyline
 90
        3
 70
     0
 43
0.0
 38
-0.733
 39
0.195
 10
-1.624093
 20
0.191082
 10
-1.624093
 20
-0.191082
 10
-1.473093
 20
-0.30711
  0
LWPOLYLINE
  5
A92CB
100
AcDbEntity
  8
0
100
AcDbPolyline
 90
        4
 70
     0
 43
0.0
 38
-0.733
 39
0.195
 10
-1.473093
 20
-0.408
 10
-1.704093
 20
-0.2305
 10
-1.704093
 20
0.2305
 10
-1.473093
 20
0.408
  0
3DFACE
  5
A92CC
100
AcDbEntity
  8
0
100
AcDbFace
 10
-1.341794
 20
-0.408
 30
-0.419
 11
-1.624093
 21
-0.191082
 31
-0.419
 12
-1.704093
 22
-0.2305
 32
-0.419
 13
-1.473093
 23
-0.408
 33
-0.419
 70
    15
  0
3DFACE
  5
A92CD
100
AcDbEntity
  8
0
100
AcDbFace
 10
-1.704093
 20
0.2305
 30
-0.419
 11
-1.624093
 21
0.191082
 31
-0.419
 12
-1.341794
 22
0.408
 32
-0.419
 13
-1.473093
 23
0.408
 33
-0.419
 70
    15
  0
3DFACE
  5
A92CE
100
AcDbEntity
  8
0
100
AcDbFace
 10
-1.704093
 20
-0.2305
 30
-0.419
 11
-1.704093
 21
0.2305
 31
-0.419
 12
-1.624093
 22
0.191082
 32
-0.419
 13
-1.624093
 23
-0.191082
 33
-0.419
 70
    15
  0
3DFACE
  5
A92CF
100
AcDbEntity
  8
0
100
AcDbFace
 10
-1.473093
 20
-0.30711
 30
-0.538
 11
-1.624093
 21
-0.191082
 31
-0.538
 12
-1.624093
 22
0.191082
 32
-0.538
 13
-1.473093
 23
0.30711
 33
-0.538
 70
    15
  0
CIRCLE
  5
A92D0
100
AcDbEntity
  8
0
100
AcDbCircle
 39
0.245
 10
-1.209593
 20
0.0
 30
-0.374
 40
0.4245
  0
POLYLINE
  5
A92D1
100
AcDbEntity
  8
0
100
AcDbPolygonMesh
 66
     1
 10
0.0
 20
0.0
 30
0.0
 70
    48
 71
     2
 72
    32
  0
VERTEX
  5
A92D2
100
AcDbEntity
  8
0
100
AcDbVertex
100
AcDbPolygonMeshVertex
 10
-1.634093
 20
0.0
 30
-0.129
 70
    64
  0
VERTEX
  5
A92D3
100
AcDbEntity
  8
0
100
AcDbVertex
100
AcDbPolygonMeshVertex
 10
-1.625936
 20
-0.082816
 30
-0.129
 70
    64
  0
VERTEX
  5
A92D4
100
AcDbEntity
  8
0
100
AcDbVertex
100
AcDbPolygonMeshVertex
 10
-1.60178
 20
-0.162449
 30
-0.129
 70
    64
  0
VERTEX
  5
A92D5
100
AcDbEntity
  8
0
100
AcDbVertex
100
AcDbPolygonMeshVertex
 10
-1.562552
 20
-0.23584
 30
-0.129
 70
    64
  0
VERTEX
  5
A92D6
100
AcDbEntity
  8
0
100
AcDbVertex
100
AcDbPolygonMeshVertex
 10
-1.50976
 20
-0.300167
 30
-0.129
 70
    64
  0
VERTEX
  5
A92D7
100
AcDbEntity
  8
0
100
AcDbVertex
100
AcDbPolygonMeshVertex
 10
-1.445433
 20
-0.352959
 30
-0.129
 70
    64
  0
VERTEX
  5
A92D8
100
AcDbEntity
  8
0
100
AcDbVertex
100
AcDbPolygonMeshVertex
 10
-1.372042
 20
-0.392187
 30
-0.129
 70
    64
  0
VERTEX
  5
A92D9
100
AcDbEntity
  8
0
100
AcDbVertex
100
AcDbPolygonMeshVertex
 10
-1.292409
 20
-0.416343
 30
-0.129
 70
    64
  0
VERTEX
  5
A92DA
100
AcDbEntity
  8
0
100
AcDbVertex
100
AcDbPolygonMeshVertex
 10
-1.209593
 20
-0.4245
 30
-0.129
 70
    64
  0
VERTEX
  5
A92DB
100
AcDbEntity
  8
0
100
AcDbVertex
100
AcDbPolygonMeshVertex
 10
-1.126777
 20
-0.416343
 30
-0.129
 70
    64
  0
VERTEX
  5
A92DC
100
AcDbEntity
  8
0
100
AcDbVertex
100
AcDbPolygonMeshVertex
 10
-1.047144
 20
-0.392187
 30
-0.129
 70
    64
  0
VERTEX
  5
A92DD
100
AcDbEntity
  8
0
100
AcDbVertex
100
AcDbPolygonMeshVertex
 10
-0.973753
 20
-0.352959
 30
-0.129
 70
    64
  0
VERTEX
  5
A92DE
100
AcDbEntity
  8
0
100
AcDbVertex
100
AcDbPolygonMeshVertex
 10
-0.909426
 20
-0.300167
 30
-0.129
 70
    64
  0
VERTEX
  5
A92DF
100
AcDbEntity
  8
0
100
AcDbVertex
100
AcDbPolygonMeshVertex
 10
-0.856634
 20
-0.23584
 30
-0.129
 70
    64
  0
VERTEX
  5
A92E0
100
AcDbEntity
  8
0
100
AcDbVertex
100
AcDbPolygonMeshVertex
 10
-0.817406
 20
-0.162449
 30
-0.129
 70
    64
  0
VERTEX
  5
A92E1
100
AcDbEntity
  8
0
100
AcDbVertex
100
AcDbPolygonMeshVertex
 10
-0.79325
 20
-0.082816
 30
-0.129
 70
    64
  0
VERTEX
  5
A92E2
100
AcDbEntity
  8
0
100
AcDbVertex
100
AcDbPolygonMeshVertex
 10
-0.785093
 20
0.0
 30
-0.129
 70
    64
  0
VERTEX
  5
A92E3
100
AcDbEntity
  8
0
100
AcDbVertex
100
AcDbPolygonMeshVertex
 10
-0.79325
 20
0.082816
 30
-0.129
 70
    64
  0
VERTEX
  5
A92E4
100
AcDbEntity
  8
0
100
AcDbVertex
100
AcDbPolygonMeshVertex
 10
-0.817406
 20
0.162449
 30
-0.129
 70
    64
  0
VERTEX
  5
A92E5
100
AcDbEntity
  8
0
100
AcDbVertex
100
AcDbPolygonMeshVertex
 10
-0.856634
 20
0.23584
 30
-0.129
 70
    64
  0
VERTEX
  5
A92E6
100
AcDbEntity
  8
0
100
AcDbVertex
100
AcDbPolygonMeshVertex
 10
-0.909426
 20
0.300167
 30
-0.129
 70
    64
  0
VERTEX
  5
A92E7
100
AcDbEntity
  8
0
100
AcDbVertex
100
AcDbPolygonMeshVertex
 10
-0.973753
 20
0.352959
 30
-0.129
 70
    64
  0
VERTEX
  5
A92E8
100
AcDbEntity
  8
0
100
AcDbVertex
100
AcDbPolygonMeshVertex
 10
-1.047144
 20
0.392187
 30
-0.129
 70
    64
  0
VERTEX
  5
A92E9
100
AcDbEntity
  8
0
100
AcDbVertex
100
AcDbPolygonMeshVertex
 10
-1.126777
 20
0.416343
 30
-0.129
 70
    64
  0
VERTEX
  5
A92EA
100
AcDbEntity
  8
0
100
AcDbVertex
100
AcDbPolygonMeshVertex
 10
-1.209593
 20
0.4245
 30
-0.129
 70
    64
  0
VERTEX
  5
A92EB
100
AcDbEntity
  8
0
100
AcDbVertex
100
AcDbPolygonMeshVertex
 10
-1.292409
 20
0.416343
 30
-0.129
 70
    64
  0
VERTEX
  5
A92EC
100
AcDbEntity
  8
0
100
AcDbVertex
100
AcDbPolygonMeshVertex
 10
-1.372042
 20
0.392187
 30
-0.129
 70
    64
  0
VERTEX
  5
A92ED
100
AcDbEntity
  8
0
100
AcDbVertex
100
AcDbPolygonMeshVertex
 10
-1.445433
 20
0.352959
 30
-0.129
 70
    64
  0
VERTEX
  5
A92EE
100
AcDbEntity
  8
0
100
AcDbVertex
100
AcDbPolygonMeshVertex
 10
-1.50976
 20
0.300167
 30
-0.129
 70
    64
  0
VERTEX
  5
A92EF
100
AcDbEntity
  8
0
100
AcDbVertex
100
AcDbPolygonMeshVertex
 10
-1.562552
 20
0.23584
 30
-0.129
 70
    64
  0
VERTEX
  5
A92F0
100
AcDbEntity
  8
0
100
AcDbVertex
100
AcDbPolygonMeshVertex
 10
-1.60178
 20
0.162449
 30
-0.129
 70
    64
  0
VERTEX
  5
A92F1
100
AcDbEntity
  8
0
100
AcDbVertex
100
AcDbPolygonMeshVertex
 10
-1.625936
 20
0.082816
 30
-0.129
 70
    64
  0
VERTEX
  5
A92F2
100
AcDbEntity
  8
0
100
AcDbVertex
100
AcDbPolygonMeshVertex
 10
-1.553593
 20
0.0
 30
-0.039
 70
    64
  0
VERTEX
  5
A92F3
100
AcDbEntity
  8
0
100
AcDbVertex
100
AcDbPolygonMeshVertex
 10
-1.546983
 20
-0.067111
 30
-0.039
 70
    64
  0
VERTEX
  5
A92F4
100
AcDbEntity
  8
0
100
AcDbVertex
100
AcDbPolygonMeshVertex
 10
-1.527408
 20
-0.131643
 30
-0.039
 70
    64
  0
VERTEX
  5
A92F5
100
AcDbEntity
  8
0
100
AcDbVertex
100
AcDbPolygonMeshVertex
 10
-1.495619
 20
-0.191116
 30
-0.039
 70
    64
  0
VERTEX
  5
A92F6
100
AcDbEntity
  8
0
100
AcDbVertex
100
AcDbPolygonMeshVertex
 10
-1.452838
 20
-0.243245
 30
-0.039
 70
    64
  0
VERTEX
  5
A92F7
100
AcDbEntity
  8
0
100
AcDbVertex
100
AcDbPolygonMeshVertex
 10
-1.400709
 20
-0.286026
 30
-0.039
 70
    64
  0
VERTEX
  5
A92F8
100
AcDbEntity
  8
0
100
AcDbVertex
100
AcDbPolygonMeshVertex
 10
-1.341236
 20
-0.317815
 30
-0.039
 70
    64
  0
VERTEX
  5
A92F9
100
AcDbEntity
  8
0
100
AcDbVertex
100
AcDbPolygonMeshVertex
 10
-1.276704
 20
-0.33739
 30
-0.039
 70
    64
  0
VERTEX
  5
A92FA
100
AcDbEntity
  8
0
100
AcDbVertex
100
AcDbPolygonMeshVertex
 10
-1.209593
 20
-0.344
 30
-0.039
 70
    64
  0
VERTEX
  5
A92FB
100
AcDbEntity
  8
0
100
AcDbVertex
100
AcDbPolygonMeshVertex
 10
-1.142482
 20
-0.33739
 30
-0.039
 70
    64
  0
VERTEX
  5
A92FC
100
AcDbEntity
  8
0
100
AcDbVertex
100
AcDbPolygonMeshVertex
 10
-1.07795
 20
-0.317815
 30
-0.039
 70
    64
  0
VERTEX
  5
A92FD
100
AcDbEntity
  8
0
100
AcDbVertex
100
AcDbPolygonMeshVertex
 10
-1.018477
 20
-0.286026
 30
-0.039
 70
    64
  0
VERTEX
  5
A92FE
100
AcDbEntity
  8
0
100
AcDbVertex
100
AcDbPolygonMeshVertex
 10
-0.966348
 20
-0.243245
 30
-0.039
 70
    64
  0
VERTEX
  5
A92FF
100
AcDbEntity
  8
0
100
AcDbVertex
100
AcDbPolygonMeshVertex
 10
-0.923567
 20
-0.191116
 30
-0.039
 70
    64
  0
VERTEX
  5
A9300
100
AcDbEntity
  8
0
100
AcDbVertex
100
AcDbPolygonMeshVertex
 10
-0.891778
 20
-0.131643
 30
-0.039
 70
    64
  0
VERTEX
  5
A9301
100
AcDbEntity
  8
0
100
AcDbVertex
100
AcDbPolygonMeshVertex
 10
-0.872203
 20
-0.067111
 30
-0.039
 70
    64
  0
VERTEX
  5
A9302
100
AcDbEntity
  8
0
100
AcDbVertex
100
AcDbPolygonMeshVertex
 10
-0.865593
 20
0.0
 30
-0.039
 70
    64
  0
VERTEX
  5
A9303
100
AcDbEntity
  8
0
100
AcDbVertex
100
AcDbPolygonMeshVertex
 10
-0.872203
 20
0.067111
 30
-0.039
 70
    64
  0
VERTEX
  5
A9304
100
AcDbEntity
  8
0
100
AcDbVertex
100
AcDbPolygonMeshVertex
 10
-0.891778
 20
0.131643
 30
-0.039
 70
    64
  0
VERTEX
  5
A9305
100
AcDbEntity
  8
0
100
AcDbVertex
100
AcDbPolygonMeshVertex
 10
-0.923567
 20
0.191116
 30
-0.039
 70
    64
  0
VERTEX
  5
A9306
100
AcDbEntity
  8
0
100
AcDbVertex
100
AcDbPolygonMeshVertex
 10
-0.966348
 20
0.243245
 30
-0.039
 70
    64
  0
VERTEX
  5
A9307
100
AcDbEntity
  8
0
100
AcDbVertex
100
AcDbPolygonMeshVertex
 10
-1.018477
 20
0.286026
 30
-0.039
 70
    64
  0
VERTEX
  5
A9308
100
AcDbEntity
  8
0
100
AcDbVertex
100
AcDbPolygonMeshVertex
 10
-1.07795
 20
0.317815
 30
-0.039
 70
    64
  0
VERTEX
  5
A9309
100
AcDbEntity
  8
0
100
AcDbVertex
100
AcDbPolygonMeshVertex
 10
-1.142482
 20
0.33739
 30
-0.039
 70
    64
  0
VERTEX
  5
A930A
100
AcDbEntity
  8
0
100
AcDbVertex
100
AcDbPolygonMeshVertex
 10
-1.209593
 20
0.344
 30
-0.039
 70
    64
  0
VERTEX
  5
A930B
100
AcDbEntity
  8
0
100
AcDbVertex
100
AcDbPolygonMeshVertex
 10
-1.276704
 20
0.33739
 30
-0.039
 70
    64
  0
VERTEX
  5
A930C
100
AcDbEntity
  8
0
100
AcDbVertex
100
AcDbPolygonMeshVertex
 10
-1.341236
 20
0.317815
 30
-0.039
 70
    64
  0
VERTEX
  5
A930D
100
AcDbEntity
  8
0
100
AcDbVertex
100
AcDbPolygonMeshVertex
 10
-1.400709
 20
0.286026
 30
-0.039
 70
    64
  0
VERTEX
  5
A930E
100
AcDbEntity
  8
0
100
AcDbVertex
100
AcDbPolygonMeshVertex
 10
-1.452838
 20
0.243245
 30
-0.039
 70
    64
  0
VERTEX
  5
A930F
100
AcDbEntity
  8
0
100
AcDbVertex
100
AcDbPolygonMeshVertex
 10
-1.495619
 20
0.191116
 30
-0.039
 70
    64
  0
VERTEX
  5
A9310
100
AcDbEntity
  8
0
100
AcDbVertex
100
AcDbPolygonMeshVertex
 10
-1.527408
 20
0.131643
 30
-0.039
 70
    64
  0
VERTEX
  5
A9311
100
AcDbEntity
  8
0
100
AcDbVertex
100
AcDbPolygonMeshVertex
 10
-1.546983
 20
0.067111
 30
-0.039
 70
    64
  0
SEQEND
  5
A9312
100
AcDbEntity
  8
0
  0
CIRCLE
  5
A9313
100
AcDbEntity
  8
0
100
AcDbCircle
 10
-1.209593
 20
0.0
 30
-0.039
 40
0.344
  0
CIRCLE
  5
A9314
100
AcDbEntity
  8
0
100
AcDbCircle
 39
0.164
 10
-1.209593
 20
0.0
 30
-0.538
 40
0.289
  0
CIRCLE
  5
A9315
100
AcDbEntity
  8
0
100
AcDbCircle
 10
-1.209593
 20
0.0
 30
-0.039
 40
0.186
  0
CIRCLE
  5
A9316
100
AcDbEntity
  8
0
100
AcDbCircle
 10
-0.605093
 20
0.43775
 30
-0.733
 40
0.04725
  0
CIRCLE
  5
A9317
100
AcDbEntity
  8
0
100
AcDbCircle
 10
-0.605093
 20
-0.43775
 30
-0.733
 40
0.04725
  0
POLYLINE
  5
A9318
100
AcDbEntity
  8
0
100
AcDbPolygonMesh
 66
     1
 10
0.0
 20
0.0
 30
0.0
 70
    16
 71
     6
 72
     3
  0
VERTEX
  5
A9319
100
AcDbEntity
  8
0
100
AcDbVertex
100
AcDbPolygonMeshVertex
 10
-1.885093
 20
-0.2305
 30
-0.591
 70
    64
  0
VERTEX
  5
A931A
100
AcDbEntity
  8
0
100
AcDbVertex
100
AcDbPolygonMeshVertex
 10
-1.885093
 20
-0.2305
 30
-0.733
 70
    64
  0
VERTEX
  5
A931B
100
AcDbEntity
  8
0
100
AcDbVertex
100
AcDbPolygonMeshVertex
 10
-1.885093
 20
-0.2305
 30
-0.733
 70
    64
  0
VERTEX
  5
A931C
100
AcDbEntity
  8
0
100
AcDbVertex
100
AcDbPolygonMeshVertex
 10
-1.885093
 20
0.2305
 30
-0.591
 70
    64
  0
VERTEX
  5
A931D
100
AcDbEntity
  8
0
100
AcDbVertex
100
AcDbPolygonMeshVertex
 10
-1.885093
 20
0.2305
 30
-0.733
 70
    64
  0
VERTEX
  5
A931E
100
AcDbEntity
  8
0
100
AcDbVertex
100
AcDbPolygonMeshVertex
 10
-1.885093
 20
0.2305
 30
-0.733
 70
    64
  0
VERTEX
  5
A931F
100
AcDbEntity
  8
0
100
AcDbVertex
100
AcDbPolygonMeshVertex
 10
-1.704093
 20
0.2305
 30
-0.591
 70
    64
  0
VERTEX
  5
A9320
100
AcDbEntity
  8
0
100
AcDbVertex
100
AcDbPolygonMeshVertex
 10
-1.704093
 20
0.2305
 30
-0.733
 70
    64
  0
VERTEX
  5
A9321
100
AcDbEntity
  8
0
100
AcDbVertex
100
AcDbPolygonMeshVertex
 10
-1.885093
 20
0.2305
 30
-0.733
 70
    64
  0
VERTEX
  5
A9322
100
AcDbEntity
  8
0
100
AcDbVertex
100
AcDbPolygonMeshVertex
 10
-1.704093
 20
-0.2305
 30
-0.591
 70
    64
  0
VERTEX
  5
A9323
100
AcDbEntity
  8
0
100
AcDbVertex
100
AcDbPolygonMeshVertex
 10
-1.704093
 20
-0.2305
 30
-0.733
 70
    64
  0
VERTEX
  5
A9324
100
AcDbEntity
  8
0
100
AcDbVertex
100
AcDbPolygonMeshVertex
 10
-1.885093
 20
-0.2305
 30
-0.733
 70
    64
  0
VERTEX
  5
A9325
100
AcDbEntity
  8
0
100
AcDbVertex
100
AcDbPolygonMeshVertex
 10
-1.704093
 20
-0.2305
 30
-0.591
 70
    64
  0
VERTEX
  5
A9326
100
AcDbEntity
  8
0
100
AcDbVertex
100
AcDbPolygonMeshVertex
 10
-1.704093
 20
-0.2305
 30
-0.591
 70
    64
  0
VERTEX
  5
A9327
100
AcDbEntity
  8
0
100
AcDbVertex
100
AcDbPolygonMeshVertex
 10
-1.885093
 20
-0.2305
 30
-0.591
 70
    64
  0
VERTEX
  5
A9328
100
AcDbEntity
  8
0
100
AcDbVertex
100
AcDbPolygonMeshVertex
 10
-1.704093
 20
0.2305
 30
-0.591
 70
    64
  0
VERTEX
  5
A9329
100
AcDbEntity
  8
0
100
AcDbVertex
100
AcDbPolygonMeshVertex
 10
-1.704093
 20
0.2305
 30
-0.591
 70
    64
  0
VERTEX
  5
A932A
100
AcDbEntity
  8
0
100
AcDbVertex
100
AcDbPolygonMeshVertex
 10
-1.885093
 20
0.2305
 30
-0.591
 70
    64
  0
SEQEND
  5
A932B
100
AcDbEntity
  8
0
  0
CIRCLE
  5
A932C
100
AcDbEntity
  8
0
100
AcDbCircle
 39
0.116
 10
-2.056593
 20
0.3545
 30
-1.009
 40
0.12
  0
LINE
  5
A932D
100
AcDbEntity
  8
0
100
AcDbLine
 10
-2.036593
 20
0.236178
 30
-1.009
 11
-2.036593
 21
0.472822
 31
-1.009
  0
LINE
  5
A932E
100
AcDbEntity
  8
0
100
AcDbLine
 10
-2.076593
 20
0.236178
 30
-1.009
 11
-2.076593
 21
0.472822
 31
-1.009
  0
POLYLINE
  5
A932F
100
AcDbEntity
  8
0
100
AcDbPolygonMesh
 66
     1
 10
0.0
 20
0.0
 30
0.0
 70
    16
 71
     6
 72
     3
  0
VERTEX
  5
A9330
100
AcDbEntity
  8
0
100
AcDbVertex
100
AcDbPolygonMeshVertex
 10
-2.228093
 20
0.169
 30
-0.733
 70
    64
  0
VERTEX
  5
A9331
100
AcDbEntity
  8
0
100
AcDbVertex
100
AcDbPolygonMeshVertex
 10
-2.228093
 20
0.169
 30
-0.893
 70
    64
  0
VERTEX
  5
A9332
100
AcDbEntity
  8
0
100
AcDbVertex
100
AcDbPolygonMeshVertex
 10
-2.228093
 20
0.169
 30
-0.893
 70
    64
  0
VERTEX
  5
A9333
100
AcDbEntity
  8
0
100
AcDbVertex
100
AcDbPolygonMeshVertex
 10
-2.228093
 20
0.54
 30
-0.733
 70
    64
  0
VERTEX
  5
A9334
100
AcDbEntity
  8
0
100
AcDbVertex
100
AcDbPolygonMeshVertex
 10
-2.228093
 20
0.54
 30
-0.893
 70
    64
  0
VERTEX
  5
A9335
100
AcDbEntity
  8
0
100
AcDbVertex
100
AcDbPolygonMeshVertex
 10
-2.228093
 20
0.54
 30
-0.893
 70
    64
  0
VERTEX
  5
A9336
100
AcDbEntity
  8
0
100
AcDbVertex
100
AcDbPolygonMeshVertex
 10
-1.885093
 20
0.54
 30
-0.733
 70
    64
  0
VERTEX
  5
A9337
100
AcDbEntity
  8
0
100
AcDbVertex
100
AcDbPolygonMeshVertex
 10
-1.885093
 20
0.54
 30
-0.893
 70
    64
  0
VERTEX
  5
A9338
100
AcDbEntity
  8
0
100
AcDbVertex
100
AcDbPolygonMeshVertex
 10
-2.228093
 20
0.54
 30
-0.893
 70
    64
  0
VERTEX
  5
A9339
100
AcDbEntity
  8
0
100
AcDbVertex
100
AcDbPolygonMeshVertex
 10
-1.885093
 20
0.169
 30
-0.733
 70
    64
  0
VERTEX
  5
A933A
100
AcDbEntity
  8
0
100
AcDbVertex
100
AcDbPolygonMeshVertex
 10
-1.885093
 20
0.169
 30
-0.893
 70
    64
  0
VERTEX
  5
A933B
100
AcDbEntity
  8
0
100
AcDbVertex
100
AcDbPolygonMeshVertex
 10
-2.228093
 20
0.169
 30
-0.893
 70
    64
  0
VERTEX
  5
A933C
100
AcDbEntity
  8
0
100
AcDbVertex
100
AcDbPolygonMeshVertex
 10
-1.885093
 20
0.169
 30
-0.733
 70
    64
  0
VERTEX
  5
A933D
100
AcDbEntity
  8
0
100
AcDbVertex
100
AcDbPolygonMeshVertex
 10
-1.885093
 20
0.169
 30
-0.733
 70
    64
  0
VERTEX
  5
A933E
100
AcDbEntity
  8
0
100
AcDbVertex
100
AcDbPolygonMeshVertex
 10
-2.228093
 20
0.169
 30
-0.733
 70
    64
  0
VERTEX
  5
A933F
100
AcDbEntity
  8
0
100
AcDbVertex
100
AcDbPolygonMeshVertex
 10
-1.885093
 20
0.54
 30
-0.733
 70
    64
  0
VERTEX
  5
A9340
100
AcDbEntity
  8
0
100
AcDbVertex
100
AcDbPolygonMeshVertex
 10
-1.885093
 20
0.54
 30
-0.733
 70
    64
  0
VERTEX
  5
A9341
100
AcDbEntity
  8
0
100
AcDbVertex
100
AcDbPolygonMeshVertex
 10
-2.228093
 20
0.54
 30
-0.733
 70
    64
  0
SEQEND
  5
A9342
100
AcDbEntity
  8
0
  0
POLYLINE
  5
A9343
100
AcDbEntity
  8
0
100
AcDbPolygonMesh
 66
     1
 10
0.0
 20
0.0
 30
0.0
 70
    16
 71
     6
 72
     3
  0
VERTEX
  5
A9344
100
AcDbEntity
  8
0
100
AcDbVertex
100
AcDbPolygonMeshVertex
 10
-2.228093
 20
-0.169
 30
-0.733
 70
    64
  0
VERTEX
  5
A9345
100
AcDbEntity
  8
0
100
AcDbVertex
100
AcDbPolygonMeshVertex
 10
-2.228093
 20
-0.169
 30
-0.893
 70
    64
  0
VERTEX
  5
A9346
100
AcDbEntity
  8
0
100
AcDbVertex
100
AcDbPolygonMeshVertex
 10
-2.228093
 20
-0.169
 30
-0.893
 70
    64
  0
VERTEX
  5
A9347
100
AcDbEntity
  8
0
100
AcDbVertex
100
AcDbPolygonMeshVertex
 10
-2.228093
 20
-0.54
 30
-0.733
 70
    64
  0
VERTEX
  5
A9348
100
AcDbEntity
  8
0
100
AcDbVertex
100
AcDbPolygonMeshVertex
 10
-2.228093
 20
-0.54
 30
-0.893
 70
    64
  0
VERTEX
  5
A9349
100
AcDbEntity
  8
0
100
AcDbVertex
100
AcDbPolygonMeshVertex
 10
-2.228093
 20
-0.54
 30
-0.893
 70
    64
  0
VERTEX
  5
A934A
100
AcDbEntity
  8
0
100
AcDbVertex
100
AcDbPolygonMeshVertex
 10
-1.885093
 20
-0.54
 30
-0.733
 70
    64
  0
VERTEX
  5
A934B
100
AcDbEntity
  8
0
100
AcDbVertex
100
AcDbPolygonMeshVertex
 10
-1.885093
 20
-0.54
 30
-0.893
 70
    64
  0
VERTEX
  5
A934C
100
AcDbEntity
  8
0
100
AcDbVertex
100
AcDbPolygonMeshVertex
 10
-2.228093
 20
-0.54
 30
-0.893
 70
    64
  0
VERTEX
  5
A934D
100
AcDbEntity
  8
0
100
AcDbVertex
100
AcDbPolygonMeshVertex
 10
-1.885093
 20
-0.169
 30
-0.733
 70
    64
  0
VERTEX
  5
A934E
100
AcDbEntity
  8
0
100
AcDbVertex
100
AcDbPolygonMeshVertex
 10
-1.885093
 20
-0.169
 30
-0.893
 70
    64
  0
VERTEX
  5
A934F
100
AcDbEntity
  8
0
100
AcDbVertex
100
AcDbPolygonMeshVertex
 10
-2.228093
 20
-0.169
 30
-0.893
 70
    64
  0
VERTEX
  5
A9350
100
AcDbEntity
  8
0
100
AcDbVertex
100
AcDbPolygonMeshVertex
 10
-1.885093
 20
-0.169
 30
-0.733
 70
    64
  0
VERTEX
  5
A9351
100
AcDbEntity
  8
0
100
AcDbVertex
100
AcDbPolygonMeshVertex
 10
-1.885093
 20
-0.169
 30
-0.733
 70
    64
  0
VERTEX
  5
A9352
100
AcDbEntity
  8
0
100
AcDbVertex
100
AcDbPolygonMeshVertex
 10
-2.228093
 20
-0.169
 30
-0.733
 70
    64
  0
VERTEX
  5
A9353
100
AcDbEntity
  8
0
100
AcDbVertex
100
AcDbPolygonMeshVertex
 10
-1.885093
 20
-0.54
 30
-0.733
 70
    64
  0
VERTEX
  5
A9354
100
AcDbEntity
  8
0
100
AcDbVertex
100
AcDbPolygonMeshVertex
 10
-1.885093
 20
-0.54
 30
-0.733
 70
    64
  0
VERTEX
  5
A9355
100
AcDbEntity
  8
0
100
AcDbVertex
100
AcDbPolygonMeshVertex
 10
-2.228093
 20
-0.54
 30
-0.733
 70
    64
  0
SEQEND
  5
A9356
100
AcDbEntity
  8
0
  0
CIRCLE
  5
A9357
100
AcDbEntity
  8
0
100
AcDbCircle
 39
0.116
 10
-2.056593
 20
-0.3545
 30
-1.009
 40
0.12
  0
LINE
  5
A9358
100
AcDbEntity
  8
0
100
AcDbLine
 10
-2.036593
 20
-0.236178
 30
-1.009
 11
-2.036593
 21
-0.472822
 31
-1.009
  0
LINE
  5
A9359
100
AcDbEntity
  8
0
100
AcDbLine
 10
-2.076593
 20
-0.236178
 30
-1.009
 11
-2.076593
 21
-0.472822
 31
-1.009
  0
LINE
  5
A935A
100
AcDbEntity
  8
0
100
AcDbLine
 10
-1.847985
 20
0.118322
 30
-1.3
 11
-1.847985
 21
-0.118322
 31
-1.3
  0
LINE
  5
A935B
100
AcDbEntity
  8
0
100
AcDbLine
 10
-1.887985
 20
0.118322
 30
-1.3
 11
-1.887985
 21
-0.118322
 31
-1.3
  0
CIRCLE
  5
A935C
100
AcDbEntity
  8
0
100
AcDbCircle
 39
0.116
 10
-1.867985
 20
0.0
 30
-1.3
 40
0.12
  0
POLYLINE
  5
A935D
100
AcDbEntity
  8
0
100
AcDbPolygonMesh
 66
     1
 10
0.0
 20
0.0
 30
0.0
 70
    16
 71
     6
 72
     3
  0
VERTEX
  5
A935E
100
AcDbEntity
  8
0
100
AcDbVertex
100
AcDbPolygonMeshVertex
 10
-2.060093
 20
-0.1685
 30
-0.591
 70
    64
  0
VERTEX
  5
A935F
100
AcDbEntity
  8
0
100
AcDbVertex
100
AcDbPolygonMeshVertex
 10
-2.060093
 20
-0.1685
 30
-1.184
 70
    64
  0
VERTEX
  5
A9360
100
AcDbEntity
  8
0
100
AcDbVertex
100
AcDbPolygonMeshVertex
 10
-2.060093
 20
-0.1685
 30
-1.184
 70
    64
  0
VERTEX
  5
A9361
100
AcDbEntity
  8
0
100
AcDbVertex
100
AcDbPolygonMeshVertex
 10
-2.060093
 20
0.1685
 30
-0.591
 70
    64
  0
VERTEX
  5
A9362
100
AcDbEntity
  8
0
100
AcDbVertex
100
AcDbPolygonMeshVertex
 10
-2.060093
 20
0.1685
 30
-1.184
 70
    64
  0
VERTEX
  5
A9363
100
AcDbEntity
  8
0
100
AcDbVertex
100
AcDbPolygonMeshVertex
 10
-2.060093
 20
0.1685
 30
-1.184
 70
    64
  0
VERTEX
  5
A9364
100
AcDbEntity
  8
0
100
AcDbVertex
100
AcDbPolygonMeshVertex
 10
-1.885093
 20
0.1685
 30
-0.591
 70
    64
  0
VERTEX
  5
A9365
100
AcDbEntity
  8
0
100
AcDbVertex
100
AcDbPolygonMeshVertex
 10
-1.885093
 20
0.1685
 30
-1.184
 70
    64
  0
VERTEX
  5
A9366
100
AcDbEntity
  8
0
100
AcDbVertex
100
AcDbPolygonMeshVertex
 10
-2.060093
 20
0.1685
 30
-1.184
 70
    64
  0
VERTEX
  5
A9367
100
AcDbEntity
  8
0
100
AcDbVertex
100
AcDbPolygonMeshVertex
 10
-1.885093
 20
-0.1685
 30
-0.591
 70
    64
  0
VERTEX
  5
A9368
100
AcDbEntity
  8
0
100
AcDbVertex
100
AcDbPolygonMeshVertex
 10
-1.885093
 20
-0.1685
 30
-1.184
 70
    64
  0
VERTEX
  5
A9369
100
AcDbEntity
  8
0
100
AcDbVertex
100
AcDbPolygonMeshVertex
 10
-2.060093
 20
-0.1685
 30
-1.184
 70
    64
  0
VERTEX
  5
A936A
100
AcDbEntity
  8
0
100
AcDbVertex
100
AcDbPolygonMeshVertex
 10
-1.885093
 20
-0.1685
 30
-0.591
 70
    64
  0
VERTEX
  5
A936B
100
AcDbEntity
  8
0
100
AcDbVertex
100
AcDbPolygonMeshVertex
 10
-1.885093
 20
-0.1685
 30
-0.591
 70
    64
  0
VERTEX
  5
A936C
100
AcDbEntity
  8
0
100
AcDbVertex
100
AcDbPolygonMeshVertex
 10
-2.060093
 20
-0.1685
 30
-0.591
 70
    64
  0
VERTEX
  5
A936D
100
AcDbEntity
  8
0
100
AcDbVertex
100
AcDbPolygonMeshVertex
 10
-1.885093
 20
0.1685
 30
-0.591
 70
    64
  0
VERTEX
  5
A936E
100
AcDbEntity
  8
0
100
AcDbVertex
100
AcDbPolygonMeshVertex
 10
-1.885093
 20
0.1685
 30
-0.591
 70
    64
  0
VERTEX
  5
A936F
100
AcDbEntity
  8
0
100
AcDbVertex
100
AcDbPolygonMeshVertex
 10
-2.060093
 20
0.1685
 30
-0.591
 70
    64
  0
SEQEND
  5
A9370
100
AcDbEntity
  8
0
  0
ARC
  5
A9371
100
AcDbEntity
  8
0
100
AcDbCircle
 10
-1.867985
 20
0.0
 30
-1.3
 40
0.156487
100
AcDbArc
 50
263.723506
 51
96.276494
  0
LINE
  5
A9372
100
AcDbEntity
  8
0
100
AcDbLine
 10
-1.885093
 20
-0.155549
 30
-1.3
 11
-1.885093
 21
-0.155549
 31
-1.184
  0
LINE
  5
A9373
100
AcDbEntity
  8
0
100
AcDbLine
 10
-1.885093
 20
0.155549
 30
-1.3
 11
-1.885093
 21
0.155549
 31
-1.184
  0
LWPOLYLINE
  5
A9374
100
AcDbEntity
  8
0
100
AcDbPolyline
 90
        6
 70
     1
 43
0.0
 38
-1.827
 39
0.527
 10
-0.866093
 20
0.076
 10
-1.839641
 20
0.672167
 10
-1.868865
 20
0.649121
 10
-1.530093
 20
-0.413
 10
-1.364747
 20
-0.363566
 10
-0.972139
 20
-0.053955
  0
3DFACE
  5
A9375
100
AcDbEntity
  8
0
100
AcDbFace
 10
-0.866093
 20
0.076
 30
-1.827
 11
-0.972139
 21
-0.053955
 31
-1.827
 12
-1.364747
 22
-0.363566
 32
-1.827
 13
-1.530093
 23
-0.413
 33
-1.827
 70
    15
  0
3DFACE
  5
A9376
100
AcDbEntity
  8
0
100
AcDbFace
 10
-0.866093
 20
0.076
 30
-1.827
 11
-1.530093
 21
-0.413
 31
-1.827
 12
-1.868865
 22
0.649121
 32
-1.827
 13
-1.839641
 23
0.672167
 33
-1.827
 70
    15
  0
CIRCLE
  5
A9377
100
AcDbEntity
  8
0
100
AcDbCircle
 10
-1.33039
 20
-0.003401
 30
-1.827
 40
0.094
  0
LINE
  5
A9378
100
AcDbEntity
  8
0
100
AcDbLine
 10
-1.390126
 20
-0.075979
 30
-1.827
 11
-1.245886
 21
0.037769
 31
-1.827
  0
LINE
  5
A9379
100
AcDbEntity
  8
0
100
AcDbLine
 10
-1.414895
 20
-0.04457
 30
-1.827
 11
-1.270655
 21
0.069178
 31
-1.827
  0
LWPOLYLINE
  5
A937A
100
AcDbEntity
  8
0
100
AcDbPolyline
 90
        2
 70
     0
 43
0.02
 38
-1.827
 10
-1.331834
 20
-0.149897
 42
0.352391
 10
-1.187594
 20
-0.036149
 42
0.352391
  0
LWPOLYLINE
  5
A937B
100
AcDbEntity
  8
0
100
AcDbPolyline
 90
        2
 70
     0
 38
-1.827
 10
-1.187594
 20
-0.036149
 40
0.04
 41
0.0
 10
-1.178598
 20
0.004306
 40
0.0
 41
0.0
  0
CIRCLE
  5
A937C
100
AcDbEntity
  8
0
100
AcDbCircle
 10
-0.552319
 20
0.0
 30
-1.3
 40
0.04725
  0
CIRCLE
  5
A937D
100
AcDbEntity
  8
0
100
AcDbCircle
 39
0.08
 10
-0.605093
 20
0.43775
 30
-1.38
 40
0.12
  0
LINE
  5
A937E
100
AcDbEntity
  8
0
100
AcDbLine
 10
-0.625093
 20
0.556072
 30
-1.38
 11
-0.625093
 21
0.319428
 31
-1.38
  0
LINE
  5
A937F
100
AcDbEntity
  8
0
100
AcDbLine
 10
-0.585093
 20
0.556072
 30
-1.38
 11
-0.585093
 21
0.319428
 31
-1.38
  0
CIRCLE
  5
A9380
100
AcDbEntity
  8
0
100
AcDbCircle
 39
0.08
 10
-0.605093
 20
-0.43775
 30
-1.38
 40
0.12
  0
LINE
  5
A9381
100
AcDbEntity
  8
0
100
AcDbLine
 10
-0.585093
 20
-0.556072
 30
-1.38
 11
-0.585093
 21
-0.319428
 31
-1.38
  0
LINE
  5
A9382
100
AcDbEntity
  8
0
100
AcDbLine
 10
-0.625093
 20
-0.556072
 30
-1.38
 11
-0.625093
 21
-0.319428
 31
-1.38
  0
CIRCLE
  5
A9383
100
AcDbEntity
  8
0
100
AcDbCircle
 39
0.08
 10
-0.552319
 20
0.0
 30
-1.38
 40
0.12
  0
LINE
  5
A9384
100
AcDbEntity
  8
0
100
AcDbLine
 10
-0.572319
 20
-0.118322
 30
-1.38
 11
-0.572319
 21
0.118322
 31
-1.38
  0
LINE
  5
A9385
100
AcDbEntity
  8
0
100
AcDbLine
 10
-0.532319
 20
-0.118322
 30
-1.38
 11
-0.532319
 21
0.118322
 31
-1.38
  0
LINE
  5
A9386
100
AcDbEntity
  8
0
100
AcDbLine
 10
-0.777593
 20
0.623
 30
-0.733
 11
-0.432593
 21
0.623
 31
-0.733
  0
LINE
  5
A9387
100
AcDbEntity
  8
0
100
AcDbLine
 10
-0.777593
 20
-0.623
 30
-0.733
 11
-0.432593
 21
-0.623
 31
-0.733
  0
LINE
  5
A9388
100
AcDbEntity
  8
0
100
AcDbLine
 10
-0.777593
 20
0.623
 30
-0.733
 11
-0.777593
 21
-0.623
 31
-0.733
  0
LINE
  5
A9389
100
AcDbEntity
  8
0
100
AcDbLine
 10
-0.432593
 20
0.623
 30
-0.733
 11
-0.432593
 21
-0.623
 31
-0.733
  0
POLYLINE
  5
A938A
100
AcDbEntity
  8
0
100
AcDbPolygonMesh
 66
     1
 10
0.0
 20
0.0
 30
0.0
 70
    16
 71
     6
 72
     3
  0
VERTEX
  5
A938B
100
AcDbEntity
  8
0
100
AcDbVertex
100
AcDbPolygonMeshVertex
 10
-0.777593
 20
0.623
 30
-0.666
 70
    64
  0
VERTEX
  5
A938C
100
AcDbEntity
  8
0
100
AcDbVertex
100
AcDbPolygonMeshVertex
 10
-0.777593
 20
0.623
 30
-0.733
 70
    64
  0
VERTEX
  5
A938D
100
AcDbEntity
  8
0
100
AcDbVertex
100
AcDbPolygonMeshVertex
 10
-0.777593
 20
0.623
 30
-0.733
 70
    64
  0
VERTEX
  5
A938E
100
AcDbEntity
  8
0
100
AcDbVertex
100
AcDbPolygonMeshVertex
 10
-0.432593
 20
0.623
 30
-0.666
 70
    64
  0
VERTEX
  5
A938F
100
AcDbEntity
  8
0
100
AcDbVertex
100
AcDbPolygonMeshVertex
 10
-0.432593
 20
0.623
 30
-0.733
 70
    64
  0
VERTEX
  5
A9390
100
AcDbEntity
  8
0
100
AcDbVertex
100
AcDbPolygonMeshVertex
 10
-0.432593
 20
0.623
 30
-0.733
 70
    64
  0
VERTEX
  5
A9391
100
AcDbEntity
  8
0
100
AcDbVertex
100
AcDbPolygonMeshVertex
 10
-0.432593
 20
-0.623
 30
-0.666
 70
    64
  0
VERTEX
  5
A9392
100
AcDbEntity
  8
0
100
AcDbVertex
100
AcDbPolygonMeshVertex
 10
-0.432593
 20
-0.623
 30
-0.733
 70
    64
  0
VERTEX
  5
A9393
100
AcDbEntity
  8
0
100
AcDbVertex
100
AcDbPolygonMeshVertex
 10
-0.432593
 20
0.623
 30
-0.733
 70
    64
  0
VERTEX
  5
A9394
100
AcDbEntity
  8
0
100
AcDbVertex
100
AcDbPolygonMeshVertex
 10
-0.777593
 20
-0.623
 30
-0.666
 70
    64
  0
VERTEX
  5
A9395
100
AcDbEntity
  8
0
100
AcDbVertex
100
AcDbPolygonMeshVertex
 10
-0.777593
 20
-0.623
 30
-0.733
 70
    64
  0
VERTEX
  5
A9396
100
AcDbEntity
  8
0
100
AcDbVertex
100
AcDbPolygonMeshVertex
 10
-0.777593
 20
0.623
 30
-0.733
 70
    64
  0
VERTEX
  5
A9397
100
AcDbEntity
  8
0
100
AcDbVertex
100
AcDbPolygonMeshVertex
 10
-0.777593
 20
-0.623
 30
-0.666
 70
    64
  0
VERTEX
  5
A9398
100
AcDbEntity
  8
0
100
AcDbVertex
100
AcDbPolygonMeshVertex
 10
-0.777593
 20
-0.623
 30
-0.666
 70
    64
  0
VERTEX
  5
A9399
100
AcDbEntity
  8
0
100
AcDbVertex
100
AcDbPolygonMeshVertex
 10
-0.777593
 20
0.623
 30
-0.666
 70
    64
  0
VERTEX
  5
A939A
100
AcDbEntity
  8
0
100
AcDbVertex
100
AcDbPolygonMeshVertex
 10
-0.432593
 20
-0.623
 30
-0.666
 70
    64
  0
VERTEX
  5
A939B
100
AcDbEntity
  8
0
100
AcDbVertex
100
AcDbPolygonMeshVertex
 10
-0.432593
 20
-0.623
 30
-0.666
 70
    64
  0
VERTEX
  5
A939C
100
AcDbEntity
  8
0
100
AcDbVertex
100
AcDbPolygonMeshVertex
 10
-0.432593
 20
0.623
 30
-0.666
 70
    64
  0
SEQEND
  5
A939D
100
AcDbEntity
  8
0
  0
POLYLINE
  5
A939E
100
AcDbEntity
  8
0
100
AcDbPolygonMesh
 66
     1
 10
0.0
 20
0.0
 30
0.0
 70
    16
 71
     6
 72
     3
  0
VERTEX
  5
A939F
100
AcDbEntity
  8
0
100
AcDbVertex
100
AcDbPolygonMeshVertex
 10
-0.499593
 20
0.623
 30
-0.408
 70
    64
  0
VERTEX
  5
A93A0
100
AcDbEntity
  8
0
100
AcDbVertex
100
AcDbPolygonMeshVertex
 10
-0.499593
 20
0.623
 30
-0.666
 70
    64
  0
VERTEX
  5
A93A1
100
AcDbEntity
  8
0
100
AcDbVertex
100
AcDbPolygonMeshVertex
 10
-0.499593
 20
0.623
 30
-0.666
 70
    64
  0
VERTEX
  5
A93A2
100
AcDbEntity
  8
0
100
AcDbVertex
100
AcDbPolygonMeshVertex
 10
-0.432593
 20
0.623
 30
-0.408
 70
    64
  0
VERTEX
  5
A93A3
100
AcDbEntity
  8
0
100
AcDbVertex
100
AcDbPolygonMeshVertex
 10
-0.432593
 20
0.623
 30
-0.666
 70
    64
  0
VERTEX
  5
A93A4
100
AcDbEntity
  8
0
100
AcDbVertex
100
AcDbPolygonMeshVertex
 10
-0.432593
 20
0.623
 30
-0.666
 70
    64
  0
VERTEX
  5
A93A5
100
AcDbEntity
  8
0
100
AcDbVertex
100
AcDbPolygonMeshVertex
 10
-0.432593
 20
-0.623
 30
-0.408
 70
    64
  0
VERTEX
  5
A93A6
100
AcDbEntity
  8
0
100
AcDbVertex
100
AcDbPolygonMeshVertex
 10
-0.432593
 20
-0.623
 30
-0.666
 70
    64
  0
VERTEX
  5
A93A7
100
AcDbEntity
  8
0
100
AcDbVertex
100
AcDbPolygonMeshVertex
 10
-0.432593
 20
0.623
 30
-0.666
 70
    64
  0
VERTEX
  5
A93A8
100
AcDbEntity
  8
0
100
AcDbVertex
100
AcDbPolygonMeshVertex
 10
-0.499593
 20
-0.623
 30
-0.408
 70
    64
  0
VERTEX
  5
A93A9
100
AcDbEntity
  8
0
100
AcDbVertex
100
AcDbPolygonMeshVertex
 10
-0.499593
 20
-0.623
 30
-0.666
 70
    64
  0
VERTEX
  5
A93AA
100
AcDbEntity
  8
0
100
AcDbVertex
100
AcDbPolygonMeshVertex
 10
-0.499593
 20
0.623
 30
-0.666
 70
    64
  0
VERTEX
  5
A93AB
100
AcDbEntity
  8
0
100
AcDbVertex
100
AcDbPolygonMeshVertex
 10
-0.499593
 20
-0.623
 30
-0.408
 70
    64
  0
VERTEX
  5
A93AC
100
AcDbEntity
  8
0
100
AcDbVertex
100
AcDbPolygonMeshVertex
 10
-0.499593
 20
-0.623
 30
-0.408
 70
    64
  0
VERTEX
  5
A93AD
100
AcDbEntity
  8
0
100
AcDbVertex
100
AcDbPolygonMeshVertex
 10
-0.499593
 20
0.623
 30
-0.408
 70
    64
  0
VERTEX
  5
A93AE
100
AcDbEntity
  8
0
100
AcDbVertex
100
AcDbPolygonMeshVertex
 10
-0.432593
 20
-0.623
 30
-0.408
 70
    64
  0
VERTEX
  5
A93AF
100
AcDbEntity
  8
0
100
AcDbVertex
100
AcDbPolygonMeshVertex
 10
-0.432593
 20
-0.623
 30
-0.408
 70
    64
  0
VERTEX
  5
A93B0
100
AcDbEntity
  8
0
100
AcDbVertex
100
AcDbPolygonMeshVertex
 10
-0.432593
 20
0.623
 30
-0.408
 70
    64
  0
SEQEND
  5
A93B1
100
AcDbEntity
  8
0
  0
POLYLINE
  5
A93B2
100
AcDbEntity
  8
0
100
AcDbPolygonMesh
 66
     1
 10
0.0
 20
0.0
 30
0.0
 70
    16
 71
     6
 72
     3
  0
VERTEX
  5
A93B3
100
AcDbEntity
  8
0
100
AcDbVertex
100
AcDbPolygonMeshVertex
 10
-0.499593
 20
0.623
 30
0.067
 70
    64
  0
VERTEX
  5
A93B4
100
AcDbEntity
  8
0
100
AcDbVertex
100
AcDbPolygonMeshVertex
 10
-0.499593
 20
0.623
 30
-0.408
 70
    64
  0
VERTEX
  5
A93B5
100
AcDbEntity
  8
0
100
AcDbVertex
100
AcDbPolygonMeshVertex
 10
-0.499593
 20
0.623
 30
-0.408
 70
    64
  0
VERTEX
  5
A93B6
100
AcDbEntity
  8
0
100
AcDbVertex
100
AcDbPolygonMeshVertex
 10
-0.432593
 20
0.623
 30
0.067
 70
    64
  0
VERTEX
  5
A93B7
100
AcDbEntity
  8
0
100
AcDbVertex
100
AcDbPolygonMeshVertex
 10
-0.432593
 20
0.623
 30
-0.408
 70
    64
  0
VERTEX
  5
A93B8
100
AcDbEntity
  8
0
100
AcDbVertex
100
AcDbPolygonMeshVertex
 10
-0.432593
 20
0.623
 30
-0.408
 70
    64
  0
VERTEX
  5
A93B9
100
AcDbEntity
  8
0
100
AcDbVertex
100
AcDbPolygonMeshVertex
 10
-0.432593
 20
0.341
 30
0.067
 70
    64
  0
VERTEX
  5
A93BA
100
AcDbEntity
  8
0
100
AcDbVertex
100
AcDbPolygonMeshVertex
 10
-0.432593
 20
0.341
 30
-0.408
 70
    64
  0
VERTEX
  5
A93BB
100
AcDbEntity
  8
0
100
AcDbVertex
100
AcDbPolygonMeshVertex
 10
-0.432593
 20
0.623
 30
-0.408
 70
    64
  0
VERTEX
  5
A93BC
100
AcDbEntity
  8
0
100
AcDbVertex
100
AcDbPolygonMeshVertex
 10
-0.499593
 20
0.341
 30
0.067
 70
    64
  0
VERTEX
  5
A93BD
100
AcDbEntity
  8
0
100
AcDbVertex
100
AcDbPolygonMeshVertex
 10
-0.499593
 20
0.341
 30
-0.408
 70
    64
  0
VERTEX
  5
A93BE
100
AcDbEntity
  8
0
100
AcDbVertex
100
AcDbPolygonMeshVertex
 10
-0.499593
 20
0.623
 30
-0.408
 70
    64
  0
VERTEX
  5
A93BF
100
AcDbEntity
  8
0
100
AcDbVertex
100
AcDbPolygonMeshVertex
 10
-0.499593
 20
0.341
 30
0.067
 70
    64
  0
VERTEX
  5
A93C0
100
AcDbEntity
  8
0
100
AcDbVertex
100
AcDbPolygonMeshVertex
 10
-0.499593
 20
0.341
 30
0.067
 70
    64
  0
VERTEX
  5
A93C1
100
AcDbEntity
  8
0
100
AcDbVertex
100
AcDbPolygonMeshVertex
 10
-0.499593
 20
0.623
 30
0.067
 70
    64
  0
VERTEX
  5
A93C2
100
AcDbEntity
  8
0
100
AcDbVertex
100
AcDbPolygonMeshVertex
 10
-0.432593
 20
0.341
 30
0.067
 70
    64
  0
VERTEX
  5
A93C3
100
AcDbEntity
  8
0
100
AcDbVertex
100
AcDbPolygonMeshVertex
 10
-0.432593
 20
0.341
 30
0.067
 70
    64
  0
VERTEX
  5
A93C4
100
AcDbEntity
  8
0
100
AcDbVertex
100
AcDbPolygonMeshVertex
 10
-0.432593
 20
0.623
 30
0.067
 70
    64
  0
SEQEND
  5
A93C5
100
AcDbEntity
  8
0
  0
POLYLINE
  5
A93C6
100
AcDbEntity
  8
0
100
AcDbPolygonMesh
 66
     1
 10
0.0
 20
0.0
 30
0.0
 70
    16
 71
     6
 72
     3
  0
VERTEX
  5
A93C7
100
AcDbEntity
  8
0
100
AcDbVertex
100
AcDbPolygonMeshVertex
 10
-0.499593
 20
-0.341
 30
0.067
 70
    64
  0
VERTEX
  5
A93C8
100
AcDbEntity
  8
0
100
AcDbVertex
100
AcDbPolygonMeshVertex
 10
-0.499593
 20
-0.341
 30
-0.408
 70
    64
  0
VERTEX
  5
A93C9
100
AcDbEntity
  8
0
100
AcDbVertex
100
AcDbPolygonMeshVertex
 10
-0.499593
 20
-0.341
 30
-0.408
 70
    64
  0
VERTEX
  5
A93CA
100
AcDbEntity
  8
0
100
AcDbVertex
100
AcDbPolygonMeshVertex
 10
-0.432593
 20
-0.341
 30
0.067
 70
    64
  0
VERTEX
  5
A93CB
100
AcDbEntity
  8
0
100
AcDbVertex
100
AcDbPolygonMeshVertex
 10
-0.432593
 20
-0.341
 30
-0.408
 70
    64
  0
VERTEX
  5
A93CC
100
AcDbEntity
  8
0
100
AcDbVertex
100
AcDbPolygonMeshVertex
 10
-0.432593
 20
-0.341
 30
-0.408
 70
    64
  0
VERTEX
  5
A93CD
100
AcDbEntity
  8
0
100
AcDbVertex
100
AcDbPolygonMeshVertex
 10
-0.432593
 20
-0.623
 30
0.067
 70
    64
  0
VERTEX
  5
A93CE
100
AcDbEntity
  8
0
100
AcDbVertex
100
AcDbPolygonMeshVertex
 10
-0.432593
 20
-0.623
 30
-0.408
 70
    64
  0
VERTEX
  5
A93CF
100
AcDbEntity
  8
0
100
AcDbVertex
100
AcDbPolygonMeshVertex
 10
-0.432593
 20
-0.341
 30
-0.408
 70
    64
  0
VERTEX
  5
A93D0
100
AcDbEntity
  8
0
100
AcDbVertex
100
AcDbPolygonMeshVertex
 10
-0.499593
 20
-0.623
 30
0.067
 70
    64
  0
VERTEX
  5
A93D1
100
AcDbEntity
  8
0
100
AcDbVertex
100
AcDbPolygonMeshVertex
 10
-0.499593
 20
-0.623
 30
-0.408
 70
    64
  0
VERTEX
  5
A93D2
100
AcDbEntity
  8
0
100
AcDbVertex
100
AcDbPolygonMeshVertex
 10
-0.499593
 20
-0.341
 30
-0.408
 70
    64
  0
VERTEX
  5
A93D3
100
AcDbEntity
  8
0
100
AcDbVertex
100
AcDbPolygonMeshVertex
 10
-0.499593
 20
-0.623
 30
0.067
 70
    64
  0
VERTEX
  5
A93D4
100
AcDbEntity
  8
0
100
AcDbVertex
100
AcDbPolygonMeshVertex
 10
-0.499593
 20
-0.623
 30
0.067
 70
    64
  0
VERTEX
  5
A93D5
100
AcDbEntity
  8
0
100
AcDbVertex
100
AcDbPolygonMeshVertex
 10
-0.499593
 20
-0.341
 30
0.067
 70
    64
  0
VERTEX
  5
A93D6
100
AcDbEntity
  8
0
100
AcDbVertex
100
AcDbPolygonMeshVertex
 10
-0.432593
 20
-0.623
 30
0.067
 70
    64
  0
VERTEX
  5
A93D7
100
AcDbEntity
  8
0
100
AcDbVertex
100
AcDbPolygonMeshVertex
 10
-0.432593
 20
-0.623
 30
0.067
 70
    64
  0
VERTEX
  5
A93D8
100
AcDbEntity
  8
0
100
AcDbVertex
100
AcDbPolygonMeshVertex
 10
-0.432593
 20
-0.341
 30
0.067
 70
    64
  0
SEQEND
  5
A93D9
100
AcDbEntity
  8
0
  0
LWPOLYLINE
  5
A93DA
100
AcDbEntity
  8
0
100
AcDbPolyline
 90
        6
 70
     0
 43
0.0
 39
0.067
 10
-0.432593
 20
0.341
 10
-0.066593
 20
0.425
 10
0.143407
 20
0.425
 10
0.143407
 20
0.747
 10
-0.249593
 20
0.747
 10
-0.432593
 20
0.623
  0
3DFACE
  5
A93DB
100
AcDbEntity
  8
0
100
AcDbFace
 10
-0.249593
 20
0.747
 30
0.067
 11
0.143407
 21
0.747
 31
0.067
 12
0.143407
 22
0.425
 32
0.067
 13
-0.066593
 23
0.425
 33
0.067
 70
    15
  0
3DFACE
  5
A93DC
100
AcDbEntity
  8
0
100
AcDbFace
 10
-0.249593
 20
0.747
 30
0.067
 11
-0.066593
 21
0.425
 31
0.067
 12
-0.432593
 22
0.341
 32
0.067
 13
-0.432593
 23
0.623
 33
0.067
 70
    15
  0
3DFACE
  5
A93DD
100
AcDbEntity
  8
0
100
AcDbFace
 10
-0.249593
 20
0.747
 30
0.0
 11
-0.066593
 21
0.425
 31
0.0
 12
-0.432593
 22
0.341
 32
0.0
 13
-0.432593
 23
0.623
 33
0.0
 70
    15
  0
3DFACE
  5
A93DE
100
AcDbEntity
  8
0
100
AcDbFace
 10
-0.249593
 20
0.747
 30
0.0
 11
0.143407
 21
0.747
 31
0.0
 12
0.143407
 22
0.425
 32
0.0
 13
-0.066593
 23
0.425
 33
0.0
 70
    15
  0
CIRCLE
  5
A93DF
100
AcDbEntity
  8
0
100
AcDbCircle
 10
0.0
 20
0.595906
 30
0.067
 40
0.088
  0
CIRCLE
  5
A93E0
100
AcDbEntity
  8
0
100
AcDbCircle
 10
0.0
 20
-0.595906
 30
0.067
 40
0.088
  0
3DFACE
  5
A93E1
100
AcDbEntity
  8
0
100
AcDbFace
 10
-0.249593
 20
-0.747
 30
0.0
 11
0.143407
 21
-0.747
 31
0.0
 12
0.143407
 22
-0.425
 32
0.0
 13
-0.066593
 23
-0.425
 33
0.0
 70
    15
  0
3DFACE
  5
A93E2
100
AcDbEntity
  8
0
100
AcDbFace
 10
-0.249593
 20
-0.747
 30
0.0
 11
-0.066593
 21
-0.425
 31
0.0
 12
-0.432593
 22
-0.341
 32
0.0
 13
-0.432593
 23
-0.623
 33
0.0
 70
    15
  0
3DFACE
  5
A93E3
100
AcDbEntity
  8
0
100
AcDbFace
 10
-0.249593
 20
-0.747
 30
0.067
 11
-0.066593
 21
-0.425
 31
0.067
 12
-0.432593
 22
-0.341
 32
0.067
 13
-0.432593
 23
-0.623
 33
0.067
 70
    15
  0
3DFACE
  5
A93E4
100
AcDbEntity
  8
0
100
AcDbFace
 10
-0.249593
 20
-0.747
 30
0.067
 11
0.143407
 21
-0.747
 31
0.067
 12
0.143407
 22
-0.425
 32
0.067
 13
-0.066593
 23
-0.425
 33
0.067
 70
    15
  0
LWPOLYLINE
  5
A93E5
100
AcDbEntity
  8
0
100
AcDbPolyline
 90
        6
 70
     0
 43
0.0
 39
0.067
 10
-0.432593
 20
-0.341
 10
-0.066593
 20
-0.425
 10
0.143407
 20
-0.425
 10
0.143407
 20
-0.747
 10
-0.249593
 20
-0.747
 10
-0.432593
 20
-0.623
  0
CIRCLE
  5
A93E6
100
AcDbEntity
  8
0
100
AcDbCircle
 10
0.0
 20
0.595906
 30
0.0
 40
0.088
  0
CIRCLE
  5
A93E7
100
AcDbEntity
  8
0
100
AcDbCircle
 10
0.0
 20
-0.595906
 30
0.0
 40
0.088
  0
TEXT
  5
A93E8
100
AcDbEntity
  8
0
100
AcDbText
 39
0.0
 10
1.633951
 20
0.016949
 30
1.827
 40
0.06
  1
INCREASE
 50
141.740643
210
0.0
220
0.0
230
-1.0
100
AcDbText
  0
LWPOLYLINE
  5
A93E9
100
AcDbEntity
  8
0
100
AcDbPolyline
 90
        6
 70
     1
 43
0.0
 38
-1.677
 10
-1.839641
 20
0.672167
 10
-0.866093
 20
0.076
 10
-0.972139
 20
-0.053955
 10
-1.364747
 20
-0.363566
 10
-1.530093
 20
-0.413
 10
-1.868865
 20
0.649121
  0
LWPOLYLINE
  5
A93EA
100
AcDbEntity
  8
0
100
AcDbPolyline
 90
        4
 70
     1
 43
0.0
 38
-1.09
 10
-1.885093
 20
0.7
 10
-1.885093
 20
-0.7
 10
-0.425093
 20
-0.7
 10
-0.425093
 20
0.7
  0
CIRCLE
  5
A93EB
100
AcDbEntity
  8
0
100
AcDbCircle
 10
-2.056593
 20
-0.3545
 30
-0.733
 40
0.064
  0
CIRCLE
  5
A93EC
100
AcDbEntity
  8
0
100
AcDbCircle
 10
-2.056593
 20
0.3545
 30
-0.733
 40
0.064
  0
CIRCLE
  5
A93ED
100
AcDbEntity
  8
0
100
AcDbCircle
 10
-1.678149
 20
-0.54
 30
-0.733
 40
0.0365
  0
LWPOLYLINE
  5
A93EE
100
AcDbEntity
  8
0
100
AcDbPolyline
 90
        4
 70
     0
 43
0.0
 38
-0.733
 10
-1.885093
 20
-0.54
 10
-1.806649
 20
-0.54
 42
1.0
 10
-1.549649
 20
-0.54
 10
-1.473093
 20
-0.54
  0
LWPOLYLINE
  5
A93EF
100
AcDbEntity
  8
0
100
AcDbPolyline
 90
        4
 70
     0
 43
0.0
 38
-0.733
 10
-1.885093
 20
0.54
 10
-1.806649
 20
0.54
 42
-1.0
 10
-1.549649
 20
0.54
 10
-1.473093
 20
0.54
  0
CIRCLE
  5
A93F0
100
AcDbEntity
  8
0
100
AcDbCircle
 10
-1.678149
 20
0.54
 30
-0.733
 40
0.0365
  0
POINT
  5
A93F1
100
AcDbEntity
  8
SNAP_POINTS
100
AcDbPoint
 10
0.0
 20
0.0
 30
0.0
  0
ATTDEF
  5
A93F2
100
AcDbEntity
  8
ATTRIBUTES
100
AcDbText
 10
-1.770403
 20
0.312382
 30
-0.5
 40
0.045401
  1
ALLEN-BRADLEY
100
AcDbAttributeDefinition
  3
MANUFACTURER NAME?
  2
AC_VND_LABEL
 70
     0
  0
ATTDEF
  5
A93F3
100
AcDbEntity
  8
ATTRIBUTES
100
AcDbText
 10
-1.770403
 20
0.217797
 30
-0.5
 40
0.045401
  1
800T-XS
100
AcDbAttributeDefinition
  3
CATALOG NUMBER?
  2
AC_PART_NO
 70
     0
  0
ATTDEF
  5
A93F4
100
AcDbEntity
  8
ATTRIBUTES
100
AcDbText
 10
-1.770403
 20
0.123212
 30
-0.5
 40
0.045401
  1
NEMA TIME DELAY CONTACT BLOCK, 1 N.C.
100
AcDbAttributeDefinition
  3
PART DESCRIPTION?
  2
AC_DESCRIPTION
 70
     0
  0
ATTDEF
  5
A93F5
100
AcDbEntity
  8
ATTRIBUTES
100
AcDbText
 10
-1.770403
 20
0.028627
 30
-0.5
 40
0.045401
  1

100
AcDbAttributeDefinition
  3
DEVICE ID?
  2
DEVICE_ID
 70
     0
  0
ATTDEF
  5
A93F6
100
AcDbEntity
  8
ATTRIBUTES
100
AcDbText
 10
-1.770403
 20
-0.065957
 30
-0.5
 40
0.045401
  1

100
AcDbAttributeDefinition
  3
CUSTOMER PART NUMBER?
  2
AC_CPART_NO
 70
     0
  0
ATTDEF
  5
A93F7
100
AcDbEntity
  8
ATTRIBUTES
100
AcDbText
 10
-1.770403
 20
-0.160542
 30
-0.5
 40
0.045401
  1

100
AcDbAttributeDefinition
  3
CUSTOMER NOTE?
  2
AC_NOTE
 70
     0
  0
ATTDEF
  5
A93F8
100
AcDbEntity
  8
ATTRIBUTES
100
AcDbText
 10
-1.770403
 20
-0.255127
 30
-0.5
 40
0.045401
  1

100
AcDbAttributeDefinition
  3
FASTENER DATA?
  2
FASTENER
 70
     0
  0
ATTDEF
  5
A93F9
100
AcDbEntity
  8
ATTRIBUTES
100
AcDbText
 10
-1.770403
 20
-0.349712
 30
-0.5
 40
0.045401
  1

100
AcDbAttributeDefinition
  3
UNIT OF SCALE?
  2
AC_SCALE_UNIT
 70
     0
  0
ATTDEF
  5
A93FA
100
AcDbEntity
  8
ATTRIBUTES
100
AcDbText
 10
-1.770403
 20
-0.444297
 30
-0.5
 40
0.045401
  1

100
AcDbAttributeDefinition
  3
VIEW CODE?
  2
AC_VIEW_CODE
 70
     0
  0
POINT
  5
A93FB
100
AcDbEntity
  8
SNAP_POINTS
100
AcDbPoint
 10
0.0
 20
0.0
 30
-1.827
  0
DIMENSION
  5
A93FC
100
AcDbEntity
  8
AREA1
100
AcDbDimension
  2
*D0
 10
-2.639495
 20
0.747
 30
0.0
 11
-2.639495
 21
0.002953
 31
0.0
 70
   160
  3
ABECAD_3D
100
AcDbAlignedDimension
 13
-0.249593
 23
-0.747
 33
0.0
 14
-0.249593
 24
0.747
 34
0.0
 50
90.0
100
AcDbRotatedDimension
  0
DIMENSION
  5
A940A
100
AcDbEntity
  8
AREA1
100
AcDbDimension
  2
*D1
 10
0.143407
 20
1.060308
 30
0.0
 11
-1.100291
 21
1.060308
 31
0.0
 70
   160
  3
ABECAD_3D
100
AcDbAlignedDimension
 13
-2.228093
 23
0.54
 33
-0.733
 14
0.143407
 24
0.747
 34
0.0
100
AcDbRotatedDimension
  0
LWPOLYLINE
  5
A9427
100
AcDbEntity
  8
SCALE
100
AcDbPolyline
 90
        4
 70
     1
 43
0.0
 10
0.374502
 20
0.113887
 10
1.51013
 20
0.113887
 10
1.51013
 20
-0.727723
 10
0.374502
 20
-0.727723
  0
LINE
  5
A9428
100
AcDbEntity
  8
SCALE
100
AcDbLine
 10
0.4325
 20
-0.266191
 30
0.0
 11
1.4325
 21
-0.266191
 31
0.0
  0
LINE
  5
A9429
100
AcDbEntity
  8
SCALE
100
AcDbLine
 10
0.4325
 20
-0.566191
 30
0.0
 11
0.8262
 21
-0.566191
 31
0.0
  0
LINE
  5
A942A
100
AcDbEntity
  8
SCALE
100
AcDbLine
 10
0.4325
 20
-0.366191
 30
0.0
 11
0.4325
 21
-0.166191
 31
0.0
  0
TEXT
  5
A942B
100
AcDbEntity
  8
SCALE
100
AcDbText
 10
0.488476
 20
-0.518506
 30
0.0
 40
0.0625
  1
[10mm]
100
AcDbText
  0
LINE
  5
A942C
100
AcDbEntity
  8
SCALE
100
AcDbLine
 10
0.4325
 20
-0.666191
 30
0.0
 11
0.4325
 21
-0.466191
 31
0.0
  0
TEXT
  5
A942D
100
AcDbEntity
  8
SCALE
100
AcDbText
 10
0.434031
 20
0.008686
 30
0.0
 40
0.0625
  1
SCALE:
100
AcDbText
  0
LINE
  5
A942E
100
AcDbEntity
  8
SCALE
100
AcDbLine
 10
0.8262
 20
-0.666191
 30
0.0
 11
0.8262
 21
-0.466191
 31
0.0
  0
TEXT
  5
A942F
100
AcDbEntity
  8
SCALE
100
AcDbText
 10
0.795783
 20
-0.197143
 30
0.0
 40
0.0625
  1
1 Inch
100
AcDbText
  0
LINE
  5
A9430
100
AcDbEntity
  8
SCALE
100
AcDbLine
 10
1.4325
 20
-0.266191
 30
0.0
 11
1.4325
 21
-0.366191
 31
0.0
  0
LINE
  5
A9431
100
AcDbEntity
  8
SCALE
100
AcDbLine
 10
1.4325
 20
-0.366191
 30
0.0
 11
1.4325
 21
-0.166191
 31
0.0
  0
VIEWPORT
  5
5677D
102
{ACAD_XDICTIONARY
360
A94FF
102
}
100
AcDbEntity
 67
     1
  8
0
100
AcDbViewport
 10
5.25
 20
4.0
 30
0.0
 40
16.386862
 41
8.993
 68
    -1
 69
     1
1001
ACAD
1000
MVIEW
1002
{
1070
    16
1010
0.0
1020
0.0
1030
0.0
1010
0.0
1020
0.0
1030
1.0
1040
0.0
1040
8.993
1040
5.25
1040
4.0
1040
50.0
1040
0.0
1040
0.0
1070
     0
1070
 20000
1070
     1
1070
     1
1070
     0
1070
     0
1070
     0
1070
     0
1040
0.0
1040
0.0
1040
0.0
1040
0.5
1040
0.5
1040
0.5
1040
0.5
1070
     0
1002
{
1002
}
1002
}
  0
VIEWPORT
  5
5677F
102
{ACAD_XDICTIONARY
360
A9501
102
}
100
AcDbEntity
 67
     1
  8
AREA1
100
AcDbViewport
 10
5.25
 20
4.0
 30
0.0
 40
8.4
 41
6.4
 68
     1
 69
     2
1001
ACAD
1000
MVIEW
1002
{
1070
    16
1010
0.563444
1020
-0.880137
1030
1.686493
1010
0.0
1020
0.0
1030
1.0
1040
0.0
1040
4.582914
1040
-1.017175
1040
0.747813
1040
50.0
1040
0.0
1040
0.0
1070
     0
1070
 20000
1070
     1
1070
     1
1070
     0
1070
     0
1070
     0
1070
     0
1040
0.0
1040
0.0
1040
0.0
1040
0.25
1040
0.25
1040
0.25
1040
0.25
1070
     0
1002
{
1002
}
1002
}
  0
ENDSEC
  0
SECTION
  2
OBJECTS
  0
DICTIONARY
  5
458CB
100
AcDbDictionary
  3
ACAD_GROUP
350
458CC
  3
ACAD_LAYOUT
350
458FB
  3
ACAD_MLINESTYLE
350
458D9
  3
ACAD_PLOTSETTINGS
350
458FC
  3
ACAD_PLOTSTYLENAME
350
458F9
  3
ACDBHEADERROUNDTRIPXREC
350
A94D6
  3
ACDBVARIABLEDICTIONARY
350
458E1
  3
DWGPROPS
350
45901
  0
DICTIONARY
  5
A94D4
100
AcDbDictionary
280
     1
  3
ACAD_XREC_ROUNDTRIP
360
A94D5
  0
DICTIONARY
  5
A94FD
100
AcDbDictionary
280
     1
  3
ACAD_XREC_ROUNDTRIP
360
A94FE
  0
DICTIONARY
  5
A94D2
100
AcDbDictionary
280
     1
  3
ACAD_XREC_ROUNDTRIP
360
A94D3
  0
DICTIONARY
  5
A94F9
100
AcDbDictionary
280
     1
  3
ACAD_XREC_ROUNDTRIP
360
A94FA
  0
DICTIONARY
  5
4592C
100
AcDbDictionary
280
     1
  3
ACAD_LAYOUTSELFREF
360
A94F8
  0
DICTIONARY
  5
4592A
100
AcDbDictionary
280
     1
  3
ACAD_LAYOUTSELFREF
360
A94F7
  0
DICTIONARY
  5
A94FF
100
AcDbDictionary
280
     1
  3
ACAD_XREC_ROUNDTRIP
360
A9500
  0
DICTIONARY
  5
A9501
100
AcDbDictionary
280
     1
  3
ACAD_XREC_ROUNDTRIP
360
A9502
  0
DICTIONARY
  5
458CC
102
{ACAD_REACTORS
330
458CB
102
}
100
AcDbDictionary
  0
DICTIONARY
  5
458FB
102
{ACAD_XDICTIONARY
360
A94FB
102
}
102
{ACAD_REACTORS
330
458CB
102
}
100
AcDbDictionary
  3
LAYOUT1
350
458FE
  3
MODEL
350
458FD
  0
DICTIONARY
  5
458D9
102
{ACAD_REACTORS
330
458CB
102
}
100
AcDbDictionary
  3
STANDARD
350
458DA
  0
DICTIONARY
  5
458FC
102
{ACAD_REACTORS
330
458CB
102
}
100
AcDbDictionary
  0
ACAD_PROXY_OBJECT
  5
458F9
102
{ACAD_REACTORS
330
458CB
102
}
100
AcDbProxyObject
 90
      499
 91
      501
 93
       86
310
405010041939BDC9B585B1
350
458FA
340
458FA
 94
        0
  0
DICTIONARY
  5
A94D6
102
{ACAD_REACTORS
330
458CB
102
}
100
AcDbDictionary
  3
CEPSNTYPE
350
A94E0
  3
DIMSTYLEDATA
350
A94E4
  3
FINGERPRINTGUID
350
A94E1
  3
HYPERLINKBASE
350
A94D9
  3
INSUNITS
350
A94DF
  3
LAYOUTDICT
350
A94DB
  3
LWETCUNION
350
A94DE
  3
PLOTSETDICT
350
A94DC
  3
PLOTSTYLNAMDICT
350
A94DD
  3
PSVPSCALE
350
A94E3
  3
PUCSBASE
350
A94E7
  3
PUCSORGBACK
350
A94ED
  3
PUCSORGBOTTOM
350
A94E9
  3
PUCSORGFRONT
350
A94EC
  3
PUCSORGLEFT
350
A94EA
  3
PUCSORGRIGHT
350
A94EB
  3
PUCSORGTOP
350
A94E8
  3
PUCSORTHOREF
350
A94E5
  3
PUCSORTHOVIEW
350
A94E6
  3
STYLESHEET
350
A94DA
  3
TSTACKALIGN
350
A94D7
  3
TSTACKSIZE
350
A94D8
  3
UCSBASE
350
A94F0
  3
UCSORGBACK
350
A94F6
  3
UCSORGBOTTOM
350
A94F2
  3
UCSORGFRONT
350
A94F5
  3
UCSORGLEFT
350
A94F3
  3
UCSORGRIGHT
350
A94F4
  3
UCSORGTOP
350
A94F1
  3
UCSORTHOREF
350
A94EE
  3
UCSORTHOVIEW
350
A94EF
  3
VERSIONGUID
350
A94E2
  0
DICTIONARY
  5
458E1
102
{ACAD_REACTORS
330
458CB
102
}
100
AcDbDictionary
  3
DIMADEC
350
458E2
  0
XRECORD
  5
45901
102
{ACAD_REACTORS
330
458CB
102
}
100
AcDbXrecord
  1
DWGPROPS COOKIE
  2

  3

  4

  6

  7

  8
colin
  9

300
=
301
=
302
=
303
=
304
=
305
=
306
=
307
=
308
=
309
=
 40
0.000599
 41
2451670.444777
 42
2451670.445376
  1

 90
        0
  0
XRECORD
  5
A94D5
102
{ACAD_REACTORS
330
A94D4
102
}
100
AcDbXrecord
102
EXTNAMES
  1
*ACTIVE
  2
*Active
102
UCS
 74
     0
 71
     1
 10
0.0
 20
0.0
 30
0.0
 10
1.0
 20
0.0
 30
0.0
 10
0.0
 20
1.0
 30
0.0
146
0.0
 79
     1
102
VIEW
281
     1
  0
XRECORD
  5
A94FE
102
{ACAD_REACTORS
330
A94FD
102
}
100
AcDbXrecord
102
PLOTBIT
280
     0
  0
XRECORD
  5
A94D3
102
{ACAD_REACTORS
330
A94D2
102
}
100
AcDbXrecord
102
EXTNAMES
  1
DEFPOINTS
  2
Defpoints
102
PLOTBIT
280
     0
  0
XRECORD
  5
A94FA
102
{ACAD_REACTORS
330
A94F9
102
}
100
AcDbXrecord
102
ACADR14ROUNDTRIP
1000
DSTYLE
1002
{
1070
   276
 70
     2
1070
   277
 70
     5
1070
   279
 70
     2
1070
   289
 70
     2
1002
}
  0
XRECORD
  5
A94F8
102
{ACAD_REACTORS
330
4592C
102
}
100
AcDbXrecord
340
458D6
  0
XRECORD
  5
A94F7
102
{ACAD_REACTORS
330
4592A
102
}
100
AcDbXrecord
340
458D3
  0
XRECORD
  5
A9500
102
{ACAD_REACTORS
330
A94FF
102
}
100
AcDbXrecord
102
UCS
 74
     0
 71
     1
 10
0.0
 20
0.0
 30
0.0
 10
1.0
 20
0.0
 30
0.0
 10
0.0
 20
1.0
 30
0.0
146
0.0
 79
     0
102
VIEW
281
     0
102
NEWVIEWCONTROL
280
     4
  0
XRECORD
  5
A9502
102
{ACAD_REACTORS
330
A9501
102
}
100
AcDbXrecord
102
UCS
 74
     0
 71
     1
 10
0.0
 20
0.0
 30
0.0
 10
1.0
 20
0.0
 30
0.0
 10
0.0
 20
1.0
 30
0.0
146
0.0
 79
     1
102
VIEW
281
     1
102
NEWVIEWCONTROL
280
     4
  0
DICTIONARY
  5
A94FB
100
AcDbDictionary
280
     1
  3
ACAD_XREC_ROUNDTRIP
360
A94FC
  0
ACAD_PROXY_OBJECT
  5
458FE
102
{ACAD_REACTORS
330
458FB
102
}
100
AcDbProxyObject
 90
      499
 91
      503
 93
     1700
310
90B6E6F6E655F6465766963652C0080000006066661940000000181999865000000000068661940000000001A1986500000000C0CCFC6A4000000018199D9C5011C4C65747465725F28382E35305F785F31312E30305F496E6368657329A901416AA547D11959985D5B1D08148C4D081C195B88185CDCDA59DB9B595B9D1CC
310
B98DD1891069074C61796F75743140501A840201008040342FEFF7FBFDFFFFF3EFDFAFF7FBFFDFC9501008043E3FDFC8102A6A6A0000003033333C0FC000000809999E93F8FFFFFF5766E622403FFFFFEBF333071020
330
458D3
330
5677D
340
0
340
0
 94
        0
  0
ACAD_PROXY_OBJECT
  5
458FD
102
{ACAD_REACTORS
330
458FB
102
}
100
AcDbProxyObject
 90
      499
 91
      503
 93
      924
310
91D4850204C617365724A65742035303030205365726965732050434C20362C01AAAAAAAAA547D11959985D5B1D08148C4D081C195B88185CDCDA59DB9B595B9D1CCB98DD18A69054D6F64656C901A800000000000000000000000000000000000000000000A1000000000000008902A6A6AAAA8
330
458D6
330
0
340
0
340
0
 94
        0
  0
MLINESTYLE
  5
458DA
102
{ACAD_REACTORS
330
458D9
102
}
100
AcDbMlineStyle
  2
STANDARD
 70
     0
  3

 62
   256
 51
90.0
 52
90.0
 71
     2
 49
0.5
 62
   256
  6
BYLAYER
 49
-0.5
 62
   256
  6
BYLAYER
  0
ACAD_PROXY_OBJECT
  5
458FA
102
{ACAD_REACTORS
330
458F9
102
}
100
AcDbProxyObject
 90
      499
 91
      502
 93
        0
 94
        0
  0
XRECORD
  5
A94E0
102
{ACAD_REACTORS
330
A94D6
102
}
100
AcDbXrecord
 90
        0
  0
XRECORD
  5
A94E4
102
{ACAD_REACTORS
330
A94D6
102
}
100
AcDbXrecord
1000
DSTYLE
1002
{
1070
   276
 70
     2
1070
   277
 70
     5
1070
   279
 70
     2
1070
   289
 70
     2
1002
}
  0
XRECORD
  5
A94E1
102
{ACAD_REACTORS
330
A94D6
102
}
100
AcDbXrecord
  1
{6E0CF4B8-225E-11D4-A150-00A0CC3303EC}
  0
XRECORD
  5
A94D9
102
{ACAD_REACTORS
330
A94D6
102
}
100
AcDbXrecord
  1

  0
XRECORD
  5
A94DF
102
{ACAD_REACTORS
330
A94D6
102
}
100
AcDbXrecord
 90
        0
  0
XRECORD
  5
A94DB
102
{ACAD_REACTORS
330
A94D6
102
}
100
AcDbXrecord
340
458FB
  0
XRECORD
  5
A94DE
102
{ACAD_REACTORS
330
A94D6
102
}
100
AcDbXrecord
 90
    14877
  0
XRECORD
  5
A94DC
102
{ACAD_REACTORS
330
A94D6
102
}
100
AcDbXrecord
340
458FC
  0
XRECORD
  5
A94DD
102
{ACAD_REACTORS
330
A94D6
102
}
100
AcDbXrecord
340
458F9
  0
XRECORD
  5
A94E3
102
{ACAD_REACTORS
330
A94D6
102
}
100
AcDbXrecord
 40
0.0
  0
XRECORD
  5
A94E7
102
{ACAD_REACTORS
330
A94D6
102
}
100
AcDbXrecord
340
0
  0
XRECORD
  5
A94ED
102
{ACAD_REACTORS
330
A94D6
102
}
100
AcDbXrecord
 10
0.0
 20
0.0
 30
0.0
  0
XRECORD
  5
A94E9
102
{ACAD_REACTORS
330
A94D6
102
}
100
AcDbXrecord
 10
0.0
 20
0.0
 30
0.0
  0
XRECORD
  5
A94EC
102
{ACAD_REACTORS
330
A94D6
102
}
100
AcDbXrecord
 10
0.0
 20
0.0
 30
0.0
  0
XRECORD
  5
A94EA
102
{ACAD_REACTORS
330
A94D6
102
}
100
AcDbXrecord
 10
0.0
 20
0.0
 30
0.0
  0
XRECORD
  5
A94EB
102
{ACAD_REACTORS
330
A94D6
102
}
100
AcDbXrecord
 10
0.0
 20
0.0
 30
0.0
  0
XRECORD
  5
A94E8
102
{ACAD_REACTORS
330
A94D6
102
}
100
AcDbXrecord
 10
0.0
 20
0.0
 30
0.0
  0
XRECORD
  5
A94E5
102
{ACAD_REACTORS
330
A94D6
102
}
100
AcDbXrecord
340
0
  0
XRECORD
  5
A94E6
102
{ACAD_REACTORS
330
A94D6
102
}
100
AcDbXrecord
 70
     0
  0
XRECORD
  5
A94DA
102
{ACAD_REACTORS
330
A94D6
102
}
100
AcDbXrecord
  1

  0
XRECORD
  5
A94D7
102
{ACAD_REACTORS
330
A94D6
102
}
100
AcDbXrecord
 90
        1
  0
XRECORD
  5
A94D8
102
{ACAD_REACTORS
330
A94D6
102
}
100
AcDbXrecord
 90
       70
  0
XRECORD
  5
A94F0
102
{ACAD_REACTORS
330
A94D6
102
}
100
AcDbXrecord
340
0
  0
XRECORD
  5
A94F6
102
{ACAD_REACTORS
330
A94D6
102
}
100
AcDbXrecord
 10
0.0
 20
0.0
 30
0.0
  0
XRECORD
  5
A94F2
102
{ACAD_REACTORS
330
A94D6
102
}
100
AcDbXrecord
 10
0.0
 20
0.0
 30
0.0
  0
XRECORD
  5
A94F5
102
{ACAD_REACTORS
330
A94D6
102
}
100
AcDbXrecord
 10
0.0
 20
0.0
 30
0.0
  0
XRECORD
  5
A94F3
102
{ACAD_REACTORS
330
A94D6
102
}
100
AcDbXrecord
 10
0.0
 20
0.0
 30
0.0
  0
XRECORD
  5
A94F4
102
{ACAD_REACTORS
330
A94D6
102
}
100
AcDbXrecord
 10
0.0
 20
0.0
 30
0.0
  0
XRECORD
  5
A94F1
102
{ACAD_REACTORS
330
A94D6
102
}
100
AcDbXrecord
 10
0.0
 20
0.0
 30
0.0
  0
XRECORD
  5
A94EE
102
{ACAD_REACTORS
330
A94D6
102
}
100
AcDbXrecord
340
0
  0
XRECORD
  5
A94EF
102
{ACAD_REACTORS
330
A94D6
102
}
100
AcDbXrecord
 70
     1
  0
XRECORD
  5
A94E2
102
{ACAD_REACTORS
330
A94D6
102
}
100
AcDbXrecord
  1
{C39A84C0-B9B4-4D84-AD6C-D19DA9240E7C}
  0
DICTIONARYVAR
  5
458E2
102
{ACAD_REACTORS
330
458E1
102
}
100
DictionaryVariables
280
     0
  1
0
  0
XRECORD
  5
A94FC
102
{ACAD_REACTORS
330
A94FB
102
}
100
AcDbXrecord
102
EXTNAMES
  1
LAYOUT1
  2
Layout1
  1
MODEL
  2
Model
  0
ENDSEC
  0
EOF
