  0
SECTION
  2
HEADER
  9
$ACADVER
  1
AC1014
  9
$ACADMAINTVER
 70
     8
  9
$DWGCODEPAGE
  3
ANSI_1252
  9
$INSBASE
 10
0.0
 20
0.0
 30
0.0
  9
$EXTMIN
 10
-1.383351
 20
-0.874
 30
-2.01087
  9
$EXTMAX
 10
1.555428
 20
1.313373
 30
0.0
  9
$LIMMIN
 10
0.0
 20
0.0
  9
$LIMMAX
 10
12.0
 20
9.0
  9
$ORTHOMODE
 70
     0
  9
$REGENMODE
 70
     1
  9
$FILLMODE
 70
     1
  9
$QTEXTMODE
 70
     0
  9
$MIRRTEXT
 70
     1
  9
$DRAGMODE
 70
     2
  9
$LTSCALE
 40
1.0
  9
$OSMODE
 70
    23
  9
$ATTMODE
 70
     0
  9
$TEXTSIZE
 40
0.2
  9
$TRACEWID
 40
0.05
  9
$TEXTSTYLE
  7
STANDARD
  9
$CLAYER
  8
0
  9
$CELTYPE
  6
BYLAYER
  9
$CECOLOR
 62
   256
  9
$CELTSCALE
 40
1.0
  9
$DELOBJ
 70
     1
  9
$DISPSILH
 70
     0
  9
$DIMSCALE
 40
0.0
  9
$DIMASZ
 40
0.125
  9
$DIMEXO
 40
0.0625
  9
$DIMDLI
 40
0.375
  9
$DIMRND
 40
0.0
  9
$DIMDLE
 40
0.0
  9
$DIMEXE
 40
0.0625
  9
$DIMTP
 40
0.0
  9
$DIMTM
 40
0.0
  9
$DIMTXT
 40
0.125
  9
$DIMCEN
 40
0.09
  9
$DIMTSZ
 40
0.0
  9
$DIMTOL
 70
     0
  9
$DIMLIM
 70
     0
  9
$DIMTIH
 70
     0
  9
$DIMTOH
 70
     1
  9
$DIMSE1
 70
     0
  9
$DIMSE2
 70
     0
  9
$DIMTAD
 70
     0
  9
$DIMZIN
 70
     4
  9
$DIMBLK
  1

  9
$DIMASO
 70
     1
  9
$DIMSHO
 70
     1
  9
$DIMPOST
  1

  9
$DIMAPOST
  1

  9
$DIMALT
 70
     1
  9
$DIMALTD
 70
     2
  9
$DIMALTF
 40
25.4
  9
$DIMLFAC
 40
1.0
  9
$DIMTOFL
 70
     0
  9
$DIMTVP
 40
0.0
  9
$DIMTIX
 70
     0
  9
$DIMSOXD
 70
     0
  9
$DIMSAH
 70
     0
  9
$DIMBLK1
  1

  9
$DIMBLK2
  1

  9
$DIMSTYLE
  2
ABECAD_3V
  9
$DIMCLRD
 70
     0
  9
$DIMCLRE
 70
     0
  9
$DIMCLRT
 70
     0
  9
$DIMTFAC
 40
1.5
  9
$DIMGAP
 40
0.09
  9
$DIMJUST
 70
     0
  9
$DIMSD1
 70
     0
  9
$DIMSD2
 70
     0
  9
$DIMTOLJ
 70
     1
  9
$DIMTZIN
 70
     4
  9
$DIMALTZ
 70
     4
  9
$DIMALTTZ
 70
     4
  9
$DIMFIT
 70
     5
  9
$DIMUPT
 70
     1
  9
$DIMUNIT
 70
     7
  9
$DIMDEC
 70
     6
  9
$DIMTDEC
 70
     6
  9
$DIMALTU
 70
     2
  9
$DIMALTTD
 70
     2
  9
$DIMTXSTY
  7
STANDARD
  9
$DIMAUNIT
 70
     0
  9
$LUNITS
 70
     2
  9
$LUPREC
 70
     6
  9
$SKETCHINC
 40
0.1
  9
$FILLETRAD
 40
0.0
  9
$AUNITS
 70
     0
  9
$AUPREC
 70
     0
  9
$MENU
  1
acad
  9
$ELEVATION
 40
0.0
  9
$PELEVATION
 40
0.0
  9
$THICKNESS
 40
0.0
  9
$LIMCHECK
 70
     0
  9
$BLIPMODE
 70
     0
  9
$CHAMFERA
 40
0.0
  9
$CHAMFERB
 40
0.0
  9
$CHAMFERC
 40
0.0
  9
$CHAMFERD
 40
0.0
  9
$SKPOLY
 70
     0
  9
$TDCREATE
 40
2451726.438362384
  9
$TDUPDATE
 40
2452577.382603009
  9
$TDINDWG
 40
1.4361594907
  9
$TDUSRTIMER
 40
1.4361594907
  9
$USRTIMER
 70
     1
  9
$ANGBASE
 50
0.0
  9
$ANGDIR
 70
     0
  9
$PDMODE
 70
     3
  9
$PDSIZE
 40
0.18
  9
$PLINEWID
 40
0.0
  9
$COORDS
 70
     1
  9
$SPLFRAME
 70
     0
  9
$SPLINETYPE
 70
     6
  9
$SPLINESEGS
 70
     8
  9
$ATTDIA
 70
     0
  9
$ATTREQ
 70
     1
  9
$HANDLING
 70
     1
  9
$HANDSEED
  5
6D420
  9
$SURFTAB1
 70
     6
  9
$SURFTAB2
 70
     6
  9
$SURFTYPE
 70
     6
  9
$SURFU
 70
     6
  9
$SURFV
 70
     6
  9
$UCSNAME
  2

  9
$UCSORG
 10
0.0
 20
0.0
 30
0.0
  9
$UCSXDIR
 10
1.0
 20
0.0
 30
0.0
  9
$UCSYDIR
 10
0.0
 20
1.0
 30
0.0
  9
$PUCSNAME
  2

  9
$PUCSORG
 10
0.0
 20
0.0
 30
0.0
  9
$PUCSXDIR
 10
1.0
 20
0.0
 30
0.0
  9
$PUCSYDIR
 10
0.0
 20
1.0
 30
0.0
  9
$USERI1
 70
     0
  9
$USERI2
 70
     0
  9
$USERI3
 70
     0
  9
$USERI4
 70
     0
  9
$USERI5
 70
     0
  9
$USERR1
 40
0.0
  9
$USERR2
 40
0.0
  9
$USERR3
 40
0.0
  9
$USERR4
 40
0.0
  9
$USERR5
 40
0.0
  9
$WORLDVIEW
 70
     1
  9
$SHADEDGE
 70
     3
  9
$SHADEDIF
 70
    70
  9
$TILEMODE
 70
     0
  9
$MAXACTVP
 70
    16
  9
$PINSBASE
 10
0.0
 20
0.0
 30
0.0
  9
$PLIMCHECK
 70
     0
  9
$PEXTMIN
 10
0.0
 20
0.0
 30
0.0
  9
$PEXTMAX
 10
10.0
 20
7.5
 30
0.0
  9
$PLIMMIN
 10
-0.187029
 20
-0.186938
  9
$PLIMMAX
 10
10.187518
 20
7.829757
  9
$UNITMODE
 70
     0
  9
$VISRETAIN
 70
     0
  9
$PLINEGEN
 70
     0
  9
$PSLTSCALE
 70
     1
  9
$TREEDEPTH
 70
  3020
  9
$PICKSTYLE
 70
     1
  9
$CMLSTYLE
  2
STANDARD
  9
$CMLJUST
 70
     0
  9
$CMLSCALE
 40
1.0
  9
$PROXYGRAPHICS
 70
     1
  9
$MEASUREMENT
 70
     0
  0
ENDSEC
  0
SECTION
  2
CLASSES
  0
CLASS
  1
DICTIONARYVAR
  2
AcDbDictionaryVar
  3
"AutoCAD"
 90
        0
280
     0
281
     0
  0
CLASS
  1
ACDBDICTIONARYWDFLT
  2
AcDbDictionaryWithDefault
  3
AutoCAD 2000
 90
        0
280
     0
281
     0
  0
CLASS
  1
ACDBPLACEHOLDER
  2
AcDbPlaceHolder
  3
AutoCAD 2000
 90
        0
280
     0
281
     0
  0
CLASS
  1
LAYOUT
  2
AcDbLayout
  3
AutoCAD 2000
 90
        0
280
     0
281
     0
  0
CLASS
  1
LONG_TRANSACTION
  2
AcDbLongTransaction
  3
AutoCAD 2000
 90
        0
280
     0
281
     0
  0
CLASS
  1
LWPOLYLINE
  2
AcDbPolyline
  3
"AutoCAD"
 90
        0
280
     0
281
     1
  0
CLASS
  1
HATCH
  2
AcDbHatch
  3
"ACAD_SEDONA"
 90
        0
280
     0
281
     1
  0
CLASS
  1
XRECORD
  2
AcDbXrecord
  3
"<Built In>"
 90
        0
280
     0
281
     0
  0
CLASS
  1
LONG_TRANSACTION
  2
AcDbLongTransaction
  3
AutoCAD 2000
 90
        0
280
     0
281
     0
  0
CLASS
  1
LWPOLYLINE
  2
AcDbPolyline
  3
"AutoCAD"
 90
        0
280
     0
281
     1
  0
CLASS
  1
HATCH
  2
AcDbHatch
  3
"ACAD_SEDONA"
 90
        0
280
     0
281
     1
  0
CLASS
  1
XRECORD
  2
AcDbXrecord
  3
"<Built In>"
 90
        0
280
     0
281
     0
  0
CLASS
  1
LONG_TRANSACTION
  2
AcDbLongTransaction
  3
AutoCAD 2000
 90
        0
280
     0
281
     0
  0
CLASS
  1
LWPOLYLINE
  2
AcDbPolyline
  3
"AutoCAD"
 90
        0
280
     0
281
     1
  0
CLASS
  1
HATCH
  2
AcDbHatch
  3
"ACAD_SEDONA"
 90
        0
280
     0
281
     1
  0
CLASS
  1
XRECORD
  2
AcDbXrecord
  3
"<Built In>"
 90
        0
280
     0
281
     0
  0
CLASS
  1
LONG_TRANSACTION
  2
AcDbLongTransaction
  3
AutoCAD 2000
 90
        0
280
     0
281
     0
  0
CLASS
  1
LWPOLYLINE
  2
AcDbPolyline
  3
"AutoCAD"
 90
        0
280
     0
281
     1
  0
CLASS
  1
HATCH
  2
AcDbHatch
  3
"ACAD_SEDONA"
 90
        0
280
     0
281
     1
  0
CLASS
  1
XRECORD
  2
AcDbXrecord
  3
"<Built In>"
 90
        0
280
     0
281
     0
  0
CLASS
  1
LONG_TRANSACTION
  2
AcDbLongTransaction
  3
AutoCAD 2000
 90
        0
280
     0
281
     0
  0
CLASS
  1
LWPOLYLINE
  2
AcDbPolyline
  3
"AutoCAD"
 90
        0
280
     0
281
     1
  0
CLASS
  1
HATCH
  2
AcDbHatch
  3
"ACAD_SEDONA"
 90
        0
280
     0
281
     1
  0
CLASS
  1
XRECORD
  2
AcDbXrecord
  3
"<Built In>"
 90
        0
280
     0
281
     0
  0
CLASS
  1
LONG_TRANSACTION
  2
AcDbLongTransaction
  3
AutoCAD 2000
 90
        0
280
     0
281
     0
  0
CLASS
  1
LWPOLYLINE
  2
AcDbPolyline
  3
"AutoCAD"
 90
        0
280
     0
281
     1
  0
CLASS
  1
HATCH
  2
AcDbHatch
  3
"ACAD_SEDONA"
 90
        0
280
     0
281
     1
  0
CLASS
  1
XRECORD
  2
AcDbXrecord
  3
"<Built In>"
 90
        0
280
     0
281
     0
  0
CLASS
  1
LONG_TRANSACTION
  2
AcDbLongTransaction
  3
AutoCAD 2000
 90
        0
280
     0
281
     0
  0
CLASS
  1
LWPOLYLINE
  2
AcDbPolyline
  3
"AutoCAD"
 90
        0
280
     0
281
     1
  0
CLASS
  1
HATCH
  2
AcDbHatch
  3
"ACAD_SEDONA"
 90
        0
280
     0
281
     1
  0
CLASS
  1
XRECORD
  2
AcDbXrecord
  3
"<Built In>"
 90
        0
280
     0
281
     0
  0
CLASS
  1
LONG_TRANSACTION
  2
AcDbLongTransaction
  3
AutoCAD 2000
 90
        0
280
     0
281
     0
  0
CLASS
  1
LWPOLYLINE
  2
AcDbPolyline
  3
"AutoCAD"
 90
        0
280
     0
281
     1
  0
CLASS
  1
HATCH
  2
AcDbHatch
  3
"ACAD_SEDONA"
 90
        0
280
     0
281
     1
  0
CLASS
  1
XRECORD
  2
AcDbXrecord
  3
"<Built In>"
 90
        0
280
     0
281
     0
  0
CLASS
  1
LONG_TRANSACTION
  2
AcDbLongTransaction
  3
AutoCAD 2000
 90
        0
280
     0
281
     0
  0
CLASS
  1
LWPOLYLINE
  2
AcDbPolyline
  3
"AutoCAD"
 90
        0
280
     0
281
     1
  0
CLASS
  1
HATCH
  2
AcDbHatch
  3
"ACAD_SEDONA"
 90
        0
280
     0
281
     1
  0
CLASS
  1
XRECORD
  2
AcDbXrecord
  3
"<Built In>"
 90
        0
280
     0
281
     0
  0
CLASS
  1
LONG_TRANSACTION
  2
AcDbLongTransaction
  3
AutoCAD 2000
 90
        0
280
     0
281
     0
  0
CLASS
  1
LWPOLYLINE
  2
AcDbPolyline
  3
"AutoCAD"
 90
        0
280
     0
281
     1
  0
CLASS
  1
HATCH
  2
AcDbHatch
  3
"ACAD_SEDONA"
 90
        0
280
     0
281
     1
  0
CLASS
  1
XRECORD
  2
AcDbXrecord
  3
"<Built In>"
 90
        0
280
     0
281
     0
  0
CLASS
  1
LONG_TRANSACTION
  2
AcDbLongTransaction
  3
AutoCAD 2000
 90
        0
280
     0
281
     0
  0
CLASS
  1
LWPOLYLINE
  2
AcDbPolyline
  3
"AutoCAD"
 90
        0
280
     0
281
     1
  0
CLASS
  1
HATCH
  2
AcDbHatch
  3
"ACAD_SEDONA"
 90
        0
280
     0
281
     1
  0
CLASS
  1
XRECORD
  2
AcDbXrecord
  3
"<Built In>"
 90
        0
280
     0
281
     0
  0
CLASS
  1
LONG_TRANSACTION
  2
AcDbLongTransaction
  3
AutoCAD 2000
 90
        0
280
     0
281
     0
  0
CLASS
  1
LWPOLYLINE
  2
AcDbPolyline
  3
"AutoCAD"
 90
        0
280
     0
281
     1
  0
CLASS
  1
HATCH
  2
AcDbHatch
  3
"ACAD_SEDONA"
 90
        0
280
     0
281
     1
  0
CLASS
  1
XRECORD
  2
AcDbXrecord
  3
"<Built In>"
 90
        0
280
     0
281
     0
  0
CLASS
  1
LONG_TRANSACTION
  2
AcDbLongTransaction
  3
AutoCAD 2000
 90
        0
280
     0
281
     0
  0
CLASS
  1
LWPOLYLINE
  2
AcDbPolyline
  3
"AutoCAD"
 90
        0
280
     0
281
     1
  0
CLASS
  1
HATCH
  2
AcDbHatch
  3
"ACAD_SEDONA"
 90
        0
280
     0
281
     1
  0
CLASS
  1
XRECORD
  2
AcDbXrecord
  3
"<Built In>"
 90
        0
280
     0
281
     0
  0
CLASS
  1
LONG_TRANSACTION
  2
AcDbLongTransaction
  3
AutoCAD 2000
 90
        0
280
     0
281
     0
  0
CLASS
  1
LWPOLYLINE
  2
AcDbPolyline
  3
"AutoCAD"
 90
        0
280
     0
281
     1
  0
CLASS
  1
HATCH
  2
AcDbHatch
  3
"ACAD_SEDONA"
 90
        0
280
     0
281
     1
  0
CLASS
  1
XRECORD
  2
AcDbXrecord
  3
"<Built In>"
 90
        0
280
     0
281
     0
  0
CLASS
  1
LONG_TRANSACTION
  2
AcDbLongTransaction
  3
AutoCAD 2000
 90
        0
280
     0
281
     0
  0
CLASS
  1
LWPOLYLINE
  2
AcDbPolyline
  3
"AutoCAD"
 90
        0
280
     0
281
     1
  0
CLASS
  1
HATCH
  2
AcDbHatch
  3
"ACAD_SEDONA"
 90
        0
280
     0
281
     1
  0
CLASS
  1
XRECORD
  2
AcDbXrecord
  3
"<Built In>"
 90
        0
280
     0
281
     0
  0
CLASS
  1
LONG_TRANSACTION
  2
AcDbLongTransaction
  3
AutoCAD 2000
 90
        0
280
     0
281
     0
  0
CLASS
  1
LWPOLYLINE
  2
AcDbPolyline
  3
"AutoCAD"
 90
        0
280
     0
281
     1
  0
CLASS
  1
HATCH
  2
AcDbHatch
  3
"ACAD_SEDONA"
 90
        0
280
     0
281
     1
  0
CLASS
  1
XRECORD
  2
AcDbXrecord
  3
"<Built In>"
 90
        0
280
     0
281
     0
  0
CLASS
  1
LONG_TRANSACTION
  2
AcDbLongTransaction
  3
AutoCAD 2000
 90
        0
280
     0
281
     0
  0
CLASS
  1
LWPOLYLINE
  2
AcDbPolyline
  3
"AutoCAD"
 90
        0
280
     0
281
     1
  0
CLASS
  1
HATCH
  2
AcDbHatch
  3
"ACAD_SEDONA"
 90
        0
280
     0
281
     1
  0
CLASS
  1
XRECORD
  2
AcDbXrecord
  3
"<Built In>"
 90
        0
280
     0
281
     0
  0
CLASS
  1
LONG_TRANSACTION
  2
AcDbLongTransaction
  3
AutoCAD 2000
 90
        0
280
     0
281
     0
  0
CLASS
  1
LWPOLYLINE
  2
AcDbPolyline
  3
"AutoCAD"
 90
        0
280
     0
281
     1
  0
CLASS
  1
HATCH
  2
AcDbHatch
  3
"ACAD_SEDONA"
 90
        0
280
     0
281
     1
  0
CLASS
  1
XRECORD
  2
AcDbXrecord
  3
"<Built In>"
 90
        0
280
     0
281
     0
  0
CLASS
  1
LONG_TRANSACTION
  2
AcDbLongTransaction
  3
AutoCAD 2000
 90
        0
280
     0
281
     0
  0
CLASS
  1
LWPOLYLINE
  2
AcDbPolyline
  3
"AutoCAD"
 90
        0
280
     0
281
     1
  0
CLASS
  1
HATCH
  2
AcDbHatch
  3
"ACAD_SEDONA"
 90
        0
280
     0
281
     1
  0
CLASS
  1
XRECORD
  2
AcDbXrecord
  3
"<Built In>"
 90
        0
280
     0
281
     0
  0
CLASS
  1
LONG_TRANSACTION
  2
AcDbLongTransaction
  3
AutoCAD 2000
 90
        0
280
     0
281
     0
  0
CLASS
  1
LWPOLYLINE
  2
AcDbPolyline
  3
"AutoCAD"
 90
        0
280
     0
281
     1
  0
CLASS
  1
HATCH
  2
AcDbHatch
  3
"ACAD_SEDONA"
 90
        0
280
     0
281
     1
  0
CLASS
  1
XRECORD
  2
AcDbXrecord
  3
"<Built In>"
 90
        0
280
     0
281
     0
  0
CLASS
  1
LONG_TRANSACTION
  2
AcDbLongTransaction
  3
AutoCAD 2000
 90
        0
280
     0
281
     0
  0
CLASS
  1
LWPOLYLINE
  2
AcDbPolyline
  3
"AutoCAD"
 90
        0
280
     0
281
     1
  0
CLASS
  1
HATCH
  2
AcDbHatch
  3
"ACAD_SEDONA"
 90
        0
280
     0
281
     1
  0
CLASS
  1
XRECORD
  2
AcDbXrecord
  3
"<Built In>"
 90
        0
280
     0
281
     0
  0
CLASS
  1
LONG_TRANSACTION
  2
AcDbLongTransaction
  3
AutoCAD 2000
 90
        0
280
     0
281
     0
  0
CLASS
  1
LWPOLYLINE
  2
AcDbPolyline
  3
"AutoCAD"
 90
        0
280
     0
281
     1
  0
CLASS
  1
HATCH
  2
AcDbHatch
  3
"ACAD_SEDONA"
 90
        0
280
     0
281
     1
  0
CLASS
  1
XRECORD
  2
AcDbXrecord
  3
"<Built In>"
 90
        0
280
     0
281
     0
  0
CLASS
  1
LONG_TRANSACTION
  2
AcDbLongTransaction
  3
AutoCAD 2000
 90
        0
280
     0
281
     0
  0
CLASS
  1
LWPOLYLINE
  2
AcDbPolyline
  3
"AutoCAD"
 90
        0
280
     0
281
     1
  0
CLASS
  1
HATCH
  2
AcDbHatch
  3
"ACAD_SEDONA"
 90
        0
280
     0
281
     1
  0
CLASS
  1
XRECORD
  2
AcDbXrecord
  3
"<Built In>"
 90
        0
280
     0
281
     0
  0
CLASS
  1
LONG_TRANSACTION
  2
AcDbLongTransaction
  3
AutoCAD 2000
 90
        0
280
     0
281
     0
  0
CLASS
  1
LWPOLYLINE
  2
AcDbPolyline
  3
"AutoCAD"
 90
        0
280
     0
281
     1
  0
CLASS
  1
HATCH
  2
AcDbHatch
  3
"ACAD_SEDONA"
 90
        0
280
     0
281
     1
  0
CLASS
  1
XRECORD
  2
AcDbXrecord
  3
"<Built In>"
 90
        0
280
     0
281
     0
  0
CLASS
  1
LONG_TRANSACTION
  2
AcDbLongTransaction
  3
AutoCAD 2000
 90
        0
280
     0
281
     0
  0
CLASS
  1
LWPOLYLINE
  2
AcDbPolyline
  3
"AutoCAD"
 90
        0
280
     0
281
     1
  0
CLASS
  1
HATCH
  2
AcDbHatch
  3
"ACAD_SEDONA"
 90
        0
280
     0
281
     1
  0
CLASS
  1
XRECORD
  2
AcDbXrecord
  3
"<Built In>"
 90
        0
280
     0
281
     0
  0
CLASS
  1
LONG_TRANSACTION
  2
AcDbLongTransaction
  3
AutoCAD 2000
 90
        0
280
     0
281
     0
  0
CLASS
  1
LWPOLYLINE
  2
AcDbPolyline
  3
"AutoCAD"
 90
        0
280
     0
281
     1
  0
CLASS
  1
HATCH
  2
AcDbHatch
  3
"ACAD_SEDONA"
 90
        0
280
     0
281
     1
  0
CLASS
  1
XRECORD
  2
AcDbXrecord
  3
"<Built In>"
 90
        0
280
     0
281
     0
  0
CLASS
  1
LONG_TRANSACTION
  2
AcDbLongTransaction
  3
AutoCAD 2000
 90
        0
280
     0
281
     0
  0
CLASS
  1
LWPOLYLINE
  2
AcDbPolyline
  3
"AutoCAD"
 90
        0
280
     0
281
     1
  0
CLASS
  1
HATCH
  2
AcDbHatch
  3
"ACAD_SEDONA"
 90
        0
280
     0
281
     1
  0
CLASS
  1
XRECORD
  2
AcDbXrecord
  3
"<Built In>"
 90
        0
280
     0
281
     0
  0
CLASS
  1
LONG_TRANSACTION
  2
AcDbLongTransaction
  3
AutoCAD 2000
 90
        0
280
     0
281
     0
  0
CLASS
  1
LWPOLYLINE
  2
AcDbPolyline
  3
"AutoCAD"
 90
        0
280
     0
281
     1
  0
CLASS
  1
HATCH
  2
AcDbHatch
  3
"ACAD_SEDONA"
 90
        0
280
     0
281
     1
  0
CLASS
  1
XRECORD
  2
AcDbXrecord
  3
"<Built In>"
 90
        0
280
     0
281
     0
  0
CLASS
  1
LONG_TRANSACTION
  2
AcDbLongTransaction
  3
AutoCAD 2000
 90
        0
280
     0
281
     0
  0
CLASS
  1
LWPOLYLINE
  2
AcDbPolyline
  3
"AutoCAD"
 90
        0
280
     0
281
     1
  0
CLASS
  1
HATCH
  2
AcDbHatch
  3
"ACAD_SEDONA"
 90
        0
280
     0
281
     1
  0
CLASS
  1
XRECORD
  2
AcDbXrecord
  3
"<Built In>"
 90
        0
280
     0
281
     0
  0
CLASS
  1
LONG_TRANSACTION
  2
AcDbLongTransaction
  3
AutoCAD 2000
 90
        0
280
     0
281
     0
  0
CLASS
  1
LWPOLYLINE
  2
AcDbPolyline
  3
"AutoCAD"
 90
        0
280
     0
281
     1
  0
CLASS
  1
HATCH
  2
AcDbHatch
  3
"ACAD_SEDONA"
 90
        0
280
     0
281
     1
  0
CLASS
  1
XRECORD
  2
AcDbXrecord
  3
"<Built In>"
 90
        0
280
     0
281
     0
  0
CLASS
  1
LONG_TRANSACTION
  2
AcDbLongTransaction
  3
AutoCAD 2000
 90
        0
280
     0
281
     0
  0
CLASS
  1
LWPOLYLINE
  2
AcDbPolyline
  3
"AutoCAD"
 90
        0
280
     0
281
     1
  0
CLASS
  1
HATCH
  2
AcDbHatch
  3
"ACAD_SEDONA"
 90
        0
280
     0
281
     1
  0
CLASS
  1
XRECORD
  2
AcDbXrecord
  3
"<Built In>"
 90
        0
280
     0
281
     0
  0
CLASS
  1
LONG_TRANSACTION
  2
AcDbLongTransaction
  3
AutoCAD 2000
 90
        0
280
     0
281
     0
  0
CLASS
  1
LWPOLYLINE
  2
AcDbPolyline
  3
"AutoCAD"
 90
        0
280
     0
281
     1
  0
CLASS
  1
HATCH
  2
AcDbHatch
  3
"ACAD_SEDONA"
 90
        0
280
     0
281
     1
  0
CLASS
  1
XRECORD
  2
AcDbXrecord
  3
"<Built In>"
 90
        0
280
     0
281
     0
  0
CLASS
  1
LONG_TRANSACTION
  2
AcDbLongTransaction
  3
AutoCAD 2000
 90
        0
280
     0
281
     0
  0
CLASS
  1
LWPOLYLINE
  2
AcDbPolyline
  3
"AutoCAD"
 90
        0
280
     0
281
     1
  0
CLASS
  1
HATCH
  2
AcDbHatch
  3
"ACAD_SEDONA"
 90
        0
280
     0
281
     1
  0
CLASS
  1
XRECORD
  2
AcDbXrecord
  3
"<Built In>"
 90
        0
280
     0
281
     0
  0
CLASS
  1
LONG_TRANSACTION
  2
AcDbLongTransaction
  3
AutoCAD 2000
 90
        0
280
     0
281
     0
  0
CLASS
  1
LWPOLYLINE
  2
AcDbPolyline
  3
"AutoCAD"
 90
        0
280
     0
281
     1
  0
CLASS
  1
HATCH
  2
AcDbHatch
  3
"ACAD_SEDONA"
 90
        0
280
     0
281
     1
  0
CLASS
  1
XRECORD
  2
AcDbXrecord
  3
"<Built In>"
 90
        0
280
     0
281
     0
  0
CLASS
  1
LONG_TRANSACTION
  2
AcDbLongTransaction
  3
AutoCAD 2000
 90
        0
280
     0
281
     0
  0
CLASS
  1
LWPOLYLINE
  2
AcDbPolyline
  3
"AutoCAD"
 90
        0
280
     0
281
     1
  0
CLASS
  1
HATCH
  2
AcDbHatch
  3
"ACAD_SEDONA"
 90
        0
280
     0
281
     1
  0
CLASS
  1
XRECORD
  2
AcDbXrecord
  3
"<Built In>"
 90
        0
280
     0
281
     0
  0
CLASS
  1
LONG_TRANSACTION
  2
AcDbLongTransaction
  3
AutoCAD 2000
 90
        0
280
     0
281
     0
  0
CLASS
  1
LWPOLYLINE
  2
AcDbPolyline
  3
"AutoCAD"
 90
        0
280
     0
281
     1
  0
CLASS
  1
HATCH
  2
AcDbHatch
  3
"ACAD_SEDONA"
 90
        0
280
     0
281
     1
  0
CLASS
  1
XRECORD
  2
AcDbXrecord
  3
"<Built In>"
 90
        0
280
     0
281
     0
  0
CLASS
  1
LONG_TRANSACTION
  2
AcDbLongTransaction
  3
AutoCAD 2000
 90
        0
280
     0
281
     0
  0
CLASS
  1
LWPOLYLINE
  2
AcDbPolyline
  3
"AutoCAD"
 90
        0
280
     0
281
     1
  0
CLASS
  1
HATCH
  2
AcDbHatch
  3
"ACAD_SEDONA"
 90
        0
280
     0
281
     1
  0
CLASS
  1
XRECORD
  2
AcDbXrecord
  3
"<Built In>"
 90
        0
280
     0
281
     0
  0
CLASS
  1
LONG_TRANSACTION
  2
AcDbLongTransaction
  3
AutoCAD 2000
 90
        0
280
     0
281
     0
  0
CLASS
  1
LWPOLYLINE
  2
AcDbPolyline
  3
"AutoCAD"
 90
        0
280
     0
281
     1
  0
CLASS
  1
HATCH
  2
AcDbHatch
  3
"ACAD_SEDONA"
 90
        0
280
     0
281
     1
  0
CLASS
  1
XRECORD
  2
AcDbXrecord
  3
"<Built In>"
 90
        0
280
     0
281
     0
  0
CLASS
  1
LONG_TRANSACTION
  2
AcDbLongTransaction
  3
AutoCAD 2000
 90
        0
280
     0
281
     0
  0
CLASS
  1
LWPOLYLINE
  2
AcDbPolyline
  3
"AutoCAD"
 90
        0
280
     0
281
     1
  0
CLASS
  1
HATCH
  2
AcDbHatch
  3
"ACAD_SEDONA"
 90
        0
280
     0
281
     1
  0
CLASS
  1
XRECORD
  2
AcDbXrecord
  3
"<Built In>"
 90
        0
280
     0
281
     0
  0
CLASS
  1
LONG_TRANSACTION
  2
AcDbLongTransaction
  3
AutoCAD 2000
 90
        0
280
     0
281
     0
  0
CLASS
  1
LWPOLYLINE
  2
AcDbPolyline
  3
"AutoCAD"
 90
        0
280
     0
281
     1
  0
CLASS
  1
HATCH
  2
AcDbHatch
  3
"ACAD_SEDONA"
 90
        0
280
     0
281
     1
  0
CLASS
  1
XRECORD
  2
AcDbXrecord
  3
"<Built In>"
 90
        0
280
     0
281
     0
  0
CLASS
  1
LONG_TRANSACTION
  2
AcDbLongTransaction
  3
AutoCAD 2000
 90
        0
280
     0
281
     0
  0
CLASS
  1
LWPOLYLINE
  2
AcDbPolyline
  3
"AutoCAD"
 90
        0
280
     0
281
     1
  0
CLASS
  1
HATCH
  2
AcDbHatch
  3
"ACAD_SEDONA"
 90
        0
280
     0
281
     1
  0
CLASS
  1
XRECORD
  2
AcDbXrecord
  3
"<Built In>"
 90
        0
280
     0
281
     0
  0
CLASS
  1
LONG_TRANSACTION
  2
AcDbLongTransaction
  3
AutoCAD 2000
 90
        0
280
     0
281
     0
  0
CLASS
  1
LWPOLYLINE
  2
AcDbPolyline
  3
"AutoCAD"
 90
        0
280
     0
281
     1
  0
CLASS
  1
HATCH
  2
AcDbHatch
  3
"ACAD_SEDONA"
 90
        0
280
     0
281
     1
  0
CLASS
  1
XRECORD
  2
AcDbXrecord
  3
"<Built In>"
 90
        0
280
     0
281
     0
  0
CLASS
  1
LONG_TRANSACTION
  2
AcDbLongTransaction
  3
AutoCAD 2000
 90
        0
280
     0
281
     0
  0
CLASS
  1
LWPOLYLINE
  2
AcDbPolyline
  3
"AutoCAD"
 90
        0
280
     0
281
     1
  0
CLASS
  1
HATCH
  2
AcDbHatch
  3
"ACAD_SEDONA"
 90
        0
280
     0
281
     1
  0
CLASS
  1
XRECORD
  2
AcDbXrecord
  3
"<Built In>"
 90
        0
280
     0
281
     0
  0
CLASS
  1
LONG_TRANSACTION
  2
AcDbLongTransaction
  3
AutoCAD 2000
 90
        0
280
     0
281
     0
  0
CLASS
  1
LWPOLYLINE
  2
AcDbPolyline
  3
"AutoCAD"
 90
        0
280
     0
281
     1
  0
CLASS
  1
HATCH
  2
AcDbHatch
  3
"ACAD_SEDONA"
 90
        0
280
     0
281
     1
  0
CLASS
  1
XRECORD
  2
AcDbXrecord
  3
"<Built In>"
 90
        0
280
     0
281
     0
  0
CLASS
  1
LONG_TRANSACTION
  2
AcDbLongTransaction
  3
AutoCAD 2000
 90
        0
280
     0
281
     0
  0
CLASS
  1
LWPOLYLINE
  2
AcDbPolyline
  3
"AutoCAD"
 90
        0
280
     0
281
     1
  0
CLASS
  1
HATCH
  2
AcDbHatch
  3
"ACAD_SEDONA"
 90
        0
280
     0
281
     1
  0
CLASS
  1
XRECORD
  2
AcDbXrecord
  3
"<Built In>"
 90
        0
280
     0
281
     0
  0
CLASS
  1
LONG_TRANSACTION
  2
AcDbLongTransaction
  3
AutoCAD 2000
 90
        0
280
     0
281
     0
  0
CLASS
  1
LWPOLYLINE
  2
AcDbPolyline
  3
"AutoCAD"
 90
        0
280
     0
281
     1
  0
CLASS
  1
HATCH
  2
AcDbHatch
  3
"ACAD_SEDONA"
 90
        0
280
     0
281
     1
  0
CLASS
  1
XRECORD
  2
AcDbXrecord
  3
"<Built In>"
 90
        0
280
     0
281
     0
  0
CLASS
  1
LONG_TRANSACTION
  2
AcDbLongTransaction
  3
AutoCAD 2000
 90
        0
280
     0
281
     0
  0
CLASS
  1
LWPOLYLINE
  2
AcDbPolyline
  3
"AutoCAD"
 90
        0
280
     0
281
     1
  0
CLASS
  1
HATCH
  2
AcDbHatch
  3
"ACAD_SEDONA"
 90
        0
280
     0
281
     1
  0
CLASS
  1
XRECORD
  2
AcDbXrecord
  3
"<Built In>"
 90
        0
280
     0
281
     0
  0
CLASS
  1
LONG_TRANSACTION
  2
AcDbLongTransaction
  3
AutoCAD 2000
 90
        0
280
     0
281
     0
  0
CLASS
  1
LWPOLYLINE
  2
AcDbPolyline
  3
"AutoCAD"
 90
        0
280
     0
281
     1
  0
CLASS
  1
HATCH
  2
AcDbHatch
  3
"ACAD_SEDONA"
 90
        0
280
     0
281
     1
  0
CLASS
  1
XRECORD
  2
AcDbXrecord
  3
"<Built In>"
 90
        0
280
     0
281
     0
  0
CLASS
  1
LONG_TRANSACTION
  2
AcDbLongTransaction
  3
AutoCAD 2000
 90
        0
280
     0
281
     0
  0
CLASS
  1
LWPOLYLINE
  2
AcDbPolyline
  3
"AutoCAD"
 90
        0
280
     0
281
     1
  0
CLASS
  1
HATCH
  2
AcDbHatch
  3
"ACAD_SEDONA"
 90
        0
280
     0
281
     1
  0
CLASS
  1
XRECORD
  2
AcDbXrecord
  3
"<Built In>"
 90
        0
280
     0
281
     0
  0
CLASS
  1
LONG_TRANSACTION
  2
AcDbLongTransaction
  3
AutoCAD 2000
 90
        0
280
     0
281
     0
  0
CLASS
  1
LWPOLYLINE
  2
AcDbPolyline
  3
"AutoCAD"
 90
        0
280
     0
281
     1
  0
CLASS
  1
HATCH
  2
AcDbHatch
  3
"ACAD_SEDONA"
 90
        0
280
     0
281
     1
  0
CLASS
  1
XRECORD
  2
AcDbXrecord
  3
"<Built In>"
 90
        0
280
     0
281
     0
  0
CLASS
  1
LONG_TRANSACTION
  2
AcDbLongTransaction
  3
AutoCAD 2000
 90
        0
280
     0
281
     0
  0
CLASS
  1
LWPOLYLINE
  2
AcDbPolyline
  3
"AutoCAD"
 90
        0
280
     0
281
     1
  0
CLASS
  1
HATCH
  2
AcDbHatch
  3
"ACAD_SEDONA"
 90
        0
280
     0
281
     1
  0
CLASS
  1
XRECORD
  2
AcDbXrecord
  3
"<Built In>"
 90
        0
280
     0
281
     0
  0
CLASS
  1
LONG_TRANSACTION
  2
AcDbLongTransaction
  3
AutoCAD 2000
 90
        0
280
     0
281
     0
  0
CLASS
  1
LWPOLYLINE
  2
AcDbPolyline
  3
"AutoCAD"
 90
        0
280
     0
281
     1
  0
CLASS
  1
HATCH
  2
AcDbHatch
  3
"ACAD_SEDONA"
 90
        0
280
     0
281
     1
  0
CLASS
  1
XRECORD
  2
AcDbXrecord
  3
"<Built In>"
 90
        0
280
     0
281
     0
  0
CLASS
  1
LONG_TRANSACTION
  2
AcDbLongTransaction
  3
AutoCAD 2000
 90
        0
280
     0
281
     0
  0
CLASS
  1
LWPOLYLINE
  2
AcDbPolyline
  3
"AutoCAD"
 90
        0
280
     0
281
     1
  0
CLASS
  1
HATCH
  2
AcDbHatch
  3
"ACAD_SEDONA"
 90
        0
280
     0
281
     1
  0
CLASS
  1
XRECORD
  2
AcDbXrecord
  3
"<Built In>"
 90
        0
280
     0
281
     0
  0
CLASS
  1
LONG_TRANSACTION
  2
AcDbLongTransaction
  3
AutoCAD 2000
 90
        0
280
     0
281
     0
  0
CLASS
  1
LWPOLYLINE
  2
AcDbPolyline
  3
"AutoCAD"
 90
        0
280
     0
281
     1
  0
CLASS
  1
HATCH
  2
AcDbHatch
  3
"ACAD_SEDONA"
 90
        0
280
     0
281
     1
  0
CLASS
  1
XRECORD
  2
AcDbXrecord
  3
"<Built In>"
 90
        0
280
     0
281
     0
  0
CLASS
  1
LONG_TRANSACTION
  2
AcDbLongTransaction
  3
AutoCAD 2000
 90
        0
280
     0
281
     0
  0
CLASS
  1
LWPOLYLINE
  2
AcDbPolyline
  3
"AutoCAD"
 90
        0
280
     0
281
     1
  0
CLASS
  1
HATCH
  2
AcDbHatch
  3
"ACAD_SEDONA"
 90
        0
280
     0
281
     1
  0
CLASS
  1
XRECORD
  2
AcDbXrecord
  3
"<Built In>"
 90
        0
280
     0
281
     0
  0
CLASS
  1
LONG_TRANSACTION
  2
AcDbLongTransaction
  3
AutoCAD 2000
 90
        0
280
     0
281
     0
  0
CLASS
  1
LWPOLYLINE
  2
AcDbPolyline
  3
"AutoCAD"
 90
        0
280
     0
281
     1
  0
CLASS
  1
HATCH
  2
AcDbHatch
  3
"ACAD_SEDONA"
 90
        0
280
     0
281
     1
  0
CLASS
  1
XRECORD
  2
AcDbXrecord
  3
"<Built In>"
 90
        0
280
     0
281
     0
  0
CLASS
  1
LONG_TRANSACTION
  2
AcDbLongTransaction
  3
AutoCAD 2000
 90
        0
280
     0
281
     0
  0
CLASS
  1
LWPOLYLINE
  2
AcDbPolyline
  3
"AutoCAD"
 90
        0
280
     0
281
     1
  0
CLASS
  1
HATCH
  2
AcDbHatch
  3
"ACAD_SEDONA"
 90
        0
280
     0
281
     1
  0
CLASS
  1
XRECORD
  2
AcDbXrecord
  3
"<Built In>"
 90
        0
280
     0
281
     0
  0
CLASS
  1
LONG_TRANSACTION
  2
AcDbLongTransaction
  3
AutoCAD 2000
 90
        0
280
     0
281
     0
  0
CLASS
  1
LWPOLYLINE
  2
AcDbPolyline
  3
"AutoCAD"
 90
        0
280
     0
281
     1
  0
CLASS
  1
HATCH
  2
AcDbHatch
  3
"ACAD_SEDONA"
 90
        0
280
     0
281
     1
  0
CLASS
  1
XRECORD
  2
AcDbXrecord
  3
"<Built In>"
 90
        0
280
     0
281
     0
  0
CLASS
  1
LONG_TRANSACTION
  2
AcDbLongTransaction
  3
AutoCAD 2000
 90
        0
280
     0
281
     0
  0
CLASS
  1
LWPOLYLINE
  2
AcDbPolyline
  3
"AutoCAD"
 90
        0
280
     0
281
     1
  0
CLASS
  1
HATCH
  2
AcDbHatch
  3
"ACAD_SEDONA"
 90
        0
280
     0
281
     1
  0
CLASS
  1
XRECORD
  2
AcDbXrecord
  3
"<Built In>"
 90
        0
280
     0
281
     0
  0
CLASS
  1
LONG_TRANSACTION
  2
AcDbLongTransaction
  3
AutoCAD 2000
 90
        0
280
     0
281
     0
  0
CLASS
  1
LWPOLYLINE
  2
AcDbPolyline
  3
"AutoCAD"
 90
        0
280
     0
281
     1
  0
CLASS
  1
HATCH
  2
AcDbHatch
  3
"ACAD_SEDONA"
 90
        0
280
     0
281
     1
  0
CLASS
  1
XRECORD
  2
AcDbXrecord
  3
"<Built In>"
 90
        0
280
     0
281
     0
  0
CLASS
  1
LONG_TRANSACTION
  2
AcDbLongTransaction
  3
AutoCAD 2000
 90
        0
280
     0
281
     0
  0
CLASS
  1
LWPOLYLINE
  2
AcDbPolyline
  3
"AutoCAD"
 90
        0
280
     0
281
     1
  0
CLASS
  1
HATCH
  2
AcDbHatch
  3
"ACAD_SEDONA"
 90
        0
280
     0
281
     1
  0
CLASS
  1
XRECORD
  2
AcDbXrecord
  3
"<Built In>"
 90
        0
280
     0
281
     0
  0
CLASS
  1
LONG_TRANSACTION
  2
AcDbLongTransaction
  3
AutoCAD 2000
 90
        0
280
     0
281
     0
  0
CLASS
  1
LWPOLYLINE
  2
AcDbPolyline
  3
"AutoCAD"
 90
        0
280
     0
281
     1
  0
CLASS
  1
HATCH
  2
AcDbHatch
  3
"ACAD_SEDONA"
 90
        0
280
     0
281
     1
  0
CLASS
  1
XRECORD
  2
AcDbXrecord
  3
"<Built In>"
 90
        0
280
     0
281
     0
  0
ENDSEC
  0
SECTION
  2
TABLES
  0
TABLE
  2
VPORT
  5
469
100
AcDbSymbolTable
 70
     1
  0
VPORT
  5
6D014
102
{ACAD_XDICTIONARY
360
6D3E8
102
}
100
AcDbSymbolTableRecord
100
AcDbViewportTableRecord
  2
*ACTIVE
 70
     0
 10
0.0
 20
0.0
 11
1.0
 21
1.0
 12
-0.571198
 22
6.315429
 13
0.0
 23
0.0
 14
1.0
 24
1.0
 15
0.0
 25
0.0
 16
0.0
 26
0.0
 36
1.0
 17
0.648805
 27
-6.132183
 37
2.586733
 40
2.37465
 41
1.786496
 42
50.0
 43
0.0
 44
0.0
 50
0.0
 51
0.0
 71
     0
 72
   100
 73
     1
 74
     1
 75
     0
 76
     0
 77
     0
 78
     0
  0
ENDTAB
  0
TABLE
  2
LTYPE
  5
466
100
AcDbSymbolTable
 70
     1
  0
LTYPE
  5
472
100
AcDbSymbolTableRecord
100
AcDbLinetypeTableRecord
  2
BYBLOCK
 70
     0
  3

 72
    65
 73
     0
 40
0.0
  0
LTYPE
  5
473
100
AcDbSymbolTableRecord
100
AcDbLinetypeTableRecord
  2
BYLAYER
 70
     0
  3

 72
    65
 73
     0
 40
0.0
  0
LTYPE
  5
474
100
AcDbSymbolTableRecord
100
AcDbLinetypeTableRecord
  2
CONTINUOUS
 70
     0
  3
Solid line
 72
    65
 73
     0
 40
0.0
  0
ENDTAB
  0
TABLE
  2
LAYER
  5
463
100
AcDbSymbolTable
 70
     8
  0
LAYER
  5
46F
100
AcDbSymbolTableRecord
100
AcDbLayerTableRecord
  2
0
 70
     0
 62
     7
  6
CONTINUOUS
  0
LAYER
  5
485
100
AcDbSymbolTableRecord
100
AcDbLayerTableRecord
  2
AREA1
 70
     0
 62
     7
  6
CONTINUOUS
  0
LAYER
  5
486
100
AcDbSymbolTableRecord
100
AcDbLayerTableRecord
  2
AREA2
 70
     0
 62
     7
  6
CONTINUOUS
  0
LAYER
  5
494
102
{ACAD_XDICTIONARY
360
6D415
102
}
100
AcDbSymbolTableRecord
100
AcDbLayerTableRecord
  2
DEFPOINTS
 70
     0
 62
    -7
  6
CONTINUOUS
  0
LAYER
  5
495
100
AcDbSymbolTableRecord
100
AcDbLayerTableRecord
  2
DIMS-MTG-HOLES
 70
     0
 62
    -1
  6
CONTINUOUS
  0
LAYER
  5
4E6
100
AcDbSymbolTableRecord
100
AcDbLayerTableRecord
  2
SCALE
 70
     0
 62
    -7
  6
CONTINUOUS
  0
LAYER
  5
4ED
100
AcDbSymbolTableRecord
100
AcDbLayerTableRecord
  2
SNAP_POINTS
 70
     0
 62
    -1
  6
CONTINUOUS
  0
LAYER
  5
4F1
100
AcDbSymbolTableRecord
100
AcDbLayerTableRecord
  2
ATTRIBUTES
 70
     0
 62
    -7
  6
CONTINUOUS
  0
ENDTAB
  0
TABLE
  2
STYLE
  5
464
100
AcDbSymbolTable
 70
     1
  0
STYLE
  5
470
100
AcDbSymbolTableRecord
100
AcDbTextStyleTableRecord
  2
STANDARD
 70
     0
 40
0.0
 41
1.0
 50
0.0
 71
     0
 42
0.2
  3
txt
  4

  0
ENDTAB
  0
TABLE
  2
VIEW
  5
467
100
AcDbSymbolTable
 70
     0
  0
ENDTAB
  0
TABLE
  2
UCS
  5
468
100
AcDbSymbolTable
 70
     0
  0
ENDTAB
  0
TABLE
  2
APPID
  5
46A
100
AcDbSymbolTable
 70
     2
  0
APPID
  5
471
100
AcDbSymbolTableRecord
100
AcDbRegAppTableRecord
  2
ACAD
 70
     0
  0
APPID
  5
47E
100
AcDbSymbolTableRecord
100
AcDbRegAppTableRecord
  2
AVE_RENDER
 70
     0
  0
ENDTAB
  0
TABLE
  2
DIMSTYLE
  5
46B
100
AcDbSymbolTable
 70
     2
  0
DIMSTYLE
105
49A
102
{ACAD_XDICTIONARY
360
6D417
102
}
102
{ACAD_REACTORS
330
6D006
330
6CFD0
330
6CFCF
102
}
100
AcDbSymbolTableRecord
100
AcDbDimStyleTableRecord
  2
ABECAD_3V
 70
     0
  3

  4

  5

  6

  7

 40
0.0
 41
0.125
 42
0.0625
 43
0.375
 44
0.0625
 45
0.0
 46
0.0
 47
0.0
 48
0.0
140
0.125
141
0.09
142
0.0
143
25.4
144
1.0
145
0.0
146
1.5
147
0.09
 71
     0
 72
     0
 73
     0
 74
     1
 75
     0
 76
     0
 77
     0
 78
     4
170
     1
171
     2
172
     0
173
     0
174
     0
175
     0
176
     0
177
     0
178
     0
270
     7
271
     6
272
     6
273
     2
274
     2
340
470
275
     0
280
     0
281
     0
282
     0
283
     1
284
     4
285
     4
286
     4
287
     5
288
     1
  0
DIMSTYLE
105
512
102
{ACAD_XDICTIONARY
360
6D41B
102
}
100
AcDbSymbolTableRecord
100
AcDbDimStyleTableRecord
  2
ABECAD_3D
 70
     0
  3

  4

  5

  6

  7

 40
1.0
 41
0.18
 42
0.0625
 43
0.375
 44
0.18
 45
0.0
 46
0.0
 47
0.0
 48
0.0
140
0.18
141
0.09
142
0.0
143
25.4
144
1.0
145
0.0
146
1.5
147
0.09
 71
     0
 72
     0
 73
     0
 74
     1
 75
     0
 76
     0
 77
     0
 78
     4
170
     1
171
     2
172
     0
173
     0
174
     0
175
     0
176
     0
177
     0
178
     0
270
     7
271
     6
272
     6
273
     2
274
     2
340
470
275
     0
280
     0
281
     0
282
     0
283
     1
284
     4
285
     4
286
     4
287
     5
288
     1
  0
ENDTAB
  0
TABLE
  2
BLOCK_RECORD
  5
462
100
AcDbSymbolTable
 70
     3
  0
BLOCK_RECORD
  5
478
102
{ACAD_XDICTIONARY
360
4D2
102
}
100
AcDbSymbolTableRecord
100
AcDbBlockTableRecord
  2
*MODEL_SPACE
  0
BLOCK_RECORD
  5
475
102
{ACAD_XDICTIONARY
360
4D0
102
}
100
AcDbSymbolTableRecord
100
AcDbBlockTableRecord
  2
*PAPER_SPACE
  0
BLOCK_RECORD
  5
6CFDC
100
AcDbSymbolTableRecord
100
AcDbBlockTableRecord
  2
*D0
  0
BLOCK_RECORD
  5
6CFE8
100
AcDbSymbolTableRecord
100
AcDbBlockTableRecord
  2
*D1
  0
BLOCK_RECORD
  5
6D007
100
AcDbSymbolTableRecord
100
AcDbBlockTableRecord
  2
*D2
  0
ENDTAB
  0
ENDSEC
  0
SECTION
  2
BLOCKS
  0
BLOCK
  5
48B
100
AcDbEntity
  8
0
100
AcDbBlockBegin
  2
*MODEL_SPACE
 70
     0
 10
0.0
 20
0.0
 30
0.0
  3
*MODEL_SPACE
  1

  0
ENDBLK
  5
48C
100
AcDbEntity
  8
0
100
AcDbBlockEnd
  0
BLOCK
  5
489
100
AcDbEntity
 67
     1
  8
0
100
AcDbBlockBegin
  2
*PAPER_SPACE
 70
     0
 10
0.0
 20
0.0
 30
0.0
  3
*PAPER_SPACE
  1

  0
ENDBLK
  5
48A
100
AcDbEntity
 67
     1
  8
0
100
AcDbBlockEnd
  0
BLOCK
  5
6CFE6
100
AcDbEntity
  8
0
100
AcDbBlockBegin
  2
*D0
 70
     1
 10
0.0
 20
0.0
 30
0.0
  3
*D0
  1

  0
LINE
  5
6D029
100
AcDbEntity
  8
AREA1
 62
     0
100
AcDbLine
 10
-0.931638
 20
-0.874
 30
0.0
 11
-1.218833
 21
-0.874
 31
0.0
1001
ACAD
1000
RTLwPs
1070
   158
  0
LINE
  5
6D02A
100
AcDbEntity
  8
AREA1
 62
     0
100
AcDbLine
 10
-0.931638
 20
0.874
 30
0.0
 11
-1.218833
 21
0.874
 31
0.0
1001
ACAD
1000
RTLwPs
1070
   158
  0
LINE
  5
6D02B
100
AcDbEntity
  8
AREA1
 62
     0
100
AcDbLine
 10
-1.173195
 20
-0.782723
 30
0.0
 11
-1.173195
 21
-0.576378
 31
0.0
1001
ACAD
1000
RTLwPs
1070
   158
  0
LINE
  5
6D02C
100
AcDbEntity
  8
AREA1
 62
     0
100
AcDbLine
 10
-1.173195
 20
0.782723
 30
0.0
 11
-1.173195
 21
0.543891
 31
0.0
1001
ACAD
1000
RTLwPs
1070
   158
  0
MTEXT
  5
6D02D
100
AcDbEntity
  8
AREA1
 62
     0
100
AcDbMText
 10
-1.173195
 20
-0.016244
 30
0.0
 40
0.091277
 41
0.0
 71
     5
 72
     1
  1
\A1;1 3/4 [44.40]
 11
0.0
 21
1.0
 31
0.0
1001
ACAD
1000
MTEXTBEGIN
1070
    73
1070
     1
1070
    44
1040
1.0
1070
    74
1070
     0
1000
MTEXTEND
1000
MTEXTBEGIN
1070
    73
1070
     1
1070
    44
1040
1.0
1070
    74
1070
     0
1000
MTEXTEND
1000
MTEXTBEGIN
1070
    73
1070
     1
1070
    44
1040
1.0
1070
    74
1070
     0
1000
MTEXTEND
1000
MTEXTBEGIN
1070
    73
1070
     1
1070
    44
1040
1.0
1070
    74
1070
     0
1000
MTEXTEND
1000
MTEXTBEGIN
1070
    73
1070
     1
1070
    44
1040
1.0
1070
    74
1070
     0
1000
MTEXTEND
1000
MTEXTBEGIN
1070
    73
1070
     1
1070
    44
1040
1.0
1070
    74
1070
     0
1000
MTEXTEND
1000
MTEXTBEGIN
1070
    73
1070
     1
1070
    44
1040
1.0
1070
    74
1070
     0
1000
MTEXTEND
1000
MTEXTBEGIN
1070
    73
1070
     1
1070
    44
1040
1.0
1070
    74
1070
     0
1000
MTEXTEND
1000
MTEXTBEGIN
1070
    73
1070
     1
1070
    44
1040
1.0
1070
    74
1070
     0
1000
MTEXTEND
1000
MTEXTBEGIN
1070
    73
1070
     1
1070
    44
1040
1.0
1070
    74
1070
     0
1000
MTEXTEND
1000
MTEXTBEGIN
1070
    73
1070
     1
1070
    44
1040
1.0
1070
    74
1070
     0
1000
MTEXTEND
1000
MTEXTBEGIN
1070
    73
1070
     1
1070
    44
1040
1.0
1070
    74
1070
     0
1000
MTEXTEND
1000
MTEXTBEGIN
1070
    73
1070
     1
1070
    44
1040
1.0
1070
    74
1070
     0
1000
MTEXTEND
1000
MTEXTBEGIN
1070
    73
1070
     1
1070
    44
1040
1.0
1070
    74
1070
     0
1000
MTEXTEND
1000
MTEXTBEGIN
1070
    73
1070
     1
1070
    44
1040
1.0
1070
    74
1070
     0
1000
MTEXTEND
1000
MTEXTBEGIN
1070
    73
1070
     1
1070
    44
1040
1.0
1070
    74
1070
     0
1000
MTEXTEND
1000
MTEXTBEGIN
1070
    73
1070
     1
1070
    44
1040
1.0
1070
    74
1070
     0
1000
MTEXTEND
  0
SOLID
  5
6D02E
100
AcDbEntity
  8
AREA1
 62
     0
100
AcDbTrace
 10
-1.188408
 20
-0.782723
 30
0.0
 11
-1.157982
 21
-0.782723
 31
0.0
 12
-1.173195
 22
-0.874
 32
0.0
 13
-1.173195
 23
-0.874
 33
0.0
  0
SOLID
  5
6D02F
100
AcDbEntity
  8
AREA1
 62
     0
100
AcDbTrace
 10
-1.188408
 20
0.782723
 30
0.0
 11
-1.157982
 21
0.782723
 31
0.0
 12
-1.173195
 22
0.874
 32
0.0
 13
-1.173195
 23
0.874
 33
0.0
  0
POINT
  5
6D030
100
AcDbEntity
  8
DEFPOINTS
 62
     0
100
AcDbPoint
 10
-0.886
 20
-0.874
 30
0.0
  0
POINT
  5
6D031
100
AcDbEntity
  8
DEFPOINTS
 62
     0
100
AcDbPoint
 10
-0.886
 20
0.874
 30
0.0
  0
POINT
  5
6D032
100
AcDbEntity
  8
DEFPOINTS
 62
     0
100
AcDbPoint
 10
-1.173195
 20
0.874
 30
0.0
  0
ENDBLK
  5
6CFE7
100
AcDbEntity
  8
0
100
AcDbBlockEnd
  0
BLOCK
  5
6CFF2
100
AcDbEntity
  8
0
100
AcDbBlockBegin
  2
*D1
 70
     1
 10
0.0
 20
0.0
 30
0.0
  3
*D1
  1

  0
LINE
  5
6D020
100
AcDbEntity
  8
AREA1
 62
     0
100
AcDbLine
 10
-0.886
 20
0.919638
 30
0.0
 11
-0.886
 21
1.126465
 31
0.0
1001
ACAD
1000
RTLwPs
1070
   158
  0
LINE
  5
6D021
100
AcDbEntity
  8
AREA1
 62
     0
100
AcDbLine
 10
0.232
 20
0.524638
 30
0.0
 11
0.232
 21
1.126465
 31
0.0
1001
ACAD
1000
RTLwPs
1070
   158
  0
LINE
  5
6D022
100
AcDbEntity
  8
AREA1
 62
     0
100
AcDbLine
 10
-0.794723
 20
1.080827
 30
0.0
 11
0.140723
 21
1.080827
 31
0.0
1001
ACAD
1000
RTLwPs
1070
   158
  0
MTEXT
  5
6D023
100
AcDbEntity
  8
AREA1
 62
     0
100
AcDbMText
 10
-0.3233
 20
1.267735
 30
0.0
 40
0.091277
 41
0.0
 71
     5
 72
     1
  1
\A1;1 1/8 [28.40]
1001
ACAD
1000
MTEXTBEGIN
1070
    73
1070
     1
1070
    44
1040
1.0
1070
    74
1070
     0
1000
MTEXTEND
1000
MTEXTBEGIN
1070
    73
1070
     1
1070
    44
1040
1.0
1070
    74
1070
     0
1000
MTEXTEND
1000
MTEXTBEGIN
1070
    73
1070
     1
1070
    44
1040
1.0
1070
    74
1070
     0
1000
MTEXTEND
1000
MTEXTBEGIN
1070
    73
1070
     1
1070
    44
1040
1.0
1070
    74
1070
     0
1000
MTEXTEND
1000
MTEXTBEGIN
1070
    73
1070
     1
1070
    44
1040
1.0
1070
    74
1070
     0
1000
MTEXTEND
1000
MTEXTBEGIN
1070
    73
1070
     1
1070
    44
1040
1.0
1070
    74
1070
     0
1000
MTEXTEND
1000
MTEXTBEGIN
1070
    73
1070
     1
1070
    44
1040
1.0
1070
    74
1070
     0
1000
MTEXTEND
1000
MTEXTBEGIN
1070
    73
1070
     1
1070
    44
1040
1.0
1070
    74
1070
     0
1000
MTEXTEND
1000
MTEXTBEGIN
1070
    73
1070
     1
1070
    44
1040
1.0
1070
    74
1070
     0
1000
MTEXTEND
1000
MTEXTBEGIN
1070
    73
1070
     1
1070
    44
1040
1.0
1070
    74
1070
     0
1000
MTEXTEND
1000
MTEXTBEGIN
1070
    73
1070
     1
1070
    44
1040
1.0
1070
    74
1070
     0
1000
MTEXTEND
1000
MTEXTBEGIN
1070
    73
1070
     1
1070
    44
1040
1.0
1070
    74
1070
     0
1000
MTEXTEND
1000
MTEXTBEGIN
1070
    73
1070
     1
1070
    44
1040
1.0
1070
    74
1070
     0
1000
MTEXTEND
1000
MTEXTBEGIN
1070
    73
1070
     1
1070
    44
1040
1.0
1070
    74
1070
     0
1000
MTEXTEND
1000
MTEXTBEGIN
1070
    73
1070
     1
1070
    44
1040
1.0
1070
    74
1070
     0
1000
MTEXTEND
1000
MTEXTBEGIN
1070
    73
1070
     1
1070
    44
1040
1.0
1070
    74
1070
     0
1000
MTEXTEND
1000
MTEXTBEGIN
1070
    73
1070
     1
1070
    44
1040
1.0
1070
    74
1070
     0
1000
MTEXTEND
  0
SOLID
  5
6D024
100
AcDbEntity
  8
AREA1
 62
     0
100
AcDbTrace
 10
-0.794723
 20
1.096039
 30
0.0
 11
-0.794723
 21
1.065614
 31
0.0
 12
-0.886
 22
1.080827
 32
0.0
 13
-0.886
 23
1.080827
 33
0.0
  0
SOLID
  5
6D025
100
AcDbEntity
  8
AREA1
 62
     0
100
AcDbTrace
 10
0.140723
 20
1.096039
 30
0.0
 11
0.140723
 21
1.065614
 31
0.0
 12
0.232
 22
1.080827
 32
0.0
 13
0.232
 23
1.080827
 33
0.0
  0
POINT
  5
6D026
100
AcDbEntity
  8
DEFPOINTS
 62
     0
100
AcDbPoint
 10
-0.886
 20
0.874
 30
0.0
  0
POINT
  5
6D027
100
AcDbEntity
  8
DEFPOINTS
 62
     0
100
AcDbPoint
 10
0.232
 20
0.479
 30
-1.703
  0
POINT
  5
6D028
100
AcDbEntity
  8
DEFPOINTS
 62
     0
100
AcDbPoint
 10
0.232
 20
1.080827
 30
0.0
  0
ENDBLK
  5
6CFF3
100
AcDbEntity
  8
0
100
AcDbBlockEnd
  0
BLOCK
  5
6D012
100
AcDbEntity
  8
0
100
AcDbBlockBegin
  2
*D2
 70
     1
 10
0.0
 20
0.0
 30
0.0
  3
*D2
  1

  0
LINE
  5
6D016
100
AcDbEntity
  8
AREA2
 62
     0
100
AcDbLine
 10
-0.931638
 20
0.0
 30
0.0
 11
-1.383351
 21
0.0
 31
0.0
1001
ACAD
1000
RTLwPs
1070
   158
  0
LINE
  5
6D017
100
AcDbEntity
  8
AREA2
 62
     0
100
AcDbLine
 10
-0.045638
 20
-2.01087
 30
0.0
 11
-1.383351
 21
-2.01087
 31
0.0
1001
ACAD
1000
RTLwPs
1070
   158
  0
LINE
  5
6D018
100
AcDbEntity
  8
AREA2
 62
     0
100
AcDbLine
 10
-1.337713
 20
-0.091277
 30
0.0
 11
-1.337713
 21
-0.408355
 31
0.0
1001
ACAD
1000
RTLwPs
1070
   158
  0
LINE
  5
6D019
100
AcDbEntity
  8
AREA2
 62
     0
100
AcDbLine
 10
-1.337713
 20
-1.919593
 30
0.0
 11
-1.337713
 21
-1.589474
 31
0.0
1001
ACAD
1000
RTLwPs
1070
   158
  0
MTEXT
  5
6D01A
100
AcDbEntity
  8
AREA2
 62
     0
100
AcDbMText
 10
-1.337713
 20
-0.998914
 30
0.0
 40
0.091277
 41
0.0
 71
     5
 72
     1
  1
\A1;2 1/64 [51.08]
 11
0.0
 21
1.0
 31
0.0
1001
ACAD
1000
MTEXTBEGIN
1070
    73
1070
     1
1070
    44
1040
1.0
1070
    74
1070
     0
1000
MTEXTEND
1000
MTEXTBEGIN
1070
    73
1070
     1
1070
    44
1040
1.0
1070
    74
1070
     0
1000
MTEXTEND
1000
MTEXTBEGIN
1070
    73
1070
     1
1070
    44
1040
1.0
1070
    74
1070
     0
1000
MTEXTEND
1000
MTEXTBEGIN
1070
    73
1070
     1
1070
    44
1040
1.0
1070
    74
1070
     0
1000
MTEXTEND
1000
MTEXTBEGIN
1070
    73
1070
     1
1070
    44
1040
1.0
1070
    74
1070
     0
1000
MTEXTEND
1000
MTEXTBEGIN
1070
    73
1070
     1
1070
    44
1040
1.0
1070
    74
1070
     0
1000
MTEXTEND
1000
MTEXTBEGIN
1070
    73
1070
     1
1070
    44
1040
1.0
1070
    74
1070
     0
1000
MTEXTEND
1000
MTEXTBEGIN
1070
    73
1070
     1
1070
    44
1040
1.0
1070
    74
1070
     0
1000
MTEXTEND
1000
MTEXTBEGIN
1070
    73
1070
     1
1070
    44
1040
1.0
1070
    74
1070
     0
1000
MTEXTEND
1000
MTEXTBEGIN
1070
    73
1070
     1
1070
    44
1040
1.0
1070
    74
1070
     0
1000
MTEXTEND
1000
MTEXTBEGIN
1070
    73
1070
     1
1070
    44
1040
1.0
1070
    74
1070
     0
1000
MTEXTEND
1000
MTEXTBEGIN
1070
    73
1070
     1
1070
    44
1040
1.0
1070
    74
1070
     0
1000
MTEXTEND
1000
MTEXTBEGIN
1070
    73
1070
     1
1070
    44
1040
1.0
1070
    74
1070
     0
1000
MTEXTEND
1000
MTEXTBEGIN
1070
    73
1070
     1
1070
    44
1040
1.0
1070
    74
1070
     0
1000
MTEXTEND
1000
MTEXTBEGIN
1070
    73
1070
     1
1070
    44
1040
1.0
1070
    74
1070
     0
1000
MTEXTEND
1000
MTEXTBEGIN
1070
    73
1070
     1
1070
    44
1040
1.0
1070
    74
1070
     0
1000
MTEXTEND
1000
MTEXTBEGIN
1070
    73
1070
     1
1070
    44
1040
1.0
1070
    74
1070
     0
1000
MTEXTEND
  0
SOLID
  5
6D01B
100
AcDbEntity
  8
AREA2
 62
     0
100
AcDbTrace
 10
-1.352926
 20
-0.091277
 30
0.0
 11
-1.3225
 21
-0.091277
 31
0.0
 12
-1.337713
 22
0.0
 32
0.0
 13
-1.337713
 23
0.0
 33
0.0
  0
SOLID
  5
6D01C
100
AcDbEntity
  8
AREA2
 62
     0
100
AcDbTrace
 10
-1.352926
 20
-1.919593
 30
0.0
 11
-1.3225
 21
-1.919593
 31
0.0
 12
-1.337713
 22
-2.01087
 32
0.0
 13
-1.337713
 23
-2.01087
 33
0.0
  0
POINT
  5
6D01D
100
AcDbEntity
  8
DEFPOINTS
 62
     0
100
AcDbPoint
 10
-0.886
 20
0.0
 30
0.788
  0
POINT
  5
6D01E
100
AcDbEntity
  8
DEFPOINTS
 62
     0
100
AcDbPoint
 10
0.0
 20
-2.01087
 30
-0.3825
  0
POINT
  5
6D01F
100
AcDbEntity
  8
DEFPOINTS
 62
     0
100
AcDbPoint
 10
-1.337713
 20
-2.01087
 30
0.0
  0
ENDBLK
  5
6D013
100
AcDbEntity
  8
0
100
AcDbBlockEnd
  0
ENDSEC
  0
SECTION
  2
ENTITIES
  0
POLYLINE
  5
6CE74
100
AcDbEntity
  8
0
100
AcDbPolygonMesh
 66
     1
 10
0.0
 20
0.0
 30
0.0
 70
    16
 71
     6
 72
     3
  0
VERTEX
  5
6CE75
100
AcDbEntity
  8
0
100
AcDbVertex
100
AcDbPolygonMeshVertex
 10
-0.441
 20
-0.8155
 30
0.0
 70
    64
  0
VERTEX
  5
6CE76
100
AcDbEntity
  8
0
100
AcDbVertex
100
AcDbPolygonMeshVertex
 10
-0.441
 20
-0.8155
 30
-1.983
 70
    64
  0
VERTEX
  5
6CE77
100
AcDbEntity
  8
0
100
AcDbVertex
100
AcDbPolygonMeshVertex
 10
-0.441
 20
-0.8155
 30
-1.983
 70
    64
  0
VERTEX
  5
6CE78
100
AcDbEntity
  8
0
100
AcDbVertex
100
AcDbPolygonMeshVertex
 10
-0.441
 20
0.8155
 30
0.0
 70
    64
  0
VERTEX
  5
6CE79
100
AcDbEntity
  8
0
100
AcDbVertex
100
AcDbPolygonMeshVertex
 10
-0.441
 20
0.8155
 30
-1.983
 70
    64
  0
VERTEX
  5
6CE7A
100
AcDbEntity
  8
0
100
AcDbVertex
100
AcDbPolygonMeshVertex
 10
-0.441
 20
0.8155
 30
-1.983
 70
    64
  0
VERTEX
  5
6CE7B
100
AcDbEntity
  8
0
100
AcDbVertex
100
AcDbPolygonMeshVertex
 10
0.0
 20
0.8155
 30
0.0
 70
    64
  0
VERTEX
  5
6CE7C
100
AcDbEntity
  8
0
100
AcDbVertex
100
AcDbPolygonMeshVertex
 10
0.0
 20
0.8155
 30
-1.983
 70
    64
  0
VERTEX
  5
6CE7D
100
AcDbEntity
  8
0
100
AcDbVertex
100
AcDbPolygonMeshVertex
 10
-0.441
 20
0.8155
 30
-1.983
 70
    64
  0
VERTEX
  5
6CE7E
100
AcDbEntity
  8
0
100
AcDbVertex
100
AcDbPolygonMeshVertex
 10
0.0
 20
-0.8155
 30
0.0
 70
    64
  0
VERTEX
  5
6CE7F
100
AcDbEntity
  8
0
100
AcDbVertex
100
AcDbPolygonMeshVertex
 10
0.0
 20
-0.8155
 30
-1.983
 70
    64
  0
VERTEX
  5
6CE80
100
AcDbEntity
  8
0
100
AcDbVertex
100
AcDbPolygonMeshVertex
 10
-0.441
 20
-0.8155
 30
-1.983
 70
    64
  0
VERTEX
  5
6CE81
100
AcDbEntity
  8
0
100
AcDbVertex
100
AcDbPolygonMeshVertex
 10
0.0
 20
-0.8155
 30
0.0
 70
    64
  0
VERTEX
  5
6CE82
100
AcDbEntity
  8
0
100
AcDbVertex
100
AcDbPolygonMeshVertex
 10
0.0
 20
-0.8155
 30
0.0
 70
    64
  0
VERTEX
  5
6CE83
100
AcDbEntity
  8
0
100
AcDbVertex
100
AcDbPolygonMeshVertex
 10
-0.441
 20
-0.8155
 30
0.0
 70
    64
  0
VERTEX
  5
6CE84
100
AcDbEntity
  8
0
100
AcDbVertex
100
AcDbPolygonMeshVertex
 10
0.0
 20
0.8155
 30
0.0
 70
    64
  0
VERTEX
  5
6CE85
100
AcDbEntity
  8
0
100
AcDbVertex
100
AcDbPolygonMeshVertex
 10
0.0
 20
0.8155
 30
0.0
 70
    64
  0
VERTEX
  5
6CE86
100
AcDbEntity
  8
0
100
AcDbVertex
100
AcDbPolygonMeshVertex
 10
-0.441
 20
0.8155
 30
0.0
 70
    64
  0
SEQEND
  5
6CE87
100
AcDbEntity
  8
0
  0
POLYLINE
  5
6CE88
100
AcDbEntity
  8
0
100
AcDbPolygonMesh
 66
     1
 10
0.0
 20
0.0
 30
0.0
 70
    16
 71
     6
 72
     3
  0
VERTEX
  5
6CE89
100
AcDbEntity
  8
0
100
AcDbVertex
100
AcDbPolygonMeshVertex
 10
-0.886
 20
0.788
 30
0.0
 70
    64
  0
VERTEX
  5
6CE8A
100
AcDbEntity
  8
0
100
AcDbVertex
100
AcDbPolygonMeshVertex
 10
-0.886
 20
0.788
 30
-1.983
 70
    64
  0
VERTEX
  5
6CE8B
100
AcDbEntity
  8
0
100
AcDbVertex
100
AcDbPolygonMeshVertex
 10
-0.886
 20
0.788
 30
-1.983
 70
    64
  0
VERTEX
  5
6CE8C
100
AcDbEntity
  8
0
100
AcDbVertex
100
AcDbPolygonMeshVertex
 10
-0.886
 20
0.874
 30
0.0
 70
    64
  0
VERTEX
  5
6CE8D
100
AcDbEntity
  8
0
100
AcDbVertex
100
AcDbPolygonMeshVertex
 10
-0.886
 20
0.874
 30
-1.983
 70
    64
  0
VERTEX
  5
6CE8E
100
AcDbEntity
  8
0
100
AcDbVertex
100
AcDbPolygonMeshVertex
 10
-0.886
 20
0.874
 30
-1.983
 70
    64
  0
VERTEX
  5
6CE8F
100
AcDbEntity
  8
0
100
AcDbVertex
100
AcDbPolygonMeshVertex
 10
-0.441
 20
0.874
 30
0.0
 70
    64
  0
VERTEX
  5
6CE90
100
AcDbEntity
  8
0
100
AcDbVertex
100
AcDbPolygonMeshVertex
 10
-0.441
 20
0.874
 30
-1.983
 70
    64
  0
VERTEX
  5
6CE91
100
AcDbEntity
  8
0
100
AcDbVertex
100
AcDbPolygonMeshVertex
 10
-0.886
 20
0.874
 30
-1.983
 70
    64
  0
VERTEX
  5
6CE92
100
AcDbEntity
  8
0
100
AcDbVertex
100
AcDbPolygonMeshVertex
 10
-0.441
 20
0.788
 30
0.0
 70
    64
  0
VERTEX
  5
6CE93
100
AcDbEntity
  8
0
100
AcDbVertex
100
AcDbPolygonMeshVertex
 10
-0.441
 20
0.788
 30
-1.983
 70
    64
  0
VERTEX
  5
6CE94
100
AcDbEntity
  8
0
100
AcDbVertex
100
AcDbPolygonMeshVertex
 10
-0.886
 20
0.788
 30
-1.983
 70
    64
  0
VERTEX
  5
6CE95
100
AcDbEntity
  8
0
100
AcDbVertex
100
AcDbPolygonMeshVertex
 10
-0.441
 20
0.788
 30
0.0
 70
    64
  0
VERTEX
  5
6CE96
100
AcDbEntity
  8
0
100
AcDbVertex
100
AcDbPolygonMeshVertex
 10
-0.441
 20
0.788
 30
0.0
 70
    64
  0
VERTEX
  5
6CE97
100
AcDbEntity
  8
0
100
AcDbVertex
100
AcDbPolygonMeshVertex
 10
-0.886
 20
0.788
 30
0.0
 70
    64
  0
VERTEX
  5
6CE98
100
AcDbEntity
  8
0
100
AcDbVertex
100
AcDbPolygonMeshVertex
 10
-0.441
 20
0.874
 30
0.0
 70
    64
  0
VERTEX
  5
6CE99
100
AcDbEntity
  8
0
100
AcDbVertex
100
AcDbPolygonMeshVertex
 10
-0.441
 20
0.874
 30
0.0
 70
    64
  0
VERTEX
  5
6CE9A
100
AcDbEntity
  8
0
100
AcDbVertex
100
AcDbPolygonMeshVertex
 10
-0.886
 20
0.874
 30
0.0
 70
    64
  0
SEQEND
  5
6CE9B
100
AcDbEntity
  8
0
  0
POLYLINE
  5
6CE9C
100
AcDbEntity
  8
0
100
AcDbPolygonMesh
 66
     1
 10
0.0
 20
0.0
 30
0.0
 70
    16
 71
     6
 72
     3
  0
VERTEX
  5
6CE9D
100
AcDbEntity
  8
0
100
AcDbVertex
100
AcDbPolygonMeshVertex
 10
-0.886
 20
-0.874
 30
0.0
 70
    64
  0
VERTEX
  5
6CE9E
100
AcDbEntity
  8
0
100
AcDbVertex
100
AcDbPolygonMeshVertex
 10
-0.886
 20
-0.874
 30
-1.983
 70
    64
  0
VERTEX
  5
6CE9F
100
AcDbEntity
  8
0
100
AcDbVertex
100
AcDbPolygonMeshVertex
 10
-0.886
 20
-0.874
 30
-1.983
 70
    64
  0
VERTEX
  5
6CEA0
100
AcDbEntity
  8
0
100
AcDbVertex
100
AcDbPolygonMeshVertex
 10
-0.886
 20
-0.788
 30
0.0
 70
    64
  0
VERTEX
  5
6CEA1
100
AcDbEntity
  8
0
100
AcDbVertex
100
AcDbPolygonMeshVertex
 10
-0.886
 20
-0.788
 30
-1.983
 70
    64
  0
VERTEX
  5
6CEA2
100
AcDbEntity
  8
0
100
AcDbVertex
100
AcDbPolygonMeshVertex
 10
-0.886
 20
-0.788
 30
-1.983
 70
    64
  0
VERTEX
  5
6CEA3
100
AcDbEntity
  8
0
100
AcDbVertex
100
AcDbPolygonMeshVertex
 10
-0.441
 20
-0.788
 30
0.0
 70
    64
  0
VERTEX
  5
6CEA4
100
AcDbEntity
  8
0
100
AcDbVertex
100
AcDbPolygonMeshVertex
 10
-0.441
 20
-0.788
 30
-1.983
 70
    64
  0
VERTEX
  5
6CEA5
100
AcDbEntity
  8
0
100
AcDbVertex
100
AcDbPolygonMeshVertex
 10
-0.886
 20
-0.788
 30
-1.983
 70
    64
  0
VERTEX
  5
6CEA6
100
AcDbEntity
  8
0
100
AcDbVertex
100
AcDbPolygonMeshVertex
 10
-0.441
 20
-0.874
 30
0.0
 70
    64
  0
VERTEX
  5
6CEA7
100
AcDbEntity
  8
0
100
AcDbVertex
100
AcDbPolygonMeshVertex
 10
-0.441
 20
-0.874
 30
-1.983
 70
    64
  0
VERTEX
  5
6CEA8
100
AcDbEntity
  8
0
100
AcDbVertex
100
AcDbPolygonMeshVertex
 10
-0.886
 20
-0.874
 30
-1.983
 70
    64
  0
VERTEX
  5
6CEA9
100
AcDbEntity
  8
0
100
AcDbVertex
100
AcDbPolygonMeshVertex
 10
-0.441
 20
-0.874
 30
0.0
 70
    64
  0
VERTEX
  5
6CEAA
100
AcDbEntity
  8
0
100
AcDbVertex
100
AcDbPolygonMeshVertex
 10
-0.441
 20
-0.874
 30
0.0
 70
    64
  0
VERTEX
  5
6CEAB
100
AcDbEntity
  8
0
100
AcDbVertex
100
AcDbPolygonMeshVertex
 10
-0.886
 20
-0.874
 30
0.0
 70
    64
  0
VERTEX
  5
6CEAC
100
AcDbEntity
  8
0
100
AcDbVertex
100
AcDbPolygonMeshVertex
 10
-0.441
 20
-0.788
 30
0.0
 70
    64
  0
VERTEX
  5
6CEAD
100
AcDbEntity
  8
0
100
AcDbVertex
100
AcDbPolygonMeshVertex
 10
-0.441
 20
-0.788
 30
0.0
 70
    64
  0
VERTEX
  5
6CEAE
100
AcDbEntity
  8
0
100
AcDbVertex
100
AcDbPolygonMeshVertex
 10
-0.886
 20
-0.788
 30
0.0
 70
    64
  0
SEQEND
  5
6CEAF
100
AcDbEntity
  8
0
  0
LWPOLYLINE
  5
6CEB0
100
AcDbEntity
  8
0
100
AcDbPolyline
 90
        4
 70
     0
 43
0.0
 38
-1.983
 39
1.433
 10
-0.441
 20
0.247605
 10
-0.5515
 20
0.137105
 10
-0.5515
 20
-0.137105
 10
-0.441
 20
-0.247605
  0
LWPOLYLINE
  5
6CEB1
100
AcDbEntity
  8
0
100
AcDbPolyline
 90
        4
 70
     0
 43
0.0
 38
-1.983
 39
1.433
 10
0.0
 20
-0.247605
 10
0.1105
 20
-0.137105
 10
0.1105
 20
0.137105
 10
0.0
 20
0.247605
  0
3DFACE
  5
6CEB2
100
AcDbEntity
  8
0
100
AcDbFace
 10
-0.441
 20
0.247605
 30
-0.55
 11
-0.5515
 21
0.137105
 31
-0.55
 12
-0.5515
 22
-0.137105
 32
-0.55
 13
-0.441
 23
-0.247605
 33
-0.55
  0
3DFACE
  5
6CEB3
100
AcDbEntity
  8
0
100
AcDbFace
 10
0.0
 20
0.247605
 30
-0.55
 11
0.0
 21
-0.247605
 31
-0.55
 12
0.1105
 22
-0.137105
 32
-0.55
 13
0.1105
 23
0.137105
 33
-0.55
  0
CIRCLE
  5
6CEB4
100
AcDbEntity
  8
0
100
AcDbCircle
 39
0.09
 10
-0.6065
 20
0.558
 30
-1.989
 40
0.1165
  0
LINE
  5
6CEB5
100
AcDbEntity
  8
0
100
AcDbLine
 10
-0.5865
 20
0.44323
 30
-1.989
 11
-0.5865
 21
0.67277
 31
-1.989
  0
LINE
  5
6CEB6
100
AcDbEntity
  8
0
100
AcDbLine
 10
-0.6265
 20
0.44323
 30
-1.989
 11
-0.6265
 21
0.67277
 31
-1.989
  0
POLYLINE
  5
6CEB7
100
AcDbEntity
  8
0
100
AcDbPolygonMesh
 66
     1
 10
0.0
 20
0.0
 30
0.0
 70
    16
 71
     6
 72
     3
  0
VERTEX
  5
6CEB8
100
AcDbEntity
  8
0
100
AcDbVertex
100
AcDbPolygonMeshVertex
 10
-0.772
 20
0.38
 30
-1.726
 70
    64
  0
VERTEX
  5
6CEB9
100
AcDbEntity
  8
0
100
AcDbVertex
100
AcDbPolygonMeshVertex
 10
-0.772
 20
0.38
 30
-1.899
 70
    64
  0
VERTEX
  5
6CEBA
100
AcDbEntity
  8
0
100
AcDbVertex
100
AcDbPolygonMeshVertex
 10
-0.772
 20
0.38
 30
-1.899
 70
    64
  0
VERTEX
  5
6CEBB
100
AcDbEntity
  8
0
100
AcDbVertex
100
AcDbPolygonMeshVertex
 10
-0.772
 20
0.736
 30
-1.726
 70
    64
  0
VERTEX
  5
6CEBC
100
AcDbEntity
  8
0
100
AcDbVertex
100
AcDbPolygonMeshVertex
 10
-0.772
 20
0.736
 30
-1.899
 70
    64
  0
VERTEX
  5
6CEBD
100
AcDbEntity
  8
0
100
AcDbVertex
100
AcDbPolygonMeshVertex
 10
-0.772
 20
0.736
 30
-1.899
 70
    64
  0
VERTEX
  5
6CEBE
100
AcDbEntity
  8
0
100
AcDbVertex
100
AcDbPolygonMeshVertex
 10
-0.441
 20
0.736
 30
-1.726
 70
    64
  0
VERTEX
  5
6CEBF
100
AcDbEntity
  8
0
100
AcDbVertex
100
AcDbPolygonMeshVertex
 10
-0.441
 20
0.736
 30
-1.899
 70
    64
  0
VERTEX
  5
6CEC0
100
AcDbEntity
  8
0
100
AcDbVertex
100
AcDbPolygonMeshVertex
 10
-0.772
 20
0.736
 30
-1.899
 70
    64
  0
VERTEX
  5
6CEC1
100
AcDbEntity
  8
0
100
AcDbVertex
100
AcDbPolygonMeshVertex
 10
-0.441
 20
0.38
 30
-1.726
 70
    64
  0
VERTEX
  5
6CEC2
100
AcDbEntity
  8
0
100
AcDbVertex
100
AcDbPolygonMeshVertex
 10
-0.441
 20
0.38
 30
-1.899
 70
    64
  0
VERTEX
  5
6CEC3
100
AcDbEntity
  8
0
100
AcDbVertex
100
AcDbPolygonMeshVertex
 10
-0.772
 20
0.38
 30
-1.899
 70
    64
  0
VERTEX
  5
6CEC4
100
AcDbEntity
  8
0
100
AcDbVertex
100
AcDbPolygonMeshVertex
 10
-0.441
 20
0.38
 30
-1.726
 70
    64
  0
VERTEX
  5
6CEC5
100
AcDbEntity
  8
0
100
AcDbVertex
100
AcDbPolygonMeshVertex
 10
-0.441
 20
0.38
 30
-1.726
 70
    64
  0
VERTEX
  5
6CEC6
100
AcDbEntity
  8
0
100
AcDbVertex
100
AcDbPolygonMeshVertex
 10
-0.772
 20
0.38
 30
-1.726
 70
    64
  0
VERTEX
  5
6CEC7
100
AcDbEntity
  8
0
100
AcDbVertex
100
AcDbPolygonMeshVertex
 10
-0.441
 20
0.736
 30
-1.726
 70
    64
  0
VERTEX
  5
6CEC8
100
AcDbEntity
  8
0
100
AcDbVertex
100
AcDbPolygonMeshVertex
 10
-0.441
 20
0.736
 30
-1.726
 70
    64
  0
VERTEX
  5
6CEC9
100
AcDbEntity
  8
0
100
AcDbVertex
100
AcDbPolygonMeshVertex
 10
-0.772
 20
0.736
 30
-1.726
 70
    64
  0
SEQEND
  5
6CECA
100
AcDbEntity
  8
0
  0
POLYLINE
  5
6CECB
100
AcDbEntity
  8
0
100
AcDbPolygonMesh
 66
     1
 10
0.0
 20
0.0
 30
0.0
 70
    16
 71
     6
 72
     3
  0
VERTEX
  5
6CECC
100
AcDbEntity
  8
0
100
AcDbVertex
100
AcDbPolygonMeshVertex
 10
-0.772
 20
-0.38
 30
-1.726
 70
    64
  0
VERTEX
  5
6CECD
100
AcDbEntity
  8
0
100
AcDbVertex
100
AcDbPolygonMeshVertex
 10
-0.772
 20
-0.38
 30
-1.899
 70
    64
  0
VERTEX
  5
6CECE
100
AcDbEntity
  8
0
100
AcDbVertex
100
AcDbPolygonMeshVertex
 10
-0.772
 20
-0.38
 30
-1.899
 70
    64
  0
VERTEX
  5
6CECF
100
AcDbEntity
  8
0
100
AcDbVertex
100
AcDbPolygonMeshVertex
 10
-0.772
 20
-0.736
 30
-1.726
 70
    64
  0
VERTEX
  5
6CED0
100
AcDbEntity
  8
0
100
AcDbVertex
100
AcDbPolygonMeshVertex
 10
-0.772
 20
-0.736
 30
-1.899
 70
    64
  0
VERTEX
  5
6CED1
100
AcDbEntity
  8
0
100
AcDbVertex
100
AcDbPolygonMeshVertex
 10
-0.772
 20
-0.736
 30
-1.899
 70
    64
  0
VERTEX
  5
6CED2
100
AcDbEntity
  8
0
100
AcDbVertex
100
AcDbPolygonMeshVertex
 10
-0.441
 20
-0.736
 30
-1.726
 70
    64
  0
VERTEX
  5
6CED3
100
AcDbEntity
  8
0
100
AcDbVertex
100
AcDbPolygonMeshVertex
 10
-0.441
 20
-0.736
 30
-1.899
 70
    64
  0
VERTEX
  5
6CED4
100
AcDbEntity
  8
0
100
AcDbVertex
100
AcDbPolygonMeshVertex
 10
-0.772
 20
-0.736
 30
-1.899
 70
    64
  0
VERTEX
  5
6CED5
100
AcDbEntity
  8
0
100
AcDbVertex
100
AcDbPolygonMeshVertex
 10
-0.441
 20
-0.38
 30
-1.726
 70
    64
  0
VERTEX
  5
6CED6
100
AcDbEntity
  8
0
100
AcDbVertex
100
AcDbPolygonMeshVertex
 10
-0.441
 20
-0.38
 30
-1.899
 70
    64
  0
VERTEX
  5
6CED7
100
AcDbEntity
  8
0
100
AcDbVertex
100
AcDbPolygonMeshVertex
 10
-0.772
 20
-0.38
 30
-1.899
 70
    64
  0
VERTEX
  5
6CED8
100
AcDbEntity
  8
0
100
AcDbVertex
100
AcDbPolygonMeshVertex
 10
-0.441
 20
-0.38
 30
-1.726
 70
    64
  0
VERTEX
  5
6CED9
100
AcDbEntity
  8
0
100
AcDbVertex
100
AcDbPolygonMeshVertex
 10
-0.441
 20
-0.38
 30
-1.726
 70
    64
  0
VERTEX
  5
6CEDA
100
AcDbEntity
  8
0
100
AcDbVertex
100
AcDbPolygonMeshVertex
 10
-0.772
 20
-0.38
 30
-1.726
 70
    64
  0
VERTEX
  5
6CEDB
100
AcDbEntity
  8
0
100
AcDbVertex
100
AcDbPolygonMeshVertex
 10
-0.441
 20
-0.736
 30
-1.726
 70
    64
  0
VERTEX
  5
6CEDC
100
AcDbEntity
  8
0
100
AcDbVertex
100
AcDbPolygonMeshVertex
 10
-0.441
 20
-0.736
 30
-1.726
 70
    64
  0
VERTEX
  5
6CEDD
100
AcDbEntity
  8
0
100
AcDbVertex
100
AcDbPolygonMeshVertex
 10
-0.772
 20
-0.736
 30
-1.726
 70
    64
  0
SEQEND
  5
6CEDE
100
AcDbEntity
  8
0
  0
CIRCLE
  5
6CEDF
100
AcDbEntity
  8
0
100
AcDbCircle
 39
0.09
 10
-0.6065
 20
-0.558
 30
-1.989
 40
0.1165
  0
LINE
  5
6CEE0
100
AcDbEntity
  8
0
100
AcDbLine
 10
-0.6265
 20
-0.44323
 30
-1.989
 11
-0.6265
 21
-0.67277
 31
-1.989
  0
LINE
  5
6CEE1
100
AcDbEntity
  8
0
100
AcDbLine
 10
-0.5865
 20
-0.44323
 30
-1.989
 11
-0.5865
 21
-0.67277
 31
-1.989
  0
POLYLINE
  5
6CEE2
100
AcDbEntity
  8
0
100
AcDbPolygonMesh
 66
     1
 10
0.0
 20
0.0
 30
0.0
 70
    16
 71
     6
 72
     3
  0
VERTEX
  5
6CEE3
100
AcDbEntity
  8
0
100
AcDbVertex
100
AcDbPolygonMeshVertex
 10
-0.772
 20
-0.43571
 30
-0.3119
 70
    64
  0
VERTEX
  5
6CEE4
100
AcDbEntity
  8
0
100
AcDbVertex
100
AcDbPolygonMeshVertex
 10
-0.772
 20
-0.360095
 30
-0.4675
 70
    64
  0
VERTEX
  5
6CEE5
100
AcDbEntity
  8
0
100
AcDbVertex
100
AcDbPolygonMeshVertex
 10
-0.772
 20
-0.360095
 30
-0.4675
 70
    64
  0
VERTEX
  5
6CEE6
100
AcDbEntity
  8
0
100
AcDbVertex
100
AcDbPolygonMeshVertex
 10
-0.772
 20
-0.755905
 30
-0.4675
 70
    64
  0
VERTEX
  5
6CEE7
100
AcDbEntity
  8
0
100
AcDbVertex
100
AcDbPolygonMeshVertex
 10
-0.772
 20
-0.68029
 30
-0.6231
 70
    64
  0
VERTEX
  5
6CEE8
100
AcDbEntity
  8
0
100
AcDbVertex
100
AcDbPolygonMeshVertex
 10
-0.772
 20
-0.68029
 30
-0.6231
 70
    64
  0
VERTEX
  5
6CEE9
100
AcDbEntity
  8
0
100
AcDbVertex
100
AcDbPolygonMeshVertex
 10
-0.441
 20
-0.755905
 30
-0.4675
 70
    64
  0
VERTEX
  5
6CEEA
100
AcDbEntity
  8
0
100
AcDbVertex
100
AcDbPolygonMeshVertex
 10
-0.441
 20
-0.68029
 30
-0.6231
 70
    64
  0
VERTEX
  5
6CEEB
100
AcDbEntity
  8
0
100
AcDbVertex
100
AcDbPolygonMeshVertex
 10
-0.772
 20
-0.68029
 30
-0.6231
 70
    64
  0
VERTEX
  5
6CEEC
100
AcDbEntity
  8
0
100
AcDbVertex
100
AcDbPolygonMeshVertex
 10
-0.441
 20
-0.43571
 30
-0.3119
 70
    64
  0
VERTEX
  5
6CEED
100
AcDbEntity
  8
0
100
AcDbVertex
100
AcDbPolygonMeshVertex
 10
-0.441
 20
-0.360095
 30
-0.4675
 70
    64
  0
VERTEX
  5
6CEEE
100
AcDbEntity
  8
0
100
AcDbVertex
100
AcDbPolygonMeshVertex
 10
-0.772
 20
-0.360095
 30
-0.4675
 70
    64
  0
VERTEX
  5
6CEEF
100
AcDbEntity
  8
0
100
AcDbVertex
100
AcDbPolygonMeshVertex
 10
-0.441
 20
-0.43571
 30
-0.3119
 70
    64
  0
VERTEX
  5
6CEF0
100
AcDbEntity
  8
0
100
AcDbVertex
100
AcDbPolygonMeshVertex
 10
-0.441
 20
-0.43571
 30
-0.3119
 70
    64
  0
VERTEX
  5
6CEF1
100
AcDbEntity
  8
0
100
AcDbVertex
100
AcDbPolygonMeshVertex
 10
-0.772
 20
-0.43571
 30
-0.3119
 70
    64
  0
VERTEX
  5
6CEF2
100
AcDbEntity
  8
0
100
AcDbVertex
100
AcDbPolygonMeshVertex
 10
-0.441
 20
-0.755905
 30
-0.4675
 70
    64
  0
VERTEX
  5
6CEF3
100
AcDbEntity
  8
0
100
AcDbVertex
100
AcDbPolygonMeshVertex
 10
-0.441
 20
-0.755905
 30
-0.4675
 70
    64
  0
VERTEX
  5
6CEF4
100
AcDbEntity
  8
0
100
AcDbVertex
100
AcDbPolygonMeshVertex
 10
-0.772
 20
-0.755905
 30
-0.4675
 70
    64
  0
SEQEND
  5
6CEF5
100
AcDbEntity
  8
0
  0
CIRCLE
  5
6CEF6
100
AcDbEntity
  8
0
100
AcDbCircle
 39
0.09
 10
-0.6065
 20
-0.706213
 30
-0.35309
 40
0.1165
210
0.0
220
-0.4370791719288077
230
0.8994230358769048
  0
LINE
  5
6CEF7
100
AcDbEntity
  8
0
100
AcDbLine
 10
-0.5865
 20
-0.377628
 30
-0.576084
 11
-0.5865
 21
-0.584083
 31
-0.676412
210
0.0
220
-0.4370791719288077
230
0.8994230358769048
  0
LINE
  5
6CEF8
100
AcDbEntity
  8
0
100
AcDbLine
 10
-0.6265
 20
-0.377628
 30
-0.576084
 11
-0.6265
 21
-0.584083
 31
-0.676412
210
0.0
220
-0.4370791719288077
230
0.8994230358769048
  0
LINE
  5
6CEF9
100
AcDbEntity
  8
0
100
AcDbLine
 10
-0.441
 20
-0.755905
 30
-0.4675
 11
-0.441
 21
-0.360095
 31
-0.4675
210
-1.0
220
0.0
230
0.0
  0
POLYLINE
  5
6CEFA
100
AcDbEntity
  8
0
100
AcDbPolygonMesh
 66
     1
 10
0.0
 20
0.0
 30
0.0
 70
    16
 71
     6
 72
     3
  0
VERTEX
  5
6CEFB
100
AcDbEntity
  8
0
100
AcDbVertex
100
AcDbPolygonMeshVertex
 10
-0.772
 20
0.43571
 30
-0.3119
 70
    64
  0
VERTEX
  5
6CEFC
100
AcDbEntity
  8
0
100
AcDbVertex
100
AcDbPolygonMeshVertex
 10
-0.772
 20
0.360095
 30
-0.4675
 70
    64
  0
VERTEX
  5
6CEFD
100
AcDbEntity
  8
0
100
AcDbVertex
100
AcDbPolygonMeshVertex
 10
-0.772
 20
0.360095
 30
-0.4675
 70
    64
  0
VERTEX
  5
6CEFE
100
AcDbEntity
  8
0
100
AcDbVertex
100
AcDbPolygonMeshVertex
 10
-0.772
 20
0.755905
 30
-0.4675
 70
    64
  0
VERTEX
  5
6CEFF
100
AcDbEntity
  8
0
100
AcDbVertex
100
AcDbPolygonMeshVertex
 10
-0.772
 20
0.68029
 30
-0.6231
 70
    64
  0
VERTEX
  5
6CF00
100
AcDbEntity
  8
0
100
AcDbVertex
100
AcDbPolygonMeshVertex
 10
-0.772
 20
0.68029
 30
-0.6231
 70
    64
  0
VERTEX
  5
6CF01
100
AcDbEntity
  8
0
100
AcDbVertex
100
AcDbPolygonMeshVertex
 10
-0.441
 20
0.755905
 30
-0.4675
 70
    64
  0
VERTEX
  5
6CF02
100
AcDbEntity
  8
0
100
AcDbVertex
100
AcDbPolygonMeshVertex
 10
-0.441
 20
0.68029
 30
-0.6231
 70
    64
  0
VERTEX
  5
6CF03
100
AcDbEntity
  8
0
100
AcDbVertex
100
AcDbPolygonMeshVertex
 10
-0.772
 20
0.68029
 30
-0.6231
 70
    64
  0
VERTEX
  5
6CF04
100
AcDbEntity
  8
0
100
AcDbVertex
100
AcDbPolygonMeshVertex
 10
-0.441
 20
0.43571
 30
-0.3119
 70
    64
  0
VERTEX
  5
6CF05
100
AcDbEntity
  8
0
100
AcDbVertex
100
AcDbPolygonMeshVertex
 10
-0.441
 20
0.360095
 30
-0.4675
 70
    64
  0
VERTEX
  5
6CF06
100
AcDbEntity
  8
0
100
AcDbVertex
100
AcDbPolygonMeshVertex
 10
-0.772
 20
0.360095
 30
-0.4675
 70
    64
  0
VERTEX
  5
6CF07
100
AcDbEntity
  8
0
100
AcDbVertex
100
AcDbPolygonMeshVertex
 10
-0.441
 20
0.43571
 30
-0.3119
 70
    64
  0
VERTEX
  5
6CF08
100
AcDbEntity
  8
0
100
AcDbVertex
100
AcDbPolygonMeshVertex
 10
-0.441
 20
0.43571
 30
-0.3119
 70
    64
  0
VERTEX
  5
6CF09
100
AcDbEntity
  8
0
100
AcDbVertex
100
AcDbPolygonMeshVertex
 10
-0.772
 20
0.43571
 30
-0.3119
 70
    64
  0
VERTEX
  5
6CF0A
100
AcDbEntity
  8
0
100
AcDbVertex
100
AcDbPolygonMeshVertex
 10
-0.441
 20
0.755905
 30
-0.4675
 70
    64
  0
VERTEX
  5
6CF0B
100
AcDbEntity
  8
0
100
AcDbVertex
100
AcDbPolygonMeshVertex
 10
-0.441
 20
0.755905
 30
-0.4675
 70
    64
  0
VERTEX
  5
6CF0C
100
AcDbEntity
  8
0
100
AcDbVertex
100
AcDbPolygonMeshVertex
 10
-0.772
 20
0.755905
 30
-0.4675
 70
    64
  0
SEQEND
  5
6CF0D
100
AcDbEntity
  8
0
  0
CIRCLE
  5
6CF0E
100
AcDbEntity
  8
0
100
AcDbCircle
 39
0.09
 10
0.6065
 20
-0.706213
 30
-0.35309
 40
0.1165
210
0.0
220
0.4370791719288077
230
0.8994230358769048
  0
LINE
  5
6CF0F
100
AcDbEntity
  8
0
100
AcDbLine
 10
-0.5865
 20
0.377628
 30
-0.576084
 11
-0.5865
 21
0.584083
 31
-0.676412
210
0.0
220
0.4370791719288077
230
0.8994230358769048
  0
LINE
  5
6CF10
100
AcDbEntity
  8
0
100
AcDbLine
 10
-0.6265
 20
0.377628
 30
-0.576084
 11
-0.6265
 21
0.584083
 31
-0.676412
210
0.0
220
0.4370791719288077
230
0.8994230358769048
  0
LINE
  5
6CF11
100
AcDbEntity
  8
0
100
AcDbLine
 10
-0.441
 20
0.755905
 30
-0.4675
 11
-0.441
 21
0.360095
 31
-0.4675
210
-1.0
220
0.0
230
0.0
  0
ARC
  5
6CF12
100
AcDbEntity
  8
0
100
AcDbCircle
 10
0.128
 20
-0.599
 30
-1.703
 40
0.12
100
AcDbArc
 50
90.0
 51
270.0
  0
ARC
  5
6CF13
100
AcDbEntity
  8
0
100
AcDbCircle
 10
0.128
 20
-0.599
 30
-0.958
 40
0.12
100
AcDbArc
 50
90.0
 51
270.0
  0
POLYLINE
  5
6CF14
100
AcDbEntity
  8
0
100
AcDbPolygonMesh
 66
     1
 10
0.0
 20
0.0
 30
0.0
 70
    16
 71
     6
 72
     3
  0
VERTEX
  5
6CF15
100
AcDbEntity
  8
0
100
AcDbVertex
100
AcDbPolygonMeshVertex
 10
-0.795
 20
0.207605
 30
-0.174
 70
    64
  0
VERTEX
  5
6CF16
100
AcDbEntity
  8
0
100
AcDbVertex
100
AcDbPolygonMeshVertex
 10
-0.795
 20
0.207605
 30
-0.55
 70
    64
  0
VERTEX
  5
6CF17
100
AcDbEntity
  8
0
100
AcDbVertex
100
AcDbPolygonMeshVertex
 10
-0.795
 20
0.207605
 30
-0.55
 70
    64
  0
VERTEX
  5
6CF18
100
AcDbEntity
  8
0
100
AcDbVertex
100
AcDbPolygonMeshVertex
 10
-0.795
 20
0.247605
 30
-0.174
 70
    64
  0
VERTEX
  5
6CF19
100
AcDbEntity
  8
0
100
AcDbVertex
100
AcDbPolygonMeshVertex
 10
-0.795
 20
0.247605
 30
-0.55
 70
    64
  0
VERTEX
  5
6CF1A
100
AcDbEntity
  8
0
100
AcDbVertex
100
AcDbPolygonMeshVertex
 10
-0.795
 20
0.247605
 30
-0.55
 70
    64
  0
VERTEX
  5
6CF1B
100
AcDbEntity
  8
0
100
AcDbVertex
100
AcDbPolygonMeshVertex
 10
-0.441
 20
0.247605
 30
-0.174
 70
    64
  0
VERTEX
  5
6CF1C
100
AcDbEntity
  8
0
100
AcDbVertex
100
AcDbPolygonMeshVertex
 10
-0.441
 20
0.247605
 30
-0.55
 70
    64
  0
VERTEX
  5
6CF1D
100
AcDbEntity
  8
0
100
AcDbVertex
100
AcDbPolygonMeshVertex
 10
-0.795
 20
0.247605
 30
-0.55
 70
    64
  0
VERTEX
  5
6CF1E
100
AcDbEntity
  8
0
100
AcDbVertex
100
AcDbPolygonMeshVertex
 10
-0.441
 20
0.207605
 30
-0.174
 70
    64
  0
VERTEX
  5
6CF1F
100
AcDbEntity
  8
0
100
AcDbVertex
100
AcDbPolygonMeshVertex
 10
-0.441
 20
0.207605
 30
-0.55
 70
    64
  0
VERTEX
  5
6CF20
100
AcDbEntity
  8
0
100
AcDbVertex
100
AcDbPolygonMeshVertex
 10
-0.795
 20
0.207605
 30
-0.55
 70
    64
  0
VERTEX
  5
6CF21
100
AcDbEntity
  8
0
100
AcDbVertex
100
AcDbPolygonMeshVertex
 10
-0.441
 20
0.207605
 30
-0.174
 70
    64
  0
VERTEX
  5
6CF22
100
AcDbEntity
  8
0
100
AcDbVertex
100
AcDbPolygonMeshVertex
 10
-0.441
 20
0.207605
 30
-0.174
 70
    64
  0
VERTEX
  5
6CF23
100
AcDbEntity
  8
0
100
AcDbVertex
100
AcDbPolygonMeshVertex
 10
-0.795
 20
0.207605
 30
-0.174
 70
    64
  0
VERTEX
  5
6CF24
100
AcDbEntity
  8
0
100
AcDbVertex
100
AcDbPolygonMeshVertex
 10
-0.441
 20
0.247605
 30
-0.174
 70
    64
  0
VERTEX
  5
6CF25
100
AcDbEntity
  8
0
100
AcDbVertex
100
AcDbPolygonMeshVertex
 10
-0.441
 20
0.247605
 30
-0.174
 70
    64
  0
VERTEX
  5
6CF26
100
AcDbEntity
  8
0
100
AcDbVertex
100
AcDbPolygonMeshVertex
 10
-0.795
 20
0.247605
 30
-0.174
 70
    64
  0
SEQEND
  5
6CF27
100
AcDbEntity
  8
0
  0
POLYLINE
  5
6CF28
100
AcDbEntity
  8
0
100
AcDbPolygonMesh
 66
     1
 10
0.0
 20
0.0
 30
0.0
 70
    16
 71
     6
 72
     3
  0
VERTEX
  5
6CF29
100
AcDbEntity
  8
0
100
AcDbVertex
100
AcDbPolygonMeshVertex
 10
-0.795
 20
-0.247605
 30
-0.174
 70
    64
  0
VERTEX
  5
6CF2A
100
AcDbEntity
  8
0
100
AcDbVertex
100
AcDbPolygonMeshVertex
 10
-0.795
 20
-0.247605
 30
-0.55
 70
    64
  0
VERTEX
  5
6CF2B
100
AcDbEntity
  8
0
100
AcDbVertex
100
AcDbPolygonMeshVertex
 10
-0.795
 20
-0.247605
 30
-0.55
 70
    64
  0
VERTEX
  5
6CF2C
100
AcDbEntity
  8
0
100
AcDbVertex
100
AcDbPolygonMeshVertex
 10
-0.795
 20
-0.207605
 30
-0.174
 70
    64
  0
VERTEX
  5
6CF2D
100
AcDbEntity
  8
0
100
AcDbVertex
100
AcDbPolygonMeshVertex
 10
-0.795
 20
-0.207605
 30
-0.55
 70
    64
  0
VERTEX
  5
6CF2E
100
AcDbEntity
  8
0
100
AcDbVertex
100
AcDbPolygonMeshVertex
 10
-0.795
 20
-0.207605
 30
-0.55
 70
    64
  0
VERTEX
  5
6CF2F
100
AcDbEntity
  8
0
100
AcDbVertex
100
AcDbPolygonMeshVertex
 10
-0.441
 20
-0.207605
 30
-0.174
 70
    64
  0
VERTEX
  5
6CF30
100
AcDbEntity
  8
0
100
AcDbVertex
100
AcDbPolygonMeshVertex
 10
-0.441
 20
-0.207605
 30
-0.55
 70
    64
  0
VERTEX
  5
6CF31
100
AcDbEntity
  8
0
100
AcDbVertex
100
AcDbPolygonMeshVertex
 10
-0.795
 20
-0.207605
 30
-0.55
 70
    64
  0
VERTEX
  5
6CF32
100
AcDbEntity
  8
0
100
AcDbVertex
100
AcDbPolygonMeshVertex
 10
-0.441
 20
-0.247605
 30
-0.174
 70
    64
  0
VERTEX
  5
6CF33
100
AcDbEntity
  8
0
100
AcDbVertex
100
AcDbPolygonMeshVertex
 10
-0.441
 20
-0.247605
 30
-0.55
 70
    64
  0
VERTEX
  5
6CF34
100
AcDbEntity
  8
0
100
AcDbVertex
100
AcDbPolygonMeshVertex
 10
-0.795
 20
-0.247605
 30
-0.55
 70
    64
  0
VERTEX
  5
6CF35
100
AcDbEntity
  8
0
100
AcDbVertex
100
AcDbPolygonMeshVertex
 10
-0.441
 20
-0.247605
 30
-0.174
 70
    64
  0
VERTEX
  5
6CF36
100
AcDbEntity
  8
0
100
AcDbVertex
100
AcDbPolygonMeshVertex
 10
-0.441
 20
-0.247605
 30
-0.174
 70
    64
  0
VERTEX
  5
6CF37
100
AcDbEntity
  8
0
100
AcDbVertex
100
AcDbPolygonMeshVertex
 10
-0.795
 20
-0.247605
 30
-0.174
 70
    64
  0
VERTEX
  5
6CF38
100
AcDbEntity
  8
0
100
AcDbVertex
100
AcDbPolygonMeshVertex
 10
-0.441
 20
-0.207605
 30
-0.174
 70
    64
  0
VERTEX
  5
6CF39
100
AcDbEntity
  8
0
100
AcDbVertex
100
AcDbPolygonMeshVertex
 10
-0.441
 20
-0.207605
 30
-0.174
 70
    64
  0
VERTEX
  5
6CF3A
100
AcDbEntity
  8
0
100
AcDbVertex
100
AcDbPolygonMeshVertex
 10
-0.795
 20
-0.207605
 30
-0.174
 70
    64
  0
SEQEND
  5
6CF3B
100
AcDbEntity
  8
0
  0
POLYLINE
  5
6CF3C
100
AcDbEntity
  8
0
100
AcDbPolygonMesh
 66
     1
 10
0.0
 20
0.0
 30
0.0
 70
    16
 71
     6
 72
     3
  0
VERTEX
  5
6CF3D
100
AcDbEntity
  8
0
100
AcDbVertex
100
AcDbPolygonMeshVertex
 10
-0.503
 20
-0.165
 30
-0.174
 70
    64
  0
VERTEX
  5
6CF3E
100
AcDbEntity
  8
0
100
AcDbVertex
100
AcDbPolygonMeshVertex
 10
-0.503
 20
-0.165
 30
-0.55
 70
    64
  0
VERTEX
  5
6CF3F
100
AcDbEntity
  8
0
100
AcDbVertex
100
AcDbPolygonMeshVertex
 10
-0.503
 20
-0.165
 30
-0.55
 70
    64
  0
VERTEX
  5
6CF40
100
AcDbEntity
  8
0
100
AcDbVertex
100
AcDbPolygonMeshVertex
 10
-0.503
 20
0.165
 30
-0.174
 70
    64
  0
VERTEX
  5
6CF41
100
AcDbEntity
  8
0
100
AcDbVertex
100
AcDbPolygonMeshVertex
 10
-0.503
 20
0.165
 30
-0.55
 70
    64
  0
VERTEX
  5
6CF42
100
AcDbEntity
  8
0
100
AcDbVertex
100
AcDbPolygonMeshVertex
 10
-0.503
 20
0.165
 30
-0.55
 70
    64
  0
VERTEX
  5
6CF43
100
AcDbEntity
  8
0
100
AcDbVertex
100
AcDbPolygonMeshVertex
 10
-0.441
 20
0.165
 30
-0.174
 70
    64
  0
VERTEX
  5
6CF44
100
AcDbEntity
  8
0
100
AcDbVertex
100
AcDbPolygonMeshVertex
 10
-0.441
 20
0.165
 30
-0.55
 70
    64
  0
VERTEX
  5
6CF45
100
AcDbEntity
  8
0
100
AcDbVertex
100
AcDbPolygonMeshVertex
 10
-0.503
 20
0.165
 30
-0.55
 70
    64
  0
VERTEX
  5
6CF46
100
AcDbEntity
  8
0
100
AcDbVertex
100
AcDbPolygonMeshVertex
 10
-0.441
 20
-0.165
 30
-0.174
 70
    64
  0
VERTEX
  5
6CF47
100
AcDbEntity
  8
0
100
AcDbVertex
100
AcDbPolygonMeshVertex
 10
-0.441
 20
-0.165
 30
-0.55
 70
    64
  0
VERTEX
  5
6CF48
100
AcDbEntity
  8
0
100
AcDbVertex
100
AcDbPolygonMeshVertex
 10
-0.503
 20
-0.165
 30
-0.55
 70
    64
  0
VERTEX
  5
6CF49
100
AcDbEntity
  8
0
100
AcDbVertex
100
AcDbPolygonMeshVertex
 10
-0.441
 20
-0.165
 30
-0.174
 70
    64
  0
VERTEX
  5
6CF4A
100
AcDbEntity
  8
0
100
AcDbVertex
100
AcDbPolygonMeshVertex
 10
-0.441
 20
-0.165
 30
-0.174
 70
    64
  0
VERTEX
  5
6CF4B
100
AcDbEntity
  8
0
100
AcDbVertex
100
AcDbPolygonMeshVertex
 10
-0.503
 20
-0.165
 30
-0.174
 70
    64
  0
VERTEX
  5
6CF4C
100
AcDbEntity
  8
0
100
AcDbVertex
100
AcDbPolygonMeshVertex
 10
-0.441
 20
0.165
 30
-0.174
 70
    64
  0
VERTEX
  5
6CF4D
100
AcDbEntity
  8
0
100
AcDbVertex
100
AcDbPolygonMeshVertex
 10
-0.441
 20
0.165
 30
-0.174
 70
    64
  0
VERTEX
  5
6CF4E
100
AcDbEntity
  8
0
100
AcDbVertex
100
AcDbPolygonMeshVertex
 10
-0.503
 20
0.165
 30
-0.174
 70
    64
  0
SEQEND
  5
6CF4F
100
AcDbEntity
  8
0
  0
POLYLINE
  5
6CF50
100
AcDbEntity
  8
0
100
AcDbPolygonMesh
 66
     1
 10
0.0
 20
0.0
 30
0.0
 70
    16
 71
     6
 72
     3
  0
VERTEX
  5
6CF51
100
AcDbEntity
  8
0
100
AcDbVertex
100
AcDbPolygonMeshVertex
 10
0.128
 20
-0.3825
 30
-0.958
 70
    64
  0
VERTEX
  5
6CF52
100
AcDbEntity
  8
0
100
AcDbVertex
100
AcDbPolygonMeshVertex
 10
0.128
 20
-0.3825
 30
-1.703
 70
    64
  0
VERTEX
  5
6CF53
100
AcDbEntity
  8
0
100
AcDbVertex
100
AcDbPolygonMeshVertex
 10
0.128
 20
-0.3825
 30
-1.703
 70
    64
  0
VERTEX
  5
6CF54
100
AcDbEntity
  8
0
100
AcDbVertex
100
AcDbPolygonMeshVertex
 10
0.128
 20
-0.8155
 30
-0.958
 70
    64
  0
VERTEX
  5
6CF55
100
AcDbEntity
  8
0
100
AcDbVertex
100
AcDbPolygonMeshVertex
 10
0.128
 20
-0.8155
 30
-1.703
 70
    64
  0
VERTEX
  5
6CF56
100
AcDbEntity
  8
0
100
AcDbVertex
100
AcDbPolygonMeshVertex
 10
0.128
 20
-0.8155
 30
-1.703
 70
    64
  0
VERTEX
  5
6CF57
100
AcDbEntity
  8
0
100
AcDbVertex
100
AcDbPolygonMeshVertex
 10
0.0
 20
-0.8155
 30
-0.958
 70
    64
  0
VERTEX
  5
6CF58
100
AcDbEntity
  8
0
100
AcDbVertex
100
AcDbPolygonMeshVertex
 10
0.0
 20
-0.8155
 30
-1.703
 70
    64
  0
VERTEX
  5
6CF59
100
AcDbEntity
  8
0
100
AcDbVertex
100
AcDbPolygonMeshVertex
 10
0.128
 20
-0.8155
 30
-1.703
 70
    64
  0
VERTEX
  5
6CF5A
100
AcDbEntity
  8
0
100
AcDbVertex
100
AcDbPolygonMeshVertex
 10
0.0
 20
-0.3825
 30
-0.958
 70
    64
  0
VERTEX
  5
6CF5B
100
AcDbEntity
  8
0
100
AcDbVertex
100
AcDbPolygonMeshVertex
 10
0.0
 20
-0.3825
 30
-1.703
 70
    64
  0
VERTEX
  5
6CF5C
100
AcDbEntity
  8
0
100
AcDbVertex
100
AcDbPolygonMeshVertex
 10
0.128
 20
-0.3825
 30
-1.703
 70
    64
  0
VERTEX
  5
6CF5D
100
AcDbEntity
  8
0
100
AcDbVertex
100
AcDbPolygonMeshVertex
 10
0.0
 20
-0.3825
 30
-0.958
 70
    64
  0
VERTEX
  5
6CF5E
100
AcDbEntity
  8
0
100
AcDbVertex
100
AcDbPolygonMeshVertex
 10
0.0
 20
-0.3825
 30
-0.958
 70
    64
  0
VERTEX
  5
6CF5F
100
AcDbEntity
  8
0
100
AcDbVertex
100
AcDbPolygonMeshVertex
 10
0.128
 20
-0.3825
 30
-0.958
 70
    64
  0
VERTEX
  5
6CF60
100
AcDbEntity
  8
0
100
AcDbVertex
100
AcDbPolygonMeshVertex
 10
0.0
 20
-0.8155
 30
-0.958
 70
    64
  0
VERTEX
  5
6CF61
100
AcDbEntity
  8
0
100
AcDbVertex
100
AcDbPolygonMeshVertex
 10
0.0
 20
-0.8155
 30
-0.958
 70
    64
  0
VERTEX
  5
6CF62
100
AcDbEntity
  8
0
100
AcDbVertex
100
AcDbPolygonMeshVertex
 10
0.128
 20
-0.8155
 30
-0.958
 70
    64
  0
SEQEND
  5
6CF63
100
AcDbEntity
  8
0
  0
LINE
  5
6CF64
100
AcDbEntity
  8
0
100
AcDbLine
 10
0.128
 20
-0.479
 30
-0.958
 11
0.128
 21
-0.479
 31
-1.703
  0
LINE
  5
6CF65
100
AcDbEntity
  8
0
100
AcDbLine
 10
0.128
 20
-0.719
 30
-0.958
 11
0.128
 21
-0.719
 31
-1.703
  0
LINE
  5
6CF66
100
AcDbEntity
  8
0
100
AcDbLine
 10
0.128
 20
0.719
 30
-0.958
 11
0.128
 21
0.719
 31
-1.703
  0
LINE
  5
6CF67
100
AcDbEntity
  8
0
100
AcDbLine
 10
0.128
 20
0.479
 30
-0.958
 11
0.128
 21
0.479
 31
-1.703
  0
POLYLINE
  5
6CF68
100
AcDbEntity
  8
0
100
AcDbPolygonMesh
 66
     1
 10
0.0
 20
0.0
 30
0.0
 70
    16
 71
     6
 72
     3
  0
VERTEX
  5
6CF69
100
AcDbEntity
  8
0
100
AcDbVertex
100
AcDbPolygonMeshVertex
 10
0.128
 20
0.3825
 30
-0.958
 70
    64
  0
VERTEX
  5
6CF6A
100
AcDbEntity
  8
0
100
AcDbVertex
100
AcDbPolygonMeshVertex
 10
0.128
 20
0.3825
 30
-1.703
 70
    64
  0
VERTEX
  5
6CF6B
100
AcDbEntity
  8
0
100
AcDbVertex
100
AcDbPolygonMeshVertex
 10
0.128
 20
0.3825
 30
-1.703
 70
    64
  0
VERTEX
  5
6CF6C
100
AcDbEntity
  8
0
100
AcDbVertex
100
AcDbPolygonMeshVertex
 10
0.128
 20
0.8155
 30
-0.958
 70
    64
  0
VERTEX
  5
6CF6D
100
AcDbEntity
  8
0
100
AcDbVertex
100
AcDbPolygonMeshVertex
 10
0.128
 20
0.8155
 30
-1.703
 70
    64
  0
VERTEX
  5
6CF6E
100
AcDbEntity
  8
0
100
AcDbVertex
100
AcDbPolygonMeshVertex
 10
0.128
 20
0.8155
 30
-1.703
 70
    64
  0
VERTEX
  5
6CF6F
100
AcDbEntity
  8
0
100
AcDbVertex
100
AcDbPolygonMeshVertex
 10
0.0
 20
0.8155
 30
-0.958
 70
    64
  0
VERTEX
  5
6CF70
100
AcDbEntity
  8
0
100
AcDbVertex
100
AcDbPolygonMeshVertex
 10
0.0
 20
0.8155
 30
-1.703
 70
    64
  0
VERTEX
  5
6CF71
100
AcDbEntity
  8
0
100
AcDbVertex
100
AcDbPolygonMeshVertex
 10
0.128
 20
0.8155
 30
-1.703
 70
    64
  0
VERTEX
  5
6CF72
100
AcDbEntity
  8
0
100
AcDbVertex
100
AcDbPolygonMeshVertex
 10
0.0
 20
0.3825
 30
-0.958
 70
    64
  0
VERTEX
  5
6CF73
100
AcDbEntity
  8
0
100
AcDbVertex
100
AcDbPolygonMeshVertex
 10
0.0
 20
0.3825
 30
-1.703
 70
    64
  0
VERTEX
  5
6CF74
100
AcDbEntity
  8
0
100
AcDbVertex
100
AcDbPolygonMeshVertex
 10
0.128
 20
0.3825
 30
-1.703
 70
    64
  0
VERTEX
  5
6CF75
100
AcDbEntity
  8
0
100
AcDbVertex
100
AcDbPolygonMeshVertex
 10
0.0
 20
0.3825
 30
-0.958
 70
    64
  0
VERTEX
  5
6CF76
100
AcDbEntity
  8
0
100
AcDbVertex
100
AcDbPolygonMeshVertex
 10
0.0
 20
0.3825
 30
-0.958
 70
    64
  0
VERTEX
  5
6CF77
100
AcDbEntity
  8
0
100
AcDbVertex
100
AcDbPolygonMeshVertex
 10
0.128
 20
0.3825
 30
-0.958
 70
    64
  0
VERTEX
  5
6CF78
100
AcDbEntity
  8
0
100
AcDbVertex
100
AcDbPolygonMeshVertex
 10
0.0
 20
0.8155
 30
-0.958
 70
    64
  0
VERTEX
  5
6CF79
100
AcDbEntity
  8
0
100
AcDbVertex
100
AcDbPolygonMeshVertex
 10
0.0
 20
0.8155
 30
-0.958
 70
    64
  0
VERTEX
  5
6CF7A
100
AcDbEntity
  8
0
100
AcDbVertex
100
AcDbPolygonMeshVertex
 10
0.128
 20
0.8155
 30
-0.958
 70
    64
  0
SEQEND
  5
6CF7B
100
AcDbEntity
  8
0
  0
ARC
  5
6CF7C
100
AcDbEntity
  8
0
100
AcDbCircle
 10
0.128
 20
0.599
 30
-1.703
 40
0.12
100
AcDbArc
 50
90.0
 51
270.0
  0
ARC
  5
6CF7D
100
AcDbEntity
  8
0
100
AcDbCircle
 10
0.128
 20
0.599
 30
-0.958
 40
0.12
100
AcDbArc
 50
90.0
 51
270.0
  0
POLYLINE
  5
6CF7E
100
AcDbEntity
  8
0
100
AcDbPolygonMesh
 66
     1
 10
0.0
 20
0.0
 30
0.0
 70
    16
 71
     6
 72
     3
  0
VERTEX
  5
6CF7F
100
AcDbEntity
  8
0
100
AcDbVertex
100
AcDbPolygonMeshVertex
 10
0.0
 20
-0.8155
 30
-1.703
 70
    64
  0
VERTEX
  5
6CF80
100
AcDbEntity
  8
0
100
AcDbVertex
100
AcDbPolygonMeshVertex
 10
0.0
 20
-0.8155
 30
-2.01087
 70
    64
  0
VERTEX
  5
6CF81
100
AcDbEntity
  8
0
100
AcDbVertex
100
AcDbPolygonMeshVertex
 10
0.0
 20
-0.8155
 30
-2.01087
 70
    64
  0
VERTEX
  5
6CF82
100
AcDbEntity
  8
0
100
AcDbVertex
100
AcDbPolygonMeshVertex
 10
0.0
 20
-0.719
 30
-1.703
 70
    64
  0
VERTEX
  5
6CF83
100
AcDbEntity
  8
0
100
AcDbVertex
100
AcDbPolygonMeshVertex
 10
0.0
 20
-0.719
 30
-2.01087
 70
    64
  0
VERTEX
  5
6CF84
100
AcDbEntity
  8
0
100
AcDbVertex
100
AcDbPolygonMeshVertex
 10
0.0
 20
-0.719
 30
-2.01087
 70
    64
  0
VERTEX
  5
6CF85
100
AcDbEntity
  8
0
100
AcDbVertex
100
AcDbPolygonMeshVertex
 10
0.232
 20
-0.719
 30
-1.703
 70
    64
  0
VERTEX
  5
6CF86
100
AcDbEntity
  8
0
100
AcDbVertex
100
AcDbPolygonMeshVertex
 10
0.232
 20
-0.719
 30
-2.01087
 70
    64
  0
VERTEX
  5
6CF87
100
AcDbEntity
  8
0
100
AcDbVertex
100
AcDbPolygonMeshVertex
 10
0.0
 20
-0.719
 30
-2.01087
 70
    64
  0
VERTEX
  5
6CF88
100
AcDbEntity
  8
0
100
AcDbVertex
100
AcDbPolygonMeshVertex
 10
0.232
 20
-0.8155
 30
-1.703
 70
    64
  0
VERTEX
  5
6CF89
100
AcDbEntity
  8
0
100
AcDbVertex
100
AcDbPolygonMeshVertex
 10
0.232
 20
-0.8155
 30
-2.01087
 70
    64
  0
VERTEX
  5
6CF8A
100
AcDbEntity
  8
0
100
AcDbVertex
100
AcDbPolygonMeshVertex
 10
0.0
 20
-0.8155
 30
-2.01087
 70
    64
  0
VERTEX
  5
6CF8B
100
AcDbEntity
  8
0
100
AcDbVertex
100
AcDbPolygonMeshVertex
 10
0.232
 20
-0.8155
 30
-1.703
 70
    64
  0
VERTEX
  5
6CF8C
100
AcDbEntity
  8
0
100
AcDbVertex
100
AcDbPolygonMeshVertex
 10
0.232
 20
-0.8155
 30
-1.703
 70
    64
  0
VERTEX
  5
6CF8D
100
AcDbEntity
  8
0
100
AcDbVertex
100
AcDbPolygonMeshVertex
 10
0.0
 20
-0.8155
 30
-1.703
 70
    64
  0
VERTEX
  5
6CF8E
100
AcDbEntity
  8
0
100
AcDbVertex
100
AcDbPolygonMeshVertex
 10
0.232
 20
-0.719
 30
-1.703
 70
    64
  0
VERTEX
  5
6CF8F
100
AcDbEntity
  8
0
100
AcDbVertex
100
AcDbPolygonMeshVertex
 10
0.232
 20
-0.719
 30
-1.703
 70
    64
  0
VERTEX
  5
6CF90
100
AcDbEntity
  8
0
100
AcDbVertex
100
AcDbPolygonMeshVertex
 10
0.0
 20
-0.719
 30
-1.703
 70
    64
  0
SEQEND
  5
6CF91
100
AcDbEntity
  8
0
  0
POLYLINE
  5
6CF92
100
AcDbEntity
  8
0
100
AcDbPolygonMesh
 66
     1
 10
0.0
 20
0.0
 30
0.0
 70
    16
 71
     6
 72
     3
  0
VERTEX
  5
6CF93
100
AcDbEntity
  8
0
100
AcDbVertex
100
AcDbPolygonMeshVertex
 10
0.0
 20
0.3825
 30
-1.703
 70
    64
  0
VERTEX
  5
6CF94
100
AcDbEntity
  8
0
100
AcDbVertex
100
AcDbPolygonMeshVertex
 10
0.0
 20
0.3825
 30
-2.01087
 70
    64
  0
VERTEX
  5
6CF95
100
AcDbEntity
  8
0
100
AcDbVertex
100
AcDbPolygonMeshVertex
 10
0.0
 20
0.3825
 30
-2.01087
 70
    64
  0
VERTEX
  5
6CF96
100
AcDbEntity
  8
0
100
AcDbVertex
100
AcDbPolygonMeshVertex
 10
0.0
 20
0.479
 30
-1.703
 70
    64
  0
VERTEX
  5
6CF97
100
AcDbEntity
  8
0
100
AcDbVertex
100
AcDbPolygonMeshVertex
 10
0.0
 20
0.479
 30
-2.01087
 70
    64
  0
VERTEX
  5
6CF98
100
AcDbEntity
  8
0
100
AcDbVertex
100
AcDbPolygonMeshVertex
 10
0.0
 20
0.479
 30
-2.01087
 70
    64
  0
VERTEX
  5
6CF99
100
AcDbEntity
  8
0
100
AcDbVertex
100
AcDbPolygonMeshVertex
 10
0.232
 20
0.479
 30
-1.703
 70
    64
  0
VERTEX
  5
6CF9A
100
AcDbEntity
  8
0
100
AcDbVertex
100
AcDbPolygonMeshVertex
 10
0.232
 20
0.479
 30
-2.01087
 70
    64
  0
VERTEX
  5
6CF9B
100
AcDbEntity
  8
0
100
AcDbVertex
100
AcDbPolygonMeshVertex
 10
0.0
 20
0.479
 30
-2.01087
 70
    64
  0
VERTEX
  5
6CF9C
100
AcDbEntity
  8
0
100
AcDbVertex
100
AcDbPolygonMeshVertex
 10
0.232
 20
0.3825
 30
-1.703
 70
    64
  0
VERTEX
  5
6CF9D
100
AcDbEntity
  8
0
100
AcDbVertex
100
AcDbPolygonMeshVertex
 10
0.232
 20
0.3825
 30
-2.01087
 70
    64
  0
VERTEX
  5
6CF9E
100
AcDbEntity
  8
0
100
AcDbVertex
100
AcDbPolygonMeshVertex
 10
0.0
 20
0.3825
 30
-2.01087
 70
    64
  0
VERTEX
  5
6CF9F
100
AcDbEntity
  8
0
100
AcDbVertex
100
AcDbPolygonMeshVertex
 10
0.232
 20
0.3825
 30
-1.703
 70
    64
  0
VERTEX
  5
6CFA0
100
AcDbEntity
  8
0
100
AcDbVertex
100
AcDbPolygonMeshVertex
 10
0.232
 20
0.3825
 30
-1.703
 70
    64
  0
VERTEX
  5
6CFA1
100
AcDbEntity
  8
0
100
AcDbVertex
100
AcDbPolygonMeshVertex
 10
0.0
 20
0.3825
 30
-1.703
 70
    64
  0
VERTEX
  5
6CFA2
100
AcDbEntity
  8
0
100
AcDbVertex
100
AcDbPolygonMeshVertex
 10
0.232
 20
0.479
 30
-1.703
 70
    64
  0
VERTEX
  5
6CFA3
100
AcDbEntity
  8
0
100
AcDbVertex
100
AcDbPolygonMeshVertex
 10
0.232
 20
0.479
 30
-1.703
 70
    64
  0
VERTEX
  5
6CFA4
100
AcDbEntity
  8
0
100
AcDbVertex
100
AcDbPolygonMeshVertex
 10
0.0
 20
0.479
 30
-1.703
 70
    64
  0
SEQEND
  5
6CFA5
100
AcDbEntity
  8
0
  0
LINE
  5
6CFA6
100
AcDbEntity
  8
0
100
AcDbLine
 10
-0.441
 20
-0.213
 30
0.0
 11
-0.178
 21
-0.213
 31
0.0
  0
LINE
  5
6CFA7
100
AcDbEntity
  8
0
100
AcDbLine
 10
-0.441
 20
0.213
 30
0.0
 11
-0.178
 21
0.213
 31
0.0
  0
LINE
  5
6CFA8
100
AcDbEntity
  8
0
100
AcDbLine
 10
-0.178
 20
-0.213
 30
0.0
 11
-0.178
 21
-0.139
 31
0.0
  0
LINE
  5
6CFA9
100
AcDbEntity
  8
0
100
AcDbLine
 10
-0.178
 20
0.139
 30
0.0
 11
0.0
 21
0.139
 31
0.0
  0
LINE
  5
6CFAA
100
AcDbEntity
  8
0
100
AcDbLine
 10
-0.178
 20
-0.139
 30
0.0
 11
0.0
 21
-0.139
 31
0.0
  0
LINE
  5
6CFAB
100
AcDbEntity
  8
0
100
AcDbLine
 10
-0.178
 20
0.139
 30
0.0
 11
-0.178
 21
0.213
 31
0.0
  0
LINE
  5
6CFAC
100
AcDbEntity
  8
0
100
AcDbLine
 10
-0.085
 20
-0.139
 30
0.0
 11
-0.085
 21
0.139
 31
0.0
  0
POLYLINE
  5
6CFAD
100
AcDbEntity
  8
0
100
AcDbPolygonMesh
 66
     1
 10
0.0
 20
0.0
 30
0.0
 70
    16
 71
     6
 72
     3
  0
VERTEX
  5
6CFAE
100
AcDbEntity
  8
0
100
AcDbVertex
100
AcDbPolygonMeshVertex
 10
0.0
 20
-0.142
 30
-0.262
 70
    64
  0
VERTEX
  5
6CFAF
100
AcDbEntity
  8
0
100
AcDbVertex
100
AcDbPolygonMeshVertex
 10
0.0
 20
-0.142
 30
-0.55
 70
    64
  0
VERTEX
  5
6CFB0
100
AcDbEntity
  8
0
100
AcDbVertex
100
AcDbPolygonMeshVertex
 10
0.0
 20
-0.142
 30
-0.55
 70
    64
  0
VERTEX
  5
6CFB1
100
AcDbEntity
  8
0
100
AcDbVertex
100
AcDbPolygonMeshVertex
 10
0.0
 20
0.142
 30
-0.262
 70
    64
  0
VERTEX
  5
6CFB2
100
AcDbEntity
  8
0
100
AcDbVertex
100
AcDbPolygonMeshVertex
 10
0.0
 20
0.142
 30
-0.55
 70
    64
  0
VERTEX
  5
6CFB3
100
AcDbEntity
  8
0
100
AcDbVertex
100
AcDbPolygonMeshVertex
 10
0.0
 20
0.142
 30
-0.55
 70
    64
  0
VERTEX
  5
6CFB4
100
AcDbEntity
  8
0
100
AcDbVertex
100
AcDbPolygonMeshVertex
 10
0.077
 20
0.142
 30
-0.262
 70
    64
  0
VERTEX
  5
6CFB5
100
AcDbEntity
  8
0
100
AcDbVertex
100
AcDbPolygonMeshVertex
 10
0.077
 20
0.142
 30
-0.55
 70
    64
  0
VERTEX
  5
6CFB6
100
AcDbEntity
  8
0
100
AcDbVertex
100
AcDbPolygonMeshVertex
 10
0.0
 20
0.142
 30
-0.55
 70
    64
  0
VERTEX
  5
6CFB7
100
AcDbEntity
  8
0
100
AcDbVertex
100
AcDbPolygonMeshVertex
 10
0.077
 20
-0.142
 30
-0.262
 70
    64
  0
VERTEX
  5
6CFB8
100
AcDbEntity
  8
0
100
AcDbVertex
100
AcDbPolygonMeshVertex
 10
0.077
 20
-0.142
 30
-0.55
 70
    64
  0
VERTEX
  5
6CFB9
100
AcDbEntity
  8
0
100
AcDbVertex
100
AcDbPolygonMeshVertex
 10
0.0
 20
-0.142
 30
-0.55
 70
    64
  0
VERTEX
  5
6CFBA
100
AcDbEntity
  8
0
100
AcDbVertex
100
AcDbPolygonMeshVertex
 10
0.077
 20
-0.142
 30
-0.262
 70
    64
  0
VERTEX
  5
6CFBB
100
AcDbEntity
  8
0
100
AcDbVertex
100
AcDbPolygonMeshVertex
 10
0.077
 20
-0.142
 30
-0.262
 70
    64
  0
VERTEX
  5
6CFBC
100
AcDbEntity
  8
0
100
AcDbVertex
100
AcDbPolygonMeshVertex
 10
0.0
 20
-0.142
 30
-0.262
 70
    64
  0
VERTEX
  5
6CFBD
100
AcDbEntity
  8
0
100
AcDbVertex
100
AcDbPolygonMeshVertex
 10
0.077
 20
0.142
 30
-0.262
 70
    64
  0
VERTEX
  5
6CFBE
100
AcDbEntity
  8
0
100
AcDbVertex
100
AcDbPolygonMeshVertex
 10
0.077
 20
0.142
 30
-0.262
 70
    64
  0
VERTEX
  5
6CFBF
100
AcDbEntity
  8
0
100
AcDbVertex
100
AcDbPolygonMeshVertex
 10
0.0
 20
0.142
 30
-0.262
 70
    64
  0
SEQEND
  5
6CFC0
100
AcDbEntity
  8
0
  0
LINE
  5
6CFC1
100
AcDbEntity
  8
0
100
AcDbLine
 10
0.0
 20
0.139
 30
0.0
 11
0.0
 21
0.139
 31
-0.262
  0
LINE
  5
6CFC2
100
AcDbEntity
  8
0
100
AcDbLine
 10
0.0
 20
-0.139
 30
0.0
 11
0.0
 21
-0.139
 31
-0.262
  0
LINE
  5
6CFC3
100
AcDbEntity
  8
0
100
AcDbLine
 10
0.0
 20
0.139
 30
-0.262
 11
0.0
 21
-0.139
 31
-0.262
  0
POINT
  5
6CFC4
100
AcDbEntity
  8
SNAP_POINTS
100
AcDbPoint
 10
0.0
 20
0.0
 30
0.0
  0
ATTDEF
  5
6CFC5
100
AcDbEntity
  8
ATTRIBUTES
100
AcDbText
 10
-0.406269
 20
0.196178
 30
0.0
 40
0.026478
  1
ALLEN-BRADLEY
100
AcDbAttributeDefinition
  3
MANUFACTURER NAME?
  2
AC_VND_LABEL
 70
     0
  0
ATTDEF
  5
6CFC6
100
AcDbEntity
  8
ATTRIBUTES
100
AcDbText
 10
-0.406269
 20
0.141015
 30
0.0
 40
0.026478
  1
800T-XAP
100
AcDbAttributeDefinition
  3
CATALOG NUMBER?
  2
AC_PART_NO
 70
     0
  0
ATTDEF
  5
6CFC7
100
AcDbEntity
  8
ATTRIBUTES
100
AcDbText
 10
-0.406269
 20
0.085853
 30
0.0
 40
0.026478
  1
NEMA 2 CIRCUIT SEALED SWITCH CONTACT BLOCK, 1 N.O. - 1 N.C.
100
AcDbAttributeDefinition
  3
PART DESCRIPTION?
  2
AC_DESCRIPTION
 70
     0
  0
ATTDEF
  5
6CFC8
100
AcDbEntity
  8
ATTRIBUTES
100
AcDbText
 10
-0.406269
 20
0.03069
 30
0.0
 40
0.026478
  1

100
AcDbAttributeDefinition
  3
DEVICE ID?
  2
DEVICE_ID
 70
     0
  0
ATTDEF
  5
6CFC9
100
AcDbEntity
  8
ATTRIBUTES
100
AcDbText
 10
-0.406269
 20
-0.024472
 30
0.0
 40
0.026478
  1

100
AcDbAttributeDefinition
  3
CUSTOMER PART NUMBER?
  2
AC_CPART_NO
 70
     0
  0
ATTDEF
  5
6CFCA
100
AcDbEntity
  8
ATTRIBUTES
100
AcDbText
 10
-0.406269
 20
-0.079634
 30
0.0
 40
0.026478
  1

100
AcDbAttributeDefinition
  3
CUSTOMER NOTE?
  2
AC_NOTE
 70
     0
  0
ATTDEF
  5
6CFCB
100
AcDbEntity
  8
ATTRIBUTES
100
AcDbText
 10
-0.406269
 20
-0.134797
 30
0.0
 40
0.026478
  1

100
AcDbAttributeDefinition
  3
FASTENER DATA?
  2
FASTENER
 70
     0
  0
ATTDEF
  5
6CFCC
100
AcDbEntity
  8
ATTRIBUTES
100
AcDbText
 10
-0.406269
 20
-0.189959
 30
0.0
 40
0.026478
  1

100
AcDbAttributeDefinition
  3
UNIT OF SCALE?
  2
AC_SCALE_UNIT
 70
     0
  0
ATTDEF
  5
6CFCD
100
AcDbEntity
  8
ATTRIBUTES
100
AcDbText
 10
-0.406269
 20
-0.245122
 30
0.0
 40
0.026478
  1

100
AcDbAttributeDefinition
  3
VIEW CODE?
  2
AC_VIEW_CODE
 70
     0
  0
POINT
  5
6CFCE
100
AcDbEntity
  8
SNAP_POINTS
100
AcDbPoint
 10
0.0
 20
0.0
 30
-1.983
  0
DIMENSION
  5
6CFCF
100
AcDbEntity
  8
AREA1
100
AcDbDimension
  2
*D0
 10
-1.173195
 20
0.874
 30
0.0
 11
-1.173195
 21
-0.016244
 31
0.0
 70
   160
  3
ABECAD_3V
100
AcDbAlignedDimension
 13
-0.886
 23
-0.874
 33
0.0
 14
-0.886
 24
0.874
 34
0.0
 50
90.0
100
AcDbRotatedDimension
1001
ACAD
1000
DSTYLE
1002
{
1070
    40
1040
0.730213
1002
}
  0
DIMENSION
  5
6CFD0
100
AcDbEntity
  8
AREA1
100
AcDbDimension
  2
*D1
 10
0.232
 20
1.080827
 30
0.0
 11
-0.3233
 21
1.267735
 31
0.0
 70
   160
  3
ABECAD_3V
100
AcDbAlignedDimension
 13
-0.886
 23
0.874
 33
0.0
 14
0.232
 24
0.479
 34
-1.703
100
AcDbRotatedDimension
1001
ACAD
1000
DSTYLE
1002
{
1070
    40
1040
0.730213
1002
}
  0
LWPOLYLINE
  5
6CFD1
100
AcDbEntity
  8
SCALE
100
AcDbPolyline
 90
        4
 70
     1
 43
0.0
 10
0.419799
 20
0.006271
 10
1.555428
 20
0.006271
 10
1.555428
 20
-0.835338
 10
0.419799
 20
-0.835338
  0
LINE
  5
6CFD2
100
AcDbEntity
  8
SCALE
100
AcDbLine
 10
0.477797
 20
-0.373807
 30
0.0
 11
1.477797
 21
-0.373807
 31
0.0
  0
LINE
  5
6CFD3
100
AcDbEntity
  8
SCALE
100
AcDbLine
 10
0.477797
 20
-0.673807
 30
0.0
 11
0.871497
 21
-0.673807
 31
0.0
  0
LINE
  5
6CFD4
100
AcDbEntity
  8
SCALE
100
AcDbLine
 10
0.477797
 20
-0.473807
 30
0.0
 11
0.477797
 21
-0.273807
 31
0.0
  0
TEXT
  5
6CFD5
100
AcDbEntity
  8
SCALE
100
AcDbText
 10
0.533773
 20
-0.626122
 30
0.0
 40
0.0625
  1
[10mm]
100
AcDbText
  0
LINE
  5
6CFD6
100
AcDbEntity
  8
SCALE
100
AcDbLine
 10
0.477797
 20
-0.773807
 30
0.0
 11
0.477797
 21
-0.573807
 31
0.0
  0
TEXT
  5
6CFD7
100
AcDbEntity
  8
SCALE
100
AcDbText
 10
0.479328
 20
-0.09893
 30
0.0
 40
0.0625
  1
SCALE:
100
AcDbText
  0
LINE
  5
6CFD8
100
AcDbEntity
  8
SCALE
100
AcDbLine
 10
0.871497
 20
-0.773807
 30
0.0
 11
0.871497
 21
-0.573807
 31
0.0
  0
TEXT
  5
6CFD9
100
AcDbEntity
  8
SCALE
100
AcDbText
 10
0.84108
 20
-0.304759
 30
0.0
 40
0.0625
  1
1 Inch
100
AcDbText
  0
LINE
  5
6CFDA
100
AcDbEntity
  8
SCALE
100
AcDbLine
 10
1.477797
 20
-0.373807
 30
0.0
 11
1.477797
 21
-0.473807
 31
0.0
  0
LINE
  5
6CFDB
100
AcDbEntity
  8
SCALE
100
AcDbLine
 10
1.477797
 20
-0.473807
 30
0.0
 11
1.477797
 21
-0.273807
 31
0.0
  0
DIMENSION
  5
6D006
100
AcDbEntity
  8
AREA2
100
AcDbDimension
  2
*D2
 10
-1.337713
 20
0.0
 30
-2.01087
 11
-1.337713
 21
-0.998914
 31
0.0
 70
   160
210
0.0
220
-1.0
230
0.0
  3
ABECAD_3V
100
AcDbAlignedDimension
 13
-0.886
 23
-0.788
 33
0.0
 14
0.0
 24
0.3825
 34
-2.01087
 50
90.0
100
AcDbRotatedDimension
1001
ACAD
1000
DSTYLE
1002
{
1070
    40
1040
0.730213
1002
}
  0
VIEWPORT
  5
2C
102
{ACAD_XDICTIONARY
360
6D40B
102
}
100
AcDbEntity
 67
     1
  8
0
100
AcDbViewport
 10
4.999849
 20
3.750155
 30
0.0
 40
13.389022
 41
7.577951
 68
     1
 69
     1
1001
ACAD
1000
MVIEW
1002
{
1070
    16
1010
0.0
1020
0.0
1030
0.0
1010
0.0
1020
0.0
1030
1.0
1040
0.0
1040
7.577951
1040
4.999849
1040
3.750155
1040
50.0
1040
0.0
1040
0.0
1070
     0
1070
   100
1070
     1
1070
     1
1070
     0
1070
     0
1070
     0
1070
     0
1040
0.0
1040
0.0
1040
0.0
1040
1.0
1040
1.0
1040
0.0
1040
0.0
1070
     0
1002
{
1002
}
1002
}
  0
VIEWPORT
  5
2D
102
{ACAD_XDICTIONARY
360
6D40D
102
}
100
AcDbEntity
 67
     1
  8
0
100
AcDbViewport
 10
2.5
 20
5.625
 30
0.0
 40
5.0
 41
3.75
 68
     4
 69
     2
1001
ACAD
1000
MVIEW
1002
{
1070
    16
1010
0.0
1020
0.0
1030
0.0
1010
0.0
1020
0.0
1030
1.0
1040
0.0
1040
2.738299
1040
-0.294514
1040
0.256677
1040
50.0
1040
0.0
1040
0.0
1070
     0
1070
   100
1070
     1
1070
     0
1070
     0
1070
     0
1070
     0
1070
     0
1040
0.0
1040
0.0
1040
0.0
1040
1.0
1040
1.0
1040
0.0
1040
0.0
1070
     0
1002
{
1003
AREA2
1002
}
1002
}
  0
VIEWPORT
  5
2E
102
{ACAD_XDICTIONARY
360
6D40F
102
}
100
AcDbEntity
 67
     1
  8
0
100
AcDbViewport
 10
2.5
 20
1.875
 30
0.0
 40
5.0
 41
3.75
 68
     3
 69
     3
1001
ACAD
1000
MVIEW
1002
{
1070
    16
1010
0.0
1020
0.0
1030
0.0
1010
0.0
1020
-1.0
1030
0.0
1040
0.0
1040
2.738299
1040
-0.294514
1040
-0.848437
1040
50.0
1040
0.0
1040
0.0
1070
     0
1070
   100
1070
     1
1070
     0
1070
     0
1070
     0
1070
     0
1070
     0
1040
0.0
1040
0.0
1040
0.0
1040
1.0
1040
1.0
1040
0.0
1040
0.0
1070
     0
1002
{
1003
AREA1
1002
}
1002
}
  0
VIEWPORT
  5
2F
102
{ACAD_XDICTIONARY
360
6D411
102
}
100
AcDbEntity
 67
     1
  8
0
100
AcDbViewport
 10
7.5
 20
3.75
 30
0.0
 40
5.0
 41
7.5
 68
     2
 69
     4
1001
ACAD
1000
MVIEW
1002
{
1070
    16
1010
0.0
1020
0.0
1030
0.0
1010
-1.0
1020
-1.0
1030
1.0
1040
0.0
1040
4.284141
1040
-0.318144
1040
-0.428279
1040
50.0
1040
0.0
1040
0.0
1070
     0
1070
   100
1070
     1
1070
     0
1070
     0
1070
     0
1070
     0
1070
     0
1040
0.0
1040
0.0
1040
0.0
1040
1.0
1040
1.0
1040
0.0
1040
0.0
1070
     0
1002
{
1003
AREA1
1003
AREA2
1002
}
1002
}
  0
TEXT
  5
42D
100
AcDbEntity
 67
     1
  8
0
100
AcDbText
 10
5.253785
 20
7.092701
 30
0.0
 40
0.2
  1

100
AcDbText
  0
TEXT
  5
431
100
AcDbEntity
 67
     1
  8
0
100
AcDbText
 10
5.253785
 20
6.759368
 30
0.0
 40
0.2
  1

100
AcDbText
1001
ACAD
1000
R13OBJECT
1002
{
1005
42D
1002
}
  0
TEXT
  5
11D16
100
AcDbEntity
 67
     1
  8
AREA2
100
AcDbText
 10
5.101109
 20
7.152637
 30
0.0
 40
0.2
  1
800T-XAP
100
AcDbText
  0
TEXT
  5
24C0A
100
AcDbEntity
 67
     1
  8
AREA2
100
AcDbText
 10
5.101109
 20
6.881437
 30
0.0
 40
0.2
  1
NEMA 2 CIRCUIT SEALED 
100
AcDbText
  0
TEXT
  5
2F662
100
AcDbEntity
 67
     1
  8
AREA2
100
AcDbText
 10
5.101109
 20
6.599834
 30
0.0
 40
0.2
  1

100
AcDbText
  0
TEXT
  5
4B785
100
AcDbEntity
 67
     1
  8
AREA2
100
AcDbText
 10
5.101109
 20
6.310076
 30
0.0
 40
0.2
  1

100
AcDbText
  0
TEXT
  5
64888
100
AcDbEntity
 67
     1
  8
AREA2
100
AcDbText
 10
5.101109
 20
6.317557
 30
0.0
 40
0.2
  1

100
AcDbText
  0
TEXT
  5
651DC
100
AcDbEntity
 67
     1
  8
AREA2
100
AcDbText
 10
5.101109
 20
6.599161
 30
0.0
 40
0.2
  1

100
AcDbText
  0
TEXT
  5
65724
100
AcDbEntity
 67
     1
  8
AREA2
100
AcDbText
 10
5.101109
 20
6.331741
 30
0.0
 40
0.2
  1

100
AcDbText
  0
TEXT
  5
65FDD
100
AcDbEntity
 67
     1
  8
AREA2
100
AcDbText
 10
5.101109
 20
6.302028
 30
0.0
 40
0.2
  1

100
AcDbText
  0
TEXT
  5
66E77
100
AcDbEntity
 67
     1
  8
AREA2
100
AcDbText
 10
5.101109
 20
6.318596
 30
0.0
 40
0.2
  1

100
AcDbText
  0
TEXT
  5
67914
100
AcDbEntity
 67
     1
  8
AREA2
100
AcDbText
 10
5.101109
 20
6.591198
 30
0.0
 40
0.2
  1
SWITCH CONTACT BLOCK, 
100
AcDbText
  0
TEXT
  5
691A5
100
AcDbEntity
 67
     1
  8
AREA2
100
AcDbText
 10
5.101109
 20
6.289433
 30
0.0
 40
0.2
  1

100
AcDbText
  0
TEXT
  5
699EC
100
AcDbEntity
 67
     1
  8
AREA2
100
AcDbText
 10
5.101109
 20
6.275064
 30
0.0
 40
0.2
  1

100
AcDbText
  0
TEXT
  5
6AB31
100
AcDbEntity
 67
     1
  8
AREA2
100
AcDbText
 10
5.101109
 20
6.303803
 30
0.0
 40
0.2
  1

100
AcDbText
  0
TEXT
  5
6C3EC
100
AcDbEntity
 67
     1
  8
AREA2
100
AcDbText
 10
5.101109
 20
6.302592
 30
0.0
 40
0.2
  1

100
AcDbText
  0
TEXT
  5
6D015
100
AcDbEntity
 67
     1
  8
AREA2
100
AcDbText
 10
5.101109
 20
6.288162
 30
0.0
 40
0.2
  1
1 N.O. - 1 N.C.
100
AcDbText
  0
ENDSEC
  0
SECTION
  2
OBJECTS
  0
DICTIONARY
  5
46D
100
AcDbDictionary
  3
ACAD_GROUP
350
46E
  3
ACAD_LAYOUT
350
49E
  3
ACAD_MLINESTYLE
350
47B
  3
ACAD_PLOTSETTINGS
350
49F
  3
ACAD_PLOTSTYLENAME
350
49C
  3
ACDBHEADERROUNDTRIPXREC
350
6D3EA
  3
ACDBVARIABLEDICTIONARY
350
48D
  0
DICTIONARY
  5
6D3E8
100
AcDbDictionary
280
     1
  3
ACAD_XREC_ROUNDTRIP
360
6D3E9
  0
DICTIONARY
  5
6D415
100
AcDbDictionary
280
     1
  3
ACAD_XREC_ROUNDTRIP
360
6D416
  0
DICTIONARY
  5
6D417
100
AcDbDictionary
280
     1
  3
ACAD_XREC_ROUNDTRIP
360
6D418
  0
DICTIONARY
  5
6D41B
100
AcDbDictionary
280
     1
  3
ACAD_XREC_ROUNDTRIP
360
6D41C
  0
DICTIONARY
  5
4D2
100
AcDbDictionary
280
     1
  3
ACAD_LAYOUTSELFREF
360
6D414
  0
DICTIONARY
  5
4D0
100
AcDbDictionary
280
     1
  3
ACAD_LAYOUTSELFREF
360
6D413
  0
DICTIONARY
  5
6D40B
100
AcDbDictionary
280
     1
  3
ACAD_XREC_ROUNDTRIP
360
6D40C
  0
DICTIONARY
  5
6D40D
100
AcDbDictionary
280
     1
  3
ACAD_XREC_ROUNDTRIP
360
6D40E
  0
DICTIONARY
  5
6D40F
100
AcDbDictionary
280
     1
  3
ACAD_XREC_ROUNDTRIP
360
6D410
  0
DICTIONARY
  5
6D411
100
AcDbDictionary
280
     1
  3
ACAD_XREC_ROUNDTRIP
360
6D412
  0
DICTIONARY
  5
46E
102
{ACAD_REACTORS
330
46D
102
}
100
AcDbDictionary
  0
DICTIONARY
  5
49E
102
{ACAD_XDICTIONARY
360
6D419
102
}
102
{ACAD_REACTORS
330
46D
102
}
100
AcDbDictionary
  3
LAYOUT1
350
4A1
  3
MODEL
350
4A0
  0
DICTIONARY
  5
47B
102
{ACAD_REACTORS
330
46D
102
}
100
AcDbDictionary
  3
STANDARD
350
47C
  0
DICTIONARY
  5
49F
102
{ACAD_REACTORS
330
46D
102
}
100
AcDbDictionary
  0
ACAD_PROXY_OBJECT
  5
49C
102
{ACAD_REACTORS
330
46D
102
}
100
AcDbProxyObject
 90
      499
 91
      501
 93
       86
310
405010041939BDC9B585B1
350
49D
340
49D
 94
        0
  0
DICTIONARY
  5
6D3EA
102
{ACAD_REACTORS
330
46D
102
}
100
AcDbDictionary
  3
CEPSNTYPE
350
6D3F4
  3
DIMSTYLEDATA
350
6D3F8
  3
FINGERPRINTGUID
350
6D3F5
  3
HYPERLINKBASE
350
6D3ED
  3
INSUNITS
350
6D3F3
  3
LAYOUTDICT
350
6D3EF
  3
LWETCUNION
350
6D3F2
  3
PLOTSETDICT
350
6D3F0
  3
PLOTSTYLNAMDICT
350
6D3F1
  3
PSVPSCALE
350
6D3F7
  3
PUCSBASE
350
6D3FB
  3
PUCSORGBACK
350
6D401
  3
PUCSORGBOTTOM
350
6D3FD
  3
PUCSORGFRONT
350
6D400
  3
PUCSORGLEFT
350
6D3FE
  3
PUCSORGRIGHT
350
6D3FF
  3
PUCSORGTOP
350
6D3FC
  3
PUCSORTHOREF
350
6D3F9
  3
PUCSORTHOVIEW
350
6D3FA
  3
STYLESHEET
350
6D3EE
  3
TSTACKALIGN
350
6D3EB
  3
TSTACKSIZE
350
6D3EC
  3
UCSBASE
350
6D404
  3
UCSORGBACK
350
6D40A
  3
UCSORGBOTTOM
350
6D406
  3
UCSORGFRONT
350
6D409
  3
UCSORGLEFT
350
6D407
  3
UCSORGRIGHT
350
6D408
  3
UCSORGTOP
350
6D405
  3
UCSORTHOREF
350
6D402
  3
UCSORTHOVIEW
350
6D403
  3
VERSIONGUID
350
6D3F6
  0
DICTIONARY
  5
48D
102
{ACAD_REACTORS
330
46D
102
}
100
AcDbDictionary
  3
DIMADEC
350
48E
  0
XRECORD
  5
6D3E9
102
{ACAD_REACTORS
330
6D3E8
102
}
100
AcDbXrecord
102
EXTNAMES
  1
*ACTIVE
  2
*Active
102
UCS
 74
     0
 71
     1
 10
0.0
 20
0.0
 30
0.0
 10
1.0
 20
0.0
 30
0.0
 10
0.0
 20
1.0
 30
0.0
146
0.0
 79
     1
102
VIEW
281
     1
  0
XRECORD
  5
6D416
102
{ACAD_REACTORS
330
6D415
102
}
100
AcDbXrecord
102
PLOTBIT
280
     0
  0
XRECORD
  5
6D418
102
{ACAD_REACTORS
330
6D417
102
}
100
AcDbXrecord
102
ACADR14ROUNDTRIP
1000
DSTYLE
1002
{
1070
   276
 70
     2
1070
   277
 70
     5
1070
   279
 70
     2
1002
}
  0
XRECORD
  5
6D41C
102
{ACAD_REACTORS
330
6D41B
102
}
100
AcDbXrecord
102
ACADR14ROUNDTRIP
1000
DSTYLE
1002
{
1070
   276
 70
     2
1070
   277
 70
     5
1070
   279
 70
     2
1070
   289
 70
     2
1002
}
  0
XRECORD
  5
6D414
102
{ACAD_REACTORS
330
4D2
102
}
100
AcDbXrecord
340
478
  0
XRECORD
  5
6D413
102
{ACAD_REACTORS
330
4D0
102
}
100
AcDbXrecord
340
475
  0
XRECORD
  5
6D40C
102
{ACAD_REACTORS
330
6D40B
102
}
100
AcDbXrecord
102
UCS
 74
     0
 71
     1
 10
0.0
 20
0.0
 30
0.0
 10
1.0
 20
0.0
 30
0.0
 10
0.0
 20
1.0
 30
0.0
146
0.0
 79
     0
102
VIEW
281
     0
102
NEWVIEWCONTROL
280
     4
  0
XRECORD
  5
6D40E
102
{ACAD_REACTORS
330
6D40D
102
}
100
AcDbXrecord
102
UCS
 74
     0
 71
     1
 10
0.0
 20
0.0
 30
0.0
 10
1.0
 20
0.0
 30
0.0
 10
0.0
 20
1.0
 30
0.0
146
0.0
 79
     1
102
VIEW
281
     0
102
NEWVIEWCONTROL
280
     4
  0
XRECORD
  5
6D410
102
{ACAD_REACTORS
330
6D40F
102
}
100
AcDbXrecord
102
UCS
 74
     0
 71
     1
 10
0.0
 20
0.0
 30
0.0
 10
1.0
 20
0.0
 30
0.0
 10
0.0
 20
0.0
 30
1.0
146
0.0
 79
     3
102
VIEW
281
     0
102
NEWVIEWCONTROL
280
     4
  0
XRECORD
  5
6D412
102
{ACAD_REACTORS
330
6D411
102
}
100
AcDbXrecord
102
UCS
 74
     0
 71
     1
 10
0.0
 20
0.0
 30
0.0
 10
1.0
 20
0.0
 30
0.0
 10
0.0
 20
1.0
 30
0.0
146
0.0
 79
     0
102
VIEW
281
     0
102
NEWVIEWCONTROL
280
     4
  0
DICTIONARY
  5
6D419
100
AcDbDictionary
280
     1
  3
ACAD_XREC_ROUNDTRIP
360
6D41A
  0
ACAD_PROXY_OBJECT
  5
4A1
102
{ACAD_REACTORS
330
49E
102
}
100
AcDbProxyObject
 90
      499
 91
      503
 93
     2044
310
91D4850204C617365724A65742035303030205365726965732050434C20362C008000000C0BB1B1440000000102F06C510000000000BC1B1440000000002E06C5100000000C0CCFC6A4000000018199D9C501064C6574746572A901406AA427D84144352EEE3F47D11959985D5B1D08148C4D081C195B88185CDCDA59DB9B5
310
95B9D1CCB98DD18A30EDE3B1BBFDBC0FC1D572C8D6D0C833F1A2B3054E9249F0FD074C61796F75743140501A97D7DB4AA43C31EFF91E46EBA53B71EFD1F32A15809809100B6537F8EAD447D02A6A6A00200C0093BD106FC0000F06EE366FABE00003AE6C60A036F44424FF2920002440160B7F435600079000000C89D22D2E
310
43C0
330
475
330
2C
340
0
340
0
 94
        0
  0
ACAD_PROXY_OBJECT
  5
4A0
102
{ACAD_REACTORS
330
49E
102
}
100
AcDbProxyObject
 90
      499
 91
      503
 93
      924
310
91D4850204C617365724A65742035303030205365726965732050434C20362C01AAAAAAAAA547D11959985D5B1D08148C4D081C195B88185CDCDA59DB9B595B9D1CCB98DD18A69054D6F64656C901A800000000000000000000000000000000000000000000A1000000000000008902A6A6AAAA0
330
478
330
0
340
0
340
0
 94
        0
  0
MLINESTYLE
  5
47C
102
{ACAD_REACTORS
330
47B
102
}
100
AcDbMlineStyle
  2
STANDARD
 70
     0
  3

 62
   256
 51
90.0
 52
90.0
 71
     2
 49
0.5
 62
   256
  6
BYLAYER
 49
-0.5
 62
   256
  6
BYLAYER
  0
ACAD_PROXY_OBJECT
  5
49D
102
{ACAD_REACTORS
330
49C
102
}
100
AcDbProxyObject
 90
      499
 91
      502
 93
        0
 94
        0
  0
XRECORD
  5
6D3F4
102
{ACAD_REACTORS
330
6D3EA
102
}
100
AcDbXrecord
 90
        0
  0
XRECORD
  5
6D3F8
102
{ACAD_REACTORS
330
6D3EA
102
}
100
AcDbXrecord
1000
DSTYLE
1002
{
1070
   276
 70
     2
1070
   277
 70
     5
1070
   279
 70
     2
1002
}
  0
XRECORD
  5
6D3F5
102
{ACAD_REACTORS
330
6D3EA
102
}
100
AcDbXrecord
  1
{6E0CF4B5-225E-11D4-A150-00A0CC3303EC}
  0
XRECORD
  5
6D3ED
102
{ACAD_REACTORS
330
6D3EA
102
}
100
AcDbXrecord
  1

  0
XRECORD
  5
6D3F3
102
{ACAD_REACTORS
330
6D3EA
102
}
100
AcDbXrecord
 90
        0
  0
XRECORD
  5
6D3EF
102
{ACAD_REACTORS
330
6D3EA
102
}
100
AcDbXrecord
340
49E
  0
XRECORD
  5
6D3F2
102
{ACAD_REACTORS
330
6D3EA
102
}
100
AcDbXrecord
 90
    14877
  0
XRECORD
  5
6D3F0
102
{ACAD_REACTORS
330
6D3EA
102
}
100
AcDbXrecord
340
49F
  0
XRECORD
  5
6D3F1
102
{ACAD_REACTORS
330
6D3EA
102
}
100
AcDbXrecord
340
49C
  0
XRECORD
  5
6D3F7
102
{ACAD_REACTORS
330
6D3EA
102
}
100
AcDbXrecord
 40
0.0
  0
XRECORD
  5
6D3FB
102
{ACAD_REACTORS
330
6D3EA
102
}
100
AcDbXrecord
340
0
  0
XRECORD
  5
6D401
102
{ACAD_REACTORS
330
6D3EA
102
}
100
AcDbXrecord
 10
0.0
 20
0.0
 30
0.0
  0
XRECORD
  5
6D3FD
102
{ACAD_REACTORS
330
6D3EA
102
}
100
AcDbXrecord
 10
0.0
 20
0.0
 30
0.0
  0
XRECORD
  5
6D400
102
{ACAD_REACTORS
330
6D3EA
102
}
100
AcDbXrecord
 10
0.0
 20
0.0
 30
0.0
  0
XRECORD
  5
6D3FE
102
{ACAD_REACTORS
330
6D3EA
102
}
100
AcDbXrecord
 10
0.0
 20
0.0
 30
0.0
  0
XRECORD
  5
6D3FF
102
{ACAD_REACTORS
330
6D3EA
102
}
100
AcDbXrecord
 10
0.0
 20
0.0
 30
0.0
  0
XRECORD
  5
6D3FC
102
{ACAD_REACTORS
330
6D3EA
102
}
100
AcDbXrecord
 10
0.0
 20
0.0
 30
0.0
  0
XRECORD
  5
6D3F9
102
{ACAD_REACTORS
330
6D3EA
102
}
100
AcDbXrecord
340
0
  0
XRECORD
  5
6D3FA
102
{ACAD_REACTORS
330
6D3EA
102
}
100
AcDbXrecord
 70
     0
  0
XRECORD
  5
6D3EE
102
{ACAD_REACTORS
330
6D3EA
102
}
100
AcDbXrecord
  1

  0
XRECORD
  5
6D3EB
102
{ACAD_REACTORS
330
6D3EA
102
}
100
AcDbXrecord
 90
        1
  0
XRECORD
  5
6D3EC
102
{ACAD_REACTORS
330
6D3EA
102
}
100
AcDbXrecord
 90
       70
  0
XRECORD
  5
6D404
102
{ACAD_REACTORS
330
6D3EA
102
}
100
AcDbXrecord
340
0
  0
XRECORD
  5
6D40A
102
{ACAD_REACTORS
330
6D3EA
102
}
100
AcDbXrecord
 10
0.0
 20
0.0
 30
0.0
  0
XRECORD
  5
6D406
102
{ACAD_REACTORS
330
6D3EA
102
}
100
AcDbXrecord
 10
0.0
 20
0.0
 30
0.0
  0
XRECORD
  5
6D409
102
{ACAD_REACTORS
330
6D3EA
102
}
100
AcDbXrecord
 10
0.0
 20
0.0
 30
0.0
  0
XRECORD
  5
6D407
102
{ACAD_REACTORS
330
6D3EA
102
}
100
AcDbXrecord
 10
0.0
 20
0.0
 30
0.0
  0
XRECORD
  5
6D408
102
{ACAD_REACTORS
330
6D3EA
102
}
100
AcDbXrecord
 10
0.0
 20
0.0
 30
0.0
  0
XRECORD
  5
6D405
102
{ACAD_REACTORS
330
6D3EA
102
}
100
AcDbXrecord
 10
0.0
 20
0.0
 30
0.0
  0
XRECORD
  5
6D402
102
{ACAD_REACTORS
330
6D3EA
102
}
100
AcDbXrecord
340
0
  0
XRECORD
  5
6D403
102
{ACAD_REACTORS
330
6D3EA
102
}
100
AcDbXrecord
 70
     0
  0
XRECORD
  5
6D3F6
102
{ACAD_REACTORS
330
6D3EA
102
}
100
AcDbXrecord
  1
{C7C95F9F-44C0-41A2-80BC-931C42CCDD94}
  0
DICTIONARYVAR
  5
48E
102
{ACAD_REACTORS
330
48D
102
}
100
DictionaryVariables
280
     0
  1
0
  0
XRECORD
  5
6D41A
102
{ACAD_REACTORS
330
6D419
102
}
100
AcDbXrecord
102
EXTNAMES
  1
LAYOUT1
  2
Layout1
  1
MODEL
  2
Model
  0
ENDSEC
  0
EOF
