  0
SECTION
  2
HEADER
  9
$ACADVER
  1
AC1014
  9
$ACADMAINTVER
 70
     8
  9
$DWGCODEPAGE
  3
ANSI_1252
  9
$INSBASE
 10
0.0
 20
0.0
 30
0.0
  9
$EXTMIN
 10
-1.273195
 20
-0.874
 30
-2.01087
  9
$EXTMAX
 10
1.555428
 20
1.317735
 30
0.0
  9
$LIMMIN
 10
0.0
 20
0.0
  9
$LIMMAX
 10
12.0
 20
9.0
  9
$ORTHOMODE
 70
     0
  9
$REGENMODE
 70
     1
  9
$FILLMODE
 70
     1
  9
$QTEXTMODE
 70
     0
  9
$MIRRTEXT
 70
     1
  9
$DRAGMODE
 70
     2
  9
$LTSCALE
 40
1.0
  9
$OSMODE
 70
    37
  9
$ATTMODE
 70
     1
  9
$TEXTSIZE
 40
0.12
  9
$TRACEWID
 40
0.05
  9
$TEXTSTYLE
  7
STANDARD
  9
$CLAYER
  8
0
  9
$CELTYPE
  6
BYLAYER
  9
$CECOLOR
 62
   256
  9
$CELTSCALE
 40
1.0
  9
$DELOBJ
 70
     1
  9
$DISPSILH
 70
     0
  9
$DIMSCALE
 40
1.0
  9
$DIMASZ
 40
0.1
  9
$DIMEXO
 40
0.1
  9
$DIMDLI
 40
0.375
  9
$DIMRND
 40
0.0
  9
$DIMDLE
 40
0.0
  9
$DIMEXE
 40
0.1
  9
$DIMTP
 40
0.0
  9
$DIMTM
 40
0.0
  9
$DIMTXT
 40
0.1
  9
$DIMCEN
 40
0.09
  9
$DIMTSZ
 40
0.0
  9
$DIMTOL
 70
     0
  9
$DIMLIM
 70
     0
  9
$DIMTIH
 70
     0
  9
$DIMTOH
 70
     1
  9
$DIMSE1
 70
     0
  9
$DIMSE2
 70
     0
  9
$DIMTAD
 70
     0
  9
$DIMZIN
 70
     4
  9
$DIMBLK
  1

  9
$DIMASO
 70
     1
  9
$DIMSHO
 70
     1
  9
$DIMPOST
  1

  9
$DIMAPOST
  1

  9
$DIMALT
 70
     1
  9
$DIMALTD
 70
     2
  9
$DIMALTF
 40
25.4
  9
$DIMLFAC
 40
1.0
  9
$DIMTOFL
 70
     0
  9
$DIMTVP
 40
0.0
  9
$DIMTIX
 70
     0
  9
$DIMSOXD
 70
     0
  9
$DIMSAH
 70
     0
  9
$DIMBLK1
  1

  9
$DIMBLK2
  1

  9
$DIMSTYLE
  2
ABECAD_3D
  9
$DIMCLRD
 70
     0
  9
$DIMCLRE
 70
     0
  9
$DIMCLRT
 70
     0
  9
$DIMTFAC
 40
1.5
  9
$DIMGAP
 40
0.09
  9
$DIMJUST
 70
     0
  9
$DIMSD1
 70
     0
  9
$DIMSD2
 70
     0
  9
$DIMTOLJ
 70
     1
  9
$DIMTZIN
 70
     4
  9
$DIMALTZ
 70
     4
  9
$DIMALTTZ
 70
     4
  9
$DIMFIT
 70
     5
  9
$DIMUPT
 70
     1
  9
$DIMUNIT
 70
     7
  9
$DIMDEC
 70
     6
  9
$DIMTDEC
 70
     6
  9
$DIMALTU
 70
     2
  9
$DIMALTTD
 70
     2
  9
$DIMTXSTY
  7
STANDARD
  9
$DIMAUNIT
 70
     0
  9
$LUNITS
 70
     2
  9
$LUPREC
 70
     4
  9
$SKETCHINC
 40
0.1
  9
$FILLETRAD
 40
0.0
  9
$AUNITS
 70
     0
  9
$AUPREC
 70
     0
  9
$MENU
  1
ACAD
  9
$ELEVATION
 40
0.0
  9
$PELEVATION
 40
0.0
  9
$THICKNESS
 40
0.0
  9
$LIMCHECK
 70
     0
  9
$BLIPMODE
 70
     0
  9
$CHAMFERA
 40
0.0
  9
$CHAMFERB
 40
0.0
  9
$CHAMFERC
 40
0.0
  9
$CHAMFERD
 40
0.0
  9
$SKPOLY
 70
     0
  9
$TDCREATE
 40
2451726.438389120
  9
$TDUPDATE
 40
2452100.671871643
  9
$TDINDWG
 40
1.4008634259
  9
$TDUSRTIMER
 40
1.4008634259
  9
$USRTIMER
 70
     1
  9
$ANGBASE
 50
0.0
  9
$ANGDIR
 70
     0
  9
$PDMODE
 70
     3
  9
$PDSIZE
 40
0.09
  9
$PLINEWID
 40
0.0
  9
$COORDS
 70
     1
  9
$SPLFRAME
 70
     1
  9
$SPLINETYPE
 70
     6
  9
$SPLINESEGS
 70
     8
  9
$ATTDIA
 70
     0
  9
$ATTREQ
 70
     1
  9
$HANDLING
 70
     1
  9
$HANDSEED
  5
A8E58
  9
$SURFTAB1
 70
     6
  9
$SURFTAB2
 70
     6
  9
$SURFTYPE
 70
     6
  9
$SURFU
 70
     6
  9
$SURFV
 70
     6
  9
$UCSNAME
  2

  9
$UCSORG
 10
0.0
 20
0.0
 30
0.0
  9
$UCSXDIR
 10
1.0
 20
0.0
 30
0.0
  9
$UCSYDIR
 10
0.0
 20
1.0
 30
0.0
  9
$PUCSNAME
  2

  9
$PUCSORG
 10
0.0
 20
0.0
 30
0.0
  9
$PUCSXDIR
 10
1.0
 20
0.0
 30
0.0
  9
$PUCSYDIR
 10
0.0
 20
1.0
 30
0.0
  9
$USERI1
 70
     0
  9
$USERI2
 70
     0
  9
$USERI3
 70
     0
  9
$USERI4
 70
     0
  9
$USERI5
 70
     0
  9
$USERR1
 40
0.0
  9
$USERR2
 40
0.0
  9
$USERR3
 40
0.0
  9
$USERR4
 40
0.0
  9
$USERR5
 40
0.0
  9
$WORLDVIEW
 70
     1
  9
$SHADEDGE
 70
     3
  9
$SHADEDIF
 70
    70
  9
$TILEMODE
 70
     1
  9
$MAXACTVP
 70
    16
  9
$PINSBASE
 10
0.0
 20
0.0
 30
0.0
  9
$PLIMCHECK
 70
     0
  9
$PEXTMIN
 10
1.05
 20
0.8
 30
0.0
  9
$PEXTMAX
 10
9.45
 20
7.2
 30
0.0
  9
$PLIMMIN
 10
-0.25
 20
-0.25
  9
$PLIMMAX
 10
10.75
 20
8.25
  9
$UNITMODE
 70
     0
  9
$VISRETAIN
 70
     0
  9
$PLINEGEN
 70
     0
  9
$PSLTSCALE
 70
     1
  9
$TREEDEPTH
 70
  3020
  9
$PICKSTYLE
 70
     1
  9
$CMLSTYLE
  2
STANDARD
  9
$CMLJUST
 70
     0
  9
$CMLSCALE
 40
1.0
  9
$PROXYGRAPHICS
 70
     1
  9
$MEASUREMENT
 70
     0
  0
ENDSEC
  0
SECTION
  2
CLASSES
  0
CLASS
  1
DICTIONARYVAR
  2
AcDbDictionaryVar
  3
"AutoCAD"
 90
        0
280
     0
281
     0
  0
CLASS
  1
ACDBDICTIONARYWDFLT
  2
AcDbDictionaryWithDefault
  3
AutoCAD 2000
 90
        0
280
     0
281
     0
  0
CLASS
  1
ACDBPLACEHOLDER
  2
AcDbPlaceHolder
  3
AutoCAD 2000
 90
        0
280
     0
281
     0
  0
CLASS
  1
LAYOUT
  2
AcDbLayout
  3
AutoCAD 2000
 90
        0
280
     0
281
     0
  0
CLASS
  1
LONG_TRANSACTION
  2
AcDbLongTransaction
  3
AutoCAD 2000
 90
        0
280
     0
281
     0
  0
CLASS
  1
LWPOLYLINE
  2
AcDbPolyline
  3
"AutoCAD"
 90
        0
280
     0
281
     1
  0
CLASS
  1
HATCH
  2
AcDbHatch
  3
"ACAD_SEDONA"
 90
        0
280
     0
281
     1
  0
CLASS
  1
XRECORD
  2
AcDbXrecord
  3
"<Built In>"
 90
        0
280
     0
281
     0
  0
CLASS
  1
LONG_TRANSACTION
  2
AcDbLongTransaction
  3
AutoCAD 2000
 90
        0
280
     0
281
     0
  0
CLASS
  1
LWPOLYLINE
  2
AcDbPolyline
  3
"AutoCAD"
 90
        0
280
     0
281
     1
  0
CLASS
  1
HATCH
  2
AcDbHatch
  3
"ACAD_SEDONA"
 90
        0
280
     0
281
     1
  0
CLASS
  1
XRECORD
  2
AcDbXrecord
  3
"<Built In>"
 90
        0
280
     0
281
     0
  0
CLASS
  1
LONG_TRANSACTION
  2
AcDbLongTransaction
  3
AutoCAD 2000
 90
        0
280
     0
281
     0
  0
CLASS
  1
LWPOLYLINE
  2
AcDbPolyline
  3
"AutoCAD"
 90
        0
280
     0
281
     1
  0
CLASS
  1
HATCH
  2
AcDbHatch
  3
"ACAD_SEDONA"
 90
        0
280
     0
281
     1
  0
CLASS
  1
XRECORD
  2
AcDbXrecord
  3
"<Built In>"
 90
        0
280
     0
281
     0
  0
CLASS
  1
LONG_TRANSACTION
  2
AcDbLongTransaction
  3
AutoCAD 2000
 90
        0
280
     0
281
     0
  0
CLASS
  1
LWPOLYLINE
  2
AcDbPolyline
  3
"AutoCAD"
 90
        0
280
     0
281
     1
  0
CLASS
  1
HATCH
  2
AcDbHatch
  3
"ACAD_SEDONA"
 90
        0
280
     0
281
     1
  0
CLASS
  1
XRECORD
  2
AcDbXrecord
  3
"<Built In>"
 90
        0
280
     0
281
     0
  0
CLASS
  1
LONG_TRANSACTION
  2
AcDbLongTransaction
  3
AutoCAD 2000
 90
        0
280
     0
281
     0
  0
CLASS
  1
LWPOLYLINE
  2
AcDbPolyline
  3
"AutoCAD"
 90
        0
280
     0
281
     1
  0
CLASS
  1
HATCH
  2
AcDbHatch
  3
"ACAD_SEDONA"
 90
        0
280
     0
281
     1
  0
CLASS
  1
XRECORD
  2
AcDbXrecord
  3
"<Built In>"
 90
        0
280
     0
281
     0
  0
CLASS
  1
LONG_TRANSACTION
  2
AcDbLongTransaction
  3
AutoCAD 2000
 90
        0
280
     0
281
     0
  0
CLASS
  1
LWPOLYLINE
  2
AcDbPolyline
  3
"AutoCAD"
 90
        0
280
     0
281
     1
  0
CLASS
  1
HATCH
  2
AcDbHatch
  3
"ACAD_SEDONA"
 90
        0
280
     0
281
     1
  0
CLASS
  1
XRECORD
  2
AcDbXrecord
  3
"<Built In>"
 90
        0
280
     0
281
     0
  0
CLASS
  1
LONG_TRANSACTION
  2
AcDbLongTransaction
  3
AutoCAD 2000
 90
        0
280
     0
281
     0
  0
CLASS
  1
LWPOLYLINE
  2
AcDbPolyline
  3
"AutoCAD"
 90
        0
280
     0
281
     1
  0
CLASS
  1
HATCH
  2
AcDbHatch
  3
"ACAD_SEDONA"
 90
        0
280
     0
281
     1
  0
CLASS
  1
XRECORD
  2
AcDbXrecord
  3
"<Built In>"
 90
        0
280
     0
281
     0
  0
CLASS
  1
LONG_TRANSACTION
  2
AcDbLongTransaction
  3
AutoCAD 2000
 90
        0
280
     0
281
     0
  0
CLASS
  1
LWPOLYLINE
  2
AcDbPolyline
  3
"AutoCAD"
 90
        0
280
     0
281
     1
  0
CLASS
  1
HATCH
  2
AcDbHatch
  3
"ACAD_SEDONA"
 90
        0
280
     0
281
     1
  0
CLASS
  1
XRECORD
  2
AcDbXrecord
  3
"<Built In>"
 90
        0
280
     0
281
     0
  0
CLASS
  1
LONG_TRANSACTION
  2
AcDbLongTransaction
  3
AutoCAD 2000
 90
        0
280
     0
281
     0
  0
CLASS
  1
LWPOLYLINE
  2
AcDbPolyline
  3
"AutoCAD"
 90
        0
280
     0
281
     1
  0
CLASS
  1
HATCH
  2
AcDbHatch
  3
"ACAD_SEDONA"
 90
        0
280
     0
281
     1
  0
CLASS
  1
XRECORD
  2
AcDbXrecord
  3
"<Built In>"
 90
        0
280
     0
281
     0
  0
CLASS
  1
LONG_TRANSACTION
  2
AcDbLongTransaction
  3
AutoCAD 2000
 90
        0
280
     0
281
     0
  0
CLASS
  1
LWPOLYLINE
  2
AcDbPolyline
  3
"AutoCAD"
 90
        0
280
     0
281
     1
  0
CLASS
  1
HATCH
  2
AcDbHatch
  3
"ACAD_SEDONA"
 90
        0
280
     0
281
     1
  0
CLASS
  1
XRECORD
  2
AcDbXrecord
  3
"<Built In>"
 90
        0
280
     0
281
     0
  0
CLASS
  1
LONG_TRANSACTION
  2
AcDbLongTransaction
  3
AutoCAD 2000
 90
        0
280
     0
281
     0
  0
CLASS
  1
LWPOLYLINE
  2
AcDbPolyline
  3
"AutoCAD"
 90
        0
280
     0
281
     1
  0
CLASS
  1
HATCH
  2
AcDbHatch
  3
"ACAD_SEDONA"
 90
        0
280
     0
281
     1
  0
CLASS
  1
XRECORD
  2
AcDbXrecord
  3
"<Built In>"
 90
        0
280
     0
281
     0
  0
CLASS
  1
LONG_TRANSACTION
  2
AcDbLongTransaction
  3
AutoCAD 2000
 90
        0
280
     0
281
     0
  0
CLASS
  1
LWPOLYLINE
  2
AcDbPolyline
  3
"AutoCAD"
 90
        0
280
     0
281
     1
  0
CLASS
  1
HATCH
  2
AcDbHatch
  3
"ACAD_SEDONA"
 90
        0
280
     0
281
     1
  0
CLASS
  1
XRECORD
  2
AcDbXrecord
  3
"<Built In>"
 90
        0
280
     0
281
     0
  0
CLASS
  1
LONG_TRANSACTION
  2
AcDbLongTransaction
  3
AutoCAD 2000
 90
        0
280
     0
281
     0
  0
CLASS
  1
LWPOLYLINE
  2
AcDbPolyline
  3
"AutoCAD"
 90
        0
280
     0
281
     1
  0
CLASS
  1
HATCH
  2
AcDbHatch
  3
"ACAD_SEDONA"
 90
        0
280
     0
281
     1
  0
CLASS
  1
XRECORD
  2
AcDbXrecord
  3
"<Built In>"
 90
        0
280
     0
281
     0
  0
CLASS
  1
LONG_TRANSACTION
  2
AcDbLongTransaction
  3
AutoCAD 2000
 90
        0
280
     0
281
     0
  0
CLASS
  1
LWPOLYLINE
  2
AcDbPolyline
  3
"AutoCAD"
 90
        0
280
     0
281
     1
  0
CLASS
  1
HATCH
  2
AcDbHatch
  3
"ACAD_SEDONA"
 90
        0
280
     0
281
     1
  0
CLASS
  1
XRECORD
  2
AcDbXrecord
  3
"<Built In>"
 90
        0
280
     0
281
     0
  0
CLASS
  1
LONG_TRANSACTION
  2
AcDbLongTransaction
  3
AutoCAD 2000
 90
        0
280
     0
281
     0
  0
CLASS
  1
LWPOLYLINE
  2
AcDbPolyline
  3
"AutoCAD"
 90
        0
280
     0
281
     1
  0
CLASS
  1
HATCH
  2
AcDbHatch
  3
"ACAD_SEDONA"
 90
        0
280
     0
281
     1
  0
CLASS
  1
XRECORD
  2
AcDbXrecord
  3
"<Built In>"
 90
        0
280
     0
281
     0
  0
CLASS
  1
LONG_TRANSACTION
  2
AcDbLongTransaction
  3
AutoCAD 2000
 90
        0
280
     0
281
     0
  0
CLASS
  1
LWPOLYLINE
  2
AcDbPolyline
  3
"AutoCAD"
 90
        0
280
     0
281
     1
  0
CLASS
  1
HATCH
  2
AcDbHatch
  3
"ACAD_SEDONA"
 90
        0
280
     0
281
     1
  0
CLASS
  1
XRECORD
  2
AcDbXrecord
  3
"<Built In>"
 90
        0
280
     0
281
     0
  0
CLASS
  1
LONG_TRANSACTION
  2
AcDbLongTransaction
  3
AutoCAD 2000
 90
        0
280
     0
281
     0
  0
CLASS
  1
LWPOLYLINE
  2
AcDbPolyline
  3
"AutoCAD"
 90
        0
280
     0
281
     1
  0
CLASS
  1
HATCH
  2
AcDbHatch
  3
"ACAD_SEDONA"
 90
        0
280
     0
281
     1
  0
CLASS
  1
XRECORD
  2
AcDbXrecord
  3
"<Built In>"
 90
        0
280
     0
281
     0
  0
CLASS
  1
LONG_TRANSACTION
  2
AcDbLongTransaction
  3
AutoCAD 2000
 90
        0
280
     0
281
     0
  0
CLASS
  1
LWPOLYLINE
  2
AcDbPolyline
  3
"AutoCAD"
 90
        0
280
     0
281
     1
  0
CLASS
  1
HATCH
  2
AcDbHatch
  3
"ACAD_SEDONA"
 90
        0
280
     0
281
     1
  0
CLASS
  1
XRECORD
  2
AcDbXrecord
  3
"<Built In>"
 90
        0
280
     0
281
     0
  0
CLASS
  1
LONG_TRANSACTION
  2
AcDbLongTransaction
  3
AutoCAD 2000
 90
        0
280
     0
281
     0
  0
CLASS
  1
LWPOLYLINE
  2
AcDbPolyline
  3
"AutoCAD"
 90
        0
280
     0
281
     1
  0
CLASS
  1
HATCH
  2
AcDbHatch
  3
"ACAD_SEDONA"
 90
        0
280
     0
281
     1
  0
CLASS
  1
XRECORD
  2
AcDbXrecord
  3
"<Built In>"
 90
        0
280
     0
281
     0
  0
CLASS
  1
LONG_TRANSACTION
  2
AcDbLongTransaction
  3
AutoCAD 2000
 90
        0
280
     0
281
     0
  0
CLASS
  1
LWPOLYLINE
  2
AcDbPolyline
  3
"AutoCAD"
 90
        0
280
     0
281
     1
  0
CLASS
  1
HATCH
  2
AcDbHatch
  3
"ACAD_SEDONA"
 90
        0
280
     0
281
     1
  0
CLASS
  1
XRECORD
  2
AcDbXrecord
  3
"<Built In>"
 90
        0
280
     0
281
     0
  0
CLASS
  1
LONG_TRANSACTION
  2
AcDbLongTransaction
  3
AutoCAD 2000
 90
        0
280
     0
281
     0
  0
CLASS
  1
LWPOLYLINE
  2
AcDbPolyline
  3
"AutoCAD"
 90
        0
280
     0
281
     1
  0
CLASS
  1
HATCH
  2
AcDbHatch
  3
"ACAD_SEDONA"
 90
        0
280
     0
281
     1
  0
CLASS
  1
XRECORD
  2
AcDbXrecord
  3
"<Built In>"
 90
        0
280
     0
281
     0
  0
CLASS
  1
LONG_TRANSACTION
  2
AcDbLongTransaction
  3
AutoCAD 2000
 90
        0
280
     0
281
     0
  0
CLASS
  1
LWPOLYLINE
  2
AcDbPolyline
  3
"AutoCAD"
 90
        0
280
     0
281
     1
  0
CLASS
  1
HATCH
  2
AcDbHatch
  3
"ACAD_SEDONA"
 90
        0
280
     0
281
     1
  0
CLASS
  1
XRECORD
  2
AcDbXrecord
  3
"<Built In>"
 90
        0
280
     0
281
     0
  0
CLASS
  1
LONG_TRANSACTION
  2
AcDbLongTransaction
  3
AutoCAD 2000
 90
        0
280
     0
281
     0
  0
CLASS
  1
LWPOLYLINE
  2
AcDbPolyline
  3
"AutoCAD"
 90
        0
280
     0
281
     1
  0
CLASS
  1
HATCH
  2
AcDbHatch
  3
"ACAD_SEDONA"
 90
        0
280
     0
281
     1
  0
CLASS
  1
XRECORD
  2
AcDbXrecord
  3
"<Built In>"
 90
        0
280
     0
281
     0
  0
CLASS
  1
LONG_TRANSACTION
  2
AcDbLongTransaction
  3
AutoCAD 2000
 90
        0
280
     0
281
     0
  0
CLASS
  1
LWPOLYLINE
  2
AcDbPolyline
  3
"AutoCAD"
 90
        0
280
     0
281
     1
  0
CLASS
  1
HATCH
  2
AcDbHatch
  3
"ACAD_SEDONA"
 90
        0
280
     0
281
     1
  0
CLASS
  1
XRECORD
  2
AcDbXrecord
  3
"<Built In>"
 90
        0
280
     0
281
     0
  0
CLASS
  1
LONG_TRANSACTION
  2
AcDbLongTransaction
  3
AutoCAD 2000
 90
        0
280
     0
281
     0
  0
CLASS
  1
LWPOLYLINE
  2
AcDbPolyline
  3
"AutoCAD"
 90
        0
280
     0
281
     1
  0
CLASS
  1
HATCH
  2
AcDbHatch
  3
"ACAD_SEDONA"
 90
        0
280
     0
281
     1
  0
CLASS
  1
XRECORD
  2
AcDbXrecord
  3
"<Built In>"
 90
        0
280
     0
281
     0
  0
CLASS
  1
LONG_TRANSACTION
  2
AcDbLongTransaction
  3
AutoCAD 2000
 90
        0
280
     0
281
     0
  0
CLASS
  1
LWPOLYLINE
  2
AcDbPolyline
  3
"AutoCAD"
 90
        0
280
     0
281
     1
  0
CLASS
  1
HATCH
  2
AcDbHatch
  3
"ACAD_SEDONA"
 90
        0
280
     0
281
     1
  0
CLASS
  1
XRECORD
  2
AcDbXrecord
  3
"<Built In>"
 90
        0
280
     0
281
     0
  0
CLASS
  1
LONG_TRANSACTION
  2
AcDbLongTransaction
  3
AutoCAD 2000
 90
        0
280
     0
281
     0
  0
CLASS
  1
LWPOLYLINE
  2
AcDbPolyline
  3
"AutoCAD"
 90
        0
280
     0
281
     1
  0
CLASS
  1
HATCH
  2
AcDbHatch
  3
"ACAD_SEDONA"
 90
        0
280
     0
281
     1
  0
CLASS
  1
XRECORD
  2
AcDbXrecord
  3
"<Built In>"
 90
        0
280
     0
281
     0
  0
CLASS
  1
LONG_TRANSACTION
  2
AcDbLongTransaction
  3
AutoCAD 2000
 90
        0
280
     0
281
     0
  0
CLASS
  1
LWPOLYLINE
  2
AcDbPolyline
  3
"AutoCAD"
 90
        0
280
     0
281
     1
  0
CLASS
  1
HATCH
  2
AcDbHatch
  3
"ACAD_SEDONA"
 90
        0
280
     0
281
     1
  0
CLASS
  1
XRECORD
  2
AcDbXrecord
  3
"<Built In>"
 90
        0
280
     0
281
     0
  0
CLASS
  1
LONG_TRANSACTION
  2
AcDbLongTransaction
  3
AutoCAD 2000
 90
        0
280
     0
281
     0
  0
CLASS
  1
LWPOLYLINE
  2
AcDbPolyline
  3
"AutoCAD"
 90
        0
280
     0
281
     1
  0
CLASS
  1
HATCH
  2
AcDbHatch
  3
"ACAD_SEDONA"
 90
        0
280
     0
281
     1
  0
CLASS
  1
XRECORD
  2
AcDbXrecord
  3
"<Built In>"
 90
        0
280
     0
281
     0
  0
CLASS
  1
LONG_TRANSACTION
  2
AcDbLongTransaction
  3
AutoCAD 2000
 90
        0
280
     0
281
     0
  0
CLASS
  1
LWPOLYLINE
  2
AcDbPolyline
  3
"AutoCAD"
 90
        0
280
     0
281
     1
  0
CLASS
  1
HATCH
  2
AcDbHatch
  3
"ACAD_SEDONA"
 90
        0
280
     0
281
     1
  0
CLASS
  1
XRECORD
  2
AcDbXrecord
  3
"<Built In>"
 90
        0
280
     0
281
     0
  0
CLASS
  1
LONG_TRANSACTION
  2
AcDbLongTransaction
  3
AutoCAD 2000
 90
        0
280
     0
281
     0
  0
CLASS
  1
LWPOLYLINE
  2
AcDbPolyline
  3
"AutoCAD"
 90
        0
280
     0
281
     1
  0
CLASS
  1
HATCH
  2
AcDbHatch
  3
"ACAD_SEDONA"
 90
        0
280
     0
281
     1
  0
CLASS
  1
XRECORD
  2
AcDbXrecord
  3
"<Built In>"
 90
        0
280
     0
281
     0
  0
CLASS
  1
LONG_TRANSACTION
  2
AcDbLongTransaction
  3
AutoCAD 2000
 90
        0
280
     0
281
     0
  0
CLASS
  1
LWPOLYLINE
  2
AcDbPolyline
  3
"AutoCAD"
 90
        0
280
     0
281
     1
  0
CLASS
  1
HATCH
  2
AcDbHatch
  3
"ACAD_SEDONA"
 90
        0
280
     0
281
     1
  0
CLASS
  1
XRECORD
  2
AcDbXrecord
  3
"<Built In>"
 90
        0
280
     0
281
     0
  0
CLASS
  1
LONG_TRANSACTION
  2
AcDbLongTransaction
  3
AutoCAD 2000
 90
        0
280
     0
281
     0
  0
CLASS
  1
LWPOLYLINE
  2
AcDbPolyline
  3
"AutoCAD"
 90
        0
280
     0
281
     1
  0
CLASS
  1
HATCH
  2
AcDbHatch
  3
"ACAD_SEDONA"
 90
        0
280
     0
281
     1
  0
CLASS
  1
XRECORD
  2
AcDbXrecord
  3
"<Built In>"
 90
        0
280
     0
281
     0
  0
CLASS
  1
LONG_TRANSACTION
  2
AcDbLongTransaction
  3
AutoCAD 2000
 90
        0
280
     0
281
     0
  0
CLASS
  1
LWPOLYLINE
  2
AcDbPolyline
  3
"AutoCAD"
 90
        0
280
     0
281
     1
  0
CLASS
  1
HATCH
  2
AcDbHatch
  3
"ACAD_SEDONA"
 90
        0
280
     0
281
     1
  0
CLASS
  1
XRECORD
  2
AcDbXrecord
  3
"<Built In>"
 90
        0
280
     0
281
     0
  0
CLASS
  1
LONG_TRANSACTION
  2
AcDbLongTransaction
  3
AutoCAD 2000
 90
        0
280
     0
281
     0
  0
CLASS
  1
LWPOLYLINE
  2
AcDbPolyline
  3
"AutoCAD"
 90
        0
280
     0
281
     1
  0
CLASS
  1
HATCH
  2
AcDbHatch
  3
"ACAD_SEDONA"
 90
        0
280
     0
281
     1
  0
CLASS
  1
XRECORD
  2
AcDbXrecord
  3
"<Built In>"
 90
        0
280
     0
281
     0
  0
CLASS
  1
LONG_TRANSACTION
  2
AcDbLongTransaction
  3
AutoCAD 2000
 90
        0
280
     0
281
     0
  0
CLASS
  1
LWPOLYLINE
  2
AcDbPolyline
  3
"AutoCAD"
 90
        0
280
     0
281
     1
  0
CLASS
  1
HATCH
  2
AcDbHatch
  3
"ACAD_SEDONA"
 90
        0
280
     0
281
     1
  0
CLASS
  1
XRECORD
  2
AcDbXrecord
  3
"<Built In>"
 90
        0
280
     0
281
     0
  0
CLASS
  1
LONG_TRANSACTION
  2
AcDbLongTransaction
  3
AutoCAD 2000
 90
        0
280
     0
281
     0
  0
CLASS
  1
LWPOLYLINE
  2
AcDbPolyline
  3
"AutoCAD"
 90
        0
280
     0
281
     1
  0
CLASS
  1
HATCH
  2
AcDbHatch
  3
"ACAD_SEDONA"
 90
        0
280
     0
281
     1
  0
CLASS
  1
XRECORD
  2
AcDbXrecord
  3
"<Built In>"
 90
        0
280
     0
281
     0
  0
CLASS
  1
LONG_TRANSACTION
  2
AcDbLongTransaction
  3
AutoCAD 2000
 90
        0
280
     0
281
     0
  0
CLASS
  1
LWPOLYLINE
  2
AcDbPolyline
  3
"AutoCAD"
 90
        0
280
     0
281
     1
  0
CLASS
  1
HATCH
  2
AcDbHatch
  3
"ACAD_SEDONA"
 90
        0
280
     0
281
     1
  0
CLASS
  1
XRECORD
  2
AcDbXrecord
  3
"<Built In>"
 90
        0
280
     0
281
     0
  0
CLASS
  1
LONG_TRANSACTION
  2
AcDbLongTransaction
  3
AutoCAD 2000
 90
        0
280
     0
281
     0
  0
CLASS
  1
LWPOLYLINE
  2
AcDbPolyline
  3
"AutoCAD"
 90
        0
280
     0
281
     1
  0
CLASS
  1
HATCH
  2
AcDbHatch
  3
"ACAD_SEDONA"
 90
        0
280
     0
281
     1
  0
CLASS
  1
XRECORD
  2
AcDbXrecord
  3
"<Built In>"
 90
        0
280
     0
281
     0
  0
CLASS
  1
LONG_TRANSACTION
  2
AcDbLongTransaction
  3
AutoCAD 2000
 90
        0
280
     0
281
     0
  0
CLASS
  1
LWPOLYLINE
  2
AcDbPolyline
  3
"AutoCAD"
 90
        0
280
     0
281
     1
  0
CLASS
  1
HATCH
  2
AcDbHatch
  3
"ACAD_SEDONA"
 90
        0
280
     0
281
     1
  0
CLASS
  1
XRECORD
  2
AcDbXrecord
  3
"<Built In>"
 90
        0
280
     0
281
     0
  0
CLASS
  1
LONG_TRANSACTION
  2
AcDbLongTransaction
  3
AutoCAD 2000
 90
        0
280
     0
281
     0
  0
CLASS
  1
LWPOLYLINE
  2
AcDbPolyline
  3
"AutoCAD"
 90
        0
280
     0
281
     1
  0
CLASS
  1
HATCH
  2
AcDbHatch
  3
"ACAD_SEDONA"
 90
        0
280
     0
281
     1
  0
CLASS
  1
XRECORD
  2
AcDbXrecord
  3
"<Built In>"
 90
        0
280
     0
281
     0
  0
CLASS
  1
LONG_TRANSACTION
  2
AcDbLongTransaction
  3
AutoCAD 2000
 90
        0
280
     0
281
     0
  0
CLASS
  1
LWPOLYLINE
  2
AcDbPolyline
  3
"AutoCAD"
 90
        0
280
     0
281
     1
  0
CLASS
  1
HATCH
  2
AcDbHatch
  3
"ACAD_SEDONA"
 90
        0
280
     0
281
     1
  0
CLASS
  1
XRECORD
  2
AcDbXrecord
  3
"<Built In>"
 90
        0
280
     0
281
     0
  0
CLASS
  1
LONG_TRANSACTION
  2
AcDbLongTransaction
  3
AutoCAD 2000
 90
        0
280
     0
281
     0
  0
CLASS
  1
LWPOLYLINE
  2
AcDbPolyline
  3
"AutoCAD"
 90
        0
280
     0
281
     1
  0
CLASS
  1
HATCH
  2
AcDbHatch
  3
"ACAD_SEDONA"
 90
        0
280
     0
281
     1
  0
CLASS
  1
XRECORD
  2
AcDbXrecord
  3
"<Built In>"
 90
        0
280
     0
281
     0
  0
CLASS
  1
LONG_TRANSACTION
  2
AcDbLongTransaction
  3
AutoCAD 2000
 90
        0
280
     0
281
     0
  0
CLASS
  1
LWPOLYLINE
  2
AcDbPolyline
  3
"AutoCAD"
 90
        0
280
     0
281
     1
  0
CLASS
  1
HATCH
  2
AcDbHatch
  3
"ACAD_SEDONA"
 90
        0
280
     0
281
     1
  0
CLASS
  1
XRECORD
  2
AcDbXrecord
  3
"<Built In>"
 90
        0
280
     0
281
     0
  0
ENDSEC
  0
SECTION
  2
TABLES
  0
TABLE
  2
VPORT
  5
458C7
100
AcDbSymbolTable
 70
     1
  0
VPORT
  5
A8E23
102
{ACAD_XDICTIONARY
360
A8E26
102
}
100
AcDbSymbolTableRecord
100
AcDbViewportTableRecord
  2
*ACTIVE
 70
     0
 10
0.0
 20
0.0
 11
1.0
 21
1.0
 12
1.143337
 22
1.130645
 13
0.0
 23
0.0
 14
0.25
 24
0.25
 15
0.25
 25
0.25
 16
0.0
 26
0.0
 36
1.0
 17
-1.002245
 27
-0.908856
 37
0.745855
 40
2.214741
 41
1.829897
 42
50.0
 43
0.0
 44
0.0
 50
0.0
 51
0.0
 71
     0
 72
 20000
 73
     1
 74
     1
 75
     0
 76
     0
 77
     0
 78
     0
  0
ENDTAB
  0
TABLE
  2
LTYPE
  5
458C4
100
AcDbSymbolTable
 70
     1
  0
LTYPE
  5
458D0
100
AcDbSymbolTableRecord
100
AcDbLinetypeTableRecord
  2
BYBLOCK
 70
     0
  3

 72
    65
 73
     0
 40
0.0
  0
LTYPE
  5
458D1
100
AcDbSymbolTableRecord
100
AcDbLinetypeTableRecord
  2
BYLAYER
 70
     0
  3

 72
    65
 73
     0
 40
0.0
  0
LTYPE
  5
458D2
100
AcDbSymbolTableRecord
100
AcDbLinetypeTableRecord
  2
CONTINUOUS
 70
     0
  3
Solid line
 72
    65
 73
     0
 40
0.0
  0
ENDTAB
  0
TABLE
  2
LAYER
  5
458C1
100
AcDbSymbolTable
 70
     7
  0
LAYER
  5
458CD
100
AcDbSymbolTableRecord
100
AcDbLayerTableRecord
  2
0
 70
     0
 62
     7
  6
CONTINUOUS
  0
LAYER
  5
458EA
100
AcDbSymbolTableRecord
100
AcDbLayerTableRecord
  2
DIMS-MTG-HOLES
 70
     0
 62
     1
  6
CONTINUOUS
  0
LAYER
  5
458EB
100
AcDbSymbolTableRecord
100
AcDbLayerTableRecord
  2
ATTRIBUTES
 70
     0
 62
     7
  6
CONTINUOUS
  0
LAYER
  5
4593B
102
{ACAD_XDICTIONARY
360
A8E4F
102
}
100
AcDbSymbolTableRecord
100
AcDbLayerTableRecord
  2
AREA1
 70
     0
 62
    -7
  6
CONTINUOUS
  0
LAYER
  5
45940
102
{ACAD_XDICTIONARY
360
A8E24
102
}
100
AcDbSymbolTableRecord
100
AcDbLayerTableRecord
  2
DEFPOINTS
 70
     0
 62
    -7
  6
CONTINUOUS
  0
LAYER
  5
45954
100
AcDbSymbolTableRecord
100
AcDbLayerTableRecord
  2
SCALE
 70
     0
 62
    -7
  6
CONTINUOUS
  0
LAYER
  5
4D59A
100
AcDbSymbolTableRecord
100
AcDbLayerTableRecord
  2
SNAP_POINTS
 70
     0
 62
    -1
  6
CONTINUOUS
  0
ENDTAB
  0
TABLE
  2
STYLE
  5
458C2
100
AcDbSymbolTable
 70
     1
  0
STYLE
  5
458CE
100
AcDbSymbolTableRecord
100
AcDbTextStyleTableRecord
  2
STANDARD
 70
     0
 40
0.0
 41
1.0
 50
0.0
 71
     0
 42
0.12
  3
txt
  4

  0
ENDTAB
  0
TABLE
  2
VIEW
  5
458C5
100
AcDbSymbolTable
 70
     0
  0
ENDTAB
  0
TABLE
  2
UCS
  5
458C6
100
AcDbSymbolTable
 70
     0
  0
ENDTAB
  0
TABLE
  2
APPID
  5
458C8
100
AcDbSymbolTable
 70
     2
  0
APPID
  5
458CF
100
AcDbSymbolTableRecord
100
AcDbRegAppTableRecord
  2
ACAD
 70
     0
  0
APPID
  5
5FD5B
100
AcDbSymbolTableRecord
100
AcDbRegAppTableRecord
  2
AVE_RENDER
 70
     0
  0
ENDTAB
  0
TABLE
  2
DIMSTYLE
  5
458C9
100
AcDbSymbolTable
 70
     1
  0
DIMSTYLE
105
458F6
102
{ACAD_XDICTIONARY
360
A8E4B
102
}
102
{ACAD_REACTORS
330
A8D46
330
A8D54
102
}
100
AcDbSymbolTableRecord
100
AcDbDimStyleTableRecord
  2
ABECAD_3D
 70
     0
  3

  4

  5

  6

  7

 40
1.0
 41
0.1
 42
0.1
 43
0.375
 44
0.1
 45
0.0
 46
0.0
 47
0.0
 48
0.0
140
0.1
141
0.09
142
0.0
143
25.4
144
1.0
145
0.0
146
1.5
147
0.09
 71
     0
 72
     0
 73
     0
 74
     1
 75
     0
 76
     0
 77
     0
 78
     4
170
     1
171
     2
172
     0
173
     0
174
     0
175
     0
176
     0
177
     0
178
     0
270
     7
271
     6
272
     6
273
     2
274
     2
340
458CE
275
     0
280
     0
281
     0
282
     0
283
     1
284
     4
285
     4
286
     4
287
     5
288
     1
  0
ENDTAB
  0
TABLE
  2
BLOCK_RECORD
  5
458C0
100
AcDbSymbolTable
 70
     2
  0
BLOCK_RECORD
  5
458D6
102
{ACAD_XDICTIONARY
360
4592C
102
}
100
AcDbSymbolTableRecord
100
AcDbBlockTableRecord
  2
*MODEL_SPACE
  0
BLOCK_RECORD
  5
458D3
102
{ACAD_XDICTIONARY
360
4592A
102
}
100
AcDbSymbolTableRecord
100
AcDbBlockTableRecord
  2
*PAPER_SPACE
  0
BLOCK_RECORD
  5
A8D47
100
AcDbSymbolTableRecord
100
AcDbBlockTableRecord
  2
*D0
  0
BLOCK_RECORD
  5
A8D55
100
AcDbSymbolTableRecord
100
AcDbBlockTableRecord
  2
*D1
  0
ENDTAB
  0
ENDSEC
  0
SECTION
  2
BLOCKS
  0
BLOCK
  5
458DF
100
AcDbEntity
  8
0
100
AcDbBlockBegin
  2
*MODEL_SPACE
 70
     0
 10
0.0
 20
0.0
 30
0.0
  3
*MODEL_SPACE
  1

  0
ENDBLK
  5
458E0
100
AcDbEntity
  8
0
100
AcDbBlockEnd
  0
BLOCK
  5
458DD
100
AcDbEntity
 67
     1
  8
0
100
AcDbBlockBegin
  2
*PAPER_SPACE
 70
     0
 10
0.0
 20
0.0
 30
0.0
  3
*PAPER_SPACE
  1

  0
ENDBLK
  5
458DE
100
AcDbEntity
 67
     1
  8
0
100
AcDbBlockEnd
  0
BLOCK
  5
A8D52
100
AcDbEntity
  8
0
100
AcDbBlockBegin
  2
*D0
 70
     1
 10
0.0
 20
0.0
 30
0.0
  3
*D0
  1

  0
LINE
  5
A8D48
100
AcDbEntity
  8
AREA1
 62
     0
100
AcDbLine
 10
-0.986
 20
-0.874
 30
0.0
 11
-1.273195
 21
-0.874
 31
0.0
1001
ACAD
1000
RTLwPs
1070
   158
  0
LINE
  5
A8D49
100
AcDbEntity
  8
AREA1
 62
     0
100
AcDbLine
 10
-0.986
 20
0.874
 30
0.0
 11
-1.273195
 21
0.874
 31
0.0
1001
ACAD
1000
RTLwPs
1070
   158
  0
LINE
  5
A8D4A
100
AcDbEntity
  8
AREA1
 62
     0
100
AcDbLine
 10
-1.173195
 20
-0.774
 30
0.0
 11
-1.173195
 21
-0.64791
 31
0.0
1001
ACAD
1000
RTLwPs
1070
   158
  0
LINE
  5
A8D4B
100
AcDbEntity
  8
AREA1
 62
     0
100
AcDbLine
 10
-1.173195
 20
0.774
 30
0.0
 11
-1.173195
 21
0.615423
 31
0.0
1001
ACAD
1000
RTLwPs
1070
   158
  0
MTEXT
  5
A8D4C
100
AcDbEntity
  8
AREA1
 62
     0
100
AcDbMText
 10
-1.173195
 20
-0.016244
 30
0.0
 40
0.1
 41
0.0
 71
     5
 72
     1
  1
\A1;1 3/4 [44.40]
 11
0.0
 21
1.0
 31
0.0
1001
ACAD
1000
MTEXTBEGIN
1070
    73
1070
     1
1070
    44
1040
1.0
1070
    74
1070
     0
1000
MTEXTEND
1000
MTEXTBEGIN
1070
    73
1070
     1
1070
    44
1040
1.0
1070
    74
1070
     0
1000
MTEXTEND
1000
MTEXTBEGIN
1070
    73
1070
     1
1070
    44
1040
1.0
1070
    74
1070
     0
1000
MTEXTEND
1000
MTEXTBEGIN
1070
    73
1070
     1
1070
    44
1040
1.0
1070
    74
1070
     0
1000
MTEXTEND
  0
SOLID
  5
A8D4D
100
AcDbEntity
  8
AREA1
 62
     0
100
AcDbTrace
 10
-1.189862
 20
-0.774
 30
0.0
 11
-1.156528
 21
-0.774
 31
0.0
 12
-1.173195
 22
-0.874
 32
0.0
 13
-1.173195
 23
-0.874
 33
0.0
  0
SOLID
  5
A8D4E
100
AcDbEntity
  8
AREA1
 62
     0
100
AcDbTrace
 10
-1.189862
 20
0.774
 30
0.0
 11
-1.156528
 21
0.774
 31
0.0
 12
-1.173195
 22
0.874
 32
0.0
 13
-1.173195
 23
0.874
 33
0.0
  0
POINT
  5
A8D4F
100
AcDbEntity
  8
DEFPOINTS
 62
     0
100
AcDbPoint
 10
-0.886
 20
-0.874
 30
0.0
  0
POINT
  5
A8D50
100
AcDbEntity
  8
DEFPOINTS
 62
     0
100
AcDbPoint
 10
-0.886
 20
0.874
 30
0.0
  0
POINT
  5
A8D51
100
AcDbEntity
  8
DEFPOINTS
 62
     0
100
AcDbPoint
 10
-1.173195
 20
0.874
 30
0.0
  0
ENDBLK
  5
A8D53
100
AcDbEntity
  8
0
100
AcDbBlockEnd
  0
BLOCK
  5
A8D5F
100
AcDbEntity
  8
0
100
AcDbBlockBegin
  2
*D1
 70
     1
 10
0.0
 20
0.0
 30
0.0
  3
*D1
  1

  0
LINE
  5
A8D61
100
AcDbEntity
  8
AREA1
 62
     0
100
AcDbLine
 10
-0.886
 20
0.974
 30
0.0
 11
-0.886
 21
1.180827
 31
0.0
1001
ACAD
1000
RTLwPs
1070
   158
  0
LINE
  5
A8D62
100
AcDbEntity
  8
AREA1
 62
     0
100
AcDbLine
 10
0.232
 20
0.579
 30
0.0
 11
0.232
 21
1.180827
 31
0.0
1001
ACAD
1000
RTLwPs
1070
   158
  0
LINE
  5
A8D63
100
AcDbEntity
  8
AREA1
 62
     0
100
AcDbLine
 10
-0.786
 20
1.080827
 30
0.0
 11
0.132
 21
1.080827
 31
0.0
1001
ACAD
1000
RTLwPs
1070
   158
  0
MTEXT
  5
A8D64
100
AcDbEntity
  8
AREA1
 62
     0
100
AcDbMText
 10
-0.3233
 20
1.267735
 30
0.0
 40
0.1
 41
0.0
 71
     5
 72
     1
  1
\A1;1 1/8 [28.40]
1001
ACAD
1000
MTEXTBEGIN
1070
    73
1070
     1
1070
    44
1040
1.0
1070
    74
1070
     0
1000
MTEXTEND
1000
MTEXTBEGIN
1070
    73
1070
     1
1070
    44
1040
1.0
1070
    74
1070
     0
1000
MTEXTEND
1000
MTEXTBEGIN
1070
    73
1070
     1
1070
    44
1040
1.0
1070
    74
1070
     0
1000
MTEXTEND
1000
MTEXTBEGIN
1070
    73
1070
     1
1070
    44
1040
1.0
1070
    74
1070
     0
1000
MTEXTEND
  0
SOLID
  5
A8D65
100
AcDbEntity
  8
AREA1
 62
     0
100
AcDbTrace
 10
-0.786
 20
1.097493
 30
0.0
 11
-0.786
 21
1.06416
 31
0.0
 12
-0.886
 22
1.080827
 32
0.0
 13
-0.886
 23
1.080827
 33
0.0
  0
SOLID
  5
A8D66
100
AcDbEntity
  8
AREA1
 62
     0
100
AcDbTrace
 10
0.132
 20
1.097493
 30
0.0
 11
0.132
 21
1.06416
 31
0.0
 12
0.232
 22
1.080827
 32
0.0
 13
0.232
 23
1.080827
 33
0.0
  0
POINT
  5
A8D67
100
AcDbEntity
  8
DEFPOINTS
 62
     0
100
AcDbPoint
 10
-0.886
 20
0.874
 30
0.0
  0
POINT
  5
A8D68
100
AcDbEntity
  8
DEFPOINTS
 62
     0
100
AcDbPoint
 10
0.232
 20
0.479
 30
-1.703
  0
POINT
  5
A8D69
100
AcDbEntity
  8
DEFPOINTS
 62
     0
100
AcDbPoint
 10
0.232
 20
1.080827
 30
0.0
  0
ENDBLK
  5
A8D60
100
AcDbEntity
  8
0
100
AcDbBlockEnd
  0
ENDSEC
  0
SECTION
  2
ENTITIES
  0
POLYLINE
  5
A8BEB
100
AcDbEntity
  8
0
100
AcDbPolygonMesh
 66
     1
 10
0.0
 20
0.0
 30
0.0
 70
    16
 71
     6
 72
     3
  0
VERTEX
  5
A8BEC
100
AcDbEntity
  8
0
100
AcDbVertex
100
AcDbPolygonMeshVertex
 10
-0.441
 20
-0.8155
 30
0.0
 70
    64
  0
VERTEX
  5
A8BED
100
AcDbEntity
  8
0
100
AcDbVertex
100
AcDbPolygonMeshVertex
 10
-0.441
 20
-0.8155
 30
-1.983
 70
    64
  0
VERTEX
  5
A8BEE
100
AcDbEntity
  8
0
100
AcDbVertex
100
AcDbPolygonMeshVertex
 10
-0.441
 20
-0.8155
 30
-1.983
 70
    64
  0
VERTEX
  5
A8BEF
100
AcDbEntity
  8
0
100
AcDbVertex
100
AcDbPolygonMeshVertex
 10
-0.441
 20
0.8155
 30
0.0
 70
    64
  0
VERTEX
  5
A8BF0
100
AcDbEntity
  8
0
100
AcDbVertex
100
AcDbPolygonMeshVertex
 10
-0.441
 20
0.8155
 30
-1.983
 70
    64
  0
VERTEX
  5
A8BF1
100
AcDbEntity
  8
0
100
AcDbVertex
100
AcDbPolygonMeshVertex
 10
-0.441
 20
0.8155
 30
-1.983
 70
    64
  0
VERTEX
  5
A8BF2
100
AcDbEntity
  8
0
100
AcDbVertex
100
AcDbPolygonMeshVertex
 10
0.0
 20
0.8155
 30
0.0
 70
    64
  0
VERTEX
  5
A8BF3
100
AcDbEntity
  8
0
100
AcDbVertex
100
AcDbPolygonMeshVertex
 10
0.0
 20
0.8155
 30
-1.983
 70
    64
  0
VERTEX
  5
A8BF4
100
AcDbEntity
  8
0
100
AcDbVertex
100
AcDbPolygonMeshVertex
 10
-0.441
 20
0.8155
 30
-1.983
 70
    64
  0
VERTEX
  5
A8BF5
100
AcDbEntity
  8
0
100
AcDbVertex
100
AcDbPolygonMeshVertex
 10
0.0
 20
-0.8155
 30
0.0
 70
    64
  0
VERTEX
  5
A8BF6
100
AcDbEntity
  8
0
100
AcDbVertex
100
AcDbPolygonMeshVertex
 10
0.0
 20
-0.8155
 30
-1.983
 70
    64
  0
VERTEX
  5
A8BF7
100
AcDbEntity
  8
0
100
AcDbVertex
100
AcDbPolygonMeshVertex
 10
-0.441
 20
-0.8155
 30
-1.983
 70
    64
  0
VERTEX
  5
A8BF8
100
AcDbEntity
  8
0
100
AcDbVertex
100
AcDbPolygonMeshVertex
 10
0.0
 20
-0.8155
 30
0.0
 70
    64
  0
VERTEX
  5
A8BF9
100
AcDbEntity
  8
0
100
AcDbVertex
100
AcDbPolygonMeshVertex
 10
0.0
 20
-0.8155
 30
0.0
 70
    64
  0
VERTEX
  5
A8BFA
100
AcDbEntity
  8
0
100
AcDbVertex
100
AcDbPolygonMeshVertex
 10
-0.441
 20
-0.8155
 30
0.0
 70
    64
  0
VERTEX
  5
A8BFB
100
AcDbEntity
  8
0
100
AcDbVertex
100
AcDbPolygonMeshVertex
 10
0.0
 20
0.8155
 30
0.0
 70
    64
  0
VERTEX
  5
A8BFC
100
AcDbEntity
  8
0
100
AcDbVertex
100
AcDbPolygonMeshVertex
 10
0.0
 20
0.8155
 30
0.0
 70
    64
  0
VERTEX
  5
A8BFD
100
AcDbEntity
  8
0
100
AcDbVertex
100
AcDbPolygonMeshVertex
 10
-0.441
 20
0.8155
 30
0.0
 70
    64
  0
SEQEND
  5
A8BFE
100
AcDbEntity
  8
0
  0
POLYLINE
  5
A8BFF
100
AcDbEntity
  8
0
100
AcDbPolygonMesh
 66
     1
 10
0.0
 20
0.0
 30
0.0
 70
    16
 71
     6
 72
     3
  0
VERTEX
  5
A8C00
100
AcDbEntity
  8
0
100
AcDbVertex
100
AcDbPolygonMeshVertex
 10
-0.886
 20
0.788
 30
0.0
 70
    64
  0
VERTEX
  5
A8C01
100
AcDbEntity
  8
0
100
AcDbVertex
100
AcDbPolygonMeshVertex
 10
-0.886
 20
0.788
 30
-1.983
 70
    64
  0
VERTEX
  5
A8C02
100
AcDbEntity
  8
0
100
AcDbVertex
100
AcDbPolygonMeshVertex
 10
-0.886
 20
0.788
 30
-1.983
 70
    64
  0
VERTEX
  5
A8C03
100
AcDbEntity
  8
0
100
AcDbVertex
100
AcDbPolygonMeshVertex
 10
-0.886
 20
0.874
 30
0.0
 70
    64
  0
VERTEX
  5
A8C04
100
AcDbEntity
  8
0
100
AcDbVertex
100
AcDbPolygonMeshVertex
 10
-0.886
 20
0.874
 30
-1.983
 70
    64
  0
VERTEX
  5
A8C05
100
AcDbEntity
  8
0
100
AcDbVertex
100
AcDbPolygonMeshVertex
 10
-0.886
 20
0.874
 30
-1.983
 70
    64
  0
VERTEX
  5
A8C06
100
AcDbEntity
  8
0
100
AcDbVertex
100
AcDbPolygonMeshVertex
 10
-0.441
 20
0.874
 30
0.0
 70
    64
  0
VERTEX
  5
A8C07
100
AcDbEntity
  8
0
100
AcDbVertex
100
AcDbPolygonMeshVertex
 10
-0.441
 20
0.874
 30
-1.983
 70
    64
  0
VERTEX
  5
A8C08
100
AcDbEntity
  8
0
100
AcDbVertex
100
AcDbPolygonMeshVertex
 10
-0.886
 20
0.874
 30
-1.983
 70
    64
  0
VERTEX
  5
A8C09
100
AcDbEntity
  8
0
100
AcDbVertex
100
AcDbPolygonMeshVertex
 10
-0.441
 20
0.788
 30
0.0
 70
    64
  0
VERTEX
  5
A8C0A
100
AcDbEntity
  8
0
100
AcDbVertex
100
AcDbPolygonMeshVertex
 10
-0.441
 20
0.788
 30
-1.983
 70
    64
  0
VERTEX
  5
A8C0B
100
AcDbEntity
  8
0
100
AcDbVertex
100
AcDbPolygonMeshVertex
 10
-0.886
 20
0.788
 30
-1.983
 70
    64
  0
VERTEX
  5
A8C0C
100
AcDbEntity
  8
0
100
AcDbVertex
100
AcDbPolygonMeshVertex
 10
-0.441
 20
0.788
 30
0.0
 70
    64
  0
VERTEX
  5
A8C0D
100
AcDbEntity
  8
0
100
AcDbVertex
100
AcDbPolygonMeshVertex
 10
-0.441
 20
0.788
 30
0.0
 70
    64
  0
VERTEX
  5
A8C0E
100
AcDbEntity
  8
0
100
AcDbVertex
100
AcDbPolygonMeshVertex
 10
-0.886
 20
0.788
 30
0.0
 70
    64
  0
VERTEX
  5
A8C0F
100
AcDbEntity
  8
0
100
AcDbVertex
100
AcDbPolygonMeshVertex
 10
-0.441
 20
0.874
 30
0.0
 70
    64
  0
VERTEX
  5
A8C10
100
AcDbEntity
  8
0
100
AcDbVertex
100
AcDbPolygonMeshVertex
 10
-0.441
 20
0.874
 30
0.0
 70
    64
  0
VERTEX
  5
A8C11
100
AcDbEntity
  8
0
100
AcDbVertex
100
AcDbPolygonMeshVertex
 10
-0.886
 20
0.874
 30
0.0
 70
    64
  0
SEQEND
  5
A8C12
100
AcDbEntity
  8
0
  0
POLYLINE
  5
A8C13
100
AcDbEntity
  8
0
100
AcDbPolygonMesh
 66
     1
 10
0.0
 20
0.0
 30
0.0
 70
    16
 71
     6
 72
     3
  0
VERTEX
  5
A8C14
100
AcDbEntity
  8
0
100
AcDbVertex
100
AcDbPolygonMeshVertex
 10
-0.886
 20
-0.874
 30
0.0
 70
    64
  0
VERTEX
  5
A8C15
100
AcDbEntity
  8
0
100
AcDbVertex
100
AcDbPolygonMeshVertex
 10
-0.886
 20
-0.874
 30
-1.983
 70
    64
  0
VERTEX
  5
A8C16
100
AcDbEntity
  8
0
100
AcDbVertex
100
AcDbPolygonMeshVertex
 10
-0.886
 20
-0.874
 30
-1.983
 70
    64
  0
VERTEX
  5
A8C17
100
AcDbEntity
  8
0
100
AcDbVertex
100
AcDbPolygonMeshVertex
 10
-0.886
 20
-0.788
 30
0.0
 70
    64
  0
VERTEX
  5
A8C18
100
AcDbEntity
  8
0
100
AcDbVertex
100
AcDbPolygonMeshVertex
 10
-0.886
 20
-0.788
 30
-1.983
 70
    64
  0
VERTEX
  5
A8C19
100
AcDbEntity
  8
0
100
AcDbVertex
100
AcDbPolygonMeshVertex
 10
-0.886
 20
-0.788
 30
-1.983
 70
    64
  0
VERTEX
  5
A8C1A
100
AcDbEntity
  8
0
100
AcDbVertex
100
AcDbPolygonMeshVertex
 10
-0.441
 20
-0.788
 30
0.0
 70
    64
  0
VERTEX
  5
A8C1B
100
AcDbEntity
  8
0
100
AcDbVertex
100
AcDbPolygonMeshVertex
 10
-0.441
 20
-0.788
 30
-1.983
 70
    64
  0
VERTEX
  5
A8C1C
100
AcDbEntity
  8
0
100
AcDbVertex
100
AcDbPolygonMeshVertex
 10
-0.886
 20
-0.788
 30
-1.983
 70
    64
  0
VERTEX
  5
A8C1D
100
AcDbEntity
  8
0
100
AcDbVertex
100
AcDbPolygonMeshVertex
 10
-0.441
 20
-0.874
 30
0.0
 70
    64
  0
VERTEX
  5
A8C1E
100
AcDbEntity
  8
0
100
AcDbVertex
100
AcDbPolygonMeshVertex
 10
-0.441
 20
-0.874
 30
-1.983
 70
    64
  0
VERTEX
  5
A8C1F
100
AcDbEntity
  8
0
100
AcDbVertex
100
AcDbPolygonMeshVertex
 10
-0.886
 20
-0.874
 30
-1.983
 70
    64
  0
VERTEX
  5
A8C20
100
AcDbEntity
  8
0
100
AcDbVertex
100
AcDbPolygonMeshVertex
 10
-0.441
 20
-0.874
 30
0.0
 70
    64
  0
VERTEX
  5
A8C21
100
AcDbEntity
  8
0
100
AcDbVertex
100
AcDbPolygonMeshVertex
 10
-0.441
 20
-0.874
 30
0.0
 70
    64
  0
VERTEX
  5
A8C22
100
AcDbEntity
  8
0
100
AcDbVertex
100
AcDbPolygonMeshVertex
 10
-0.886
 20
-0.874
 30
0.0
 70
    64
  0
VERTEX
  5
A8C23
100
AcDbEntity
  8
0
100
AcDbVertex
100
AcDbPolygonMeshVertex
 10
-0.441
 20
-0.788
 30
0.0
 70
    64
  0
VERTEX
  5
A8C24
100
AcDbEntity
  8
0
100
AcDbVertex
100
AcDbPolygonMeshVertex
 10
-0.441
 20
-0.788
 30
0.0
 70
    64
  0
VERTEX
  5
A8C25
100
AcDbEntity
  8
0
100
AcDbVertex
100
AcDbPolygonMeshVertex
 10
-0.886
 20
-0.788
 30
0.0
 70
    64
  0
SEQEND
  5
A8C26
100
AcDbEntity
  8
0
  0
LWPOLYLINE
  5
A8C27
100
AcDbEntity
  8
0
100
AcDbPolyline
 90
        4
 70
     0
 43
0.0
 38
-1.983
 39
1.433
 10
-0.441
 20
0.247605
 10
-0.5515
 20
0.137105
 10
-0.5515
 20
-0.137105
 10
-0.441
 20
-0.247605
  0
LWPOLYLINE
  5
A8C28
100
AcDbEntity
  8
0
100
AcDbPolyline
 90
        4
 70
     0
 43
0.0
 38
-1.983
 39
1.433
 10
0.0
 20
-0.247605
 10
0.1105
 20
-0.137105
 10
0.1105
 20
0.137105
 10
0.0
 20
0.247605
  0
3DFACE
  5
A8C29
100
AcDbEntity
  8
0
100
AcDbFace
 10
-0.441
 20
0.247605
 30
-0.55
 11
-0.5515
 21
0.137105
 31
-0.55
 12
-0.5515
 22
-0.137105
 32
-0.55
 13
-0.441
 23
-0.247605
 33
-0.55
  0
3DFACE
  5
A8C2A
100
AcDbEntity
  8
0
100
AcDbFace
 10
0.0
 20
0.247605
 30
-0.55
 11
0.0
 21
-0.247605
 31
-0.55
 12
0.1105
 22
-0.137105
 32
-0.55
 13
0.1105
 23
0.137105
 33
-0.55
  0
CIRCLE
  5
A8C2B
100
AcDbEntity
  8
0
100
AcDbCircle
 39
0.09
 10
-0.6065
 20
0.558
 30
-1.989
 40
0.1165
  0
LINE
  5
A8C2C
100
AcDbEntity
  8
0
100
AcDbLine
 10
-0.5865
 20
0.44323
 30
-1.989
 11
-0.5865
 21
0.67277
 31
-1.989
  0
LINE
  5
A8C2D
100
AcDbEntity
  8
0
100
AcDbLine
 10
-0.6265
 20
0.44323
 30
-1.989
 11
-0.6265
 21
0.67277
 31
-1.989
  0
POLYLINE
  5
A8C2E
100
AcDbEntity
  8
0
100
AcDbPolygonMesh
 66
     1
 10
0.0
 20
0.0
 30
0.0
 70
    16
 71
     6
 72
     3
  0
VERTEX
  5
A8C2F
100
AcDbEntity
  8
0
100
AcDbVertex
100
AcDbPolygonMeshVertex
 10
-0.772
 20
0.38
 30
-1.726
 70
    64
  0
VERTEX
  5
A8C30
100
AcDbEntity
  8
0
100
AcDbVertex
100
AcDbPolygonMeshVertex
 10
-0.772
 20
0.38
 30
-1.899
 70
    64
  0
VERTEX
  5
A8C31
100
AcDbEntity
  8
0
100
AcDbVertex
100
AcDbPolygonMeshVertex
 10
-0.772
 20
0.38
 30
-1.899
 70
    64
  0
VERTEX
  5
A8C32
100
AcDbEntity
  8
0
100
AcDbVertex
100
AcDbPolygonMeshVertex
 10
-0.772
 20
0.736
 30
-1.726
 70
    64
  0
VERTEX
  5
A8C33
100
AcDbEntity
  8
0
100
AcDbVertex
100
AcDbPolygonMeshVertex
 10
-0.772
 20
0.736
 30
-1.899
 70
    64
  0
VERTEX
  5
A8C34
100
AcDbEntity
  8
0
100
AcDbVertex
100
AcDbPolygonMeshVertex
 10
-0.772
 20
0.736
 30
-1.899
 70
    64
  0
VERTEX
  5
A8C35
100
AcDbEntity
  8
0
100
AcDbVertex
100
AcDbPolygonMeshVertex
 10
-0.441
 20
0.736
 30
-1.726
 70
    64
  0
VERTEX
  5
A8C36
100
AcDbEntity
  8
0
100
AcDbVertex
100
AcDbPolygonMeshVertex
 10
-0.441
 20
0.736
 30
-1.899
 70
    64
  0
VERTEX
  5
A8C37
100
AcDbEntity
  8
0
100
AcDbVertex
100
AcDbPolygonMeshVertex
 10
-0.772
 20
0.736
 30
-1.899
 70
    64
  0
VERTEX
  5
A8C38
100
AcDbEntity
  8
0
100
AcDbVertex
100
AcDbPolygonMeshVertex
 10
-0.441
 20
0.38
 30
-1.726
 70
    64
  0
VERTEX
  5
A8C39
100
AcDbEntity
  8
0
100
AcDbVertex
100
AcDbPolygonMeshVertex
 10
-0.441
 20
0.38
 30
-1.899
 70
    64
  0
VERTEX
  5
A8C3A
100
AcDbEntity
  8
0
100
AcDbVertex
100
AcDbPolygonMeshVertex
 10
-0.772
 20
0.38
 30
-1.899
 70
    64
  0
VERTEX
  5
A8C3B
100
AcDbEntity
  8
0
100
AcDbVertex
100
AcDbPolygonMeshVertex
 10
-0.441
 20
0.38
 30
-1.726
 70
    64
  0
VERTEX
  5
A8C3C
100
AcDbEntity
  8
0
100
AcDbVertex
100
AcDbPolygonMeshVertex
 10
-0.441
 20
0.38
 30
-1.726
 70
    64
  0
VERTEX
  5
A8C3D
100
AcDbEntity
  8
0
100
AcDbVertex
100
AcDbPolygonMeshVertex
 10
-0.772
 20
0.38
 30
-1.726
 70
    64
  0
VERTEX
  5
A8C3E
100
AcDbEntity
  8
0
100
AcDbVertex
100
AcDbPolygonMeshVertex
 10
-0.441
 20
0.736
 30
-1.726
 70
    64
  0
VERTEX
  5
A8C3F
100
AcDbEntity
  8
0
100
AcDbVertex
100
AcDbPolygonMeshVertex
 10
-0.441
 20
0.736
 30
-1.726
 70
    64
  0
VERTEX
  5
A8C40
100
AcDbEntity
  8
0
100
AcDbVertex
100
AcDbPolygonMeshVertex
 10
-0.772
 20
0.736
 30
-1.726
 70
    64
  0
SEQEND
  5
A8C41
100
AcDbEntity
  8
0
  0
POLYLINE
  5
A8C42
100
AcDbEntity
  8
0
100
AcDbPolygonMesh
 66
     1
 10
0.0
 20
0.0
 30
0.0
 70
    16
 71
     6
 72
     3
  0
VERTEX
  5
A8C43
100
AcDbEntity
  8
0
100
AcDbVertex
100
AcDbPolygonMeshVertex
 10
-0.772
 20
-0.38
 30
-1.726
 70
    64
  0
VERTEX
  5
A8C44
100
AcDbEntity
  8
0
100
AcDbVertex
100
AcDbPolygonMeshVertex
 10
-0.772
 20
-0.38
 30
-1.899
 70
    64
  0
VERTEX
  5
A8C45
100
AcDbEntity
  8
0
100
AcDbVertex
100
AcDbPolygonMeshVertex
 10
-0.772
 20
-0.38
 30
-1.899
 70
    64
  0
VERTEX
  5
A8C46
100
AcDbEntity
  8
0
100
AcDbVertex
100
AcDbPolygonMeshVertex
 10
-0.772
 20
-0.736
 30
-1.726
 70
    64
  0
VERTEX
  5
A8C47
100
AcDbEntity
  8
0
100
AcDbVertex
100
AcDbPolygonMeshVertex
 10
-0.772
 20
-0.736
 30
-1.899
 70
    64
  0
VERTEX
  5
A8C48
100
AcDbEntity
  8
0
100
AcDbVertex
100
AcDbPolygonMeshVertex
 10
-0.772
 20
-0.736
 30
-1.899
 70
    64
  0
VERTEX
  5
A8C49
100
AcDbEntity
  8
0
100
AcDbVertex
100
AcDbPolygonMeshVertex
 10
-0.441
 20
-0.736
 30
-1.726
 70
    64
  0
VERTEX
  5
A8C4A
100
AcDbEntity
  8
0
100
AcDbVertex
100
AcDbPolygonMeshVertex
 10
-0.441
 20
-0.736
 30
-1.899
 70
    64
  0
VERTEX
  5
A8C4B
100
AcDbEntity
  8
0
100
AcDbVertex
100
AcDbPolygonMeshVertex
 10
-0.772
 20
-0.736
 30
-1.899
 70
    64
  0
VERTEX
  5
A8C4C
100
AcDbEntity
  8
0
100
AcDbVertex
100
AcDbPolygonMeshVertex
 10
-0.441
 20
-0.38
 30
-1.726
 70
    64
  0
VERTEX
  5
A8C4D
100
AcDbEntity
  8
0
100
AcDbVertex
100
AcDbPolygonMeshVertex
 10
-0.441
 20
-0.38
 30
-1.899
 70
    64
  0
VERTEX
  5
A8C4E
100
AcDbEntity
  8
0
100
AcDbVertex
100
AcDbPolygonMeshVertex
 10
-0.772
 20
-0.38
 30
-1.899
 70
    64
  0
VERTEX
  5
A8C4F
100
AcDbEntity
  8
0
100
AcDbVertex
100
AcDbPolygonMeshVertex
 10
-0.441
 20
-0.38
 30
-1.726
 70
    64
  0
VERTEX
  5
A8C50
100
AcDbEntity
  8
0
100
AcDbVertex
100
AcDbPolygonMeshVertex
 10
-0.441
 20
-0.38
 30
-1.726
 70
    64
  0
VERTEX
  5
A8C51
100
AcDbEntity
  8
0
100
AcDbVertex
100
AcDbPolygonMeshVertex
 10
-0.772
 20
-0.38
 30
-1.726
 70
    64
  0
VERTEX
  5
A8C52
100
AcDbEntity
  8
0
100
AcDbVertex
100
AcDbPolygonMeshVertex
 10
-0.441
 20
-0.736
 30
-1.726
 70
    64
  0
VERTEX
  5
A8C53
100
AcDbEntity
  8
0
100
AcDbVertex
100
AcDbPolygonMeshVertex
 10
-0.441
 20
-0.736
 30
-1.726
 70
    64
  0
VERTEX
  5
A8C54
100
AcDbEntity
  8
0
100
AcDbVertex
100
AcDbPolygonMeshVertex
 10
-0.772
 20
-0.736
 30
-1.726
 70
    64
  0
SEQEND
  5
A8C55
100
AcDbEntity
  8
0
  0
CIRCLE
  5
A8C56
100
AcDbEntity
  8
0
100
AcDbCircle
 39
0.09
 10
-0.6065
 20
-0.558
 30
-1.989
 40
0.1165
  0
LINE
  5
A8C57
100
AcDbEntity
  8
0
100
AcDbLine
 10
-0.6265
 20
-0.44323
 30
-1.989
 11
-0.6265
 21
-0.67277
 31
-1.989
  0
LINE
  5
A8C58
100
AcDbEntity
  8
0
100
AcDbLine
 10
-0.5865
 20
-0.44323
 30
-1.989
 11
-0.5865
 21
-0.67277
 31
-1.989
  0
POLYLINE
  5
A8C59
100
AcDbEntity
  8
0
100
AcDbPolygonMesh
 66
     1
 10
0.0
 20
0.0
 30
0.0
 70
    16
 71
     6
 72
     3
  0
VERTEX
  5
A8C5A
100
AcDbEntity
  8
0
100
AcDbVertex
100
AcDbPolygonMeshVertex
 10
-0.772
 20
-0.43571
 30
-0.3119
 70
    64
  0
VERTEX
  5
A8C5B
100
AcDbEntity
  8
0
100
AcDbVertex
100
AcDbPolygonMeshVertex
 10
-0.772
 20
-0.360095
 30
-0.4675
 70
    64
  0
VERTEX
  5
A8C5C
100
AcDbEntity
  8
0
100
AcDbVertex
100
AcDbPolygonMeshVertex
 10
-0.772
 20
-0.360095
 30
-0.4675
 70
    64
  0
VERTEX
  5
A8C5D
100
AcDbEntity
  8
0
100
AcDbVertex
100
AcDbPolygonMeshVertex
 10
-0.772
 20
-0.755905
 30
-0.4675
 70
    64
  0
VERTEX
  5
A8C5E
100
AcDbEntity
  8
0
100
AcDbVertex
100
AcDbPolygonMeshVertex
 10
-0.772
 20
-0.68029
 30
-0.6231
 70
    64
  0
VERTEX
  5
A8C5F
100
AcDbEntity
  8
0
100
AcDbVertex
100
AcDbPolygonMeshVertex
 10
-0.772
 20
-0.68029
 30
-0.6231
 70
    64
  0
VERTEX
  5
A8C60
100
AcDbEntity
  8
0
100
AcDbVertex
100
AcDbPolygonMeshVertex
 10
-0.441
 20
-0.755905
 30
-0.4675
 70
    64
  0
VERTEX
  5
A8C61
100
AcDbEntity
  8
0
100
AcDbVertex
100
AcDbPolygonMeshVertex
 10
-0.441
 20
-0.68029
 30
-0.6231
 70
    64
  0
VERTEX
  5
A8C62
100
AcDbEntity
  8
0
100
AcDbVertex
100
AcDbPolygonMeshVertex
 10
-0.772
 20
-0.68029
 30
-0.6231
 70
    64
  0
VERTEX
  5
A8C63
100
AcDbEntity
  8
0
100
AcDbVertex
100
AcDbPolygonMeshVertex
 10
-0.441
 20
-0.43571
 30
-0.3119
 70
    64
  0
VERTEX
  5
A8C64
100
AcDbEntity
  8
0
100
AcDbVertex
100
AcDbPolygonMeshVertex
 10
-0.441
 20
-0.360095
 30
-0.4675
 70
    64
  0
VERTEX
  5
A8C65
100
AcDbEntity
  8
0
100
AcDbVertex
100
AcDbPolygonMeshVertex
 10
-0.772
 20
-0.360095
 30
-0.4675
 70
    64
  0
VERTEX
  5
A8C66
100
AcDbEntity
  8
0
100
AcDbVertex
100
AcDbPolygonMeshVertex
 10
-0.441
 20
-0.43571
 30
-0.3119
 70
    64
  0
VERTEX
  5
A8C67
100
AcDbEntity
  8
0
100
AcDbVertex
100
AcDbPolygonMeshVertex
 10
-0.441
 20
-0.43571
 30
-0.3119
 70
    64
  0
VERTEX
  5
A8C68
100
AcDbEntity
  8
0
100
AcDbVertex
100
AcDbPolygonMeshVertex
 10
-0.772
 20
-0.43571
 30
-0.3119
 70
    64
  0
VERTEX
  5
A8C69
100
AcDbEntity
  8
0
100
AcDbVertex
100
AcDbPolygonMeshVertex
 10
-0.441
 20
-0.755905
 30
-0.4675
 70
    64
  0
VERTEX
  5
A8C6A
100
AcDbEntity
  8
0
100
AcDbVertex
100
AcDbPolygonMeshVertex
 10
-0.441
 20
-0.755905
 30
-0.4675
 70
    64
  0
VERTEX
  5
A8C6B
100
AcDbEntity
  8
0
100
AcDbVertex
100
AcDbPolygonMeshVertex
 10
-0.772
 20
-0.755905
 30
-0.4675
 70
    64
  0
SEQEND
  5
A8C6C
100
AcDbEntity
  8
0
  0
CIRCLE
  5
A8C6D
100
AcDbEntity
  8
0
100
AcDbCircle
 39
0.09
 10
-0.6065
 20
-0.706213
 30
-0.35309
 40
0.1165
210
0.0
220
-0.4370791719288077
230
0.8994230358769048
  0
LINE
  5
A8C6E
100
AcDbEntity
  8
0
100
AcDbLine
 10
-0.5865
 20
-0.377628
 30
-0.576084
 11
-0.5865
 21
-0.584083
 31
-0.676412
210
0.0
220
-0.4370791719288077
230
0.8994230358769048
  0
LINE
  5
A8C6F
100
AcDbEntity
  8
0
100
AcDbLine
 10
-0.6265
 20
-0.377628
 30
-0.576084
 11
-0.6265
 21
-0.584083
 31
-0.676412
210
0.0
220
-0.4370791719288077
230
0.8994230358769048
  0
LINE
  5
A8C70
100
AcDbEntity
  8
0
100
AcDbLine
 10
-0.441
 20
-0.755905
 30
-0.4675
 11
-0.441
 21
-0.360095
 31
-0.4675
210
-1.0
220
0.0
230
0.0
  0
POLYLINE
  5
A8C71
100
AcDbEntity
  8
0
100
AcDbPolygonMesh
 66
     1
 10
0.0
 20
0.0
 30
0.0
 70
    16
 71
     6
 72
     3
  0
VERTEX
  5
A8C72
100
AcDbEntity
  8
0
100
AcDbVertex
100
AcDbPolygonMeshVertex
 10
-0.772
 20
0.43571
 30
-0.3119
 70
    64
  0
VERTEX
  5
A8C73
100
AcDbEntity
  8
0
100
AcDbVertex
100
AcDbPolygonMeshVertex
 10
-0.772
 20
0.360095
 30
-0.4675
 70
    64
  0
VERTEX
  5
A8C74
100
AcDbEntity
  8
0
100
AcDbVertex
100
AcDbPolygonMeshVertex
 10
-0.772
 20
0.360095
 30
-0.4675
 70
    64
  0
VERTEX
  5
A8C75
100
AcDbEntity
  8
0
100
AcDbVertex
100
AcDbPolygonMeshVertex
 10
-0.772
 20
0.755905
 30
-0.4675
 70
    64
  0
VERTEX
  5
A8C76
100
AcDbEntity
  8
0
100
AcDbVertex
100
AcDbPolygonMeshVertex
 10
-0.772
 20
0.68029
 30
-0.6231
 70
    64
  0
VERTEX
  5
A8C77
100
AcDbEntity
  8
0
100
AcDbVertex
100
AcDbPolygonMeshVertex
 10
-0.772
 20
0.68029
 30
-0.6231
 70
    64
  0
VERTEX
  5
A8C78
100
AcDbEntity
  8
0
100
AcDbVertex
100
AcDbPolygonMeshVertex
 10
-0.441
 20
0.755905
 30
-0.4675
 70
    64
  0
VERTEX
  5
A8C79
100
AcDbEntity
  8
0
100
AcDbVertex
100
AcDbPolygonMeshVertex
 10
-0.441
 20
0.68029
 30
-0.6231
 70
    64
  0
VERTEX
  5
A8C7A
100
AcDbEntity
  8
0
100
AcDbVertex
100
AcDbPolygonMeshVertex
 10
-0.772
 20
0.68029
 30
-0.6231
 70
    64
  0
VERTEX
  5
A8C7B
100
AcDbEntity
  8
0
100
AcDbVertex
100
AcDbPolygonMeshVertex
 10
-0.441
 20
0.43571
 30
-0.3119
 70
    64
  0
VERTEX
  5
A8C7C
100
AcDbEntity
  8
0
100
AcDbVertex
100
AcDbPolygonMeshVertex
 10
-0.441
 20
0.360095
 30
-0.4675
 70
    64
  0
VERTEX
  5
A8C7D
100
AcDbEntity
  8
0
100
AcDbVertex
100
AcDbPolygonMeshVertex
 10
-0.772
 20
0.360095
 30
-0.4675
 70
    64
  0
VERTEX
  5
A8C7E
100
AcDbEntity
  8
0
100
AcDbVertex
100
AcDbPolygonMeshVertex
 10
-0.441
 20
0.43571
 30
-0.3119
 70
    64
  0
VERTEX
  5
A8C7F
100
AcDbEntity
  8
0
100
AcDbVertex
100
AcDbPolygonMeshVertex
 10
-0.441
 20
0.43571
 30
-0.3119
 70
    64
  0
VERTEX
  5
A8C80
100
AcDbEntity
  8
0
100
AcDbVertex
100
AcDbPolygonMeshVertex
 10
-0.772
 20
0.43571
 30
-0.3119
 70
    64
  0
VERTEX
  5
A8C81
100
AcDbEntity
  8
0
100
AcDbVertex
100
AcDbPolygonMeshVertex
 10
-0.441
 20
0.755905
 30
-0.4675
 70
    64
  0
VERTEX
  5
A8C82
100
AcDbEntity
  8
0
100
AcDbVertex
100
AcDbPolygonMeshVertex
 10
-0.441
 20
0.755905
 30
-0.4675
 70
    64
  0
VERTEX
  5
A8C83
100
AcDbEntity
  8
0
100
AcDbVertex
100
AcDbPolygonMeshVertex
 10
-0.772
 20
0.755905
 30
-0.4675
 70
    64
  0
SEQEND
  5
A8C84
100
AcDbEntity
  8
0
  0
CIRCLE
  5
A8C85
100
AcDbEntity
  8
0
100
AcDbCircle
 39
0.09
 10
0.6065
 20
-0.706213
 30
-0.35309
 40
0.1165
210
0.0
220
0.4370791719288077
230
0.8994230358769048
  0
LINE
  5
A8C86
100
AcDbEntity
  8
0
100
AcDbLine
 10
-0.5865
 20
0.377628
 30
-0.576084
 11
-0.5865
 21
0.584083
 31
-0.676412
210
0.0
220
0.4370791719288077
230
0.8994230358769048
  0
LINE
  5
A8C87
100
AcDbEntity
  8
0
100
AcDbLine
 10
-0.6265
 20
0.377628
 30
-0.576084
 11
-0.6265
 21
0.584083
 31
-0.676412
210
0.0
220
0.4370791719288077
230
0.8994230358769048
  0
LINE
  5
A8C88
100
AcDbEntity
  8
0
100
AcDbLine
 10
-0.441
 20
0.755905
 30
-0.4675
 11
-0.441
 21
0.360095
 31
-0.4675
210
-1.0
220
0.0
230
0.0
  0
ARC
  5
A8C89
100
AcDbEntity
  8
0
100
AcDbCircle
 10
0.128
 20
-0.599
 30
-1.703
 40
0.12
100
AcDbArc
 50
90.0
 51
270.0
  0
ARC
  5
A8C8A
100
AcDbEntity
  8
0
100
AcDbCircle
 10
0.128
 20
-0.599
 30
-0.958
 40
0.12
100
AcDbArc
 50
90.0
 51
270.0
  0
POLYLINE
  5
A8C8B
100
AcDbEntity
  8
0
100
AcDbPolygonMesh
 66
     1
 10
0.0
 20
0.0
 30
0.0
 70
    16
 71
     6
 72
     3
  0
VERTEX
  5
A8C8C
100
AcDbEntity
  8
0
100
AcDbVertex
100
AcDbPolygonMeshVertex
 10
-0.795
 20
0.207605
 30
-0.174
 70
    64
  0
VERTEX
  5
A8C8D
100
AcDbEntity
  8
0
100
AcDbVertex
100
AcDbPolygonMeshVertex
 10
-0.795
 20
0.207605
 30
-0.55
 70
    64
  0
VERTEX
  5
A8C8E
100
AcDbEntity
  8
0
100
AcDbVertex
100
AcDbPolygonMeshVertex
 10
-0.795
 20
0.207605
 30
-0.55
 70
    64
  0
VERTEX
  5
A8C8F
100
AcDbEntity
  8
0
100
AcDbVertex
100
AcDbPolygonMeshVertex
 10
-0.795
 20
0.247605
 30
-0.174
 70
    64
  0
VERTEX
  5
A8C90
100
AcDbEntity
  8
0
100
AcDbVertex
100
AcDbPolygonMeshVertex
 10
-0.795
 20
0.247605
 30
-0.55
 70
    64
  0
VERTEX
  5
A8C91
100
AcDbEntity
  8
0
100
AcDbVertex
100
AcDbPolygonMeshVertex
 10
-0.795
 20
0.247605
 30
-0.55
 70
    64
  0
VERTEX
  5
A8C92
100
AcDbEntity
  8
0
100
AcDbVertex
100
AcDbPolygonMeshVertex
 10
-0.441
 20
0.247605
 30
-0.174
 70
    64
  0
VERTEX
  5
A8C93
100
AcDbEntity
  8
0
100
AcDbVertex
100
AcDbPolygonMeshVertex
 10
-0.441
 20
0.247605
 30
-0.55
 70
    64
  0
VERTEX
  5
A8C94
100
AcDbEntity
  8
0
100
AcDbVertex
100
AcDbPolygonMeshVertex
 10
-0.795
 20
0.247605
 30
-0.55
 70
    64
  0
VERTEX
  5
A8C95
100
AcDbEntity
  8
0
100
AcDbVertex
100
AcDbPolygonMeshVertex
 10
-0.441
 20
0.207605
 30
-0.174
 70
    64
  0
VERTEX
  5
A8C96
100
AcDbEntity
  8
0
100
AcDbVertex
100
AcDbPolygonMeshVertex
 10
-0.441
 20
0.207605
 30
-0.55
 70
    64
  0
VERTEX
  5
A8C97
100
AcDbEntity
  8
0
100
AcDbVertex
100
AcDbPolygonMeshVertex
 10
-0.795
 20
0.207605
 30
-0.55
 70
    64
  0
VERTEX
  5
A8C98
100
AcDbEntity
  8
0
100
AcDbVertex
100
AcDbPolygonMeshVertex
 10
-0.441
 20
0.207605
 30
-0.174
 70
    64
  0
VERTEX
  5
A8C99
100
AcDbEntity
  8
0
100
AcDbVertex
100
AcDbPolygonMeshVertex
 10
-0.441
 20
0.207605
 30
-0.174
 70
    64
  0
VERTEX
  5
A8C9A
100
AcDbEntity
  8
0
100
AcDbVertex
100
AcDbPolygonMeshVertex
 10
-0.795
 20
0.207605
 30
-0.174
 70
    64
  0
VERTEX
  5
A8C9B
100
AcDbEntity
  8
0
100
AcDbVertex
100
AcDbPolygonMeshVertex
 10
-0.441
 20
0.247605
 30
-0.174
 70
    64
  0
VERTEX
  5
A8C9C
100
AcDbEntity
  8
0
100
AcDbVertex
100
AcDbPolygonMeshVertex
 10
-0.441
 20
0.247605
 30
-0.174
 70
    64
  0
VERTEX
  5
A8C9D
100
AcDbEntity
  8
0
100
AcDbVertex
100
AcDbPolygonMeshVertex
 10
-0.795
 20
0.247605
 30
-0.174
 70
    64
  0
SEQEND
  5
A8C9E
100
AcDbEntity
  8
0
  0
POLYLINE
  5
A8C9F
100
AcDbEntity
  8
0
100
AcDbPolygonMesh
 66
     1
 10
0.0
 20
0.0
 30
0.0
 70
    16
 71
     6
 72
     3
  0
VERTEX
  5
A8CA0
100
AcDbEntity
  8
0
100
AcDbVertex
100
AcDbPolygonMeshVertex
 10
-0.795
 20
-0.247605
 30
-0.174
 70
    64
  0
VERTEX
  5
A8CA1
100
AcDbEntity
  8
0
100
AcDbVertex
100
AcDbPolygonMeshVertex
 10
-0.795
 20
-0.247605
 30
-0.55
 70
    64
  0
VERTEX
  5
A8CA2
100
AcDbEntity
  8
0
100
AcDbVertex
100
AcDbPolygonMeshVertex
 10
-0.795
 20
-0.247605
 30
-0.55
 70
    64
  0
VERTEX
  5
A8CA3
100
AcDbEntity
  8
0
100
AcDbVertex
100
AcDbPolygonMeshVertex
 10
-0.795
 20
-0.207605
 30
-0.174
 70
    64
  0
VERTEX
  5
A8CA4
100
AcDbEntity
  8
0
100
AcDbVertex
100
AcDbPolygonMeshVertex
 10
-0.795
 20
-0.207605
 30
-0.55
 70
    64
  0
VERTEX
  5
A8CA5
100
AcDbEntity
  8
0
100
AcDbVertex
100
AcDbPolygonMeshVertex
 10
-0.795
 20
-0.207605
 30
-0.55
 70
    64
  0
VERTEX
  5
A8CA6
100
AcDbEntity
  8
0
100
AcDbVertex
100
AcDbPolygonMeshVertex
 10
-0.441
 20
-0.207605
 30
-0.174
 70
    64
  0
VERTEX
  5
A8CA7
100
AcDbEntity
  8
0
100
AcDbVertex
100
AcDbPolygonMeshVertex
 10
-0.441
 20
-0.207605
 30
-0.55
 70
    64
  0
VERTEX
  5
A8CA8
100
AcDbEntity
  8
0
100
AcDbVertex
100
AcDbPolygonMeshVertex
 10
-0.795
 20
-0.207605
 30
-0.55
 70
    64
  0
VERTEX
  5
A8CA9
100
AcDbEntity
  8
0
100
AcDbVertex
100
AcDbPolygonMeshVertex
 10
-0.441
 20
-0.247605
 30
-0.174
 70
    64
  0
VERTEX
  5
A8CAA
100
AcDbEntity
  8
0
100
AcDbVertex
100
AcDbPolygonMeshVertex
 10
-0.441
 20
-0.247605
 30
-0.55
 70
    64
  0
VERTEX
  5
A8CAB
100
AcDbEntity
  8
0
100
AcDbVertex
100
AcDbPolygonMeshVertex
 10
-0.795
 20
-0.247605
 30
-0.55
 70
    64
  0
VERTEX
  5
A8CAC
100
AcDbEntity
  8
0
100
AcDbVertex
100
AcDbPolygonMeshVertex
 10
-0.441
 20
-0.247605
 30
-0.174
 70
    64
  0
VERTEX
  5
A8CAD
100
AcDbEntity
  8
0
100
AcDbVertex
100
AcDbPolygonMeshVertex
 10
-0.441
 20
-0.247605
 30
-0.174
 70
    64
  0
VERTEX
  5
A8CAE
100
AcDbEntity
  8
0
100
AcDbVertex
100
AcDbPolygonMeshVertex
 10
-0.795
 20
-0.247605
 30
-0.174
 70
    64
  0
VERTEX
  5
A8CAF
100
AcDbEntity
  8
0
100
AcDbVertex
100
AcDbPolygonMeshVertex
 10
-0.441
 20
-0.207605
 30
-0.174
 70
    64
  0
VERTEX
  5
A8CB0
100
AcDbEntity
  8
0
100
AcDbVertex
100
AcDbPolygonMeshVertex
 10
-0.441
 20
-0.207605
 30
-0.174
 70
    64
  0
VERTEX
  5
A8CB1
100
AcDbEntity
  8
0
100
AcDbVertex
100
AcDbPolygonMeshVertex
 10
-0.795
 20
-0.207605
 30
-0.174
 70
    64
  0
SEQEND
  5
A8CB2
100
AcDbEntity
  8
0
  0
POLYLINE
  5
A8CB3
100
AcDbEntity
  8
0
100
AcDbPolygonMesh
 66
     1
 10
0.0
 20
0.0
 30
0.0
 70
    16
 71
     6
 72
     3
  0
VERTEX
  5
A8CB4
100
AcDbEntity
  8
0
100
AcDbVertex
100
AcDbPolygonMeshVertex
 10
-0.503
 20
-0.165
 30
-0.174
 70
    64
  0
VERTEX
  5
A8CB5
100
AcDbEntity
  8
0
100
AcDbVertex
100
AcDbPolygonMeshVertex
 10
-0.503
 20
-0.165
 30
-0.55
 70
    64
  0
VERTEX
  5
A8CB6
100
AcDbEntity
  8
0
100
AcDbVertex
100
AcDbPolygonMeshVertex
 10
-0.503
 20
-0.165
 30
-0.55
 70
    64
  0
VERTEX
  5
A8CB7
100
AcDbEntity
  8
0
100
AcDbVertex
100
AcDbPolygonMeshVertex
 10
-0.503
 20
0.165
 30
-0.174
 70
    64
  0
VERTEX
  5
A8CB8
100
AcDbEntity
  8
0
100
AcDbVertex
100
AcDbPolygonMeshVertex
 10
-0.503
 20
0.165
 30
-0.55
 70
    64
  0
VERTEX
  5
A8CB9
100
AcDbEntity
  8
0
100
AcDbVertex
100
AcDbPolygonMeshVertex
 10
-0.503
 20
0.165
 30
-0.55
 70
    64
  0
VERTEX
  5
A8CBA
100
AcDbEntity
  8
0
100
AcDbVertex
100
AcDbPolygonMeshVertex
 10
-0.441
 20
0.165
 30
-0.174
 70
    64
  0
VERTEX
  5
A8CBB
100
AcDbEntity
  8
0
100
AcDbVertex
100
AcDbPolygonMeshVertex
 10
-0.441
 20
0.165
 30
-0.55
 70
    64
  0
VERTEX
  5
A8CBC
100
AcDbEntity
  8
0
100
AcDbVertex
100
AcDbPolygonMeshVertex
 10
-0.503
 20
0.165
 30
-0.55
 70
    64
  0
VERTEX
  5
A8CBD
100
AcDbEntity
  8
0
100
AcDbVertex
100
AcDbPolygonMeshVertex
 10
-0.441
 20
-0.165
 30
-0.174
 70
    64
  0
VERTEX
  5
A8CBE
100
AcDbEntity
  8
0
100
AcDbVertex
100
AcDbPolygonMeshVertex
 10
-0.441
 20
-0.165
 30
-0.55
 70
    64
  0
VERTEX
  5
A8CBF
100
AcDbEntity
  8
0
100
AcDbVertex
100
AcDbPolygonMeshVertex
 10
-0.503
 20
-0.165
 30
-0.55
 70
    64
  0
VERTEX
  5
A8CC0
100
AcDbEntity
  8
0
100
AcDbVertex
100
AcDbPolygonMeshVertex
 10
-0.441
 20
-0.165
 30
-0.174
 70
    64
  0
VERTEX
  5
A8CC1
100
AcDbEntity
  8
0
100
AcDbVertex
100
AcDbPolygonMeshVertex
 10
-0.441
 20
-0.165
 30
-0.174
 70
    64
  0
VERTEX
  5
A8CC2
100
AcDbEntity
  8
0
100
AcDbVertex
100
AcDbPolygonMeshVertex
 10
-0.503
 20
-0.165
 30
-0.174
 70
    64
  0
VERTEX
  5
A8CC3
100
AcDbEntity
  8
0
100
AcDbVertex
100
AcDbPolygonMeshVertex
 10
-0.441
 20
0.165
 30
-0.174
 70
    64
  0
VERTEX
  5
A8CC4
100
AcDbEntity
  8
0
100
AcDbVertex
100
AcDbPolygonMeshVertex
 10
-0.441
 20
0.165
 30
-0.174
 70
    64
  0
VERTEX
  5
A8CC5
100
AcDbEntity
  8
0
100
AcDbVertex
100
AcDbPolygonMeshVertex
 10
-0.503
 20
0.165
 30
-0.174
 70
    64
  0
SEQEND
  5
A8CC6
100
AcDbEntity
  8
0
  0
POLYLINE
  5
A8CC7
100
AcDbEntity
  8
0
100
AcDbPolygonMesh
 66
     1
 10
0.0
 20
0.0
 30
0.0
 70
    16
 71
     6
 72
     3
  0
VERTEX
  5
A8CC8
100
AcDbEntity
  8
0
100
AcDbVertex
100
AcDbPolygonMeshVertex
 10
0.128
 20
-0.3825
 30
-0.958
 70
    64
  0
VERTEX
  5
A8CC9
100
AcDbEntity
  8
0
100
AcDbVertex
100
AcDbPolygonMeshVertex
 10
0.128
 20
-0.3825
 30
-1.703
 70
    64
  0
VERTEX
  5
A8CCA
100
AcDbEntity
  8
0
100
AcDbVertex
100
AcDbPolygonMeshVertex
 10
0.128
 20
-0.3825
 30
-1.703
 70
    64
  0
VERTEX
  5
A8CCB
100
AcDbEntity
  8
0
100
AcDbVertex
100
AcDbPolygonMeshVertex
 10
0.128
 20
-0.8155
 30
-0.958
 70
    64
  0
VERTEX
  5
A8CCC
100
AcDbEntity
  8
0
100
AcDbVertex
100
AcDbPolygonMeshVertex
 10
0.128
 20
-0.8155
 30
-1.703
 70
    64
  0
VERTEX
  5
A8CCD
100
AcDbEntity
  8
0
100
AcDbVertex
100
AcDbPolygonMeshVertex
 10
0.128
 20
-0.8155
 30
-1.703
 70
    64
  0
VERTEX
  5
A8CCE
100
AcDbEntity
  8
0
100
AcDbVertex
100
AcDbPolygonMeshVertex
 10
0.0
 20
-0.8155
 30
-0.958
 70
    64
  0
VERTEX
  5
A8CCF
100
AcDbEntity
  8
0
100
AcDbVertex
100
AcDbPolygonMeshVertex
 10
0.0
 20
-0.8155
 30
-1.703
 70
    64
  0
VERTEX
  5
A8CD0
100
AcDbEntity
  8
0
100
AcDbVertex
100
AcDbPolygonMeshVertex
 10
0.128
 20
-0.8155
 30
-1.703
 70
    64
  0
VERTEX
  5
A8CD1
100
AcDbEntity
  8
0
100
AcDbVertex
100
AcDbPolygonMeshVertex
 10
0.0
 20
-0.3825
 30
-0.958
 70
    64
  0
VERTEX
  5
A8CD2
100
AcDbEntity
  8
0
100
AcDbVertex
100
AcDbPolygonMeshVertex
 10
0.0
 20
-0.3825
 30
-1.703
 70
    64
  0
VERTEX
  5
A8CD3
100
AcDbEntity
  8
0
100
AcDbVertex
100
AcDbPolygonMeshVertex
 10
0.128
 20
-0.3825
 30
-1.703
 70
    64
  0
VERTEX
  5
A8CD4
100
AcDbEntity
  8
0
100
AcDbVertex
100
AcDbPolygonMeshVertex
 10
0.0
 20
-0.3825
 30
-0.958
 70
    64
  0
VERTEX
  5
A8CD5
100
AcDbEntity
  8
0
100
AcDbVertex
100
AcDbPolygonMeshVertex
 10
0.0
 20
-0.3825
 30
-0.958
 70
    64
  0
VERTEX
  5
A8CD6
100
AcDbEntity
  8
0
100
AcDbVertex
100
AcDbPolygonMeshVertex
 10
0.128
 20
-0.3825
 30
-0.958
 70
    64
  0
VERTEX
  5
A8CD7
100
AcDbEntity
  8
0
100
AcDbVertex
100
AcDbPolygonMeshVertex
 10
0.0
 20
-0.8155
 30
-0.958
 70
    64
  0
VERTEX
  5
A8CD8
100
AcDbEntity
  8
0
100
AcDbVertex
100
AcDbPolygonMeshVertex
 10
0.0
 20
-0.8155
 30
-0.958
 70
    64
  0
VERTEX
  5
A8CD9
100
AcDbEntity
  8
0
100
AcDbVertex
100
AcDbPolygonMeshVertex
 10
0.128
 20
-0.8155
 30
-0.958
 70
    64
  0
SEQEND
  5
A8CDA
100
AcDbEntity
  8
0
  0
LINE
  5
A8CDB
100
AcDbEntity
  8
0
100
AcDbLine
 10
0.128
 20
-0.479
 30
-0.958
 11
0.128
 21
-0.479
 31
-1.703
  0
LINE
  5
A8CDC
100
AcDbEntity
  8
0
100
AcDbLine
 10
0.128
 20
-0.719
 30
-0.958
 11
0.128
 21
-0.719
 31
-1.703
  0
LINE
  5
A8CDD
100
AcDbEntity
  8
0
100
AcDbLine
 10
0.128
 20
0.719
 30
-0.958
 11
0.128
 21
0.719
 31
-1.703
  0
LINE
  5
A8CDE
100
AcDbEntity
  8
0
100
AcDbLine
 10
0.128
 20
0.479
 30
-0.958
 11
0.128
 21
0.479
 31
-1.703
  0
POLYLINE
  5
A8CDF
100
AcDbEntity
  8
0
100
AcDbPolygonMesh
 66
     1
 10
0.0
 20
0.0
 30
0.0
 70
    16
 71
     6
 72
     3
  0
VERTEX
  5
A8CE0
100
AcDbEntity
  8
0
100
AcDbVertex
100
AcDbPolygonMeshVertex
 10
0.128
 20
0.3825
 30
-0.958
 70
    64
  0
VERTEX
  5
A8CE1
100
AcDbEntity
  8
0
100
AcDbVertex
100
AcDbPolygonMeshVertex
 10
0.128
 20
0.3825
 30
-1.703
 70
    64
  0
VERTEX
  5
A8CE2
100
AcDbEntity
  8
0
100
AcDbVertex
100
AcDbPolygonMeshVertex
 10
0.128
 20
0.3825
 30
-1.703
 70
    64
  0
VERTEX
  5
A8CE3
100
AcDbEntity
  8
0
100
AcDbVertex
100
AcDbPolygonMeshVertex
 10
0.128
 20
0.8155
 30
-0.958
 70
    64
  0
VERTEX
  5
A8CE4
100
AcDbEntity
  8
0
100
AcDbVertex
100
AcDbPolygonMeshVertex
 10
0.128
 20
0.8155
 30
-1.703
 70
    64
  0
VERTEX
  5
A8CE5
100
AcDbEntity
  8
0
100
AcDbVertex
100
AcDbPolygonMeshVertex
 10
0.128
 20
0.8155
 30
-1.703
 70
    64
  0
VERTEX
  5
A8CE6
100
AcDbEntity
  8
0
100
AcDbVertex
100
AcDbPolygonMeshVertex
 10
0.0
 20
0.8155
 30
-0.958
 70
    64
  0
VERTEX
  5
A8CE7
100
AcDbEntity
  8
0
100
AcDbVertex
100
AcDbPolygonMeshVertex
 10
0.0
 20
0.8155
 30
-1.703
 70
    64
  0
VERTEX
  5
A8CE8
100
AcDbEntity
  8
0
100
AcDbVertex
100
AcDbPolygonMeshVertex
 10
0.128
 20
0.8155
 30
-1.703
 70
    64
  0
VERTEX
  5
A8CE9
100
AcDbEntity
  8
0
100
AcDbVertex
100
AcDbPolygonMeshVertex
 10
0.0
 20
0.3825
 30
-0.958
 70
    64
  0
VERTEX
  5
A8CEA
100
AcDbEntity
  8
0
100
AcDbVertex
100
AcDbPolygonMeshVertex
 10
0.0
 20
0.3825
 30
-1.703
 70
    64
  0
VERTEX
  5
A8CEB
100
AcDbEntity
  8
0
100
AcDbVertex
100
AcDbPolygonMeshVertex
 10
0.128
 20
0.3825
 30
-1.703
 70
    64
  0
VERTEX
  5
A8CEC
100
AcDbEntity
  8
0
100
AcDbVertex
100
AcDbPolygonMeshVertex
 10
0.0
 20
0.3825
 30
-0.958
 70
    64
  0
VERTEX
  5
A8CED
100
AcDbEntity
  8
0
100
AcDbVertex
100
AcDbPolygonMeshVertex
 10
0.0
 20
0.3825
 30
-0.958
 70
    64
  0
VERTEX
  5
A8CEE
100
AcDbEntity
  8
0
100
AcDbVertex
100
AcDbPolygonMeshVertex
 10
0.128
 20
0.3825
 30
-0.958
 70
    64
  0
VERTEX
  5
A8CEF
100
AcDbEntity
  8
0
100
AcDbVertex
100
AcDbPolygonMeshVertex
 10
0.0
 20
0.8155
 30
-0.958
 70
    64
  0
VERTEX
  5
A8CF0
100
AcDbEntity
  8
0
100
AcDbVertex
100
AcDbPolygonMeshVertex
 10
0.0
 20
0.8155
 30
-0.958
 70
    64
  0
VERTEX
  5
A8CF1
100
AcDbEntity
  8
0
100
AcDbVertex
100
AcDbPolygonMeshVertex
 10
0.128
 20
0.8155
 30
-0.958
 70
    64
  0
SEQEND
  5
A8CF2
100
AcDbEntity
  8
0
  0
ARC
  5
A8CF3
100
AcDbEntity
  8
0
100
AcDbCircle
 10
0.128
 20
0.599
 30
-1.703
 40
0.12
100
AcDbArc
 50
90.0
 51
270.0
  0
ARC
  5
A8CF4
100
AcDbEntity
  8
0
100
AcDbCircle
 10
0.128
 20
0.599
 30
-0.958
 40
0.12
100
AcDbArc
 50
90.0
 51
270.0
  0
POLYLINE
  5
A8CF5
100
AcDbEntity
  8
0
100
AcDbPolygonMesh
 66
     1
 10
0.0
 20
0.0
 30
0.0
 70
    16
 71
     6
 72
     3
  0
VERTEX
  5
A8CF6
100
AcDbEntity
  8
0
100
AcDbVertex
100
AcDbPolygonMeshVertex
 10
0.0
 20
-0.8155
 30
-1.703
 70
    64
  0
VERTEX
  5
A8CF7
100
AcDbEntity
  8
0
100
AcDbVertex
100
AcDbPolygonMeshVertex
 10
0.0
 20
-0.8155
 30
-2.01087
 70
    64
  0
VERTEX
  5
A8CF8
100
AcDbEntity
  8
0
100
AcDbVertex
100
AcDbPolygonMeshVertex
 10
0.0
 20
-0.8155
 30
-2.01087
 70
    64
  0
VERTEX
  5
A8CF9
100
AcDbEntity
  8
0
100
AcDbVertex
100
AcDbPolygonMeshVertex
 10
0.0
 20
-0.719
 30
-1.703
 70
    64
  0
VERTEX
  5
A8CFA
100
AcDbEntity
  8
0
100
AcDbVertex
100
AcDbPolygonMeshVertex
 10
0.0
 20
-0.719
 30
-2.01087
 70
    64
  0
VERTEX
  5
A8CFB
100
AcDbEntity
  8
0
100
AcDbVertex
100
AcDbPolygonMeshVertex
 10
0.0
 20
-0.719
 30
-2.01087
 70
    64
  0
VERTEX
  5
A8CFC
100
AcDbEntity
  8
0
100
AcDbVertex
100
AcDbPolygonMeshVertex
 10
0.232
 20
-0.719
 30
-1.703
 70
    64
  0
VERTEX
  5
A8CFD
100
AcDbEntity
  8
0
100
AcDbVertex
100
AcDbPolygonMeshVertex
 10
0.232
 20
-0.719
 30
-2.01087
 70
    64
  0
VERTEX
  5
A8CFE
100
AcDbEntity
  8
0
100
AcDbVertex
100
AcDbPolygonMeshVertex
 10
0.0
 20
-0.719
 30
-2.01087
 70
    64
  0
VERTEX
  5
A8CFF
100
AcDbEntity
  8
0
100
AcDbVertex
100
AcDbPolygonMeshVertex
 10
0.232
 20
-0.8155
 30
-1.703
 70
    64
  0
VERTEX
  5
A8D00
100
AcDbEntity
  8
0
100
AcDbVertex
100
AcDbPolygonMeshVertex
 10
0.232
 20
-0.8155
 30
-2.01087
 70
    64
  0
VERTEX
  5
A8D01
100
AcDbEntity
  8
0
100
AcDbVertex
100
AcDbPolygonMeshVertex
 10
0.0
 20
-0.8155
 30
-2.01087
 70
    64
  0
VERTEX
  5
A8D02
100
AcDbEntity
  8
0
100
AcDbVertex
100
AcDbPolygonMeshVertex
 10
0.232
 20
-0.8155
 30
-1.703
 70
    64
  0
VERTEX
  5
A8D03
100
AcDbEntity
  8
0
100
AcDbVertex
100
AcDbPolygonMeshVertex
 10
0.232
 20
-0.8155
 30
-1.703
 70
    64
  0
VERTEX
  5
A8D04
100
AcDbEntity
  8
0
100
AcDbVertex
100
AcDbPolygonMeshVertex
 10
0.0
 20
-0.8155
 30
-1.703
 70
    64
  0
VERTEX
  5
A8D05
100
AcDbEntity
  8
0
100
AcDbVertex
100
AcDbPolygonMeshVertex
 10
0.232
 20
-0.719
 30
-1.703
 70
    64
  0
VERTEX
  5
A8D06
100
AcDbEntity
  8
0
100
AcDbVertex
100
AcDbPolygonMeshVertex
 10
0.232
 20
-0.719
 30
-1.703
 70
    64
  0
VERTEX
  5
A8D07
100
AcDbEntity
  8
0
100
AcDbVertex
100
AcDbPolygonMeshVertex
 10
0.0
 20
-0.719
 30
-1.703
 70
    64
  0
SEQEND
  5
A8D08
100
AcDbEntity
  8
0
  0
POLYLINE
  5
A8D09
100
AcDbEntity
  8
0
100
AcDbPolygonMesh
 66
     1
 10
0.0
 20
0.0
 30
0.0
 70
    16
 71
     6
 72
     3
  0
VERTEX
  5
A8D0A
100
AcDbEntity
  8
0
100
AcDbVertex
100
AcDbPolygonMeshVertex
 10
0.0
 20
0.3825
 30
-1.703
 70
    64
  0
VERTEX
  5
A8D0B
100
AcDbEntity
  8
0
100
AcDbVertex
100
AcDbPolygonMeshVertex
 10
0.0
 20
0.3825
 30
-2.01087
 70
    64
  0
VERTEX
  5
A8D0C
100
AcDbEntity
  8
0
100
AcDbVertex
100
AcDbPolygonMeshVertex
 10
0.0
 20
0.3825
 30
-2.01087
 70
    64
  0
VERTEX
  5
A8D0D
100
AcDbEntity
  8
0
100
AcDbVertex
100
AcDbPolygonMeshVertex
 10
0.0
 20
0.479
 30
-1.703
 70
    64
  0
VERTEX
  5
A8D0E
100
AcDbEntity
  8
0
100
AcDbVertex
100
AcDbPolygonMeshVertex
 10
0.0
 20
0.479
 30
-2.01087
 70
    64
  0
VERTEX
  5
A8D0F
100
AcDbEntity
  8
0
100
AcDbVertex
100
AcDbPolygonMeshVertex
 10
0.0
 20
0.479
 30
-2.01087
 70
    64
  0
VERTEX
  5
A8D10
100
AcDbEntity
  8
0
100
AcDbVertex
100
AcDbPolygonMeshVertex
 10
0.232
 20
0.479
 30
-1.703
 70
    64
  0
VERTEX
  5
A8D11
100
AcDbEntity
  8
0
100
AcDbVertex
100
AcDbPolygonMeshVertex
 10
0.232
 20
0.479
 30
-2.01087
 70
    64
  0
VERTEX
  5
A8D12
100
AcDbEntity
  8
0
100
AcDbVertex
100
AcDbPolygonMeshVertex
 10
0.0
 20
0.479
 30
-2.01087
 70
    64
  0
VERTEX
  5
A8D13
100
AcDbEntity
  8
0
100
AcDbVertex
100
AcDbPolygonMeshVertex
 10
0.232
 20
0.3825
 30
-1.703
 70
    64
  0
VERTEX
  5
A8D14
100
AcDbEntity
  8
0
100
AcDbVertex
100
AcDbPolygonMeshVertex
 10
0.232
 20
0.3825
 30
-2.01087
 70
    64
  0
VERTEX
  5
A8D15
100
AcDbEntity
  8
0
100
AcDbVertex
100
AcDbPolygonMeshVertex
 10
0.0
 20
0.3825
 30
-2.01087
 70
    64
  0
VERTEX
  5
A8D16
100
AcDbEntity
  8
0
100
AcDbVertex
100
AcDbPolygonMeshVertex
 10
0.232
 20
0.3825
 30
-1.703
 70
    64
  0
VERTEX
  5
A8D17
100
AcDbEntity
  8
0
100
AcDbVertex
100
AcDbPolygonMeshVertex
 10
0.232
 20
0.3825
 30
-1.703
 70
    64
  0
VERTEX
  5
A8D18
100
AcDbEntity
  8
0
100
AcDbVertex
100
AcDbPolygonMeshVertex
 10
0.0
 20
0.3825
 30
-1.703
 70
    64
  0
VERTEX
  5
A8D19
100
AcDbEntity
  8
0
100
AcDbVertex
100
AcDbPolygonMeshVertex
 10
0.232
 20
0.479
 30
-1.703
 70
    64
  0
VERTEX
  5
A8D1A
100
AcDbEntity
  8
0
100
AcDbVertex
100
AcDbPolygonMeshVertex
 10
0.232
 20
0.479
 30
-1.703
 70
    64
  0
VERTEX
  5
A8D1B
100
AcDbEntity
  8
0
100
AcDbVertex
100
AcDbPolygonMeshVertex
 10
0.0
 20
0.479
 30
-1.703
 70
    64
  0
SEQEND
  5
A8D1C
100
AcDbEntity
  8
0
  0
LINE
  5
A8D1D
100
AcDbEntity
  8
0
100
AcDbLine
 10
-0.441
 20
-0.213
 30
0.0
 11
-0.178
 21
-0.213
 31
0.0
  0
LINE
  5
A8D1E
100
AcDbEntity
  8
0
100
AcDbLine
 10
-0.441
 20
0.213
 30
0.0
 11
-0.178
 21
0.213
 31
0.0
  0
LINE
  5
A8D1F
100
AcDbEntity
  8
0
100
AcDbLine
 10
-0.178
 20
-0.213
 30
0.0
 11
-0.178
 21
-0.139
 31
0.0
  0
LINE
  5
A8D20
100
AcDbEntity
  8
0
100
AcDbLine
 10
-0.178
 20
0.139
 30
0.0
 11
0.0
 21
0.139
 31
0.0
  0
LINE
  5
A8D21
100
AcDbEntity
  8
0
100
AcDbLine
 10
-0.178
 20
-0.139
 30
0.0
 11
0.0
 21
-0.139
 31
0.0
  0
LINE
  5
A8D22
100
AcDbEntity
  8
0
100
AcDbLine
 10
-0.178
 20
0.139
 30
0.0
 11
-0.178
 21
0.213
 31
0.0
  0
LINE
  5
A8D23
100
AcDbEntity
  8
0
100
AcDbLine
 10
-0.085
 20
-0.139
 30
0.0
 11
-0.085
 21
0.139
 31
0.0
  0
POLYLINE
  5
A8D24
100
AcDbEntity
  8
0
100
AcDbPolygonMesh
 66
     1
 10
0.0
 20
0.0
 30
0.0
 70
    16
 71
     6
 72
     3
  0
VERTEX
  5
A8D25
100
AcDbEntity
  8
0
100
AcDbVertex
100
AcDbPolygonMeshVertex
 10
0.0
 20
-0.142
 30
-0.262
 70
    64
  0
VERTEX
  5
A8D26
100
AcDbEntity
  8
0
100
AcDbVertex
100
AcDbPolygonMeshVertex
 10
0.0
 20
-0.142
 30
-0.55
 70
    64
  0
VERTEX
  5
A8D27
100
AcDbEntity
  8
0
100
AcDbVertex
100
AcDbPolygonMeshVertex
 10
0.0
 20
-0.142
 30
-0.55
 70
    64
  0
VERTEX
  5
A8D28
100
AcDbEntity
  8
0
100
AcDbVertex
100
AcDbPolygonMeshVertex
 10
0.0
 20
0.142
 30
-0.262
 70
    64
  0
VERTEX
  5
A8D29
100
AcDbEntity
  8
0
100
AcDbVertex
100
AcDbPolygonMeshVertex
 10
0.0
 20
0.142
 30
-0.55
 70
    64
  0
VERTEX
  5
A8D2A
100
AcDbEntity
  8
0
100
AcDbVertex
100
AcDbPolygonMeshVertex
 10
0.0
 20
0.142
 30
-0.55
 70
    64
  0
VERTEX
  5
A8D2B
100
AcDbEntity
  8
0
100
AcDbVertex
100
AcDbPolygonMeshVertex
 10
0.077
 20
0.142
 30
-0.262
 70
    64
  0
VERTEX
  5
A8D2C
100
AcDbEntity
  8
0
100
AcDbVertex
100
AcDbPolygonMeshVertex
 10
0.077
 20
0.142
 30
-0.55
 70
    64
  0
VERTEX
  5
A8D2D
100
AcDbEntity
  8
0
100
AcDbVertex
100
AcDbPolygonMeshVertex
 10
0.0
 20
0.142
 30
-0.55
 70
    64
  0
VERTEX
  5
A8D2E
100
AcDbEntity
  8
0
100
AcDbVertex
100
AcDbPolygonMeshVertex
 10
0.077
 20
-0.142
 30
-0.262
 70
    64
  0
VERTEX
  5
A8D2F
100
AcDbEntity
  8
0
100
AcDbVertex
100
AcDbPolygonMeshVertex
 10
0.077
 20
-0.142
 30
-0.55
 70
    64
  0
VERTEX
  5
A8D30
100
AcDbEntity
  8
0
100
AcDbVertex
100
AcDbPolygonMeshVertex
 10
0.0
 20
-0.142
 30
-0.55
 70
    64
  0
VERTEX
  5
A8D31
100
AcDbEntity
  8
0
100
AcDbVertex
100
AcDbPolygonMeshVertex
 10
0.077
 20
-0.142
 30
-0.262
 70
    64
  0
VERTEX
  5
A8D32
100
AcDbEntity
  8
0
100
AcDbVertex
100
AcDbPolygonMeshVertex
 10
0.077
 20
-0.142
 30
-0.262
 70
    64
  0
VERTEX
  5
A8D33
100
AcDbEntity
  8
0
100
AcDbVertex
100
AcDbPolygonMeshVertex
 10
0.0
 20
-0.142
 30
-0.262
 70
    64
  0
VERTEX
  5
A8D34
100
AcDbEntity
  8
0
100
AcDbVertex
100
AcDbPolygonMeshVertex
 10
0.077
 20
0.142
 30
-0.262
 70
    64
  0
VERTEX
  5
A8D35
100
AcDbEntity
  8
0
100
AcDbVertex
100
AcDbPolygonMeshVertex
 10
0.077
 20
0.142
 30
-0.262
 70
    64
  0
VERTEX
  5
A8D36
100
AcDbEntity
  8
0
100
AcDbVertex
100
AcDbPolygonMeshVertex
 10
0.0
 20
0.142
 30
-0.262
 70
    64
  0
SEQEND
  5
A8D37
100
AcDbEntity
  8
0
  0
LINE
  5
A8D38
100
AcDbEntity
  8
0
100
AcDbLine
 10
0.0
 20
0.139
 30
0.0
 11
0.0
 21
0.139
 31
-0.262
  0
LINE
  5
A8D39
100
AcDbEntity
  8
0
100
AcDbLine
 10
0.0
 20
-0.139
 30
0.0
 11
0.0
 21
-0.139
 31
-0.262
  0
LINE
  5
A8D3A
100
AcDbEntity
  8
0
100
AcDbLine
 10
0.0
 20
0.139
 30
-0.262
 11
0.0
 21
-0.139
 31
-0.262
  0
POINT
  5
A8D3B
100
AcDbEntity
  8
SNAP_POINTS
100
AcDbPoint
 10
0.0
 20
0.0
 30
0.0
  0
ATTDEF
  5
A8D3C
100
AcDbEntity
  8
ATTRIBUTES
100
AcDbText
 10
-0.406269
 20
0.196178
 30
0.0
 40
0.026478
  1
ALLEN-BRADLEY
100
AcDbAttributeDefinition
  3
MANUFACTURER NAME?
  2
AC_VND_LABEL
 70
     0
  0
ATTDEF
  5
A8D3D
100
AcDbEntity
  8
ATTRIBUTES
100
AcDbText
 10
-0.406269
 20
0.141015
 30
0.0
 40
0.026478
  1
800T-XAP
100
AcDbAttributeDefinition
  3
CATALOG NUMBER?
  2
AC_PART_NO
 70
     0
  0
ATTDEF
  5
A8D3E
100
AcDbEntity
  8
ATTRIBUTES
100
AcDbText
 10
-0.406269
 20
0.085853
 30
0.0
 40
0.026478
  1
NEMA 2 CIRCUIT SEALED SWITCH CONTACT BLOCK, 1 N.O. - 1 N.C.
100
AcDbAttributeDefinition
  3
PART DESCRIPTION?
  2
AC_DESCRIPTION
 70
     0
  0
ATTDEF
  5
A8D3F
100
AcDbEntity
  8
ATTRIBUTES
100
AcDbText
 10
-0.406269
 20
0.03069
 30
0.0
 40
0.026478
  1

100
AcDbAttributeDefinition
  3
DEVICE ID?
  2
DEVICE_ID
 70
     0
  0
ATTDEF
  5
A8D40
100
AcDbEntity
  8
ATTRIBUTES
100
AcDbText
 10
-0.406269
 20
-0.024472
 30
0.0
 40
0.026478
  1

100
AcDbAttributeDefinition
  3
CUSTOMER PART NUMBER?
  2
AC_CPART_NO
 70
     0
  0
ATTDEF
  5
A8D41
100
AcDbEntity
  8
ATTRIBUTES
100
AcDbText
 10
-0.406269
 20
-0.079634
 30
0.0
 40
0.026478
  1

100
AcDbAttributeDefinition
  3
CUSTOMER NOTE?
  2
AC_NOTE
 70
     0
  0
ATTDEF
  5
A8D42
100
AcDbEntity
  8
ATTRIBUTES
100
AcDbText
 10
-0.406269
 20
-0.134797
 30
0.0
 40
0.026478
  1

100
AcDbAttributeDefinition
  3
FASTENER DATA?
  2
FASTENER
 70
     0
  0
ATTDEF
  5
A8D43
100
AcDbEntity
  8
ATTRIBUTES
100
AcDbText
 10
-0.406269
 20
-0.189959
 30
0.0
 40
0.026478
  1

100
AcDbAttributeDefinition
  3
UNIT OF SCALE?
  2
AC_SCALE_UNIT
 70
     0
  0
ATTDEF
  5
A8D44
100
AcDbEntity
  8
ATTRIBUTES
100
AcDbText
 10
-0.406269
 20
-0.245122
 30
0.0
 40
0.026478
  1

100
AcDbAttributeDefinition
  3
VIEW CODE?
  2
AC_VIEW_CODE
 70
     0
  0
POINT
  5
A8D45
100
AcDbEntity
  8
SNAP_POINTS
100
AcDbPoint
 10
0.0
 20
0.0
 30
-1.983
  0
DIMENSION
  5
A8D46
100
AcDbEntity
  8
AREA1
100
AcDbDimension
  2
*D0
 10
-1.173195
 20
0.874
 30
0.0
 11
-1.173195
 21
-0.016244
 31
0.0
 70
   160
  3
ABECAD_3D
100
AcDbAlignedDimension
 13
-0.886
 23
-0.874
 33
0.0
 14
-0.886
 24
0.874
 34
0.0
 50
90.0
100
AcDbRotatedDimension
  0
DIMENSION
  5
A8D54
100
AcDbEntity
  8
AREA1
100
AcDbDimension
  2
*D1
 10
0.232
 20
1.080827
 30
0.0
 11
-0.3233
 21
1.267735
 31
0.0
 70
   160
  3
ABECAD_3D
100
AcDbAlignedDimension
 13
-0.886
 23
0.874
 33
0.0
 14
0.232
 24
0.479
 34
-1.703
100
AcDbRotatedDimension
  0
LWPOLYLINE
  5
A8D79
100
AcDbEntity
  8
SCALE
100
AcDbPolyline
 90
        4
 70
     1
 43
0.0
 10
0.419799
 20
0.006271
 10
1.555428
 20
0.006271
 10
1.555428
 20
-0.835338
 10
0.419799
 20
-0.835338
  0
LINE
  5
A8D7A
100
AcDbEntity
  8
SCALE
100
AcDbLine
 10
0.477797
 20
-0.373807
 30
0.0
 11
1.477797
 21
-0.373807
 31
0.0
  0
LINE
  5
A8D7B
100
AcDbEntity
  8
SCALE
100
AcDbLine
 10
0.477797
 20
-0.673807
 30
0.0
 11
0.871497
 21
-0.673807
 31
0.0
  0
LINE
  5
A8D7C
100
AcDbEntity
  8
SCALE
100
AcDbLine
 10
0.477797
 20
-0.473807
 30
0.0
 11
0.477797
 21
-0.273807
 31
0.0
  0
TEXT
  5
A8D7D
100
AcDbEntity
  8
SCALE
100
AcDbText
 10
0.533773
 20
-0.626122
 30
0.0
 40
0.0625
  1
[10mm]
100
AcDbText
  0
LINE
  5
A8D7E
100
AcDbEntity
  8
SCALE
100
AcDbLine
 10
0.477797
 20
-0.773807
 30
0.0
 11
0.477797
 21
-0.573807
 31
0.0
  0
TEXT
  5
A8D7F
100
AcDbEntity
  8
SCALE
100
AcDbText
 10
0.479328
 20
-0.09893
 30
0.0
 40
0.0625
  1
SCALE:
100
AcDbText
  0
LINE
  5
A8D80
100
AcDbEntity
  8
SCALE
100
AcDbLine
 10
0.871497
 20
-0.773807
 30
0.0
 11
0.871497
 21
-0.573807
 31
0.0
  0
TEXT
  5
A8D81
100
AcDbEntity
  8
SCALE
100
AcDbText
 10
0.84108
 20
-0.304759
 30
0.0
 40
0.0625
  1
1 Inch
100
AcDbText
  0
LINE
  5
A8D82
100
AcDbEntity
  8
SCALE
100
AcDbLine
 10
1.477797
 20
-0.373807
 30
0.0
 11
1.477797
 21
-0.473807
 31
0.0
  0
LINE
  5
A8D83
100
AcDbEntity
  8
SCALE
100
AcDbLine
 10
1.477797
 20
-0.473807
 30
0.0
 11
1.477797
 21
-0.273807
 31
0.0
  0
VIEWPORT
  5
5677D
102
{ACAD_XDICTIONARY
360
A8E51
102
}
100
AcDbEntity
 67
     1
  8
0
100
AcDbViewport
 10
5.25
 20
4.0
 30
0.0
 40
16.386862
 41
8.993
 68
    -1
 69
     1
1001
ACAD
1000
MVIEW
1002
{
1070
    16
1010
0.0
1020
0.0
1030
0.0
1010
0.0
1020
0.0
1030
1.0
1040
0.0
1040
8.993
1040
5.25
1040
4.0
1040
50.0
1040
0.0
1040
0.0
1070
     0
1070
 20000
1070
     1
1070
     1
1070
     0
1070
     0
1070
     0
1070
     0
1040
0.0
1040
0.0
1040
0.0
1040
0.5
1040
0.5
1040
0.5
1040
0.5
1070
     0
1002
{
1002
}
1002
}
  0
VIEWPORT
  5
5677F
102
{ACAD_XDICTIONARY
360
A8E53
102
}
100
AcDbEntity
 67
     1
  8
AREA1
100
AcDbViewport
 10
5.25
 20
4.0
 30
0.0
 40
8.4
 41
6.4
 68
     1
 69
     2
1001
ACAD
1000
MVIEW
1002
{
1070
    16
1010
0.563444
1020
-0.880137
1030
1.686493
1010
0.0
1020
0.0
1030
1.0
1040
0.0
1040
4.582914
1040
-1.017175
1040
0.747813
1040
50.0
1040
0.0
1040
0.0
1070
     0
1070
 20000
1070
     1
1070
     1
1070
     0
1070
     0
1070
     0
1070
     0
1040
0.0
1040
0.0
1040
0.0
1040
0.25
1040
0.25
1040
0.25
1040
0.25
1070
     0
1002
{
1002
}
1002
}
  0
ENDSEC
  0
SECTION
  2
OBJECTS
  0
DICTIONARY
  5
458CB
100
AcDbDictionary
  3
ACAD_GROUP
350
458CC
  3
ACAD_LAYOUT
350
458FB
  3
ACAD_MLINESTYLE
350
458D9
  3
ACAD_PLOTSETTINGS
350
458FC
  3
ACAD_PLOTSTYLENAME
350
458F9
  3
ACDBHEADERROUNDTRIPXREC
350
A8E28
  3
ACDBVARIABLEDICTIONARY
350
458E1
  3
DWGPROPS
350
45901
  0
DICTIONARY
  5
A8E26
100
AcDbDictionary
280
     1
  3
ACAD_XREC_ROUNDTRIP
360
A8E27
  0
DICTIONARY
  5
A8E4F
100
AcDbDictionary
280
     1
  3
ACAD_XREC_ROUNDTRIP
360
A8E50
  0
DICTIONARY
  5
A8E24
100
AcDbDictionary
280
     1
  3
ACAD_XREC_ROUNDTRIP
360
A8E25
  0
DICTIONARY
  5
A8E4B
100
AcDbDictionary
280
     1
  3
ACAD_XREC_ROUNDTRIP
360
A8E4C
  0
DICTIONARY
  5
4592C
100
AcDbDictionary
280
     1
  3
ACAD_LAYOUTSELFREF
360
A8E4A
  0
DICTIONARY
  5
4592A
100
AcDbDictionary
280
     1
  3
ACAD_LAYOUTSELFREF
360
A8E49
  0
DICTIONARY
  5
A8E51
100
AcDbDictionary
280
     1
  3
ACAD_XREC_ROUNDTRIP
360
A8E52
  0
DICTIONARY
  5
A8E53
100
AcDbDictionary
280
     1
  3
ACAD_XREC_ROUNDTRIP
360
A8E54
  0
DICTIONARY
  5
458CC
102
{ACAD_REACTORS
330
458CB
102
}
100
AcDbDictionary
  0
DICTIONARY
  5
458FB
102
{ACAD_XDICTIONARY
360
A8E4D
102
}
102
{ACAD_REACTORS
330
458CB
102
}
100
AcDbDictionary
  3
LAYOUT1
350
458FE
  3
MODEL
350
458FD
  0
DICTIONARY
  5
458D9
102
{ACAD_REACTORS
330
458CB
102
}
100
AcDbDictionary
  3
STANDARD
350
458DA
  0
DICTIONARY
  5
458FC
102
{ACAD_REACTORS
330
458CB
102
}
100
AcDbDictionary
  0
ACAD_PROXY_OBJECT
  5
458F9
102
{ACAD_REACTORS
330
458CB
102
}
100
AcDbProxyObject
 90
      499
 91
      501
 93
       86
310
405010041939BDC9B585B0
350
458FA
340
458FA
 94
        0
  0
DICTIONARY
  5
A8E28
102
{ACAD_REACTORS
330
458CB
102
}
100
AcDbDictionary
  3
CEPSNTYPE
350
A8E32
  3
DIMSTYLEDATA
350
A8E36
  3
FINGERPRINTGUID
350
A8E33
  3
HYPERLINKBASE
350
A8E2B
  3
INSUNITS
350
A8E31
  3
LAYOUTDICT
350
A8E2D
  3
LWETCUNION
350
A8E30
  3
PLOTSETDICT
350
A8E2E
  3
PLOTSTYLNAMDICT
350
A8E2F
  3
PSVPSCALE
350
A8E35
  3
PUCSBASE
350
A8E39
  3
PUCSORGBACK
350
A8E3F
  3
PUCSORGBOTTOM
350
A8E3B
  3
PUCSORGFRONT
350
A8E3E
  3
PUCSORGLEFT
350
A8E3C
  3
PUCSORGRIGHT
350
A8E3D
  3
PUCSORGTOP
350
A8E3A
  3
PUCSORTHOREF
350
A8E37
  3
PUCSORTHOVIEW
350
A8E38
  3
STYLESHEET
350
A8E2C
  3
TSTACKALIGN
350
A8E29
  3
TSTACKSIZE
350
A8E2A
  3
UCSBASE
350
A8E42
  3
UCSORGBACK
350
A8E48
  3
UCSORGBOTTOM
350
A8E44
  3
UCSORGFRONT
350
A8E47
  3
UCSORGLEFT
350
A8E45
  3
UCSORGRIGHT
350
A8E46
  3
UCSORGTOP
350
A8E43
  3
UCSORTHOREF
350
A8E40
  3
UCSORTHOVIEW
350
A8E41
  3
VERSIONGUID
350
A8E34
  0
DICTIONARY
  5
458E1
102
{ACAD_REACTORS
330
458CB
102
}
100
AcDbDictionary
  3
DIMADEC
350
458E2
  0
XRECORD
  5
45901
102
{ACAD_REACTORS
330
458CB
102
}
100
AcDbXrecord
  1
DWGPROPS COOKIE
  2

  3

  4

  6

  7

  8
colin
  9

300
=
301
=
302
=
303
=
304
=
305
=
306
=
307
=
308
=
309
=
 40
0.000599
 41
2451670.444777
 42
2451670.445376
  1

 90
        0
  0
XRECORD
  5
A8E27
102
{ACAD_REACTORS
330
A8E26
102
}
100
AcDbXrecord
102
EXTNAMES
  1
*ACTIVE
  2
*Active
102
UCS
 74
     0
 71
     1
 10
0.0
 20
0.0
 30
0.0
 10
1.0
 20
0.0
 30
0.0
 10
0.0
 20
1.0
 30
0.0
146
0.0
 79
     1
102
VIEW
281
     1
  0
XRECORD
  5
A8E50
102
{ACAD_REACTORS
330
A8E4F
102
}
100
AcDbXrecord
102
PLOTBIT
280
     0
  0
XRECORD
  5
A8E25
102
{ACAD_REACTORS
330
A8E24
102
}
100
AcDbXrecord
102
EXTNAMES
  1
DEFPOINTS
  2
Defpoints
102
PLOTBIT
280
     0
  0
XRECORD
  5
A8E4C
102
{ACAD_REACTORS
330
A8E4B
102
}
100
AcDbXrecord
102
ACADR14ROUNDTRIP
1000
DSTYLE
1002
{
1070
   276
 70
     2
1070
   277
 70
     5
1070
   279
 70
     2
1070
   289
 70
     2
1002
}
  0
XRECORD
  5
A8E4A
102
{ACAD_REACTORS
330
4592C
102
}
100
AcDbXrecord
340
458D6
  0
XRECORD
  5
A8E49
102
{ACAD_REACTORS
330
4592A
102
}
100
AcDbXrecord
340
458D3
  0
XRECORD
  5
A8E52
102
{ACAD_REACTORS
330
A8E51
102
}
100
AcDbXrecord
102
UCS
 74
     0
 71
     1
 10
0.0
 20
0.0
 30
0.0
 10
1.0
 20
0.0
 30
0.0
 10
0.0
 20
1.0
 30
0.0
146
0.0
 79
     0
102
VIEW
281
     0
102
NEWVIEWCONTROL
280
     4
  0
XRECORD
  5
A8E54
102
{ACAD_REACTORS
330
A8E53
102
}
100
AcDbXrecord
102
UCS
 74
     0
 71
     1
 10
0.0
 20
0.0
 30
0.0
 10
1.0
 20
0.0
 30
0.0
 10
0.0
 20
1.0
 30
0.0
146
0.0
 79
     1
102
VIEW
281
     1
102
NEWVIEWCONTROL
280
     4
  0
DICTIONARY
  5
A8E4D
100
AcDbDictionary
280
     1
  3
ACAD_XREC_ROUNDTRIP
360
A8E4E
  0
ACAD_PROXY_OBJECT
  5
458FE
102
{ACAD_REACTORS
330
458FB
102
}
100
AcDbProxyObject
 90
      499
 91
      503
 93
     1700
310
90B6E6F6E655F6465766963652C0080000006066661940000000181999865000000000068661940000000001A1986500000000C0CCFC6A4000000018199D9C5011C4C65747465725F28382E35305F785F31312E30305F496E6368657329A901416AA547D11959985D5B1D08148C4D081C195B88185CDCDA59DB9B595B9D1CC
310
B98DD1891069074C61796F75743140501A840201008040342FEFF7FBFDFFFFF3EFDFAFF7FBFFDFC9501008043E3FDFC8102A6A6A0000003033333C0FC000000809999E93F8FFFFFF5766E622403FFFFFEBF333071020
330
458D3
330
5677D
340
0
340
0
 94
        0
  0
ACAD_PROXY_OBJECT
  5
458FD
102
{ACAD_REACTORS
330
458FB
102
}
100
AcDbProxyObject
 90
      499
 91
      503
 93
      924
310
91D4850204C617365724A65742035303030205365726965732050434C20362C01AAAAAAAAA547D11959985D5B1D08148C4D081C195B88185CDCDA59DB9B595B9D1CCB98DD18A69054D6F64656C901A800000000000000000000000000000000000000000000A1000000000000008902A6A6AAAA0
330
458D6
330
0
340
0
340
0
 94
        0
  0
MLINESTYLE
  5
458DA
102
{ACAD_REACTORS
330
458D9
102
}
100
AcDbMlineStyle
  2
STANDARD
 70
     0
  3

 62
   256
 51
90.0
 52
90.0
 71
     2
 49
0.5
 62
   256
  6
BYLAYER
 49
-0.5
 62
   256
  6
BYLAYER
  0
ACAD_PROXY_OBJECT
  5
458FA
102
{ACAD_REACTORS
330
458F9
102
}
100
AcDbProxyObject
 90
      499
 91
      502
 93
        0
 94
        0
  0
XRECORD
  5
A8E32
102
{ACAD_REACTORS
330
A8E28
102
}
100
AcDbXrecord
 90
        0
  0
XRECORD
  5
A8E36
102
{ACAD_REACTORS
330
A8E28
102
}
100
AcDbXrecord
1000
DSTYLE
1002
{
1070
   276
 70
     2
1070
   277
 70
     5
1070
   279
 70
     2
1070
   289
 70
     2
1002
}
  0
XRECORD
  5
A8E33
102
{ACAD_REACTORS
330
A8E28
102
}
100
AcDbXrecord
  1
{6E0CF4B8-225E-11D4-A150-00A0CC3303EC}
  0
XRECORD
  5
A8E2B
102
{ACAD_REACTORS
330
A8E28
102
}
100
AcDbXrecord
  1

  0
XRECORD
  5
A8E31
102
{ACAD_REACTORS
330
A8E28
102
}
100
AcDbXrecord
 90
        0
  0
XRECORD
  5
A8E2D
102
{ACAD_REACTORS
330
A8E28
102
}
100
AcDbXrecord
340
458FB
  0
XRECORD
  5
A8E30
102
{ACAD_REACTORS
330
A8E28
102
}
100
AcDbXrecord
 90
    14877
  0
XRECORD
  5
A8E2E
102
{ACAD_REACTORS
330
A8E28
102
}
100
AcDbXrecord
340
458FC
  0
XRECORD
  5
A8E2F
102
{ACAD_REACTORS
330
A8E28
102
}
100
AcDbXrecord
340
458F9
  0
XRECORD
  5
A8E35
102
{ACAD_REACTORS
330
A8E28
102
}
100
AcDbXrecord
 40
0.0
  0
XRECORD
  5
A8E39
102
{ACAD_REACTORS
330
A8E28
102
}
100
AcDbXrecord
340
0
  0
XRECORD
  5
A8E3F
102
{ACAD_REACTORS
330
A8E28
102
}
100
AcDbXrecord
 10
0.0
 20
0.0
 30
0.0
  0
XRECORD
  5
A8E3B
102
{ACAD_REACTORS
330
A8E28
102
}
100
AcDbXrecord
 10
0.0
 20
0.0
 30
0.0
  0
XRECORD
  5
A8E3E
102
{ACAD_REACTORS
330
A8E28
102
}
100
AcDbXrecord
 10
0.0
 20
0.0
 30
0.0
  0
XRECORD
  5
A8E3C
102
{ACAD_REACTORS
330
A8E28
102
}
100
AcDbXrecord
 10
0.0
 20
0.0
 30
0.0
  0
XRECORD
  5
A8E3D
102
{ACAD_REACTORS
330
A8E28
102
}
100
AcDbXrecord
 10
0.0
 20
0.0
 30
0.0
  0
XRECORD
  5
A8E3A
102
{ACAD_REACTORS
330
A8E28
102
}
100
AcDbXrecord
 10
0.0
 20
0.0
 30
0.0
  0
XRECORD
  5
A8E37
102
{ACAD_REACTORS
330
A8E28
102
}
100
AcDbXrecord
340
0
  0
XRECORD
  5
A8E38
102
{ACAD_REACTORS
330
A8E28
102
}
100
AcDbXrecord
 70
     0
  0
XRECORD
  5
A8E2C
102
{ACAD_REACTORS
330
A8E28
102
}
100
AcDbXrecord
  1

  0
XRECORD
  5
A8E29
102
{ACAD_REACTORS
330
A8E28
102
}
100
AcDbXrecord
 90
        1
  0
XRECORD
  5
A8E2A
102
{ACAD_REACTORS
330
A8E28
102
}
100
AcDbXrecord
 90
       70
  0
XRECORD
  5
A8E42
102
{ACAD_REACTORS
330
A8E28
102
}
100
AcDbXrecord
340
0
  0
XRECORD
  5
A8E48
102
{ACAD_REACTORS
330
A8E28
102
}
100
AcDbXrecord
 10
0.0
 20
0.0
 30
0.0
  0
XRECORD
  5
A8E44
102
{ACAD_REACTORS
330
A8E28
102
}
100
AcDbXrecord
 10
0.0
 20
0.0
 30
0.0
  0
XRECORD
  5
A8E47
102
{ACAD_REACTORS
330
A8E28
102
}
100
AcDbXrecord
 10
0.0
 20
0.0
 30
0.0
  0
XRECORD
  5
A8E45
102
{ACAD_REACTORS
330
A8E28
102
}
100
AcDbXrecord
 10
0.0
 20
0.0
 30
0.0
  0
XRECORD
  5
A8E46
102
{ACAD_REACTORS
330
A8E28
102
}
100
AcDbXrecord
 10
0.0
 20
0.0
 30
0.0
  0
XRECORD
  5
A8E43
102
{ACAD_REACTORS
330
A8E28
102
}
100
AcDbXrecord
 10
0.0
 20
0.0
 30
0.0
  0
XRECORD
  5
A8E40
102
{ACAD_REACTORS
330
A8E28
102
}
100
AcDbXrecord
340
0
  0
XRECORD
  5
A8E41
102
{ACAD_REACTORS
330
A8E28
102
}
100
AcDbXrecord
 70
     1
  0
XRECORD
  5
A8E34
102
{ACAD_REACTORS
330
A8E28
102
}
100
AcDbXrecord
  1
{8495CD38-BBEF-42D1-A20D-6103071D2186}
  0
DICTIONARYVAR
  5
458E2
102
{ACAD_REACTORS
330
458E1
102
}
100
DictionaryVariables
280
     0
  1
0
  0
XRECORD
  5
A8E4E
102
{ACAD_REACTORS
330
A8E4D
102
}
100
AcDbXrecord
102
EXTNAMES
  1
LAYOUT1
  2
Layout1
  1
MODEL
  2
Model
  0
ENDSEC
  0
EOF
