  0
SECTION
  2
HEADER
  9
$ACADVER
  1
AC1014
  9
$ACADMAINTVER
 70
     8
  9
$DWGCODEPAGE
  3
ANSI_1252
  9
$INSBASE
 10
0.0
 20
0.0
 30
0.0
  9
$EXTMIN
 10
-1.456602
 20
-0.8975
 30
-1.57
  9
$EXTMAX
 10
1.499989
 20
1.410854
 30
0.0
  9
$LIMMIN
 10
0.0
 20
0.0
  9
$LIMMAX
 10
12.0
 20
9.0
  9
$ORTHOMODE
 70
     0
  9
$REGENMODE
 70
     1
  9
$FILLMODE
 70
     1
  9
$QTEXTMODE
 70
     0
  9
$MIRRTEXT
 70
     1
  9
$DRAGMODE
 70
     2
  9
$LTSCALE
 40
1.0
  9
$OSMODE
 70
    23
  9
$ATTMODE
 70
     0
  9
$TEXTSIZE
 40
0.2
  9
$TRACEWID
 40
0.05
  9
$TEXTSTYLE
  7
STANDARD
  9
$CLAYER
  8
0
  9
$CELTYPE
  6
BYLAYER
  9
$CECOLOR
 62
   256
  9
$CELTSCALE
 40
1.0
  9
$DELOBJ
 70
     1
  9
$DISPSILH
 70
     0
  9
$DIMSCALE
 40
0.0
  9
$DIMASZ
 40
0.125
  9
$DIMEXO
 40
0.0625
  9
$DIMDLI
 40
0.375
  9
$DIMRND
 40
0.0
  9
$DIMDLE
 40
0.0
  9
$DIMEXE
 40
0.0625
  9
$DIMTP
 40
0.0
  9
$DIMTM
 40
0.0
  9
$DIMTXT
 40
0.125
  9
$DIMCEN
 40
0.09
  9
$DIMTSZ
 40
0.0
  9
$DIMTOL
 70
     0
  9
$DIMLIM
 70
     0
  9
$DIMTIH
 70
     0
  9
$DIMTOH
 70
     1
  9
$DIMSE1
 70
     0
  9
$DIMSE2
 70
     0
  9
$DIMTAD
 70
     0
  9
$DIMZIN
 70
     4
  9
$DIMBLK
  1

  9
$DIMASO
 70
     1
  9
$DIMSHO
 70
     1
  9
$DIMPOST
  1

  9
$DIMAPOST
  1

  9
$DIMALT
 70
     1
  9
$DIMALTD
 70
     2
  9
$DIMALTF
 40
25.4
  9
$DIMLFAC
 40
1.0
  9
$DIMTOFL
 70
     0
  9
$DIMTVP
 40
0.0
  9
$DIMTIX
 70
     0
  9
$DIMSOXD
 70
     0
  9
$DIMSAH
 70
     0
  9
$DIMBLK1
  1

  9
$DIMBLK2
  1

  9
$DIMSTYLE
  2
ABECAD_3V
  9
$DIMCLRD
 70
     0
  9
$DIMCLRE
 70
     0
  9
$DIMCLRT
 70
     0
  9
$DIMTFAC
 40
1.5
  9
$DIMGAP
 40
0.09
  9
$DIMJUST
 70
     0
  9
$DIMSD1
 70
     0
  9
$DIMSD2
 70
     0
  9
$DIMTOLJ
 70
     1
  9
$DIMTZIN
 70
     4
  9
$DIMALTZ
 70
     4
  9
$DIMALTTZ
 70
     4
  9
$DIMFIT
 70
     5
  9
$DIMUPT
 70
     1
  9
$DIMUNIT
 70
     7
  9
$DIMDEC
 70
     6
  9
$DIMTDEC
 70
     6
  9
$DIMALTU
 70
     2
  9
$DIMALTTD
 70
     2
  9
$DIMTXSTY
  7
STANDARD
  9
$DIMAUNIT
 70
     0
  9
$LUNITS
 70
     2
  9
$LUPREC
 70
     6
  9
$SKETCHINC
 40
0.1
  9
$FILLETRAD
 40
0.0
  9
$AUNITS
 70
     0
  9
$AUPREC
 70
     0
  9
$MENU
  1
acad
  9
$ELEVATION
 40
0.0
  9
$PELEVATION
 40
0.0
  9
$THICKNESS
 40
0.0
  9
$LIMCHECK
 70
     0
  9
$BLIPMODE
 70
     0
  9
$CHAMFERA
 40
0.0
  9
$CHAMFERB
 40
0.0
  9
$CHAMFERC
 40
0.0
  9
$CHAMFERD
 40
0.0
  9
$SKPOLY
 70
     0
  9
$TDCREATE
 40
2451726.438362384
  9
$TDUPDATE
 40
2452577.378221759
  9
$TDINDWG
 40
1.4179215278
  9
$TDUSRTIMER
 40
1.4179215278
  9
$USRTIMER
 70
     1
  9
$ANGBASE
 50
0.0
  9
$ANGDIR
 70
     0
  9
$PDMODE
 70
     3
  9
$PDSIZE
 40
0.18
  9
$PLINEWID
 40
0.0
  9
$COORDS
 70
     1
  9
$SPLFRAME
 70
     0
  9
$SPLINETYPE
 70
     6
  9
$SPLINESEGS
 70
     8
  9
$ATTDIA
 70
     0
  9
$ATTREQ
 70
     1
  9
$HANDLING
 70
     1
  9
$HANDSEED
  5
6C36E
  9
$SURFTAB1
 70
     6
  9
$SURFTAB2
 70
     6
  9
$SURFTYPE
 70
     6
  9
$SURFU
 70
     6
  9
$SURFV
 70
     6
  9
$UCSNAME
  2

  9
$UCSORG
 10
0.0
 20
0.0
 30
0.0
  9
$UCSXDIR
 10
1.0
 20
0.0
 30
0.0
  9
$UCSYDIR
 10
0.0
 20
0.0
 30
1.0
  9
$PUCSNAME
  2

  9
$PUCSORG
 10
0.0
 20
0.0
 30
0.0
  9
$PUCSXDIR
 10
1.0
 20
0.0
 30
0.0
  9
$PUCSYDIR
 10
0.0
 20
1.0
 30
0.0
  9
$USERI1
 70
     0
  9
$USERI2
 70
     0
  9
$USERI3
 70
     0
  9
$USERI4
 70
     0
  9
$USERI5
 70
     0
  9
$USERR1
 40
0.0
  9
$USERR2
 40
0.0
  9
$USERR3
 40
0.0
  9
$USERR4
 40
0.0
  9
$USERR5
 40
0.0
  9
$WORLDVIEW
 70
     1
  9
$SHADEDGE
 70
     3
  9
$SHADEDIF
 70
    70
  9
$TILEMODE
 70
     0
  9
$MAXACTVP
 70
    16
  9
$PINSBASE
 10
0.0
 20
0.0
 30
0.0
  9
$PLIMCHECK
 70
     0
  9
$PEXTMIN
 10
0.0
 20
0.0
 30
0.0
  9
$PEXTMAX
 10
10.0
 20
7.5
 30
0.0
  9
$PLIMMIN
 10
-0.187029
 20
-0.186938
  9
$PLIMMAX
 10
10.187518
 20
7.829757
  9
$UNITMODE
 70
     0
  9
$VISRETAIN
 70
     0
  9
$PLINEGEN
 70
     0
  9
$PSLTSCALE
 70
     1
  9
$TREEDEPTH
 70
  3020
  9
$PICKSTYLE
 70
     1
  9
$CMLSTYLE
  2
STANDARD
  9
$CMLJUST
 70
     0
  9
$CMLSCALE
 40
1.0
  9
$PROXYGRAPHICS
 70
     1
  9
$MEASUREMENT
 70
     0
  0
ENDSEC
  0
SECTION
  2
CLASSES
  0
CLASS
  1
DICTIONARYVAR
  2
AcDbDictionaryVar
  3
"AutoCAD"
 90
        0
280
     0
281
     0
  0
CLASS
  1
ACDBDICTIONARYWDFLT
  2
AcDbDictionaryWithDefault
  3
AutoCAD 2000
 90
        0
280
     0
281
     0
  0
CLASS
  1
ACDBPLACEHOLDER
  2
AcDbPlaceHolder
  3
AutoCAD 2000
 90
        0
280
     0
281
     0
  0
CLASS
  1
LAYOUT
  2
AcDbLayout
  3
AutoCAD 2000
 90
        0
280
     0
281
     0
  0
CLASS
  1
LONG_TRANSACTION
  2
AcDbLongTransaction
  3
AutoCAD 2000
 90
        0
280
     0
281
     0
  0
CLASS
  1
LWPOLYLINE
  2
AcDbPolyline
  3
"AutoCAD"
 90
        0
280
     0
281
     1
  0
CLASS
  1
HATCH
  2
AcDbHatch
  3
"ACAD_SEDONA"
 90
        0
280
     0
281
     1
  0
CLASS
  1
XRECORD
  2
AcDbXrecord
  3
"<Built In>"
 90
        0
280
     0
281
     0
  0
CLASS
  1
LONG_TRANSACTION
  2
AcDbLongTransaction
  3
AutoCAD 2000
 90
        0
280
     0
281
     0
  0
CLASS
  1
LWPOLYLINE
  2
AcDbPolyline
  3
"AutoCAD"
 90
        0
280
     0
281
     1
  0
CLASS
  1
HATCH
  2
AcDbHatch
  3
"ACAD_SEDONA"
 90
        0
280
     0
281
     1
  0
CLASS
  1
XRECORD
  2
AcDbXrecord
  3
"<Built In>"
 90
        0
280
     0
281
     0
  0
CLASS
  1
LONG_TRANSACTION
  2
AcDbLongTransaction
  3
AutoCAD 2000
 90
        0
280
     0
281
     0
  0
CLASS
  1
LWPOLYLINE
  2
AcDbPolyline
  3
"AutoCAD"
 90
        0
280
     0
281
     1
  0
CLASS
  1
HATCH
  2
AcDbHatch
  3
"ACAD_SEDONA"
 90
        0
280
     0
281
     1
  0
CLASS
  1
XRECORD
  2
AcDbXrecord
  3
"<Built In>"
 90
        0
280
     0
281
     0
  0
CLASS
  1
LONG_TRANSACTION
  2
AcDbLongTransaction
  3
AutoCAD 2000
 90
        0
280
     0
281
     0
  0
CLASS
  1
LWPOLYLINE
  2
AcDbPolyline
  3
"AutoCAD"
 90
        0
280
     0
281
     1
  0
CLASS
  1
HATCH
  2
AcDbHatch
  3
"ACAD_SEDONA"
 90
        0
280
     0
281
     1
  0
CLASS
  1
XRECORD
  2
AcDbXrecord
  3
"<Built In>"
 90
        0
280
     0
281
     0
  0
CLASS
  1
LONG_TRANSACTION
  2
AcDbLongTransaction
  3
AutoCAD 2000
 90
        0
280
     0
281
     0
  0
CLASS
  1
LWPOLYLINE
  2
AcDbPolyline
  3
"AutoCAD"
 90
        0
280
     0
281
     1
  0
CLASS
  1
HATCH
  2
AcDbHatch
  3
"ACAD_SEDONA"
 90
        0
280
     0
281
     1
  0
CLASS
  1
XRECORD
  2
AcDbXrecord
  3
"<Built In>"
 90
        0
280
     0
281
     0
  0
CLASS
  1
LONG_TRANSACTION
  2
AcDbLongTransaction
  3
AutoCAD 2000
 90
        0
280
     0
281
     0
  0
CLASS
  1
LWPOLYLINE
  2
AcDbPolyline
  3
"AutoCAD"
 90
        0
280
     0
281
     1
  0
CLASS
  1
HATCH
  2
AcDbHatch
  3
"ACAD_SEDONA"
 90
        0
280
     0
281
     1
  0
CLASS
  1
XRECORD
  2
AcDbXrecord
  3
"<Built In>"
 90
        0
280
     0
281
     0
  0
CLASS
  1
LONG_TRANSACTION
  2
AcDbLongTransaction
  3
AutoCAD 2000
 90
        0
280
     0
281
     0
  0
CLASS
  1
LWPOLYLINE
  2
AcDbPolyline
  3
"AutoCAD"
 90
        0
280
     0
281
     1
  0
CLASS
  1
HATCH
  2
AcDbHatch
  3
"ACAD_SEDONA"
 90
        0
280
     0
281
     1
  0
CLASS
  1
XRECORD
  2
AcDbXrecord
  3
"<Built In>"
 90
        0
280
     0
281
     0
  0
CLASS
  1
LONG_TRANSACTION
  2
AcDbLongTransaction
  3
AutoCAD 2000
 90
        0
280
     0
281
     0
  0
CLASS
  1
LWPOLYLINE
  2
AcDbPolyline
  3
"AutoCAD"
 90
        0
280
     0
281
     1
  0
CLASS
  1
HATCH
  2
AcDbHatch
  3
"ACAD_SEDONA"
 90
        0
280
     0
281
     1
  0
CLASS
  1
XRECORD
  2
AcDbXrecord
  3
"<Built In>"
 90
        0
280
     0
281
     0
  0
CLASS
  1
LONG_TRANSACTION
  2
AcDbLongTransaction
  3
AutoCAD 2000
 90
        0
280
     0
281
     0
  0
CLASS
  1
LWPOLYLINE
  2
AcDbPolyline
  3
"AutoCAD"
 90
        0
280
     0
281
     1
  0
CLASS
  1
HATCH
  2
AcDbHatch
  3
"ACAD_SEDONA"
 90
        0
280
     0
281
     1
  0
CLASS
  1
XRECORD
  2
AcDbXrecord
  3
"<Built In>"
 90
        0
280
     0
281
     0
  0
CLASS
  1
LONG_TRANSACTION
  2
AcDbLongTransaction
  3
AutoCAD 2000
 90
        0
280
     0
281
     0
  0
CLASS
  1
LWPOLYLINE
  2
AcDbPolyline
  3
"AutoCAD"
 90
        0
280
     0
281
     1
  0
CLASS
  1
HATCH
  2
AcDbHatch
  3
"ACAD_SEDONA"
 90
        0
280
     0
281
     1
  0
CLASS
  1
XRECORD
  2
AcDbXrecord
  3
"<Built In>"
 90
        0
280
     0
281
     0
  0
CLASS
  1
LONG_TRANSACTION
  2
AcDbLongTransaction
  3
AutoCAD 2000
 90
        0
280
     0
281
     0
  0
CLASS
  1
LWPOLYLINE
  2
AcDbPolyline
  3
"AutoCAD"
 90
        0
280
     0
281
     1
  0
CLASS
  1
HATCH
  2
AcDbHatch
  3
"ACAD_SEDONA"
 90
        0
280
     0
281
     1
  0
CLASS
  1
XRECORD
  2
AcDbXrecord
  3
"<Built In>"
 90
        0
280
     0
281
     0
  0
CLASS
  1
LONG_TRANSACTION
  2
AcDbLongTransaction
  3
AutoCAD 2000
 90
        0
280
     0
281
     0
  0
CLASS
  1
LWPOLYLINE
  2
AcDbPolyline
  3
"AutoCAD"
 90
        0
280
     0
281
     1
  0
CLASS
  1
HATCH
  2
AcDbHatch
  3
"ACAD_SEDONA"
 90
        0
280
     0
281
     1
  0
CLASS
  1
XRECORD
  2
AcDbXrecord
  3
"<Built In>"
 90
        0
280
     0
281
     0
  0
CLASS
  1
LONG_TRANSACTION
  2
AcDbLongTransaction
  3
AutoCAD 2000
 90
        0
280
     0
281
     0
  0
CLASS
  1
LWPOLYLINE
  2
AcDbPolyline
  3
"AutoCAD"
 90
        0
280
     0
281
     1
  0
CLASS
  1
HATCH
  2
AcDbHatch
  3
"ACAD_SEDONA"
 90
        0
280
     0
281
     1
  0
CLASS
  1
XRECORD
  2
AcDbXrecord
  3
"<Built In>"
 90
        0
280
     0
281
     0
  0
CLASS
  1
LONG_TRANSACTION
  2
AcDbLongTransaction
  3
AutoCAD 2000
 90
        0
280
     0
281
     0
  0
CLASS
  1
LWPOLYLINE
  2
AcDbPolyline
  3
"AutoCAD"
 90
        0
280
     0
281
     1
  0
CLASS
  1
HATCH
  2
AcDbHatch
  3
"ACAD_SEDONA"
 90
        0
280
     0
281
     1
  0
CLASS
  1
XRECORD
  2
AcDbXrecord
  3
"<Built In>"
 90
        0
280
     0
281
     0
  0
CLASS
  1
LONG_TRANSACTION
  2
AcDbLongTransaction
  3
AutoCAD 2000
 90
        0
280
     0
281
     0
  0
CLASS
  1
LWPOLYLINE
  2
AcDbPolyline
  3
"AutoCAD"
 90
        0
280
     0
281
     1
  0
CLASS
  1
HATCH
  2
AcDbHatch
  3
"ACAD_SEDONA"
 90
        0
280
     0
281
     1
  0
CLASS
  1
XRECORD
  2
AcDbXrecord
  3
"<Built In>"
 90
        0
280
     0
281
     0
  0
CLASS
  1
LONG_TRANSACTION
  2
AcDbLongTransaction
  3
AutoCAD 2000
 90
        0
280
     0
281
     0
  0
CLASS
  1
LWPOLYLINE
  2
AcDbPolyline
  3
"AutoCAD"
 90
        0
280
     0
281
     1
  0
CLASS
  1
HATCH
  2
AcDbHatch
  3
"ACAD_SEDONA"
 90
        0
280
     0
281
     1
  0
CLASS
  1
XRECORD
  2
AcDbXrecord
  3
"<Built In>"
 90
        0
280
     0
281
     0
  0
CLASS
  1
LONG_TRANSACTION
  2
AcDbLongTransaction
  3
AutoCAD 2000
 90
        0
280
     0
281
     0
  0
CLASS
  1
LWPOLYLINE
  2
AcDbPolyline
  3
"AutoCAD"
 90
        0
280
     0
281
     1
  0
CLASS
  1
HATCH
  2
AcDbHatch
  3
"ACAD_SEDONA"
 90
        0
280
     0
281
     1
  0
CLASS
  1
XRECORD
  2
AcDbXrecord
  3
"<Built In>"
 90
        0
280
     0
281
     0
  0
CLASS
  1
LONG_TRANSACTION
  2
AcDbLongTransaction
  3
AutoCAD 2000
 90
        0
280
     0
281
     0
  0
CLASS
  1
LWPOLYLINE
  2
AcDbPolyline
  3
"AutoCAD"
 90
        0
280
     0
281
     1
  0
CLASS
  1
HATCH
  2
AcDbHatch
  3
"ACAD_SEDONA"
 90
        0
280
     0
281
     1
  0
CLASS
  1
XRECORD
  2
AcDbXrecord
  3
"<Built In>"
 90
        0
280
     0
281
     0
  0
CLASS
  1
LONG_TRANSACTION
  2
AcDbLongTransaction
  3
AutoCAD 2000
 90
        0
280
     0
281
     0
  0
CLASS
  1
LWPOLYLINE
  2
AcDbPolyline
  3
"AutoCAD"
 90
        0
280
     0
281
     1
  0
CLASS
  1
HATCH
  2
AcDbHatch
  3
"ACAD_SEDONA"
 90
        0
280
     0
281
     1
  0
CLASS
  1
XRECORD
  2
AcDbXrecord
  3
"<Built In>"
 90
        0
280
     0
281
     0
  0
CLASS
  1
LONG_TRANSACTION
  2
AcDbLongTransaction
  3
AutoCAD 2000
 90
        0
280
     0
281
     0
  0
CLASS
  1
LWPOLYLINE
  2
AcDbPolyline
  3
"AutoCAD"
 90
        0
280
     0
281
     1
  0
CLASS
  1
HATCH
  2
AcDbHatch
  3
"ACAD_SEDONA"
 90
        0
280
     0
281
     1
  0
CLASS
  1
XRECORD
  2
AcDbXrecord
  3
"<Built In>"
 90
        0
280
     0
281
     0
  0
CLASS
  1
LONG_TRANSACTION
  2
AcDbLongTransaction
  3
AutoCAD 2000
 90
        0
280
     0
281
     0
  0
CLASS
  1
LWPOLYLINE
  2
AcDbPolyline
  3
"AutoCAD"
 90
        0
280
     0
281
     1
  0
CLASS
  1
HATCH
  2
AcDbHatch
  3
"ACAD_SEDONA"
 90
        0
280
     0
281
     1
  0
CLASS
  1
XRECORD
  2
AcDbXrecord
  3
"<Built In>"
 90
        0
280
     0
281
     0
  0
CLASS
  1
LONG_TRANSACTION
  2
AcDbLongTransaction
  3
AutoCAD 2000
 90
        0
280
     0
281
     0
  0
CLASS
  1
LWPOLYLINE
  2
AcDbPolyline
  3
"AutoCAD"
 90
        0
280
     0
281
     1
  0
CLASS
  1
HATCH
  2
AcDbHatch
  3
"ACAD_SEDONA"
 90
        0
280
     0
281
     1
  0
CLASS
  1
XRECORD
  2
AcDbXrecord
  3
"<Built In>"
 90
        0
280
     0
281
     0
  0
CLASS
  1
LONG_TRANSACTION
  2
AcDbLongTransaction
  3
AutoCAD 2000
 90
        0
280
     0
281
     0
  0
CLASS
  1
LWPOLYLINE
  2
AcDbPolyline
  3
"AutoCAD"
 90
        0
280
     0
281
     1
  0
CLASS
  1
HATCH
  2
AcDbHatch
  3
"ACAD_SEDONA"
 90
        0
280
     0
281
     1
  0
CLASS
  1
XRECORD
  2
AcDbXrecord
  3
"<Built In>"
 90
        0
280
     0
281
     0
  0
CLASS
  1
LONG_TRANSACTION
  2
AcDbLongTransaction
  3
AutoCAD 2000
 90
        0
280
     0
281
     0
  0
CLASS
  1
LWPOLYLINE
  2
AcDbPolyline
  3
"AutoCAD"
 90
        0
280
     0
281
     1
  0
CLASS
  1
HATCH
  2
AcDbHatch
  3
"ACAD_SEDONA"
 90
        0
280
     0
281
     1
  0
CLASS
  1
XRECORD
  2
AcDbXrecord
  3
"<Built In>"
 90
        0
280
     0
281
     0
  0
CLASS
  1
LONG_TRANSACTION
  2
AcDbLongTransaction
  3
AutoCAD 2000
 90
        0
280
     0
281
     0
  0
CLASS
  1
LWPOLYLINE
  2
AcDbPolyline
  3
"AutoCAD"
 90
        0
280
     0
281
     1
  0
CLASS
  1
HATCH
  2
AcDbHatch
  3
"ACAD_SEDONA"
 90
        0
280
     0
281
     1
  0
CLASS
  1
XRECORD
  2
AcDbXrecord
  3
"<Built In>"
 90
        0
280
     0
281
     0
  0
CLASS
  1
LONG_TRANSACTION
  2
AcDbLongTransaction
  3
AutoCAD 2000
 90
        0
280
     0
281
     0
  0
CLASS
  1
LWPOLYLINE
  2
AcDbPolyline
  3
"AutoCAD"
 90
        0
280
     0
281
     1
  0
CLASS
  1
HATCH
  2
AcDbHatch
  3
"ACAD_SEDONA"
 90
        0
280
     0
281
     1
  0
CLASS
  1
XRECORD
  2
AcDbXrecord
  3
"<Built In>"
 90
        0
280
     0
281
     0
  0
CLASS
  1
LONG_TRANSACTION
  2
AcDbLongTransaction
  3
AutoCAD 2000
 90
        0
280
     0
281
     0
  0
CLASS
  1
LWPOLYLINE
  2
AcDbPolyline
  3
"AutoCAD"
 90
        0
280
     0
281
     1
  0
CLASS
  1
HATCH
  2
AcDbHatch
  3
"ACAD_SEDONA"
 90
        0
280
     0
281
     1
  0
CLASS
  1
XRECORD
  2
AcDbXrecord
  3
"<Built In>"
 90
        0
280
     0
281
     0
  0
CLASS
  1
LONG_TRANSACTION
  2
AcDbLongTransaction
  3
AutoCAD 2000
 90
        0
280
     0
281
     0
  0
CLASS
  1
LWPOLYLINE
  2
AcDbPolyline
  3
"AutoCAD"
 90
        0
280
     0
281
     1
  0
CLASS
  1
HATCH
  2
AcDbHatch
  3
"ACAD_SEDONA"
 90
        0
280
     0
281
     1
  0
CLASS
  1
XRECORD
  2
AcDbXrecord
  3
"<Built In>"
 90
        0
280
     0
281
     0
  0
CLASS
  1
LONG_TRANSACTION
  2
AcDbLongTransaction
  3
AutoCAD 2000
 90
        0
280
     0
281
     0
  0
CLASS
  1
LWPOLYLINE
  2
AcDbPolyline
  3
"AutoCAD"
 90
        0
280
     0
281
     1
  0
CLASS
  1
HATCH
  2
AcDbHatch
  3
"ACAD_SEDONA"
 90
        0
280
     0
281
     1
  0
CLASS
  1
XRECORD
  2
AcDbXrecord
  3
"<Built In>"
 90
        0
280
     0
281
     0
  0
CLASS
  1
LONG_TRANSACTION
  2
AcDbLongTransaction
  3
AutoCAD 2000
 90
        0
280
     0
281
     0
  0
CLASS
  1
LWPOLYLINE
  2
AcDbPolyline
  3
"AutoCAD"
 90
        0
280
     0
281
     1
  0
CLASS
  1
HATCH
  2
AcDbHatch
  3
"ACAD_SEDONA"
 90
        0
280
     0
281
     1
  0
CLASS
  1
XRECORD
  2
AcDbXrecord
  3
"<Built In>"
 90
        0
280
     0
281
     0
  0
CLASS
  1
LONG_TRANSACTION
  2
AcDbLongTransaction
  3
AutoCAD 2000
 90
        0
280
     0
281
     0
  0
CLASS
  1
LWPOLYLINE
  2
AcDbPolyline
  3
"AutoCAD"
 90
        0
280
     0
281
     1
  0
CLASS
  1
HATCH
  2
AcDbHatch
  3
"ACAD_SEDONA"
 90
        0
280
     0
281
     1
  0
CLASS
  1
XRECORD
  2
AcDbXrecord
  3
"<Built In>"
 90
        0
280
     0
281
     0
  0
CLASS
  1
LONG_TRANSACTION
  2
AcDbLongTransaction
  3
AutoCAD 2000
 90
        0
280
     0
281
     0
  0
CLASS
  1
LWPOLYLINE
  2
AcDbPolyline
  3
"AutoCAD"
 90
        0
280
     0
281
     1
  0
CLASS
  1
HATCH
  2
AcDbHatch
  3
"ACAD_SEDONA"
 90
        0
280
     0
281
     1
  0
CLASS
  1
XRECORD
  2
AcDbXrecord
  3
"<Built In>"
 90
        0
280
     0
281
     0
  0
CLASS
  1
LONG_TRANSACTION
  2
AcDbLongTransaction
  3
AutoCAD 2000
 90
        0
280
     0
281
     0
  0
CLASS
  1
LWPOLYLINE
  2
AcDbPolyline
  3
"AutoCAD"
 90
        0
280
     0
281
     1
  0
CLASS
  1
HATCH
  2
AcDbHatch
  3
"ACAD_SEDONA"
 90
        0
280
     0
281
     1
  0
CLASS
  1
XRECORD
  2
AcDbXrecord
  3
"<Built In>"
 90
        0
280
     0
281
     0
  0
CLASS
  1
LONG_TRANSACTION
  2
AcDbLongTransaction
  3
AutoCAD 2000
 90
        0
280
     0
281
     0
  0
CLASS
  1
LWPOLYLINE
  2
AcDbPolyline
  3
"AutoCAD"
 90
        0
280
     0
281
     1
  0
CLASS
  1
HATCH
  2
AcDbHatch
  3
"ACAD_SEDONA"
 90
        0
280
     0
281
     1
  0
CLASS
  1
XRECORD
  2
AcDbXrecord
  3
"<Built In>"
 90
        0
280
     0
281
     0
  0
CLASS
  1
LONG_TRANSACTION
  2
AcDbLongTransaction
  3
AutoCAD 2000
 90
        0
280
     0
281
     0
  0
CLASS
  1
LWPOLYLINE
  2
AcDbPolyline
  3
"AutoCAD"
 90
        0
280
     0
281
     1
  0
CLASS
  1
HATCH
  2
AcDbHatch
  3
"ACAD_SEDONA"
 90
        0
280
     0
281
     1
  0
CLASS
  1
XRECORD
  2
AcDbXrecord
  3
"<Built In>"
 90
        0
280
     0
281
     0
  0
CLASS
  1
LONG_TRANSACTION
  2
AcDbLongTransaction
  3
AutoCAD 2000
 90
        0
280
     0
281
     0
  0
CLASS
  1
LWPOLYLINE
  2
AcDbPolyline
  3
"AutoCAD"
 90
        0
280
     0
281
     1
  0
CLASS
  1
HATCH
  2
AcDbHatch
  3
"ACAD_SEDONA"
 90
        0
280
     0
281
     1
  0
CLASS
  1
XRECORD
  2
AcDbXrecord
  3
"<Built In>"
 90
        0
280
     0
281
     0
  0
CLASS
  1
LONG_TRANSACTION
  2
AcDbLongTransaction
  3
AutoCAD 2000
 90
        0
280
     0
281
     0
  0
CLASS
  1
LWPOLYLINE
  2
AcDbPolyline
  3
"AutoCAD"
 90
        0
280
     0
281
     1
  0
CLASS
  1
HATCH
  2
AcDbHatch
  3
"ACAD_SEDONA"
 90
        0
280
     0
281
     1
  0
CLASS
  1
XRECORD
  2
AcDbXrecord
  3
"<Built In>"
 90
        0
280
     0
281
     0
  0
CLASS
  1
LONG_TRANSACTION
  2
AcDbLongTransaction
  3
AutoCAD 2000
 90
        0
280
     0
281
     0
  0
CLASS
  1
LWPOLYLINE
  2
AcDbPolyline
  3
"AutoCAD"
 90
        0
280
     0
281
     1
  0
CLASS
  1
HATCH
  2
AcDbHatch
  3
"ACAD_SEDONA"
 90
        0
280
     0
281
     1
  0
CLASS
  1
XRECORD
  2
AcDbXrecord
  3
"<Built In>"
 90
        0
280
     0
281
     0
  0
CLASS
  1
LONG_TRANSACTION
  2
AcDbLongTransaction
  3
AutoCAD 2000
 90
        0
280
     0
281
     0
  0
CLASS
  1
LWPOLYLINE
  2
AcDbPolyline
  3
"AutoCAD"
 90
        0
280
     0
281
     1
  0
CLASS
  1
HATCH
  2
AcDbHatch
  3
"ACAD_SEDONA"
 90
        0
280
     0
281
     1
  0
CLASS
  1
XRECORD
  2
AcDbXrecord
  3
"<Built In>"
 90
        0
280
     0
281
     0
  0
CLASS
  1
LONG_TRANSACTION
  2
AcDbLongTransaction
  3
AutoCAD 2000
 90
        0
280
     0
281
     0
  0
CLASS
  1
LWPOLYLINE
  2
AcDbPolyline
  3
"AutoCAD"
 90
        0
280
     0
281
     1
  0
CLASS
  1
HATCH
  2
AcDbHatch
  3
"ACAD_SEDONA"
 90
        0
280
     0
281
     1
  0
CLASS
  1
XRECORD
  2
AcDbXrecord
  3
"<Built In>"
 90
        0
280
     0
281
     0
  0
CLASS
  1
LONG_TRANSACTION
  2
AcDbLongTransaction
  3
AutoCAD 2000
 90
        0
280
     0
281
     0
  0
CLASS
  1
LWPOLYLINE
  2
AcDbPolyline
  3
"AutoCAD"
 90
        0
280
     0
281
     1
  0
CLASS
  1
HATCH
  2
AcDbHatch
  3
"ACAD_SEDONA"
 90
        0
280
     0
281
     1
  0
CLASS
  1
XRECORD
  2
AcDbXrecord
  3
"<Built In>"
 90
        0
280
     0
281
     0
  0
CLASS
  1
LONG_TRANSACTION
  2
AcDbLongTransaction
  3
AutoCAD 2000
 90
        0
280
     0
281
     0
  0
CLASS
  1
LWPOLYLINE
  2
AcDbPolyline
  3
"AutoCAD"
 90
        0
280
     0
281
     1
  0
CLASS
  1
HATCH
  2
AcDbHatch
  3
"ACAD_SEDONA"
 90
        0
280
     0
281
     1
  0
CLASS
  1
XRECORD
  2
AcDbXrecord
  3
"<Built In>"
 90
        0
280
     0
281
     0
  0
CLASS
  1
LONG_TRANSACTION
  2
AcDbLongTransaction
  3
AutoCAD 2000
 90
        0
280
     0
281
     0
  0
CLASS
  1
LWPOLYLINE
  2
AcDbPolyline
  3
"AutoCAD"
 90
        0
280
     0
281
     1
  0
CLASS
  1
HATCH
  2
AcDbHatch
  3
"ACAD_SEDONA"
 90
        0
280
     0
281
     1
  0
CLASS
  1
XRECORD
  2
AcDbXrecord
  3
"<Built In>"
 90
        0
280
     0
281
     0
  0
CLASS
  1
LONG_TRANSACTION
  2
AcDbLongTransaction
  3
AutoCAD 2000
 90
        0
280
     0
281
     0
  0
CLASS
  1
LWPOLYLINE
  2
AcDbPolyline
  3
"AutoCAD"
 90
        0
280
     0
281
     1
  0
CLASS
  1
HATCH
  2
AcDbHatch
  3
"ACAD_SEDONA"
 90
        0
280
     0
281
     1
  0
CLASS
  1
XRECORD
  2
AcDbXrecord
  3
"<Built In>"
 90
        0
280
     0
281
     0
  0
CLASS
  1
LONG_TRANSACTION
  2
AcDbLongTransaction
  3
AutoCAD 2000
 90
        0
280
     0
281
     0
  0
CLASS
  1
LWPOLYLINE
  2
AcDbPolyline
  3
"AutoCAD"
 90
        0
280
     0
281
     1
  0
CLASS
  1
HATCH
  2
AcDbHatch
  3
"ACAD_SEDONA"
 90
        0
280
     0
281
     1
  0
CLASS
  1
XRECORD
  2
AcDbXrecord
  3
"<Built In>"
 90
        0
280
     0
281
     0
  0
CLASS
  1
LONG_TRANSACTION
  2
AcDbLongTransaction
  3
AutoCAD 2000
 90
        0
280
     0
281
     0
  0
CLASS
  1
LWPOLYLINE
  2
AcDbPolyline
  3
"AutoCAD"
 90
        0
280
     0
281
     1
  0
CLASS
  1
HATCH
  2
AcDbHatch
  3
"ACAD_SEDONA"
 90
        0
280
     0
281
     1
  0
CLASS
  1
XRECORD
  2
AcDbXrecord
  3
"<Built In>"
 90
        0
280
     0
281
     0
  0
CLASS
  1
LONG_TRANSACTION
  2
AcDbLongTransaction
  3
AutoCAD 2000
 90
        0
280
     0
281
     0
  0
CLASS
  1
LWPOLYLINE
  2
AcDbPolyline
  3
"AutoCAD"
 90
        0
280
     0
281
     1
  0
CLASS
  1
HATCH
  2
AcDbHatch
  3
"ACAD_SEDONA"
 90
        0
280
     0
281
     1
  0
CLASS
  1
XRECORD
  2
AcDbXrecord
  3
"<Built In>"
 90
        0
280
     0
281
     0
  0
CLASS
  1
LONG_TRANSACTION
  2
AcDbLongTransaction
  3
AutoCAD 2000
 90
        0
280
     0
281
     0
  0
CLASS
  1
LWPOLYLINE
  2
AcDbPolyline
  3
"AutoCAD"
 90
        0
280
     0
281
     1
  0
CLASS
  1
HATCH
  2
AcDbHatch
  3
"ACAD_SEDONA"
 90
        0
280
     0
281
     1
  0
CLASS
  1
XRECORD
  2
AcDbXrecord
  3
"<Built In>"
 90
        0
280
     0
281
     0
  0
CLASS
  1
LONG_TRANSACTION
  2
AcDbLongTransaction
  3
AutoCAD 2000
 90
        0
280
     0
281
     0
  0
CLASS
  1
LWPOLYLINE
  2
AcDbPolyline
  3
"AutoCAD"
 90
        0
280
     0
281
     1
  0
CLASS
  1
HATCH
  2
AcDbHatch
  3
"ACAD_SEDONA"
 90
        0
280
     0
281
     1
  0
CLASS
  1
XRECORD
  2
AcDbXrecord
  3
"<Built In>"
 90
        0
280
     0
281
     0
  0
CLASS
  1
LONG_TRANSACTION
  2
AcDbLongTransaction
  3
AutoCAD 2000
 90
        0
280
     0
281
     0
  0
CLASS
  1
LWPOLYLINE
  2
AcDbPolyline
  3
"AutoCAD"
 90
        0
280
     0
281
     1
  0
CLASS
  1
HATCH
  2
AcDbHatch
  3
"ACAD_SEDONA"
 90
        0
280
     0
281
     1
  0
CLASS
  1
XRECORD
  2
AcDbXrecord
  3
"<Built In>"
 90
        0
280
     0
281
     0
  0
CLASS
  1
LONG_TRANSACTION
  2
AcDbLongTransaction
  3
AutoCAD 2000
 90
        0
280
     0
281
     0
  0
CLASS
  1
LWPOLYLINE
  2
AcDbPolyline
  3
"AutoCAD"
 90
        0
280
     0
281
     1
  0
CLASS
  1
HATCH
  2
AcDbHatch
  3
"ACAD_SEDONA"
 90
        0
280
     0
281
     1
  0
CLASS
  1
XRECORD
  2
AcDbXrecord
  3
"<Built In>"
 90
        0
280
     0
281
     0
  0
CLASS
  1
LONG_TRANSACTION
  2
AcDbLongTransaction
  3
AutoCAD 2000
 90
        0
280
     0
281
     0
  0
CLASS
  1
LWPOLYLINE
  2
AcDbPolyline
  3
"AutoCAD"
 90
        0
280
     0
281
     1
  0
CLASS
  1
HATCH
  2
AcDbHatch
  3
"ACAD_SEDONA"
 90
        0
280
     0
281
     1
  0
CLASS
  1
XRECORD
  2
AcDbXrecord
  3
"<Built In>"
 90
        0
280
     0
281
     0
  0
CLASS
  1
LONG_TRANSACTION
  2
AcDbLongTransaction
  3
AutoCAD 2000
 90
        0
280
     0
281
     0
  0
CLASS
  1
LWPOLYLINE
  2
AcDbPolyline
  3
"AutoCAD"
 90
        0
280
     0
281
     1
  0
CLASS
  1
HATCH
  2
AcDbHatch
  3
"ACAD_SEDONA"
 90
        0
280
     0
281
     1
  0
CLASS
  1
XRECORD
  2
AcDbXrecord
  3
"<Built In>"
 90
        0
280
     0
281
     0
  0
CLASS
  1
LONG_TRANSACTION
  2
AcDbLongTransaction
  3
AutoCAD 2000
 90
        0
280
     0
281
     0
  0
CLASS
  1
LWPOLYLINE
  2
AcDbPolyline
  3
"AutoCAD"
 90
        0
280
     0
281
     1
  0
CLASS
  1
HATCH
  2
AcDbHatch
  3
"ACAD_SEDONA"
 90
        0
280
     0
281
     1
  0
CLASS
  1
XRECORD
  2
AcDbXrecord
  3
"<Built In>"
 90
        0
280
     0
281
     0
  0
CLASS
  1
LONG_TRANSACTION
  2
AcDbLongTransaction
  3
AutoCAD 2000
 90
        0
280
     0
281
     0
  0
CLASS
  1
LWPOLYLINE
  2
AcDbPolyline
  3
"AutoCAD"
 90
        0
280
     0
281
     1
  0
CLASS
  1
HATCH
  2
AcDbHatch
  3
"ACAD_SEDONA"
 90
        0
280
     0
281
     1
  0
CLASS
  1
XRECORD
  2
AcDbXrecord
  3
"<Built In>"
 90
        0
280
     0
281
     0
  0
CLASS
  1
LONG_TRANSACTION
  2
AcDbLongTransaction
  3
AutoCAD 2000
 90
        0
280
     0
281
     0
  0
CLASS
  1
LWPOLYLINE
  2
AcDbPolyline
  3
"AutoCAD"
 90
        0
280
     0
281
     1
  0
CLASS
  1
HATCH
  2
AcDbHatch
  3
"ACAD_SEDONA"
 90
        0
280
     0
281
     1
  0
CLASS
  1
XRECORD
  2
AcDbXrecord
  3
"<Built In>"
 90
        0
280
     0
281
     0
  0
CLASS
  1
LONG_TRANSACTION
  2
AcDbLongTransaction
  3
AutoCAD 2000
 90
        0
280
     0
281
     0
  0
CLASS
  1
LWPOLYLINE
  2
AcDbPolyline
  3
"AutoCAD"
 90
        0
280
     0
281
     1
  0
CLASS
  1
HATCH
  2
AcDbHatch
  3
"ACAD_SEDONA"
 90
        0
280
     0
281
     1
  0
CLASS
  1
XRECORD
  2
AcDbXrecord
  3
"<Built In>"
 90
        0
280
     0
281
     0
  0
CLASS
  1
LONG_TRANSACTION
  2
AcDbLongTransaction
  3
AutoCAD 2000
 90
        0
280
     0
281
     0
  0
CLASS
  1
LWPOLYLINE
  2
AcDbPolyline
  3
"AutoCAD"
 90
        0
280
     0
281
     1
  0
CLASS
  1
HATCH
  2
AcDbHatch
  3
"ACAD_SEDONA"
 90
        0
280
     0
281
     1
  0
CLASS
  1
XRECORD
  2
AcDbXrecord
  3
"<Built In>"
 90
        0
280
     0
281
     0
  0
CLASS
  1
LONG_TRANSACTION
  2
AcDbLongTransaction
  3
AutoCAD 2000
 90
        0
280
     0
281
     0
  0
CLASS
  1
LWPOLYLINE
  2
AcDbPolyline
  3
"AutoCAD"
 90
        0
280
     0
281
     1
  0
CLASS
  1
HATCH
  2
AcDbHatch
  3
"ACAD_SEDONA"
 90
        0
280
     0
281
     1
  0
CLASS
  1
XRECORD
  2
AcDbXrecord
  3
"<Built In>"
 90
        0
280
     0
281
     0
  0
CLASS
  1
LONG_TRANSACTION
  2
AcDbLongTransaction
  3
AutoCAD 2000
 90
        0
280
     0
281
     0
  0
CLASS
  1
LWPOLYLINE
  2
AcDbPolyline
  3
"AutoCAD"
 90
        0
280
     0
281
     1
  0
CLASS
  1
HATCH
  2
AcDbHatch
  3
"ACAD_SEDONA"
 90
        0
280
     0
281
     1
  0
CLASS
  1
XRECORD
  2
AcDbXrecord
  3
"<Built In>"
 90
        0
280
     0
281
     0
  0
CLASS
  1
LONG_TRANSACTION
  2
AcDbLongTransaction
  3
AutoCAD 2000
 90
        0
280
     0
281
     0
  0
CLASS
  1
LWPOLYLINE
  2
AcDbPolyline
  3
"AutoCAD"
 90
        0
280
     0
281
     1
  0
CLASS
  1
HATCH
  2
AcDbHatch
  3
"ACAD_SEDONA"
 90
        0
280
     0
281
     1
  0
CLASS
  1
XRECORD
  2
AcDbXrecord
  3
"<Built In>"
 90
        0
280
     0
281
     0
  0
ENDSEC
  0
SECTION
  2
TABLES
  0
TABLE
  2
VPORT
  5
469
100
AcDbSymbolTable
 70
     1
  0
VPORT
  5
6BF8F
102
{ACAD_XDICTIONARY
360
6C336
102
}
100
AcDbSymbolTableRecord
100
AcDbViewportTableRecord
  2
*ACTIVE
 70
     0
 10
0.0
 20
0.0
 11
1.0
 21
1.0
 12
-0.724276
 22
6.295125
 13
0.0
 23
0.0
 14
1.0
 24
1.0
 15
0.0
 25
0.0
 16
0.0
 26
0.0
 36
1.0
 17
0.648805
 27
-6.132183
 37
2.586733
 40
2.618316
 41
1.786496
 42
50.0
 43
0.0
 44
0.0
 50
0.0
 51
0.0
 71
     0
 72
   100
 73
     1
 74
     1
 75
     0
 76
     0
 77
     0
 78
     0
  0
ENDTAB
  0
TABLE
  2
LTYPE
  5
466
100
AcDbSymbolTable
 70
     1
  0
LTYPE
  5
472
100
AcDbSymbolTableRecord
100
AcDbLinetypeTableRecord
  2
BYBLOCK
 70
     0
  3

 72
    65
 73
     0
 40
0.0
  0
LTYPE
  5
473
100
AcDbSymbolTableRecord
100
AcDbLinetypeTableRecord
  2
BYLAYER
 70
     0
  3

 72
    65
 73
     0
 40
0.0
  0
LTYPE
  5
474
100
AcDbSymbolTableRecord
100
AcDbLinetypeTableRecord
  2
CONTINUOUS
 70
     0
  3
Solid line
 72
    65
 73
     0
 40
0.0
  0
ENDTAB
  0
TABLE
  2
LAYER
  5
463
100
AcDbSymbolTable
 70
     8
  0
LAYER
  5
46F
100
AcDbSymbolTableRecord
100
AcDbLayerTableRecord
  2
0
 70
     0
 62
     7
  6
CONTINUOUS
  0
LAYER
  5
485
100
AcDbSymbolTableRecord
100
AcDbLayerTableRecord
  2
AREA1
 70
     0
 62
     7
  6
CONTINUOUS
  0
LAYER
  5
486
100
AcDbSymbolTableRecord
100
AcDbLayerTableRecord
  2
AREA2
 70
     0
 62
     7
  6
CONTINUOUS
  0
LAYER
  5
494
102
{ACAD_XDICTIONARY
360
6C363
102
}
100
AcDbSymbolTableRecord
100
AcDbLayerTableRecord
  2
DEFPOINTS
 70
     0
 62
    -7
  6
CONTINUOUS
  0
LAYER
  5
495
100
AcDbSymbolTableRecord
100
AcDbLayerTableRecord
  2
DIMS-MTG-HOLES
 70
     0
 62
    -1
  6
CONTINUOUS
  0
LAYER
  5
4E6
100
AcDbSymbolTableRecord
100
AcDbLayerTableRecord
  2
SCALE
 70
     0
 62
    -7
  6
CONTINUOUS
  0
LAYER
  5
4ED
100
AcDbSymbolTableRecord
100
AcDbLayerTableRecord
  2
SNAP_POINTS
 70
     0
 62
    -1
  6
CONTINUOUS
  0
LAYER
  5
4F1
100
AcDbSymbolTableRecord
100
AcDbLayerTableRecord
  2
ATTRIBUTES
 70
     0
 62
    -7
  6
CONTINUOUS
  0
ENDTAB
  0
TABLE
  2
STYLE
  5
464
100
AcDbSymbolTable
 70
     1
  0
STYLE
  5
470
100
AcDbSymbolTableRecord
100
AcDbTextStyleTableRecord
  2
STANDARD
 70
     0
 40
0.0
 41
1.0
 50
0.0
 71
     0
 42
0.2
  3
txt
  4

  0
ENDTAB
  0
TABLE
  2
VIEW
  5
467
100
AcDbSymbolTable
 70
     0
  0
ENDTAB
  0
TABLE
  2
UCS
  5
468
100
AcDbSymbolTable
 70
     0
  0
ENDTAB
  0
TABLE
  2
APPID
  5
46A
100
AcDbSymbolTable
 70
     2
  0
APPID
  5
471
100
AcDbSymbolTableRecord
100
AcDbRegAppTableRecord
  2
ACAD
 70
     0
  0
APPID
  5
47E
100
AcDbSymbolTableRecord
100
AcDbRegAppTableRecord
  2
AVE_RENDER
 70
     0
  0
ENDTAB
  0
TABLE
  2
DIMSTYLE
  5
46B
100
AcDbSymbolTable
 70
     2
  0
DIMSTYLE
105
49A
102
{ACAD_XDICTIONARY
360
6C365
102
}
102
{ACAD_REACTORS
330
6BF79
330
6BF43
330
6BF42
102
}
100
AcDbSymbolTableRecord
100
AcDbDimStyleTableRecord
  2
ABECAD_3V
 70
     0
  3

  4

  5

  6

  7

 40
0.0
 41
0.125
 42
0.0625
 43
0.375
 44
0.0625
 45
0.0
 46
0.0
 47
0.0
 48
0.0
140
0.125
141
0.09
142
0.0
143
25.4
144
1.0
145
0.0
146
1.5
147
0.09
 71
     0
 72
     0
 73
     0
 74
     1
 75
     0
 76
     0
 77
     0
 78
     4
170
     1
171
     2
172
     0
173
     0
174
     0
175
     0
176
     0
177
     0
178
     0
270
     7
271
     6
272
     6
273
     2
274
     2
340
470
275
     0
280
     0
281
     0
282
     0
283
     1
284
     4
285
     4
286
     4
287
     5
288
     1
  0
DIMSTYLE
105
512
102
{ACAD_XDICTIONARY
360
6C369
102
}
100
AcDbSymbolTableRecord
100
AcDbDimStyleTableRecord
  2
ABECAD_3D
 70
     0
  3

  4

  5

  6

  7

 40
1.0
 41
0.18
 42
0.0625
 43
0.375
 44
0.18
 45
0.0
 46
0.0
 47
0.0
 48
0.0
140
0.18
141
0.09
142
0.0
143
25.4
144
1.0
145
0.0
146
1.5
147
0.09
 71
     0
 72
     0
 73
     0
 74
     1
 75
     0
 76
     0
 77
     0
 78
     4
170
     1
171
     2
172
     0
173
     0
174
     0
175
     0
176
     0
177
     0
178
     0
270
     7
271
     6
272
     6
273
     2
274
     2
340
470
275
     0
280
     0
281
     0
282
     0
283
     1
284
     4
285
     4
286
     4
287
     5
288
     1
  0
ENDTAB
  0
TABLE
  2
BLOCK_RECORD
  5
462
100
AcDbSymbolTable
 70
     3
  0
BLOCK_RECORD
  5
478
102
{ACAD_XDICTIONARY
360
4D2
102
}
100
AcDbSymbolTableRecord
100
AcDbBlockTableRecord
  2
*MODEL_SPACE
  0
BLOCK_RECORD
  5
475
102
{ACAD_XDICTIONARY
360
4D0
102
}
100
AcDbSymbolTableRecord
100
AcDbBlockTableRecord
  2
*PAPER_SPACE
  0
BLOCK_RECORD
  5
6BF4F
100
AcDbSymbolTableRecord
100
AcDbBlockTableRecord
  2
*D0
  0
BLOCK_RECORD
  5
6BF5B
100
AcDbSymbolTableRecord
100
AcDbBlockTableRecord
  2
*D1
  0
BLOCK_RECORD
  5
6BF7A
100
AcDbSymbolTableRecord
100
AcDbBlockTableRecord
  2
*D2
  0
ENDTAB
  0
ENDSEC
  0
SECTION
  2
BLOCKS
  0
BLOCK
  5
48B
100
AcDbEntity
  8
0
100
AcDbBlockBegin
  2
*MODEL_SPACE
 70
     0
 10
0.0
 20
0.0
 30
0.0
  3
*MODEL_SPACE
  1

  0
ENDBLK
  5
48C
100
AcDbEntity
  8
0
100
AcDbBlockEnd
  0
BLOCK
  5
489
100
AcDbEntity
 67
     1
  8
0
100
AcDbBlockBegin
  2
*PAPER_SPACE
 70
     0
 10
0.0
 20
0.0
 30
0.0
  3
*PAPER_SPACE
  1

  0
ENDBLK
  5
48A
100
AcDbEntity
 67
     1
  8
0
100
AcDbBlockEnd
  0
BLOCK
  5
6BF59
100
AcDbEntity
  8
0
100
AcDbBlockBegin
  2
*D0
 70
     1
 10
0.0
 20
0.0
 30
0.0
  3
*D0
  1

  0
LINE
  5
6BFA2
100
AcDbEntity
  8
AREA1
 62
     0
100
AcDbLine
 10
-1.005907
 20
0.8975
 30
0.0
 11
-1.360512
 21
0.8975
 31
0.0
1001
ACAD
1000
RTLwPs
1070
   158
  0
LINE
  5
6BFA3
100
AcDbEntity
  8
AREA1
 62
     0
100
AcDbLine
 10
-1.005907
 20
-0.8975
 30
0.0
 11
-1.360512
 21
-0.8975
 31
0.0
1001
ACAD
1000
RTLwPs
1070
   158
  0
LINE
  5
6BFA4
100
AcDbEntity
  8
AREA1
 62
     0
100
AcDbLine
 10
-1.317605
 20
0.811685
 30
0.0
 11
-1.317605
 21
0.613218
 31
0.0
1001
ACAD
1000
RTLwPs
1070
   158
  0
LINE
  5
6BFA5
100
AcDbEntity
  8
AREA1
 62
     0
100
AcDbLine
 10
-1.317605
 20
-0.811685
 30
0.0
 11
-1.317605
 21
-0.597344
 31
0.0
1001
ACAD
1000
RTLwPs
1070
   158
  0
MTEXT
  5
6BFA6
100
AcDbEntity
  8
AREA1
 62
     0
100
AcDbMText
 10
-1.317605
 20
0.007937
 30
0.0
 40
0.085815
 41
0.0
 71
     5
 72
     1
  1
\A1;1 51/64 [45.59]
 11
0.0
 21
1.0
 31
0.0
1001
ACAD
1000
MTEXTBEGIN
1070
    73
1070
     1
1070
    44
1040
1.0
1070
    74
1070
     0
1000
MTEXTEND
1000
MTEXTBEGIN
1070
    73
1070
     1
1070
    44
1040
1.0
1070
    74
1070
     0
1000
MTEXTEND
1000
MTEXTBEGIN
1070
    73
1070
     1
1070
    44
1040
1.0
1070
    74
1070
     0
1000
MTEXTEND
1000
MTEXTBEGIN
1070
    73
1070
     1
1070
    44
1040
1.0
1070
    74
1070
     0
1000
MTEXTEND
1000
MTEXTBEGIN
1070
    73
1070
     1
1070
    44
1040
1.0
1070
    74
1070
     0
1000
MTEXTEND
1000
MTEXTBEGIN
1070
    73
1070
     1
1070
    44
1040
1.0
1070
    74
1070
     0
1000
MTEXTEND
1000
MTEXTBEGIN
1070
    73
1070
     1
1070
    44
1040
1.0
1070
    74
1070
     0
1000
MTEXTEND
1000
MTEXTBEGIN
1070
    73
1070
     1
1070
    44
1040
1.0
1070
    74
1070
     0
1000
MTEXTEND
1000
MTEXTBEGIN
1070
    73
1070
     1
1070
    44
1040
1.0
1070
    74
1070
     0
1000
MTEXTEND
1000
MTEXTBEGIN
1070
    73
1070
     1
1070
    44
1040
1.0
1070
    74
1070
     0
1000
MTEXTEND
1000
MTEXTBEGIN
1070
    73
1070
     1
1070
    44
1040
1.0
1070
    74
1070
     0
1000
MTEXTEND
1000
MTEXTBEGIN
1070
    73
1070
     1
1070
    44
1040
1.0
1070
    74
1070
     0
1000
MTEXTEND
1000
MTEXTBEGIN
1070
    73
1070
     1
1070
    44
1040
1.0
1070
    74
1070
     0
1000
MTEXTEND
1000
MTEXTBEGIN
1070
    73
1070
     1
1070
    44
1040
1.0
1070
    74
1070
     0
1000
MTEXTEND
1000
MTEXTBEGIN
1070
    73
1070
     1
1070
    44
1040
1.0
1070
    74
1070
     0
1000
MTEXTEND
1000
MTEXTBEGIN
1070
    73
1070
     1
1070
    44
1040
1.0
1070
    74
1070
     0
1000
MTEXTEND
1000
MTEXTBEGIN
1070
    73
1070
     1
1070
    44
1040
1.0
1070
    74
1070
     0
1000
MTEXTEND
  0
SOLID
  5
6BFA7
100
AcDbEntity
  8
AREA1
 62
     0
100
AcDbTrace
 10
-1.331907
 20
0.811685
 30
0.0
 11
-1.303302
 21
0.811685
 31
0.0
 12
-1.317605
 22
0.8975
 32
0.0
 13
-1.317605
 23
0.8975
 33
0.0
  0
SOLID
  5
6BFA8
100
AcDbEntity
  8
AREA1
 62
     0
100
AcDbTrace
 10
-1.331907
 20
-0.811685
 30
0.0
 11
-1.303302
 21
-0.811685
 31
0.0
 12
-1.317605
 22
-0.8975
 32
0.0
 13
-1.317605
 23
-0.8975
 33
0.0
  0
POINT
  5
6BFA9
100
AcDbEntity
  8
DEFPOINTS
 62
     0
100
AcDbPoint
 10
-0.963
 20
0.8975
 30
0.0
  0
POINT
  5
6BFAA
100
AcDbEntity
  8
DEFPOINTS
 62
     0
100
AcDbPoint
 10
-0.963
 20
-0.8975
 30
-0.18
  0
POINT
  5
6BFAB
100
AcDbEntity
  8
DEFPOINTS
 62
     0
100
AcDbPoint
 10
-1.317605
 20
-0.8975
 30
0.0
  0
ENDBLK
  5
6BF5A
100
AcDbEntity
  8
0
100
AcDbBlockEnd
  0
BLOCK
  5
6BF65
100
AcDbEntity
  8
0
100
AcDbBlockBegin
  2
*D1
 70
     1
 10
0.0
 20
0.0
 30
0.0
  3
*D1
  1

  0
LINE
  5
6BF99
100
AcDbEntity
  8
AREA1
 62
     0
100
AcDbLine
 10
-0.963
 20
0.940407
 30
0.0
 11
-0.963
 21
1.193533
 31
0.0
1001
ACAD
1000
RTLwPs
1070
   158
  0
LINE
  5
6BF9A
100
AcDbEntity
  8
AREA1
 62
     0
100
AcDbLine
 10
0.106
 20
0.857407
 30
0.0
 11
0.106
 21
1.193533
 31
0.0
1001
ACAD
1000
RTLwPs
1070
   158
  0
LINE
  5
6BF9B
100
AcDbEntity
  8
AREA1
 62
     0
100
AcDbLine
 10
-0.877185
 20
1.150625
 30
0.0
 11
0.020185
 21
1.150625
 31
0.0
1001
ACAD
1000
RTLwPs
1070
   158
  0
MTEXT
  5
6BF9C
100
AcDbEntity
  8
AREA1
 62
     0
100
AcDbMText
 10
-0.419559
 20
1.367946
 30
0.0
 40
0.085815
 41
0.0
 71
     5
 72
     1
  1
\A1;1 1/16 [27.15]
1001
ACAD
1000
MTEXTBEGIN
1070
    73
1070
     1
1070
    44
1040
1.0
1070
    74
1070
     0
1000
MTEXTEND
1000
MTEXTBEGIN
1070
    73
1070
     1
1070
    44
1040
1.0
1070
    74
1070
     0
1000
MTEXTEND
1000
MTEXTBEGIN
1070
    73
1070
     1
1070
    44
1040
1.0
1070
    74
1070
     0
1000
MTEXTEND
1000
MTEXTBEGIN
1070
    73
1070
     1
1070
    44
1040
1.0
1070
    74
1070
     0
1000
MTEXTEND
1000
MTEXTBEGIN
1070
    73
1070
     1
1070
    44
1040
1.0
1070
    74
1070
     0
1000
MTEXTEND
1000
MTEXTBEGIN
1070
    73
1070
     1
1070
    44
1040
1.0
1070
    74
1070
     0
1000
MTEXTEND
1000
MTEXTBEGIN
1070
    73
1070
     1
1070
    44
1040
1.0
1070
    74
1070
     0
1000
MTEXTEND
1000
MTEXTBEGIN
1070
    73
1070
     1
1070
    44
1040
1.0
1070
    74
1070
     0
1000
MTEXTEND
1000
MTEXTBEGIN
1070
    73
1070
     1
1070
    44
1040
1.0
1070
    74
1070
     0
1000
MTEXTEND
1000
MTEXTBEGIN
1070
    73
1070
     1
1070
    44
1040
1.0
1070
    74
1070
     0
1000
MTEXTEND
1000
MTEXTBEGIN
1070
    73
1070
     1
1070
    44
1040
1.0
1070
    74
1070
     0
1000
MTEXTEND
1000
MTEXTBEGIN
1070
    73
1070
     1
1070
    44
1040
1.0
1070
    74
1070
     0
1000
MTEXTEND
1000
MTEXTBEGIN
1070
    73
1070
     1
1070
    44
1040
1.0
1070
    74
1070
     0
1000
MTEXTEND
1000
MTEXTBEGIN
1070
    73
1070
     1
1070
    44
1040
1.0
1070
    74
1070
     0
1000
MTEXTEND
1000
MTEXTBEGIN
1070
    73
1070
     1
1070
    44
1040
1.0
1070
    74
1070
     0
1000
MTEXTEND
1000
MTEXTBEGIN
1070
    73
1070
     1
1070
    44
1040
1.0
1070
    74
1070
     0
1000
MTEXTEND
1000
MTEXTBEGIN
1070
    73
1070
     1
1070
    44
1040
1.0
1070
    74
1070
     0
1000
MTEXTEND
  0
SOLID
  5
6BF9D
100
AcDbEntity
  8
AREA1
 62
     0
100
AcDbTrace
 10
-0.877185
 20
1.164928
 30
0.0
 11
-0.877185
 21
1.136323
 31
0.0
 12
-0.963
 22
1.150625
 32
0.0
 13
-0.963
 23
1.150625
 33
0.0
  0
SOLID
  5
6BF9E
100
AcDbEntity
  8
AREA1
 62
     0
100
AcDbTrace
 10
0.020185
 20
1.164928
 30
0.0
 11
0.020185
 21
1.136323
 31
0.0
 12
0.106
 22
1.150625
 32
0.0
 13
0.106
 23
1.150625
 33
0.0
  0
POINT
  5
6BF9F
100
AcDbEntity
  8
DEFPOINTS
 62
     0
100
AcDbPoint
 10
-0.963
 20
0.8975
 30
0.0
  0
POINT
  5
6BFA0
100
AcDbEntity
  8
DEFPOINTS
 62
     0
100
AcDbPoint
 10
0.106
 20
0.8145
 30
0.0
  0
POINT
  5
6BFA1
100
AcDbEntity
  8
DEFPOINTS
 62
     0
100
AcDbPoint
 10
0.106
 20
1.150625
 30
0.0
  0
ENDBLK
  5
6BF66
100
AcDbEntity
  8
0
100
AcDbBlockEnd
  0
BLOCK
  5
6BF84
100
AcDbEntity
  8
0
100
AcDbBlockBegin
  2
*D2
 70
     1
 10
0.0
 20
0.0
 30
0.0
  3
*D2
  1

  0
LINE
  5
6BFAC
100
AcDbEntity
  8
AREA2
 62
     0
100
AcDbLine
 10
-1.005907
 20
0.0
 30
0.0
 11
-1.456602
 21
0.0
 31
0.0
1001
ACAD
1000
RTLwPs
1070
   158
  0
LINE
  5
6BFAD
100
AcDbEntity
  8
AREA2
 62
     0
100
AcDbLine
 10
-1.005907
 20
-1.57
 30
0.0
 11
-1.456602
 21
-1.57
 31
0.0
1001
ACAD
1000
RTLwPs
1070
   158
  0
LINE
  5
6BFAE
100
AcDbEntity
  8
AREA2
 62
     0
100
AcDbLine
 10
-1.413694
 20
-0.085815
 30
0.0
 11
-1.413694
 21
-0.260684
 31
0.0
1001
ACAD
1000
RTLwPs
1070
   158
  0
LINE
  5
6BFAF
100
AcDbEntity
  8
AREA2
 62
     0
100
AcDbLine
 10
-1.413694
 20
-1.484185
 30
0.0
 11
-1.413694
 21
-1.385431
 31
0.0
1001
ACAD
1000
RTLwPs
1070
   158
  0
MTEXT
  5
6BFB0
100
AcDbEntity
  8
AREA2
 62
     0
100
AcDbMText
 10
-1.413694
 20
-0.823058
 30
0.0
 40
0.085815
 41
0.0
 71
     5
 72
     1
  1
\A1;1 9/16 [39.88]
 11
0.0
 21
1.0
 31
0.0
1001
ACAD
1000
MTEXTBEGIN
1070
    73
1070
     1
1070
    44
1040
1.0
1070
    74
1070
     0
1000
MTEXTEND
1000
MTEXTBEGIN
1070
    73
1070
     1
1070
    44
1040
1.0
1070
    74
1070
     0
1000
MTEXTEND
1000
MTEXTBEGIN
1070
    73
1070
     1
1070
    44
1040
1.0
1070
    74
1070
     0
1000
MTEXTEND
1000
MTEXTBEGIN
1070
    73
1070
     1
1070
    44
1040
1.0
1070
    74
1070
     0
1000
MTEXTEND
1000
MTEXTBEGIN
1070
    73
1070
     1
1070
    44
1040
1.0
1070
    74
1070
     0
1000
MTEXTEND
1000
MTEXTBEGIN
1070
    73
1070
     1
1070
    44
1040
1.0
1070
    74
1070
     0
1000
MTEXTEND
1000
MTEXTBEGIN
1070
    73
1070
     1
1070
    44
1040
1.0
1070
    74
1070
     0
1000
MTEXTEND
1000
MTEXTBEGIN
1070
    73
1070
     1
1070
    44
1040
1.0
1070
    74
1070
     0
1000
MTEXTEND
1000
MTEXTBEGIN
1070
    73
1070
     1
1070
    44
1040
1.0
1070
    74
1070
     0
1000
MTEXTEND
1000
MTEXTBEGIN
1070
    73
1070
     1
1070
    44
1040
1.0
1070
    74
1070
     0
1000
MTEXTEND
1000
MTEXTBEGIN
1070
    73
1070
     1
1070
    44
1040
1.0
1070
    74
1070
     0
1000
MTEXTEND
1000
MTEXTBEGIN
1070
    73
1070
     1
1070
    44
1040
1.0
1070
    74
1070
     0
1000
MTEXTEND
1000
MTEXTBEGIN
1070
    73
1070
     1
1070
    44
1040
1.0
1070
    74
1070
     0
1000
MTEXTEND
1000
MTEXTBEGIN
1070
    73
1070
     1
1070
    44
1040
1.0
1070
    74
1070
     0
1000
MTEXTEND
1000
MTEXTBEGIN
1070
    73
1070
     1
1070
    44
1040
1.0
1070
    74
1070
     0
1000
MTEXTEND
1000
MTEXTBEGIN
1070
    73
1070
     1
1070
    44
1040
1.0
1070
    74
1070
     0
1000
MTEXTEND
1000
MTEXTBEGIN
1070
    73
1070
     1
1070
    44
1040
1.0
1070
    74
1070
     0
1000
MTEXTEND
  0
SOLID
  5
6BFB1
100
AcDbEntity
  8
AREA2
 62
     0
100
AcDbTrace
 10
-1.427997
 20
-0.085815
 30
0.0
 11
-1.399392
 21
-0.085815
 31
0.0
 12
-1.413694
 22
0.0
 32
0.0
 13
-1.413694
 23
0.0
 33
0.0
  0
SOLID
  5
6BFB2
100
AcDbEntity
  8
AREA2
 62
     0
100
AcDbTrace
 10
-1.427997
 20
-1.484185
 30
0.0
 11
-1.399392
 21
-1.484185
 31
0.0
 12
-1.413694
 22
-1.57
 32
0.0
 13
-1.413694
 23
-1.57
 33
0.0
  0
POINT
  5
6BFB3
100
AcDbEntity
  8
DEFPOINTS
 62
     0
100
AcDbPoint
 10
-0.963
 20
0.0
 30
0.8145
  0
POINT
  5
6BFB4
100
AcDbEntity
  8
DEFPOINTS
 62
     0
100
AcDbPoint
 10
-0.963
 20
-1.57
 30
-0.3555
  0
POINT
  5
6BFB5
100
AcDbEntity
  8
DEFPOINTS
 62
     0
100
AcDbPoint
 10
-1.413694
 20
-1.57
 30
0.0
  0
ENDBLK
  5
6BF85
100
AcDbEntity
  8
0
100
AcDbBlockEnd
  0
ENDSEC
  0
SECTION
  2
ENTITIES
  0
POINT
  5
6BDA8
100
AcDbEntity
  8
SNAP_POINTS
100
AcDbPoint
 10
0.0
 20
0.0
 30
0.0
  0
POLYLINE
  5
6BDA9
100
AcDbEntity
  8
0
100
AcDbPolygonMesh
 66
     1
 10
0.0
 20
0.0
 30
0.0
 70
    16
 71
     6
 72
     3
  0
VERTEX
  5
6BDAA
100
AcDbEntity
  8
0
100
AcDbVertex
100
AcDbPolygonMeshVertex
 10
-0.468
 20
0.8145
 30
-1.57
 70
    64
  0
VERTEX
  5
6BDAB
100
AcDbEntity
  8
0
100
AcDbVertex
100
AcDbPolygonMeshVertex
 10
-0.468
 20
0.8145
 30
0.0
 70
    64
  0
VERTEX
  5
6BDAC
100
AcDbEntity
  8
0
100
AcDbVertex
100
AcDbPolygonMeshVertex
 10
-0.468
 20
0.8145
 30
0.0
 70
    64
  0
VERTEX
  5
6BDAD
100
AcDbEntity
  8
0
100
AcDbVertex
100
AcDbPolygonMeshVertex
 10
-0.468
 20
-0.8145
 30
-1.57
 70
    64
  0
VERTEX
  5
6BDAE
100
AcDbEntity
  8
0
100
AcDbVertex
100
AcDbPolygonMeshVertex
 10
-0.468
 20
-0.8145
 30
0.0
 70
    64
  0
VERTEX
  5
6BDAF
100
AcDbEntity
  8
0
100
AcDbVertex
100
AcDbPolygonMeshVertex
 10
-0.468
 20
-0.8145
 30
0.0
 70
    64
  0
VERTEX
  5
6BDB0
100
AcDbEntity
  8
0
100
AcDbVertex
100
AcDbPolygonMeshVertex
 10
-0.126
 20
-0.8145
 30
-1.57
 70
    64
  0
VERTEX
  5
6BDB1
100
AcDbEntity
  8
0
100
AcDbVertex
100
AcDbPolygonMeshVertex
 10
-0.126
 20
-0.8145
 30
0.0
 70
    64
  0
VERTEX
  5
6BDB2
100
AcDbEntity
  8
0
100
AcDbVertex
100
AcDbPolygonMeshVertex
 10
-0.468
 20
-0.8145
 30
0.0
 70
    64
  0
VERTEX
  5
6BDB3
100
AcDbEntity
  8
0
100
AcDbVertex
100
AcDbPolygonMeshVertex
 10
-0.126
 20
0.8145
 30
-1.57
 70
    64
  0
VERTEX
  5
6BDB4
100
AcDbEntity
  8
0
100
AcDbVertex
100
AcDbPolygonMeshVertex
 10
-0.126
 20
0.8145
 30
0.0
 70
    64
  0
VERTEX
  5
6BDB5
100
AcDbEntity
  8
0
100
AcDbVertex
100
AcDbPolygonMeshVertex
 10
-0.468
 20
0.8145
 30
0.0
 70
    64
  0
VERTEX
  5
6BDB6
100
AcDbEntity
  8
0
100
AcDbVertex
100
AcDbPolygonMeshVertex
 10
-0.126
 20
0.8145
 30
-1.57
 70
    64
  0
VERTEX
  5
6BDB7
100
AcDbEntity
  8
0
100
AcDbVertex
100
AcDbPolygonMeshVertex
 10
-0.126
 20
0.8145
 30
-1.57
 70
    64
  0
VERTEX
  5
6BDB8
100
AcDbEntity
  8
0
100
AcDbVertex
100
AcDbPolygonMeshVertex
 10
-0.468
 20
0.8145
 30
-1.57
 70
    64
  0
VERTEX
  5
6BDB9
100
AcDbEntity
  8
0
100
AcDbVertex
100
AcDbPolygonMeshVertex
 10
-0.126
 20
-0.8145
 30
-1.57
 70
    64
  0
VERTEX
  5
6BDBA
100
AcDbEntity
  8
0
100
AcDbVertex
100
AcDbPolygonMeshVertex
 10
-0.126
 20
-0.8145
 30
-1.57
 70
    64
  0
VERTEX
  5
6BDBB
100
AcDbEntity
  8
0
100
AcDbVertex
100
AcDbPolygonMeshVertex
 10
-0.468
 20
-0.8145
 30
-1.57
 70
    64
  0
SEQEND
  5
6BDBC
100
AcDbEntity
  8
0
  0
POLYLINE
  5
6BDBD
100
AcDbEntity
  8
0
100
AcDbPolygonMesh
 66
     1
 10
0.0
 20
0.0
 30
0.0
 70
    16
 71
     6
 72
     3
  0
VERTEX
  5
6BDBE
100
AcDbEntity
  8
0
100
AcDbVertex
100
AcDbPolygonMeshVertex
 10
-0.963
 20
-0.3555
 30
-1.57
 70
    64
  0
VERTEX
  5
6BDBF
100
AcDbEntity
  8
0
100
AcDbVertex
100
AcDbPolygonMeshVertex
 10
-0.963
 20
-0.3555
 30
-1.024
 70
    64
  0
VERTEX
  5
6BDC0
100
AcDbEntity
  8
0
100
AcDbVertex
100
AcDbPolygonMeshVertex
 10
-0.963
 20
-0.3555
 30
-1.024
 70
    64
  0
VERTEX
  5
6BDC1
100
AcDbEntity
  8
0
100
AcDbVertex
100
AcDbPolygonMeshVertex
 10
-0.963
 20
-0.8975
 30
-1.57
 70
    64
  0
VERTEX
  5
6BDC2
100
AcDbEntity
  8
0
100
AcDbVertex
100
AcDbPolygonMeshVertex
 10
-0.963
 20
-0.8975
 30
-1.024
 70
    64
  0
VERTEX
  5
6BDC3
100
AcDbEntity
  8
0
100
AcDbVertex
100
AcDbPolygonMeshVertex
 10
-0.963
 20
-0.8975
 30
-1.024
 70
    64
  0
VERTEX
  5
6BDC4
100
AcDbEntity
  8
0
100
AcDbVertex
100
AcDbPolygonMeshVertex
 10
-0.468
 20
-0.8975
 30
-1.57
 70
    64
  0
VERTEX
  5
6BDC5
100
AcDbEntity
  8
0
100
AcDbVertex
100
AcDbPolygonMeshVertex
 10
-0.468
 20
-0.8975
 30
-1.024
 70
    64
  0
VERTEX
  5
6BDC6
100
AcDbEntity
  8
0
100
AcDbVertex
100
AcDbPolygonMeshVertex
 10
-0.963
 20
-0.8975
 30
-1.024
 70
    64
  0
VERTEX
  5
6BDC7
100
AcDbEntity
  8
0
100
AcDbVertex
100
AcDbPolygonMeshVertex
 10
-0.468
 20
-0.3555
 30
-1.57
 70
    64
  0
VERTEX
  5
6BDC8
100
AcDbEntity
  8
0
100
AcDbVertex
100
AcDbPolygonMeshVertex
 10
-0.468
 20
-0.3555
 30
-1.024
 70
    64
  0
VERTEX
  5
6BDC9
100
AcDbEntity
  8
0
100
AcDbVertex
100
AcDbPolygonMeshVertex
 10
-0.963
 20
-0.3555
 30
-1.024
 70
    64
  0
VERTEX
  5
6BDCA
100
AcDbEntity
  8
0
100
AcDbVertex
100
AcDbPolygonMeshVertex
 10
-0.468
 20
-0.3555
 30
-1.57
 70
    64
  0
VERTEX
  5
6BDCB
100
AcDbEntity
  8
0
100
AcDbVertex
100
AcDbPolygonMeshVertex
 10
-0.468
 20
-0.3555
 30
-1.57
 70
    64
  0
VERTEX
  5
6BDCC
100
AcDbEntity
  8
0
100
AcDbVertex
100
AcDbPolygonMeshVertex
 10
-0.963
 20
-0.3555
 30
-1.57
 70
    64
  0
VERTEX
  5
6BDCD
100
AcDbEntity
  8
0
100
AcDbVertex
100
AcDbPolygonMeshVertex
 10
-0.468
 20
-0.8975
 30
-1.57
 70
    64
  0
VERTEX
  5
6BDCE
100
AcDbEntity
  8
0
100
AcDbVertex
100
AcDbPolygonMeshVertex
 10
-0.468
 20
-0.8975
 30
-1.57
 70
    64
  0
VERTEX
  5
6BDCF
100
AcDbEntity
  8
0
100
AcDbVertex
100
AcDbPolygonMeshVertex
 10
-0.963
 20
-0.8975
 30
-1.57
 70
    64
  0
SEQEND
  5
6BDD0
100
AcDbEntity
  8
0
  0
POLYLINE
  5
6BDD1
100
AcDbEntity
  8
0
100
AcDbPolygonMesh
 66
     1
 10
0.0
 20
0.0
 30
0.0
 70
    16
 71
     6
 72
     3
  0
VERTEX
  5
6BDD2
100
AcDbEntity
  8
0
100
AcDbVertex
100
AcDbPolygonMeshVertex
 10
-0.963
 20
0.8975
 30
-1.57
 70
    64
  0
VERTEX
  5
6BDD3
100
AcDbEntity
  8
0
100
AcDbVertex
100
AcDbPolygonMeshVertex
 10
-0.963
 20
0.8975
 30
-1.024
 70
    64
  0
VERTEX
  5
6BDD4
100
AcDbEntity
  8
0
100
AcDbVertex
100
AcDbPolygonMeshVertex
 10
-0.963
 20
0.8975
 30
-1.024
 70
    64
  0
VERTEX
  5
6BDD5
100
AcDbEntity
  8
0
100
AcDbVertex
100
AcDbPolygonMeshVertex
 10
-0.963
 20
0.3555
 30
-1.57
 70
    64
  0
VERTEX
  5
6BDD6
100
AcDbEntity
  8
0
100
AcDbVertex
100
AcDbPolygonMeshVertex
 10
-0.963
 20
0.3555
 30
-1.024
 70
    64
  0
VERTEX
  5
6BDD7
100
AcDbEntity
  8
0
100
AcDbVertex
100
AcDbPolygonMeshVertex
 10
-0.963
 20
0.3555
 30
-1.024
 70
    64
  0
VERTEX
  5
6BDD8
100
AcDbEntity
  8
0
100
AcDbVertex
100
AcDbPolygonMeshVertex
 10
-0.468
 20
0.3555
 30
-1.57
 70
    64
  0
VERTEX
  5
6BDD9
100
AcDbEntity
  8
0
100
AcDbVertex
100
AcDbPolygonMeshVertex
 10
-0.468
 20
0.3555
 30
-1.024
 70
    64
  0
VERTEX
  5
6BDDA
100
AcDbEntity
  8
0
100
AcDbVertex
100
AcDbPolygonMeshVertex
 10
-0.963
 20
0.3555
 30
-1.024
 70
    64
  0
VERTEX
  5
6BDDB
100
AcDbEntity
  8
0
100
AcDbVertex
100
AcDbPolygonMeshVertex
 10
-0.468
 20
0.8975
 30
-1.57
 70
    64
  0
VERTEX
  5
6BDDC
100
AcDbEntity
  8
0
100
AcDbVertex
100
AcDbPolygonMeshVertex
 10
-0.468
 20
0.8975
 30
-1.024
 70
    64
  0
VERTEX
  5
6BDDD
100
AcDbEntity
  8
0
100
AcDbVertex
100
AcDbPolygonMeshVertex
 10
-0.963
 20
0.8975
 30
-1.024
 70
    64
  0
VERTEX
  5
6BDDE
100
AcDbEntity
  8
0
100
AcDbVertex
100
AcDbPolygonMeshVertex
 10
-0.468
 20
0.8975
 30
-1.57
 70
    64
  0
VERTEX
  5
6BDDF
100
AcDbEntity
  8
0
100
AcDbVertex
100
AcDbPolygonMeshVertex
 10
-0.468
 20
0.8975
 30
-1.57
 70
    64
  0
VERTEX
  5
6BDE0
100
AcDbEntity
  8
0
100
AcDbVertex
100
AcDbPolygonMeshVertex
 10
-0.963
 20
0.8975
 30
-1.57
 70
    64
  0
VERTEX
  5
6BDE1
100
AcDbEntity
  8
0
100
AcDbVertex
100
AcDbPolygonMeshVertex
 10
-0.468
 20
0.3555
 30
-1.57
 70
    64
  0
VERTEX
  5
6BDE2
100
AcDbEntity
  8
0
100
AcDbVertex
100
AcDbPolygonMeshVertex
 10
-0.468
 20
0.3555
 30
-1.57
 70
    64
  0
VERTEX
  5
6BDE3
100
AcDbEntity
  8
0
100
AcDbVertex
100
AcDbPolygonMeshVertex
 10
-0.963
 20
0.3555
 30
-1.57
 70
    64
  0
SEQEND
  5
6BDE4
100
AcDbEntity
  8
0
  0
POLYLINE
  5
6BDE5
100
AcDbEntity
  8
0
100
AcDbPolygonMesh
 66
     1
 10
0.0
 20
0.0
 30
0.0
 70
    16
 71
     6
 72
     3
  0
VERTEX
  5
6BDE6
100
AcDbEntity
  8
0
100
AcDbVertex
100
AcDbPolygonMeshVertex
 10
-0.468
 20
0.8975
 30
-0.18
 70
    64
  0
VERTEX
  5
6BDE7
100
AcDbEntity
  8
0
100
AcDbVertex
100
AcDbPolygonMeshVertex
 10
-0.468
 20
0.8975
 30
-0.18
 70
    64
  0
VERTEX
  5
6BDE8
100
AcDbEntity
  8
0
100
AcDbVertex
100
AcDbPolygonMeshVertex
 10
-0.468
 20
0.8975
 30
-0.18
 70
    64
  0
VERTEX
  5
6BDE9
100
AcDbEntity
  8
0
100
AcDbVertex
100
AcDbPolygonMeshVertex
 10
-0.468
 20
0.3555
 30
-1.024
 70
    64
  0
VERTEX
  5
6BDEA
100
AcDbEntity
  8
0
100
AcDbVertex
100
AcDbPolygonMeshVertex
 10
-0.468
 20
0.8975
 30
-1.024
 70
    64
  0
VERTEX
  5
6BDEB
100
AcDbEntity
  8
0
100
AcDbVertex
100
AcDbPolygonMeshVertex
 10
-0.468
 20
0.8975
 30
-1.024
 70
    64
  0
VERTEX
  5
6BDEC
100
AcDbEntity
  8
0
100
AcDbVertex
100
AcDbPolygonMeshVertex
 10
-0.963
 20
0.3555
 30
-1.024
 70
    64
  0
VERTEX
  5
6BDED
100
AcDbEntity
  8
0
100
AcDbVertex
100
AcDbPolygonMeshVertex
 10
-0.963
 20
0.8975
 30
-1.024
 70
    64
  0
VERTEX
  5
6BDEE
100
AcDbEntity
  8
0
100
AcDbVertex
100
AcDbPolygonMeshVertex
 10
-0.468
 20
0.8975
 30
-1.024
 70
    64
  0
VERTEX
  5
6BDEF
100
AcDbEntity
  8
0
100
AcDbVertex
100
AcDbPolygonMeshVertex
 10
-0.963
 20
0.8975
 30
-0.18
 70
    64
  0
VERTEX
  5
6BDF0
100
AcDbEntity
  8
0
100
AcDbVertex
100
AcDbPolygonMeshVertex
 10
-0.963
 20
0.8975
 30
-0.18
 70
    64
  0
VERTEX
  5
6BDF1
100
AcDbEntity
  8
0
100
AcDbVertex
100
AcDbPolygonMeshVertex
 10
-0.468
 20
0.8975
 30
-0.18
 70
    64
  0
VERTEX
  5
6BDF2
100
AcDbEntity
  8
0
100
AcDbVertex
100
AcDbPolygonMeshVertex
 10
-0.963
 20
0.8975
 30
-0.18
 70
    64
  0
VERTEX
  5
6BDF3
100
AcDbEntity
  8
0
100
AcDbVertex
100
AcDbPolygonMeshVertex
 10
-0.963
 20
0.8975
 30
-0.18
 70
    64
  0
VERTEX
  5
6BDF4
100
AcDbEntity
  8
0
100
AcDbVertex
100
AcDbPolygonMeshVertex
 10
-0.468
 20
0.8975
 30
-0.18
 70
    64
  0
VERTEX
  5
6BDF5
100
AcDbEntity
  8
0
100
AcDbVertex
100
AcDbPolygonMeshVertex
 10
-0.963
 20
0.3555
 30
-1.024
 70
    64
  0
VERTEX
  5
6BDF6
100
AcDbEntity
  8
0
100
AcDbVertex
100
AcDbPolygonMeshVertex
 10
-0.963
 20
0.3555
 30
-1.024
 70
    64
  0
VERTEX
  5
6BDF7
100
AcDbEntity
  8
0
100
AcDbVertex
100
AcDbPolygonMeshVertex
 10
-0.468
 20
0.3555
 30
-1.024
 70
    64
  0
SEQEND
  5
6BDF8
100
AcDbEntity
  8
0
  0
POLYLINE
  5
6BDF9
100
AcDbEntity
  8
0
100
AcDbPolygonMesh
 66
     1
 10
0.0
 20
0.0
 30
0.0
 70
    16
 71
     6
 72
     3
  0
VERTEX
  5
6BDFA
100
AcDbEntity
  8
0
100
AcDbVertex
100
AcDbPolygonMeshVertex
 10
-0.468
 20
-0.8975
 30
-0.18
 70
    64
  0
VERTEX
  5
6BDFB
100
AcDbEntity
  8
0
100
AcDbVertex
100
AcDbPolygonMeshVertex
 10
-0.468
 20
-0.8975
 30
-0.18
 70
    64
  0
VERTEX
  5
6BDFC
100
AcDbEntity
  8
0
100
AcDbVertex
100
AcDbPolygonMeshVertex
 10
-0.468
 20
-0.8975
 30
-0.18
 70
    64
  0
VERTEX
  5
6BDFD
100
AcDbEntity
  8
0
100
AcDbVertex
100
AcDbPolygonMeshVertex
 10
-0.468
 20
-0.3555
 30
-1.024
 70
    64
  0
VERTEX
  5
6BDFE
100
AcDbEntity
  8
0
100
AcDbVertex
100
AcDbPolygonMeshVertex
 10
-0.468
 20
-0.8975
 30
-1.024
 70
    64
  0
VERTEX
  5
6BDFF
100
AcDbEntity
  8
0
100
AcDbVertex
100
AcDbPolygonMeshVertex
 10
-0.468
 20
-0.8975
 30
-1.024
 70
    64
  0
VERTEX
  5
6BE00
100
AcDbEntity
  8
0
100
AcDbVertex
100
AcDbPolygonMeshVertex
 10
-0.963
 20
-0.3555
 30
-1.024
 70
    64
  0
VERTEX
  5
6BE01
100
AcDbEntity
  8
0
100
AcDbVertex
100
AcDbPolygonMeshVertex
 10
-0.963
 20
-0.8975
 30
-1.024
 70
    64
  0
VERTEX
  5
6BE02
100
AcDbEntity
  8
0
100
AcDbVertex
100
AcDbPolygonMeshVertex
 10
-0.468
 20
-0.8975
 30
-1.024
 70
    64
  0
VERTEX
  5
6BE03
100
AcDbEntity
  8
0
100
AcDbVertex
100
AcDbPolygonMeshVertex
 10
-0.963
 20
-0.8975
 30
-0.18
 70
    64
  0
VERTEX
  5
6BE04
100
AcDbEntity
  8
0
100
AcDbVertex
100
AcDbPolygonMeshVertex
 10
-0.963
 20
-0.8975
 30
-0.18
 70
    64
  0
VERTEX
  5
6BE05
100
AcDbEntity
  8
0
100
AcDbVertex
100
AcDbPolygonMeshVertex
 10
-0.468
 20
-0.8975
 30
-0.18
 70
    64
  0
VERTEX
  5
6BE06
100
AcDbEntity
  8
0
100
AcDbVertex
100
AcDbPolygonMeshVertex
 10
-0.963
 20
-0.8975
 30
-0.18
 70
    64
  0
VERTEX
  5
6BE07
100
AcDbEntity
  8
0
100
AcDbVertex
100
AcDbPolygonMeshVertex
 10
-0.963
 20
-0.8975
 30
-0.18
 70
    64
  0
VERTEX
  5
6BE08
100
AcDbEntity
  8
0
100
AcDbVertex
100
AcDbPolygonMeshVertex
 10
-0.468
 20
-0.8975
 30
-0.18
 70
    64
  0
VERTEX
  5
6BE09
100
AcDbEntity
  8
0
100
AcDbVertex
100
AcDbPolygonMeshVertex
 10
-0.963
 20
-0.3555
 30
-1.024
 70
    64
  0
VERTEX
  5
6BE0A
100
AcDbEntity
  8
0
100
AcDbVertex
100
AcDbPolygonMeshVertex
 10
-0.963
 20
-0.3555
 30
-1.024
 70
    64
  0
VERTEX
  5
6BE0B
100
AcDbEntity
  8
0
100
AcDbVertex
100
AcDbPolygonMeshVertex
 10
-0.468
 20
-0.3555
 30
-1.024
 70
    64
  0
SEQEND
  5
6BE0C
100
AcDbEntity
  8
0
  0
POLYLINE
  5
6BE0D
100
AcDbEntity
  8
0
100
AcDbPolygonMesh
 66
     1
 10
0.0
 20
0.0
 30
0.0
 70
    16
 71
     6
 72
     3
  0
VERTEX
  5
6BE0E
100
AcDbEntity
  8
0
100
AcDbVertex
100
AcDbPolygonMeshVertex
 10
-0.963
 20
0.462368
 30
-0.857586
 70
    64
  0
VERTEX
  5
6BE0F
100
AcDbEntity
  8
0
100
AcDbVertex
100
AcDbPolygonMeshVertex
 10
-0.963
 20
0.767668
 30
-0.382174
 70
    64
  0
VERTEX
  5
6BE10
100
AcDbEntity
  8
0
100
AcDbVertex
100
AcDbPolygonMeshVertex
 10
-0.963
 20
0.767668
 30
-0.382174
 70
    64
  0
VERTEX
  5
6BE11
100
AcDbEntity
  8
0
100
AcDbVertex
100
AcDbPolygonMeshVertex
 10
-0.963
 20
0.147585
 30
-0.655439
 70
    64
  0
VERTEX
  5
6BE12
100
AcDbEntity
  8
0
100
AcDbVertex
100
AcDbPolygonMeshVertex
 10
-0.963
 20
0.452885
 30
-0.180027
 70
    64
  0
VERTEX
  5
6BE13
100
AcDbEntity
  8
0
100
AcDbVertex
100
AcDbPolygonMeshVertex
 10
-0.963
 20
0.452885
 30
-0.180027
 70
    64
  0
VERTEX
  5
6BE14
100
AcDbEntity
  8
0
100
AcDbVertex
100
AcDbPolygonMeshVertex
 10
-0.468
 20
0.147585
 30
-0.655439
 70
    64
  0
VERTEX
  5
6BE15
100
AcDbEntity
  8
0
100
AcDbVertex
100
AcDbPolygonMeshVertex
 10
-0.468
 20
0.452885
 30
-0.180027
 70
    64
  0
VERTEX
  5
6BE16
100
AcDbEntity
  8
0
100
AcDbVertex
100
AcDbPolygonMeshVertex
 10
-0.963
 20
0.452885
 30
-0.180027
 70
    64
  0
VERTEX
  5
6BE17
100
AcDbEntity
  8
0
100
AcDbVertex
100
AcDbPolygonMeshVertex
 10
-0.468
 20
0.462368
 30
-0.857586
 70
    64
  0
VERTEX
  5
6BE18
100
AcDbEntity
  8
0
100
AcDbVertex
100
AcDbPolygonMeshVertex
 10
-0.468
 20
0.767668
 30
-0.382174
 70
    64
  0
VERTEX
  5
6BE19
100
AcDbEntity
  8
0
100
AcDbVertex
100
AcDbPolygonMeshVertex
 10
-0.963
 20
0.767668
 30
-0.382174
 70
    64
  0
VERTEX
  5
6BE1A
100
AcDbEntity
  8
0
100
AcDbVertex
100
AcDbPolygonMeshVertex
 10
-0.468
 20
0.462368
 30
-0.857586
 70
    64
  0
VERTEX
  5
6BE1B
100
AcDbEntity
  8
0
100
AcDbVertex
100
AcDbPolygonMeshVertex
 10
-0.468
 20
0.462368
 30
-0.857586
 70
    64
  0
VERTEX
  5
6BE1C
100
AcDbEntity
  8
0
100
AcDbVertex
100
AcDbPolygonMeshVertex
 10
-0.963
 20
0.462368
 30
-0.857586
 70
    64
  0
VERTEX
  5
6BE1D
100
AcDbEntity
  8
0
100
AcDbVertex
100
AcDbPolygonMeshVertex
 10
-0.468
 20
0.147585
 30
-0.655439
 70
    64
  0
VERTEX
  5
6BE1E
100
AcDbEntity
  8
0
100
AcDbVertex
100
AcDbPolygonMeshVertex
 10
-0.468
 20
0.147585
 30
-0.655439
 70
    64
  0
VERTEX
  5
6BE1F
100
AcDbEntity
  8
0
100
AcDbVertex
100
AcDbPolygonMeshVertex
 10
-0.963
 20
0.147585
 30
-0.655439
 70
    64
  0
SEQEND
  5
6BE20
100
AcDbEntity
  8
0
  0
POLYLINE
  5
6BE21
100
AcDbEntity
  8
0
100
AcDbPolygonMesh
 66
     1
 10
0.0
 20
0.0
 30
0.0
 70
    16
 71
     6
 72
     3
  0
VERTEX
  5
6BE22
100
AcDbEntity
  8
0
100
AcDbVertex
100
AcDbPolygonMeshVertex
 10
-0.963
 20
0.452885
 30
-0.180027
 70
    64
  0
VERTEX
  5
6BE23
100
AcDbEntity
  8
0
100
AcDbVertex
100
AcDbPolygonMeshVertex
 10
-0.963
 20
0.452885
 30
-0.180027
 70
    64
  0
VERTEX
  5
6BE24
100
AcDbEntity
  8
0
100
AcDbVertex
100
AcDbPolygonMeshVertex
 10
-0.963
 20
0.452885
 30
-0.180027
 70
    64
  0
VERTEX
  5
6BE25
100
AcDbEntity
  8
0
100
AcDbVertex
100
AcDbPolygonMeshVertex
 10
-0.963
 20
0.8975
 30
-0.18
 70
    64
  0
VERTEX
  5
6BE26
100
AcDbEntity
  8
0
100
AcDbVertex
100
AcDbPolygonMeshVertex
 10
-0.963
 20
0.767668
 30
-0.382174
 70
    64
  0
VERTEX
  5
6BE27
100
AcDbEntity
  8
0
100
AcDbVertex
100
AcDbPolygonMeshVertex
 10
-0.963
 20
0.767668
 30
-0.382174
 70
    64
  0
VERTEX
  5
6BE28
100
AcDbEntity
  8
0
100
AcDbVertex
100
AcDbPolygonMeshVertex
 10
-0.468
 20
0.8975
 30
-0.18
 70
    64
  0
VERTEX
  5
6BE29
100
AcDbEntity
  8
0
100
AcDbVertex
100
AcDbPolygonMeshVertex
 10
-0.468
 20
0.767668
 30
-0.382174
 70
    64
  0
VERTEX
  5
6BE2A
100
AcDbEntity
  8
0
100
AcDbVertex
100
AcDbPolygonMeshVertex
 10
-0.963
 20
0.767668
 30
-0.382174
 70
    64
  0
VERTEX
  5
6BE2B
100
AcDbEntity
  8
0
100
AcDbVertex
100
AcDbPolygonMeshVertex
 10
-0.468
 20
0.452885
 30
-0.180027
 70
    64
  0
VERTEX
  5
6BE2C
100
AcDbEntity
  8
0
100
AcDbVertex
100
AcDbPolygonMeshVertex
 10
-0.468
 20
0.452885
 30
-0.180027
 70
    64
  0
VERTEX
  5
6BE2D
100
AcDbEntity
  8
0
100
AcDbVertex
100
AcDbPolygonMeshVertex
 10
-0.963
 20
0.452885
 30
-0.180027
 70
    64
  0
VERTEX
  5
6BE2E
100
AcDbEntity
  8
0
100
AcDbVertex
100
AcDbPolygonMeshVertex
 10
-0.468
 20
0.452885
 30
-0.180027
 70
    64
  0
VERTEX
  5
6BE2F
100
AcDbEntity
  8
0
100
AcDbVertex
100
AcDbPolygonMeshVertex
 10
-0.468
 20
0.452885
 30
-0.180027
 70
    64
  0
VERTEX
  5
6BE30
100
AcDbEntity
  8
0
100
AcDbVertex
100
AcDbPolygonMeshVertex
 10
-0.963
 20
0.452885
 30
-0.180027
 70
    64
  0
VERTEX
  5
6BE31
100
AcDbEntity
  8
0
100
AcDbVertex
100
AcDbPolygonMeshVertex
 10
-0.468
 20
0.8975
 30
-0.18
 70
    64
  0
VERTEX
  5
6BE32
100
AcDbEntity
  8
0
100
AcDbVertex
100
AcDbPolygonMeshVertex
 10
-0.468
 20
0.8975
 30
-0.18
 70
    64
  0
VERTEX
  5
6BE33
100
AcDbEntity
  8
0
100
AcDbVertex
100
AcDbPolygonMeshVertex
 10
-0.963
 20
0.8975
 30
-0.18
 70
    64
  0
SEQEND
  5
6BE34
100
AcDbEntity
  8
0
  0
POLYLINE
  5
6BE35
100
AcDbEntity
  8
0
100
AcDbPolygonMesh
 66
     1
 10
0.0
 20
0.0
 30
0.0
 70
    16
 71
     6
 72
     3
  0
VERTEX
  5
6BE36
100
AcDbEntity
  8
0
100
AcDbVertex
100
AcDbPolygonMeshVertex
 10
-0.963
 20
-0.452885
 30
-0.180027
 70
    64
  0
VERTEX
  5
6BE37
100
AcDbEntity
  8
0
100
AcDbVertex
100
AcDbPolygonMeshVertex
 10
-0.963
 20
-0.452885
 30
-0.180027
 70
    64
  0
VERTEX
  5
6BE38
100
AcDbEntity
  8
0
100
AcDbVertex
100
AcDbPolygonMeshVertex
 10
-0.963
 20
-0.452885
 30
-0.180027
 70
    64
  0
VERTEX
  5
6BE39
100
AcDbEntity
  8
0
100
AcDbVertex
100
AcDbPolygonMeshVertex
 10
-0.963
 20
-0.8975
 30
-0.18
 70
    64
  0
VERTEX
  5
6BE3A
100
AcDbEntity
  8
0
100
AcDbVertex
100
AcDbPolygonMeshVertex
 10
-0.963
 20
-0.767668
 30
-0.382174
 70
    64
  0
VERTEX
  5
6BE3B
100
AcDbEntity
  8
0
100
AcDbVertex
100
AcDbPolygonMeshVertex
 10
-0.963
 20
-0.767668
 30
-0.382174
 70
    64
  0
VERTEX
  5
6BE3C
100
AcDbEntity
  8
0
100
AcDbVertex
100
AcDbPolygonMeshVertex
 10
-0.468
 20
-0.8975
 30
-0.18
 70
    64
  0
VERTEX
  5
6BE3D
100
AcDbEntity
  8
0
100
AcDbVertex
100
AcDbPolygonMeshVertex
 10
-0.468
 20
-0.767668
 30
-0.382174
 70
    64
  0
VERTEX
  5
6BE3E
100
AcDbEntity
  8
0
100
AcDbVertex
100
AcDbPolygonMeshVertex
 10
-0.963
 20
-0.767668
 30
-0.382174
 70
    64
  0
VERTEX
  5
6BE3F
100
AcDbEntity
  8
0
100
AcDbVertex
100
AcDbPolygonMeshVertex
 10
-0.468
 20
-0.452885
 30
-0.180027
 70
    64
  0
VERTEX
  5
6BE40
100
AcDbEntity
  8
0
100
AcDbVertex
100
AcDbPolygonMeshVertex
 10
-0.468
 20
-0.452885
 30
-0.180027
 70
    64
  0
VERTEX
  5
6BE41
100
AcDbEntity
  8
0
100
AcDbVertex
100
AcDbPolygonMeshVertex
 10
-0.963
 20
-0.452885
 30
-0.180027
 70
    64
  0
VERTEX
  5
6BE42
100
AcDbEntity
  8
0
100
AcDbVertex
100
AcDbPolygonMeshVertex
 10
-0.468
 20
-0.452885
 30
-0.180027
 70
    64
  0
VERTEX
  5
6BE43
100
AcDbEntity
  8
0
100
AcDbVertex
100
AcDbPolygonMeshVertex
 10
-0.468
 20
-0.452885
 30
-0.180027
 70
    64
  0
VERTEX
  5
6BE44
100
AcDbEntity
  8
0
100
AcDbVertex
100
AcDbPolygonMeshVertex
 10
-0.963
 20
-0.452885
 30
-0.180027
 70
    64
  0
VERTEX
  5
6BE45
100
AcDbEntity
  8
0
100
AcDbVertex
100
AcDbPolygonMeshVertex
 10
-0.468
 20
-0.8975
 30
-0.18
 70
    64
  0
VERTEX
  5
6BE46
100
AcDbEntity
  8
0
100
AcDbVertex
100
AcDbPolygonMeshVertex
 10
-0.468
 20
-0.8975
 30
-0.18
 70
    64
  0
VERTEX
  5
6BE47
100
AcDbEntity
  8
0
100
AcDbVertex
100
AcDbPolygonMeshVertex
 10
-0.963
 20
-0.8975
 30
-0.18
 70
    64
  0
SEQEND
  5
6BE48
100
AcDbEntity
  8
0
  0
POLYLINE
  5
6BE49
100
AcDbEntity
  8
0
100
AcDbPolygonMesh
 66
     1
 10
0.0
 20
0.0
 30
0.0
 70
    16
 71
     6
 72
     3
  0
VERTEX
  5
6BE4A
100
AcDbEntity
  8
0
100
AcDbVertex
100
AcDbPolygonMeshVertex
 10
-0.963
 20
-0.462368
 30
-0.857586
 70
    64
  0
VERTEX
  5
6BE4B
100
AcDbEntity
  8
0
100
AcDbVertex
100
AcDbPolygonMeshVertex
 10
-0.963
 20
-0.767668
 30
-0.382174
 70
    64
  0
VERTEX
  5
6BE4C
100
AcDbEntity
  8
0
100
AcDbVertex
100
AcDbPolygonMeshVertex
 10
-0.963
 20
-0.767668
 30
-0.382174
 70
    64
  0
VERTEX
  5
6BE4D
100
AcDbEntity
  8
0
100
AcDbVertex
100
AcDbPolygonMeshVertex
 10
-0.963
 20
-0.147585
 30
-0.655439
 70
    64
  0
VERTEX
  5
6BE4E
100
AcDbEntity
  8
0
100
AcDbVertex
100
AcDbPolygonMeshVertex
 10
-0.963
 20
-0.452885
 30
-0.180027
 70
    64
  0
VERTEX
  5
6BE4F
100
AcDbEntity
  8
0
100
AcDbVertex
100
AcDbPolygonMeshVertex
 10
-0.963
 20
-0.452885
 30
-0.180027
 70
    64
  0
VERTEX
  5
6BE50
100
AcDbEntity
  8
0
100
AcDbVertex
100
AcDbPolygonMeshVertex
 10
-0.468
 20
-0.147585
 30
-0.655439
 70
    64
  0
VERTEX
  5
6BE51
100
AcDbEntity
  8
0
100
AcDbVertex
100
AcDbPolygonMeshVertex
 10
-0.468
 20
-0.452885
 30
-0.180027
 70
    64
  0
VERTEX
  5
6BE52
100
AcDbEntity
  8
0
100
AcDbVertex
100
AcDbPolygonMeshVertex
 10
-0.963
 20
-0.452885
 30
-0.180027
 70
    64
  0
VERTEX
  5
6BE53
100
AcDbEntity
  8
0
100
AcDbVertex
100
AcDbPolygonMeshVertex
 10
-0.468
 20
-0.462368
 30
-0.857586
 70
    64
  0
VERTEX
  5
6BE54
100
AcDbEntity
  8
0
100
AcDbVertex
100
AcDbPolygonMeshVertex
 10
-0.468
 20
-0.767668
 30
-0.382174
 70
    64
  0
VERTEX
  5
6BE55
100
AcDbEntity
  8
0
100
AcDbVertex
100
AcDbPolygonMeshVertex
 10
-0.963
 20
-0.767668
 30
-0.382174
 70
    64
  0
VERTEX
  5
6BE56
100
AcDbEntity
  8
0
100
AcDbVertex
100
AcDbPolygonMeshVertex
 10
-0.468
 20
-0.462368
 30
-0.857586
 70
    64
  0
VERTEX
  5
6BE57
100
AcDbEntity
  8
0
100
AcDbVertex
100
AcDbPolygonMeshVertex
 10
-0.468
 20
-0.462368
 30
-0.857586
 70
    64
  0
VERTEX
  5
6BE58
100
AcDbEntity
  8
0
100
AcDbVertex
100
AcDbPolygonMeshVertex
 10
-0.963
 20
-0.462368
 30
-0.857586
 70
    64
  0
VERTEX
  5
6BE59
100
AcDbEntity
  8
0
100
AcDbVertex
100
AcDbPolygonMeshVertex
 10
-0.468
 20
-0.147585
 30
-0.655439
 70
    64
  0
VERTEX
  5
6BE5A
100
AcDbEntity
  8
0
100
AcDbVertex
100
AcDbPolygonMeshVertex
 10
-0.468
 20
-0.147585
 30
-0.655439
 70
    64
  0
VERTEX
  5
6BE5B
100
AcDbEntity
  8
0
100
AcDbVertex
100
AcDbPolygonMeshVertex
 10
-0.963
 20
-0.147585
 30
-0.655439
 70
    64
  0
SEQEND
  5
6BE5C
100
AcDbEntity
  8
0
  0
CIRCLE
  5
6BE5D
100
AcDbEntity
  8
0
100
AcDbCircle
 10
-0.7155
 20
-0.723954
 30
0.471763
 40
0.1285
210
-0.0000000000000054
220
-0.5403544246916719
230
-0.8414375174165533
  0
CIRCLE
  5
6BE5E
100
AcDbEntity
  8
0
100
AcDbCircle
 10
0.7155
 20
-0.723954
 30
0.471763
 40
0.1285
210
-0.0000000000000054
220
0.5403544246916719
230
-0.8414375174165533
  0
LINE
  5
6BE5F
100
AcDbEntity
  8
0
100
AcDbLine
 10
-0.7355
 20
0.46105
 30
-0.85674
 11
-0.7355
 21
0.247436
 31
-0.719561
210
-0.0000000000000044
220
-0.5403544246916709
230
-0.841437517416554
  0
LINE
  5
6BE60
100
AcDbEntity
  8
0
100
AcDbLine
 10
-0.6955
 20
0.46105
 30
-0.85674
 11
-0.6955
 21
0.247436
 31
-0.719561
210
-0.0000000000000044
220
-0.5403544246916709
230
-0.841437517416554
  0
LINE
  5
6BE61
100
AcDbEntity
  8
0
100
AcDbLine
 10
-0.6955
 20
-0.46105
 30
-0.85674
 11
-0.6955
 21
-0.247436
 31
-0.719561
210
-0.0000000000000044
220
0.5403544246916709
230
-0.841437517416554
  0
LINE
  5
6BE62
100
AcDbEntity
  8
0
100
AcDbLine
 10
-0.7355
 20
-0.46105
 30
-0.85674
 11
-0.7355
 21
-0.247436
 31
-0.719561
210
-0.0000000000000044
220
0.5403544246916709
230
-0.841437517416554
  0
CIRCLE
  5
6BE63
100
AcDbEntity
  8
0
100
AcDbCircle
 10
0.7155
 20
0.6265
 30
1.57
 40
0.1285
210
0.0
220
0.0
230
-1.0
  0
LINE
  5
6BE64
100
AcDbEntity
  8
0
100
AcDbLine
 10
-0.7355
 20
0.753434
 30
-1.57
 11
-0.7355
 21
0.499566
 31
-1.57
210
0.0
220
0.0
230
-1.0
  0
LINE
  5
6BE65
100
AcDbEntity
  8
0
100
AcDbLine
 10
-0.6955
 20
0.753434
 30
-1.57
 11
-0.6955
 21
0.499566
 31
-1.57
210
0.0
220
0.0
230
-1.0
  0
CIRCLE
  5
6BE66
100
AcDbEntity
  8
0
100
AcDbCircle
 10
0.7155
 20
-0.6265
 30
1.57
 40
0.1285
210
0.0
220
0.0
230
-1.0
  0
LINE
  5
6BE67
100
AcDbEntity
  8
0
100
AcDbLine
 10
-0.6955
 20
-0.753434
 30
-1.57
 11
-0.6955
 21
-0.499566
 31
-1.57
210
0.0
220
0.0
230
-1.0
  0
LINE
  5
6BE68
100
AcDbEntity
  8
0
100
AcDbLine
 10
-0.7355
 20
-0.753434
 30
-1.57
 11
-0.7355
 21
-0.499566
 31
-1.57
210
0.0
220
0.0
230
-1.0
  0
POLYLINE
  5
6BE69
100
AcDbEntity
  8
0
100
AcDbPolygonMesh
 66
     1
 10
0.0
 20
0.0
 30
0.0
 70
    16
 71
     6
 72
     3
  0
VERTEX
  5
6BE6A
100
AcDbEntity
  8
0
100
AcDbVertex
100
AcDbPolygonMeshVertex
 10
0.0
 20
0.373
 30
-1.03
 70
    64
  0
VERTEX
  5
6BE6B
100
AcDbEntity
  8
0
100
AcDbVertex
100
AcDbPolygonMeshVertex
 10
0.0
 20
0.373
 30
0.0
 70
    64
  0
VERTEX
  5
6BE6C
100
AcDbEntity
  8
0
100
AcDbVertex
100
AcDbPolygonMeshVertex
 10
0.0
 20
0.373
 30
0.0
 70
    64
  0
VERTEX
  5
6BE6D
100
AcDbEntity
  8
0
100
AcDbVertex
100
AcDbPolygonMeshVertex
 10
0.0
 20
0.8145
 30
-1.03
 70
    64
  0
VERTEX
  5
6BE6E
100
AcDbEntity
  8
0
100
AcDbVertex
100
AcDbPolygonMeshVertex
 10
0.0
 20
0.8145
 30
0.0
 70
    64
  0
VERTEX
  5
6BE6F
100
AcDbEntity
  8
0
100
AcDbVertex
100
AcDbPolygonMeshVertex
 10
0.0
 20
0.8145
 30
0.0
 70
    64
  0
VERTEX
  5
6BE70
100
AcDbEntity
  8
0
100
AcDbVertex
100
AcDbPolygonMeshVertex
 10
-0.126
 20
0.8145
 30
-1.03
 70
    64
  0
VERTEX
  5
6BE71
100
AcDbEntity
  8
0
100
AcDbVertex
100
AcDbPolygonMeshVertex
 10
-0.126
 20
0.8145
 30
0.0
 70
    64
  0
VERTEX
  5
6BE72
100
AcDbEntity
  8
0
100
AcDbVertex
100
AcDbPolygonMeshVertex
 10
0.0
 20
0.8145
 30
0.0
 70
    64
  0
VERTEX
  5
6BE73
100
AcDbEntity
  8
0
100
AcDbVertex
100
AcDbPolygonMeshVertex
 10
-0.126
 20
0.373
 30
-1.03
 70
    64
  0
VERTEX
  5
6BE74
100
AcDbEntity
  8
0
100
AcDbVertex
100
AcDbPolygonMeshVertex
 10
-0.126
 20
0.373
 30
0.0
 70
    64
  0
VERTEX
  5
6BE75
100
AcDbEntity
  8
0
100
AcDbVertex
100
AcDbPolygonMeshVertex
 10
0.0
 20
0.373
 30
0.0
 70
    64
  0
VERTEX
  5
6BE76
100
AcDbEntity
  8
0
100
AcDbVertex
100
AcDbPolygonMeshVertex
 10
-0.126
 20
0.373
 30
-1.03
 70
    64
  0
VERTEX
  5
6BE77
100
AcDbEntity
  8
0
100
AcDbVertex
100
AcDbPolygonMeshVertex
 10
-0.126
 20
0.373
 30
-1.03
 70
    64
  0
VERTEX
  5
6BE78
100
AcDbEntity
  8
0
100
AcDbVertex
100
AcDbPolygonMeshVertex
 10
0.0
 20
0.373
 30
-1.03
 70
    64
  0
VERTEX
  5
6BE79
100
AcDbEntity
  8
0
100
AcDbVertex
100
AcDbPolygonMeshVertex
 10
-0.126
 20
0.8145
 30
-1.03
 70
    64
  0
VERTEX
  5
6BE7A
100
AcDbEntity
  8
0
100
AcDbVertex
100
AcDbPolygonMeshVertex
 10
-0.126
 20
0.8145
 30
-1.03
 70
    64
  0
VERTEX
  5
6BE7B
100
AcDbEntity
  8
0
100
AcDbVertex
100
AcDbPolygonMeshVertex
 10
0.0
 20
0.8145
 30
-1.03
 70
    64
  0
SEQEND
  5
6BE7C
100
AcDbEntity
  8
0
  0
POLYLINE
  5
6BE7D
100
AcDbEntity
  8
0
100
AcDbPolygonMesh
 66
     1
 10
0.0
 20
0.0
 30
0.0
 70
    16
 71
     6
 72
     3
  0
VERTEX
  5
6BE7E
100
AcDbEntity
  8
0
100
AcDbVertex
100
AcDbPolygonMeshVertex
 10
0.0
 20
-0.8145
 30
-1.03
 70
    64
  0
VERTEX
  5
6BE7F
100
AcDbEntity
  8
0
100
AcDbVertex
100
AcDbPolygonMeshVertex
 10
0.0
 20
-0.8145
 30
0.0
 70
    64
  0
VERTEX
  5
6BE80
100
AcDbEntity
  8
0
100
AcDbVertex
100
AcDbPolygonMeshVertex
 10
0.0
 20
-0.8145
 30
0.0
 70
    64
  0
VERTEX
  5
6BE81
100
AcDbEntity
  8
0
100
AcDbVertex
100
AcDbPolygonMeshVertex
 10
0.0
 20
-0.373
 30
-1.03
 70
    64
  0
VERTEX
  5
6BE82
100
AcDbEntity
  8
0
100
AcDbVertex
100
AcDbPolygonMeshVertex
 10
0.0
 20
-0.373
 30
0.0
 70
    64
  0
VERTEX
  5
6BE83
100
AcDbEntity
  8
0
100
AcDbVertex
100
AcDbPolygonMeshVertex
 10
0.0
 20
-0.373
 30
0.0
 70
    64
  0
VERTEX
  5
6BE84
100
AcDbEntity
  8
0
100
AcDbVertex
100
AcDbPolygonMeshVertex
 10
-0.126
 20
-0.373
 30
-1.03
 70
    64
  0
VERTEX
  5
6BE85
100
AcDbEntity
  8
0
100
AcDbVertex
100
AcDbPolygonMeshVertex
 10
-0.126
 20
-0.373
 30
0.0
 70
    64
  0
VERTEX
  5
6BE86
100
AcDbEntity
  8
0
100
AcDbVertex
100
AcDbPolygonMeshVertex
 10
0.0
 20
-0.373
 30
0.0
 70
    64
  0
VERTEX
  5
6BE87
100
AcDbEntity
  8
0
100
AcDbVertex
100
AcDbPolygonMeshVertex
 10
-0.126
 20
-0.8145
 30
-1.03
 70
    64
  0
VERTEX
  5
6BE88
100
AcDbEntity
  8
0
100
AcDbVertex
100
AcDbPolygonMeshVertex
 10
-0.126
 20
-0.8145
 30
0.0
 70
    64
  0
VERTEX
  5
6BE89
100
AcDbEntity
  8
0
100
AcDbVertex
100
AcDbPolygonMeshVertex
 10
0.0
 20
-0.8145
 30
0.0
 70
    64
  0
VERTEX
  5
6BE8A
100
AcDbEntity
  8
0
100
AcDbVertex
100
AcDbPolygonMeshVertex
 10
-0.126
 20
-0.8145
 30
-1.03
 70
    64
  0
VERTEX
  5
6BE8B
100
AcDbEntity
  8
0
100
AcDbVertex
100
AcDbPolygonMeshVertex
 10
-0.126
 20
-0.8145
 30
-1.03
 70
    64
  0
VERTEX
  5
6BE8C
100
AcDbEntity
  8
0
100
AcDbVertex
100
AcDbPolygonMeshVertex
 10
0.0
 20
-0.8145
 30
-1.03
 70
    64
  0
VERTEX
  5
6BE8D
100
AcDbEntity
  8
0
100
AcDbVertex
100
AcDbPolygonMeshVertex
 10
-0.126
 20
-0.373
 30
-1.03
 70
    64
  0
VERTEX
  5
6BE8E
100
AcDbEntity
  8
0
100
AcDbVertex
100
AcDbPolygonMeshVertex
 10
-0.126
 20
-0.373
 30
-1.03
 70
    64
  0
VERTEX
  5
6BE8F
100
AcDbEntity
  8
0
100
AcDbVertex
100
AcDbPolygonMeshVertex
 10
0.0
 20
-0.373
 30
-1.03
 70
    64
  0
SEQEND
  5
6BE90
100
AcDbEntity
  8
0
  0
ARC
  5
6BE91
100
AcDbEntity
  8
0
100
AcDbCircle
 10
-0.003
 20
0.59375
 30
1.57
 40
0.187
210
0.0
220
0.0
230
-1.0
100
AcDbArc
 50
313.617411
 51
46.382589
  0
ARC
  5
6BE92
100
AcDbEntity
  8
0
100
AcDbCircle
 10
0.0
 20
0.59375
 30
1.03
 40
0.1145
210
0.0
220
0.0
230
-1.0
100
AcDbArc
 50
270.0
 51
90.0
  0
ARC
  5
6BE93
100
AcDbEntity
  8
0
100
AcDbCircle
 10
0.0
 20
-0.59375
 30
1.03
 40
0.1145
210
0.0
220
0.0
230
-1.0
100
AcDbArc
 50
270.0
 51
90.0
  0
ARC
  5
6BE94
100
AcDbEntity
  8
0
100
AcDbCircle
 10
-0.003
 20
-0.59375
 30
1.57
 40
0.187
210
0.0
220
0.0
230
-1.0
100
AcDbArc
 50
313.617411
 51
46.382589
  0
LINE
  5
6BE95
100
AcDbEntity
  8
0
100
AcDbLine
 10
-0.126
 20
-0.729131
 30
-1.57
 11
-0.126
 21
-0.729131
 31
-1.03
210
0.0
220
0.0
230
-1.0
  0
LINE
  5
6BE96
100
AcDbEntity
  8
0
100
AcDbLine
 10
-0.126
 20
-0.458369
 30
-1.57
 11
-0.126
 21
-0.458369
 31
-1.03
210
0.0
220
0.0
230
-1.0
  0
LINE
  5
6BE97
100
AcDbEntity
  8
0
100
AcDbLine
 10
-0.126
 20
0.458369
 30
-1.57
 11
-0.126
 21
0.458369
 31
-1.03
210
0.0
220
0.0
230
-1.0
  0
LINE
  5
6BE98
100
AcDbEntity
  8
0
100
AcDbLine
 10
-0.126
 20
0.729131
 30
-1.57
 11
-0.126
 21
0.729131
 31
-1.03
210
0.0
220
0.0
230
-1.0
  0
LINE
  5
6BE99
100
AcDbEntity
  8
0
100
AcDbLine
 10
0.0
 20
-0.70825
 30
-1.03
 11
0.0
 21
-0.70825
 31
0.0
210
0.0
220
0.0
230
-1.0
  0
LINE
  5
6BE9A
100
AcDbEntity
  8
0
100
AcDbLine
 10
0.0
 20
-0.47925
 30
-1.03
 11
0.0
 21
-0.47925
 31
0.0
210
0.0
220
0.0
230
-1.0
  0
LINE
  5
6BE9B
100
AcDbEntity
  8
0
100
AcDbLine
 10
0.0
 20
0.47925
 30
-1.03
 11
0.0
 21
0.47925
 31
0.0
210
0.0
220
0.0
230
-1.0
  0
LINE
  5
6BE9C
100
AcDbEntity
  8
0
100
AcDbLine
 10
0.0
 20
0.70825
 30
-1.03
 11
0.0
 21
0.70825
 31
0.0
210
0.0
220
0.0
230
-1.0
  0
POLYLINE
  5
6BE9D
100
AcDbEntity
  8
0
100
AcDbPolygonMesh
 66
     1
 10
0.0
 20
0.0
 30
0.0
 70
    16
 71
     6
 72
     3
  0
VERTEX
  5
6BE9E
100
AcDbEntity
  8
0
100
AcDbVertex
100
AcDbPolygonMeshVertex
 10
0.0
 20
0.8145
 30
-0.275
 70
    64
  0
VERTEX
  5
6BE9F
100
AcDbEntity
  8
0
100
AcDbVertex
100
AcDbPolygonMeshVertex
 10
0.0
 20
0.8145
 30
0.0
 70
    64
  0
VERTEX
  5
6BEA0
100
AcDbEntity
  8
0
100
AcDbVertex
100
AcDbPolygonMeshVertex
 10
0.0
 20
0.8145
 30
0.0
 70
    64
  0
VERTEX
  5
6BEA1
100
AcDbEntity
  8
0
100
AcDbVertex
100
AcDbPolygonMeshVertex
 10
0.0
 20
0.70825
 30
-0.275
 70
    64
  0
VERTEX
  5
6BEA2
100
AcDbEntity
  8
0
100
AcDbVertex
100
AcDbPolygonMeshVertex
 10
0.0
 20
0.70825
 30
0.0
 70
    64
  0
VERTEX
  5
6BEA3
100
AcDbEntity
  8
0
100
AcDbVertex
100
AcDbPolygonMeshVertex
 10
0.0
 20
0.70825
 30
0.0
 70
    64
  0
VERTEX
  5
6BEA4
100
AcDbEntity
  8
0
100
AcDbVertex
100
AcDbPolygonMeshVertex
 10
0.106
 20
0.70825
 30
-0.275
 70
    64
  0
VERTEX
  5
6BEA5
100
AcDbEntity
  8
0
100
AcDbVertex
100
AcDbPolygonMeshVertex
 10
0.106
 20
0.70825
 30
0.0
 70
    64
  0
VERTEX
  5
6BEA6
100
AcDbEntity
  8
0
100
AcDbVertex
100
AcDbPolygonMeshVertex
 10
0.0
 20
0.70825
 30
0.0
 70
    64
  0
VERTEX
  5
6BEA7
100
AcDbEntity
  8
0
100
AcDbVertex
100
AcDbPolygonMeshVertex
 10
0.106
 20
0.8145
 30
-0.275
 70
    64
  0
VERTEX
  5
6BEA8
100
AcDbEntity
  8
0
100
AcDbVertex
100
AcDbPolygonMeshVertex
 10
0.106
 20
0.8145
 30
0.0
 70
    64
  0
VERTEX
  5
6BEA9
100
AcDbEntity
  8
0
100
AcDbVertex
100
AcDbPolygonMeshVertex
 10
0.0
 20
0.8145
 30
0.0
 70
    64
  0
VERTEX
  5
6BEAA
100
AcDbEntity
  8
0
100
AcDbVertex
100
AcDbPolygonMeshVertex
 10
0.106
 20
0.8145
 30
-0.275
 70
    64
  0
VERTEX
  5
6BEAB
100
AcDbEntity
  8
0
100
AcDbVertex
100
AcDbPolygonMeshVertex
 10
0.106
 20
0.8145
 30
-0.275
 70
    64
  0
VERTEX
  5
6BEAC
100
AcDbEntity
  8
0
100
AcDbVertex
100
AcDbPolygonMeshVertex
 10
0.0
 20
0.8145
 30
-0.275
 70
    64
  0
VERTEX
  5
6BEAD
100
AcDbEntity
  8
0
100
AcDbVertex
100
AcDbPolygonMeshVertex
 10
0.106
 20
0.70825
 30
-0.275
 70
    64
  0
VERTEX
  5
6BEAE
100
AcDbEntity
  8
0
100
AcDbVertex
100
AcDbPolygonMeshVertex
 10
0.106
 20
0.70825
 30
-0.275
 70
    64
  0
VERTEX
  5
6BEAF
100
AcDbEntity
  8
0
100
AcDbVertex
100
AcDbPolygonMeshVertex
 10
0.0
 20
0.70825
 30
-0.275
 70
    64
  0
SEQEND
  5
6BEB0
100
AcDbEntity
  8
0
  0
POLYLINE
  5
6BEB1
100
AcDbEntity
  8
0
100
AcDbPolygonMesh
 66
     1
 10
0.0
 20
0.0
 30
0.0
 70
    16
 71
     6
 72
     3
  0
VERTEX
  5
6BEB2
100
AcDbEntity
  8
0
100
AcDbVertex
100
AcDbPolygonMeshVertex
 10
0.0
 20
-0.47925
 30
-0.275
 70
    64
  0
VERTEX
  5
6BEB3
100
AcDbEntity
  8
0
100
AcDbVertex
100
AcDbPolygonMeshVertex
 10
0.0
 20
-0.47925
 30
0.0
 70
    64
  0
VERTEX
  5
6BEB4
100
AcDbEntity
  8
0
100
AcDbVertex
100
AcDbPolygonMeshVertex
 10
0.0
 20
-0.47925
 30
0.0
 70
    64
  0
VERTEX
  5
6BEB5
100
AcDbEntity
  8
0
100
AcDbVertex
100
AcDbPolygonMeshVertex
 10
0.0
 20
-0.373
 30
-0.275
 70
    64
  0
VERTEX
  5
6BEB6
100
AcDbEntity
  8
0
100
AcDbVertex
100
AcDbPolygonMeshVertex
 10
0.0
 20
-0.373
 30
0.0
 70
    64
  0
VERTEX
  5
6BEB7
100
AcDbEntity
  8
0
100
AcDbVertex
100
AcDbPolygonMeshVertex
 10
0.0
 20
-0.373
 30
0.0
 70
    64
  0
VERTEX
  5
6BEB8
100
AcDbEntity
  8
0
100
AcDbVertex
100
AcDbPolygonMeshVertex
 10
0.106
 20
-0.373
 30
-0.275
 70
    64
  0
VERTEX
  5
6BEB9
100
AcDbEntity
  8
0
100
AcDbVertex
100
AcDbPolygonMeshVertex
 10
0.106
 20
-0.373
 30
0.0
 70
    64
  0
VERTEX
  5
6BEBA
100
AcDbEntity
  8
0
100
AcDbVertex
100
AcDbPolygonMeshVertex
 10
0.0
 20
-0.373
 30
0.0
 70
    64
  0
VERTEX
  5
6BEBB
100
AcDbEntity
  8
0
100
AcDbVertex
100
AcDbPolygonMeshVertex
 10
0.106
 20
-0.47925
 30
-0.275
 70
    64
  0
VERTEX
  5
6BEBC
100
AcDbEntity
  8
0
100
AcDbVertex
100
AcDbPolygonMeshVertex
 10
0.106
 20
-0.47925
 30
0.0
 70
    64
  0
VERTEX
  5
6BEBD
100
AcDbEntity
  8
0
100
AcDbVertex
100
AcDbPolygonMeshVertex
 10
0.0
 20
-0.47925
 30
0.0
 70
    64
  0
VERTEX
  5
6BEBE
100
AcDbEntity
  8
0
100
AcDbVertex
100
AcDbPolygonMeshVertex
 10
0.106
 20
-0.47925
 30
-0.275
 70
    64
  0
VERTEX
  5
6BEBF
100
AcDbEntity
  8
0
100
AcDbVertex
100
AcDbPolygonMeshVertex
 10
0.106
 20
-0.47925
 30
-0.275
 70
    64
  0
VERTEX
  5
6BEC0
100
AcDbEntity
  8
0
100
AcDbVertex
100
AcDbPolygonMeshVertex
 10
0.0
 20
-0.47925
 30
-0.275
 70
    64
  0
VERTEX
  5
6BEC1
100
AcDbEntity
  8
0
100
AcDbVertex
100
AcDbPolygonMeshVertex
 10
0.106
 20
-0.373
 30
-0.275
 70
    64
  0
VERTEX
  5
6BEC2
100
AcDbEntity
  8
0
100
AcDbVertex
100
AcDbPolygonMeshVertex
 10
0.106
 20
-0.373
 30
-0.275
 70
    64
  0
VERTEX
  5
6BEC3
100
AcDbEntity
  8
0
100
AcDbVertex
100
AcDbPolygonMeshVertex
 10
0.0
 20
-0.373
 30
-0.275
 70
    64
  0
SEQEND
  5
6BEC4
100
AcDbEntity
  8
0
  0
POLYLINE
  5
6BEC5
100
AcDbEntity
  8
0
100
AcDbPolygonMesh
 66
     1
 10
0.0
 20
0.0
 30
0.0
 70
    16
 71
     6
 72
     3
  0
VERTEX
  5
6BEC6
100
AcDbEntity
  8
0
100
AcDbVertex
100
AcDbPolygonMeshVertex
 10
-0.568
 20
0.8975
 30
-0.18
 70
    64
  0
VERTEX
  5
6BEC7
100
AcDbEntity
  8
0
100
AcDbVertex
100
AcDbPolygonMeshVertex
 10
-0.568
 20
0.8975
 30
0.0
 70
    64
  0
VERTEX
  5
6BEC8
100
AcDbEntity
  8
0
100
AcDbVertex
100
AcDbPolygonMeshVertex
 10
-0.568
 20
0.8975
 30
0.0
 70
    64
  0
VERTEX
  5
6BEC9
100
AcDbEntity
  8
0
100
AcDbVertex
100
AcDbPolygonMeshVertex
 10
-0.568
 20
-0.8975
 30
-0.18
 70
    64
  0
VERTEX
  5
6BECA
100
AcDbEntity
  8
0
100
AcDbVertex
100
AcDbPolygonMeshVertex
 10
-0.568
 20
-0.8975
 30
0.0
 70
    64
  0
VERTEX
  5
6BECB
100
AcDbEntity
  8
0
100
AcDbVertex
100
AcDbPolygonMeshVertex
 10
-0.568
 20
-0.8975
 30
0.0
 70
    64
  0
VERTEX
  5
6BECC
100
AcDbEntity
  8
0
100
AcDbVertex
100
AcDbPolygonMeshVertex
 10
-0.468
 20
-0.8975
 30
-0.18
 70
    64
  0
VERTEX
  5
6BECD
100
AcDbEntity
  8
0
100
AcDbVertex
100
AcDbPolygonMeshVertex
 10
-0.468
 20
-0.8975
 30
0.0
 70
    64
  0
VERTEX
  5
6BECE
100
AcDbEntity
  8
0
100
AcDbVertex
100
AcDbPolygonMeshVertex
 10
-0.568
 20
-0.8975
 30
0.0
 70
    64
  0
VERTEX
  5
6BECF
100
AcDbEntity
  8
0
100
AcDbVertex
100
AcDbPolygonMeshVertex
 10
-0.468
 20
0.8975
 30
-0.18
 70
    64
  0
VERTEX
  5
6BED0
100
AcDbEntity
  8
0
100
AcDbVertex
100
AcDbPolygonMeshVertex
 10
-0.468
 20
0.8975
 30
0.0
 70
    64
  0
VERTEX
  5
6BED1
100
AcDbEntity
  8
0
100
AcDbVertex
100
AcDbPolygonMeshVertex
 10
-0.568
 20
0.8975
 30
0.0
 70
    64
  0
VERTEX
  5
6BED2
100
AcDbEntity
  8
0
100
AcDbVertex
100
AcDbPolygonMeshVertex
 10
-0.468
 20
0.8975
 30
-0.18
 70
    64
  0
VERTEX
  5
6BED3
100
AcDbEntity
  8
0
100
AcDbVertex
100
AcDbPolygonMeshVertex
 10
-0.468
 20
0.8975
 30
-0.18
 70
    64
  0
VERTEX
  5
6BED4
100
AcDbEntity
  8
0
100
AcDbVertex
100
AcDbPolygonMeshVertex
 10
-0.568
 20
0.8975
 30
-0.18
 70
    64
  0
VERTEX
  5
6BED5
100
AcDbEntity
  8
0
100
AcDbVertex
100
AcDbPolygonMeshVertex
 10
-0.468
 20
-0.8975
 30
-0.18
 70
    64
  0
VERTEX
  5
6BED6
100
AcDbEntity
  8
0
100
AcDbVertex
100
AcDbPolygonMeshVertex
 10
-0.468
 20
-0.8975
 30
-0.18
 70
    64
  0
VERTEX
  5
6BED7
100
AcDbEntity
  8
0
100
AcDbVertex
100
AcDbPolygonMeshVertex
 10
-0.568
 20
-0.8975
 30
-0.18
 70
    64
  0
SEQEND
  5
6BED8
100
AcDbEntity
  8
0
  0
POLYLINE
  5
6BED9
100
AcDbEntity
  8
0
100
AcDbPolygonMesh
 66
     1
 10
0.0
 20
0.0
 30
0.0
 70
    16
 71
     6
 72
     3
  0
VERTEX
  5
6BEDA
100
AcDbEntity
  8
0
100
AcDbVertex
100
AcDbPolygonMeshVertex
 10
-0.963
 20
0.427198
 30
-0.220027
 70
    64
  0
VERTEX
  5
6BEDB
100
AcDbEntity
  8
0
100
AcDbVertex
100
AcDbPolygonMeshVertex
 10
-0.963
 20
0.427198
 30
-0.180027
 70
    64
  0
VERTEX
  5
6BEDC
100
AcDbEntity
  8
0
100
AcDbVertex
100
AcDbPolygonMeshVertex
 10
-0.963
 20
0.427198
 30
-0.180027
 70
    64
  0
VERTEX
  5
6BEDD
100
AcDbEntity
  8
0
100
AcDbVertex
100
AcDbPolygonMeshVertex
 10
-0.963
 20
-0.427198
 30
-0.220027
 70
    64
  0
VERTEX
  5
6BEDE
100
AcDbEntity
  8
0
100
AcDbVertex
100
AcDbPolygonMeshVertex
 10
-0.963
 20
-0.427198
 30
-0.180027
 70
    64
  0
VERTEX
  5
6BEDF
100
AcDbEntity
  8
0
100
AcDbVertex
100
AcDbPolygonMeshVertex
 10
-0.963
 20
-0.427198
 30
-0.180027
 70
    64
  0
VERTEX
  5
6BEE0
100
AcDbEntity
  8
0
100
AcDbVertex
100
AcDbPolygonMeshVertex
 10
-0.468
 20
-0.427198
 30
-0.220027
 70
    64
  0
VERTEX
  5
6BEE1
100
AcDbEntity
  8
0
100
AcDbVertex
100
AcDbPolygonMeshVertex
 10
-0.468
 20
-0.427198
 30
-0.180027
 70
    64
  0
VERTEX
  5
6BEE2
100
AcDbEntity
  8
0
100
AcDbVertex
100
AcDbPolygonMeshVertex
 10
-0.963
 20
-0.427198
 30
-0.180027
 70
    64
  0
VERTEX
  5
6BEE3
100
AcDbEntity
  8
0
100
AcDbVertex
100
AcDbPolygonMeshVertex
 10
-0.468
 20
0.427198
 30
-0.220027
 70
    64
  0
VERTEX
  5
6BEE4
100
AcDbEntity
  8
0
100
AcDbVertex
100
AcDbPolygonMeshVertex
 10
-0.468
 20
0.427198
 30
-0.180027
 70
    64
  0
VERTEX
  5
6BEE5
100
AcDbEntity
  8
0
100
AcDbVertex
100
AcDbPolygonMeshVertex
 10
-0.963
 20
0.427198
 30
-0.180027
 70
    64
  0
VERTEX
  5
6BEE6
100
AcDbEntity
  8
0
100
AcDbVertex
100
AcDbPolygonMeshVertex
 10
-0.468
 20
0.427198
 30
-0.220027
 70
    64
  0
VERTEX
  5
6BEE7
100
AcDbEntity
  8
0
100
AcDbVertex
100
AcDbPolygonMeshVertex
 10
-0.468
 20
0.427198
 30
-0.220027
 70
    64
  0
VERTEX
  5
6BEE8
100
AcDbEntity
  8
0
100
AcDbVertex
100
AcDbPolygonMeshVertex
 10
-0.963
 20
0.427198
 30
-0.220027
 70
    64
  0
VERTEX
  5
6BEE9
100
AcDbEntity
  8
0
100
AcDbVertex
100
AcDbPolygonMeshVertex
 10
-0.468
 20
-0.427198
 30
-0.220027
 70
    64
  0
VERTEX
  5
6BEEA
100
AcDbEntity
  8
0
100
AcDbVertex
100
AcDbPolygonMeshVertex
 10
-0.468
 20
-0.427198
 30
-0.220027
 70
    64
  0
VERTEX
  5
6BEEB
100
AcDbEntity
  8
0
100
AcDbVertex
100
AcDbPolygonMeshVertex
 10
-0.963
 20
-0.427198
 30
-0.220027
 70
    64
  0
SEQEND
  5
6BEEC
100
AcDbEntity
  8
0
  0
POLYLINE
  5
6BEED
100
AcDbEntity
  8
0
100
AcDbPolygonMesh
 66
     1
 10
0.0
 20
0.0
 30
0.0
 70
    16
 71
     6
 72
     3
  0
VERTEX
  5
6BEEE
100
AcDbEntity
  8
0
100
AcDbVertex
100
AcDbPolygonMeshVertex
 10
-0.568
 20
-0.8975
 30
-0.18
 70
    64
  0
VERTEX
  5
6BEEF
100
AcDbEntity
  8
0
100
AcDbVertex
100
AcDbPolygonMeshVertex
 10
-0.568
 20
-0.8975
 30
0.0
 70
    64
  0
VERTEX
  5
6BEF0
100
AcDbEntity
  8
0
100
AcDbVertex
100
AcDbPolygonMeshVertex
 10
-0.568
 20
-0.8975
 30
0.0
 70
    64
  0
VERTEX
  5
6BEF1
100
AcDbEntity
  8
0
100
AcDbVertex
100
AcDbPolygonMeshVertex
 10
-0.568
 20
-0.8145
 30
-0.18
 70
    64
  0
VERTEX
  5
6BEF2
100
AcDbEntity
  8
0
100
AcDbVertex
100
AcDbPolygonMeshVertex
 10
-0.568
 20
-0.8145
 30
0.0
 70
    64
  0
VERTEX
  5
6BEF3
100
AcDbEntity
  8
0
100
AcDbVertex
100
AcDbPolygonMeshVertex
 10
-0.568
 20
-0.8145
 30
0.0
 70
    64
  0
VERTEX
  5
6BEF4
100
AcDbEntity
  8
0
100
AcDbVertex
100
AcDbPolygonMeshVertex
 10
-0.963
 20
-0.8145
 30
-0.18
 70
    64
  0
VERTEX
  5
6BEF5
100
AcDbEntity
  8
0
100
AcDbVertex
100
AcDbPolygonMeshVertex
 10
-0.963
 20
-0.8145
 30
0.0
 70
    64
  0
VERTEX
  5
6BEF6
100
AcDbEntity
  8
0
100
AcDbVertex
100
AcDbPolygonMeshVertex
 10
-0.568
 20
-0.8145
 30
0.0
 70
    64
  0
VERTEX
  5
6BEF7
100
AcDbEntity
  8
0
100
AcDbVertex
100
AcDbPolygonMeshVertex
 10
-0.963
 20
-0.8975
 30
-0.18
 70
    64
  0
VERTEX
  5
6BEF8
100
AcDbEntity
  8
0
100
AcDbVertex
100
AcDbPolygonMeshVertex
 10
-0.963
 20
-0.8975
 30
0.0
 70
    64
  0
VERTEX
  5
6BEF9
100
AcDbEntity
  8
0
100
AcDbVertex
100
AcDbPolygonMeshVertex
 10
-0.568
 20
-0.8975
 30
0.0
 70
    64
  0
VERTEX
  5
6BEFA
100
AcDbEntity
  8
0
100
AcDbVertex
100
AcDbPolygonMeshVertex
 10
-0.963
 20
-0.8975
 30
-0.18
 70
    64
  0
VERTEX
  5
6BEFB
100
AcDbEntity
  8
0
100
AcDbVertex
100
AcDbPolygonMeshVertex
 10
-0.963
 20
-0.8975
 30
-0.18
 70
    64
  0
VERTEX
  5
6BEFC
100
AcDbEntity
  8
0
100
AcDbVertex
100
AcDbPolygonMeshVertex
 10
-0.568
 20
-0.8975
 30
-0.18
 70
    64
  0
VERTEX
  5
6BEFD
100
AcDbEntity
  8
0
100
AcDbVertex
100
AcDbPolygonMeshVertex
 10
-0.963
 20
-0.8145
 30
-0.18
 70
    64
  0
VERTEX
  5
6BEFE
100
AcDbEntity
  8
0
100
AcDbVertex
100
AcDbPolygonMeshVertex
 10
-0.963
 20
-0.8145
 30
-0.18
 70
    64
  0
VERTEX
  5
6BEFF
100
AcDbEntity
  8
0
100
AcDbVertex
100
AcDbPolygonMeshVertex
 10
-0.568
 20
-0.8145
 30
-0.18
 70
    64
  0
SEQEND
  5
6BF00
100
AcDbEntity
  8
0
  0
POLYLINE
  5
6BF01
100
AcDbEntity
  8
0
100
AcDbPolygonMesh
 66
     1
 10
0.0
 20
0.0
 30
0.0
 70
    16
 71
     6
 72
     3
  0
VERTEX
  5
6BF02
100
AcDbEntity
  8
0
100
AcDbVertex
100
AcDbPolygonMeshVertex
 10
-0.568
 20
0.8145
 30
-0.18
 70
    64
  0
VERTEX
  5
6BF03
100
AcDbEntity
  8
0
100
AcDbVertex
100
AcDbPolygonMeshVertex
 10
-0.568
 20
0.8145
 30
0.0
 70
    64
  0
VERTEX
  5
6BF04
100
AcDbEntity
  8
0
100
AcDbVertex
100
AcDbPolygonMeshVertex
 10
-0.568
 20
0.8145
 30
0.0
 70
    64
  0
VERTEX
  5
6BF05
100
AcDbEntity
  8
0
100
AcDbVertex
100
AcDbPolygonMeshVertex
 10
-0.568
 20
0.8975
 30
-0.18
 70
    64
  0
VERTEX
  5
6BF06
100
AcDbEntity
  8
0
100
AcDbVertex
100
AcDbPolygonMeshVertex
 10
-0.568
 20
0.8975
 30
0.0
 70
    64
  0
VERTEX
  5
6BF07
100
AcDbEntity
  8
0
100
AcDbVertex
100
AcDbPolygonMeshVertex
 10
-0.568
 20
0.8975
 30
0.0
 70
    64
  0
VERTEX
  5
6BF08
100
AcDbEntity
  8
0
100
AcDbVertex
100
AcDbPolygonMeshVertex
 10
-0.963
 20
0.8975
 30
-0.18
 70
    64
  0
VERTEX
  5
6BF09
100
AcDbEntity
  8
0
100
AcDbVertex
100
AcDbPolygonMeshVertex
 10
-0.963
 20
0.8975
 30
0.0
 70
    64
  0
VERTEX
  5
6BF0A
100
AcDbEntity
  8
0
100
AcDbVertex
100
AcDbPolygonMeshVertex
 10
-0.568
 20
0.8975
 30
0.0
 70
    64
  0
VERTEX
  5
6BF0B
100
AcDbEntity
  8
0
100
AcDbVertex
100
AcDbPolygonMeshVertex
 10
-0.963
 20
0.8145
 30
-0.18
 70
    64
  0
VERTEX
  5
6BF0C
100
AcDbEntity
  8
0
100
AcDbVertex
100
AcDbPolygonMeshVertex
 10
-0.963
 20
0.8145
 30
0.0
 70
    64
  0
VERTEX
  5
6BF0D
100
AcDbEntity
  8
0
100
AcDbVertex
100
AcDbPolygonMeshVertex
 10
-0.568
 20
0.8145
 30
0.0
 70
    64
  0
VERTEX
  5
6BF0E
100
AcDbEntity
  8
0
100
AcDbVertex
100
AcDbPolygonMeshVertex
 10
-0.963
 20
0.8145
 30
-0.18
 70
    64
  0
VERTEX
  5
6BF0F
100
AcDbEntity
  8
0
100
AcDbVertex
100
AcDbPolygonMeshVertex
 10
-0.963
 20
0.8145
 30
-0.18
 70
    64
  0
VERTEX
  5
6BF10
100
AcDbEntity
  8
0
100
AcDbVertex
100
AcDbPolygonMeshVertex
 10
-0.568
 20
0.8145
 30
-0.18
 70
    64
  0
VERTEX
  5
6BF11
100
AcDbEntity
  8
0
100
AcDbVertex
100
AcDbPolygonMeshVertex
 10
-0.963
 20
0.8975
 30
-0.18
 70
    64
  0
VERTEX
  5
6BF12
100
AcDbEntity
  8
0
100
AcDbVertex
100
AcDbPolygonMeshVertex
 10
-0.963
 20
0.8975
 30
-0.18
 70
    64
  0
VERTEX
  5
6BF13
100
AcDbEntity
  8
0
100
AcDbVertex
100
AcDbPolygonMeshVertex
 10
-0.568
 20
0.8975
 30
-0.18
 70
    64
  0
SEQEND
  5
6BF14
100
AcDbEntity
  8
0
  0
LINE
  5
6BF15
100
AcDbEntity
  8
0
100
AcDbLine
 10
-0.468
 20
0.1425
 30
0.0
 11
-0.126
 21
0.1425
 31
0.0
210
0.0
220
0.0
230
-1.0
  0
LINE
  5
6BF16
100
AcDbEntity
  8
0
100
AcDbLine
 10
-0.468
 20
-0.1425
 30
0.0
 11
-0.126
 21
-0.1425
 31
0.0
210
0.0
220
0.0
230
-1.0
  0
POLYLINE
  5
6BF17
100
AcDbEntity
  8
0
100
AcDbPolygonMesh
 66
     1
 10
0.0
 20
0.0
 30
0.0
 70
    16
 71
     6
 72
     3
  0
VERTEX
  5
6BF18
100
AcDbEntity
  8
0
100
AcDbVertex
100
AcDbPolygonMeshVertex
 10
-0.03
 20
-0.373
 30
-1.57
 70
    64
  0
VERTEX
  5
6BF19
100
AcDbEntity
  8
0
100
AcDbVertex
100
AcDbPolygonMeshVertex
 10
-0.03
 20
-0.373
 30
-0.288
 70
    64
  0
VERTEX
  5
6BF1A
100
AcDbEntity
  8
0
100
AcDbVertex
100
AcDbPolygonMeshVertex
 10
-0.03
 20
-0.373
 30
-0.288
 70
    64
  0
VERTEX
  5
6BF1B
100
AcDbEntity
  8
0
100
AcDbVertex
100
AcDbPolygonMeshVertex
 10
-0.03
 20
0.373
 30
-1.57
 70
    64
  0
VERTEX
  5
6BF1C
100
AcDbEntity
  8
0
100
AcDbVertex
100
AcDbPolygonMeshVertex
 10
-0.03
 20
0.373
 30
-0.288
 70
    64
  0
VERTEX
  5
6BF1D
100
AcDbEntity
  8
0
100
AcDbVertex
100
AcDbPolygonMeshVertex
 10
-0.03
 20
0.373
 30
-0.288
 70
    64
  0
VERTEX
  5
6BF1E
100
AcDbEntity
  8
0
100
AcDbVertex
100
AcDbPolygonMeshVertex
 10
-0.126
 20
0.373
 30
-1.57
 70
    64
  0
VERTEX
  5
6BF1F
100
AcDbEntity
  8
0
100
AcDbVertex
100
AcDbPolygonMeshVertex
 10
-0.126
 20
0.373
 30
-0.288
 70
    64
  0
VERTEX
  5
6BF20
100
AcDbEntity
  8
0
100
AcDbVertex
100
AcDbPolygonMeshVertex
 10
-0.03
 20
0.373
 30
-0.288
 70
    64
  0
VERTEX
  5
6BF21
100
AcDbEntity
  8
0
100
AcDbVertex
100
AcDbPolygonMeshVertex
 10
-0.126
 20
-0.373
 30
-1.57
 70
    64
  0
VERTEX
  5
6BF22
100
AcDbEntity
  8
0
100
AcDbVertex
100
AcDbPolygonMeshVertex
 10
-0.126
 20
-0.373
 30
-0.288
 70
    64
  0
VERTEX
  5
6BF23
100
AcDbEntity
  8
0
100
AcDbVertex
100
AcDbPolygonMeshVertex
 10
-0.03
 20
-0.373
 30
-0.288
 70
    64
  0
VERTEX
  5
6BF24
100
AcDbEntity
  8
0
100
AcDbVertex
100
AcDbPolygonMeshVertex
 10
-0.126
 20
-0.373
 30
-1.57
 70
    64
  0
VERTEX
  5
6BF25
100
AcDbEntity
  8
0
100
AcDbVertex
100
AcDbPolygonMeshVertex
 10
-0.126
 20
-0.373
 30
-1.57
 70
    64
  0
VERTEX
  5
6BF26
100
AcDbEntity
  8
0
100
AcDbVertex
100
AcDbPolygonMeshVertex
 10
-0.03
 20
-0.373
 30
-1.57
 70
    64
  0
VERTEX
  5
6BF27
100
AcDbEntity
  8
0
100
AcDbVertex
100
AcDbPolygonMeshVertex
 10
-0.126
 20
0.373
 30
-1.57
 70
    64
  0
VERTEX
  5
6BF28
100
AcDbEntity
  8
0
100
AcDbVertex
100
AcDbPolygonMeshVertex
 10
-0.126
 20
0.373
 30
-1.57
 70
    64
  0
VERTEX
  5
6BF29
100
AcDbEntity
  8
0
100
AcDbVertex
100
AcDbPolygonMeshVertex
 10
-0.03
 20
0.373
 30
-1.57
 70
    64
  0
SEQEND
  5
6BF2A
100
AcDbEntity
  8
0
  0
LINE
  5
6BF2B
100
AcDbEntity
  8
0
100
AcDbLine
 10
-0.126
 20
-0.1425
 30
0.0
 11
-0.126
 21
-0.1425
 31
-0.288
  0
LINE
  5
6BF2C
100
AcDbEntity
  8
0
100
AcDbLine
 10
-0.126
 20
0.1425
 30
0.0
 11
-0.126
 21
0.1425
 31
-0.288
  0
LINE
  5
6BF2D
100
AcDbEntity
  8
0
100
AcDbLine
 10
-0.126
 20
0.1425
 30
-1.57
 11
-0.468
 21
0.1425
 31
-1.57
  0
LINE
  5
6BF2E
100
AcDbEntity
  8
0
100
AcDbLine
 10
-0.126
 20
-0.1425
 30
-1.57
 11
-0.468
 21
-0.1425
 31
-1.57
  0
ARC
  5
6BF2F
100
AcDbEntity
  8
0
100
AcDbCircle
 10
-0.2775
 20
0.0
 30
-1.57
 40
0.1015
100
AcDbArc
 50
122.94559
 51
237.05441
  0
LINE
  5
6BF30
100
AcDbEntity
  8
0
100
AcDbLine
 10
-0.3327
 20
-0.1425
 30
-1.57
 11
-0.3327
 21
-0.085178
 31
-1.57
  0
LINE
  5
6BF31
100
AcDbEntity
  8
0
100
AcDbLine
 10
-0.2223
 20
-0.1425
 30
-1.57
 11
-0.2223
 21
-0.085178
 31
-1.57
  0
LINE
  5
6BF32
100
AcDbEntity
  8
0
100
AcDbLine
 10
-0.2223
 20
0.085178
 30
-1.57
 11
-0.2223
 21
0.1425
 31
-1.57
  0
LINE
  5
6BF33
100
AcDbEntity
  8
0
100
AcDbLine
 10
-0.3327
 20
0.085178
 30
-1.57
 11
-0.3327
 21
0.1425
 31
-1.57
  0
ARC
  5
6BF34
100
AcDbEntity
  8
0
100
AcDbCircle
 10
-0.2775
 20
0.0
 30
-1.57
 40
0.1015
100
AcDbArc
 50
302.94559
 51
57.05441
  0
LINE
  5
6BF35
100
AcDbEntity
  8
0
100
AcDbLine
 10
-0.468
 20
0.1425
 30
-1.433
 11
-0.468
 21
-0.1425
 31
-1.433
  0
LINE
  5
6BF36
100
AcDbEntity
  8
0
100
AcDbLine
 10
-0.468
 20
-0.1425
 30
-1.57
 11
-0.468
 21
-0.1425
 31
-1.433
  0
LINE
  5
6BF37
100
AcDbEntity
  8
0
100
AcDbLine
 10
-0.468
 20
0.1425
 30
-1.57
 11
-0.468
 21
0.1425
 31
-1.433
  0
ATTDEF
  5
6BF38
100
AcDbEntity
  8
ATTRIBUTES
100
AcDbText
 10
-0.396292
 20
0.085931
 30
0.0
 40
0.026478
  1
ALLEN-BRADLEY
100
AcDbAttributeDefinition
  3
MANUFACTURER NAME?
  2
AC_VND_LABEL
 70
     0
  0
ATTDEF
  5
6BF39
100
AcDbEntity
  8
ATTRIBUTES
100
AcDbText
 10
-0.396292
 20
0.030769
 30
0.0
 40
0.026478
  1
800T-XD2P
100
AcDbAttributeDefinition
  3
CATALOG NUMBER?
  2
AC_PART_NO
 70
     0
  0
ATTDEF
  5
6BF3A
100
AcDbEntity
  8
ATTRIBUTES
100
AcDbText
 10
-0.396292
 20
-0.024394
 30
0.0
 40
0.026478
  1
NEMA SEALED SWITCH CONTACT BLOCK, 1 N.C.
100
AcDbAttributeDefinition
  3
PART DESCRIPTION?
  2
AC_DESCRIPTION
 70
     0
  0
ATTDEF
  5
6BF3B
100
AcDbEntity
  8
ATTRIBUTES
100
AcDbText
 10
-0.396292
 20
-0.079556
 30
0.0
 40
0.026478
  1

100
AcDbAttributeDefinition
  3
DEVICE ID?
  2
DEVICE_ID
 70
     0
  0
ATTDEF
  5
6BF3C
100
AcDbEntity
  8
ATTRIBUTES
100
AcDbText
 10
-0.396292
 20
-0.134719
 30
0.0
 40
0.026478
  1

100
AcDbAttributeDefinition
  3
CUSTOMER PART NUMBER?
  2
AC_CPART_NO
 70
     0
  0
ATTDEF
  5
6BF3D
100
AcDbEntity
  8
ATTRIBUTES
100
AcDbText
 10
-0.396292
 20
-0.189881
 30
0.0
 40
0.026478
  1

100
AcDbAttributeDefinition
  3
CUSTOMER NOTE?
  2
AC_NOTE
 70
     0
  0
ATTDEF
  5
6BF3E
100
AcDbEntity
  8
ATTRIBUTES
100
AcDbText
 10
-0.396292
 20
-0.245044
 30
0.0
 40
0.026478
  1

100
AcDbAttributeDefinition
  3
FASTENER DATA?
  2
FASTENER
 70
     0
  0
ATTDEF
  5
6BF3F
100
AcDbEntity
  8
ATTRIBUTES
100
AcDbText
 10
-0.396292
 20
-0.300206
 30
0.0
 40
0.026478
  1

100
AcDbAttributeDefinition
  3
UNIT OF SCALE?
  2
AC_SCALE_UNIT
 70
     0
  0
ATTDEF
  5
6BF40
100
AcDbEntity
  8
ATTRIBUTES
100
AcDbText
 10
-0.396292
 20
-0.355368
 30
0.0
 40
0.026478
  1

100
AcDbAttributeDefinition
  3
VIEW CODE?
  2
AC_VIEW_CODE
 70
     0
  0
POINT
  5
6BF41
100
AcDbEntity
  8
SNAP_POINTS
100
AcDbPoint
 10
0.0
 20
0.0
 30
-1.57
  0
DIMENSION
  5
6BF42
100
AcDbEntity
  8
AREA1
100
AcDbDimension
  2
*D0
 10
-1.317605
 20
-0.8975
 30
0.0
 11
-1.317605
 21
0.007937
 31
0.0
 70
   160
  3
ABECAD_3V
100
AcDbAlignedDimension
 13
-0.963
 23
0.8975
 33
0.0
 14
-0.963
 24
-0.8975
 34
-0.18
 50
90.0
100
AcDbRotatedDimension
1001
ACAD
1000
DSTYLE
1002
{
1070
    40
1040
0.686519
1002
}
  0
DIMENSION
  5
6BF43
100
AcDbEntity
  8
AREA1
100
AcDbDimension
  2
*D1
 10
0.106
 20
1.150625
 30
0.0
 11
-0.419559
 21
1.367946
 31
0.0
 70
   160
  3
ABECAD_3V
100
AcDbAlignedDimension
 13
-0.963
 23
0.8975
 33
0.0
 14
0.106
 24
0.8145
 34
0.0
100
AcDbRotatedDimension
1001
ACAD
1000
DSTYLE
1002
{
1070
    40
1040
0.686519
1002
}
  0
LWPOLYLINE
  5
6BF44
100
AcDbEntity
  8
SCALE
100
AcDbPolyline
 90
        4
 70
     1
 43
0.0
 10
0.364361
 20
-0.032606
 10
1.499989
 20
-0.032606
 10
1.499989
 20
-0.874216
 10
0.364361
 20
-0.874216
  0
LINE
  5
6BF45
100
AcDbEntity
  8
SCALE
100
AcDbLine
 10
0.422359
 20
-0.412685
 30
0.0
 11
1.422359
 21
-0.412685
 31
0.0
  0
LINE
  5
6BF46
100
AcDbEntity
  8
SCALE
100
AcDbLine
 10
0.422359
 20
-0.712685
 30
0.0
 11
0.816059
 21
-0.712685
 31
0.0
  0
LINE
  5
6BF47
100
AcDbEntity
  8
SCALE
100
AcDbLine
 10
0.422359
 20
-0.512685
 30
0.0
 11
0.422359
 21
-0.312685
 31
0.0
  0
TEXT
  5
6BF48
100
AcDbEntity
  8
SCALE
100
AcDbText
 10
0.478335
 20
-0.664999
 30
0.0
 40
0.0625
  1
[10mm]
100
AcDbText
  0
LINE
  5
6BF49
100
AcDbEntity
  8
SCALE
100
AcDbLine
 10
0.422359
 20
-0.812685
 30
0.0
 11
0.422359
 21
-0.612685
 31
0.0
  0
TEXT
  5
6BF4A
100
AcDbEntity
  8
SCALE
100
AcDbText
 10
0.42389
 20
-0.137807
 30
0.0
 40
0.0625
  1
SCALE:
100
AcDbText
  0
LINE
  5
6BF4B
100
AcDbEntity
  8
SCALE
100
AcDbLine
 10
0.816059
 20
-0.812685
 30
0.0
 11
0.816059
 21
-0.612685
 31
0.0
  0
TEXT
  5
6BF4C
100
AcDbEntity
  8
SCALE
100
AcDbText
 10
0.785642
 20
-0.343636
 30
0.0
 40
0.0625
  1
1 Inch
100
AcDbText
  0
LINE
  5
6BF4D
100
AcDbEntity
  8
SCALE
100
AcDbLine
 10
1.422359
 20
-0.412685
 30
0.0
 11
1.422359
 21
-0.512685
 31
0.0
  0
LINE
  5
6BF4E
100
AcDbEntity
  8
SCALE
100
AcDbLine
 10
1.422359
 20
-0.512685
 30
0.0
 11
1.422359
 21
-0.312685
 31
0.0
  0
DIMENSION
  5
6BF79
100
AcDbEntity
  8
AREA2
100
AcDbDimension
  2
*D2
 10
-1.413694
 20
0.0
 30
-1.57
 11
-1.413694
 21
-0.823058
 31
0.0
 70
   160
210
0.0
220
-1.0
230
0.0
  3
ABECAD_3V
100
AcDbAlignedDimension
 13
-0.963
 23
-0.8145
 33
0.0
 14
-0.963
 24
0.3555
 34
-1.57
 50
90.0
100
AcDbRotatedDimension
1001
ACAD
1000
DSTYLE
1002
{
1070
    40
1040
0.686519
1002
}
  0
VIEWPORT
  5
2C
102
{ACAD_XDICTIONARY
360
6C359
102
}
100
AcDbEntity
 67
     1
  8
0
100
AcDbViewport
 10
4.999849
 20
3.750155
 30
0.0
 40
13.389022
 41
7.577951
 68
     1
 69
     1
1001
ACAD
1000
MVIEW
1002
{
1070
    16
1010
0.0
1020
0.0
1030
0.0
1010
0.0
1020
0.0
1030
1.0
1040
0.0
1040
7.577951
1040
4.999849
1040
3.750155
1040
50.0
1040
0.0
1040
0.0
1070
     0
1070
   100
1070
     1
1070
     1
1070
     0
1070
     0
1070
     0
1070
     0
1040
0.0
1040
0.0
1040
0.0
1040
1.0
1040
1.0
1040
0.0
1040
0.0
1070
     0
1002
{
1002
}
1002
}
  0
VIEWPORT
  5
2D
102
{ACAD_XDICTIONARY
360
6C35B
102
}
100
AcDbEntity
 67
     1
  8
0
100
AcDbViewport
 10
2.5
 20
5.625
 30
0.0
 40
5.0
 41
3.75
 68
     4
 69
     2
1001
ACAD
1000
MVIEW
1002
{
1070
    16
1010
0.0
1020
0.0
1030
0.0
1010
0.0
1020
0.0
1030
1.0
1040
0.0
1040
2.738299
1040
-0.294514
1040
0.256677
1040
50.0
1040
0.0
1040
0.0
1070
     0
1070
   100
1070
     1
1070
     0
1070
     0
1070
     0
1070
     0
1070
     0
1040
0.0
1040
0.0
1040
0.0
1040
1.0
1040
1.0
1040
0.0
1040
0.0
1070
     0
1002
{
1003
AREA2
1002
}
1002
}
  0
VIEWPORT
  5
2E
102
{ACAD_XDICTIONARY
360
6C35D
102
}
100
AcDbEntity
 67
     1
  8
0
100
AcDbViewport
 10
2.5
 20
1.875
 30
0.0
 40
5.0
 41
3.75
 68
     3
 69
     3
1001
ACAD
1000
MVIEW
1002
{
1070
    16
1010
0.0
1020
0.0
1030
0.0
1010
0.0
1020
-1.0
1030
0.0
1040
0.0
1040
2.738299
1040
-0.294514
1040
-0.785
1040
50.0
1040
0.0
1040
0.0
1070
     0
1070
   100
1070
     1
1070
     0
1070
     0
1070
     0
1070
     0
1070
     0
1040
0.0
1040
0.0
1040
0.0
1040
1.0
1040
1.0
1040
0.0
1040
0.0
1070
     0
1002
{
1003
AREA1
1002
}
1002
}
  0
VIEWPORT
  5
2F
102
{ACAD_XDICTIONARY
360
6C35F
102
}
100
AcDbEntity
 67
     1
  8
0
100
AcDbViewport
 10
7.5
 20
3.75
 30
0.0
 40
5.0
 41
7.5
 68
     2
 69
     4
1001
ACAD
1000
MVIEW
1002
{
1070
    16
1010
0.0
1020
0.0
1030
0.0
1010
-1.0
1020
-1.0
1030
1.0
1040
0.0
1040
4.284141
1040
-0.318144
1040
-0.428279
1040
50.0
1040
0.0
1040
0.0
1070
     0
1070
   100
1070
     1
1070
     0
1070
     0
1070
     0
1070
     0
1070
     0
1040
0.0
1040
0.0
1040
0.0
1040
1.0
1040
1.0
1040
0.0
1040
0.0
1070
     0
1002
{
1003
AREA1
1003
AREA2
1002
}
1002
}
  0
TEXT
  5
42D
100
AcDbEntity
 67
     1
  8
0
100
AcDbText
 10
5.253785
 20
7.092701
 30
0.0
 40
0.2
  1

100
AcDbText
  0
TEXT
  5
431
100
AcDbEntity
 67
     1
  8
0
100
AcDbText
 10
5.253785
 20
6.759368
 30
0.0
 40
0.2
  1

100
AcDbText
1001
ACAD
1000
R13OBJECT
1002
{
1005
42D
1002
}
  0
TEXT
  5
11D16
100
AcDbEntity
 67
     1
  8
AREA2
100
AcDbText
 10
5.101109
 20
7.152637
 30
0.0
 40
0.2
  1
800T-XD1P
100
AcDbText
  0
TEXT
  5
24C0A
100
AcDbEntity
 67
     1
  8
AREA2
100
AcDbText
 10
5.101109
 20
6.881437
 30
0.0
 40
0.2
  1
NEMA SEALED SWITCH 
100
AcDbText
  0
TEXT
  5
2F662
100
AcDbEntity
 67
     1
  8
AREA2
100
AcDbText
 10
5.101109
 20
6.599834
 30
0.0
 40
0.2
  1

100
AcDbText
  0
TEXT
  5
4B785
100
AcDbEntity
 67
     1
  8
AREA2
100
AcDbText
 10
5.101109
 20
6.310076
 30
0.0
 40
0.2
  1

100
AcDbText
  0
TEXT
  5
64888
100
AcDbEntity
 67
     1
  8
AREA2
100
AcDbText
 10
5.101109
 20
6.317557
 30
0.0
 40
0.2
  1

100
AcDbText
  0
TEXT
  5
651DC
100
AcDbEntity
 67
     1
  8
AREA2
100
AcDbText
 10
5.101109
 20
6.599161
 30
0.0
 40
0.2
  1

100
AcDbText
  0
TEXT
  5
65724
100
AcDbEntity
 67
     1
  8
AREA2
100
AcDbText
 10
5.101109
 20
6.331741
 30
0.0
 40
0.2
  1

100
AcDbText
  0
TEXT
  5
65FDD
100
AcDbEntity
 67
     1
  8
AREA2
100
AcDbText
 10
5.101109
 20
6.302028
 30
0.0
 40
0.2
  1

100
AcDbText
  0
TEXT
  5
66E77
100
AcDbEntity
 67
     1
  8
AREA2
100
AcDbText
 10
5.101109
 20
6.318596
 30
0.0
 40
0.2
  1

100
AcDbText
  0
TEXT
  5
67914
100
AcDbEntity
 67
     1
  8
AREA2
100
AcDbText
 10
5.101109
 20
6.591198
 30
0.0
 40
0.2
  1
CONTACT BLOCK, 1 N.C.
100
AcDbText
  0
TEXT
  5
691A5
100
AcDbEntity
 67
     1
  8
AREA2
100
AcDbText
 10
5.101109
 20
6.289433
 30
0.0
 40
0.2
  1

100
AcDbText
  0
TEXT
  5
699EC
100
AcDbEntity
 67
     1
  8
AREA2
100
AcDbText
 10
5.101109
 20
6.275064
 30
0.0
 40
0.2
  1

100
AcDbText
  0
TEXT
  5
6AB31
100
AcDbEntity
 67
     1
  8
AREA2
100
AcDbText
 10
5.101109
 20
6.303803
 30
0.0
 40
0.2
  1

100
AcDbText
  0
ENDSEC
  0
SECTION
  2
OBJECTS
  0
DICTIONARY
  5
46D
100
AcDbDictionary
  3
ACAD_GROUP
350
46E
  3
ACAD_LAYOUT
350
49E
  3
ACAD_MLINESTYLE
350
47B
  3
ACAD_PLOTSETTINGS
350
49F
  3
ACAD_PLOTSTYLENAME
350
49C
  3
ACDBHEADERROUNDTRIPXREC
350
6C338
  3
ACDBVARIABLEDICTIONARY
350
48D
  0
DICTIONARY
  5
6C336
100
AcDbDictionary
280
     1
  3
ACAD_XREC_ROUNDTRIP
360
6C337
  0
DICTIONARY
  5
6C363
100
AcDbDictionary
280
     1
  3
ACAD_XREC_ROUNDTRIP
360
6C364
  0
DICTIONARY
  5
6C365
100
AcDbDictionary
280
     1
  3
ACAD_XREC_ROUNDTRIP
360
6C366
  0
DICTIONARY
  5
6C369
100
AcDbDictionary
280
     1
  3
ACAD_XREC_ROUNDTRIP
360
6C36A
  0
DICTIONARY
  5
4D2
100
AcDbDictionary
280
     1
  3
ACAD_LAYOUTSELFREF
360
6C362
  0
DICTIONARY
  5
4D0
100
AcDbDictionary
280
     1
  3
ACAD_LAYOUTSELFREF
360
6C361
  0
DICTIONARY
  5
6C359
100
AcDbDictionary
280
     1
  3
ACAD_XREC_ROUNDTRIP
360
6C35A
  0
DICTIONARY
  5
6C35B
100
AcDbDictionary
280
     1
  3
ACAD_XREC_ROUNDTRIP
360
6C35C
  0
DICTIONARY
  5
6C35D
100
AcDbDictionary
280
     1
  3
ACAD_XREC_ROUNDTRIP
360
6C35E
  0
DICTIONARY
  5
6C35F
100
AcDbDictionary
280
     1
  3
ACAD_XREC_ROUNDTRIP
360
6C360
  0
DICTIONARY
  5
46E
102
{ACAD_REACTORS
330
46D
102
}
100
AcDbDictionary
  0
DICTIONARY
  5
49E
102
{ACAD_XDICTIONARY
360
6C367
102
}
102
{ACAD_REACTORS
330
46D
102
}
100
AcDbDictionary
  3
LAYOUT1
350
4A1
  3
MODEL
350
4A0
  0
DICTIONARY
  5
47B
102
{ACAD_REACTORS
330
46D
102
}
100
AcDbDictionary
  3
STANDARD
350
47C
  0
DICTIONARY
  5
49F
102
{ACAD_REACTORS
330
46D
102
}
100
AcDbDictionary
  0
ACAD_PROXY_OBJECT
  5
49C
102
{ACAD_REACTORS
330
46D
102
}
100
AcDbProxyObject
 90
      499
 91
      501
 93
       86
310
405010041939BDC9B585B1
350
49D
340
49D
 94
        0
  0
DICTIONARY
  5
6C338
102
{ACAD_REACTORS
330
46D
102
}
100
AcDbDictionary
  3
CEPSNTYPE
350
6C342
  3
DIMSTYLEDATA
350
6C346
  3
FINGERPRINTGUID
350
6C343
  3
HYPERLINKBASE
350
6C33B
  3
INSUNITS
350
6C341
  3
LAYOUTDICT
350
6C33D
  3
LWETCUNION
350
6C340
  3
PLOTSETDICT
350
6C33E
  3
PLOTSTYLNAMDICT
350
6C33F
  3
PSVPSCALE
350
6C345
  3
PUCSBASE
350
6C349
  3
PUCSORGBACK
350
6C34F
  3
PUCSORGBOTTOM
350
6C34B
  3
PUCSORGFRONT
350
6C34E
  3
PUCSORGLEFT
350
6C34C
  3
PUCSORGRIGHT
350
6C34D
  3
PUCSORGTOP
350
6C34A
  3
PUCSORTHOREF
350
6C347
  3
PUCSORTHOVIEW
350
6C348
  3
STYLESHEET
350
6C33C
  3
TSTACKALIGN
350
6C339
  3
TSTACKSIZE
350
6C33A
  3
UCSBASE
350
6C352
  3
UCSORGBACK
350
6C358
  3
UCSORGBOTTOM
350
6C354
  3
UCSORGFRONT
350
6C357
  3
UCSORGLEFT
350
6C355
  3
UCSORGRIGHT
350
6C356
  3
UCSORGTOP
350
6C353
  3
UCSORTHOREF
350
6C350
  3
UCSORTHOVIEW
350
6C351
  3
VERSIONGUID
350
6C344
  0
DICTIONARY
  5
48D
102
{ACAD_REACTORS
330
46D
102
}
100
AcDbDictionary
  3
DIMADEC
350
48E
  0
XRECORD
  5
6C337
102
{ACAD_REACTORS
330
6C336
102
}
100
AcDbXrecord
102
EXTNAMES
  1
*ACTIVE
  2
*Active
102
UCS
 74
     0
 71
     1
 10
0.0
 20
0.0
 30
0.0
 10
1.0
 20
0.0
 30
0.0
 10
0.0
 20
1.0
 30
0.0
146
0.0
 79
     1
102
VIEW
281
     1
  0
XRECORD
  5
6C364
102
{ACAD_REACTORS
330
6C363
102
}
100
AcDbXrecord
102
PLOTBIT
280
     0
  0
XRECORD
  5
6C366
102
{ACAD_REACTORS
330
6C365
102
}
100
AcDbXrecord
102
ACADR14ROUNDTRIP
1000
DSTYLE
1002
{
1070
   276
 70
     2
1070
   277
 70
     5
1070
   279
 70
     2
1002
}
  0
XRECORD
  5
6C36A
102
{ACAD_REACTORS
330
6C369
102
}
100
AcDbXrecord
102
ACADR14ROUNDTRIP
1000
DSTYLE
1002
{
1070
   276
 70
     2
1070
   277
 70
     5
1070
   279
 70
     2
1070
   289
 70
     2
1002
}
  0
XRECORD
  5
6C362
102
{ACAD_REACTORS
330
4D2
102
}
100
AcDbXrecord
340
478
  0
XRECORD
  5
6C361
102
{ACAD_REACTORS
330
4D0
102
}
100
AcDbXrecord
340
475
  0
XRECORD
  5
6C35A
102
{ACAD_REACTORS
330
6C359
102
}
100
AcDbXrecord
102
UCS
 74
     0
 71
     1
 10
0.0
 20
0.0
 30
0.0
 10
1.0
 20
0.0
 30
0.0
 10
0.0
 20
1.0
 30
0.0
146
0.0
 79
     0
102
VIEW
281
     0
102
NEWVIEWCONTROL
280
     4
  0
XRECORD
  5
6C35C
102
{ACAD_REACTORS
330
6C35B
102
}
100
AcDbXrecord
102
UCS
 74
     0
 71
     1
 10
0.0
 20
0.0
 30
0.0
 10
1.0
 20
0.0
 30
0.0
 10
0.0
 20
1.0
 30
0.0
146
0.0
 79
     1
102
VIEW
281
     0
102
NEWVIEWCONTROL
280
     4
  0
XRECORD
  5
6C35E
102
{ACAD_REACTORS
330
6C35D
102
}
100
AcDbXrecord
102
UCS
 74
     0
 71
     1
 10
0.0
 20
0.0
 30
0.0
 10
1.0
 20
0.0
 30
0.0
 10
0.0
 20
0.0
 30
1.0
146
0.0
 79
     3
102
VIEW
281
     0
102
NEWVIEWCONTROL
280
     4
  0
XRECORD
  5
6C360
102
{ACAD_REACTORS
330
6C35F
102
}
100
AcDbXrecord
102
UCS
 74
     0
 71
     1
 10
0.0
 20
0.0
 30
0.0
 10
1.0
 20
0.0
 30
0.0
 10
0.0
 20
1.0
 30
0.0
146
0.0
 79
     0
102
VIEW
281
     0
102
NEWVIEWCONTROL
280
     4
  0
DICTIONARY
  5
6C367
100
AcDbDictionary
280
     1
  3
ACAD_XREC_ROUNDTRIP
360
6C368
  0
ACAD_PROXY_OBJECT
  5
4A1
102
{ACAD_REACTORS
330
49E
102
}
100
AcDbProxyObject
 90
      499
 91
      503
 93
     2044
310
91D4850204C617365724A65742035303030205365726965732050434C20362C008000000C0BB1B1440000000102F06C510000000000BC1B1440000000002E06C5100000000C0CCFC6A4000000018199D9C501064C6574746572A901406AA427D84144352EEE3F47D11959985D5B1D08148C4D081C195B88185CDCDA59DB9B5
310
95B9D1CCB98DD18A30EDE3B1BBFDBC0FC1D572C8D6D0C833F1A2B3054E9249F0FD074C61796F75743140501A97D7DB4AA43C31EFF91E46EBA53B71EFD1F32A15809809100B6537F8EAD447D02A6A6A00200C0093BD106FC0000F06EE366FABE00003AE6C60A036F44424FF2920002440160B7F435600079000000C89D22D2E
310
43C0
330
475
330
2C
340
0
340
0
 94
        0
  0
ACAD_PROXY_OBJECT
  5
4A0
102
{ACAD_REACTORS
330
49E
102
}
100
AcDbProxyObject
 90
      499
 91
      503
 93
      924
310
91D4850204C617365724A65742035303030205365726965732050434C20362C01AAAAAAAAA547D11959985D5B1D08148C4D081C195B88185CDCDA59DB9B595B9D1CCB98DD18A69054D6F64656C901A800000000000000000000000000000000000000000000A1000000000000008902A6A6AAAA0
330
478
330
0
340
0
340
0
 94
        0
  0
MLINESTYLE
  5
47C
102
{ACAD_REACTORS
330
47B
102
}
100
AcDbMlineStyle
  2
STANDARD
 70
     0
  3

 62
   256
 51
90.0
 52
90.0
 71
     2
 49
0.5
 62
   256
  6
BYLAYER
 49
-0.5
 62
   256
  6
BYLAYER
  0
ACAD_PROXY_OBJECT
  5
49D
102
{ACAD_REACTORS
330
49C
102
}
100
AcDbProxyObject
 90
      499
 91
      502
 93
        0
 94
        0
  0
XRECORD
  5
6C342
102
{ACAD_REACTORS
330
6C338
102
}
100
AcDbXrecord
 90
        0
  0
XRECORD
  5
6C346
102
{ACAD_REACTORS
330
6C338
102
}
100
AcDbXrecord
1000
DSTYLE
1002
{
1070
   276
 70
     2
1070
   277
 70
     5
1070
   279
 70
     2
1002
}
  0
XRECORD
  5
6C343
102
{ACAD_REACTORS
330
6C338
102
}
100
AcDbXrecord
  1
{6E0CF4B5-225E-11D4-A150-00A0CC3303EC}
  0
XRECORD
  5
6C33B
102
{ACAD_REACTORS
330
6C338
102
}
100
AcDbXrecord
  1

  0
XRECORD
  5
6C341
102
{ACAD_REACTORS
330
6C338
102
}
100
AcDbXrecord
 90
        0
  0
XRECORD
  5
6C33D
102
{ACAD_REACTORS
330
6C338
102
}
100
AcDbXrecord
340
49E
  0
XRECORD
  5
6C340
102
{ACAD_REACTORS
330
6C338
102
}
100
AcDbXrecord
 90
    14877
  0
XRECORD
  5
6C33E
102
{ACAD_REACTORS
330
6C338
102
}
100
AcDbXrecord
340
49F
  0
XRECORD
  5
6C33F
102
{ACAD_REACTORS
330
6C338
102
}
100
AcDbXrecord
340
49C
  0
XRECORD
  5
6C345
102
{ACAD_REACTORS
330
6C338
102
}
100
AcDbXrecord
 40
0.0
  0
XRECORD
  5
6C349
102
{ACAD_REACTORS
330
6C338
102
}
100
AcDbXrecord
340
0
  0
XRECORD
  5
6C34F
102
{ACAD_REACTORS
330
6C338
102
}
100
AcDbXrecord
 10
0.0
 20
0.0
 30
0.0
  0
XRECORD
  5
6C34B
102
{ACAD_REACTORS
330
6C338
102
}
100
AcDbXrecord
 10
0.0
 20
0.0
 30
0.0
  0
XRECORD
  5
6C34E
102
{ACAD_REACTORS
330
6C338
102
}
100
AcDbXrecord
 10
0.0
 20
0.0
 30
0.0
  0
XRECORD
  5
6C34C
102
{ACAD_REACTORS
330
6C338
102
}
100
AcDbXrecord
 10
0.0
 20
0.0
 30
0.0
  0
XRECORD
  5
6C34D
102
{ACAD_REACTORS
330
6C338
102
}
100
AcDbXrecord
 10
0.0
 20
0.0
 30
0.0
  0
XRECORD
  5
6C34A
102
{ACAD_REACTORS
330
6C338
102
}
100
AcDbXrecord
 10
0.0
 20
0.0
 30
0.0
  0
XRECORD
  5
6C347
102
{ACAD_REACTORS
330
6C338
102
}
100
AcDbXrecord
340
0
  0
XRECORD
  5
6C348
102
{ACAD_REACTORS
330
6C338
102
}
100
AcDbXrecord
 70
     0
  0
XRECORD
  5
6C33C
102
{ACAD_REACTORS
330
6C338
102
}
100
AcDbXrecord
  1

  0
XRECORD
  5
6C339
102
{ACAD_REACTORS
330
6C338
102
}
100
AcDbXrecord
 90
        1
  0
XRECORD
  5
6C33A
102
{ACAD_REACTORS
330
6C338
102
}
100
AcDbXrecord
 90
       70
  0
XRECORD
  5
6C352
102
{ACAD_REACTORS
330
6C338
102
}
100
AcDbXrecord
340
0
  0
XRECORD
  5
6C358
102
{ACAD_REACTORS
330
6C338
102
}
100
AcDbXrecord
 10
0.0
 20
0.0
 30
0.0
  0
XRECORD
  5
6C354
102
{ACAD_REACTORS
330
6C338
102
}
100
AcDbXrecord
 10
0.0
 20
0.0
 30
0.0
  0
XRECORD
  5
6C357
102
{ACAD_REACTORS
330
6C338
102
}
100
AcDbXrecord
 10
0.0
 20
0.0
 30
0.0
  0
XRECORD
  5
6C355
102
{ACAD_REACTORS
330
6C338
102
}
100
AcDbXrecord
 10
0.0
 20
0.0
 30
0.0
  0
XRECORD
  5
6C356
102
{ACAD_REACTORS
330
6C338
102
}
100
AcDbXrecord
 10
0.0
 20
0.0
 30
0.0
  0
XRECORD
  5
6C353
102
{ACAD_REACTORS
330
6C338
102
}
100
AcDbXrecord
 10
0.0
 20
0.0
 30
0.0
  0
XRECORD
  5
6C350
102
{ACAD_REACTORS
330
6C338
102
}
100
AcDbXrecord
340
0
  0
XRECORD
  5
6C351
102
{ACAD_REACTORS
330
6C338
102
}
100
AcDbXrecord
 70
     3
  0
XRECORD
  5
6C344
102
{ACAD_REACTORS
330
6C338
102
}
100
AcDbXrecord
  1
{AE7FCA96-6598-4725-9CBD-7C1ACE63C462}
  0
DICTIONARYVAR
  5
48E
102
{ACAD_REACTORS
330
48D
102
}
100
DictionaryVariables
280
     0
  1
0
  0
XRECORD
  5
6C368
102
{ACAD_REACTORS
330
6C367
102
}
100
AcDbXrecord
102
EXTNAMES
  1
LAYOUT1
  2
Layout1
  1
MODEL
  2
Model
  0
ENDSEC
  0
EOF
