  0
SECTION
  2
HEADER
  9
$ACADVER
  1
AC1014
  9
$ACADMAINTVER
 70
     8
  9
$DWGCODEPAGE
  3
ANSI_1252
  9
$INSBASE
 10
0.0
 20
0.0
 30
0.0
  9
$EXTMIN
 10
-1.417605
 20
-0.8975
 30
-1.57
  9
$EXTMAX
 10
1.499989
 20
1.417946
 30
0.0
  9
$LIMMIN
 10
0.0
 20
0.0
  9
$LIMMAX
 10
12.0
 20
9.0
  9
$ORTHOMODE
 70
     0
  9
$REGENMODE
 70
     1
  9
$FILLMODE
 70
     1
  9
$QTEXTMODE
 70
     0
  9
$MIRRTEXT
 70
     1
  9
$DRAGMODE
 70
     2
  9
$LTSCALE
 40
1.0
  9
$OSMODE
 70
    37
  9
$ATTMODE
 70
     1
  9
$TEXTSIZE
 40
0.12
  9
$TRACEWID
 40
0.05
  9
$TEXTSTYLE
  7
STANDARD
  9
$CLAYER
  8
0
  9
$CELTYPE
  6
BYLAYER
  9
$CECOLOR
 62
   256
  9
$CELTSCALE
 40
1.0
  9
$DELOBJ
 70
     1
  9
$DISPSILH
 70
     0
  9
$DIMSCALE
 40
1.0
  9
$DIMASZ
 40
0.1
  9
$DIMEXO
 40
0.1
  9
$DIMDLI
 40
0.375
  9
$DIMRND
 40
0.0
  9
$DIMDLE
 40
0.0
  9
$DIMEXE
 40
0.1
  9
$DIMTP
 40
0.0
  9
$DIMTM
 40
0.0
  9
$DIMTXT
 40
0.1
  9
$DIMCEN
 40
0.09
  9
$DIMTSZ
 40
0.0
  9
$DIMTOL
 70
     0
  9
$DIMLIM
 70
     0
  9
$DIMTIH
 70
     0
  9
$DIMTOH
 70
     1
  9
$DIMSE1
 70
     0
  9
$DIMSE2
 70
     0
  9
$DIMTAD
 70
     0
  9
$DIMZIN
 70
     4
  9
$DIMBLK
  1

  9
$DIMASO
 70
     1
  9
$DIMSHO
 70
     1
  9
$DIMPOST
  1

  9
$DIMAPOST
  1

  9
$DIMALT
 70
     1
  9
$DIMALTD
 70
     2
  9
$DIMALTF
 40
25.4
  9
$DIMLFAC
 40
1.0
  9
$DIMTOFL
 70
     0
  9
$DIMTVP
 40
0.0
  9
$DIMTIX
 70
     0
  9
$DIMSOXD
 70
     0
  9
$DIMSAH
 70
     0
  9
$DIMBLK1
  1

  9
$DIMBLK2
  1

  9
$DIMSTYLE
  2
ABECAD_3D
  9
$DIMCLRD
 70
     0
  9
$DIMCLRE
 70
     0
  9
$DIMCLRT
 70
     0
  9
$DIMTFAC
 40
1.5
  9
$DIMGAP
 40
0.09
  9
$DIMJUST
 70
     0
  9
$DIMSD1
 70
     0
  9
$DIMSD2
 70
     0
  9
$DIMTOLJ
 70
     1
  9
$DIMTZIN
 70
     4
  9
$DIMALTZ
 70
     4
  9
$DIMALTTZ
 70
     4
  9
$DIMFIT
 70
     5
  9
$DIMUPT
 70
     1
  9
$DIMUNIT
 70
     7
  9
$DIMDEC
 70
     6
  9
$DIMTDEC
 70
     6
  9
$DIMALTU
 70
     2
  9
$DIMALTTD
 70
     2
  9
$DIMTXSTY
  7
STANDARD
  9
$DIMAUNIT
 70
     0
  9
$LUNITS
 70
     2
  9
$LUPREC
 70
     4
  9
$SKETCHINC
 40
0.1
  9
$FILLETRAD
 40
0.0
  9
$AUNITS
 70
     0
  9
$AUPREC
 70
     0
  9
$MENU
  1
ACAD
  9
$ELEVATION
 40
0.0
  9
$PELEVATION
 40
0.0
  9
$THICKNESS
 40
0.0
  9
$LIMCHECK
 70
     0
  9
$BLIPMODE
 70
     0
  9
$CHAMFERA
 40
0.0
  9
$CHAMFERB
 40
0.0
  9
$CHAMFERC
 40
0.0
  9
$CHAMFERD
 40
0.0
  9
$SKPOLY
 70
     0
  9
$TDCREATE
 40
2451726.438389120
  9
$TDUPDATE
 40
2452100.671829629
  9
$TDINDWG
 40
1.3816224537
  9
$TDUSRTIMER
 40
1.3816224537
  9
$USRTIMER
 70
     1
  9
$ANGBASE
 50
0.0
  9
$ANGDIR
 70
     0
  9
$PDMODE
 70
     3
  9
$PDSIZE
 40
0.09
  9
$PLINEWID
 40
0.0
  9
$COORDS
 70
     1
  9
$SPLFRAME
 70
     1
  9
$SPLINETYPE
 70
     6
  9
$SPLINESEGS
 70
     8
  9
$ATTDIA
 70
     0
  9
$ATTREQ
 70
     1
  9
$HANDLING
 70
     1
  9
$HANDSEED
  5
A7F2F
  9
$SURFTAB1
 70
     6
  9
$SURFTAB2
 70
     6
  9
$SURFTYPE
 70
     6
  9
$SURFU
 70
     6
  9
$SURFV
 70
     6
  9
$UCSNAME
  2

  9
$UCSORG
 10
0.0
 20
0.0
 30
0.0
  9
$UCSXDIR
 10
1.0
 20
0.0
 30
0.0
  9
$UCSYDIR
 10
0.0
 20
1.0
 30
0.0
  9
$PUCSNAME
  2

  9
$PUCSORG
 10
0.0
 20
0.0
 30
0.0
  9
$PUCSXDIR
 10
1.0
 20
0.0
 30
0.0
  9
$PUCSYDIR
 10
0.0
 20
1.0
 30
0.0
  9
$USERI1
 70
     0
  9
$USERI2
 70
     0
  9
$USERI3
 70
     0
  9
$USERI4
 70
     0
  9
$USERI5
 70
     0
  9
$USERR1
 40
0.0
  9
$USERR2
 40
0.0
  9
$USERR3
 40
0.0
  9
$USERR4
 40
0.0
  9
$USERR5
 40
0.0
  9
$WORLDVIEW
 70
     1
  9
$SHADEDGE
 70
     3
  9
$SHADEDIF
 70
    70
  9
$TILEMODE
 70
     1
  9
$MAXACTVP
 70
    16
  9
$PINSBASE
 10
0.0
 20
0.0
 30
0.0
  9
$PLIMCHECK
 70
     0
  9
$PEXTMIN
 10
1.05
 20
0.8
 30
0.0
  9
$PEXTMAX
 10
9.45
 20
7.2
 30
0.0
  9
$PLIMMIN
 10
-0.25
 20
-0.25
  9
$PLIMMAX
 10
10.75
 20
8.25
  9
$UNITMODE
 70
     0
  9
$VISRETAIN
 70
     0
  9
$PLINEGEN
 70
     0
  9
$PSLTSCALE
 70
     1
  9
$TREEDEPTH
 70
  3020
  9
$PICKSTYLE
 70
     1
  9
$CMLSTYLE
  2
STANDARD
  9
$CMLJUST
 70
     0
  9
$CMLSCALE
 40
1.0
  9
$PROXYGRAPHICS
 70
     1
  9
$MEASUREMENT
 70
     0
  0
ENDSEC
  0
SECTION
  2
CLASSES
  0
CLASS
  1
DICTIONARYVAR
  2
AcDbDictionaryVar
  3
"AutoCAD"
 90
        0
280
     0
281
     0
  0
CLASS
  1
ACDBDICTIONARYWDFLT
  2
AcDbDictionaryWithDefault
  3
AutoCAD 2000
 90
        0
280
     0
281
     0
  0
CLASS
  1
ACDBPLACEHOLDER
  2
AcDbPlaceHolder
  3
AutoCAD 2000
 90
        0
280
     0
281
     0
  0
CLASS
  1
LAYOUT
  2
AcDbLayout
  3
AutoCAD 2000
 90
        0
280
     0
281
     0
  0
CLASS
  1
LONG_TRANSACTION
  2
AcDbLongTransaction
  3
AutoCAD 2000
 90
        0
280
     0
281
     0
  0
CLASS
  1
LWPOLYLINE
  2
AcDbPolyline
  3
"AutoCAD"
 90
        0
280
     0
281
     1
  0
CLASS
  1
HATCH
  2
AcDbHatch
  3
"ACAD_SEDONA"
 90
        0
280
     0
281
     1
  0
CLASS
  1
XRECORD
  2
AcDbXrecord
  3
"<Built In>"
 90
        0
280
     0
281
     0
  0
CLASS
  1
LONG_TRANSACTION
  2
AcDbLongTransaction
  3
AutoCAD 2000
 90
        0
280
     0
281
     0
  0
CLASS
  1
LWPOLYLINE
  2
AcDbPolyline
  3
"AutoCAD"
 90
        0
280
     0
281
     1
  0
CLASS
  1
HATCH
  2
AcDbHatch
  3
"ACAD_SEDONA"
 90
        0
280
     0
281
     1
  0
CLASS
  1
XRECORD
  2
AcDbXrecord
  3
"<Built In>"
 90
        0
280
     0
281
     0
  0
CLASS
  1
LONG_TRANSACTION
  2
AcDbLongTransaction
  3
AutoCAD 2000
 90
        0
280
     0
281
     0
  0
CLASS
  1
LWPOLYLINE
  2
AcDbPolyline
  3
"AutoCAD"
 90
        0
280
     0
281
     1
  0
CLASS
  1
HATCH
  2
AcDbHatch
  3
"ACAD_SEDONA"
 90
        0
280
     0
281
     1
  0
CLASS
  1
XRECORD
  2
AcDbXrecord
  3
"<Built In>"
 90
        0
280
     0
281
     0
  0
CLASS
  1
LONG_TRANSACTION
  2
AcDbLongTransaction
  3
AutoCAD 2000
 90
        0
280
     0
281
     0
  0
CLASS
  1
LWPOLYLINE
  2
AcDbPolyline
  3
"AutoCAD"
 90
        0
280
     0
281
     1
  0
CLASS
  1
HATCH
  2
AcDbHatch
  3
"ACAD_SEDONA"
 90
        0
280
     0
281
     1
  0
CLASS
  1
XRECORD
  2
AcDbXrecord
  3
"<Built In>"
 90
        0
280
     0
281
     0
  0
CLASS
  1
LONG_TRANSACTION
  2
AcDbLongTransaction
  3
AutoCAD 2000
 90
        0
280
     0
281
     0
  0
CLASS
  1
LWPOLYLINE
  2
AcDbPolyline
  3
"AutoCAD"
 90
        0
280
     0
281
     1
  0
CLASS
  1
HATCH
  2
AcDbHatch
  3
"ACAD_SEDONA"
 90
        0
280
     0
281
     1
  0
CLASS
  1
XRECORD
  2
AcDbXrecord
  3
"<Built In>"
 90
        0
280
     0
281
     0
  0
CLASS
  1
LONG_TRANSACTION
  2
AcDbLongTransaction
  3
AutoCAD 2000
 90
        0
280
     0
281
     0
  0
CLASS
  1
LWPOLYLINE
  2
AcDbPolyline
  3
"AutoCAD"
 90
        0
280
     0
281
     1
  0
CLASS
  1
HATCH
  2
AcDbHatch
  3
"ACAD_SEDONA"
 90
        0
280
     0
281
     1
  0
CLASS
  1
XRECORD
  2
AcDbXrecord
  3
"<Built In>"
 90
        0
280
     0
281
     0
  0
CLASS
  1
LONG_TRANSACTION
  2
AcDbLongTransaction
  3
AutoCAD 2000
 90
        0
280
     0
281
     0
  0
CLASS
  1
LWPOLYLINE
  2
AcDbPolyline
  3
"AutoCAD"
 90
        0
280
     0
281
     1
  0
CLASS
  1
HATCH
  2
AcDbHatch
  3
"ACAD_SEDONA"
 90
        0
280
     0
281
     1
  0
CLASS
  1
XRECORD
  2
AcDbXrecord
  3
"<Built In>"
 90
        0
280
     0
281
     0
  0
CLASS
  1
LONG_TRANSACTION
  2
AcDbLongTransaction
  3
AutoCAD 2000
 90
        0
280
     0
281
     0
  0
CLASS
  1
LWPOLYLINE
  2
AcDbPolyline
  3
"AutoCAD"
 90
        0
280
     0
281
     1
  0
CLASS
  1
HATCH
  2
AcDbHatch
  3
"ACAD_SEDONA"
 90
        0
280
     0
281
     1
  0
CLASS
  1
XRECORD
  2
AcDbXrecord
  3
"<Built In>"
 90
        0
280
     0
281
     0
  0
CLASS
  1
LONG_TRANSACTION
  2
AcDbLongTransaction
  3
AutoCAD 2000
 90
        0
280
     0
281
     0
  0
CLASS
  1
LWPOLYLINE
  2
AcDbPolyline
  3
"AutoCAD"
 90
        0
280
     0
281
     1
  0
CLASS
  1
HATCH
  2
AcDbHatch
  3
"ACAD_SEDONA"
 90
        0
280
     0
281
     1
  0
CLASS
  1
XRECORD
  2
AcDbXrecord
  3
"<Built In>"
 90
        0
280
     0
281
     0
  0
CLASS
  1
LONG_TRANSACTION
  2
AcDbLongTransaction
  3
AutoCAD 2000
 90
        0
280
     0
281
     0
  0
CLASS
  1
LWPOLYLINE
  2
AcDbPolyline
  3
"AutoCAD"
 90
        0
280
     0
281
     1
  0
CLASS
  1
HATCH
  2
AcDbHatch
  3
"ACAD_SEDONA"
 90
        0
280
     0
281
     1
  0
CLASS
  1
XRECORD
  2
AcDbXrecord
  3
"<Built In>"
 90
        0
280
     0
281
     0
  0
CLASS
  1
LONG_TRANSACTION
  2
AcDbLongTransaction
  3
AutoCAD 2000
 90
        0
280
     0
281
     0
  0
CLASS
  1
LWPOLYLINE
  2
AcDbPolyline
  3
"AutoCAD"
 90
        0
280
     0
281
     1
  0
CLASS
  1
HATCH
  2
AcDbHatch
  3
"ACAD_SEDONA"
 90
        0
280
     0
281
     1
  0
CLASS
  1
XRECORD
  2
AcDbXrecord
  3
"<Built In>"
 90
        0
280
     0
281
     0
  0
CLASS
  1
LONG_TRANSACTION
  2
AcDbLongTransaction
  3
AutoCAD 2000
 90
        0
280
     0
281
     0
  0
CLASS
  1
LWPOLYLINE
  2
AcDbPolyline
  3
"AutoCAD"
 90
        0
280
     0
281
     1
  0
CLASS
  1
HATCH
  2
AcDbHatch
  3
"ACAD_SEDONA"
 90
        0
280
     0
281
     1
  0
CLASS
  1
XRECORD
  2
AcDbXrecord
  3
"<Built In>"
 90
        0
280
     0
281
     0
  0
CLASS
  1
LONG_TRANSACTION
  2
AcDbLongTransaction
  3
AutoCAD 2000
 90
        0
280
     0
281
     0
  0
CLASS
  1
LWPOLYLINE
  2
AcDbPolyline
  3
"AutoCAD"
 90
        0
280
     0
281
     1
  0
CLASS
  1
HATCH
  2
AcDbHatch
  3
"ACAD_SEDONA"
 90
        0
280
     0
281
     1
  0
CLASS
  1
XRECORD
  2
AcDbXrecord
  3
"<Built In>"
 90
        0
280
     0
281
     0
  0
CLASS
  1
LONG_TRANSACTION
  2
AcDbLongTransaction
  3
AutoCAD 2000
 90
        0
280
     0
281
     0
  0
CLASS
  1
LWPOLYLINE
  2
AcDbPolyline
  3
"AutoCAD"
 90
        0
280
     0
281
     1
  0
CLASS
  1
HATCH
  2
AcDbHatch
  3
"ACAD_SEDONA"
 90
        0
280
     0
281
     1
  0
CLASS
  1
XRECORD
  2
AcDbXrecord
  3
"<Built In>"
 90
        0
280
     0
281
     0
  0
CLASS
  1
LONG_TRANSACTION
  2
AcDbLongTransaction
  3
AutoCAD 2000
 90
        0
280
     0
281
     0
  0
CLASS
  1
LWPOLYLINE
  2
AcDbPolyline
  3
"AutoCAD"
 90
        0
280
     0
281
     1
  0
CLASS
  1
HATCH
  2
AcDbHatch
  3
"ACAD_SEDONA"
 90
        0
280
     0
281
     1
  0
CLASS
  1
XRECORD
  2
AcDbXrecord
  3
"<Built In>"
 90
        0
280
     0
281
     0
  0
CLASS
  1
LONG_TRANSACTION
  2
AcDbLongTransaction
  3
AutoCAD 2000
 90
        0
280
     0
281
     0
  0
CLASS
  1
LWPOLYLINE
  2
AcDbPolyline
  3
"AutoCAD"
 90
        0
280
     0
281
     1
  0
CLASS
  1
HATCH
  2
AcDbHatch
  3
"ACAD_SEDONA"
 90
        0
280
     0
281
     1
  0
CLASS
  1
XRECORD
  2
AcDbXrecord
  3
"<Built In>"
 90
        0
280
     0
281
     0
  0
CLASS
  1
LONG_TRANSACTION
  2
AcDbLongTransaction
  3
AutoCAD 2000
 90
        0
280
     0
281
     0
  0
CLASS
  1
LWPOLYLINE
  2
AcDbPolyline
  3
"AutoCAD"
 90
        0
280
     0
281
     1
  0
CLASS
  1
HATCH
  2
AcDbHatch
  3
"ACAD_SEDONA"
 90
        0
280
     0
281
     1
  0
CLASS
  1
XRECORD
  2
AcDbXrecord
  3
"<Built In>"
 90
        0
280
     0
281
     0
  0
CLASS
  1
LONG_TRANSACTION
  2
AcDbLongTransaction
  3
AutoCAD 2000
 90
        0
280
     0
281
     0
  0
CLASS
  1
LWPOLYLINE
  2
AcDbPolyline
  3
"AutoCAD"
 90
        0
280
     0
281
     1
  0
CLASS
  1
HATCH
  2
AcDbHatch
  3
"ACAD_SEDONA"
 90
        0
280
     0
281
     1
  0
CLASS
  1
XRECORD
  2
AcDbXrecord
  3
"<Built In>"
 90
        0
280
     0
281
     0
  0
CLASS
  1
LONG_TRANSACTION
  2
AcDbLongTransaction
  3
AutoCAD 2000
 90
        0
280
     0
281
     0
  0
CLASS
  1
LWPOLYLINE
  2
AcDbPolyline
  3
"AutoCAD"
 90
        0
280
     0
281
     1
  0
CLASS
  1
HATCH
  2
AcDbHatch
  3
"ACAD_SEDONA"
 90
        0
280
     0
281
     1
  0
CLASS
  1
XRECORD
  2
AcDbXrecord
  3
"<Built In>"
 90
        0
280
     0
281
     0
  0
CLASS
  1
LONG_TRANSACTION
  2
AcDbLongTransaction
  3
AutoCAD 2000
 90
        0
280
     0
281
     0
  0
CLASS
  1
LWPOLYLINE
  2
AcDbPolyline
  3
"AutoCAD"
 90
        0
280
     0
281
     1
  0
CLASS
  1
HATCH
  2
AcDbHatch
  3
"ACAD_SEDONA"
 90
        0
280
     0
281
     1
  0
CLASS
  1
XRECORD
  2
AcDbXrecord
  3
"<Built In>"
 90
        0
280
     0
281
     0
  0
CLASS
  1
LONG_TRANSACTION
  2
AcDbLongTransaction
  3
AutoCAD 2000
 90
        0
280
     0
281
     0
  0
CLASS
  1
LWPOLYLINE
  2
AcDbPolyline
  3
"AutoCAD"
 90
        0
280
     0
281
     1
  0
CLASS
  1
HATCH
  2
AcDbHatch
  3
"ACAD_SEDONA"
 90
        0
280
     0
281
     1
  0
CLASS
  1
XRECORD
  2
AcDbXrecord
  3
"<Built In>"
 90
        0
280
     0
281
     0
  0
CLASS
  1
LONG_TRANSACTION
  2
AcDbLongTransaction
  3
AutoCAD 2000
 90
        0
280
     0
281
     0
  0
CLASS
  1
LWPOLYLINE
  2
AcDbPolyline
  3
"AutoCAD"
 90
        0
280
     0
281
     1
  0
CLASS
  1
HATCH
  2
AcDbHatch
  3
"ACAD_SEDONA"
 90
        0
280
     0
281
     1
  0
CLASS
  1
XRECORD
  2
AcDbXrecord
  3
"<Built In>"
 90
        0
280
     0
281
     0
  0
CLASS
  1
LONG_TRANSACTION
  2
AcDbLongTransaction
  3
AutoCAD 2000
 90
        0
280
     0
281
     0
  0
CLASS
  1
LWPOLYLINE
  2
AcDbPolyline
  3
"AutoCAD"
 90
        0
280
     0
281
     1
  0
CLASS
  1
HATCH
  2
AcDbHatch
  3
"ACAD_SEDONA"
 90
        0
280
     0
281
     1
  0
CLASS
  1
XRECORD
  2
AcDbXrecord
  3
"<Built In>"
 90
        0
280
     0
281
     0
  0
CLASS
  1
LONG_TRANSACTION
  2
AcDbLongTransaction
  3
AutoCAD 2000
 90
        0
280
     0
281
     0
  0
CLASS
  1
LWPOLYLINE
  2
AcDbPolyline
  3
"AutoCAD"
 90
        0
280
     0
281
     1
  0
CLASS
  1
HATCH
  2
AcDbHatch
  3
"ACAD_SEDONA"
 90
        0
280
     0
281
     1
  0
CLASS
  1
XRECORD
  2
AcDbXrecord
  3
"<Built In>"
 90
        0
280
     0
281
     0
  0
CLASS
  1
LONG_TRANSACTION
  2
AcDbLongTransaction
  3
AutoCAD 2000
 90
        0
280
     0
281
     0
  0
CLASS
  1
LWPOLYLINE
  2
AcDbPolyline
  3
"AutoCAD"
 90
        0
280
     0
281
     1
  0
CLASS
  1
HATCH
  2
AcDbHatch
  3
"ACAD_SEDONA"
 90
        0
280
     0
281
     1
  0
CLASS
  1
XRECORD
  2
AcDbXrecord
  3
"<Built In>"
 90
        0
280
     0
281
     0
  0
CLASS
  1
LONG_TRANSACTION
  2
AcDbLongTransaction
  3
AutoCAD 2000
 90
        0
280
     0
281
     0
  0
CLASS
  1
LWPOLYLINE
  2
AcDbPolyline
  3
"AutoCAD"
 90
        0
280
     0
281
     1
  0
CLASS
  1
HATCH
  2
AcDbHatch
  3
"ACAD_SEDONA"
 90
        0
280
     0
281
     1
  0
CLASS
  1
XRECORD
  2
AcDbXrecord
  3
"<Built In>"
 90
        0
280
     0
281
     0
  0
CLASS
  1
LONG_TRANSACTION
  2
AcDbLongTransaction
  3
AutoCAD 2000
 90
        0
280
     0
281
     0
  0
CLASS
  1
LWPOLYLINE
  2
AcDbPolyline
  3
"AutoCAD"
 90
        0
280
     0
281
     1
  0
CLASS
  1
HATCH
  2
AcDbHatch
  3
"ACAD_SEDONA"
 90
        0
280
     0
281
     1
  0
CLASS
  1
XRECORD
  2
AcDbXrecord
  3
"<Built In>"
 90
        0
280
     0
281
     0
  0
CLASS
  1
LONG_TRANSACTION
  2
AcDbLongTransaction
  3
AutoCAD 2000
 90
        0
280
     0
281
     0
  0
CLASS
  1
LWPOLYLINE
  2
AcDbPolyline
  3
"AutoCAD"
 90
        0
280
     0
281
     1
  0
CLASS
  1
HATCH
  2
AcDbHatch
  3
"ACAD_SEDONA"
 90
        0
280
     0
281
     1
  0
CLASS
  1
XRECORD
  2
AcDbXrecord
  3
"<Built In>"
 90
        0
280
     0
281
     0
  0
CLASS
  1
LONG_TRANSACTION
  2
AcDbLongTransaction
  3
AutoCAD 2000
 90
        0
280
     0
281
     0
  0
CLASS
  1
LWPOLYLINE
  2
AcDbPolyline
  3
"AutoCAD"
 90
        0
280
     0
281
     1
  0
CLASS
  1
HATCH
  2
AcDbHatch
  3
"ACAD_SEDONA"
 90
        0
280
     0
281
     1
  0
CLASS
  1
XRECORD
  2
AcDbXrecord
  3
"<Built In>"
 90
        0
280
     0
281
     0
  0
CLASS
  1
LONG_TRANSACTION
  2
AcDbLongTransaction
  3
AutoCAD 2000
 90
        0
280
     0
281
     0
  0
CLASS
  1
LWPOLYLINE
  2
AcDbPolyline
  3
"AutoCAD"
 90
        0
280
     0
281
     1
  0
CLASS
  1
HATCH
  2
AcDbHatch
  3
"ACAD_SEDONA"
 90
        0
280
     0
281
     1
  0
CLASS
  1
XRECORD
  2
AcDbXrecord
  3
"<Built In>"
 90
        0
280
     0
281
     0
  0
CLASS
  1
LONG_TRANSACTION
  2
AcDbLongTransaction
  3
AutoCAD 2000
 90
        0
280
     0
281
     0
  0
CLASS
  1
LWPOLYLINE
  2
AcDbPolyline
  3
"AutoCAD"
 90
        0
280
     0
281
     1
  0
CLASS
  1
HATCH
  2
AcDbHatch
  3
"ACAD_SEDONA"
 90
        0
280
     0
281
     1
  0
CLASS
  1
XRECORD
  2
AcDbXrecord
  3
"<Built In>"
 90
        0
280
     0
281
     0
  0
CLASS
  1
LONG_TRANSACTION
  2
AcDbLongTransaction
  3
AutoCAD 2000
 90
        0
280
     0
281
     0
  0
CLASS
  1
LWPOLYLINE
  2
AcDbPolyline
  3
"AutoCAD"
 90
        0
280
     0
281
     1
  0
CLASS
  1
HATCH
  2
AcDbHatch
  3
"ACAD_SEDONA"
 90
        0
280
     0
281
     1
  0
CLASS
  1
XRECORD
  2
AcDbXrecord
  3
"<Built In>"
 90
        0
280
     0
281
     0
  0
CLASS
  1
LONG_TRANSACTION
  2
AcDbLongTransaction
  3
AutoCAD 2000
 90
        0
280
     0
281
     0
  0
CLASS
  1
LWPOLYLINE
  2
AcDbPolyline
  3
"AutoCAD"
 90
        0
280
     0
281
     1
  0
CLASS
  1
HATCH
  2
AcDbHatch
  3
"ACAD_SEDONA"
 90
        0
280
     0
281
     1
  0
CLASS
  1
XRECORD
  2
AcDbXrecord
  3
"<Built In>"
 90
        0
280
     0
281
     0
  0
CLASS
  1
LONG_TRANSACTION
  2
AcDbLongTransaction
  3
AutoCAD 2000
 90
        0
280
     0
281
     0
  0
CLASS
  1
LWPOLYLINE
  2
AcDbPolyline
  3
"AutoCAD"
 90
        0
280
     0
281
     1
  0
CLASS
  1
HATCH
  2
AcDbHatch
  3
"ACAD_SEDONA"
 90
        0
280
     0
281
     1
  0
CLASS
  1
XRECORD
  2
AcDbXrecord
  3
"<Built In>"
 90
        0
280
     0
281
     0
  0
CLASS
  1
LONG_TRANSACTION
  2
AcDbLongTransaction
  3
AutoCAD 2000
 90
        0
280
     0
281
     0
  0
CLASS
  1
LWPOLYLINE
  2
AcDbPolyline
  3
"AutoCAD"
 90
        0
280
     0
281
     1
  0
CLASS
  1
HATCH
  2
AcDbHatch
  3
"ACAD_SEDONA"
 90
        0
280
     0
281
     1
  0
CLASS
  1
XRECORD
  2
AcDbXrecord
  3
"<Built In>"
 90
        0
280
     0
281
     0
  0
CLASS
  1
LONG_TRANSACTION
  2
AcDbLongTransaction
  3
AutoCAD 2000
 90
        0
280
     0
281
     0
  0
CLASS
  1
LWPOLYLINE
  2
AcDbPolyline
  3
"AutoCAD"
 90
        0
280
     0
281
     1
  0
CLASS
  1
HATCH
  2
AcDbHatch
  3
"ACAD_SEDONA"
 90
        0
280
     0
281
     1
  0
CLASS
  1
XRECORD
  2
AcDbXrecord
  3
"<Built In>"
 90
        0
280
     0
281
     0
  0
CLASS
  1
LONG_TRANSACTION
  2
AcDbLongTransaction
  3
AutoCAD 2000
 90
        0
280
     0
281
     0
  0
CLASS
  1
LWPOLYLINE
  2
AcDbPolyline
  3
"AutoCAD"
 90
        0
280
     0
281
     1
  0
CLASS
  1
HATCH
  2
AcDbHatch
  3
"ACAD_SEDONA"
 90
        0
280
     0
281
     1
  0
CLASS
  1
XRECORD
  2
AcDbXrecord
  3
"<Built In>"
 90
        0
280
     0
281
     0
  0
CLASS
  1
LONG_TRANSACTION
  2
AcDbLongTransaction
  3
AutoCAD 2000
 90
        0
280
     0
281
     0
  0
CLASS
  1
LWPOLYLINE
  2
AcDbPolyline
  3
"AutoCAD"
 90
        0
280
     0
281
     1
  0
CLASS
  1
HATCH
  2
AcDbHatch
  3
"ACAD_SEDONA"
 90
        0
280
     0
281
     1
  0
CLASS
  1
XRECORD
  2
AcDbXrecord
  3
"<Built In>"
 90
        0
280
     0
281
     0
  0
CLASS
  1
LONG_TRANSACTION
  2
AcDbLongTransaction
  3
AutoCAD 2000
 90
        0
280
     0
281
     0
  0
CLASS
  1
LWPOLYLINE
  2
AcDbPolyline
  3
"AutoCAD"
 90
        0
280
     0
281
     1
  0
CLASS
  1
HATCH
  2
AcDbHatch
  3
"ACAD_SEDONA"
 90
        0
280
     0
281
     1
  0
CLASS
  1
XRECORD
  2
AcDbXrecord
  3
"<Built In>"
 90
        0
280
     0
281
     0
  0
CLASS
  1
LONG_TRANSACTION
  2
AcDbLongTransaction
  3
AutoCAD 2000
 90
        0
280
     0
281
     0
  0
CLASS
  1
LWPOLYLINE
  2
AcDbPolyline
  3
"AutoCAD"
 90
        0
280
     0
281
     1
  0
CLASS
  1
HATCH
  2
AcDbHatch
  3
"ACAD_SEDONA"
 90
        0
280
     0
281
     1
  0
CLASS
  1
XRECORD
  2
AcDbXrecord
  3
"<Built In>"
 90
        0
280
     0
281
     0
  0
CLASS
  1
LONG_TRANSACTION
  2
AcDbLongTransaction
  3
AutoCAD 2000
 90
        0
280
     0
281
     0
  0
CLASS
  1
LWPOLYLINE
  2
AcDbPolyline
  3
"AutoCAD"
 90
        0
280
     0
281
     1
  0
CLASS
  1
HATCH
  2
AcDbHatch
  3
"ACAD_SEDONA"
 90
        0
280
     0
281
     1
  0
CLASS
  1
XRECORD
  2
AcDbXrecord
  3
"<Built In>"
 90
        0
280
     0
281
     0
  0
CLASS
  1
LONG_TRANSACTION
  2
AcDbLongTransaction
  3
AutoCAD 2000
 90
        0
280
     0
281
     0
  0
CLASS
  1
LWPOLYLINE
  2
AcDbPolyline
  3
"AutoCAD"
 90
        0
280
     0
281
     1
  0
CLASS
  1
HATCH
  2
AcDbHatch
  3
"ACAD_SEDONA"
 90
        0
280
     0
281
     1
  0
CLASS
  1
XRECORD
  2
AcDbXrecord
  3
"<Built In>"
 90
        0
280
     0
281
     0
  0
CLASS
  1
LONG_TRANSACTION
  2
AcDbLongTransaction
  3
AutoCAD 2000
 90
        0
280
     0
281
     0
  0
CLASS
  1
LWPOLYLINE
  2
AcDbPolyline
  3
"AutoCAD"
 90
        0
280
     0
281
     1
  0
CLASS
  1
HATCH
  2
AcDbHatch
  3
"ACAD_SEDONA"
 90
        0
280
     0
281
     1
  0
CLASS
  1
XRECORD
  2
AcDbXrecord
  3
"<Built In>"
 90
        0
280
     0
281
     0
  0
ENDSEC
  0
SECTION
  2
TABLES
  0
TABLE
  2
VPORT
  5
458C7
100
AcDbSymbolTable
 70
     1
  0
VPORT
  5
A7EFA
102
{ACAD_XDICTIONARY
360
A7EFD
102
}
100
AcDbSymbolTableRecord
100
AcDbViewportTableRecord
  2
*ACTIVE
 70
     0
 10
0.0
 20
0.0
 11
1.0
 21
1.0
 12
1.043489
 22
1.16903
 13
0.0
 23
0.0
 14
0.25
 24
0.25
 15
0.25
 25
0.25
 16
0.0
 26
0.0
 36
1.0
 17
-1.002245
 27
-0.908856
 37
0.745855
 40
2.339786
 41
1.829897
 42
50.0
 43
0.0
 44
0.0
 50
0.0
 51
0.0
 71
     0
 72
 20000
 73
     1
 74
     1
 75
     0
 76
     0
 77
     0
 78
     0
  0
ENDTAB
  0
TABLE
  2
LTYPE
  5
458C4
100
AcDbSymbolTable
 70
     1
  0
LTYPE
  5
458D0
100
AcDbSymbolTableRecord
100
AcDbLinetypeTableRecord
  2
BYBLOCK
 70
     0
  3

 72
    65
 73
     0
 40
0.0
  0
LTYPE
  5
458D1
100
AcDbSymbolTableRecord
100
AcDbLinetypeTableRecord
  2
BYLAYER
 70
     0
  3

 72
    65
 73
     0
 40
0.0
  0
LTYPE
  5
458D2
100
AcDbSymbolTableRecord
100
AcDbLinetypeTableRecord
  2
CONTINUOUS
 70
     0
  3
Solid line
 72
    65
 73
     0
 40
0.0
  0
ENDTAB
  0
TABLE
  2
LAYER
  5
458C1
100
AcDbSymbolTable
 70
     7
  0
LAYER
  5
458CD
100
AcDbSymbolTableRecord
100
AcDbLayerTableRecord
  2
0
 70
     0
 62
     7
  6
CONTINUOUS
  0
LAYER
  5
458EA
100
AcDbSymbolTableRecord
100
AcDbLayerTableRecord
  2
DIMS-MTG-HOLES
 70
     0
 62
     1
  6
CONTINUOUS
  0
LAYER
  5
458EB
100
AcDbSymbolTableRecord
100
AcDbLayerTableRecord
  2
ATTRIBUTES
 70
     0
 62
     7
  6
CONTINUOUS
  0
LAYER
  5
4593B
102
{ACAD_XDICTIONARY
360
A7F26
102
}
100
AcDbSymbolTableRecord
100
AcDbLayerTableRecord
  2
AREA1
 70
     0
 62
    -7
  6
CONTINUOUS
  0
LAYER
  5
45940
102
{ACAD_XDICTIONARY
360
A7EFB
102
}
100
AcDbSymbolTableRecord
100
AcDbLayerTableRecord
  2
DEFPOINTS
 70
     0
 62
    -7
  6
CONTINUOUS
  0
LAYER
  5
45954
100
AcDbSymbolTableRecord
100
AcDbLayerTableRecord
  2
SCALE
 70
     0
 62
    -7
  6
CONTINUOUS
  0
LAYER
  5
4D59A
100
AcDbSymbolTableRecord
100
AcDbLayerTableRecord
  2
SNAP_POINTS
 70
     0
 62
    -1
  6
CONTINUOUS
  0
ENDTAB
  0
TABLE
  2
STYLE
  5
458C2
100
AcDbSymbolTable
 70
     1
  0
STYLE
  5
458CE
100
AcDbSymbolTableRecord
100
AcDbTextStyleTableRecord
  2
STANDARD
 70
     0
 40
0.0
 41
1.0
 50
0.0
 71
     0
 42
0.12
  3
txt
  4

  0
ENDTAB
  0
TABLE
  2
VIEW
  5
458C5
100
AcDbSymbolTable
 70
     0
  0
ENDTAB
  0
TABLE
  2
UCS
  5
458C6
100
AcDbSymbolTable
 70
     0
  0
ENDTAB
  0
TABLE
  2
APPID
  5
458C8
100
AcDbSymbolTable
 70
     2
  0
APPID
  5
458CF
100
AcDbSymbolTableRecord
100
AcDbRegAppTableRecord
  2
ACAD
 70
     0
  0
APPID
  5
5FD5B
100
AcDbSymbolTableRecord
100
AcDbRegAppTableRecord
  2
AVE_RENDER
 70
     0
  0
ENDTAB
  0
TABLE
  2
DIMSTYLE
  5
458C9
100
AcDbSymbolTable
 70
     1
  0
DIMSTYLE
105
458F6
102
{ACAD_XDICTIONARY
360
A7F22
102
}
102
{ACAD_REACTORS
330
A7E1D
330
A7E2B
102
}
100
AcDbSymbolTableRecord
100
AcDbDimStyleTableRecord
  2
ABECAD_3D
 70
     0
  3

  4

  5

  6

  7

 40
1.0
 41
0.1
 42
0.1
 43
0.375
 44
0.1
 45
0.0
 46
0.0
 47
0.0
 48
0.0
140
0.1
141
0.09
142
0.0
143
25.4
144
1.0
145
0.0
146
1.5
147
0.09
 71
     0
 72
     0
 73
     0
 74
     1
 75
     0
 76
     0
 77
     0
 78
     4
170
     1
171
     2
172
     0
173
     0
174
     0
175
     0
176
     0
177
     0
178
     0
270
     7
271
     6
272
     6
273
     2
274
     2
340
458CE
275
     0
280
     0
281
     0
282
     0
283
     1
284
     4
285
     4
286
     4
287
     5
288
     1
  0
ENDTAB
  0
TABLE
  2
BLOCK_RECORD
  5
458C0
100
AcDbSymbolTable
 70
     2
  0
BLOCK_RECORD
  5
458D6
102
{ACAD_XDICTIONARY
360
4592C
102
}
100
AcDbSymbolTableRecord
100
AcDbBlockTableRecord
  2
*MODEL_SPACE
  0
BLOCK_RECORD
  5
458D3
102
{ACAD_XDICTIONARY
360
4592A
102
}
100
AcDbSymbolTableRecord
100
AcDbBlockTableRecord
  2
*PAPER_SPACE
  0
BLOCK_RECORD
  5
A7E1E
100
AcDbSymbolTableRecord
100
AcDbBlockTableRecord
  2
*D0
  0
BLOCK_RECORD
  5
A7E2C
100
AcDbSymbolTableRecord
100
AcDbBlockTableRecord
  2
*D1
  0
ENDTAB
  0
ENDSEC
  0
SECTION
  2
BLOCKS
  0
BLOCK
  5
458DF
100
AcDbEntity
  8
0
100
AcDbBlockBegin
  2
*MODEL_SPACE
 70
     0
 10
0.0
 20
0.0
 30
0.0
  3
*MODEL_SPACE
  1

  0
ENDBLK
  5
458E0
100
AcDbEntity
  8
0
100
AcDbBlockEnd
  0
BLOCK
  5
458DD
100
AcDbEntity
 67
     1
  8
0
100
AcDbBlockBegin
  2
*PAPER_SPACE
 70
     0
 10
0.0
 20
0.0
 30
0.0
  3
*PAPER_SPACE
  1

  0
ENDBLK
  5
458DE
100
AcDbEntity
 67
     1
  8
0
100
AcDbBlockEnd
  0
BLOCK
  5
A7E29
100
AcDbEntity
  8
0
100
AcDbBlockBegin
  2
*D0
 70
     1
 10
0.0
 20
0.0
 30
0.0
  3
*D0
  1

  0
LINE
  5
A7E1F
100
AcDbEntity
  8
AREA1
 62
     0
100
AcDbLine
 10
-1.063
 20
0.8975
 30
0.0
 11
-1.417605
 21
0.8975
 31
0.0
1001
ACAD
1000
RTLwPs
1070
   158
  0
LINE
  5
A7E20
100
AcDbEntity
  8
AREA1
 62
     0
100
AcDbLine
 10
-1.063
 20
-0.8975
 30
0.0
 11
-1.417605
 21
-0.8975
 31
0.0
1001
ACAD
1000
RTLwPs
1070
   158
  0
LINE
  5
A7E21
100
AcDbEntity
  8
AREA1
 62
     0
100
AcDbLine
 10
-1.317605
 20
0.7975
 30
0.0
 11
-1.317605
 21
0.73127
 31
0.0
1001
ACAD
1000
RTLwPs
1070
   158
  0
LINE
  5
A7E22
100
AcDbEntity
  8
AREA1
 62
     0
100
AcDbLine
 10
-1.317605
 20
-0.7975
 30
0.0
 11
-1.317605
 21
-0.715396
 31
0.0
1001
ACAD
1000
RTLwPs
1070
   158
  0
MTEXT
  5
A7E23
100
AcDbEntity
  8
AREA1
 62
     0
100
AcDbMText
 10
-1.317605
 20
0.007937
 30
0.0
 40
0.1
 41
0.0
 71
     5
 72
     1
  1
\A1;1 51/64 [45.59]
 11
0.0
 21
1.0
 31
0.0
1001
ACAD
1000
MTEXTBEGIN
1070
    73
1070
     1
1070
    44
1040
1.0
1070
    74
1070
     0
1000
MTEXTEND
1000
MTEXTBEGIN
1070
    73
1070
     1
1070
    44
1040
1.0
1070
    74
1070
     0
1000
MTEXTEND
1000
MTEXTBEGIN
1070
    73
1070
     1
1070
    44
1040
1.0
1070
    74
1070
     0
1000
MTEXTEND
1000
MTEXTBEGIN
1070
    73
1070
     1
1070
    44
1040
1.0
1070
    74
1070
     0
1000
MTEXTEND
  0
SOLID
  5
A7E24
100
AcDbEntity
  8
AREA1
 62
     0
100
AcDbTrace
 10
-1.334271
 20
0.7975
 30
0.0
 11
-1.300938
 21
0.7975
 31
0.0
 12
-1.317605
 22
0.8975
 32
0.0
 13
-1.317605
 23
0.8975
 33
0.0
  0
SOLID
  5
A7E25
100
AcDbEntity
  8
AREA1
 62
     0
100
AcDbTrace
 10
-1.334271
 20
-0.7975
 30
0.0
 11
-1.300938
 21
-0.7975
 31
0.0
 12
-1.317605
 22
-0.8975
 32
0.0
 13
-1.317605
 23
-0.8975
 33
0.0
  0
POINT
  5
A7E26
100
AcDbEntity
  8
DEFPOINTS
 62
     0
100
AcDbPoint
 10
-0.963
 20
0.8975
 30
0.0
  0
POINT
  5
A7E27
100
AcDbEntity
  8
DEFPOINTS
 62
     0
100
AcDbPoint
 10
-0.963
 20
-0.8975
 30
-0.18
  0
POINT
  5
A7E28
100
AcDbEntity
  8
DEFPOINTS
 62
     0
100
AcDbPoint
 10
-1.317605
 20
-0.8975
 30
0.0
  0
ENDBLK
  5
A7E2A
100
AcDbEntity
  8
0
100
AcDbBlockEnd
  0
BLOCK
  5
A7E36
100
AcDbEntity
  8
0
100
AcDbBlockBegin
  2
*D1
 70
     1
 10
0.0
 20
0.0
 30
0.0
  3
*D1
  1

  0
LINE
  5
A7E38
100
AcDbEntity
  8
AREA1
 62
     0
100
AcDbLine
 10
-0.963
 20
0.9975
 30
0.0
 11
-0.963
 21
1.250625
 31
0.0
1001
ACAD
1000
RTLwPs
1070
   158
  0
LINE
  5
A7E39
100
AcDbEntity
  8
AREA1
 62
     0
100
AcDbLine
 10
0.106
 20
0.9145
 30
0.0
 11
0.106
 21
1.250625
 31
0.0
1001
ACAD
1000
RTLwPs
1070
   158
  0
LINE
  5
A7E3A
100
AcDbEntity
  8
AREA1
 62
     0
100
AcDbLine
 10
-0.863
 20
1.150625
 30
0.0
 11
0.006
 21
1.150625
 31
0.0
1001
ACAD
1000
RTLwPs
1070
   158
  0
MTEXT
  5
A7E3B
100
AcDbEntity
  8
AREA1
 62
     0
100
AcDbMText
 10
-0.419559
 20
1.367946
 30
0.0
 40
0.1
 41
0.0
 71
     5
 72
     1
  1
\A1;1 1/16 [27.15]
1001
ACAD
1000
MTEXTBEGIN
1070
    73
1070
     1
1070
    44
1040
1.0
1070
    74
1070
     0
1000
MTEXTEND
1000
MTEXTBEGIN
1070
    73
1070
     1
1070
    44
1040
1.0
1070
    74
1070
     0
1000
MTEXTEND
1000
MTEXTBEGIN
1070
    73
1070
     1
1070
    44
1040
1.0
1070
    74
1070
     0
1000
MTEXTEND
1000
MTEXTBEGIN
1070
    73
1070
     1
1070
    44
1040
1.0
1070
    74
1070
     0
1000
MTEXTEND
  0
SOLID
  5
A7E3C
100
AcDbEntity
  8
AREA1
 62
     0
100
AcDbTrace
 10
-0.863
 20
1.167292
 30
0.0
 11
-0.863
 21
1.133959
 31
0.0
 12
-0.963
 22
1.150625
 32
0.0
 13
-0.963
 23
1.150625
 33
0.0
  0
SOLID
  5
A7E3D
100
AcDbEntity
  8
AREA1
 62
     0
100
AcDbTrace
 10
0.006
 20
1.167292
 30
0.0
 11
0.006
 21
1.133959
 31
0.0
 12
0.106
 22
1.150625
 32
0.0
 13
0.106
 23
1.150625
 33
0.0
  0
POINT
  5
A7E3E
100
AcDbEntity
  8
DEFPOINTS
 62
     0
100
AcDbPoint
 10
-0.963
 20
0.8975
 30
0.0
  0
POINT
  5
A7E3F
100
AcDbEntity
  8
DEFPOINTS
 62
     0
100
AcDbPoint
 10
0.106
 20
0.8145
 30
0.0
  0
POINT
  5
A7E40
100
AcDbEntity
  8
DEFPOINTS
 62
     0
100
AcDbPoint
 10
0.106
 20
1.150625
 30
0.0
  0
ENDBLK
  5
A7E37
100
AcDbEntity
  8
0
100
AcDbBlockEnd
  0
ENDSEC
  0
SECTION
  2
ENTITIES
  0
POINT
  5
A7C83
100
AcDbEntity
  8
SNAP_POINTS
100
AcDbPoint
 10
0.0
 20
0.0
 30
0.0
  0
POLYLINE
  5
A7C84
100
AcDbEntity
  8
0
100
AcDbPolygonMesh
 66
     1
 10
0.0
 20
0.0
 30
0.0
 70
    16
 71
     6
 72
     3
  0
VERTEX
  5
A7C85
100
AcDbEntity
  8
0
100
AcDbVertex
100
AcDbPolygonMeshVertex
 10
-0.468
 20
0.8145
 30
-1.57
 70
    64
  0
VERTEX
  5
A7C86
100
AcDbEntity
  8
0
100
AcDbVertex
100
AcDbPolygonMeshVertex
 10
-0.468
 20
0.8145
 30
0.0
 70
    64
  0
VERTEX
  5
A7C87
100
AcDbEntity
  8
0
100
AcDbVertex
100
AcDbPolygonMeshVertex
 10
-0.468
 20
0.8145
 30
0.0
 70
    64
  0
VERTEX
  5
A7C88
100
AcDbEntity
  8
0
100
AcDbVertex
100
AcDbPolygonMeshVertex
 10
-0.468
 20
-0.8145
 30
-1.57
 70
    64
  0
VERTEX
  5
A7C89
100
AcDbEntity
  8
0
100
AcDbVertex
100
AcDbPolygonMeshVertex
 10
-0.468
 20
-0.8145
 30
0.0
 70
    64
  0
VERTEX
  5
A7C8A
100
AcDbEntity
  8
0
100
AcDbVertex
100
AcDbPolygonMeshVertex
 10
-0.468
 20
-0.8145
 30
0.0
 70
    64
  0
VERTEX
  5
A7C8B
100
AcDbEntity
  8
0
100
AcDbVertex
100
AcDbPolygonMeshVertex
 10
-0.126
 20
-0.8145
 30
-1.57
 70
    64
  0
VERTEX
  5
A7C8C
100
AcDbEntity
  8
0
100
AcDbVertex
100
AcDbPolygonMeshVertex
 10
-0.126
 20
-0.8145
 30
0.0
 70
    64
  0
VERTEX
  5
A7C8D
100
AcDbEntity
  8
0
100
AcDbVertex
100
AcDbPolygonMeshVertex
 10
-0.468
 20
-0.8145
 30
0.0
 70
    64
  0
VERTEX
  5
A7C8E
100
AcDbEntity
  8
0
100
AcDbVertex
100
AcDbPolygonMeshVertex
 10
-0.126
 20
0.8145
 30
-1.57
 70
    64
  0
VERTEX
  5
A7C8F
100
AcDbEntity
  8
0
100
AcDbVertex
100
AcDbPolygonMeshVertex
 10
-0.126
 20
0.8145
 30
0.0
 70
    64
  0
VERTEX
  5
A7C90
100
AcDbEntity
  8
0
100
AcDbVertex
100
AcDbPolygonMeshVertex
 10
-0.468
 20
0.8145
 30
0.0
 70
    64
  0
VERTEX
  5
A7C91
100
AcDbEntity
  8
0
100
AcDbVertex
100
AcDbPolygonMeshVertex
 10
-0.126
 20
0.8145
 30
-1.57
 70
    64
  0
VERTEX
  5
A7C92
100
AcDbEntity
  8
0
100
AcDbVertex
100
AcDbPolygonMeshVertex
 10
-0.126
 20
0.8145
 30
-1.57
 70
    64
  0
VERTEX
  5
A7C93
100
AcDbEntity
  8
0
100
AcDbVertex
100
AcDbPolygonMeshVertex
 10
-0.468
 20
0.8145
 30
-1.57
 70
    64
  0
VERTEX
  5
A7C94
100
AcDbEntity
  8
0
100
AcDbVertex
100
AcDbPolygonMeshVertex
 10
-0.126
 20
-0.8145
 30
-1.57
 70
    64
  0
VERTEX
  5
A7C95
100
AcDbEntity
  8
0
100
AcDbVertex
100
AcDbPolygonMeshVertex
 10
-0.126
 20
-0.8145
 30
-1.57
 70
    64
  0
VERTEX
  5
A7C96
100
AcDbEntity
  8
0
100
AcDbVertex
100
AcDbPolygonMeshVertex
 10
-0.468
 20
-0.8145
 30
-1.57
 70
    64
  0
SEQEND
  5
A7C97
100
AcDbEntity
  8
0
  0
POLYLINE
  5
A7C98
100
AcDbEntity
  8
0
100
AcDbPolygonMesh
 66
     1
 10
0.0
 20
0.0
 30
0.0
 70
    16
 71
     6
 72
     3
  0
VERTEX
  5
A7C99
100
AcDbEntity
  8
0
100
AcDbVertex
100
AcDbPolygonMeshVertex
 10
-0.963
 20
-0.3555
 30
-1.57
 70
    64
  0
VERTEX
  5
A7C9A
100
AcDbEntity
  8
0
100
AcDbVertex
100
AcDbPolygonMeshVertex
 10
-0.963
 20
-0.3555
 30
-1.024
 70
    64
  0
VERTEX
  5
A7C9B
100
AcDbEntity
  8
0
100
AcDbVertex
100
AcDbPolygonMeshVertex
 10
-0.963
 20
-0.3555
 30
-1.024
 70
    64
  0
VERTEX
  5
A7C9C
100
AcDbEntity
  8
0
100
AcDbVertex
100
AcDbPolygonMeshVertex
 10
-0.963
 20
-0.8975
 30
-1.57
 70
    64
  0
VERTEX
  5
A7C9D
100
AcDbEntity
  8
0
100
AcDbVertex
100
AcDbPolygonMeshVertex
 10
-0.963
 20
-0.8975
 30
-1.024
 70
    64
  0
VERTEX
  5
A7C9E
100
AcDbEntity
  8
0
100
AcDbVertex
100
AcDbPolygonMeshVertex
 10
-0.963
 20
-0.8975
 30
-1.024
 70
    64
  0
VERTEX
  5
A7C9F
100
AcDbEntity
  8
0
100
AcDbVertex
100
AcDbPolygonMeshVertex
 10
-0.468
 20
-0.8975
 30
-1.57
 70
    64
  0
VERTEX
  5
A7CA0
100
AcDbEntity
  8
0
100
AcDbVertex
100
AcDbPolygonMeshVertex
 10
-0.468
 20
-0.8975
 30
-1.024
 70
    64
  0
VERTEX
  5
A7CA1
100
AcDbEntity
  8
0
100
AcDbVertex
100
AcDbPolygonMeshVertex
 10
-0.963
 20
-0.8975
 30
-1.024
 70
    64
  0
VERTEX
  5
A7CA2
100
AcDbEntity
  8
0
100
AcDbVertex
100
AcDbPolygonMeshVertex
 10
-0.468
 20
-0.3555
 30
-1.57
 70
    64
  0
VERTEX
  5
A7CA3
100
AcDbEntity
  8
0
100
AcDbVertex
100
AcDbPolygonMeshVertex
 10
-0.468
 20
-0.3555
 30
-1.024
 70
    64
  0
VERTEX
  5
A7CA4
100
AcDbEntity
  8
0
100
AcDbVertex
100
AcDbPolygonMeshVertex
 10
-0.963
 20
-0.3555
 30
-1.024
 70
    64
  0
VERTEX
  5
A7CA5
100
AcDbEntity
  8
0
100
AcDbVertex
100
AcDbPolygonMeshVertex
 10
-0.468
 20
-0.3555
 30
-1.57
 70
    64
  0
VERTEX
  5
A7CA6
100
AcDbEntity
  8
0
100
AcDbVertex
100
AcDbPolygonMeshVertex
 10
-0.468
 20
-0.3555
 30
-1.57
 70
    64
  0
VERTEX
  5
A7CA7
100
AcDbEntity
  8
0
100
AcDbVertex
100
AcDbPolygonMeshVertex
 10
-0.963
 20
-0.3555
 30
-1.57
 70
    64
  0
VERTEX
  5
A7CA8
100
AcDbEntity
  8
0
100
AcDbVertex
100
AcDbPolygonMeshVertex
 10
-0.468
 20
-0.8975
 30
-1.57
 70
    64
  0
VERTEX
  5
A7CA9
100
AcDbEntity
  8
0
100
AcDbVertex
100
AcDbPolygonMeshVertex
 10
-0.468
 20
-0.8975
 30
-1.57
 70
    64
  0
VERTEX
  5
A7CAA
100
AcDbEntity
  8
0
100
AcDbVertex
100
AcDbPolygonMeshVertex
 10
-0.963
 20
-0.8975
 30
-1.57
 70
    64
  0
SEQEND
  5
A7CAB
100
AcDbEntity
  8
0
  0
POLYLINE
  5
A7CAC
100
AcDbEntity
  8
0
100
AcDbPolygonMesh
 66
     1
 10
0.0
 20
0.0
 30
0.0
 70
    16
 71
     6
 72
     3
  0
VERTEX
  5
A7CAD
100
AcDbEntity
  8
0
100
AcDbVertex
100
AcDbPolygonMeshVertex
 10
-0.963
 20
0.8975
 30
-1.57
 70
    64
  0
VERTEX
  5
A7CAE
100
AcDbEntity
  8
0
100
AcDbVertex
100
AcDbPolygonMeshVertex
 10
-0.963
 20
0.8975
 30
-1.024
 70
    64
  0
VERTEX
  5
A7CAF
100
AcDbEntity
  8
0
100
AcDbVertex
100
AcDbPolygonMeshVertex
 10
-0.963
 20
0.8975
 30
-1.024
 70
    64
  0
VERTEX
  5
A7CB0
100
AcDbEntity
  8
0
100
AcDbVertex
100
AcDbPolygonMeshVertex
 10
-0.963
 20
0.3555
 30
-1.57
 70
    64
  0
VERTEX
  5
A7CB1
100
AcDbEntity
  8
0
100
AcDbVertex
100
AcDbPolygonMeshVertex
 10
-0.963
 20
0.3555
 30
-1.024
 70
    64
  0
VERTEX
  5
A7CB2
100
AcDbEntity
  8
0
100
AcDbVertex
100
AcDbPolygonMeshVertex
 10
-0.963
 20
0.3555
 30
-1.024
 70
    64
  0
VERTEX
  5
A7CB3
100
AcDbEntity
  8
0
100
AcDbVertex
100
AcDbPolygonMeshVertex
 10
-0.468
 20
0.3555
 30
-1.57
 70
    64
  0
VERTEX
  5
A7CB4
100
AcDbEntity
  8
0
100
AcDbVertex
100
AcDbPolygonMeshVertex
 10
-0.468
 20
0.3555
 30
-1.024
 70
    64
  0
VERTEX
  5
A7CB5
100
AcDbEntity
  8
0
100
AcDbVertex
100
AcDbPolygonMeshVertex
 10
-0.963
 20
0.3555
 30
-1.024
 70
    64
  0
VERTEX
  5
A7CB6
100
AcDbEntity
  8
0
100
AcDbVertex
100
AcDbPolygonMeshVertex
 10
-0.468
 20
0.8975
 30
-1.57
 70
    64
  0
VERTEX
  5
A7CB7
100
AcDbEntity
  8
0
100
AcDbVertex
100
AcDbPolygonMeshVertex
 10
-0.468
 20
0.8975
 30
-1.024
 70
    64
  0
VERTEX
  5
A7CB8
100
AcDbEntity
  8
0
100
AcDbVertex
100
AcDbPolygonMeshVertex
 10
-0.963
 20
0.8975
 30
-1.024
 70
    64
  0
VERTEX
  5
A7CB9
100
AcDbEntity
  8
0
100
AcDbVertex
100
AcDbPolygonMeshVertex
 10
-0.468
 20
0.8975
 30
-1.57
 70
    64
  0
VERTEX
  5
A7CBA
100
AcDbEntity
  8
0
100
AcDbVertex
100
AcDbPolygonMeshVertex
 10
-0.468
 20
0.8975
 30
-1.57
 70
    64
  0
VERTEX
  5
A7CBB
100
AcDbEntity
  8
0
100
AcDbVertex
100
AcDbPolygonMeshVertex
 10
-0.963
 20
0.8975
 30
-1.57
 70
    64
  0
VERTEX
  5
A7CBC
100
AcDbEntity
  8
0
100
AcDbVertex
100
AcDbPolygonMeshVertex
 10
-0.468
 20
0.3555
 30
-1.57
 70
    64
  0
VERTEX
  5
A7CBD
100
AcDbEntity
  8
0
100
AcDbVertex
100
AcDbPolygonMeshVertex
 10
-0.468
 20
0.3555
 30
-1.57
 70
    64
  0
VERTEX
  5
A7CBE
100
AcDbEntity
  8
0
100
AcDbVertex
100
AcDbPolygonMeshVertex
 10
-0.963
 20
0.3555
 30
-1.57
 70
    64
  0
SEQEND
  5
A7CBF
100
AcDbEntity
  8
0
  0
POLYLINE
  5
A7CC0
100
AcDbEntity
  8
0
100
AcDbPolygonMesh
 66
     1
 10
0.0
 20
0.0
 30
0.0
 70
    16
 71
     6
 72
     3
  0
VERTEX
  5
A7CC1
100
AcDbEntity
  8
0
100
AcDbVertex
100
AcDbPolygonMeshVertex
 10
-0.468
 20
0.8975
 30
-0.18
 70
    64
  0
VERTEX
  5
A7CC2
100
AcDbEntity
  8
0
100
AcDbVertex
100
AcDbPolygonMeshVertex
 10
-0.468
 20
0.8975
 30
-0.18
 70
    64
  0
VERTEX
  5
A7CC3
100
AcDbEntity
  8
0
100
AcDbVertex
100
AcDbPolygonMeshVertex
 10
-0.468
 20
0.8975
 30
-0.18
 70
    64
  0
VERTEX
  5
A7CC4
100
AcDbEntity
  8
0
100
AcDbVertex
100
AcDbPolygonMeshVertex
 10
-0.468
 20
0.3555
 30
-1.024
 70
    64
  0
VERTEX
  5
A7CC5
100
AcDbEntity
  8
0
100
AcDbVertex
100
AcDbPolygonMeshVertex
 10
-0.468
 20
0.8975
 30
-1.024
 70
    64
  0
VERTEX
  5
A7CC6
100
AcDbEntity
  8
0
100
AcDbVertex
100
AcDbPolygonMeshVertex
 10
-0.468
 20
0.8975
 30
-1.024
 70
    64
  0
VERTEX
  5
A7CC7
100
AcDbEntity
  8
0
100
AcDbVertex
100
AcDbPolygonMeshVertex
 10
-0.963
 20
0.3555
 30
-1.024
 70
    64
  0
VERTEX
  5
A7CC8
100
AcDbEntity
  8
0
100
AcDbVertex
100
AcDbPolygonMeshVertex
 10
-0.963
 20
0.8975
 30
-1.024
 70
    64
  0
VERTEX
  5
A7CC9
100
AcDbEntity
  8
0
100
AcDbVertex
100
AcDbPolygonMeshVertex
 10
-0.468
 20
0.8975
 30
-1.024
 70
    64
  0
VERTEX
  5
A7CCA
100
AcDbEntity
  8
0
100
AcDbVertex
100
AcDbPolygonMeshVertex
 10
-0.963
 20
0.8975
 30
-0.18
 70
    64
  0
VERTEX
  5
A7CCB
100
AcDbEntity
  8
0
100
AcDbVertex
100
AcDbPolygonMeshVertex
 10
-0.963
 20
0.8975
 30
-0.18
 70
    64
  0
VERTEX
  5
A7CCC
100
AcDbEntity
  8
0
100
AcDbVertex
100
AcDbPolygonMeshVertex
 10
-0.468
 20
0.8975
 30
-0.18
 70
    64
  0
VERTEX
  5
A7CCD
100
AcDbEntity
  8
0
100
AcDbVertex
100
AcDbPolygonMeshVertex
 10
-0.963
 20
0.8975
 30
-0.18
 70
    64
  0
VERTEX
  5
A7CCE
100
AcDbEntity
  8
0
100
AcDbVertex
100
AcDbPolygonMeshVertex
 10
-0.963
 20
0.8975
 30
-0.18
 70
    64
  0
VERTEX
  5
A7CCF
100
AcDbEntity
  8
0
100
AcDbVertex
100
AcDbPolygonMeshVertex
 10
-0.468
 20
0.8975
 30
-0.18
 70
    64
  0
VERTEX
  5
A7CD0
100
AcDbEntity
  8
0
100
AcDbVertex
100
AcDbPolygonMeshVertex
 10
-0.963
 20
0.3555
 30
-1.024
 70
    64
  0
VERTEX
  5
A7CD1
100
AcDbEntity
  8
0
100
AcDbVertex
100
AcDbPolygonMeshVertex
 10
-0.963
 20
0.3555
 30
-1.024
 70
    64
  0
VERTEX
  5
A7CD2
100
AcDbEntity
  8
0
100
AcDbVertex
100
AcDbPolygonMeshVertex
 10
-0.468
 20
0.3555
 30
-1.024
 70
    64
  0
SEQEND
  5
A7CD3
100
AcDbEntity
  8
0
  0
POLYLINE
  5
A7CD4
100
AcDbEntity
  8
0
100
AcDbPolygonMesh
 66
     1
 10
0.0
 20
0.0
 30
0.0
 70
    16
 71
     6
 72
     3
  0
VERTEX
  5
A7CD5
100
AcDbEntity
  8
0
100
AcDbVertex
100
AcDbPolygonMeshVertex
 10
-0.468
 20
-0.8975
 30
-0.18
 70
    64
  0
VERTEX
  5
A7CD6
100
AcDbEntity
  8
0
100
AcDbVertex
100
AcDbPolygonMeshVertex
 10
-0.468
 20
-0.8975
 30
-0.18
 70
    64
  0
VERTEX
  5
A7CD7
100
AcDbEntity
  8
0
100
AcDbVertex
100
AcDbPolygonMeshVertex
 10
-0.468
 20
-0.8975
 30
-0.18
 70
    64
  0
VERTEX
  5
A7CD8
100
AcDbEntity
  8
0
100
AcDbVertex
100
AcDbPolygonMeshVertex
 10
-0.468
 20
-0.3555
 30
-1.024
 70
    64
  0
VERTEX
  5
A7CD9
100
AcDbEntity
  8
0
100
AcDbVertex
100
AcDbPolygonMeshVertex
 10
-0.468
 20
-0.8975
 30
-1.024
 70
    64
  0
VERTEX
  5
A7CDA
100
AcDbEntity
  8
0
100
AcDbVertex
100
AcDbPolygonMeshVertex
 10
-0.468
 20
-0.8975
 30
-1.024
 70
    64
  0
VERTEX
  5
A7CDB
100
AcDbEntity
  8
0
100
AcDbVertex
100
AcDbPolygonMeshVertex
 10
-0.963
 20
-0.3555
 30
-1.024
 70
    64
  0
VERTEX
  5
A7CDC
100
AcDbEntity
  8
0
100
AcDbVertex
100
AcDbPolygonMeshVertex
 10
-0.963
 20
-0.8975
 30
-1.024
 70
    64
  0
VERTEX
  5
A7CDD
100
AcDbEntity
  8
0
100
AcDbVertex
100
AcDbPolygonMeshVertex
 10
-0.468
 20
-0.8975
 30
-1.024
 70
    64
  0
VERTEX
  5
A7CDE
100
AcDbEntity
  8
0
100
AcDbVertex
100
AcDbPolygonMeshVertex
 10
-0.963
 20
-0.8975
 30
-0.18
 70
    64
  0
VERTEX
  5
A7CDF
100
AcDbEntity
  8
0
100
AcDbVertex
100
AcDbPolygonMeshVertex
 10
-0.963
 20
-0.8975
 30
-0.18
 70
    64
  0
VERTEX
  5
A7CE0
100
AcDbEntity
  8
0
100
AcDbVertex
100
AcDbPolygonMeshVertex
 10
-0.468
 20
-0.8975
 30
-0.18
 70
    64
  0
VERTEX
  5
A7CE1
100
AcDbEntity
  8
0
100
AcDbVertex
100
AcDbPolygonMeshVertex
 10
-0.963
 20
-0.8975
 30
-0.18
 70
    64
  0
VERTEX
  5
A7CE2
100
AcDbEntity
  8
0
100
AcDbVertex
100
AcDbPolygonMeshVertex
 10
-0.963
 20
-0.8975
 30
-0.18
 70
    64
  0
VERTEX
  5
A7CE3
100
AcDbEntity
  8
0
100
AcDbVertex
100
AcDbPolygonMeshVertex
 10
-0.468
 20
-0.8975
 30
-0.18
 70
    64
  0
VERTEX
  5
A7CE4
100
AcDbEntity
  8
0
100
AcDbVertex
100
AcDbPolygonMeshVertex
 10
-0.963
 20
-0.3555
 30
-1.024
 70
    64
  0
VERTEX
  5
A7CE5
100
AcDbEntity
  8
0
100
AcDbVertex
100
AcDbPolygonMeshVertex
 10
-0.963
 20
-0.3555
 30
-1.024
 70
    64
  0
VERTEX
  5
A7CE6
100
AcDbEntity
  8
0
100
AcDbVertex
100
AcDbPolygonMeshVertex
 10
-0.468
 20
-0.3555
 30
-1.024
 70
    64
  0
SEQEND
  5
A7CE7
100
AcDbEntity
  8
0
  0
POLYLINE
  5
A7CE8
100
AcDbEntity
  8
0
100
AcDbPolygonMesh
 66
     1
 10
0.0
 20
0.0
 30
0.0
 70
    16
 71
     6
 72
     3
  0
VERTEX
  5
A7CE9
100
AcDbEntity
  8
0
100
AcDbVertex
100
AcDbPolygonMeshVertex
 10
-0.963
 20
0.462368
 30
-0.857586
 70
    64
  0
VERTEX
  5
A7CEA
100
AcDbEntity
  8
0
100
AcDbVertex
100
AcDbPolygonMeshVertex
 10
-0.963
 20
0.767668
 30
-0.382174
 70
    64
  0
VERTEX
  5
A7CEB
100
AcDbEntity
  8
0
100
AcDbVertex
100
AcDbPolygonMeshVertex
 10
-0.963
 20
0.767668
 30
-0.382174
 70
    64
  0
VERTEX
  5
A7CEC
100
AcDbEntity
  8
0
100
AcDbVertex
100
AcDbPolygonMeshVertex
 10
-0.963
 20
0.147585
 30
-0.655439
 70
    64
  0
VERTEX
  5
A7CED
100
AcDbEntity
  8
0
100
AcDbVertex
100
AcDbPolygonMeshVertex
 10
-0.963
 20
0.452885
 30
-0.180027
 70
    64
  0
VERTEX
  5
A7CEE
100
AcDbEntity
  8
0
100
AcDbVertex
100
AcDbPolygonMeshVertex
 10
-0.963
 20
0.452885
 30
-0.180027
 70
    64
  0
VERTEX
  5
A7CEF
100
AcDbEntity
  8
0
100
AcDbVertex
100
AcDbPolygonMeshVertex
 10
-0.468
 20
0.147585
 30
-0.655439
 70
    64
  0
VERTEX
  5
A7CF0
100
AcDbEntity
  8
0
100
AcDbVertex
100
AcDbPolygonMeshVertex
 10
-0.468
 20
0.452885
 30
-0.180027
 70
    64
  0
VERTEX
  5
A7CF1
100
AcDbEntity
  8
0
100
AcDbVertex
100
AcDbPolygonMeshVertex
 10
-0.963
 20
0.452885
 30
-0.180027
 70
    64
  0
VERTEX
  5
A7CF2
100
AcDbEntity
  8
0
100
AcDbVertex
100
AcDbPolygonMeshVertex
 10
-0.468
 20
0.462368
 30
-0.857586
 70
    64
  0
VERTEX
  5
A7CF3
100
AcDbEntity
  8
0
100
AcDbVertex
100
AcDbPolygonMeshVertex
 10
-0.468
 20
0.767668
 30
-0.382174
 70
    64
  0
VERTEX
  5
A7CF4
100
AcDbEntity
  8
0
100
AcDbVertex
100
AcDbPolygonMeshVertex
 10
-0.963
 20
0.767668
 30
-0.382174
 70
    64
  0
VERTEX
  5
A7CF5
100
AcDbEntity
  8
0
100
AcDbVertex
100
AcDbPolygonMeshVertex
 10
-0.468
 20
0.462368
 30
-0.857586
 70
    64
  0
VERTEX
  5
A7CF6
100
AcDbEntity
  8
0
100
AcDbVertex
100
AcDbPolygonMeshVertex
 10
-0.468
 20
0.462368
 30
-0.857586
 70
    64
  0
VERTEX
  5
A7CF7
100
AcDbEntity
  8
0
100
AcDbVertex
100
AcDbPolygonMeshVertex
 10
-0.963
 20
0.462368
 30
-0.857586
 70
    64
  0
VERTEX
  5
A7CF8
100
AcDbEntity
  8
0
100
AcDbVertex
100
AcDbPolygonMeshVertex
 10
-0.468
 20
0.147585
 30
-0.655439
 70
    64
  0
VERTEX
  5
A7CF9
100
AcDbEntity
  8
0
100
AcDbVertex
100
AcDbPolygonMeshVertex
 10
-0.468
 20
0.147585
 30
-0.655439
 70
    64
  0
VERTEX
  5
A7CFA
100
AcDbEntity
  8
0
100
AcDbVertex
100
AcDbPolygonMeshVertex
 10
-0.963
 20
0.147585
 30
-0.655439
 70
    64
  0
SEQEND
  5
A7CFB
100
AcDbEntity
  8
0
  0
POLYLINE
  5
A7CFC
100
AcDbEntity
  8
0
100
AcDbPolygonMesh
 66
     1
 10
0.0
 20
0.0
 30
0.0
 70
    16
 71
     6
 72
     3
  0
VERTEX
  5
A7CFD
100
AcDbEntity
  8
0
100
AcDbVertex
100
AcDbPolygonMeshVertex
 10
-0.963
 20
0.452885
 30
-0.180027
 70
    64
  0
VERTEX
  5
A7CFE
100
AcDbEntity
  8
0
100
AcDbVertex
100
AcDbPolygonMeshVertex
 10
-0.963
 20
0.452885
 30
-0.180027
 70
    64
  0
VERTEX
  5
A7CFF
100
AcDbEntity
  8
0
100
AcDbVertex
100
AcDbPolygonMeshVertex
 10
-0.963
 20
0.452885
 30
-0.180027
 70
    64
  0
VERTEX
  5
A7D00
100
AcDbEntity
  8
0
100
AcDbVertex
100
AcDbPolygonMeshVertex
 10
-0.963
 20
0.8975
 30
-0.18
 70
    64
  0
VERTEX
  5
A7D01
100
AcDbEntity
  8
0
100
AcDbVertex
100
AcDbPolygonMeshVertex
 10
-0.963
 20
0.767668
 30
-0.382174
 70
    64
  0
VERTEX
  5
A7D02
100
AcDbEntity
  8
0
100
AcDbVertex
100
AcDbPolygonMeshVertex
 10
-0.963
 20
0.767668
 30
-0.382174
 70
    64
  0
VERTEX
  5
A7D03
100
AcDbEntity
  8
0
100
AcDbVertex
100
AcDbPolygonMeshVertex
 10
-0.468
 20
0.8975
 30
-0.18
 70
    64
  0
VERTEX
  5
A7D04
100
AcDbEntity
  8
0
100
AcDbVertex
100
AcDbPolygonMeshVertex
 10
-0.468
 20
0.767668
 30
-0.382174
 70
    64
  0
VERTEX
  5
A7D05
100
AcDbEntity
  8
0
100
AcDbVertex
100
AcDbPolygonMeshVertex
 10
-0.963
 20
0.767668
 30
-0.382174
 70
    64
  0
VERTEX
  5
A7D06
100
AcDbEntity
  8
0
100
AcDbVertex
100
AcDbPolygonMeshVertex
 10
-0.468
 20
0.452885
 30
-0.180027
 70
    64
  0
VERTEX
  5
A7D07
100
AcDbEntity
  8
0
100
AcDbVertex
100
AcDbPolygonMeshVertex
 10
-0.468
 20
0.452885
 30
-0.180027
 70
    64
  0
VERTEX
  5
A7D08
100
AcDbEntity
  8
0
100
AcDbVertex
100
AcDbPolygonMeshVertex
 10
-0.963
 20
0.452885
 30
-0.180027
 70
    64
  0
VERTEX
  5
A7D09
100
AcDbEntity
  8
0
100
AcDbVertex
100
AcDbPolygonMeshVertex
 10
-0.468
 20
0.452885
 30
-0.180027
 70
    64
  0
VERTEX
  5
A7D0A
100
AcDbEntity
  8
0
100
AcDbVertex
100
AcDbPolygonMeshVertex
 10
-0.468
 20
0.452885
 30
-0.180027
 70
    64
  0
VERTEX
  5
A7D0B
100
AcDbEntity
  8
0
100
AcDbVertex
100
AcDbPolygonMeshVertex
 10
-0.963
 20
0.452885
 30
-0.180027
 70
    64
  0
VERTEX
  5
A7D0C
100
AcDbEntity
  8
0
100
AcDbVertex
100
AcDbPolygonMeshVertex
 10
-0.468
 20
0.8975
 30
-0.18
 70
    64
  0
VERTEX
  5
A7D0D
100
AcDbEntity
  8
0
100
AcDbVertex
100
AcDbPolygonMeshVertex
 10
-0.468
 20
0.8975
 30
-0.18
 70
    64
  0
VERTEX
  5
A7D0E
100
AcDbEntity
  8
0
100
AcDbVertex
100
AcDbPolygonMeshVertex
 10
-0.963
 20
0.8975
 30
-0.18
 70
    64
  0
SEQEND
  5
A7D0F
100
AcDbEntity
  8
0
  0
POLYLINE
  5
A7D10
100
AcDbEntity
  8
0
100
AcDbPolygonMesh
 66
     1
 10
0.0
 20
0.0
 30
0.0
 70
    16
 71
     6
 72
     3
  0
VERTEX
  5
A7D11
100
AcDbEntity
  8
0
100
AcDbVertex
100
AcDbPolygonMeshVertex
 10
-0.963
 20
-0.452885
 30
-0.180027
 70
    64
  0
VERTEX
  5
A7D12
100
AcDbEntity
  8
0
100
AcDbVertex
100
AcDbPolygonMeshVertex
 10
-0.963
 20
-0.452885
 30
-0.180027
 70
    64
  0
VERTEX
  5
A7D13
100
AcDbEntity
  8
0
100
AcDbVertex
100
AcDbPolygonMeshVertex
 10
-0.963
 20
-0.452885
 30
-0.180027
 70
    64
  0
VERTEX
  5
A7D14
100
AcDbEntity
  8
0
100
AcDbVertex
100
AcDbPolygonMeshVertex
 10
-0.963
 20
-0.8975
 30
-0.18
 70
    64
  0
VERTEX
  5
A7D15
100
AcDbEntity
  8
0
100
AcDbVertex
100
AcDbPolygonMeshVertex
 10
-0.963
 20
-0.767668
 30
-0.382174
 70
    64
  0
VERTEX
  5
A7D16
100
AcDbEntity
  8
0
100
AcDbVertex
100
AcDbPolygonMeshVertex
 10
-0.963
 20
-0.767668
 30
-0.382174
 70
    64
  0
VERTEX
  5
A7D17
100
AcDbEntity
  8
0
100
AcDbVertex
100
AcDbPolygonMeshVertex
 10
-0.468
 20
-0.8975
 30
-0.18
 70
    64
  0
VERTEX
  5
A7D18
100
AcDbEntity
  8
0
100
AcDbVertex
100
AcDbPolygonMeshVertex
 10
-0.468
 20
-0.767668
 30
-0.382174
 70
    64
  0
VERTEX
  5
A7D19
100
AcDbEntity
  8
0
100
AcDbVertex
100
AcDbPolygonMeshVertex
 10
-0.963
 20
-0.767668
 30
-0.382174
 70
    64
  0
VERTEX
  5
A7D1A
100
AcDbEntity
  8
0
100
AcDbVertex
100
AcDbPolygonMeshVertex
 10
-0.468
 20
-0.452885
 30
-0.180027
 70
    64
  0
VERTEX
  5
A7D1B
100
AcDbEntity
  8
0
100
AcDbVertex
100
AcDbPolygonMeshVertex
 10
-0.468
 20
-0.452885
 30
-0.180027
 70
    64
  0
VERTEX
  5
A7D1C
100
AcDbEntity
  8
0
100
AcDbVertex
100
AcDbPolygonMeshVertex
 10
-0.963
 20
-0.452885
 30
-0.180027
 70
    64
  0
VERTEX
  5
A7D1D
100
AcDbEntity
  8
0
100
AcDbVertex
100
AcDbPolygonMeshVertex
 10
-0.468
 20
-0.452885
 30
-0.180027
 70
    64
  0
VERTEX
  5
A7D1E
100
AcDbEntity
  8
0
100
AcDbVertex
100
AcDbPolygonMeshVertex
 10
-0.468
 20
-0.452885
 30
-0.180027
 70
    64
  0
VERTEX
  5
A7D1F
100
AcDbEntity
  8
0
100
AcDbVertex
100
AcDbPolygonMeshVertex
 10
-0.963
 20
-0.452885
 30
-0.180027
 70
    64
  0
VERTEX
  5
A7D20
100
AcDbEntity
  8
0
100
AcDbVertex
100
AcDbPolygonMeshVertex
 10
-0.468
 20
-0.8975
 30
-0.18
 70
    64
  0
VERTEX
  5
A7D21
100
AcDbEntity
  8
0
100
AcDbVertex
100
AcDbPolygonMeshVertex
 10
-0.468
 20
-0.8975
 30
-0.18
 70
    64
  0
VERTEX
  5
A7D22
100
AcDbEntity
  8
0
100
AcDbVertex
100
AcDbPolygonMeshVertex
 10
-0.963
 20
-0.8975
 30
-0.18
 70
    64
  0
SEQEND
  5
A7D23
100
AcDbEntity
  8
0
  0
POLYLINE
  5
A7D24
100
AcDbEntity
  8
0
100
AcDbPolygonMesh
 66
     1
 10
0.0
 20
0.0
 30
0.0
 70
    16
 71
     6
 72
     3
  0
VERTEX
  5
A7D25
100
AcDbEntity
  8
0
100
AcDbVertex
100
AcDbPolygonMeshVertex
 10
-0.963
 20
-0.462368
 30
-0.857586
 70
    64
  0
VERTEX
  5
A7D26
100
AcDbEntity
  8
0
100
AcDbVertex
100
AcDbPolygonMeshVertex
 10
-0.963
 20
-0.767668
 30
-0.382174
 70
    64
  0
VERTEX
  5
A7D27
100
AcDbEntity
  8
0
100
AcDbVertex
100
AcDbPolygonMeshVertex
 10
-0.963
 20
-0.767668
 30
-0.382174
 70
    64
  0
VERTEX
  5
A7D28
100
AcDbEntity
  8
0
100
AcDbVertex
100
AcDbPolygonMeshVertex
 10
-0.963
 20
-0.147585
 30
-0.655439
 70
    64
  0
VERTEX
  5
A7D29
100
AcDbEntity
  8
0
100
AcDbVertex
100
AcDbPolygonMeshVertex
 10
-0.963
 20
-0.452885
 30
-0.180027
 70
    64
  0
VERTEX
  5
A7D2A
100
AcDbEntity
  8
0
100
AcDbVertex
100
AcDbPolygonMeshVertex
 10
-0.963
 20
-0.452885
 30
-0.180027
 70
    64
  0
VERTEX
  5
A7D2B
100
AcDbEntity
  8
0
100
AcDbVertex
100
AcDbPolygonMeshVertex
 10
-0.468
 20
-0.147585
 30
-0.655439
 70
    64
  0
VERTEX
  5
A7D2C
100
AcDbEntity
  8
0
100
AcDbVertex
100
AcDbPolygonMeshVertex
 10
-0.468
 20
-0.452885
 30
-0.180027
 70
    64
  0
VERTEX
  5
A7D2D
100
AcDbEntity
  8
0
100
AcDbVertex
100
AcDbPolygonMeshVertex
 10
-0.963
 20
-0.452885
 30
-0.180027
 70
    64
  0
VERTEX
  5
A7D2E
100
AcDbEntity
  8
0
100
AcDbVertex
100
AcDbPolygonMeshVertex
 10
-0.468
 20
-0.462368
 30
-0.857586
 70
    64
  0
VERTEX
  5
A7D2F
100
AcDbEntity
  8
0
100
AcDbVertex
100
AcDbPolygonMeshVertex
 10
-0.468
 20
-0.767668
 30
-0.382174
 70
    64
  0
VERTEX
  5
A7D30
100
AcDbEntity
  8
0
100
AcDbVertex
100
AcDbPolygonMeshVertex
 10
-0.963
 20
-0.767668
 30
-0.382174
 70
    64
  0
VERTEX
  5
A7D31
100
AcDbEntity
  8
0
100
AcDbVertex
100
AcDbPolygonMeshVertex
 10
-0.468
 20
-0.462368
 30
-0.857586
 70
    64
  0
VERTEX
  5
A7D32
100
AcDbEntity
  8
0
100
AcDbVertex
100
AcDbPolygonMeshVertex
 10
-0.468
 20
-0.462368
 30
-0.857586
 70
    64
  0
VERTEX
  5
A7D33
100
AcDbEntity
  8
0
100
AcDbVertex
100
AcDbPolygonMeshVertex
 10
-0.963
 20
-0.462368
 30
-0.857586
 70
    64
  0
VERTEX
  5
A7D34
100
AcDbEntity
  8
0
100
AcDbVertex
100
AcDbPolygonMeshVertex
 10
-0.468
 20
-0.147585
 30
-0.655439
 70
    64
  0
VERTEX
  5
A7D35
100
AcDbEntity
  8
0
100
AcDbVertex
100
AcDbPolygonMeshVertex
 10
-0.468
 20
-0.147585
 30
-0.655439
 70
    64
  0
VERTEX
  5
A7D36
100
AcDbEntity
  8
0
100
AcDbVertex
100
AcDbPolygonMeshVertex
 10
-0.963
 20
-0.147585
 30
-0.655439
 70
    64
  0
SEQEND
  5
A7D37
100
AcDbEntity
  8
0
  0
CIRCLE
  5
A7D38
100
AcDbEntity
  8
0
100
AcDbCircle
 10
-0.7155
 20
-0.723954
 30
0.471763
 40
0.1285
210
-0.0000000000000054
220
-0.5403544246916719
230
-0.8414375174165533
  0
CIRCLE
  5
A7D39
100
AcDbEntity
  8
0
100
AcDbCircle
 10
0.7155
 20
-0.723954
 30
0.471763
 40
0.1285
210
-0.0000000000000054
220
0.5403544246916719
230
-0.8414375174165533
  0
LINE
  5
A7D3A
100
AcDbEntity
  8
0
100
AcDbLine
 10
-0.7355
 20
0.46105
 30
-0.85674
 11
-0.7355
 21
0.247436
 31
-0.719561
210
-0.0000000000000044
220
-0.5403544246916709
230
-0.841437517416554
  0
LINE
  5
A7D3B
100
AcDbEntity
  8
0
100
AcDbLine
 10
-0.6955
 20
0.46105
 30
-0.85674
 11
-0.6955
 21
0.247436
 31
-0.719561
210
-0.0000000000000044
220
-0.5403544246916709
230
-0.841437517416554
  0
LINE
  5
A7D3C
100
AcDbEntity
  8
0
100
AcDbLine
 10
-0.6955
 20
-0.46105
 30
-0.85674
 11
-0.6955
 21
-0.247436
 31
-0.719561
210
-0.0000000000000044
220
0.5403544246916709
230
-0.841437517416554
  0
LINE
  5
A7D3D
100
AcDbEntity
  8
0
100
AcDbLine
 10
-0.7355
 20
-0.46105
 30
-0.85674
 11
-0.7355
 21
-0.247436
 31
-0.719561
210
-0.0000000000000044
220
0.5403544246916709
230
-0.841437517416554
  0
CIRCLE
  5
A7D3E
100
AcDbEntity
  8
0
100
AcDbCircle
 10
0.7155
 20
0.6265
 30
1.57
 40
0.1285
210
0.0
220
0.0
230
-1.0
  0
LINE
  5
A7D3F
100
AcDbEntity
  8
0
100
AcDbLine
 10
-0.7355
 20
0.753434
 30
-1.57
 11
-0.7355
 21
0.499566
 31
-1.57
210
0.0
220
0.0
230
-1.0
  0
LINE
  5
A7D40
100
AcDbEntity
  8
0
100
AcDbLine
 10
-0.6955
 20
0.753434
 30
-1.57
 11
-0.6955
 21
0.499566
 31
-1.57
210
0.0
220
0.0
230
-1.0
  0
CIRCLE
  5
A7D41
100
AcDbEntity
  8
0
100
AcDbCircle
 10
0.7155
 20
-0.6265
 30
1.57
 40
0.1285
210
0.0
220
0.0
230
-1.0
  0
LINE
  5
A7D42
100
AcDbEntity
  8
0
100
AcDbLine
 10
-0.6955
 20
-0.753434
 30
-1.57
 11
-0.6955
 21
-0.499566
 31
-1.57
210
0.0
220
0.0
230
-1.0
  0
LINE
  5
A7D43
100
AcDbEntity
  8
0
100
AcDbLine
 10
-0.7355
 20
-0.753434
 30
-1.57
 11
-0.7355
 21
-0.499566
 31
-1.57
210
0.0
220
0.0
230
-1.0
  0
POLYLINE
  5
A7D44
100
AcDbEntity
  8
0
100
AcDbPolygonMesh
 66
     1
 10
0.0
 20
0.0
 30
0.0
 70
    16
 71
     6
 72
     3
  0
VERTEX
  5
A7D45
100
AcDbEntity
  8
0
100
AcDbVertex
100
AcDbPolygonMeshVertex
 10
0.0
 20
0.373
 30
-1.03
 70
    64
  0
VERTEX
  5
A7D46
100
AcDbEntity
  8
0
100
AcDbVertex
100
AcDbPolygonMeshVertex
 10
0.0
 20
0.373
 30
0.0
 70
    64
  0
VERTEX
  5
A7D47
100
AcDbEntity
  8
0
100
AcDbVertex
100
AcDbPolygonMeshVertex
 10
0.0
 20
0.373
 30
0.0
 70
    64
  0
VERTEX
  5
A7D48
100
AcDbEntity
  8
0
100
AcDbVertex
100
AcDbPolygonMeshVertex
 10
0.0
 20
0.8145
 30
-1.03
 70
    64
  0
VERTEX
  5
A7D49
100
AcDbEntity
  8
0
100
AcDbVertex
100
AcDbPolygonMeshVertex
 10
0.0
 20
0.8145
 30
0.0
 70
    64
  0
VERTEX
  5
A7D4A
100
AcDbEntity
  8
0
100
AcDbVertex
100
AcDbPolygonMeshVertex
 10
0.0
 20
0.8145
 30
0.0
 70
    64
  0
VERTEX
  5
A7D4B
100
AcDbEntity
  8
0
100
AcDbVertex
100
AcDbPolygonMeshVertex
 10
-0.126
 20
0.8145
 30
-1.03
 70
    64
  0
VERTEX
  5
A7D4C
100
AcDbEntity
  8
0
100
AcDbVertex
100
AcDbPolygonMeshVertex
 10
-0.126
 20
0.8145
 30
0.0
 70
    64
  0
VERTEX
  5
A7D4D
100
AcDbEntity
  8
0
100
AcDbVertex
100
AcDbPolygonMeshVertex
 10
0.0
 20
0.8145
 30
0.0
 70
    64
  0
VERTEX
  5
A7D4E
100
AcDbEntity
  8
0
100
AcDbVertex
100
AcDbPolygonMeshVertex
 10
-0.126
 20
0.373
 30
-1.03
 70
    64
  0
VERTEX
  5
A7D4F
100
AcDbEntity
  8
0
100
AcDbVertex
100
AcDbPolygonMeshVertex
 10
-0.126
 20
0.373
 30
0.0
 70
    64
  0
VERTEX
  5
A7D50
100
AcDbEntity
  8
0
100
AcDbVertex
100
AcDbPolygonMeshVertex
 10
0.0
 20
0.373
 30
0.0
 70
    64
  0
VERTEX
  5
A7D51
100
AcDbEntity
  8
0
100
AcDbVertex
100
AcDbPolygonMeshVertex
 10
-0.126
 20
0.373
 30
-1.03
 70
    64
  0
VERTEX
  5
A7D52
100
AcDbEntity
  8
0
100
AcDbVertex
100
AcDbPolygonMeshVertex
 10
-0.126
 20
0.373
 30
-1.03
 70
    64
  0
VERTEX
  5
A7D53
100
AcDbEntity
  8
0
100
AcDbVertex
100
AcDbPolygonMeshVertex
 10
0.0
 20
0.373
 30
-1.03
 70
    64
  0
VERTEX
  5
A7D54
100
AcDbEntity
  8
0
100
AcDbVertex
100
AcDbPolygonMeshVertex
 10
-0.126
 20
0.8145
 30
-1.03
 70
    64
  0
VERTEX
  5
A7D55
100
AcDbEntity
  8
0
100
AcDbVertex
100
AcDbPolygonMeshVertex
 10
-0.126
 20
0.8145
 30
-1.03
 70
    64
  0
VERTEX
  5
A7D56
100
AcDbEntity
  8
0
100
AcDbVertex
100
AcDbPolygonMeshVertex
 10
0.0
 20
0.8145
 30
-1.03
 70
    64
  0
SEQEND
  5
A7D57
100
AcDbEntity
  8
0
  0
POLYLINE
  5
A7D58
100
AcDbEntity
  8
0
100
AcDbPolygonMesh
 66
     1
 10
0.0
 20
0.0
 30
0.0
 70
    16
 71
     6
 72
     3
  0
VERTEX
  5
A7D59
100
AcDbEntity
  8
0
100
AcDbVertex
100
AcDbPolygonMeshVertex
 10
0.0
 20
-0.8145
 30
-1.03
 70
    64
  0
VERTEX
  5
A7D5A
100
AcDbEntity
  8
0
100
AcDbVertex
100
AcDbPolygonMeshVertex
 10
0.0
 20
-0.8145
 30
0.0
 70
    64
  0
VERTEX
  5
A7D5B
100
AcDbEntity
  8
0
100
AcDbVertex
100
AcDbPolygonMeshVertex
 10
0.0
 20
-0.8145
 30
0.0
 70
    64
  0
VERTEX
  5
A7D5C
100
AcDbEntity
  8
0
100
AcDbVertex
100
AcDbPolygonMeshVertex
 10
0.0
 20
-0.373
 30
-1.03
 70
    64
  0
VERTEX
  5
A7D5D
100
AcDbEntity
  8
0
100
AcDbVertex
100
AcDbPolygonMeshVertex
 10
0.0
 20
-0.373
 30
0.0
 70
    64
  0
VERTEX
  5
A7D5E
100
AcDbEntity
  8
0
100
AcDbVertex
100
AcDbPolygonMeshVertex
 10
0.0
 20
-0.373
 30
0.0
 70
    64
  0
VERTEX
  5
A7D5F
100
AcDbEntity
  8
0
100
AcDbVertex
100
AcDbPolygonMeshVertex
 10
-0.126
 20
-0.373
 30
-1.03
 70
    64
  0
VERTEX
  5
A7D60
100
AcDbEntity
  8
0
100
AcDbVertex
100
AcDbPolygonMeshVertex
 10
-0.126
 20
-0.373
 30
0.0
 70
    64
  0
VERTEX
  5
A7D61
100
AcDbEntity
  8
0
100
AcDbVertex
100
AcDbPolygonMeshVertex
 10
0.0
 20
-0.373
 30
0.0
 70
    64
  0
VERTEX
  5
A7D62
100
AcDbEntity
  8
0
100
AcDbVertex
100
AcDbPolygonMeshVertex
 10
-0.126
 20
-0.8145
 30
-1.03
 70
    64
  0
VERTEX
  5
A7D63
100
AcDbEntity
  8
0
100
AcDbVertex
100
AcDbPolygonMeshVertex
 10
-0.126
 20
-0.8145
 30
0.0
 70
    64
  0
VERTEX
  5
A7D64
100
AcDbEntity
  8
0
100
AcDbVertex
100
AcDbPolygonMeshVertex
 10
0.0
 20
-0.8145
 30
0.0
 70
    64
  0
VERTEX
  5
A7D65
100
AcDbEntity
  8
0
100
AcDbVertex
100
AcDbPolygonMeshVertex
 10
-0.126
 20
-0.8145
 30
-1.03
 70
    64
  0
VERTEX
  5
A7D66
100
AcDbEntity
  8
0
100
AcDbVertex
100
AcDbPolygonMeshVertex
 10
-0.126
 20
-0.8145
 30
-1.03
 70
    64
  0
VERTEX
  5
A7D67
100
AcDbEntity
  8
0
100
AcDbVertex
100
AcDbPolygonMeshVertex
 10
0.0
 20
-0.8145
 30
-1.03
 70
    64
  0
VERTEX
  5
A7D68
100
AcDbEntity
  8
0
100
AcDbVertex
100
AcDbPolygonMeshVertex
 10
-0.126
 20
-0.373
 30
-1.03
 70
    64
  0
VERTEX
  5
A7D69
100
AcDbEntity
  8
0
100
AcDbVertex
100
AcDbPolygonMeshVertex
 10
-0.126
 20
-0.373
 30
-1.03
 70
    64
  0
VERTEX
  5
A7D6A
100
AcDbEntity
  8
0
100
AcDbVertex
100
AcDbPolygonMeshVertex
 10
0.0
 20
-0.373
 30
-1.03
 70
    64
  0
SEQEND
  5
A7D6B
100
AcDbEntity
  8
0
  0
ARC
  5
A7D6C
100
AcDbEntity
  8
0
100
AcDbCircle
 10
-0.003
 20
0.59375
 30
1.57
 40
0.187
210
0.0
220
0.0
230
-1.0
100
AcDbArc
 50
313.617411
 51
46.382589
  0
ARC
  5
A7D6D
100
AcDbEntity
  8
0
100
AcDbCircle
 10
0.0
 20
0.59375
 30
1.03
 40
0.1145
210
0.0
220
0.0
230
-1.0
100
AcDbArc
 50
270.0
 51
90.0
  0
ARC
  5
A7D6E
100
AcDbEntity
  8
0
100
AcDbCircle
 10
0.0
 20
-0.59375
 30
1.03
 40
0.1145
210
0.0
220
0.0
230
-1.0
100
AcDbArc
 50
270.0
 51
90.0
  0
ARC
  5
A7D6F
100
AcDbEntity
  8
0
100
AcDbCircle
 10
-0.003
 20
-0.59375
 30
1.57
 40
0.187
210
0.0
220
0.0
230
-1.0
100
AcDbArc
 50
313.617411
 51
46.382589
  0
LINE
  5
A7D70
100
AcDbEntity
  8
0
100
AcDbLine
 10
-0.126
 20
-0.729131
 30
-1.57
 11
-0.126
 21
-0.729131
 31
-1.03
210
0.0
220
0.0
230
-1.0
  0
LINE
  5
A7D71
100
AcDbEntity
  8
0
100
AcDbLine
 10
-0.126
 20
-0.458369
 30
-1.57
 11
-0.126
 21
-0.458369
 31
-1.03
210
0.0
220
0.0
230
-1.0
  0
LINE
  5
A7D72
100
AcDbEntity
  8
0
100
AcDbLine
 10
-0.126
 20
0.458369
 30
-1.57
 11
-0.126
 21
0.458369
 31
-1.03
210
0.0
220
0.0
230
-1.0
  0
LINE
  5
A7D73
100
AcDbEntity
  8
0
100
AcDbLine
 10
-0.126
 20
0.729131
 30
-1.57
 11
-0.126
 21
0.729131
 31
-1.03
210
0.0
220
0.0
230
-1.0
  0
LINE
  5
A7D74
100
AcDbEntity
  8
0
100
AcDbLine
 10
0.0
 20
-0.70825
 30
-1.03
 11
0.0
 21
-0.70825
 31
0.0
210
0.0
220
0.0
230
-1.0
  0
LINE
  5
A7D75
100
AcDbEntity
  8
0
100
AcDbLine
 10
0.0
 20
-0.47925
 30
-1.03
 11
0.0
 21
-0.47925
 31
0.0
210
0.0
220
0.0
230
-1.0
  0
LINE
  5
A7D76
100
AcDbEntity
  8
0
100
AcDbLine
 10
0.0
 20
0.47925
 30
-1.03
 11
0.0
 21
0.47925
 31
0.0
210
0.0
220
0.0
230
-1.0
  0
LINE
  5
A7D77
100
AcDbEntity
  8
0
100
AcDbLine
 10
0.0
 20
0.70825
 30
-1.03
 11
0.0
 21
0.70825
 31
0.0
210
0.0
220
0.0
230
-1.0
  0
POLYLINE
  5
A7D78
100
AcDbEntity
  8
0
100
AcDbPolygonMesh
 66
     1
 10
0.0
 20
0.0
 30
0.0
 70
    16
 71
     6
 72
     3
  0
VERTEX
  5
A7D79
100
AcDbEntity
  8
0
100
AcDbVertex
100
AcDbPolygonMeshVertex
 10
0.0
 20
0.8145
 30
-0.275
 70
    64
  0
VERTEX
  5
A7D7A
100
AcDbEntity
  8
0
100
AcDbVertex
100
AcDbPolygonMeshVertex
 10
0.0
 20
0.8145
 30
0.0
 70
    64
  0
VERTEX
  5
A7D7B
100
AcDbEntity
  8
0
100
AcDbVertex
100
AcDbPolygonMeshVertex
 10
0.0
 20
0.8145
 30
0.0
 70
    64
  0
VERTEX
  5
A7D7C
100
AcDbEntity
  8
0
100
AcDbVertex
100
AcDbPolygonMeshVertex
 10
0.0
 20
0.70825
 30
-0.275
 70
    64
  0
VERTEX
  5
A7D7D
100
AcDbEntity
  8
0
100
AcDbVertex
100
AcDbPolygonMeshVertex
 10
0.0
 20
0.70825
 30
0.0
 70
    64
  0
VERTEX
  5
A7D7E
100
AcDbEntity
  8
0
100
AcDbVertex
100
AcDbPolygonMeshVertex
 10
0.0
 20
0.70825
 30
0.0
 70
    64
  0
VERTEX
  5
A7D7F
100
AcDbEntity
  8
0
100
AcDbVertex
100
AcDbPolygonMeshVertex
 10
0.106
 20
0.70825
 30
-0.275
 70
    64
  0
VERTEX
  5
A7D80
100
AcDbEntity
  8
0
100
AcDbVertex
100
AcDbPolygonMeshVertex
 10
0.106
 20
0.70825
 30
0.0
 70
    64
  0
VERTEX
  5
A7D81
100
AcDbEntity
  8
0
100
AcDbVertex
100
AcDbPolygonMeshVertex
 10
0.0
 20
0.70825
 30
0.0
 70
    64
  0
VERTEX
  5
A7D82
100
AcDbEntity
  8
0
100
AcDbVertex
100
AcDbPolygonMeshVertex
 10
0.106
 20
0.8145
 30
-0.275
 70
    64
  0
VERTEX
  5
A7D83
100
AcDbEntity
  8
0
100
AcDbVertex
100
AcDbPolygonMeshVertex
 10
0.106
 20
0.8145
 30
0.0
 70
    64
  0
VERTEX
  5
A7D84
100
AcDbEntity
  8
0
100
AcDbVertex
100
AcDbPolygonMeshVertex
 10
0.0
 20
0.8145
 30
0.0
 70
    64
  0
VERTEX
  5
A7D85
100
AcDbEntity
  8
0
100
AcDbVertex
100
AcDbPolygonMeshVertex
 10
0.106
 20
0.8145
 30
-0.275
 70
    64
  0
VERTEX
  5
A7D86
100
AcDbEntity
  8
0
100
AcDbVertex
100
AcDbPolygonMeshVertex
 10
0.106
 20
0.8145
 30
-0.275
 70
    64
  0
VERTEX
  5
A7D87
100
AcDbEntity
  8
0
100
AcDbVertex
100
AcDbPolygonMeshVertex
 10
0.0
 20
0.8145
 30
-0.275
 70
    64
  0
VERTEX
  5
A7D88
100
AcDbEntity
  8
0
100
AcDbVertex
100
AcDbPolygonMeshVertex
 10
0.106
 20
0.70825
 30
-0.275
 70
    64
  0
VERTEX
  5
A7D89
100
AcDbEntity
  8
0
100
AcDbVertex
100
AcDbPolygonMeshVertex
 10
0.106
 20
0.70825
 30
-0.275
 70
    64
  0
VERTEX
  5
A7D8A
100
AcDbEntity
  8
0
100
AcDbVertex
100
AcDbPolygonMeshVertex
 10
0.0
 20
0.70825
 30
-0.275
 70
    64
  0
SEQEND
  5
A7D8B
100
AcDbEntity
  8
0
  0
POLYLINE
  5
A7D8C
100
AcDbEntity
  8
0
100
AcDbPolygonMesh
 66
     1
 10
0.0
 20
0.0
 30
0.0
 70
    16
 71
     6
 72
     3
  0
VERTEX
  5
A7D8D
100
AcDbEntity
  8
0
100
AcDbVertex
100
AcDbPolygonMeshVertex
 10
0.0
 20
-0.47925
 30
-0.275
 70
    64
  0
VERTEX
  5
A7D8E
100
AcDbEntity
  8
0
100
AcDbVertex
100
AcDbPolygonMeshVertex
 10
0.0
 20
-0.47925
 30
0.0
 70
    64
  0
VERTEX
  5
A7D8F
100
AcDbEntity
  8
0
100
AcDbVertex
100
AcDbPolygonMeshVertex
 10
0.0
 20
-0.47925
 30
0.0
 70
    64
  0
VERTEX
  5
A7D90
100
AcDbEntity
  8
0
100
AcDbVertex
100
AcDbPolygonMeshVertex
 10
0.0
 20
-0.373
 30
-0.275
 70
    64
  0
VERTEX
  5
A7D91
100
AcDbEntity
  8
0
100
AcDbVertex
100
AcDbPolygonMeshVertex
 10
0.0
 20
-0.373
 30
0.0
 70
    64
  0
VERTEX
  5
A7D92
100
AcDbEntity
  8
0
100
AcDbVertex
100
AcDbPolygonMeshVertex
 10
0.0
 20
-0.373
 30
0.0
 70
    64
  0
VERTEX
  5
A7D93
100
AcDbEntity
  8
0
100
AcDbVertex
100
AcDbPolygonMeshVertex
 10
0.106
 20
-0.373
 30
-0.275
 70
    64
  0
VERTEX
  5
A7D94
100
AcDbEntity
  8
0
100
AcDbVertex
100
AcDbPolygonMeshVertex
 10
0.106
 20
-0.373
 30
0.0
 70
    64
  0
VERTEX
  5
A7D95
100
AcDbEntity
  8
0
100
AcDbVertex
100
AcDbPolygonMeshVertex
 10
0.0
 20
-0.373
 30
0.0
 70
    64
  0
VERTEX
  5
A7D96
100
AcDbEntity
  8
0
100
AcDbVertex
100
AcDbPolygonMeshVertex
 10
0.106
 20
-0.47925
 30
-0.275
 70
    64
  0
VERTEX
  5
A7D97
100
AcDbEntity
  8
0
100
AcDbVertex
100
AcDbPolygonMeshVertex
 10
0.106
 20
-0.47925
 30
0.0
 70
    64
  0
VERTEX
  5
A7D98
100
AcDbEntity
  8
0
100
AcDbVertex
100
AcDbPolygonMeshVertex
 10
0.0
 20
-0.47925
 30
0.0
 70
    64
  0
VERTEX
  5
A7D99
100
AcDbEntity
  8
0
100
AcDbVertex
100
AcDbPolygonMeshVertex
 10
0.106
 20
-0.47925
 30
-0.275
 70
    64
  0
VERTEX
  5
A7D9A
100
AcDbEntity
  8
0
100
AcDbVertex
100
AcDbPolygonMeshVertex
 10
0.106
 20
-0.47925
 30
-0.275
 70
    64
  0
VERTEX
  5
A7D9B
100
AcDbEntity
  8
0
100
AcDbVertex
100
AcDbPolygonMeshVertex
 10
0.0
 20
-0.47925
 30
-0.275
 70
    64
  0
VERTEX
  5
A7D9C
100
AcDbEntity
  8
0
100
AcDbVertex
100
AcDbPolygonMeshVertex
 10
0.106
 20
-0.373
 30
-0.275
 70
    64
  0
VERTEX
  5
A7D9D
100
AcDbEntity
  8
0
100
AcDbVertex
100
AcDbPolygonMeshVertex
 10
0.106
 20
-0.373
 30
-0.275
 70
    64
  0
VERTEX
  5
A7D9E
100
AcDbEntity
  8
0
100
AcDbVertex
100
AcDbPolygonMeshVertex
 10
0.0
 20
-0.373
 30
-0.275
 70
    64
  0
SEQEND
  5
A7D9F
100
AcDbEntity
  8
0
  0
POLYLINE
  5
A7DA0
100
AcDbEntity
  8
0
100
AcDbPolygonMesh
 66
     1
 10
0.0
 20
0.0
 30
0.0
 70
    16
 71
     6
 72
     3
  0
VERTEX
  5
A7DA1
100
AcDbEntity
  8
0
100
AcDbVertex
100
AcDbPolygonMeshVertex
 10
-0.568
 20
0.8975
 30
-0.18
 70
    64
  0
VERTEX
  5
A7DA2
100
AcDbEntity
  8
0
100
AcDbVertex
100
AcDbPolygonMeshVertex
 10
-0.568
 20
0.8975
 30
0.0
 70
    64
  0
VERTEX
  5
A7DA3
100
AcDbEntity
  8
0
100
AcDbVertex
100
AcDbPolygonMeshVertex
 10
-0.568
 20
0.8975
 30
0.0
 70
    64
  0
VERTEX
  5
A7DA4
100
AcDbEntity
  8
0
100
AcDbVertex
100
AcDbPolygonMeshVertex
 10
-0.568
 20
-0.8975
 30
-0.18
 70
    64
  0
VERTEX
  5
A7DA5
100
AcDbEntity
  8
0
100
AcDbVertex
100
AcDbPolygonMeshVertex
 10
-0.568
 20
-0.8975
 30
0.0
 70
    64
  0
VERTEX
  5
A7DA6
100
AcDbEntity
  8
0
100
AcDbVertex
100
AcDbPolygonMeshVertex
 10
-0.568
 20
-0.8975
 30
0.0
 70
    64
  0
VERTEX
  5
A7DA7
100
AcDbEntity
  8
0
100
AcDbVertex
100
AcDbPolygonMeshVertex
 10
-0.468
 20
-0.8975
 30
-0.18
 70
    64
  0
VERTEX
  5
A7DA8
100
AcDbEntity
  8
0
100
AcDbVertex
100
AcDbPolygonMeshVertex
 10
-0.468
 20
-0.8975
 30
0.0
 70
    64
  0
VERTEX
  5
A7DA9
100
AcDbEntity
  8
0
100
AcDbVertex
100
AcDbPolygonMeshVertex
 10
-0.568
 20
-0.8975
 30
0.0
 70
    64
  0
VERTEX
  5
A7DAA
100
AcDbEntity
  8
0
100
AcDbVertex
100
AcDbPolygonMeshVertex
 10
-0.468
 20
0.8975
 30
-0.18
 70
    64
  0
VERTEX
  5
A7DAB
100
AcDbEntity
  8
0
100
AcDbVertex
100
AcDbPolygonMeshVertex
 10
-0.468
 20
0.8975
 30
0.0
 70
    64
  0
VERTEX
  5
A7DAC
100
AcDbEntity
  8
0
100
AcDbVertex
100
AcDbPolygonMeshVertex
 10
-0.568
 20
0.8975
 30
0.0
 70
    64
  0
VERTEX
  5
A7DAD
100
AcDbEntity
  8
0
100
AcDbVertex
100
AcDbPolygonMeshVertex
 10
-0.468
 20
0.8975
 30
-0.18
 70
    64
  0
VERTEX
  5
A7DAE
100
AcDbEntity
  8
0
100
AcDbVertex
100
AcDbPolygonMeshVertex
 10
-0.468
 20
0.8975
 30
-0.18
 70
    64
  0
VERTEX
  5
A7DAF
100
AcDbEntity
  8
0
100
AcDbVertex
100
AcDbPolygonMeshVertex
 10
-0.568
 20
0.8975
 30
-0.18
 70
    64
  0
VERTEX
  5
A7DB0
100
AcDbEntity
  8
0
100
AcDbVertex
100
AcDbPolygonMeshVertex
 10
-0.468
 20
-0.8975
 30
-0.18
 70
    64
  0
VERTEX
  5
A7DB1
100
AcDbEntity
  8
0
100
AcDbVertex
100
AcDbPolygonMeshVertex
 10
-0.468
 20
-0.8975
 30
-0.18
 70
    64
  0
VERTEX
  5
A7DB2
100
AcDbEntity
  8
0
100
AcDbVertex
100
AcDbPolygonMeshVertex
 10
-0.568
 20
-0.8975
 30
-0.18
 70
    64
  0
SEQEND
  5
A7DB3
100
AcDbEntity
  8
0
  0
POLYLINE
  5
A7DB4
100
AcDbEntity
  8
0
100
AcDbPolygonMesh
 66
     1
 10
0.0
 20
0.0
 30
0.0
 70
    16
 71
     6
 72
     3
  0
VERTEX
  5
A7DB5
100
AcDbEntity
  8
0
100
AcDbVertex
100
AcDbPolygonMeshVertex
 10
-0.963
 20
0.427198
 30
-0.220027
 70
    64
  0
VERTEX
  5
A7DB6
100
AcDbEntity
  8
0
100
AcDbVertex
100
AcDbPolygonMeshVertex
 10
-0.963
 20
0.427198
 30
-0.180027
 70
    64
  0
VERTEX
  5
A7DB7
100
AcDbEntity
  8
0
100
AcDbVertex
100
AcDbPolygonMeshVertex
 10
-0.963
 20
0.427198
 30
-0.180027
 70
    64
  0
VERTEX
  5
A7DB8
100
AcDbEntity
  8
0
100
AcDbVertex
100
AcDbPolygonMeshVertex
 10
-0.963
 20
-0.427198
 30
-0.220027
 70
    64
  0
VERTEX
  5
A7DB9
100
AcDbEntity
  8
0
100
AcDbVertex
100
AcDbPolygonMeshVertex
 10
-0.963
 20
-0.427198
 30
-0.180027
 70
    64
  0
VERTEX
  5
A7DBA
100
AcDbEntity
  8
0
100
AcDbVertex
100
AcDbPolygonMeshVertex
 10
-0.963
 20
-0.427198
 30
-0.180027
 70
    64
  0
VERTEX
  5
A7DBB
100
AcDbEntity
  8
0
100
AcDbVertex
100
AcDbPolygonMeshVertex
 10
-0.468
 20
-0.427198
 30
-0.220027
 70
    64
  0
VERTEX
  5
A7DBC
100
AcDbEntity
  8
0
100
AcDbVertex
100
AcDbPolygonMeshVertex
 10
-0.468
 20
-0.427198
 30
-0.180027
 70
    64
  0
VERTEX
  5
A7DBD
100
AcDbEntity
  8
0
100
AcDbVertex
100
AcDbPolygonMeshVertex
 10
-0.963
 20
-0.427198
 30
-0.180027
 70
    64
  0
VERTEX
  5
A7DBE
100
AcDbEntity
  8
0
100
AcDbVertex
100
AcDbPolygonMeshVertex
 10
-0.468
 20
0.427198
 30
-0.220027
 70
    64
  0
VERTEX
  5
A7DBF
100
AcDbEntity
  8
0
100
AcDbVertex
100
AcDbPolygonMeshVertex
 10
-0.468
 20
0.427198
 30
-0.180027
 70
    64
  0
VERTEX
  5
A7DC0
100
AcDbEntity
  8
0
100
AcDbVertex
100
AcDbPolygonMeshVertex
 10
-0.963
 20
0.427198
 30
-0.180027
 70
    64
  0
VERTEX
  5
A7DC1
100
AcDbEntity
  8
0
100
AcDbVertex
100
AcDbPolygonMeshVertex
 10
-0.468
 20
0.427198
 30
-0.220027
 70
    64
  0
VERTEX
  5
A7DC2
100
AcDbEntity
  8
0
100
AcDbVertex
100
AcDbPolygonMeshVertex
 10
-0.468
 20
0.427198
 30
-0.220027
 70
    64
  0
VERTEX
  5
A7DC3
100
AcDbEntity
  8
0
100
AcDbVertex
100
AcDbPolygonMeshVertex
 10
-0.963
 20
0.427198
 30
-0.220027
 70
    64
  0
VERTEX
  5
A7DC4
100
AcDbEntity
  8
0
100
AcDbVertex
100
AcDbPolygonMeshVertex
 10
-0.468
 20
-0.427198
 30
-0.220027
 70
    64
  0
VERTEX
  5
A7DC5
100
AcDbEntity
  8
0
100
AcDbVertex
100
AcDbPolygonMeshVertex
 10
-0.468
 20
-0.427198
 30
-0.220027
 70
    64
  0
VERTEX
  5
A7DC6
100
AcDbEntity
  8
0
100
AcDbVertex
100
AcDbPolygonMeshVertex
 10
-0.963
 20
-0.427198
 30
-0.220027
 70
    64
  0
SEQEND
  5
A7DC7
100
AcDbEntity
  8
0
  0
POLYLINE
  5
A7DC8
100
AcDbEntity
  8
0
100
AcDbPolygonMesh
 66
     1
 10
0.0
 20
0.0
 30
0.0
 70
    16
 71
     6
 72
     3
  0
VERTEX
  5
A7DC9
100
AcDbEntity
  8
0
100
AcDbVertex
100
AcDbPolygonMeshVertex
 10
-0.568
 20
-0.8975
 30
-0.18
 70
    64
  0
VERTEX
  5
A7DCA
100
AcDbEntity
  8
0
100
AcDbVertex
100
AcDbPolygonMeshVertex
 10
-0.568
 20
-0.8975
 30
0.0
 70
    64
  0
VERTEX
  5
A7DCB
100
AcDbEntity
  8
0
100
AcDbVertex
100
AcDbPolygonMeshVertex
 10
-0.568
 20
-0.8975
 30
0.0
 70
    64
  0
VERTEX
  5
A7DCC
100
AcDbEntity
  8
0
100
AcDbVertex
100
AcDbPolygonMeshVertex
 10
-0.568
 20
-0.8145
 30
-0.18
 70
    64
  0
VERTEX
  5
A7DCD
100
AcDbEntity
  8
0
100
AcDbVertex
100
AcDbPolygonMeshVertex
 10
-0.568
 20
-0.8145
 30
0.0
 70
    64
  0
VERTEX
  5
A7DCE
100
AcDbEntity
  8
0
100
AcDbVertex
100
AcDbPolygonMeshVertex
 10
-0.568
 20
-0.8145
 30
0.0
 70
    64
  0
VERTEX
  5
A7DCF
100
AcDbEntity
  8
0
100
AcDbVertex
100
AcDbPolygonMeshVertex
 10
-0.963
 20
-0.8145
 30
-0.18
 70
    64
  0
VERTEX
  5
A7DD0
100
AcDbEntity
  8
0
100
AcDbVertex
100
AcDbPolygonMeshVertex
 10
-0.963
 20
-0.8145
 30
0.0
 70
    64
  0
VERTEX
  5
A7DD1
100
AcDbEntity
  8
0
100
AcDbVertex
100
AcDbPolygonMeshVertex
 10
-0.568
 20
-0.8145
 30
0.0
 70
    64
  0
VERTEX
  5
A7DD2
100
AcDbEntity
  8
0
100
AcDbVertex
100
AcDbPolygonMeshVertex
 10
-0.963
 20
-0.8975
 30
-0.18
 70
    64
  0
VERTEX
  5
A7DD3
100
AcDbEntity
  8
0
100
AcDbVertex
100
AcDbPolygonMeshVertex
 10
-0.963
 20
-0.8975
 30
0.0
 70
    64
  0
VERTEX
  5
A7DD4
100
AcDbEntity
  8
0
100
AcDbVertex
100
AcDbPolygonMeshVertex
 10
-0.568
 20
-0.8975
 30
0.0
 70
    64
  0
VERTEX
  5
A7DD5
100
AcDbEntity
  8
0
100
AcDbVertex
100
AcDbPolygonMeshVertex
 10
-0.963
 20
-0.8975
 30
-0.18
 70
    64
  0
VERTEX
  5
A7DD6
100
AcDbEntity
  8
0
100
AcDbVertex
100
AcDbPolygonMeshVertex
 10
-0.963
 20
-0.8975
 30
-0.18
 70
    64
  0
VERTEX
  5
A7DD7
100
AcDbEntity
  8
0
100
AcDbVertex
100
AcDbPolygonMeshVertex
 10
-0.568
 20
-0.8975
 30
-0.18
 70
    64
  0
VERTEX
  5
A7DD8
100
AcDbEntity
  8
0
100
AcDbVertex
100
AcDbPolygonMeshVertex
 10
-0.963
 20
-0.8145
 30
-0.18
 70
    64
  0
VERTEX
  5
A7DD9
100
AcDbEntity
  8
0
100
AcDbVertex
100
AcDbPolygonMeshVertex
 10
-0.963
 20
-0.8145
 30
-0.18
 70
    64
  0
VERTEX
  5
A7DDA
100
AcDbEntity
  8
0
100
AcDbVertex
100
AcDbPolygonMeshVertex
 10
-0.568
 20
-0.8145
 30
-0.18
 70
    64
  0
SEQEND
  5
A7DDB
100
AcDbEntity
  8
0
  0
POLYLINE
  5
A7DDC
100
AcDbEntity
  8
0
100
AcDbPolygonMesh
 66
     1
 10
0.0
 20
0.0
 30
0.0
 70
    16
 71
     6
 72
     3
  0
VERTEX
  5
A7DDD
100
AcDbEntity
  8
0
100
AcDbVertex
100
AcDbPolygonMeshVertex
 10
-0.568
 20
0.8145
 30
-0.18
 70
    64
  0
VERTEX
  5
A7DDE
100
AcDbEntity
  8
0
100
AcDbVertex
100
AcDbPolygonMeshVertex
 10
-0.568
 20
0.8145
 30
0.0
 70
    64
  0
VERTEX
  5
A7DDF
100
AcDbEntity
  8
0
100
AcDbVertex
100
AcDbPolygonMeshVertex
 10
-0.568
 20
0.8145
 30
0.0
 70
    64
  0
VERTEX
  5
A7DE0
100
AcDbEntity
  8
0
100
AcDbVertex
100
AcDbPolygonMeshVertex
 10
-0.568
 20
0.8975
 30
-0.18
 70
    64
  0
VERTEX
  5
A7DE1
100
AcDbEntity
  8
0
100
AcDbVertex
100
AcDbPolygonMeshVertex
 10
-0.568
 20
0.8975
 30
0.0
 70
    64
  0
VERTEX
  5
A7DE2
100
AcDbEntity
  8
0
100
AcDbVertex
100
AcDbPolygonMeshVertex
 10
-0.568
 20
0.8975
 30
0.0
 70
    64
  0
VERTEX
  5
A7DE3
100
AcDbEntity
  8
0
100
AcDbVertex
100
AcDbPolygonMeshVertex
 10
-0.963
 20
0.8975
 30
-0.18
 70
    64
  0
VERTEX
  5
A7DE4
100
AcDbEntity
  8
0
100
AcDbVertex
100
AcDbPolygonMeshVertex
 10
-0.963
 20
0.8975
 30
0.0
 70
    64
  0
VERTEX
  5
A7DE5
100
AcDbEntity
  8
0
100
AcDbVertex
100
AcDbPolygonMeshVertex
 10
-0.568
 20
0.8975
 30
0.0
 70
    64
  0
VERTEX
  5
A7DE6
100
AcDbEntity
  8
0
100
AcDbVertex
100
AcDbPolygonMeshVertex
 10
-0.963
 20
0.8145
 30
-0.18
 70
    64
  0
VERTEX
  5
A7DE7
100
AcDbEntity
  8
0
100
AcDbVertex
100
AcDbPolygonMeshVertex
 10
-0.963
 20
0.8145
 30
0.0
 70
    64
  0
VERTEX
  5
A7DE8
100
AcDbEntity
  8
0
100
AcDbVertex
100
AcDbPolygonMeshVertex
 10
-0.568
 20
0.8145
 30
0.0
 70
    64
  0
VERTEX
  5
A7DE9
100
AcDbEntity
  8
0
100
AcDbVertex
100
AcDbPolygonMeshVertex
 10
-0.963
 20
0.8145
 30
-0.18
 70
    64
  0
VERTEX
  5
A7DEA
100
AcDbEntity
  8
0
100
AcDbVertex
100
AcDbPolygonMeshVertex
 10
-0.963
 20
0.8145
 30
-0.18
 70
    64
  0
VERTEX
  5
A7DEB
100
AcDbEntity
  8
0
100
AcDbVertex
100
AcDbPolygonMeshVertex
 10
-0.568
 20
0.8145
 30
-0.18
 70
    64
  0
VERTEX
  5
A7DEC
100
AcDbEntity
  8
0
100
AcDbVertex
100
AcDbPolygonMeshVertex
 10
-0.963
 20
0.8975
 30
-0.18
 70
    64
  0
VERTEX
  5
A7DED
100
AcDbEntity
  8
0
100
AcDbVertex
100
AcDbPolygonMeshVertex
 10
-0.963
 20
0.8975
 30
-0.18
 70
    64
  0
VERTEX
  5
A7DEE
100
AcDbEntity
  8
0
100
AcDbVertex
100
AcDbPolygonMeshVertex
 10
-0.568
 20
0.8975
 30
-0.18
 70
    64
  0
SEQEND
  5
A7DEF
100
AcDbEntity
  8
0
  0
LINE
  5
A7DF0
100
AcDbEntity
  8
0
100
AcDbLine
 10
-0.468
 20
0.1425
 30
0.0
 11
-0.126
 21
0.1425
 31
0.0
210
0.0
220
0.0
230
-1.0
  0
LINE
  5
A7DF1
100
AcDbEntity
  8
0
100
AcDbLine
 10
-0.468
 20
-0.1425
 30
0.0
 11
-0.126
 21
-0.1425
 31
0.0
210
0.0
220
0.0
230
-1.0
  0
POLYLINE
  5
A7DF2
100
AcDbEntity
  8
0
100
AcDbPolygonMesh
 66
     1
 10
0.0
 20
0.0
 30
0.0
 70
    16
 71
     6
 72
     3
  0
VERTEX
  5
A7DF3
100
AcDbEntity
  8
0
100
AcDbVertex
100
AcDbPolygonMeshVertex
 10
-0.03
 20
-0.373
 30
-1.57
 70
    64
  0
VERTEX
  5
A7DF4
100
AcDbEntity
  8
0
100
AcDbVertex
100
AcDbPolygonMeshVertex
 10
-0.03
 20
-0.373
 30
-0.288
 70
    64
  0
VERTEX
  5
A7DF5
100
AcDbEntity
  8
0
100
AcDbVertex
100
AcDbPolygonMeshVertex
 10
-0.03
 20
-0.373
 30
-0.288
 70
    64
  0
VERTEX
  5
A7DF6
100
AcDbEntity
  8
0
100
AcDbVertex
100
AcDbPolygonMeshVertex
 10
-0.03
 20
0.373
 30
-1.57
 70
    64
  0
VERTEX
  5
A7DF7
100
AcDbEntity
  8
0
100
AcDbVertex
100
AcDbPolygonMeshVertex
 10
-0.03
 20
0.373
 30
-0.288
 70
    64
  0
VERTEX
  5
A7DF8
100
AcDbEntity
  8
0
100
AcDbVertex
100
AcDbPolygonMeshVertex
 10
-0.03
 20
0.373
 30
-0.288
 70
    64
  0
VERTEX
  5
A7DF9
100
AcDbEntity
  8
0
100
AcDbVertex
100
AcDbPolygonMeshVertex
 10
-0.126
 20
0.373
 30
-1.57
 70
    64
  0
VERTEX
  5
A7DFA
100
AcDbEntity
  8
0
100
AcDbVertex
100
AcDbPolygonMeshVertex
 10
-0.126
 20
0.373
 30
-0.288
 70
    64
  0
VERTEX
  5
A7DFB
100
AcDbEntity
  8
0
100
AcDbVertex
100
AcDbPolygonMeshVertex
 10
-0.03
 20
0.373
 30
-0.288
 70
    64
  0
VERTEX
  5
A7DFC
100
AcDbEntity
  8
0
100
AcDbVertex
100
AcDbPolygonMeshVertex
 10
-0.126
 20
-0.373
 30
-1.57
 70
    64
  0
VERTEX
  5
A7DFD
100
AcDbEntity
  8
0
100
AcDbVertex
100
AcDbPolygonMeshVertex
 10
-0.126
 20
-0.373
 30
-0.288
 70
    64
  0
VERTEX
  5
A7DFE
100
AcDbEntity
  8
0
100
AcDbVertex
100
AcDbPolygonMeshVertex
 10
-0.03
 20
-0.373
 30
-0.288
 70
    64
  0
VERTEX
  5
A7DFF
100
AcDbEntity
  8
0
100
AcDbVertex
100
AcDbPolygonMeshVertex
 10
-0.126
 20
-0.373
 30
-1.57
 70
    64
  0
VERTEX
  5
A7E00
100
AcDbEntity
  8
0
100
AcDbVertex
100
AcDbPolygonMeshVertex
 10
-0.126
 20
-0.373
 30
-1.57
 70
    64
  0
VERTEX
  5
A7E01
100
AcDbEntity
  8
0
100
AcDbVertex
100
AcDbPolygonMeshVertex
 10
-0.03
 20
-0.373
 30
-1.57
 70
    64
  0
VERTEX
  5
A7E02
100
AcDbEntity
  8
0
100
AcDbVertex
100
AcDbPolygonMeshVertex
 10
-0.126
 20
0.373
 30
-1.57
 70
    64
  0
VERTEX
  5
A7E03
100
AcDbEntity
  8
0
100
AcDbVertex
100
AcDbPolygonMeshVertex
 10
-0.126
 20
0.373
 30
-1.57
 70
    64
  0
VERTEX
  5
A7E04
100
AcDbEntity
  8
0
100
AcDbVertex
100
AcDbPolygonMeshVertex
 10
-0.03
 20
0.373
 30
-1.57
 70
    64
  0
SEQEND
  5
A7E05
100
AcDbEntity
  8
0
  0
LINE
  5
A7E06
100
AcDbEntity
  8
0
100
AcDbLine
 10
-0.126
 20
-0.1425
 30
0.0
 11
-0.126
 21
-0.1425
 31
-0.288
  0
LINE
  5
A7E07
100
AcDbEntity
  8
0
100
AcDbLine
 10
-0.126
 20
0.1425
 30
0.0
 11
-0.126
 21
0.1425
 31
-0.288
  0
LINE
  5
A7E08
100
AcDbEntity
  8
0
100
AcDbLine
 10
-0.126
 20
0.1425
 30
-1.57
 11
-0.468
 21
0.1425
 31
-1.57
  0
LINE
  5
A7E09
100
AcDbEntity
  8
0
100
AcDbLine
 10
-0.126
 20
-0.1425
 30
-1.57
 11
-0.468
 21
-0.1425
 31
-1.57
  0
ARC
  5
A7E0A
100
AcDbEntity
  8
0
100
AcDbCircle
 10
-0.2775
 20
0.0
 30
-1.57
 40
0.1015
100
AcDbArc
 50
122.94559
 51
237.05441
  0
LINE
  5
A7E0B
100
AcDbEntity
  8
0
100
AcDbLine
 10
-0.3327
 20
-0.1425
 30
-1.57
 11
-0.3327
 21
-0.085178
 31
-1.57
  0
LINE
  5
A7E0C
100
AcDbEntity
  8
0
100
AcDbLine
 10
-0.2223
 20
-0.1425
 30
-1.57
 11
-0.2223
 21
-0.085178
 31
-1.57
  0
LINE
  5
A7E0D
100
AcDbEntity
  8
0
100
AcDbLine
 10
-0.2223
 20
0.085178
 30
-1.57
 11
-0.2223
 21
0.1425
 31
-1.57
  0
LINE
  5
A7E0E
100
AcDbEntity
  8
0
100
AcDbLine
 10
-0.3327
 20
0.085178
 30
-1.57
 11
-0.3327
 21
0.1425
 31
-1.57
  0
ARC
  5
A7E0F
100
AcDbEntity
  8
0
100
AcDbCircle
 10
-0.2775
 20
0.0
 30
-1.57
 40
0.1015
100
AcDbArc
 50
302.94559
 51
57.05441
  0
LINE
  5
A7E10
100
AcDbEntity
  8
0
100
AcDbLine
 10
-0.468
 20
0.1425
 30
-1.433
 11
-0.468
 21
-0.1425
 31
-1.433
  0
LINE
  5
A7E11
100
AcDbEntity
  8
0
100
AcDbLine
 10
-0.468
 20
-0.1425
 30
-1.57
 11
-0.468
 21
-0.1425
 31
-1.433
  0
LINE
  5
A7E12
100
AcDbEntity
  8
0
100
AcDbLine
 10
-0.468
 20
0.1425
 30
-1.57
 11
-0.468
 21
0.1425
 31
-1.433
  0
ATTDEF
  5
A7E13
100
AcDbEntity
  8
ATTRIBUTES
100
AcDbText
 10
-0.396292
 20
0.085931
 30
0.0
 40
0.026478
  1
ALLEN-BRADLEY
100
AcDbAttributeDefinition
  3
MANUFACTURER NAME?
  2
AC_VND_LABEL
 70
     0
  0
ATTDEF
  5
A7E14
100
AcDbEntity
  8
ATTRIBUTES
100
AcDbText
 10
-0.396292
 20
0.030769
 30
0.0
 40
0.026478
  1
800T-XD2P
100
AcDbAttributeDefinition
  3
CATALOG NUMBER?
  2
AC_PART_NO
 70
     0
  0
ATTDEF
  5
A7E15
100
AcDbEntity
  8
ATTRIBUTES
100
AcDbText
 10
-0.396292
 20
-0.024394
 30
0.0
 40
0.026478
  1
NEMA SEALED SWITCH CONTACT BLOCK, 1 N.C.
100
AcDbAttributeDefinition
  3
PART DESCRIPTION?
  2
AC_DESCRIPTION
 70
     0
  0
ATTDEF
  5
A7E16
100
AcDbEntity
  8
ATTRIBUTES
100
AcDbText
 10
-0.396292
 20
-0.079556
 30
0.0
 40
0.026478
  1

100
AcDbAttributeDefinition
  3
DEVICE ID?
  2
DEVICE_ID
 70
     0
  0
ATTDEF
  5
A7E17
100
AcDbEntity
  8
ATTRIBUTES
100
AcDbText
 10
-0.396292
 20
-0.134719
 30
0.0
 40
0.026478
  1

100
AcDbAttributeDefinition
  3
CUSTOMER PART NUMBER?
  2
AC_CPART_NO
 70
     0
  0
ATTDEF
  5
A7E18
100
AcDbEntity
  8
ATTRIBUTES
100
AcDbText
 10
-0.396292
 20
-0.189881
 30
0.0
 40
0.026478
  1

100
AcDbAttributeDefinition
  3
CUSTOMER NOTE?
  2
AC_NOTE
 70
     0
  0
ATTDEF
  5
A7E19
100
AcDbEntity
  8
ATTRIBUTES
100
AcDbText
 10
-0.396292
 20
-0.245044
 30
0.0
 40
0.026478
  1

100
AcDbAttributeDefinition
  3
FASTENER DATA?
  2
FASTENER
 70
     0
  0
ATTDEF
  5
A7E1A
100
AcDbEntity
  8
ATTRIBUTES
100
AcDbText
 10
-0.396292
 20
-0.300206
 30
0.0
 40
0.026478
  1

100
AcDbAttributeDefinition
  3
UNIT OF SCALE?
  2
AC_SCALE_UNIT
 70
     0
  0
ATTDEF
  5
A7E1B
100
AcDbEntity
  8
ATTRIBUTES
100
AcDbText
 10
-0.396292
 20
-0.355368
 30
0.0
 40
0.026478
  1

100
AcDbAttributeDefinition
  3
VIEW CODE?
  2
AC_VIEW_CODE
 70
     0
  0
POINT
  5
A7E1C
100
AcDbEntity
  8
SNAP_POINTS
100
AcDbPoint
 10
0.0
 20
0.0
 30
-1.57
  0
DIMENSION
  5
A7E1D
100
AcDbEntity
  8
AREA1
100
AcDbDimension
  2
*D0
 10
-1.317605
 20
-0.8975
 30
0.0
 11
-1.317605
 21
0.007937
 31
0.0
 70
   160
  3
ABECAD_3D
100
AcDbAlignedDimension
 13
-0.963
 23
0.8975
 33
0.0
 14
-0.963
 24
-0.8975
 34
-0.18
 50
90.0
100
AcDbRotatedDimension
  0
DIMENSION
  5
A7E2B
100
AcDbEntity
  8
AREA1
100
AcDbDimension
  2
*D1
 10
0.106
 20
1.150625
 30
0.0
 11
-0.419559
 21
1.367946
 31
0.0
 70
   160
  3
ABECAD_3D
100
AcDbAlignedDimension
 13
-0.963
 23
0.8975
 33
0.0
 14
0.106
 24
0.8145
 34
0.0
100
AcDbRotatedDimension
  0
LWPOLYLINE
  5
A7E50
100
AcDbEntity
  8
SCALE
100
AcDbPolyline
 90
        4
 70
     1
 43
0.0
 10
0.364361
 20
-0.032606
 10
1.499989
 20
-0.032606
 10
1.499989
 20
-0.874216
 10
0.364361
 20
-0.874216
  0
LINE
  5
A7E51
100
AcDbEntity
  8
SCALE
100
AcDbLine
 10
0.422359
 20
-0.412685
 30
0.0
 11
1.422359
 21
-0.412685
 31
0.0
  0
LINE
  5
A7E52
100
AcDbEntity
  8
SCALE
100
AcDbLine
 10
0.422359
 20
-0.712685
 30
0.0
 11
0.816059
 21
-0.712685
 31
0.0
  0
LINE
  5
A7E53
100
AcDbEntity
  8
SCALE
100
AcDbLine
 10
0.422359
 20
-0.512685
 30
0.0
 11
0.422359
 21
-0.312685
 31
0.0
  0
TEXT
  5
A7E54
100
AcDbEntity
  8
SCALE
100
AcDbText
 10
0.478335
 20
-0.664999
 30
0.0
 40
0.0625
  1
[10mm]
100
AcDbText
  0
LINE
  5
A7E55
100
AcDbEntity
  8
SCALE
100
AcDbLine
 10
0.422359
 20
-0.812685
 30
0.0
 11
0.422359
 21
-0.612685
 31
0.0
  0
TEXT
  5
A7E56
100
AcDbEntity
  8
SCALE
100
AcDbText
 10
0.42389
 20
-0.137807
 30
0.0
 40
0.0625
  1
SCALE:
100
AcDbText
  0
LINE
  5
A7E57
100
AcDbEntity
  8
SCALE
100
AcDbLine
 10
0.816059
 20
-0.812685
 30
0.0
 11
0.816059
 21
-0.612685
 31
0.0
  0
TEXT
  5
A7E58
100
AcDbEntity
  8
SCALE
100
AcDbText
 10
0.785642
 20
-0.343636
 30
0.0
 40
0.0625
  1
1 Inch
100
AcDbText
  0
LINE
  5
A7E59
100
AcDbEntity
  8
SCALE
100
AcDbLine
 10
1.422359
 20
-0.412685
 30
0.0
 11
1.422359
 21
-0.512685
 31
0.0
  0
LINE
  5
A7E5A
100
AcDbEntity
  8
SCALE
100
AcDbLine
 10
1.422359
 20
-0.512685
 30
0.0
 11
1.422359
 21
-0.312685
 31
0.0
  0
VIEWPORT
  5
5677D
102
{ACAD_XDICTIONARY
360
A7F28
102
}
100
AcDbEntity
 67
     1
  8
0
100
AcDbViewport
 10
5.25
 20
4.0
 30
0.0
 40
16.386862
 41
8.993
 68
    -1
 69
     1
1001
ACAD
1000
MVIEW
1002
{
1070
    16
1010
0.0
1020
0.0
1030
0.0
1010
0.0
1020
0.0
1030
1.0
1040
0.0
1040
8.993
1040
5.25
1040
4.0
1040
50.0
1040
0.0
1040
0.0
1070
     0
1070
 20000
1070
     1
1070
     1
1070
     0
1070
     0
1070
     0
1070
     0
1040
0.0
1040
0.0
1040
0.0
1040
0.5
1040
0.5
1040
0.5
1040
0.5
1070
     0
1002
{
1002
}
1002
}
  0
VIEWPORT
  5
5677F
102
{ACAD_XDICTIONARY
360
A7F2A
102
}
100
AcDbEntity
 67
     1
  8
AREA1
100
AcDbViewport
 10
5.25
 20
4.0
 30
0.0
 40
8.4
 41
6.4
 68
     1
 69
     2
1001
ACAD
1000
MVIEW
1002
{
1070
    16
1010
0.563444
1020
-0.880137
1030
1.686493
1010
0.0
1020
0.0
1030
1.0
1040
0.0
1040
4.582914
1040
-1.017175
1040
0.747813
1040
50.0
1040
0.0
1040
0.0
1070
     0
1070
 20000
1070
     1
1070
     1
1070
     0
1070
     0
1070
     0
1070
     0
1040
0.0
1040
0.0
1040
0.0
1040
0.25
1040
0.25
1040
0.25
1040
0.25
1070
     0
1002
{
1002
}
1002
}
  0
ENDSEC
  0
SECTION
  2
OBJECTS
  0
DICTIONARY
  5
458CB
100
AcDbDictionary
  3
ACAD_GROUP
350
458CC
  3
ACAD_LAYOUT
350
458FB
  3
ACAD_MLINESTYLE
350
458D9
  3
ACAD_PLOTSETTINGS
350
458FC
  3
ACAD_PLOTSTYLENAME
350
458F9
  3
ACDBHEADERROUNDTRIPXREC
350
A7EFF
  3
ACDBVARIABLEDICTIONARY
350
458E1
  3
DWGPROPS
350
45901
  0
DICTIONARY
  5
A7EFD
100
AcDbDictionary
280
     1
  3
ACAD_XREC_ROUNDTRIP
360
A7EFE
  0
DICTIONARY
  5
A7F26
100
AcDbDictionary
280
     1
  3
ACAD_XREC_ROUNDTRIP
360
A7F27
  0
DICTIONARY
  5
A7EFB
100
AcDbDictionary
280
     1
  3
ACAD_XREC_ROUNDTRIP
360
A7EFC
  0
DICTIONARY
  5
A7F22
100
AcDbDictionary
280
     1
  3
ACAD_XREC_ROUNDTRIP
360
A7F23
  0
DICTIONARY
  5
4592C
100
AcDbDictionary
280
     1
  3
ACAD_LAYOUTSELFREF
360
A7F21
  0
DICTIONARY
  5
4592A
100
AcDbDictionary
280
     1
  3
ACAD_LAYOUTSELFREF
360
A7F20
  0
DICTIONARY
  5
A7F28
100
AcDbDictionary
280
     1
  3
ACAD_XREC_ROUNDTRIP
360
A7F29
  0
DICTIONARY
  5
A7F2A
100
AcDbDictionary
280
     1
  3
ACAD_XREC_ROUNDTRIP
360
A7F2B
  0
DICTIONARY
  5
458CC
102
{ACAD_REACTORS
330
458CB
102
}
100
AcDbDictionary
  0
DICTIONARY
  5
458FB
102
{ACAD_XDICTIONARY
360
A7F24
102
}
102
{ACAD_REACTORS
330
458CB
102
}
100
AcDbDictionary
  3
LAYOUT1
350
458FE
  3
MODEL
350
458FD
  0
DICTIONARY
  5
458D9
102
{ACAD_REACTORS
330
458CB
102
}
100
AcDbDictionary
  3
STANDARD
350
458DA
  0
DICTIONARY
  5
458FC
102
{ACAD_REACTORS
330
458CB
102
}
100
AcDbDictionary
  0
ACAD_PROXY_OBJECT
  5
458F9
102
{ACAD_REACTORS
330
458CB
102
}
100
AcDbProxyObject
 90
      499
 91
      501
 93
       86
310
405010041939BDC9B585B0
350
458FA
340
458FA
 94
        0
  0
DICTIONARY
  5
A7EFF
102
{ACAD_REACTORS
330
458CB
102
}
100
AcDbDictionary
  3
CEPSNTYPE
350
A7F09
  3
DIMSTYLEDATA
350
A7F0D
  3
FINGERPRINTGUID
350
A7F0A
  3
HYPERLINKBASE
350
A7F02
  3
INSUNITS
350
A7F08
  3
LAYOUTDICT
350
A7F04
  3
LWETCUNION
350
A7F07
  3
PLOTSETDICT
350
A7F05
  3
PLOTSTYLNAMDICT
350
A7F06
  3
PSVPSCALE
350
A7F0C
  3
PUCSBASE
350
A7F10
  3
PUCSORGBACK
350
A7F16
  3
PUCSORGBOTTOM
350
A7F12
  3
PUCSORGFRONT
350
A7F15
  3
PUCSORGLEFT
350
A7F13
  3
PUCSORGRIGHT
350
A7F14
  3
PUCSORGTOP
350
A7F11
  3
PUCSORTHOREF
350
A7F0E
  3
PUCSORTHOVIEW
350
A7F0F
  3
STYLESHEET
350
A7F03
  3
TSTACKALIGN
350
A7F00
  3
TSTACKSIZE
350
A7F01
  3
UCSBASE
350
A7F19
  3
UCSORGBACK
350
A7F1F
  3
UCSORGBOTTOM
350
A7F1B
  3
UCSORGFRONT
350
A7F1E
  3
UCSORGLEFT
350
A7F1C
  3
UCSORGRIGHT
350
A7F1D
  3
UCSORGTOP
350
A7F1A
  3
UCSORTHOREF
350
A7F17
  3
UCSORTHOVIEW
350
A7F18
  3
VERSIONGUID
350
A7F0B
  0
DICTIONARY
  5
458E1
102
{ACAD_REACTORS
330
458CB
102
}
100
AcDbDictionary
  3
DIMADEC
350
458E2
  0
XRECORD
  5
45901
102
{ACAD_REACTORS
330
458CB
102
}
100
AcDbXrecord
  1
DWGPROPS COOKIE
  2

  3

  4

  6

  7

  8
colin
  9

300
=
301
=
302
=
303
=
304
=
305
=
306
=
307
=
308
=
309
=
 40
0.000599
 41
2451670.444777
 42
2451670.445376
  1

 90
        0
  0
XRECORD
  5
A7EFE
102
{ACAD_REACTORS
330
A7EFD
102
}
100
AcDbXrecord
102
EXTNAMES
  1
*ACTIVE
  2
*Active
102
UCS
 74
     0
 71
     1
 10
0.0
 20
0.0
 30
0.0
 10
1.0
 20
0.0
 30
0.0
 10
0.0
 20
1.0
 30
0.0
146
0.0
 79
     1
102
VIEW
281
     2
  0
XRECORD
  5
A7F27
102
{ACAD_REACTORS
330
A7F26
102
}
100
AcDbXrecord
102
PLOTBIT
280
     0
  0
XRECORD
  5
A7EFC
102
{ACAD_REACTORS
330
A7EFB
102
}
100
AcDbXrecord
102
EXTNAMES
  1
DEFPOINTS
  2
Defpoints
102
PLOTBIT
280
     0
  0
XRECORD
  5
A7F23
102
{ACAD_REACTORS
330
A7F22
102
}
100
AcDbXrecord
102
ACADR14ROUNDTRIP
1000
DSTYLE
1002
{
1070
   276
 70
     2
1070
   277
 70
     5
1070
   279
 70
     2
1070
   289
 70
     2
1002
}
  0
XRECORD
  5
A7F21
102
{ACAD_REACTORS
330
4592C
102
}
100
AcDbXrecord
340
458D6
  0
XRECORD
  5
A7F20
102
{ACAD_REACTORS
330
4592A
102
}
100
AcDbXrecord
340
458D3
  0
XRECORD
  5
A7F29
102
{ACAD_REACTORS
330
A7F28
102
}
100
AcDbXrecord
102
UCS
 74
     0
 71
     1
 10
0.0
 20
0.0
 30
0.0
 10
1.0
 20
0.0
 30
0.0
 10
0.0
 20
1.0
 30
0.0
146
0.0
 79
     0
102
VIEW
281
     0
102
NEWVIEWCONTROL
280
     4
  0
XRECORD
  5
A7F2B
102
{ACAD_REACTORS
330
A7F2A
102
}
100
AcDbXrecord
102
UCS
 74
     0
 71
     1
 10
0.0
 20
0.0
 30
0.0
 10
1.0
 20
0.0
 30
0.0
 10
0.0
 20
1.0
 30
0.0
146
0.0
 79
     1
102
VIEW
281
     1
102
NEWVIEWCONTROL
280
     4
  0
DICTIONARY
  5
A7F24
100
AcDbDictionary
280
     1
  3
ACAD_XREC_ROUNDTRIP
360
A7F25
  0
ACAD_PROXY_OBJECT
  5
458FE
102
{ACAD_REACTORS
330
458FB
102
}
100
AcDbProxyObject
 90
      499
 91
      503
 93
     1700
310
90B6E6F6E655F6465766963652C0080000006066661940000000181999865000000000068661940000000001A1986500000000C0CCFC6A4000000018199D9C5011C4C65747465725F28382E35305F785F31312E30305F496E6368657329A901416AA547D11959985D5B1D08148C4D081C195B88185CDCDA59DB9B595B9D1CC
310
B98DD1891069074C61796F75743140501A840201008040342FEFF7FBFDFFFFF3EFDFAFF7FBFFDFC9501008043E3FDFC8102A6A6A0000003033333C0FC000000809999E93F8FFFFFF5766E622403FFFFFEBF333071020
330
458D3
330
5677D
340
0
340
0
 94
        0
  0
ACAD_PROXY_OBJECT
  5
458FD
102
{ACAD_REACTORS
330
458FB
102
}
100
AcDbProxyObject
 90
      499
 91
      503
 93
      924
310
91D4850204C617365724A65742035303030205365726965732050434C20362C01AAAAAAAAA547D11959985D5B1D08148C4D081C195B88185CDCDA59DB9B595B9D1CCB98DD18A69054D6F64656C901A800000000000000000000000000000000000000000000A1000000000000008902A6A6AAAA0
330
458D6
330
0
340
0
340
0
 94
        0
  0
MLINESTYLE
  5
458DA
102
{ACAD_REACTORS
330
458D9
102
}
100
AcDbMlineStyle
  2
STANDARD
 70
     0
  3

 62
   256
 51
90.0
 52
90.0
 71
     2
 49
0.5
 62
   256
  6
BYLAYER
 49
-0.5
 62
   256
  6
BYLAYER
  0
ACAD_PROXY_OBJECT
  5
458FA
102
{ACAD_REACTORS
330
458F9
102
}
100
AcDbProxyObject
 90
      499
 91
      502
 93
        0
 94
        0
  0
XRECORD
  5
A7F09
102
{ACAD_REACTORS
330
A7EFF
102
}
100
AcDbXrecord
 90
        0
  0
XRECORD
  5
A7F0D
102
{ACAD_REACTORS
330
A7EFF
102
}
100
AcDbXrecord
1000
DSTYLE
1002
{
1070
   276
 70
     2
1070
   277
 70
     5
1070
   279
 70
     2
1070
   289
 70
     2
1002
}
  0
XRECORD
  5
A7F0A
102
{ACAD_REACTORS
330
A7EFF
102
}
100
AcDbXrecord
  1
{6E0CF4B8-225E-11D4-A150-00A0CC3303EC}
  0
XRECORD
  5
A7F02
102
{ACAD_REACTORS
330
A7EFF
102
}
100
AcDbXrecord
  1

  0
XRECORD
  5
A7F08
102
{ACAD_REACTORS
330
A7EFF
102
}
100
AcDbXrecord
 90
        0
  0
XRECORD
  5
A7F04
102
{ACAD_REACTORS
330
A7EFF
102
}
100
AcDbXrecord
340
458FB
  0
XRECORD
  5
A7F07
102
{ACAD_REACTORS
330
A7EFF
102
}
100
AcDbXrecord
 90
    14877
  0
XRECORD
  5
A7F05
102
{ACAD_REACTORS
330
A7EFF
102
}
100
AcDbXrecord
340
458FC
  0
XRECORD
  5
A7F06
102
{ACAD_REACTORS
330
A7EFF
102
}
100
AcDbXrecord
340
458F9
  0
XRECORD
  5
A7F0C
102
{ACAD_REACTORS
330
A7EFF
102
}
100
AcDbXrecord
 40
0.0
  0
XRECORD
  5
A7F10
102
{ACAD_REACTORS
330
A7EFF
102
}
100
AcDbXrecord
340
0
  0
XRECORD
  5
A7F16
102
{ACAD_REACTORS
330
A7EFF
102
}
100
AcDbXrecord
 10
0.0
 20
0.0
 30
0.0
  0
XRECORD
  5
A7F12
102
{ACAD_REACTORS
330
A7EFF
102
}
100
AcDbXrecord
 10
0.0
 20
0.0
 30
0.0
  0
XRECORD
  5
A7F15
102
{ACAD_REACTORS
330
A7EFF
102
}
100
AcDbXrecord
 10
0.0
 20
0.0
 30
0.0
  0
XRECORD
  5
A7F13
102
{ACAD_REACTORS
330
A7EFF
102
}
100
AcDbXrecord
 10
0.0
 20
0.0
 30
0.0
  0
XRECORD
  5
A7F14
102
{ACAD_REACTORS
330
A7EFF
102
}
100
AcDbXrecord
 10
0.0
 20
0.0
 30
0.0
  0
XRECORD
  5
A7F11
102
{ACAD_REACTORS
330
A7EFF
102
}
100
AcDbXrecord
 10
0.0
 20
0.0
 30
0.0
  0
XRECORD
  5
A7F0E
102
{ACAD_REACTORS
330
A7EFF
102
}
100
AcDbXrecord
340
0
  0
XRECORD
  5
A7F0F
102
{ACAD_REACTORS
330
A7EFF
102
}
100
AcDbXrecord
 70
     0
  0
XRECORD
  5
A7F03
102
{ACAD_REACTORS
330
A7EFF
102
}
100
AcDbXrecord
  1

  0
XRECORD
  5
A7F00
102
{ACAD_REACTORS
330
A7EFF
102
}
100
AcDbXrecord
 90
        1
  0
XRECORD
  5
A7F01
102
{ACAD_REACTORS
330
A7EFF
102
}
100
AcDbXrecord
 90
       70
  0
XRECORD
  5
A7F19
102
{ACAD_REACTORS
330
A7EFF
102
}
100
AcDbXrecord
340
0
  0
XRECORD
  5
A7F1F
102
{ACAD_REACTORS
330
A7EFF
102
}
100
AcDbXrecord
 10
0.0
 20
0.0
 30
0.0
  0
XRECORD
  5
A7F1B
102
{ACAD_REACTORS
330
A7EFF
102
}
100
AcDbXrecord
 10
0.0
 20
0.0
 30
0.0
  0
XRECORD
  5
A7F1E
102
{ACAD_REACTORS
330
A7EFF
102
}
100
AcDbXrecord
 10
0.0
 20
0.0
 30
0.0
  0
XRECORD
  5
A7F1C
102
{ACAD_REACTORS
330
A7EFF
102
}
100
AcDbXrecord
 10
0.0
 20
0.0
 30
0.0
  0
XRECORD
  5
A7F1D
102
{ACAD_REACTORS
330
A7EFF
102
}
100
AcDbXrecord
 10
0.0
 20
0.0
 30
0.0
  0
XRECORD
  5
A7F1A
102
{ACAD_REACTORS
330
A7EFF
102
}
100
AcDbXrecord
 10
0.0
 20
0.0
 30
0.0
  0
XRECORD
  5
A7F17
102
{ACAD_REACTORS
330
A7EFF
102
}
100
AcDbXrecord
340
0
  0
XRECORD
  5
A7F18
102
{ACAD_REACTORS
330
A7EFF
102
}
100
AcDbXrecord
 70
     1
  0
XRECORD
  5
A7F0B
102
{ACAD_REACTORS
330
A7EFF
102
}
100
AcDbXrecord
  1
{4F9D951D-0F02-4AE5-84D5-A83693848E32}
  0
DICTIONARYVAR
  5
458E2
102
{ACAD_REACTORS
330
458E1
102
}
100
DictionaryVariables
280
     0
  1
0
  0
XRECORD
  5
A7F25
102
{ACAD_REACTORS
330
A7F24
102
}
100
AcDbXrecord
102
EXTNAMES
  1
LAYOUT1
  2
Layout1
  1
MODEL
  2
Model
  0
ENDSEC
  0
EOF
