  0
SECTION
  2
HEADER
  9
$ACADVER
  1
AC1014
  9
$ACADMAINTVER
 70
     9
  9
$DWGCODEPAGE
  3
ANSI_1252
  9
$INSBASE
 10
-712.151880282322
 20
184.4441460530962
 30
-2.510287246511623
  9
$EXTMIN
 10
-714.6115138821199
 20
183.3683444360962
 30
-3.50121382701155
  9
$EXTMAX
 10
-710.5690434562991
 20
185.9999900347437
 30
-1.030187246511623
  9
$LIMMIN
 10
0.0
 20
0.0
  9
$LIMMAX
 10
12.0
 20
9.0
  9
$ORTHOMODE
 70
     0
  9
$REGENMODE
 70
     1
  9
$FILLMODE
 70
     1
  9
$QTEXTMODE
 70
     0
  9
$MIRRTEXT
 70
     0
  9
$DRAGMODE
 70
     2
  9
$LTSCALE
 40
1.0
  9
$OSMODE
 70
    37
  9
$ATTMODE
 70
     1
  9
$TEXTSIZE
 40
0.2
  9
$TRACEWID
 40
0.05
  9
$TEXTSTYLE
  7
STANDARD
  9
$CLAYER
  8
0
  9
$CELTYPE
  6
BYLAYER
  9
$CECOLOR
 62
   256
  9
$CELTSCALE
 40
1.0
  9
$DELOBJ
 70
     1
  9
$DISPSILH
 70
     0
  9
$DIMSCALE
 40
0.0
  9
$DIMASZ
 40
0.1
  9
$DIMEXO
 40
0.0625
  9
$DIMDLI
 40
0.375
  9
$DIMRND
 40
0.0
  9
$DIMDLE
 40
0.0
  9
$DIMEXE
 40
0.18
  9
$DIMTP
 40
0.0
  9
$DIMTM
 40
0.0
  9
$DIMTXT
 40
0.1
  9
$DIMCEN
 40
0.09
  9
$DIMTSZ
 40
0.0
  9
$DIMTOL
 70
     0
  9
$DIMLIM
 70
     0
  9
$DIMTIH
 70
     0
  9
$DIMTOH
 70
     1
  9
$DIMSE1
 70
     0
  9
$DIMSE2
 70
     0
  9
$DIMTAD
 70
     0
  9
$DIMZIN
 70
     4
  9
$DIMBLK
  1

  9
$DIMASO
 70
     1
  9
$DIMSHO
 70
     1
  9
$DIMPOST
  1

  9
$DIMAPOST
  1

  9
$DIMALT
 70
     1
  9
$DIMALTD
 70
     2
  9
$DIMALTF
 40
25.4
  9
$DIMLFAC
 40
1.0
  9
$DIMTOFL
 70
     0
  9
$DIMTVP
 40
0.0
  9
$DIMTIX
 70
     0
  9
$DIMSOXD
 70
     0
  9
$DIMSAH
 70
     0
  9
$DIMBLK1
  1

  9
$DIMBLK2
  1

  9
$DIMSTYLE
  2
ABECAD_3D
  9
$DIMCLRD
 70
     0
  9
$DIMCLRE
 70
     0
  9
$DIMCLRT
 70
     0
  9
$DIMTFAC
 40
1.0
  9
$DIMGAP
 40
0.09
  9
$DIMJUST
 70
     0
  9
$DIMSD1
 70
     0
  9
$DIMSD2
 70
     0
  9
$DIMTOLJ
 70
     1
  9
$DIMTZIN
 70
     4
  9
$DIMALTZ
 70
     4
  9
$DIMALTTZ
 70
     4
  9
$DIMFIT
 70
     5
  9
$DIMUPT
 70
     1
  9
$DIMUNIT
 70
     7
  9
$DIMDEC
 70
     6
  9
$DIMTDEC
 70
     6
  9
$DIMALTU
 70
     2
  9
$DIMALTTD
 70
     2
  9
$DIMTXSTY
  7
STANDARD
  9
$DIMAUNIT
 70
     0
  9
$LUNITS
 70
     2
  9
$LUPREC
 70
     4
  9
$SKETCHINC
 40
0.1
  9
$FILLETRAD
 40
0.0
  9
$AUNITS
 70
     0
  9
$AUPREC
 70
     0
  9
$MENU
  1
.
  9
$ELEVATION
 40
0.0
  9
$PELEVATION
 40
0.0
  9
$THICKNESS
 40
0.0
  9
$LIMCHECK
 70
     0
  9
$BLIPMODE
 70
     0
  9
$CHAMFERA
 40
0.0
  9
$CHAMFERB
 40
0.0
  9
$CHAMFERC
 40
0.0
  9
$CHAMFERD
 40
0.0
  9
$SKPOLY
 70
     0
  9
$TDCREATE
 40
2452863.594993102
  9
$TDUPDATE
 40
2453178.507803842
  9
$TDINDWG
 40
1.1538792593
  9
$TDUSRTIMER
 40
1.1538792593
  9
$USRTIMER
 70
     1
  9
$ANGBASE
 50
0.0
  9
$ANGDIR
 70
     0
  9
$PDMODE
 70
     3
  9
$PDSIZE
 40
0.18
  9
$PLINEWID
 40
0.0
  9
$COORDS
 70
     1
  9
$SPLFRAME
 70
     0
  9
$SPLINETYPE
 70
     6
  9
$SPLINESEGS
 70
     8
  9
$ATTDIA
 70
     0
  9
$ATTREQ
 70
     1
  9
$HANDLING
 70
 22529
  9
$HANDSEED
  5
EDC1
  9
$SURFTAB1
 70
     6
  9
$SURFTAB2
 70
     6
  9
$SURFTYPE
 70
     6
  9
$SURFU
 70
     6
  9
$SURFV
 70
     6
  9
$UCSNAME
  2

  9
$UCSORG
 10
-712.151880282322
 20
184.4441460530962
 30
-2.510287246511623
  9
$UCSXDIR
 10
1.0
 20
0.0
 30
0.0
  9
$UCSYDIR
 10
0.0
 20
1.0
 30
0.0
  9
$PUCSNAME
  2

  9
$PUCSORG
 10
0.0
 20
0.0
 30
0.0
  9
$PUCSXDIR
 10
1.0
 20
0.0
 30
0.0
  9
$PUCSYDIR
 10
0.0
 20
1.0
 30
0.0
  9
$USERI1
 70
     0
  9
$USERI2
 70
     0
  9
$USERI3
 70
     0
  9
$USERI4
 70
     0
  9
$USERI5
 70
     0
  9
$USERR1
 40
0.0
  9
$USERR2
 40
0.0
  9
$USERR3
 40
0.0
  9
$USERR4
 40
0.0
  9
$USERR5
 40
0.0
  9
$WORLDVIEW
 70
     1
  9
$SHADEDGE
 70
     3
  9
$SHADEDIF
 70
    70
  9
$TILEMODE
 70
     1
  9
$MAXACTVP
 70
    48
  9
$PINSBASE
 10
0.0
 20
0.0
 30
0.0
  9
$PLIMCHECK
 70
     0
  9
$PEXTMIN
 10
0.0
 20
0.0
 30
0.0
  9
$PEXTMAX
 10
0.0
 20
0.0
 30
0.0
  9
$PLIMMIN
 10
0.0
 20
0.0
  9
$PLIMMAX
 10
12.0
 20
9.0
  9
$UNITMODE
 70
     0
  9
$VISRETAIN
 70
     1
  9
$PLINEGEN
 70
     0
  9
$PSLTSCALE
 70
     1
  9
$TREEDEPTH
 70
  3020
  9
$PICKSTYLE
 70
     1
  9
$CMLSTYLE
  2
STANDARD
  9
$CMLJUST
 70
     0
  9
$CMLSCALE
 40
1.0
  9
$PROXYGRAPHICS
 70
     1
  9
$MEASUREMENT
 70
     0
  0
ENDSEC
  0
SECTION
  2
CLASSES
  0
CLASS
  1
ACDBDICTIONARYWDFLT
  2
AcDbDictionaryWithDefault
  3
AutoCAD 2000
 90
        0
280
     0
281
     0
  0
CLASS
  1
ACDBPLACEHOLDER
  2
AcDbPlaceHolder
  3
AutoCAD 2000
 90
        0
280
     0
281
     0
  0
CLASS
  1
LAYOUT
  2
AcDbLayout
  3
AutoCAD 2000
 90
        0
280
     0
281
     0
  0
CLASS
  1
DICTIONARYVAR
  2
AcDbDictionaryVar
  3
AutoCAD 2000
 90
        0
280
     0
281
     0
  0
CLASS
  1
LWPOLYLINE
  2
AcDbPolyline
  3
AutoCAD 2000
 90
        0
280
     0
281
     1
  0
CLASS
  1
XRECORD
  2
AcDbXrecord
  3
AutoCAD 2000
 90
        0
280
     0
281
     0
  0
CLASS
  1
TABLESTYLE
  2
AcDbTableStyle
  3
ObjectDBX Classes
 90
     2047
280
     0
281
     0
  0
CLASS
  1
SORTENTSTABLE
  2
AcDbSortentsTable
  3
AutoCAD 2000
 90
        0
280
     0
281
     0
  0
CLASS
  1
ACAD_PROXY_OBJECT_WRAPPER
  2
AcDbProxyObjectWrapper
  3
AutoCAD 2000
 90
        0
280
     0
281
     0
  0
CLASS
  1
LONG_TRANSACTION
  2
AcDbLongTransaction
  3
AutoCAD 2000
 90
        0
280
     0
281
     0
  0
CLASS
  1
LWPOLYLINE
  2
AcDbPolyline
  3
AutoCAD 2000
 90
        0
280
     0
281
     1
  0
CLASS
  1
HATCH
  2
AcDbHatch
  3
AutoCAD 2000
 90
        0
280
     0
281
     1
  0
CLASS
  1
XRECORD
  2
AcDbXrecord
  3
AutoCAD 2000
 90
        0
280
     0
281
     0
  0
ENDSEC
  0
SECTION
  2
TABLES
  0
TABLE
  2
VPORT
  5
8
330
0
100
AcDbSymbolTable
 70
     2
  0
VPORT
  5
ED9C
330
8
100
AcDbSymbolTableRecord
100
AcDbViewportTableRecord
  2
*ACTIVE
 70
     0
 10
0.0
 20
0.0
 11
1.0
 21
1.0
 12
-736.0738702660005
 22
125.6452390606675
 13
0.0
 23
0.0
 14
0.5
 24
0.5
 15
0.5
 25
0.5
 16
0.0
 26
0.0
 36
1.0
 17
23.99189063136194
 27
58.93406701316578
 37
-79.23627321392476
 40
7.620024245695503
 41
1.83009708737864
 42
50.0
 43
0.0
 44
0.0
 50
0.0
 51
0.0
 71
     0
 72
  1000
 73
     1
 74
     1
 75
     0
 76
     0
 77
     0
 78
     0
  0
ENDTAB
  0
TABLE
  2
LTYPE
  5
5
330
0
100
AcDbSymbolTable
 70
     1
  0
LTYPE
  5
14
330
5
100
AcDbSymbolTableRecord
100
AcDbLinetypeTableRecord
  2
BYBLOCK
 70
     0
  3

 72
    65
 73
     0
 40
0.0
  0
LTYPE
  5
15
330
5
100
AcDbSymbolTableRecord
100
AcDbLinetypeTableRecord
  2
BYLAYER
 70
     0
  3

 72
    65
 73
     0
 40
0.0
  0
LTYPE
  5
16
330
5
100
AcDbSymbolTableRecord
100
AcDbLinetypeTableRecord
  2
CONTINUOUS
 70
     0
  3
Solid line
 72
    65
 73
     0
 40
0.0
  0
ENDTAB
  0
TABLE
  2
LAYER
  5
2
102
{ACAD_XDICTIONARY
360
3D71
102
}
330
0
100
AcDbSymbolTable
 70
     8
  0
LAYER
  5
10
330
2
100
AcDbSymbolTableRecord
100
AcDbLayerTableRecord
  2
0
 70
     0
 62
     7
  6
CONTINUOUS
  0
LAYER
  5
98E
330
2
100
AcDbSymbolTableRecord
100
AcDbLayerTableRecord
  2
AREA1
 70
     0
 62
    -7
  6
CONTINUOUS
  0
LAYER
  5
98F
330
2
100
AcDbSymbolTableRecord
100
AcDbLayerTableRecord
  2
AREA2
 70
     0
 62
    -7
  6
CONTINUOUS
  0
LAYER
  5
990
330
2
100
AcDbSymbolTableRecord
100
AcDbLayerTableRecord
  2
DEFPOINTS
 70
     0
 62
     7
  6
CONTINUOUS
  0
LAYER
  5
991
330
2
100
AcDbSymbolTableRecord
100
AcDbLayerTableRecord
  2
SCALE
 70
     0
 62
    -7
  6
CONTINUOUS
  0
LAYER
  5
992
330
2
100
AcDbSymbolTableRecord
100
AcDbLayerTableRecord
  2
SNAP_POINTS
 70
     0
 62
    -1
  6
CONTINUOUS
  0
LAYER
  5
993
330
2
100
AcDbSymbolTableRecord
100
AcDbLayerTableRecord
  2
ATTRIBUTES
 70
     0
 62
     7
  6
CONTINUOUS
  0
LAYER
  5
1722
330
2
100
AcDbSymbolTableRecord
100
AcDbLayerTableRecord
  2
DIMS-MTG-HOLES
 70
     0
 62
    -1
  6
CONTINUOUS
  0
ENDTAB
  0
TABLE
  2
STYLE
  5
3
330
0
100
AcDbSymbolTable
 70
     1
  0
STYLE
  5
11
330
3
100
AcDbSymbolTableRecord
100
AcDbTextStyleTableRecord
  2
STANDARD
 70
     0
 40
0.0
 41
1.0
 50
0.0
 71
     0
 42
0.2
  3
txt
  4

  0
ENDTAB
  0
TABLE
  2
VIEW
  5
6
330
0
100
AcDbSymbolTable
 70
     2
  0
VIEW
  5
9EDD
330
6
100
AcDbSymbolTableRecord
100
AcDbViewTableRecord
  2
OLE1
 70
     0
 40
4.937451365167817
 10
165.8977148631555
 20
-186.1177164926722
 41
8.604402918343298
 11
0.0
 21
0.0
 31
1.0
 12
23.99189063136194
 22
58.93406701316578
 32
-79.23627321392476
 42
50.0
 43
0.0
 44
0.0
 50
0.0
 71
     0
  0
VIEW
  5
EA3D
330
6
100
AcDbSymbolTableRecord
100
AcDbViewTableRecord
  2
OLE2
 70
     0
 40
80.35468426881953
 10
-675.8212351656559
 20
68.73015337222691
 41
70.96925714622142
 11
0.0
 21
0.0
 31
1.0
 12
23.99189063136194
 22
58.93406701316578
 32
-79.23627321392476
 42
50.0
 43
0.0
 44
0.0
 50
0.0
 71
     0
  0
ENDTAB
  0
TABLE
  2
UCS
  5
7
330
0
100
AcDbSymbolTable
 70
     0
  0
ENDTAB
  0
TABLE
  2
APPID
  5
9
330
0
100
AcDbSymbolTable
 70
     2
  0
APPID
  5
12
330
9
100
AcDbSymbolTableRecord
100
AcDbRegAppTableRecord
  2
ACAD
 70
     0
  0
APPID
  5
4B0A
330
9
100
AcDbSymbolTableRecord
100
AcDbRegAppTableRecord
  2
ACAD_DSTYLE_DIMTEXT_FILL
 70
     0
  0
ENDTAB
  0
TABLE
  2
DIMSTYLE
  5
A
330
0
100
AcDbSymbolTable
 70
     1
  0
DIMSTYLE
105
DF8D
102
{ACAD_REACTORS
330
ECB7
330
ECB8
330
ECC2
102
}
330
A
100
AcDbSymbolTableRecord
100
AcDbDimStyleTableRecord
  2
ABECAD_3D
 70
     0
  3

  4

  5

  6

  7

 40
0.0
 41
0.1
 42
0.0625
 43
0.375
 44
0.18
 45
0.0
 46
0.0
 47
0.0
 48
0.0
140
0.1
141
0.09
142
0.0
143
25.4
144
1.0
145
0.0
146
1.0
147
0.09
 71
     0
 72
     0
 73
     0
 74
     1
 75
     0
 76
     0
 77
     0
 78
     4
170
     1
171
     2
172
     0
173
     0
174
     0
175
     0
176
     0
177
     0
178
     0
270
     7
271
     6
272
     6
273
     2
274
     2
340
11
275
     0
280
     0
281
     0
282
     0
283
     1
284
     4
285
     4
286
     4
287
     5
288
     1
  0
ENDTAB
  0
TABLE
  2
BLOCK_RECORD
  5
1
330
0
100
AcDbSymbolTable
 70
     3
  0
BLOCK_RECORD
  5
1F
102
{ACAD_XDICTIONARY
360
4957
102
}
330
1
100
AcDbSymbolTableRecord
100
AcDbBlockTableRecord
  2
*MODEL_SPACE
  0
BLOCK_RECORD
  5
DFCC
102
{ACAD_XDICTIONARY
360
EDBF
102
}
330
1
100
AcDbSymbolTableRecord
100
AcDbBlockTableRecord
  2
*PAPER_SPACE
  0
BLOCK_RECORD
  5
ECC5
330
1
100
AcDbSymbolTableRecord
100
AcDbBlockTableRecord
  2
*D0
  0
BLOCK_RECORD
  5
ECD2
330
1
100
AcDbSymbolTableRecord
100
AcDbBlockTableRecord
  2
*D1
  0
BLOCK_RECORD
  5
ECDF
330
1
100
AcDbSymbolTableRecord
100
AcDbBlockTableRecord
  2
*D2
  0
ENDTAB
  0
ENDSEC
  0
SECTION
  2
BLOCKS
  0
BLOCK
  5
20
330
1F
100
AcDbEntity
  8
0
100
AcDbBlockBegin
  2
*MODEL_SPACE
 70
     0
 10
0.0
 20
0.0
 30
0.0
  3
*MODEL_SPACE
  1

  0
ENDBLK
  5
21
330
1F
100
AcDbEntity
  8
0
100
AcDbBlockEnd
  0
BLOCK
  5
DFCE
330
DFCC
100
AcDbEntity
 67
     1
  8
0
100
AcDbBlockBegin
  2
*PAPER_SPACE
 70
     0
 10
0.0
 20
0.0
 30
0.0
  3
*PAPER_SPACE
  1

  0
ENDBLK
  5
DFCF
330
DFCC
100
AcDbEntity
 67
     1
  8
0
100
AcDbBlockEnd
  0
BLOCK
  5
ECD0
330
ECC5
100
AcDbEntity
  8
0
100
AcDbBlockBegin
  2
*D0
 70
     1
 10
0.0
 20
0.0
 30
0.0
  3
*D0
  1

  0
LINE
  5
ECEC
330
ECC5
100
AcDbEntity
  8
AREA1
 62
     0
100
AcDbLine
 10
-713.2276749718547
 20
184.6126025817924
 30
0.0
 11
-713.2276749718547
 21
185.9999900347437
 31
0.0
  0
LINE
  5
ECED
330
ECC5
100
AcDbEntity
  8
AREA1
 62
     0
100
AcDbLine
 10
-711.0760898959682
 20
184.6126025817924
 30
0.0
 11
-711.0760898959682
 21
185.9999900347437
 31
0.0
  0
LINE
  5
ECEE
330
ECC5
100
AcDbEntity
  8
AREA1
 62
     0
100
AcDbLine
 10
-713.1276749718547
 20
185.8199900347437
 30
0.0
 11
-712.8744631470623
 21
185.8199900347437
 31
0.0
  0
LINE
  5
ECEF
330
ECC5
100
AcDbEntity
  8
AREA1
 62
     0
100
AcDbLine
 10
-711.1760898959682
 20
185.8199900347437
 30
0.0
 11
-711.4611298137289
 21
185.8199900347437
 31
0.0
  0
MTEXT
  5
ECF0
330
ECC5
100
AcDbEntity
  8
AREA1
 62
     0
100
AcDbMText
 10
-712.1677964803956
 20
185.8199900347437
 30
0.0
 40
0.1
 41
0.0
 71
     5
 72
     1
  1
\A1;2 5/32 [54.65]
1001
ACAD
1000
MTEXTBEGIN
1070
    73
1070
     1
1070
    44
1040
1.0
1070
    74
1070
     0
1000
MTEXTEND
  0
SOLID
  5
ECF1
330
ECC5
100
AcDbEntity
  8
AREA1
 62
     0
100
AcDbTrace
 10
-713.1276749718547
 20
185.8366567014103
 30
0.0
 11
-713.1276749718547
 21
185.803323368077
 31
0.0
 12
-713.2276749718547
 22
185.8199900347437
 32
0.0
 13
-713.2276749718547
 23
185.8199900347437
 33
0.0
  0
SOLID
  5
ECF2
330
ECC5
100
AcDbEntity
  8
AREA1
 62
     0
100
AcDbTrace
 10
-711.1760898959682
 20
185.8366567014103
 30
0.0
 11
-711.1760898959682
 21
185.803323368077
 31
0.0
 12
-711.0760898959682
 22
185.8199900347437
 32
0.0
 13
-711.0760898959682
 23
185.8199900347437
 33
0.0
  0
POINT
  5
ECF3
330
ECC5
100
AcDbEntity
  8
DEFPOINTS
 62
     0
100
AcDbPoint
 10
-713.2276749718547
 20
184.5501025817924
 30
2.089995820000012
  0
POINT
  5
ECF4
330
ECC5
100
AcDbEntity
  8
DEFPOINTS
 62
     0
100
AcDbPoint
 10
-711.0760898959682
 20
184.5501025817924
 30
2.089995820000012
  0
POINT
  5
ECF5
330
ECC5
100
AcDbEntity
  8
DEFPOINTS
 62
     0
100
AcDbPoint
 10
-711.0760898959682
 20
185.8199900347437
 30
0.0
  0
ENDBLK
  5
ECD1
330
ECC5
100
AcDbEntity
  8
0
100
AcDbBlockEnd
  0
BLOCK
  5
ECDD
330
ECD2
100
AcDbEntity
  8
0
100
AcDbBlockBegin
  2
*D1
 70
     1
 10
0.0
 20
0.0
 30
0.0
  3
*D1
  1

  0
LINE
  5
ECF6
330
ECD2
100
AcDbEntity
  8
AREA1
 62
     0
100
AcDbLine
 10
-712.1953387506945
 20
183.3683537270659
 30
0.0
 11
-710.6044708053225
 21
183.3683537270659
 31
0.0
  0
LINE
  5
ECF7
330
ECD2
100
AcDbEntity
  8
AREA1
 62
     0
100
AcDbLine
 10
-712.1953368110183
 20
185.5199407426288
 30
0.0
 11
-710.6044708053225
 21
185.5199407426288
 31
0.0
  0
LINE
  5
ECF8
330
ECD2
100
AcDbEntity
  8
AREA1
 62
     0
100
AcDbLine
 10
-710.7844708053224
 20
183.4683537270659
 30
0.0
 11
-710.7844708053224
 21
183.7437178735545
 31
0.0
  0
LINE
  5
ECF9
330
ECD2
100
AcDbEntity
  8
AREA1
 62
     0
100
AcDbLine
 10
-710.7844708053224
 20
185.4199407426288
 30
0.0
 11
-710.7844708053224
 21
185.1570512068878
 31
0.0
  0
MTEXT
  5
ECFA
330
ECD2
100
AcDbEntity
  8
AREA1
 62
     0
100
AcDbMText
 10
-710.775664945981
 20
184.4503845402211
 30
0.0
 40
0.1
 41
0.0
 71
     5
 72
     1
  1
\A1;2 5/32 [54.65]
 11
0.0000000000000001
 21
1.0
 31
0.0
1001
ACAD
1000
MTEXTBEGIN
1070
    73
1070
     1
1070
    44
1040
1.0
1070
    74
1070
     0
1000
MTEXTEND
  0
SOLID
  5
ECFB
330
ECD2
100
AcDbEntity
  8
AREA1
 62
     0
100
AcDbTrace
 10
-710.8011374719891
 20
183.4683537270659
 30
0.0
 11
-710.7678041386558
 21
183.4683537270659
 31
0.0
 12
-710.7844708053224
 22
183.3683537270659
 32
0.0
 13
-710.7844708053224
 23
183.3683537270659
 33
0.0
  0
SOLID
  5
ECFC
330
ECD2
100
AcDbEntity
  8
AREA1
 62
     0
100
AcDbTrace
 10
-710.8011374719891
 20
185.4199407426288
 30
0.0
 11
-710.7678041386558
 21
185.4199407426288
 31
0.0
 12
-710.7844708053224
 22
185.5199407426288
 32
0.0
 13
-710.7844708053224
 23
185.5199407426288
 33
0.0
  0
POINT
  5
ECFD
330
ECD2
100
AcDbEntity
  8
DEFPOINTS
 62
     0
100
AcDbPoint
 10
-712.2578387506945
 20
183.3683537270659
 30
2.089995820000012
  0
POINT
  5
ECFE
330
ECD2
100
AcDbEntity
  8
DEFPOINTS
 62
     0
100
AcDbPoint
 10
-712.2578368110183
 20
185.5199407426288
 30
2.260926580499926
  0
POINT
  5
ECFF
330
ECD2
100
AcDbEntity
  8
DEFPOINTS
 62
     0
100
AcDbPoint
 10
-710.7844708053224
 20
185.5199407426288
 30
0.0
  0
ENDBLK
  5
ECDE
330
ECD2
100
AcDbEntity
  8
0
100
AcDbBlockEnd
  0
BLOCK
  5
ECEA
330
ECDF
100
AcDbEntity
  8
0
100
AcDbBlockBegin
  2
*D2
 70
     1
 10
0.0
 20
0.0
 30
0.0
  3
*D2
  1

  0
LINE
  5
ED00
330
ECDF
100
AcDbEntity
  8
AREA2
 62
     0
100
AcDbLine
 10
-712.0893824339113
 20
-1.030287666511579
 30
0.0
 11
-710.5690434562991
 21
-1.030287666511579
 31
0.0
  0
LINE
  5
ED01
330
ECDF
100
AcDbEntity
  8
AREA2
 62
     0
100
AcDbLine
 10
-711.8978828169113
 20
-3.500282726511553
 30
0.0
 11
-710.5690434562991
 21
-3.500282726511553
 31
0.0
  0
LINE
  5
ED02
330
ECDF
100
AcDbEntity
  8
AREA2
 62
     0
100
AcDbLine
 10
-710.7490434562991
 20
-1.130287666511579
 30
0.0
 11
-710.7490434562991
 21
-1.61319791269131
 31
0.0
  0
LINE
  5
ED03
330
ECDF
100
AcDbEntity
  8
AREA2
 62
     0
100
AcDbLine
 10
-710.7490434562991
 20
-3.400282726511553
 30
0.0
 11
-710.7490434562991
 21
-3.09319791269131
 31
0.0
  0
MTEXT
  5
ED04
330
ECDF
100
AcDbEntity
  8
AREA2
 62
     0
100
AcDbMText
 10
-710.7490434562991
 20
-2.353197912691424
 30
0.0
 40
0.1
 41
0.0
 71
     5
 72
     1
  1
\A1;2 15/32 [62.74]
 11
0.0000000000000001
 21
1.0
 31
0.0
1001
ACAD
1000
MTEXTBEGIN
1070
    73
1070
     1
1070
    44
1040
1.0
1070
    74
1070
     0
1000
MTEXTEND
  0
SOLID
  5
ED05
330
ECDF
100
AcDbEntity
  8
AREA2
 62
     0
100
AcDbTrace
 10
-710.7657101229657
 20
-1.130287666511579
 30
0.0
 11
-710.7323767896324
 21
-1.130287666511579
 31
0.0
 12
-710.7490434562991
 22
-1.030287666511579
 32
0.0
 13
-710.7490434562991
 23
-1.030287666511579
 33
0.0
  0
SOLID
  5
ED06
330
ECDF
100
AcDbEntity
  8
AREA2
 62
     0
100
AcDbTrace
 10
-710.7657101229657
 20
-3.400282726511553
 30
0.0
 11
-710.7323767896324
 21
-3.400282726511553
 31
0.0
 12
-710.7490434562991
 22
-3.500282726511553
 32
0.0
 13
-710.7490434562991
 23
-3.500282726511553
 33
0.0
  0
POINT
  5
ED07
330
ECDF
100
AcDbEntity
  8
DEFPOINTS
 62
     0
100
AcDbPoint
 10
-712.1518824339112
 20
-1.030287666511579
 30
1.070612302828976
  0
POINT
  5
ED08
330
ECDF
100
AcDbEntity
  8
DEFPOINTS
 62
     0
100
AcDbPoint
 10
-711.9603828169114
 20
-3.500282726511553
 30
0.9296125848291012
  0
POINT
  5
ED09
330
ECDF
100
AcDbEntity
  8
DEFPOINTS
 62
     0
100
AcDbPoint
 10
-710.7490434562991
 20
-3.500282726511553
 30
0.0
  0
ENDBLK
  5
ECEB
330
ECDF
100
AcDbEntity
  8
0
100
AcDbBlockEnd
  0
ENDSEC
  0
SECTION
  2
ENTITIES
  0
CIRCLE
  5
EBCE
330
1F
100
AcDbEntity
  8
0
100
AcDbCircle
 10
-712.151880282322
 20
185.0301460530962
 30
-3.330287246511623
 40
0.071
  0
CIRCLE
  5
EBCF
330
1F
100
AcDbEntity
  8
0
100
AcDbCircle
 10
-712.151880282322
 20
183.8581460530962
 30
-3.330287246511623
 40
0.071
  0
POLYLINE
  5
EBD0
330
1F
100
AcDbEntity
  8
0
100
AcDbPolygonMesh
 66
     1
 10
0.0
 20
0.0
 30
0.0
 70
    16
 71
     6
 72
     3
  0
VERTEX
  5
EBD1
330
EBD0
100
AcDbEntity
  8
0
100
AcDbVertex
100
AcDbPolygonMeshVertex
 10
-711.092880282322
 20
183.6356460530962
 30
-2.844287246511624
 70
    64
  0
VERTEX
  5
EBD2
330
EBD0
100
AcDbEntity
  8
0
100
AcDbVertex
100
AcDbPolygonMeshVertex
 10
-711.092880282322
 20
183.6356460530962
 30
-3.330287246511623
 70
    64
  0
VERTEX
  5
EBD3
330
EBD0
100
AcDbEntity
  8
0
100
AcDbVertex
100
AcDbPolygonMeshVertex
 10
-711.092880282322
 20
183.6356460530962
 30
-3.330287246511623
 70
    64
  0
VERTEX
  5
EBD4
330
EBD0
100
AcDbEntity
  8
0
100
AcDbVertex
100
AcDbPolygonMeshVertex
 10
-713.2108802823221
 20
183.6356460530962
 30
-2.844287246511624
 70
    64
  0
VERTEX
  5
EBD5
330
EBD0
100
AcDbEntity
  8
0
100
AcDbVertex
100
AcDbPolygonMeshVertex
 10
-713.2108802823221
 20
183.6356460530962
 30
-3.330287246511623
 70
    64
  0
VERTEX
  5
EBD6
330
EBD0
100
AcDbEntity
  8
0
100
AcDbVertex
100
AcDbPolygonMeshVertex
 10
-713.2108802823221
 20
183.6356460530962
 30
-3.330287246511623
 70
    64
  0
VERTEX
  5
EBD7
330
EBD0
100
AcDbEntity
  8
0
100
AcDbVertex
100
AcDbPolygonMeshVertex
 10
-713.2108802823221
 20
185.2526460530962
 30
-2.844287246511624
 70
    64
  0
VERTEX
  5
EBD8
330
EBD0
100
AcDbEntity
  8
0
100
AcDbVertex
100
AcDbPolygonMeshVertex
 10
-713.2108802823221
 20
185.2526460530962
 30
-3.330287246511623
 70
    64
  0
VERTEX
  5
EBD9
330
EBD0
100
AcDbEntity
  8
0
100
AcDbVertex
100
AcDbPolygonMeshVertex
 10
-713.2108802823221
 20
183.6356460530962
 30
-3.330287246511623
 70
    64
  0
VERTEX
  5
EBDA
330
EBD0
100
AcDbEntity
  8
0
100
AcDbVertex
100
AcDbPolygonMeshVertex
 10
-711.092880282322
 20
185.2526460530962
 30
-2.844287246511624
 70
    64
  0
VERTEX
  5
EBDB
330
EBD0
100
AcDbEntity
  8
0
100
AcDbVertex
100
AcDbPolygonMeshVertex
 10
-711.092880282322
 20
185.2526460530962
 30
-3.330287246511623
 70
    64
  0
VERTEX
  5
EBDC
330
EBD0
100
AcDbEntity
  8
0
100
AcDbVertex
100
AcDbPolygonMeshVertex
 10
-711.092880282322
 20
183.6356460530962
 30
-3.330287246511623
 70
    64
  0
VERTEX
  5
EBDD
330
EBD0
100
AcDbEntity
  8
0
100
AcDbVertex
100
AcDbPolygonMeshVertex
 10
-711.092880282322
 20
185.2526460530962
 30
-2.844287246511624
 70
    64
  0
VERTEX
  5
EBDE
330
EBD0
100
AcDbEntity
  8
0
100
AcDbVertex
100
AcDbPolygonMeshVertex
 10
-711.092880282322
 20
185.2526460530962
 30
-2.844287246511624
 70
    64
  0
VERTEX
  5
EBDF
330
EBD0
100
AcDbEntity
  8
0
100
AcDbVertex
100
AcDbPolygonMeshVertex
 10
-711.092880282322
 20
183.6356460530962
 30
-2.844287246511624
 70
    64
  0
VERTEX
  5
EBE0
330
EBD0
100
AcDbEntity
  8
0
100
AcDbVertex
100
AcDbPolygonMeshVertex
 10
-713.2108802823221
 20
185.2526460530962
 30
-2.844287246511624
 70
    64
  0
VERTEX
  5
EBE1
330
EBD0
100
AcDbEntity
  8
0
100
AcDbVertex
100
AcDbPolygonMeshVertex
 10
-713.2108802823221
 20
185.2526460530962
 30
-2.844287246511624
 70
    64
  0
VERTEX
  5
EBE2
330
EBD0
100
AcDbEntity
  8
0
100
AcDbVertex
100
AcDbPolygonMeshVertex
 10
-713.2108802823221
 20
183.6356460530962
 30
-2.844287246511624
 70
    64
  0
SEQEND
  5
EBE3
330
EBD0
100
AcDbEntity
  8
0
  0
POLYLINE
  5
EBE4
330
1F
100
AcDbEntity
  8
0
100
AcDbPolygonMesh
 66
     1
 10
0.0
 20
0.0
 30
0.0
 70
    16
 71
     6
 72
     3
  0
VERTEX
  5
EBE5
330
EBE4
100
AcDbEntity
  8
0
100
AcDbVertex
100
AcDbPolygonMeshVertex
 10
-711.3443802823221
 20
183.6366460530961
 30
-2.689287246511623
 70
    64
  0
VERTEX
  5
EBE6
330
EBE4
100
AcDbEntity
  8
0
100
AcDbVertex
100
AcDbPolygonMeshVertex
 10
-711.3443802823221
 20
183.6366460530961
 30
-2.844287246511624
 70
    64
  0
VERTEX
  5
EBE7
330
EBE4
100
AcDbEntity
  8
0
100
AcDbVertex
100
AcDbPolygonMeshVertex
 10
-711.3443802823221
 20
183.6366460530961
 30
-2.844287246511624
 70
    64
  0
VERTEX
  5
EBE8
330
EBE4
100
AcDbEntity
  8
0
100
AcDbVertex
100
AcDbPolygonMeshVertex
 10
-712.9593802823221
 20
183.6366460530961
 30
-2.689287246511623
 70
    64
  0
VERTEX
  5
EBE9
330
EBE4
100
AcDbEntity
  8
0
100
AcDbVertex
100
AcDbPolygonMeshVertex
 10
-712.9593802823221
 20
183.6366460530961
 30
-2.844287246511624
 70
    64
  0
VERTEX
  5
EBEA
330
EBE4
100
AcDbEntity
  8
0
100
AcDbVertex
100
AcDbPolygonMeshVertex
 10
-712.9593802823221
 20
183.6366460530961
 30
-2.844287246511624
 70
    64
  0
VERTEX
  5
EBEB
330
EBE4
100
AcDbEntity
  8
0
100
AcDbVertex
100
AcDbPolygonMeshVertex
 10
-712.9593802823221
 20
185.2516460530962
 30
-2.689287246511623
 70
    64
  0
VERTEX
  5
EBEC
330
EBE4
100
AcDbEntity
  8
0
100
AcDbVertex
100
AcDbPolygonMeshVertex
 10
-712.9593802823221
 20
185.2516460530962
 30
-2.844287246511624
 70
    64
  0
VERTEX
  5
EBED
330
EBE4
100
AcDbEntity
  8
0
100
AcDbVertex
100
AcDbPolygonMeshVertex
 10
-712.9593802823221
 20
183.6366460530961
 30
-2.844287246511624
 70
    64
  0
VERTEX
  5
EBEE
330
EBE4
100
AcDbEntity
  8
0
100
AcDbVertex
100
AcDbPolygonMeshVertex
 10
-711.3443802823221
 20
185.2516460530962
 30
-2.689287246511623
 70
    64
  0
VERTEX
  5
EBEF
330
EBE4
100
AcDbEntity
  8
0
100
AcDbVertex
100
AcDbPolygonMeshVertex
 10
-711.3443802823221
 20
185.2516460530962
 30
-2.844287246511624
 70
    64
  0
VERTEX
  5
EBF0
330
EBE4
100
AcDbEntity
  8
0
100
AcDbVertex
100
AcDbPolygonMeshVertex
 10
-711.3443802823221
 20
183.6366460530961
 30
-2.844287246511624
 70
    64
  0
VERTEX
  5
EBF1
330
EBE4
100
AcDbEntity
  8
0
100
AcDbVertex
100
AcDbPolygonMeshVertex
 10
-711.3443802823221
 20
185.2516460530962
 30
-2.689287246511623
 70
    64
  0
VERTEX
  5
EBF2
330
EBE4
100
AcDbEntity
  8
0
100
AcDbVertex
100
AcDbPolygonMeshVertex
 10
-711.3443802823221
 20
185.2516460530962
 30
-2.689287246511623
 70
    64
  0
VERTEX
  5
EBF3
330
EBE4
100
AcDbEntity
  8
0
100
AcDbVertex
100
AcDbPolygonMeshVertex
 10
-711.3443802823221
 20
183.6366460530961
 30
-2.689287246511623
 70
    64
  0
VERTEX
  5
EBF4
330
EBE4
100
AcDbEntity
  8
0
100
AcDbVertex
100
AcDbPolygonMeshVertex
 10
-712.9593802823221
 20
185.2516460530962
 30
-2.689287246511623
 70
    64
  0
VERTEX
  5
EBF5
330
EBE4
100
AcDbEntity
  8
0
100
AcDbVertex
100
AcDbPolygonMeshVertex
 10
-712.9593802823221
 20
185.2516460530962
 30
-2.689287246511623
 70
    64
  0
VERTEX
  5
EBF6
330
EBE4
100
AcDbEntity
  8
0
100
AcDbVertex
100
AcDbPolygonMeshVertex
 10
-712.9593802823221
 20
183.6366460530961
 30
-2.689287246511623
 70
    64
  0
SEQEND
  5
EBF7
330
EBE4
100
AcDbEntity
  8
0
  0
POINT
  5
EBF8
330
1F
100
AcDbEntity
  8
SNAP_POINTS
100
AcDbPoint
 10
-712.151880282322
 20
184.4441460530962
 30
-2.510287246511623
  0
3DFACE
  5
EBF9
330
1F
100
AcDbEntity
  8
0
100
AcDbFace
 10
-712.8368802823221
 20
184.1604097628706
 30
-2.400287246511624
 11
-712.8368802823221
 21
184.1604097628706
 31
-2.141287246511623
 12
-712.4356165725477
 22
183.7591460530962
 32
-2.141287246511623
 13
-712.4356165725477
 23
183.7591460530962
 33
-2.400287246511624
  0
3DFACE
  5
EBFA
330
1F
100
AcDbEntity
  8
0
100
AcDbFace
 10
-712.4356165725477
 20
183.7591460530962
 30
-2.400287246511624
 11
-712.4356165725477
 21
183.7591460530962
 31
-2.141287246511623
 12
-711.8681439920965
 22
183.7591460530962
 32
-2.141287246511623
 13
-711.8681439920965
 23
183.7591460530962
 33
-2.400287246511624
  0
3DFACE
  5
EBFB
330
1F
100
AcDbEntity
  8
0
100
AcDbFace
 10
-711.8681439920965
 20
183.7591460530962
 30
-2.400287246511624
 11
-711.8681439920965
 21
183.7591460530962
 31
-2.141287246511623
 12
-711.4668802823221
 22
184.1604097628706
 32
-2.141287246511623
 13
-711.4668802823221
 23
184.1604097628706
 33
-2.400287246511624
  0
3DFACE
  5
EBFC
330
1F
100
AcDbEntity
  8
0
100
AcDbFace
 10
-712.4356165725477
 20
185.1291460530962
 30
-2.400287246511624
 11
-712.4356165725477
 21
185.1291460530962
 31
-2.141287246511623
 12
-712.8368802823221
 22
184.7278823433217
 32
-2.141287246511623
 13
-712.8368802823221
 23
184.7278823433217
 33
-2.400287246511624
  0
3DFACE
  5
EBFD
330
1F
100
AcDbEntity
  8
0
100
AcDbFace
 10
-712.8368802823221
 20
184.7278823433217
 30
-2.400287246511624
 11
-712.8368802823221
 21
184.7278823433217
 31
-2.141287246511623
 12
-712.8368802823221
 22
184.1604097628706
 32
-2.141287246511623
 13
-712.8368802823221
 23
184.1604097628706
 33
-2.400287246511624
  0
3DFACE
  5
EBFE
330
1F
100
AcDbEntity
  8
0
100
AcDbFace
 10
-712.8368802823221
 20
184.7278823433217
 30
-2.141287246511623
 11
-711.4668802823221
 21
184.7278823433217
 31
-2.141287246511623
 12
-711.4668802823221
 22
184.1604097628706
 32
-2.141287246511623
 13
-712.8368802823221
 23
184.1604097628706
 33
-2.141287246511623
 70
    15
  0
3DFACE
  5
EBFF
330
1F
100
AcDbEntity
  8
0
100
AcDbFace
 10
-712.8368802823221
 20
184.1604097628706
 30
-2.141287246511623
 11
-711.4668802823221
 21
184.1604097628706
 31
-2.141287246511623
 12
-711.8681439920965
 22
183.7591460530962
 32
-2.141287246511623
 13
-712.4356165725477
 23
183.7591460530962
 33
-2.141287246511623
 70
    15
  0
3DFACE
  5
EC00
330
1F
100
AcDbEntity
  8
0
100
AcDbFace
 10
-711.4668802823221
 20
184.7278823433217
 30
-2.141287246511623
 11
-712.8368802823221
 21
184.7278823433217
 31
-2.141287246511623
 12
-712.4356165725477
 22
185.1291460530962
 32
-2.141287246511623
 13
-711.8681439920965
 23
185.1291460530962
 33
-2.141287246511623
 70
    15
  0
POLYLINE
  5
EC01
330
1F
100
AcDbEntity
  8
0
100
AcDbPolygonMesh
 66
     1
 10
0.0
 20
0.0
 30
0.0
 70
    16
 71
     6
 72
     3
  0
VERTEX
  5
EC02
330
EC01
100
AcDbEntity
  8
0
100
AcDbVertex
100
AcDbPolygonMeshVertex
 10
-712.760880282322
 20
183.6356460530962
 30
-3.330287246511623
 70
    64
  0
VERTEX
  5
EC03
330
EC01
100
AcDbEntity
  8
0
100
AcDbVertex
100
AcDbPolygonMeshVertex
 10
-712.760880282322
 20
183.6356460530962
 30
-3.467287246511624
 70
    64
  0
VERTEX
  5
EC04
330
EC01
100
AcDbEntity
  8
0
100
AcDbVertex
100
AcDbPolygonMeshVertex
 10
-712.760880282322
 20
183.6356460530962
 30
-3.467287246511624
 70
    64
  0
VERTEX
  5
EC05
330
EC01
100
AcDbEntity
  8
0
100
AcDbVertex
100
AcDbPolygonMeshVertex
 10
-712.9308802823222
 20
183.6356460530962
 30
-3.330287246511623
 70
    64
  0
VERTEX
  5
EC06
330
EC01
100
AcDbEntity
  8
0
100
AcDbVertex
100
AcDbPolygonMeshVertex
 10
-712.9308802823222
 20
183.6356460530962
 30
-3.467287246511624
 70
    64
  0
VERTEX
  5
EC07
330
EC01
100
AcDbEntity
  8
0
100
AcDbVertex
100
AcDbPolygonMeshVertex
 10
-712.9308802823222
 20
183.6356460530962
 30
-3.467287246511624
 70
    64
  0
VERTEX
  5
EC08
330
EC01
100
AcDbEntity
  8
0
100
AcDbVertex
100
AcDbPolygonMeshVertex
 10
-712.9308802823222
 20
183.7376460530962
 30
-3.330287246511623
 70
    64
  0
VERTEX
  5
EC09
330
EC01
100
AcDbEntity
  8
0
100
AcDbVertex
100
AcDbPolygonMeshVertex
 10
-712.9308802823222
 20
183.7376460530962
 30
-3.467287246511624
 70
    64
  0
VERTEX
  5
EC0A
330
EC01
100
AcDbEntity
  8
0
100
AcDbVertex
100
AcDbPolygonMeshVertex
 10
-712.9308802823222
 20
183.6356460530962
 30
-3.467287246511624
 70
    64
  0
VERTEX
  5
EC0B
330
EC01
100
AcDbEntity
  8
0
100
AcDbVertex
100
AcDbPolygonMeshVertex
 10
-712.760880282322
 20
183.7376460530962
 30
-3.330287246511623
 70
    64
  0
VERTEX
  5
EC0C
330
EC01
100
AcDbEntity
  8
0
100
AcDbVertex
100
AcDbPolygonMeshVertex
 10
-712.760880282322
 20
183.7376460530962
 30
-3.467287246511624
 70
    64
  0
VERTEX
  5
EC0D
330
EC01
100
AcDbEntity
  8
0
100
AcDbVertex
100
AcDbPolygonMeshVertex
 10
-712.760880282322
 20
183.6356460530962
 30
-3.467287246511624
 70
    64
  0
VERTEX
  5
EC0E
330
EC01
100
AcDbEntity
  8
0
100
AcDbVertex
100
AcDbPolygonMeshVertex
 10
-712.760880282322
 20
183.7376460530962
 30
-3.330287246511623
 70
    64
  0
VERTEX
  5
EC0F
330
EC01
100
AcDbEntity
  8
0
100
AcDbVertex
100
AcDbPolygonMeshVertex
 10
-712.760880282322
 20
183.7376460530962
 30
-3.330287246511623
 70
    64
  0
VERTEX
  5
EC10
330
EC01
100
AcDbEntity
  8
0
100
AcDbVertex
100
AcDbPolygonMeshVertex
 10
-712.760880282322
 20
183.6356460530962
 30
-3.330287246511623
 70
    64
  0
VERTEX
  5
EC11
330
EC01
100
AcDbEntity
  8
0
100
AcDbVertex
100
AcDbPolygonMeshVertex
 10
-712.9308802823222
 20
183.7376460530962
 30
-3.330287246511623
 70
    64
  0
VERTEX
  5
EC12
330
EC01
100
AcDbEntity
  8
0
100
AcDbVertex
100
AcDbPolygonMeshVertex
 10
-712.9308802823222
 20
183.7376460530962
 30
-3.330287246511623
 70
    64
  0
VERTEX
  5
EC13
330
EC01
100
AcDbEntity
  8
0
100
AcDbVertex
100
AcDbPolygonMeshVertex
 10
-712.9308802823222
 20
183.6356460530962
 30
-3.330287246511623
 70
    64
  0
SEQEND
  5
EC14
330
EC01
100
AcDbEntity
  8
0
  0
POLYLINE
  5
EC15
330
1F
100
AcDbEntity
  8
0
100
AcDbPolygonMesh
 66
     1
 10
0.0
 20
0.0
 30
0.0
 70
    16
 71
     6
 72
     3
  0
VERTEX
  5
EC16
330
EC15
100
AcDbEntity
  8
0
100
AcDbVertex
100
AcDbPolygonMeshVertex
 10
-712.760880282322
 20
185.2526460530962
 30
-3.330287246511623
 70
    64
  0
VERTEX
  5
EC17
330
EC15
100
AcDbEntity
  8
0
100
AcDbVertex
100
AcDbPolygonMeshVertex
 10
-712.760880282322
 20
185.2526460530962
 30
-3.467287246511624
 70
    64
  0
VERTEX
  5
EC18
330
EC15
100
AcDbEntity
  8
0
100
AcDbVertex
100
AcDbPolygonMeshVertex
 10
-712.760880282322
 20
185.2526460530962
 30
-3.467287246511624
 70
    64
  0
VERTEX
  5
EC19
330
EC15
100
AcDbEntity
  8
0
100
AcDbVertex
100
AcDbPolygonMeshVertex
 10
-712.9308802823222
 20
185.2526460530962
 30
-3.330287246511623
 70
    64
  0
VERTEX
  5
EC1A
330
EC15
100
AcDbEntity
  8
0
100
AcDbVertex
100
AcDbPolygonMeshVertex
 10
-712.9308802823222
 20
185.2526460530962
 30
-3.467287246511624
 70
    64
  0
VERTEX
  5
EC1B
330
EC15
100
AcDbEntity
  8
0
100
AcDbVertex
100
AcDbPolygonMeshVertex
 10
-712.9308802823222
 20
185.2526460530962
 30
-3.467287246511624
 70
    64
  0
VERTEX
  5
EC1C
330
EC15
100
AcDbEntity
  8
0
100
AcDbVertex
100
AcDbPolygonMeshVertex
 10
-712.9308802823222
 20
185.1506460530962
 30
-3.330287246511623
 70
    64
  0
VERTEX
  5
EC1D
330
EC15
100
AcDbEntity
  8
0
100
AcDbVertex
100
AcDbPolygonMeshVertex
 10
-712.9308802823222
 20
185.1506460530962
 30
-3.467287246511624
 70
    64
  0
VERTEX
  5
EC1E
330
EC15
100
AcDbEntity
  8
0
100
AcDbVertex
100
AcDbPolygonMeshVertex
 10
-712.9308802823222
 20
185.2526460530962
 30
-3.467287246511624
 70
    64
  0
VERTEX
  5
EC1F
330
EC15
100
AcDbEntity
  8
0
100
AcDbVertex
100
AcDbPolygonMeshVertex
 10
-712.760880282322
 20
185.1506460530962
 30
-3.330287246511623
 70
    64
  0
VERTEX
  5
EC20
330
EC15
100
AcDbEntity
  8
0
100
AcDbVertex
100
AcDbPolygonMeshVertex
 10
-712.760880282322
 20
185.1506460530962
 30
-3.467287246511624
 70
    64
  0
VERTEX
  5
EC21
330
EC15
100
AcDbEntity
  8
0
100
AcDbVertex
100
AcDbPolygonMeshVertex
 10
-712.760880282322
 20
185.2526460530962
 30
-3.467287246511624
 70
    64
  0
VERTEX
  5
EC22
330
EC15
100
AcDbEntity
  8
0
100
AcDbVertex
100
AcDbPolygonMeshVertex
 10
-712.760880282322
 20
185.1506460530962
 30
-3.330287246511623
 70
    64
  0
VERTEX
  5
EC23
330
EC15
100
AcDbEntity
  8
0
100
AcDbVertex
100
AcDbPolygonMeshVertex
 10
-712.760880282322
 20
185.1506460530962
 30
-3.330287246511623
 70
    64
  0
VERTEX
  5
EC24
330
EC15
100
AcDbEntity
  8
0
100
AcDbVertex
100
AcDbPolygonMeshVertex
 10
-712.760880282322
 20
185.2526460530962
 30
-3.330287246511623
 70
    64
  0
VERTEX
  5
EC25
330
EC15
100
AcDbEntity
  8
0
100
AcDbVertex
100
AcDbPolygonMeshVertex
 10
-712.9308802823222
 20
185.1506460530962
 30
-3.330287246511623
 70
    64
  0
VERTEX
  5
EC26
330
EC15
100
AcDbEntity
  8
0
100
AcDbVertex
100
AcDbPolygonMeshVertex
 10
-712.9308802823222
 20
185.1506460530962
 30
-3.330287246511623
 70
    64
  0
VERTEX
  5
EC27
330
EC15
100
AcDbEntity
  8
0
100
AcDbVertex
100
AcDbPolygonMeshVertex
 10
-712.9308802823222
 20
185.2526460530962
 30
-3.330287246511623
 70
    64
  0
SEQEND
  5
EC28
330
EC15
100
AcDbEntity
  8
0
  0
POLYLINE
  5
EC29
330
1F
100
AcDbEntity
  8
0
100
AcDbPolygonMesh
 66
     1
 10
0.0
 20
0.0
 30
0.0
 70
    16
 71
     6
 72
     3
  0
VERTEX
  5
EC2A
330
EC29
100
AcDbEntity
  8
0
100
AcDbVertex
100
AcDbPolygonMeshVertex
 10
-711.9603802823221
 20
184.3031460530962
 30
-3.330287246511623
 70
    64
  0
VERTEX
  5
EC2B
330
EC29
100
AcDbEntity
  8
0
100
AcDbVertex
100
AcDbPolygonMeshVertex
 10
-711.9603802823221
 20
184.3031460530962
 30
-3.500287246511624
 70
    64
  0
VERTEX
  5
EC2C
330
EC29
100
AcDbEntity
  8
0
100
AcDbVertex
100
AcDbPolygonMeshVertex
 10
-711.9603802823221
 20
184.3031460530962
 30
-3.500287246511624
 70
    64
  0
VERTEX
  5
EC2D
330
EC29
100
AcDbEntity
  8
0
100
AcDbVertex
100
AcDbPolygonMeshVertex
 10
-712.343380282322
 20
184.3031460530962
 30
-3.330287246511623
 70
    64
  0
VERTEX
  5
EC2E
330
EC29
100
AcDbEntity
  8
0
100
AcDbVertex
100
AcDbPolygonMeshVertex
 10
-712.343380282322
 20
184.3031460530962
 30
-3.500287246511624
 70
    64
  0
VERTEX
  5
EC2F
330
EC29
100
AcDbEntity
  8
0
100
AcDbVertex
100
AcDbPolygonMeshVertex
 10
-712.343380282322
 20
184.3031460530962
 30
-3.500287246511624
 70
    64
  0
VERTEX
  5
EC30
330
EC29
100
AcDbEntity
  8
0
100
AcDbVertex
100
AcDbPolygonMeshVertex
 10
-712.343380282322
 20
184.5851460530962
 30
-3.330287246511623
 70
    64
  0
VERTEX
  5
EC31
330
EC29
100
AcDbEntity
  8
0
100
AcDbVertex
100
AcDbPolygonMeshVertex
 10
-712.343380282322
 20
184.5851460530962
 30
-3.500287246511624
 70
    64
  0
VERTEX
  5
EC32
330
EC29
100
AcDbEntity
  8
0
100
AcDbVertex
100
AcDbPolygonMeshVertex
 10
-712.343380282322
 20
184.3031460530962
 30
-3.500287246511624
 70
    64
  0
VERTEX
  5
EC33
330
EC29
100
AcDbEntity
  8
0
100
AcDbVertex
100
AcDbPolygonMeshVertex
 10
-711.9603802823221
 20
184.5851460530962
 30
-3.330287246511623
 70
    64
  0
VERTEX
  5
EC34
330
EC29
100
AcDbEntity
  8
0
100
AcDbVertex
100
AcDbPolygonMeshVertex
 10
-711.9603802823221
 20
184.5851460530962
 30
-3.500287246511624
 70
    64
  0
VERTEX
  5
EC35
330
EC29
100
AcDbEntity
  8
0
100
AcDbVertex
100
AcDbPolygonMeshVertex
 10
-711.9603802823221
 20
184.3031460530962
 30
-3.500287246511624
 70
    64
  0
VERTEX
  5
EC36
330
EC29
100
AcDbEntity
  8
0
100
AcDbVertex
100
AcDbPolygonMeshVertex
 10
-711.9603802823221
 20
184.5851460530962
 30
-3.330287246511623
 70
    64
  0
VERTEX
  5
EC37
330
EC29
100
AcDbEntity
  8
0
100
AcDbVertex
100
AcDbPolygonMeshVertex
 10
-711.9603802823221
 20
184.5851460530962
 30
-3.330287246511623
 70
    64
  0
VERTEX
  5
EC38
330
EC29
100
AcDbEntity
  8
0
100
AcDbVertex
100
AcDbPolygonMeshVertex
 10
-711.9603802823221
 20
184.3031460530962
 30
-3.330287246511623
 70
    64
  0
VERTEX
  5
EC39
330
EC29
100
AcDbEntity
  8
0
100
AcDbVertex
100
AcDbPolygonMeshVertex
 10
-712.343380282322
 20
184.5851460530962
 30
-3.330287246511623
 70
    64
  0
VERTEX
  5
EC3A
330
EC29
100
AcDbEntity
  8
0
100
AcDbVertex
100
AcDbPolygonMeshVertex
 10
-712.343380282322
 20
184.5851460530962
 30
-3.330287246511623
 70
    64
  0
VERTEX
  5
EC3B
330
EC29
100
AcDbEntity
  8
0
100
AcDbVertex
100
AcDbPolygonMeshVertex
 10
-712.343380282322
 20
184.3031460530962
 30
-3.330287246511623
 70
    64
  0
SEQEND
  5
EC3C
330
EC29
100
AcDbEntity
  8
0
  0
POLYLINE
  5
EC3D
330
1F
100
AcDbEntity
  8
0
100
AcDbPolygonMesh
 66
     1
 10
0.0
 20
0.0
 30
0.0
 70
    16
 71
     6
 72
     3
  0
VERTEX
  5
EC3E
330
EC3D
100
AcDbEntity
  8
0
100
AcDbVertex
100
AcDbPolygonMeshVertex
 10
-712.4103802823221
 20
184.3841460530962
 30
-3.330287246511623
 70
    64
  0
VERTEX
  5
EC3F
330
EC3D
100
AcDbEntity
  8
0
100
AcDbVertex
100
AcDbPolygonMeshVertex
 10
-712.4103802823221
 20
184.3841460530962
 30
-3.415287246511623
 70
    64
  0
VERTEX
  5
EC40
330
EC3D
100
AcDbEntity
  8
0
100
AcDbVertex
100
AcDbPolygonMeshVertex
 10
-712.4103802823221
 20
184.3841460530962
 30
-3.415287246511623
 70
    64
  0
VERTEX
  5
EC41
330
EC3D
100
AcDbEntity
  8
0
100
AcDbVertex
100
AcDbPolygonMeshVertex
 10
-712.5573802823221
 20
184.3841460530962
 30
-3.330287246511623
 70
    64
  0
VERTEX
  5
EC42
330
EC3D
100
AcDbEntity
  8
0
100
AcDbVertex
100
AcDbPolygonMeshVertex
 10
-712.5573802823221
 20
184.3841460530962
 30
-3.415287246511623
 70
    64
  0
VERTEX
  5
EC43
330
EC3D
100
AcDbEntity
  8
0
100
AcDbVertex
100
AcDbPolygonMeshVertex
 10
-712.5573802823221
 20
184.3841460530962
 30
-3.415287246511623
 70
    64
  0
VERTEX
  5
EC44
330
EC3D
100
AcDbEntity
  8
0
100
AcDbVertex
100
AcDbPolygonMeshVertex
 10
-712.5573802823221
 20
184.5041460530962
 30
-3.330287246511623
 70
    64
  0
VERTEX
  5
EC45
330
EC3D
100
AcDbEntity
  8
0
100
AcDbVertex
100
AcDbPolygonMeshVertex
 10
-712.5573802823221
 20
184.5041460530962
 30
-3.415287246511623
 70
    64
  0
VERTEX
  5
EC46
330
EC3D
100
AcDbEntity
  8
0
100
AcDbVertex
100
AcDbPolygonMeshVertex
 10
-712.5573802823221
 20
184.3841460530962
 30
-3.415287246511623
 70
    64
  0
VERTEX
  5
EC47
330
EC3D
100
AcDbEntity
  8
0
100
AcDbVertex
100
AcDbPolygonMeshVertex
 10
-712.4103802823221
 20
184.5041460530962
 30
-3.330287246511623
 70
    64
  0
VERTEX
  5
EC48
330
EC3D
100
AcDbEntity
  8
0
100
AcDbVertex
100
AcDbPolygonMeshVertex
 10
-712.4103802823221
 20
184.5041460530962
 30
-3.415287246511623
 70
    64
  0
VERTEX
  5
EC49
330
EC3D
100
AcDbEntity
  8
0
100
AcDbVertex
100
AcDbPolygonMeshVertex
 10
-712.4103802823221
 20
184.3841460530962
 30
-3.415287246511623
 70
    64
  0
VERTEX
  5
EC4A
330
EC3D
100
AcDbEntity
  8
0
100
AcDbVertex
100
AcDbPolygonMeshVertex
 10
-712.4103802823221
 20
184.5041460530962
 30
-3.330287246511623
 70
    64
  0
VERTEX
  5
EC4B
330
EC3D
100
AcDbEntity
  8
0
100
AcDbVertex
100
AcDbPolygonMeshVertex
 10
-712.4103802823221
 20
184.5041460530962
 30
-3.330287246511623
 70
    64
  0
VERTEX
  5
EC4C
330
EC3D
100
AcDbEntity
  8
0
100
AcDbVertex
100
AcDbPolygonMeshVertex
 10
-712.4103802823221
 20
184.3841460530962
 30
-3.330287246511623
 70
    64
  0
VERTEX
  5
EC4D
330
EC3D
100
AcDbEntity
  8
0
100
AcDbVertex
100
AcDbPolygonMeshVertex
 10
-712.5573802823221
 20
184.5041460530962
 30
-3.330287246511623
 70
    64
  0
VERTEX
  5
EC4E
330
EC3D
100
AcDbEntity
  8
0
100
AcDbVertex
100
AcDbPolygonMeshVertex
 10
-712.5573802823221
 20
184.5041460530962
 30
-3.330287246511623
 70
    64
  0
VERTEX
  5
EC4F
330
EC3D
100
AcDbEntity
  8
0
100
AcDbVertex
100
AcDbPolygonMeshVertex
 10
-712.5573802823221
 20
184.3841460530962
 30
-3.330287246511623
 70
    64
  0
SEQEND
  5
EC50
330
EC3D
100
AcDbEntity
  8
0
  0
POLYLINE
  5
EC58
330
1F
100
AcDbEntity
  8
0
100
AcDbPolygonMesh
 66
     1
 10
0.0
 20
0.0
 30
0.0
 70
    48
 71
     2
 72
    32
  0
VERTEX
  5
EC59
330
EC58
100
AcDbEntity
  8
0
100
AcDbVertex
100
AcDbPolygonMeshVertex
 10
-711.0812658382641
 20
184.5495923721459
 30
-1.140287246511623
 70
    64
  0
VERTEX
  5
EC5A
330
EC58
100
AcDbEntity
  8
0
100
AcDbVertex
100
AcDbPolygonMeshVertex
 10
-711.1224089509418
 20
184.7564327673392
 30
-1.140287246511623
 70
    64
  0
VERTEX
  5
EC5B
330
EC58
100
AcDbEntity
  8
0
100
AcDbVertex
100
AcDbPolygonMeshVertex
 10
-711.2031140695502
 20
184.9512721592366
 30
-1.140287246511623
 70
    64
  0
VERTEX
  5
EC5C
330
EC58
100
AcDbEntity
  8
0
100
AcDbVertex
100
AcDbPolygonMeshVertex
 10
-711.3202797416412
 20
185.1266229792746
 30
-1.140287246511623
 70
    64
  0
VERTEX
  5
EC5D
330
EC58
100
AcDbEntity
  8
0
100
AcDbVertex
100
AcDbPolygonMeshVertex
 10
-711.4694033561436
 20
185.275746593777
 30
-1.140287246511623
 70
    64
  0
VERTEX
  5
EC5E
330
EC58
100
AcDbEntity
  8
0
100
AcDbVertex
100
AcDbPolygonMeshVertex
 10
-711.6447541761816
 20
185.392912265868
 30
-1.140287246511623
 70
    64
  0
VERTEX
  5
EC5F
330
EC58
100
AcDbEntity
  8
0
100
AcDbVertex
100
AcDbPolygonMeshVertex
 10
-711.8395935680791
 20
185.4736173844765
 30
-1.140287246511623
 70
    64
  0
VERTEX
  5
EC60
330
EC58
100
AcDbEntity
  8
0
100
AcDbVertex
100
AcDbPolygonMeshVertex
 10
-712.0464339632724
 20
185.5147604971541
 30
-1.140287246511623
 70
    64
  0
VERTEX
  5
EC61
330
EC58
100
AcDbEntity
  8
0
100
AcDbVertex
100
AcDbPolygonMeshVertex
 10
-712.2573266013717
 20
185.5147604971541
 30
-1.140287246511623
 70
    64
  0
VERTEX
  5
EC62
330
EC58
100
AcDbEntity
  8
0
100
AcDbVertex
100
AcDbPolygonMeshVertex
 10
-712.4641669965651
 20
185.4736173844765
 30
-1.140287246511623
 70
    64
  0
VERTEX
  5
EC63
330
EC58
100
AcDbEntity
  8
0
100
AcDbVertex
100
AcDbPolygonMeshVertex
 10
-712.6590063884625
 20
185.392912265868
 30
-1.140287246511623
 70
    64
  0
VERTEX
  5
EC64
330
EC58
100
AcDbEntity
  8
0
100
AcDbVertex
100
AcDbPolygonMeshVertex
 10
-712.8343572085005
 20
185.275746593777
 30
-1.140287246511623
 70
    64
  0
VERTEX
  5
EC65
330
EC58
100
AcDbEntity
  8
0
100
AcDbVertex
100
AcDbPolygonMeshVertex
 10
-712.983480823003
 20
185.1266229792746
 30
-1.140287246511623
 70
    64
  0
VERTEX
  5
EC66
330
EC58
100
AcDbEntity
  8
0
100
AcDbVertex
100
AcDbPolygonMeshVertex
 10
-713.100646495094
 20
184.9512721592366
 30
-1.140287246511623
 70
    64
  0
VERTEX
  5
EC67
330
EC58
100
AcDbEntity
  8
0
100
AcDbVertex
100
AcDbPolygonMeshVertex
 10
-713.1813516137023
 20
184.7564327673392
 30
-1.140287246511623
 70
    64
  0
VERTEX
  5
EC68
330
EC58
100
AcDbEntity
  8
0
100
AcDbVertex
100
AcDbPolygonMeshVertex
 10
-713.22249472638
 20
184.5495923721459
 30
-1.140287246511623
 70
    64
  0
VERTEX
  5
EC69
330
EC58
100
AcDbEntity
  8
0
100
AcDbVertex
100
AcDbPolygonMeshVertex
 10
-713.22249472638
 20
184.3386997340464
 30
-1.140287246511623
 70
    64
  0
VERTEX
  5
EC6A
330
EC58
100
AcDbEntity
  8
0
100
AcDbVertex
100
AcDbPolygonMeshVertex
 10
-713.1813516137023
 20
184.1318593388531
 30
-1.140287246511623
 70
    64
  0
VERTEX
  5
EC6B
330
EC58
100
AcDbEntity
  8
0
100
AcDbVertex
100
AcDbPolygonMeshVertex
 10
-713.100646495094
 20
183.9370199469557
 30
-1.140287246511623
 70
    64
  0
VERTEX
  5
EC6C
330
EC58
100
AcDbEntity
  8
0
100
AcDbVertex
100
AcDbPolygonMeshVertex
 10
-712.983480823003
 20
183.7616691269177
 30
-1.140287246511623
 70
    64
  0
VERTEX
  5
EC6D
330
EC58
100
AcDbEntity
  8
0
100
AcDbVertex
100
AcDbPolygonMeshVertex
 10
-712.8343572085005
 20
183.6125455124153
 30
-1.140287246511623
 70
    64
  0
VERTEX
  5
EC6E
330
EC58
100
AcDbEntity
  8
0
100
AcDbVertex
100
AcDbPolygonMeshVertex
 10
-712.6590063884625
 20
183.4953798403243
 30
-1.140287246511623
 70
    64
  0
VERTEX
  5
EC6F
330
EC58
100
AcDbEntity
  8
0
100
AcDbVertex
100
AcDbPolygonMeshVertex
 10
-712.4641669965651
 20
183.4146747217159
 30
-1.140287246511623
 70
    64
  0
VERTEX
  5
EC70
330
EC58
100
AcDbEntity
  8
0
100
AcDbVertex
100
AcDbPolygonMeshVertex
 10
-712.2573266013717
 20
183.3735316090382
 30
-1.140287246511623
 70
    64
  0
VERTEX
  5
EC71
330
EC58
100
AcDbEntity
  8
0
100
AcDbVertex
100
AcDbPolygonMeshVertex
 10
-712.0464339632724
 20
183.3735316090382
 30
-1.140287246511623
 70
    64
  0
VERTEX
  5
EC72
330
EC58
100
AcDbEntity
  8
0
100
AcDbVertex
100
AcDbPolygonMeshVertex
 10
-711.8395935680791
 20
183.4146747217159
 30
-1.140287246511623
 70
    64
  0
VERTEX
  5
EC73
330
EC58
100
AcDbEntity
  8
0
100
AcDbVertex
100
AcDbPolygonMeshVertex
 10
-711.6447541761816
 20
183.4953798403243
 30
-1.140287246511623
 70
    64
  0
VERTEX
  5
EC74
330
EC58
100
AcDbEntity
  8
0
100
AcDbVertex
100
AcDbPolygonMeshVertex
 10
-711.4694033561436
 20
183.6125455124153
 30
-1.140287246511623
 70
    64
  0
VERTEX
  5
EC75
330
EC58
100
AcDbEntity
  8
0
100
AcDbVertex
100
AcDbPolygonMeshVertex
 10
-711.3202797416412
 20
183.7616691269177
 30
-1.140287246511623
 70
    64
  0
VERTEX
  5
EC76
330
EC58
100
AcDbEntity
  8
0
100
AcDbVertex
100
AcDbPolygonMeshVertex
 10
-711.2031140695502
 20
183.9370199469557
 30
-1.140287246511623
 70
    64
  0
VERTEX
  5
EC77
330
EC58
100
AcDbEntity
  8
0
100
AcDbVertex
100
AcDbPolygonMeshVertex
 10
-711.1224089509418
 20
184.1318593388531
 30
-1.140287246511623
 70
    64
  0
VERTEX
  5
EC78
330
EC58
100
AcDbEntity
  8
0
100
AcDbVertex
100
AcDbPolygonMeshVertex
 10
-711.0812658382641
 20
184.3386997340465
 30
-1.140287246511623
 70
    64
  0
VERTEX
  5
EC79
330
EC58
100
AcDbEntity
  8
0
100
AcDbVertex
100
AcDbPolygonMeshVertex
 10
-711.3761337878811
 20
184.5205504139831
 30
-1.030287246511623
 70
    64
  0
VERTEX
  5
EC7A
330
EC58
100
AcDbEntity
  8
0
100
AcDbVertex
100
AcDbPolygonMeshVertex
 10
-711.4059452906189
 20
184.670422959016
 30
-1.030287246511623
 70
    64
  0
VERTEX
  5
EC7B
330
EC58
100
AcDbEntity
  8
0
100
AcDbVertex
100
AcDbPolygonMeshVertex
 10
-711.4644226567625
 20
184.811599809452
 30
-1.030287246511623
 70
    64
  0
VERTEX
  5
EC7C
330
EC58
100
AcDbEntity
  8
0
100
AcDbVertex
100
AcDbPolygonMeshVertex
 10
-711.5493186339258
 20
184.9386556181017
 30
-1.030287246511623
 70
    64
  0
VERTEX
  5
EC7D
330
EC58
100
AcDbEntity
  8
0
100
AcDbVertex
100
AcDbPolygonMeshVertex
 10
-711.6573707173166
 20
185.0467077014924
 30
-1.030287246511623
 70
    64
  0
VERTEX
  5
EC7E
330
EC58
100
AcDbEntity
  8
0
100
AcDbVertex
100
AcDbPolygonMeshVertex
 10
-711.7844265259662
 20
185.1316036786557
 30
-1.030287246511623
 70
    64
  0
VERTEX
  5
EC7F
330
EC58
100
AcDbEntity
  8
0
100
AcDbVertex
100
AcDbPolygonMeshVertex
 10
-711.9256033764022
 20
185.1900810447994
 30
-1.030287246511623
 70
    64
  0
VERTEX
  5
EC80
330
EC58
100
AcDbEntity
  8
0
100
AcDbVertex
100
AcDbPolygonMeshVertex
 10
-712.0754759214352
 20
185.2198925475372
 30
-1.030287246511623
 70
    64
  0
VERTEX
  5
EC81
330
EC58
100
AcDbEntity
  8
0
100
AcDbVertex
100
AcDbPolygonMeshVertex
 10
-712.2282846432089
 20
185.2198925475372
 30
-1.030287246511623
 70
    64
  0
VERTEX
  5
EC82
330
EC58
100
AcDbEntity
  8
0
100
AcDbVertex
100
AcDbPolygonMeshVertex
 10
-712.3781571882419
 20
185.1900810447994
 30
-1.030287246511623
 70
    64
  0
VERTEX
  5
EC83
330
EC58
100
AcDbEntity
  8
0
100
AcDbVertex
100
AcDbPolygonMeshVertex
 10
-712.5193340386779
 20
185.1316036786557
 30
-1.030287246511623
 70
    64
  0
VERTEX
  5
EC84
330
EC58
100
AcDbEntity
  8
0
100
AcDbVertex
100
AcDbPolygonMeshVertex
 10
-712.6463898473276
 20
185.0467077014924
 30
-1.030287246511623
 70
    64
  0
VERTEX
  5
EC85
330
EC58
100
AcDbEntity
  8
0
100
AcDbVertex
100
AcDbPolygonMeshVertex
 10
-712.7544419307183
 20
184.9386556181017
 30
-1.030287246511623
 70
    64
  0
VERTEX
  5
EC86
330
EC58
100
AcDbEntity
  8
0
100
AcDbVertex
100
AcDbPolygonMeshVertex
 10
-712.8393379078816
 20
184.811599809452
 30
-1.030287246511623
 70
    64
  0
VERTEX
  5
EC87
330
EC58
100
AcDbEntity
  8
0
100
AcDbVertex
100
AcDbPolygonMeshVertex
 10
-712.8978152740253
 20
184.670422959016
 30
-1.030287246511623
 70
    64
  0
VERTEX
  5
EC88
330
EC58
100
AcDbEntity
  8
0
100
AcDbVertex
100
AcDbPolygonMeshVertex
 10
-712.9276267767631
 20
184.5205504139831
 30
-1.030287246511623
 70
    64
  0
VERTEX
  5
EC89
330
EC58
100
AcDbEntity
  8
0
100
AcDbVertex
100
AcDbPolygonMeshVertex
 10
-712.9276267767631
 20
184.3677416922093
 30
-1.030287246511623
 70
    64
  0
VERTEX
  5
EC8A
330
EC58
100
AcDbEntity
  8
0
100
AcDbVertex
100
AcDbPolygonMeshVertex
 10
-712.8978152740253
 20
184.2178691471763
 30
-1.030287246511623
 70
    64
  0
VERTEX
  5
EC8B
330
EC58
100
AcDbEntity
  8
0
100
AcDbVertex
100
AcDbPolygonMeshVertex
 10
-712.8393379078816
 20
184.0766922967403
 30
-1.030287246511623
 70
    64
  0
VERTEX
  5
EC8C
330
EC58
100
AcDbEntity
  8
0
100
AcDbVertex
100
AcDbPolygonMeshVertex
 10
-712.7544419307183
 20
183.9496364880906
 30
-1.030287246511623
 70
    64
  0
VERTEX
  5
EC8D
330
EC58
100
AcDbEntity
  8
0
100
AcDbVertex
100
AcDbPolygonMeshVertex
 10
-712.6463898473276
 20
183.8415844046999
 30
-1.030287246511623
 70
    64
  0
VERTEX
  5
EC8E
330
EC58
100
AcDbEntity
  8
0
100
AcDbVertex
100
AcDbPolygonMeshVertex
 10
-712.5193340386779
 20
183.7566884275366
 30
-1.030287246511623
 70
    64
  0
VERTEX
  5
EC8F
330
EC58
100
AcDbEntity
  8
0
100
AcDbVertex
100
AcDbPolygonMeshVertex
 10
-712.3781571882419
 20
183.6982110613929
 30
-1.030287246511623
 70
    64
  0
VERTEX
  5
EC90
330
EC58
100
AcDbEntity
  8
0
100
AcDbVertex
100
AcDbPolygonMeshVertex
 10
-712.2282846432089
 20
183.6683995586552
 30
-1.030287246511623
 70
    64
  0
VERTEX
  5
EC91
330
EC58
100
AcDbEntity
  8
0
100
AcDbVertex
100
AcDbPolygonMeshVertex
 10
-712.0754759214352
 20
183.6683995586552
 30
-1.030287246511623
 70
    64
  0
VERTEX
  5
EC92
330
EC58
100
AcDbEntity
  8
0
100
AcDbVertex
100
AcDbPolygonMeshVertex
 10
-711.9256033764022
 20
183.6982110613929
 30
-1.030287246511623
 70
    64
  0
VERTEX
  5
EC93
330
EC58
100
AcDbEntity
  8
0
100
AcDbVertex
100
AcDbPolygonMeshVertex
 10
-711.7844265259662
 20
183.7566884275366
 30
-1.030287246511623
 70
    64
  0
VERTEX
  5
EC94
330
EC58
100
AcDbEntity
  8
0
100
AcDbVertex
100
AcDbPolygonMeshVertex
 10
-711.6573707173166
 20
183.8415844046999
 30
-1.030287246511623
 70
    64
  0
VERTEX
  5
EC95
330
EC58
100
AcDbEntity
  8
0
100
AcDbVertex
100
AcDbPolygonMeshVertex
 10
-711.5493186339258
 20
183.9496364880906
 30
-1.030287246511623
 70
    64
  0
VERTEX
  5
EC96
330
EC58
100
AcDbEntity
  8
0
100
AcDbVertex
100
AcDbPolygonMeshVertex
 10
-711.4644226567625
 20
184.0766922967403
 30
-1.030287246511623
 70
    64
  0
VERTEX
  5
EC97
330
EC58
100
AcDbEntity
  8
0
100
AcDbVertex
100
AcDbPolygonMeshVertex
 10
-711.4059452906189
 20
184.2178691471763
 30
-1.030287246511623
 70
    64
  0
VERTEX
  5
EC98
330
EC58
100
AcDbEntity
  8
0
100
AcDbVertex
100
AcDbPolygonMeshVertex
 10
-711.3761337878811
 20
184.3677416922093
 30
-1.030287246511623
 70
    64
  0
SEQEND
  5
EC99
330
EC58
100
AcDbEntity
  8
0
  0
3DFACE
  5
EC9A
330
1F
100
AcDbEntity
  8
0
100
AcDbFace
 10
-711.6573707173166
 20
185.0467077014924
 30
-1.030287246511623
 11
-712.7544419307183
 21
183.9496364880906
 31
-1.030287246511623
 12
-712.6463898473276
 22
183.8415844046999
 32
-1.030287246511623
 13
-711.5493186339258
 23
184.9386556181017
 33
-1.030287246511623
 70
    15
  0
3DFACE
  5
EC9B
330
1F
100
AcDbEntity
  8
0
100
AcDbFace
 10
-711.5493186339258
 20
184.9386556181017
 30
-1.030287246511623
 11
-712.6463898473276
 21
183.8415844046999
 31
-1.030287246511623
 12
-712.5193340386779
 22
183.7566884275366
 32
-1.030287246511623
 13
-711.4644226567625
 23
184.811599809452
 33
-1.030287246511623
 70
    15
  0
3DFACE
  5
EC9C
330
1F
100
AcDbEntity
  8
0
100
AcDbFace
 10
-711.4644226567625
 20
184.811599809452
 30
-1.030287246511623
 11
-712.5193340386779
 21
183.7566884275366
 31
-1.030287246511623
 12
-712.3781571882419
 22
183.6982110613929
 32
-1.030287246511623
 13
-711.4059452906189
 23
184.670422959016
 33
-1.030287246511623
 70
    15
  0
3DFACE
  5
EC9D
330
1F
100
AcDbEntity
  8
0
100
AcDbFace
 10
-711.4059452906189
 20
184.670422959016
 30
-1.030287246511623
 11
-712.3781571882419
 21
183.6982110613929
 31
-1.030287246511623
 12
-712.2282846432089
 22
183.6683995586552
 32
-1.030287246511623
 13
-711.3761337878811
 23
184.5205504139831
 33
-1.030287246511623
 70
    15
  0
3DFACE
  5
EC9E
330
1F
100
AcDbEntity
  8
0
100
AcDbFace
 10
-711.3761337878811
 20
184.5205504139831
 30
-1.030287246511623
 11
-712.2282846432089
 21
183.6683995586552
 31
-1.030287246511623
 12
-712.0754759214352
 22
183.6683995586552
 32
-1.030287246511623
 13
-711.3761337878811
 23
184.3677416922093
 33
-1.030287246511623
 70
    15
  0
3DFACE
  5
EC9F
330
1F
100
AcDbEntity
  8
0
100
AcDbFace
 10
-711.3761337878811
 20
184.3677416922093
 30
-1.030287246511623
 11
-712.0754759214352
 21
183.6683995586552
 31
-1.030287246511623
 12
-711.9256033764022
 22
183.6982110613929
 32
-1.030287246511623
 13
-711.4059452906189
 23
184.2178691471763
 33
-1.030287246511623
 70
    15
  0
3DFACE
  5
ECA0
330
1F
100
AcDbEntity
  8
0
100
AcDbFace
 10
-711.4059452906189
 20
184.2178691471763
 30
-1.030287246511623
 11
-711.9256033764022
 21
183.6982110613929
 31
-1.030287246511623
 12
-711.7844265259662
 22
183.7566884275366
 32
-1.030287246511623
 13
-711.4644226567625
 23
184.0766922967403
 33
-1.030287246511623
 70
    15
  0
3DFACE
  5
ECA1
330
1F
100
AcDbEntity
  8
0
100
AcDbFace
 10
-711.4644226567625
 20
184.0766922967403
 30
-1.030287246511623
 11
-711.7844265259662
 21
183.7566884275366
 31
-1.030287246511623
 12
-711.6573707173166
 22
183.8415844046999
 32
-1.030287246511623
 13
-711.5493186339258
 23
183.9496364880906
 33
-1.030287246511623
 70
    15
  0
3DFACE
  5
ECA2
330
1F
100
AcDbEntity
  8
0
100
AcDbFace
 10
-711.6573707173166
 20
185.0467077014924
 30
-1.030287246511623
 11
-711.7844265259662
 21
185.1316036786557
 31
-1.030287246511623
 12
-712.8393379078816
 22
184.0766922967403
 32
-1.030287246511623
 13
-712.7544419307183
 23
183.9496364880906
 33
-1.030287246511623
 70
    15
  0
3DFACE
  5
ECA3
330
1F
100
AcDbEntity
  8
0
100
AcDbFace
 10
-711.9256033764022
 20
185.1900810447994
 30
-1.030287246511623
 11
-712.8978152740253
 21
184.2178691471763
 31
-1.030287246511623
 12
-712.8393379078816
 22
184.0766922967403
 32
-1.030287246511623
 13
-711.7844265259662
 23
185.1316036786557
 33
-1.030287246511623
 70
    15
  0
3DFACE
  5
ECA4
330
1F
100
AcDbEntity
  8
0
100
AcDbFace
 10
-712.0754759214352
 20
185.2198925475372
 30
-1.030287246511623
 11
-712.9276267767631
 21
184.3677416922093
 31
-1.030287246511623
 12
-712.8978152740253
 22
184.2178691471763
 32
-1.030287246511623
 13
-711.9256033764022
 23
185.1900810447994
 33
-1.030287246511623
 70
    15
  0
3DFACE
  5
ECA5
330
1F
100
AcDbEntity
  8
0
100
AcDbFace
 10
-712.2282846432089
 20
185.2198925475372
 30
-1.030287246511623
 11
-712.9276267767631
 21
184.5205504139831
 31
-1.030287246511623
 12
-712.9276267767631
 22
184.3677416922093
 32
-1.030287246511623
 13
-712.0754759214352
 23
185.2198925475372
 33
-1.030287246511623
 70
    15
  0
3DFACE
  5
ECA6
330
1F
100
AcDbEntity
  8
0
100
AcDbFace
 10
-712.3781571882419
 20
185.1900810447994
 30
-1.030287246511623
 11
-712.8978152740253
 21
184.670422959016
 31
-1.030287246511623
 12
-712.9276267767631
 22
184.5205504139831
 32
-1.030287246511623
 13
-712.2282846432089
 23
185.2198925475372
 33
-1.030287246511623
 70
    15
  0
3DFACE
  5
ECA7
330
1F
100
AcDbEntity
  8
0
100
AcDbFace
 10
-712.5193340386779
 20
185.1316036786557
 30
-1.030287246511623
 11
-712.8393379078816
 21
184.811599809452
 31
-1.030287246511623
 12
-712.8978152740253
 22
184.670422959016
 32
-1.030287246511623
 13
-712.3781571882419
 23
185.1900810447994
 33
-1.030287246511623
 70
    15
  0
3DFACE
  5
ECA8
330
1F
100
AcDbEntity
  8
0
100
AcDbFace
 10
-712.5193340386779
 20
185.1316036786557
 30
-1.030287246511623
 11
-712.6463898473276
 21
185.0467077014924
 31
-1.030287246511623
 12
-712.7544419307183
 22
184.9386556181017
 32
-1.030287246511623
 13
-712.8393379078816
 23
184.811599809452
 33
-1.030287246511623
 70
    15
  0
POINT
  5
ECA9
330
1F
100
AcDbEntity
  8
SNAP_POINTS
100
AcDbPoint
 10
-712.151880282322
 20
184.4441460530962
 30
-3.330287246511623
  0
3DSOLID
  5
ECAA
330
1F
100
AcDbEntity
  8
0
100
AcDbModelerGeometry
 70
     1
  1
noi lg n o          
  1
=0;& {n {m {rn {rn |
  1
-:9@)+r3(;r>++-6= {rn {rn {rn {o {l {k |
  1
3*2/ {j {rn {i {o |
  1
-:961:2:1+ {rn o o o o oqonhljknffiimgokiok lo o o m o |
  1
):-+:'@+:2/3>+: {rn l o n g |
  1
-:9@)+r3(;r>++-6= {rn {rn {rn {m {l {k |
  1
,7:33 {h {rn {rn {g {m |
  1
-:9@)+r3(;r>++-6= {rn {rn {rn {i {l {k |
  1
9><: {f {no {nn {i {rn {nm 90-(>-; ,6183: |
  1
92:,7r3(;r>++-6= {rn {nl {rn {g |
  1
9><: {nk {nj {ni {i {rn {nh 90-(>-; ,6183: |
  1
300/ {rn {ng {nf {g |
  1
<01:r,*-9><: {rn rhnmqnjnggomgmlmmoj ngkqkkknkkkliofilh rnqjmmmfnmomjnnihmg o o n oqjjhghmf o o n V V o n o V V V V |
  1
-:9@)+r3(;r>++-6= {rn {rn {f {g {l {k |
  1
92:,7r3(;r>++-6= {rn {mo {rn {no |
  1
9><: {mn {rn {mm {i {rn {ml 90-(>-; ,6183: |
  1
300/ {rn {rn {mk {no |
  1
/3>1:r,*-9><: {rn rhnmqnjnggomgmlmmoj ngkqkkknkkkliofilh rnqgokmfoilgjnnijnn o o rn roqolflhoooooooooooom o o o V V V V |
  1
300/ {rn {rn {mj {g |
  1
<0:;8: {rn {nf {nf {mk {mi n {nn {rn |
  1
-:9@)+r3(;r>++-6= {rn {rn {nk {no {l {k |
  1
92:,7r3(;r>++-6= {rn {mh {rn {nj |
  1
300/ {rn {rn {mg {nj |
  1
/3>1:r,*-9><: {rn rhnmqnjnggomgmlmmoj ngkqkkknkkkliofilh rnqmkomfnhiijnnifkn o o n oqolflhoooooooooooom o o o V V V V |
  1
<0:;8: {rn {mk {mk {nf {mi o {ni {rn |
  1
<0:;8: {rn {mj {mj {mg {mf n {ng {rn |
  1
:;8: {lo {ln {ln {mk {lm o |
  1
-:9@)+r3(;r>++-6= {rn {rn {mn {nj {l {k |
  1
<0:;8: {rn {mg {mg {mj {mf o {mm {rn |
  1
:;8: {ll {lk {lk {mg {lj o |
  1
/+36,+r3(;r>++-6= {rn {rn {rn {mi |
  1
):-+:' {rn {mi {li |
  1
:336/,:r<*-): {rn rhnmqnjnggomgmlmmoj ngkqkkknkkkliofilh rnqgokmfoilgjnnijnn o o rn oqjjhghmf o o n V V |
  1
/+36,+r3(;r>++-6= {rn {rn {rn {mf |
  1
):-+:' {rn {mf {lh |
  1
:336/,:r<*-): {rn rhnmqnjnggomgmlmmoj ngkqkkknkkkliofilh rnqmkomfnhiijnnifkn o o n oqjjhghmf o o n V V |
  1
/061+ {rn rhnnqjfkoohlgmlmmni ngkqkkknkkkliofilh rnqgokmfoilgjnnijnn |
  1
/061+ {rn rhnnqjfkoohlgmlmmni ngkqkkknkkkliofilh rnqmkomfnhiijnnifkn |
  0
3DSOLID
  5
ECAB
330
1F
100
AcDbEntity
  8
0
100
AcDbModelerGeometry
 70
     1
  1
noi lg n o          
  1
=0;& {n {m {rn {rn |
  1
-:9@)+r3(;r>++-6= {rn {rn {rn {o {l {k |
  1
3*2/ {j {rn {i {o |
  1
-:961:2:1+ {rn o o o o oqonhljknffiimgokiok lo o o m o |
  1
):-+:'@+:2/3>+: {rn l o n g |
  1
-:9@)+r3(;r>++-6= {rn {rn {rn {m {l {k |
  1
,7:33 {h {rn {rn {g {m |
  1
-:9@)+r3(;r>++-6= {rn {rn {rn {i {l {k |
  1
9><: {f {no {nn {i {rn {nm 90-(>-; ,6183: |
  1
92:,7r3(;r>++-6= {rn {nl {rn {g |
  1
9><: {nk {nj {ni {i {rn {nh 90-(>-; ,6183: |
  1
300/ {rn {ng {nf {g |
  1
<01:r,*-9><: {rn rhnmqnjnggomgmlmmoj ngkqkkknkkkliofilh rnqfhmhfolonjnnigjm o o n oqiiknhnfoooooooook o o n V V o n o V V V V |
  1
-:9@)+r3(;r>++-6= {rn {rn {f {g {l {k |
  1
92:,7r3(;r>++-6= {rn {mo {rn {no |
  1
9><: {mn {rn {mm {i {rn {ml 90-(>-; ,6183: |
  1
300/ {rn {rn {mk {no |
  1
/3>1:r,*-9><: {rn rhnmqnjnggomgmlmmoj ngkqkkknkkkliofilh rmqnknmgffikjnniojh o o rn roqolflhoooooooooooom o o o V V V V |
  1
300/ {rn {rn {mj {g |
  1
<0:;8: {rn {nf {nf {mk {mi n {nn {rn |
  1
-:9@)+r3(;r>++-6= {rn {rn {nk {no {l {k |
  1
92:,7r3(;r>++-6= {rn {mh {rn {nj |
  1
300/ {rn {rn {mg {nj |
  1
/3>1:r,*-9><: {rn rhnmqnjnggomgmlmmoj ngkqkkknkkkliofilh rnqgokmfoilgjnnijnn o o n oqolflhoooooooooooom o o o V V V V |
  1
<0:;8: {rn {mk {mk {nf {mi o {ni {rn |
  1
<0:;8: {rn {mj {mj {mg {mf n {ng {rn |
  1
:;8: {lo {ln {ln {mk {lm o |
  1
-:9@)+r3(;r>++-6= {rn {rn {mn {nj {l {k |
  1
<0:;8: {rn {mg {mg {mj {mf o {mm {rn |
  1
:;8: {ll {lk {lk {mg {lj o |
  1
/+36,+r3(;r>++-6= {rn {rn {rn {mi |
  1
):-+:' {rn {mi {li |
  1
:336/,:r<*-): {rn rhnmqnjnggomgmlmmoj ngkqkkknkkkliofilh rmqnknmgffikjnniojh o o rn oqiiknhnfoooooooook o o n V V |
  1
/+36,+r3(;r>++-6= {rn {rn {rn {mf |
  1
):-+:' {rn {mf {lh |
  1
:336/,:r<*-): {rn rhnmqnjnggomgmlmmoj ngkqkkknkkkliofilh rnqgokmfoilgjnnijnn o o n oqiiknhnfoooooooook o o n V V |
  1
/061+ {rn rhnnqkghhoglgmlmmnl ngkqkkknkkkliofilh rmqnknmgffikjnniojh |
  1
/061+ {rn rhnnqkghhoglgmlmmnl ngkqkkknkkkliofilh rnqgokmfoilgjnnijnn |
  0
3DSOLID
  5
ECAC
330
1F
100
AcDbEntity
  8
0
100
AcDbModelerGeometry
 70
     1
  1
noi lg n o          
  1
=0;& {n {m {rn {rn |
  1
-:9@)+r3(;r>++-6= {rn {rn {rn {o {l {k |
  1
3*2/ {j {rn {i {o |
  1
-:961:2:1+ {rn o o o o oqonhljknffiimgokiok lo o o m o |
  1
):-+:'@+:2/3>+: {rn l o n g |
  1
-:9@)+r3(;r>++-6= {rn {rn {rn {m {l {k |
  1
,7:33 {h {rn {rn {g {m |
  1
-:9@)+r3(;r>++-6= {rn {rn {rn {i {l {k |
  1
9><: {f {no {nn {i {rn {nm 90-(>-; ,6183: |
  1
92:,7r3(;r>++-6= {rn {nl {rn {g |
  1
9><: {nk {nj {ni {i {rn {nh 90-(>-; ,6183: |
  1
300/ {rn {ng {nf {g |
  1
<01:r,*-9><: {rn rhnmqnjnggomgmlmmoj ngkqkkknkkkliofilh rmqkjjmgfllijnninhh o o n oqhkkofl o o n V V o n o V V V V |
  1
-:9@)+r3(;r>++-6= {rn {rn {f {g {l {k |
  1
92:,7r3(;r>++-6= {rn {mo {rn {no |
  1
9><: {mn {rn {mm {i {rn {ml 90-(>-; ,6183: |
  1
300/ {rn {rn {mk {no |
  1
/3>1:r,*-9><: {rn rhnmqnjnggomgmlmmoj ngkqkkknkkkliofilh rmqjnomgfmmijnnjfkn o o rn roqolflhoooooooooooom o o o V V V V |
  1
300/ {rn {rn {mj {g |
  1
<0:;8: {rn {nf {nf {mk {mi n {nn {rn |
  1
-:9@)+r3(;r>++-6= {rn {rn {nk {no {l {k |
  1
92:,7r3(;r>++-6= {rn {mh {rn {nj |
  1
300/ {rn {rn {mg {nj |
  1
/3>1:r,*-9><: {rn rhnmqnjnggomgmlmmoj ngkqkkknkkkliofilh rmqkoomgfkkijnniknl o o n oqolflhoooooooooooom o o o V V V V |
  1
<0:;8: {rn {mk {mk {nf {mi o {ni {rn |
  1
<0:;8: {rn {mj {mj {mg {mf n {ng {rn |
  1
:;8: {lo {ln {ln {mk {lm o |
  1
-:9@)+r3(;r>++-6= {rn {rn {mn {nj {l {k |
  1
<0:;8: {rn {mg {mg {mj {mf o {mm {rn |
  1
:;8: {ll {lk {lk {mg {lj o |
  1
/+36,+r3(;r>++-6= {rn {rn {rn {mi |
  1
):-+:' {rn {mi {li |
  1
:336/,:r<*-): {rn rhnmqnjnggomgmlmmoj ngkqkkknkkkliofilh rmqjnomgfmmijnnjfkn o o rn oqhkkofl o o n V V |
  1
/+36,+r3(;r>++-6= {rn {rn {rn {mf |
  1
):-+:' {rn {mf {lh |
  1
:336/,:r<*-): {rn rhnmqnjnggomgmlmmoj ngkqkkknkkkliofilh rmqkoomgfkkijnniknl o o n oqhkkofl o o n V V |
  1
/061+ {rn rhnnqkohhghmgmlmmmi ngkqkkknkkkliofilh rmqjnomgfmmijnnjfkn |
  1
/061+ {rn rhnnqkohhghmgmlmmmi ngkqkkknkkkliofilh rmqkoomgfkkijnniknl |
  0
3DSOLID
  5
ECAD
330
1F
100
AcDbEntity
  8
0
100
AcDbModelerGeometry
 70
     1
  1
noi lg n o          
  1
=0;& {n {m {rn {rn |
  1
-:9@)+r3(;r>++-6= {rn {rn {rn {o {l {k |
  1
3*2/ {j {rn {i {o |
  1
-:961:2:1+ {rn o o o o oqonhljknffiimgokiok lo o o m o |
  1
):-+:'@+:2/3>+: {rn l o n g |
  1
-:9@)+r3(;r>++-6= {rn {rn {rn {m {l {k |
  1
,7:33 {h {rn {rn {g {m |
  1
-:9@)+r3(;r>++-6= {rn {rn {rn {i {l {k |
  1
9><: {f {no {nn {i {rn {nm 90-(>-; ,6183: |
  1
92:,7r3(;r>++-6= {rn {nl {rn {g |
  1
9><: {nk {nj {ni {i {rn {nh 90-(>-; ,6183: |
  1
300/ {rn {ng {nf {g |
  1
<01:r,*-9><: {rn rhnmqnjnggomgmlmmoj ngkqkkknkkkliofilh rmqjffhgfokhjnnjfgn o o n oqgohkhghoooooooon o o n V V o n o V V V V |
  1
-:9@)+r3(;r>++-6= {rn {rn {f {g {l {k |
  1
92:,7r3(;r>++-6= {rn {mo {rn {no |
  1
9><: {mn {rn {mm {i {rn {ml 90-(>-; ,6183: |
  1
300/ {rn {rn {mk {no |
  1
/3>1:r,*-9><: {rn rhnmqnjnggomgmlmmoj ngkqkkknkkkliofilh rmqigfmgggigjnniomn o o rn roqolflhoooooooooooom o o o V V V V |
  1
300/ {rn {rn {mj {g |
  1
<0:;8: {rn {nf {nf {mk {mi n {nn {rn |
  1
-:9@)+r3(;r>++-6= {rn {rn {nk {no {l {k |
  1
92:,7r3(;r>++-6= {rn {mh {rn {nj |
  1
300/ {rn {rn {mg {nj |
  1
/3>1:r,*-9><: {rn rhnmqnjnggomgmlmmoj ngkqkkknkkkliofilh rmqjnomgfmmijnnjfkn o o n oqolflhoooooooooooom o o o V V V V |
  1
<0:;8: {rn {mk {mk {nf {mi o {ni {rn |
  1
<0:;8: {rn {mj {mj {mg {mf n {ng {rn |
  1
:;8: {lo {ln {ln {mk {lm o |
  1
-:9@)+r3(;r>++-6= {rn {rn {mn {nj {l {k |
  1
<0:;8: {rn {mg {mg {mj {mf o {mm {rn |
  1
:;8: {ll {lk {lk {mg {lj o |
  1
/+36,+r3(;r>++-6= {rn {rn {rn {mi |
  1
):-+:' {rn {mi {li |
  1
:336/,:r<*-): {rn rhnmqnjnggomgmlmmoj ngkqkkknkkkliofilh rmqigfmgggigjnniomn o o rn oqgohkhghoooooooon o o n V V |
  1
/+36,+r3(;r>++-6= {rn {rn {rn {mf |
  1
):-+:' {rn {mf {lh |
  1
:336/,:r<*-): {rn rhnmqnjnggomgmlmmoj ngkqkkknkkkliofilh rmqjnomgfmmijnnjfkn o o n oqgohkhghoooooooon o o n V V |
  1
/061+ {rn rhnnqlkkkonjgmlmmon ngkqkkknkkkliofilh rmqigfmgggigjnniomn |
  1
/061+ {rn rhnnqlkkkonjgmlmmon ngkqkkknkkkliofilh rmqjnomgfmmijnnjfkn |
  0
LINE
  5
ECAE
330
1F
100
AcDbEntity
  8
SCALE
100
AcDbLine
 10
-714.5535153338904
 20
184.9738976387958
 30
-3.500282726511553
 11
-713.5535173338906
 21
184.9738976387958
 31
-3.500282726511553
  0
TEXT
  5
ECAF
330
1F
100
AcDbEntity
  8
SCALE
100
AcDbText
 10
-714.1902330719725
 20
185.0429461960715
 30
-3.500282726511553
 40
0.062499875
  1
1 Inch
100
AcDbText
  0
LINE
  5
ECB0
330
1F
100
AcDbEntity
  8
SCALE
100
AcDbLine
 10
-714.1598161212904
 20
184.5738984387957
 30
-3.500282726511553
 11
-714.1598161212904
 21
184.7738980387956
 31
-3.500282726511553
  0
LINE
  5
ECB1
330
1F
100
AcDbEntity
  8
SCALE
100
AcDbLine
 10
-714.5535153338904
 20
184.5738984387957
 30
-3.500282726511553
 11
-714.5535153338904
 21
184.7738980387956
 31
-3.500282726511553
  0
LINE
  5
ECB2
330
1F
100
AcDbEntity
  8
SCALE
100
AcDbLine
 10
-714.5535153338904
 20
184.8738978387959
 30
-3.500282726511553
 11
-714.5535153338904
 21
185.0738974387958
 31
-3.500282726511553
  0
TEXT
  5
ECB3
330
1F
100
AcDbEntity
  8
SCALE
100
AcDbText
 10
-714.4940932975863
 20
184.7196377925905
 30
-3.500282726511553
 40
0.062499875
  1
[10mm]
100
AcDbText
  0
LINE
  5
ECB4
330
1F
100
AcDbEntity
  8
SCALE
100
AcDbLine
 10
-714.5535153338904
 20
184.6738982387957
 30
-3.500282726511553
 11
-714.1598161212904
 21
184.6738982387957
 31
-3.500282726511553
  0
TEXT
  5
ECB5
330
1F
100
AcDbEntity
  8
SCALE
100
AcDbText
 10
-714.5519850717045
 20
185.2487742103152
 30
-3.500282726511553
 40
0.062499875
  1
SCALE:
100
AcDbText
  0
LINE
  5
ECB6
330
1F
100
AcDbEntity
  8
SCALE
100
AcDbLine
 10
-713.5535173338906
 20
184.8738978387959
 30
-3.500282726511553
 11
-713.5535173338906
 21
185.0738974387958
 31
-3.500282726511553
  0
DIMENSION
  5
ECB7
330
1F
100
AcDbEntity
  8
AREA1
100
AcDbDimension
  2
*D0
 10
-711.0760898959682
 20
185.8199900347437
 30
-3.50121382701155
 11
-712.1677964803956
 21
185.8199900347437
 31
-3.50121382701155
 70
   160
  3
ABECAD_3D
100
AcDbAlignedDimension
 13
-713.2276749718547
 23
184.5501025817924
 33
-1.411218007011537
 14
-711.0760898959682
 24
184.5501025817924
 34
-1.411218007011537
100
AcDbRotatedDimension
1001
ACAD
1000
DSTYLE
1002
{
1070
    40
1040
1.0
1002
}
  0
DIMENSION
  5
ECB8
330
1F
100
AcDbEntity
  8
AREA1
100
AcDbDimension
  2
*D1
 10
-710.7844708053224
 20
185.5199407426288
 30
-3.50121382701155
 11
-710.775664945981
 21
184.4503845402211
 31
-3.50121382701155
 70
   160
  3
ABECAD_3D
100
AcDbAlignedDimension
 13
-712.2578387506945
 23
183.3683537270659
 33
-1.411218007011537
 14
-712.2578368110183
 24
185.5199407426288
 34
-1.240287246511623
 50
90.0
100
AcDbRotatedDimension
1001
ACAD
1000
DSTYLE
1002
{
1070
    40
1040
1.0
1002
}
  0
ATTDEF
  5
ECB9
330
1F
100
AcDbEntity
  8
ATTRIBUTES
100
AcDbText
 10
-713.0083044740875
 20
183.6530656821316
 30
-3.330269177515159
 40
0.0329684890867239
  1

100
AcDbAttributeDefinition
  3
VIEW CODE?
  2
AC_VIEW_CODE
 70
     0
  0
ATTDEF
  5
ECBA
330
1F
100
AcDbEntity
  8
ATTRIBUTES
100
AcDbText
 10
-713.0083044740875
 20
183.7217500343955
 30
-3.330269177515159
 40
0.0329684890867239
  1

100
AcDbAttributeDefinition
  3
UNIT OF SCALE?
  2
AC_SCALE_UNIT
 70
     0
  0
ATTDEF
  5
ECBB
330
1F
100
AcDbEntity
  8
ATTRIBUTES
100
AcDbText
 10
-713.0083044740875
 20
183.7904343866595
 30
-3.330269177515159
 40
0.0329684890867239
  1

100
AcDbAttributeDefinition
  3
FASTENER DATA?
  2
FASTENER
 70
     0
  0
ATTDEF
  5
ECBC
330
1F
100
AcDbEntity
  8
ATTRIBUTES
100
AcDbText
 10
-713.0083044740875
 20
183.8591187389237
 30
-3.330269177515159
 40
0.0329684890867239
  1

100
AcDbAttributeDefinition
  3
CUSTOMER NOTE?
  2
AC_NOTE
 70
     0
  0
ATTDEF
  5
ECBD
330
1F
100
AcDbEntity
  8
ATTRIBUTES
100
AcDbText
 10
-713.0083044740875
 20
183.9278030911877
 30
-3.330269177515159
 40
0.0329684890867239
  1

100
AcDbAttributeDefinition
  3
CUSTOMER PART NUMBER?
  2
AC_CPART_NO
 70
     0
  0
ATTDEF
  5
ECBE
330
1F
100
AcDbEntity
  8
ATTRIBUTES
100
AcDbText
 10
-713.0083044740875
 20
183.9964874434516
 30
-3.330269177515159
 40
0.0329684890867239
  1

100
AcDbAttributeDefinition
  3
DEVICE ID?
  2
DEVICE_ID
 70
     0
  0
ATTDEF
  5
ECBF
330
1F
100
AcDbEntity
  8
ATTRIBUTES
100
AcDbText
 10
-713.0083044740875
 20
184.0651717957156
 30
-3.330269177515159
 40
0.0329684890867239
  1
NEMA Illuminated Jumbo Mushroom Push-Pull-Twist Release Operator
100
AcDbAttributeDefinition
  3
PART DESCRIPTION?
  2
AC_DESCRIPTION
 70
     0
  0
ATTDEF
  5
ECC0
330
1F
100
AcDbEntity
  8
ATTRIBUTES
100
AcDbText
 10
-713.0083044740875
 20
184.1338561479796
 30
-3.330269177515159
 40
0.0329684890867239
  1
800T-FXJTQ/P*
100
AcDbAttributeDefinition
  3
CATALOG NUMBER?
  2
AC_PART_NO
 70
     0
  0
ATTDEF
  5
ECC1
330
1F
100
AcDbEntity
  8
ATTRIBUTES
100
AcDbText
 10
-713.0083044740875
 20
184.2025405002436
 30
-3.330269177515159
 40
0.0329684890867239
  1
ALLEN-BRADLEY
100
AcDbAttributeDefinition
  3
MANUFACTURER NAME?
  2
AC_VND_LABEL
 70
     0
  0
DIMENSION
  5
ECC2
330
1F
100
AcDbEntity
  8
AREA2
100
AcDbDimension
  2
*D2
 10
-710.7490434562991
 20
185.5199407426288
 30
-3.500282726511553
 11
-710.7490434562991
 21
-2.353197912691424
 31
-185.5199407426288
 70
   160
210
0.0
220
-1.0
230
0.0
  3
ABECAD_3D
100
AcDbAlignedDimension
 13
-712.1518824339112
 23
184.4493284397998
 33
-1.030287666511579
 14
-711.9603828169114
 24
184.5903281577997
 34
-3.500282726511553
 50
90.0
100
AcDbRotatedDimension
1001
ACAD
1000
DSTYLE
1002
{
1070
    40
1040
1.0
1002
}
  0
3DSOLID
  5
ED52
330
1F
100
AcDbEntity
  8
0
100
AcDbModelerGeometry
 70
     1
  1
noi lg n o          
  1
=0;& {n {m {rn {rn |
  1
-:9@)+r3(;r>++-6= {rn {rn {rn {o {l {k |
  1
3*2/ {j {rn {i {o |
  1
-:961:2:1+ {rn o o o o oqonhljknffiimgokiok lo o o m o |
  1
):-+:'@+:2/3>+: {rn l o n g |
  1
-:9@)+r3(;r>++-6= {rn {rn {rn {m {l {k |
  1
,7:33 {h {rn {rn {g {m |
  1
-:9@)+r3(;r>++-6= {rn {rn {rn {i {l {k |
  1
9><: {f {no {nn {i {rn {nm 90-(>-; ,6183: |
  1
92:,7r3(;r>++-6= {rn {nl {rn {g |
  1
9><: {nk {nj {ni {i {rn {nh 90-(>-; ,6183: |
  1
300/ {rn {ng {nf {g |
  1
<01:r,*-9><: {rn rhnmqnjnggomgmlmmoj ngkqkkknkkkliofilh rnqnfomghmkijnnimlm o o n nqohjgooooooooooon o o n V V o n o V V V V |
  1
-:9@)+r3(;r>++-6= {rn {rn {f {g {l {k |
  1
92:,7r3(;r>++-6= {rn {mo {rn {no |
  1
9><: {mn {rn {mm {i {rn {ml 90-(>-; ,6183: |
  1
300/ {rn {rn {mk {no |
  1
/3>1:r,*-9><: {rn rhnmqnjnggomgmlmmoj ngkqkkknkkkliofilh rnqmkomghmkijnniml o o rn rn o o o V V V V |
  1
300/ {rn {rn {mj {g |
  1
<0:;8: {rn {nf {nf {mk {mi n {nn {rn |
  1
-:9@)+r3(;r>++-6= {rn {rn {nk {no {l {k |
  1
92:,7r3(;r>++-6= {rn {mh {rn {nj |
  1
300/ {rn {rn {mg {nj |
  1
/3>1:r,*-9><: {rn rhnmqnjnggomgmlmmoj ngkqkkknkkkliofilh rnqnkomghmkijnnimlk o o n n o o o V V V V |
  1
<0:;8: {rn {mk {mk {nf {mi o {ni {rn |
  1
<0:;8: {rn {mj {mj {mg {mf n {ng {rn |
  1
:;8: {lo {ln {ln {mk {lm o |
  1
-:9@)+r3(;r>++-6= {rn {rn {mn {nj {l {k |
  1
<0:;8: {rn {mg {mg {mj {mf o {mm {rn |
  1
:;8: {ll {lk {lk {mg {lj o |
  1
/+36,+r3(;r>++-6= {rn {rn {rn {mi |
  1
):-+:' {rn {mi {li |
  1
:336/,:r<*-): {rn rhnmqnjnggomgmlmmoj ngkqkkknkkkliofilh rnqmkomghmkijnniml o o rn nqohjgooooooooooon o o n V V |
  1
/+36,+r3(;r>++-6= {rn {rn {rn {mf |
  1
):-+:' {rn {mf {lh |
  1
:336/,:r<*-): {rn rhnmqnjnggomgmlmmoj ngkqkkknkkkliofilh rnqnkomghmkijnnimlk o o n nqohjgooooooooooon o o n V V |
  1
/061+ {rn rhnnqohiogomgmlmmn ngkqkkknkkkliofilh rnqmkomghmkijnniml |
  1
/061+ {rn rhnnqohiogomgmlmmn ngkqkkknkkkliofilh rnqnkomghmkijnnimlk |
  0
3DSOLID
  5
ED53
330
1F
100
AcDbEntity
  8
0
100
AcDbModelerGeometry
 70
     1
  1
noi lg n o          
  1
=0;& {n {m {rn {rn |
  1
-:9@)+r3(;r>++-6= {rn {rn {rn {o {l {k |
  1
3*2/ {j {rn {i {o |
  1
-:961:2:1+ {rn o o o o oqonhljknffiimgokiok lo o o m o |
  1
):-+:'@+:2/3>+: {rn l o n g |
  1
-:9@)+r3(;r>++-6= {rn {rn {rn {m {l {k |
  1
,7:33 {h {rn {rn {g {m |
  1
-:9@)+r3(;r>++-6= {rn {rn {rn {i {l {k |
  1
9><: {f {no {nn {i {rn {nm 90-(>-; ,6183: |
  1
92:,7r3(;r>++-6= {rn {nl {rn {g |
  1
9><: {nk {nj {ni {i {rn {nh 90-(>-; ,6183: |
  1
300/ {rn {ng {nf {g |
  1
<01:r,*-9><: {rn rhnmqnjnggomgmlmmoj ngkqkkknkkkliofilh rnqolomlhmkijnnimlm o o n oqgnmj o o n V V o n o V V V V |
  1
-:9@)+r3(;r>++-6= {rn {rn {f {g {l {k |
  1
92:,7r3(;r>++-6= {rn {mo {rn {no |
  1
9><: {mn {rn {mm {i {rn {ml 90-(>-; ,6183: |
  1
300/ {rn {rn {mk {no |
  1
/3>1:r,*-9><: {rn rhnmqnjnggomgmlmmoj ngkqkkknkkkliofilh rnqolomghmkijnnimln o o rn rn o o o V V V V |
  1
300/ {rn {rn {mj {g |
  1
<0:;8: {rn {nf {nf {mk {mi n {nn {rn |
  1
-:9@)+r3(;r>++-6= {rn {rn {nk {no {l {k |
  1
92:,7r3(;r>++-6= {rn {mh {rn {nj |
  1
300/ {rn {rn {mg {nj |
  1
/3>1:r,*-9><: {rn rhnmqnjnggomgmlmmoj ngkqkkknkkkliofilh rnqolonghmkijnnimll o o n n o o o V V V V |
  1
<0:;8: {rn {mk {mk {nf {mi o {ni {rn |
  1
<0:;8: {rn {mj {mj {mg {mf n {ng {rn |
  1
:;8: {lo {ln {ln {mk {lm o |
  1
-:9@)+r3(;r>++-6= {rn {rn {mn {nj {l {k |
  1
<0:;8: {rn {mg {mg {mj {mf o {mm {rn |
  1
:;8: {ll {lk {lk {mg {lj o |
  1
/+36,+r3(;r>++-6= {rn {rn {rn {mi |
  1
):-+:' {rn {mi {li |
  1
:336/,:r<*-): {rn rhnmqnjnggomgmlmmoj ngkqkkknkkkliofilh rnqolomghmkijnnimln o o rn oqgnmj o o n V V |
  1
/+36,+r3(;r>++-6= {rn {rn {rn {mf |
  1
):-+:' {rn {mf {lh |
  1
:336/,:r<*-): {rn rhnmqnjnggomgmlmmoj ngkqkkknkkkliofilh rnqolonghmkijnnimll o o n oqgnmj o o n V V |
  1
/061+ {rn rhnnqllflgomgmlmmoj ngkqkkknkkkliofilh rnqolomghmkijnnimln |
  1
/061+ {rn rhnnqllflgomgmlmmoj ngkqkkknkkkliofilh rnqolonghmkijnnimll |
  0
LWPOLYLINE
  5
ED86
330
1F
100
AcDbEntity
  8
0
100
AcDbPolyline
 90
        2
 70
     0
 43
0.03
 38
-1.030287246511623
 10
-711.7096393652762
 20
184.5626441496786
 42
0.2679491924311304
 10
-712.0333821857395
 20
184.8863869701421
  0
LWPOLYLINE
  5
ED87
330
1F
100
AcDbEntity
  8
0
100
AcDbPolyline
 90
        2
 70
     0
 38
-1.030287246511623
 10
-711.7096393652762
 20
184.5626441496786
 40
0.05
 41
0.0
 10
-711.6975114013589
 20
184.5182672660925
 40
0.0
 41
0.0
  0
LWPOLYLINE
  5
ED88
330
1F
100
AcDbEntity
  8
0
100
AcDbPolyline
 90
        2
 70
     0
 43
0.03
 38
-1.030287246511623
 10
-712.4756231027856
 20
184.7678888735597
 42
0.2679491924311075
 10
-712.594121199368
 20
184.3256479565137
  0
LWPOLYLINE
  5
ED89
330
1F
100
AcDbEntity
  8
0
100
AcDbPolyline
 90
        2
 70
     0
 38
-1.030287246511623
 10
-712.4756231027856
 20
184.7678888735597
 40
0.05
 41
0.0
 10
-712.4432555762178
 20
184.8005804402012
 40
0.0
 41
0.0
  0
LWPOLYLINE
  5
ED8A
330
1F
100
AcDbEntity
  8
0
100
AcDbPolyline
 90
        2
 70
     0
 43
0.03
 38
-1.030287246511623
 10
-712.2703783789045
 20
184.0019051360502
 42
0.2679491924311193
 10
-711.8281374618586
 20
184.1204032326327
  0
LWPOLYLINE
  5
ED8B
330
1F
100
AcDbEntity
  8
0
100
AcDbPolyline
 90
        2
 70
     0
 38
-1.030287246511623
 10
-712.2703783789045
 20
184.0019051360502
 40
0.05
 41
0.0
 10
-712.3148738693895
 20
184.0135904529948
 40
0.0
 41
0.0
  0
LWPOLYLINE
  5
ED8C
330
1F
100
AcDbEntity
  8
0
100
AcDbPolyline
 90
       32
 70
     1
 43
0.0
 38
-1.240287246511623
 10
-712.2578368110183
 20
185.5199407426288
 10
-712.4656780184341
 20
185.4785985560227
 10
-712.661460154831
 20
185.3975029398567
 10
-712.8376594225029
 20
185.2797703531813
 10
-712.9875045824072
 20
185.1299251932771
 10
-713.1052371690826
 20
184.9537259256051
 10
-713.1863327852486
 20
184.7579437892083
 10
-713.2276749718547
 20
184.5501025817924
 10
-713.2276749718547
 20
184.3381895243999
 10
-713.1863327852486
 20
184.1303483169841
 10
-713.1052371690826
 20
183.9345661805873
 10
-712.9875045824072
 20
183.7583669129153
 10
-712.8376594225029
 20
183.6085217530111
 10
-712.661460154831
 20
183.4907891663356
 10
-712.4656780184341
 20
183.4096935501696
 10
-712.2578368110183
 20
183.3683513635635
 10
-712.0459237536258
 20
183.3683513635635
 10
-711.8380825462099
 20
183.4096935501696
 10
-711.6423004098131
 20
183.4907891663356
 10
-711.4661011421411
 20
183.6085217530111
 10
-711.3162559822369
 20
183.7583669129153
 10
-711.1985233955615
 20
183.9345661805873
 10
-711.1174277793955
 20
184.1303483169841
 10
-711.0760855927894
 20
184.3381895243999
 10
-711.0760855927894
 20
184.5501025817925
 10
-711.1174277793955
 20
184.7579437892083
 10
-711.1985233955615
 20
184.9537259256051
 10
-711.3162559822369
 20
185.1299251932771
 10
-711.4661011421411
 20
185.2797703531813
 10
-711.6423004098131
 20
185.3975029398567
 10
-711.8380825462099
 20
185.4785985560227
 10
-712.0459237536258
 20
185.5199407426288
  0
LWPOLYLINE
  5
ED8D
330
1F
100
AcDbEntity
  8
SCALE
100
AcDbPolyline
 90
        4
 70
     1
 43
0.0
 38
-3.500282726511553
 10
-714.6115138821199
 20
185.3539751973434
 10
-713.4758873338358
 20
185.3539751973434
 10
-713.4758873338358
 20
184.5123673137845
 10
-714.6115138821199
 20
184.5123673137845
  0
LWPOLYLINE
  5
ED8E
330
1F
100
AcDbEntity
  8
DIMS-MTG-HOLES
100
AcDbPolyline
 90
        2
 70
     1
 43
0.0
 38
-2.40028492651157
 10
-712.2762057047355
 20
185.0327205748712
 42
9.572910999271069
 10
-712.0275591630874
 20
185.0327205748712
 42
1.109902724554889
  0
ENDSEC
  0
SECTION
  2
OBJECTS
  0
DICTIONARY
  5
C
330
0
100
AcDbDictionary
  3
ACAD_COLOR
350
73
  3
ACAD_GROUP
350
D
  3
ACAD_LAYOUT
350
1A
  3
ACAD_MATERIAL
350
72
  3
ACAD_MLINESTYLE
350
17
  3
ACAD_PLOTSETTINGS
350
19
  3
ACAD_PLOTSTYLENAME
350
E
  3
ACAD_TABLESTYLE
350
4B00
  3
ACDBHEADERROUNDTRIPXREC
350
ED9D
  3
ACDBVARIABLEDICTIONARY
350
66
  3
BNS_VARIABLES
350
ED0B
  3
DWGPROPS
350
ED92
  0
DICTIONARY
  5
3D71
330
2
100
AcDbDictionary
280
     1
  3
ACAD_LAYERSTATES
360
3D72
  0
DICTIONARY
  5
4957
330
1F
100
AcDbDictionary
280
     1
  3
ACAD_LAYOUTSELFREF
360
EDBE
  3
ACAD_SORTENTS
360
ED14
  0
DICTIONARY
  5
EDBF
330
DFCC
100
AcDbDictionary
280
     1
  3
ACAD_LAYOUTSELFREF
360
EDC0
  0
DICTIONARY
  5
73
102
{ACAD_REACTORS
330
C
102
}
330
C
100
AcDbDictionary
  0
DICTIONARY
  5
D
102
{ACAD_REACTORS
330
C
102
}
330
C
100
AcDbDictionary
  0
DICTIONARY
  5
1A
102
{ACAD_REACTORS
330
C
102
}
330
C
100
AcDbDictionary
  0
DICTIONARY
  5
72
102
{ACAD_REACTORS
330
C
102
}
330
C
100
AcDbDictionary
  0
DICTIONARY
  5
17
102
{ACAD_REACTORS
330
C
102
}
330
C
100
AcDbDictionary
  3
STANDARD
350
18
  0
DICTIONARY
  5
19
102
{ACAD_REACTORS
330
C
102
}
330
C
100
AcDbDictionary
  0
ACDBDICTIONARYWDFLT
  5
E
102
{ACAD_REACTORS
330
C
102
}
330
C
100
AcDbDictionary
281
     1
  3
Normal
350
F
100
AcDbDictionaryWithDefault
340
F
  0
DICTIONARY
  5
4B00
102
{ACAD_REACTORS
330
C
102
}
330
C
100
AcDbDictionary
  3
STANDARD
350
4B01
  0
DICTIONARY
  5
ED9D
102
{ACAD_REACTORS
330
C
102
}
330
C
100
AcDbDictionary
  3
CEPSNTYPE
350
EDA7
  3
DIMSTYLEDATA
350
EDAB
  3
FINGERPRINTGUID
350
EDA8
  3
HYPERLINKBASE
350
EDA0
  3
INSUNITS
350
EDA6
  3
LAYOUTDICT
350
EDA2
  3
LWETCUNION
350
EDA5
  3
PLOTSETDICT
350
EDA3
  3
PLOTSTYLNAMDICT
350
EDA4
  3
PSVPSCALE
350
EDAA
  3
PUCSBASE
350
EDAE
  3
PUCSORGBACK
350
EDB4
  3
PUCSORGBOTTOM
350
EDB0
  3
PUCSORGFRONT
350
EDB3
  3
PUCSORGLEFT
350
EDB1
  3
PUCSORGRIGHT
350
EDB2
  3
PUCSORGTOP
350
EDAF
  3
PUCSORTHOREF
350
EDAC
  3
PUCSORTHOVIEW
350
EDAD
  3
STYLESHEET
350
EDA1
  3
TSTACKALIGN
350
ED9E
  3
TSTACKSIZE
350
ED9F
  3
UCSBASE
350
EDB7
  3
UCSORGBACK
350
EDBD
  3
UCSORGBOTTOM
350
EDB9
  3
UCSORGFRONT
350
EDBC
  3
UCSORGLEFT
350
EDBA
  3
UCSORGRIGHT
350
EDBB
  3
UCSORGTOP
350
EDB8
  3
UCSORTHOREF
350
EDB5
  3
UCSORTHOVIEW
350
EDB6
  3
VERSIONGUID
350
EDA9
  0
DICTIONARY
  5
66
102
{ACAD_REACTORS
330
C
102
}
330
C
100
AcDbDictionary
  3
CTABLESTYLE
350
4BC7
  3
DIMASSOC
350
67
  3
HIDETEXT
350
6B
  3
PROJECTNAME
350
4955
  0
DICTIONARY
  5
ED0B
102
{ACAD_REACTORS
330
C
102
}
330
C
100
AcDbDictionary
  3
ACET-OVERKILL-FUZZ
350
ED54
  3
ACET-OVERKILL-NO-ENDTOEND
350
ED57
  3
ACET-OVERKILL-NO-PARTIAL
350
ED56
  3
ACET-OVERKILL-NO-PLINES
350
ED55
  0
XRECORD
  5
ED92
102
{ACAD_REACTORS
330
C
102
}
330
C
100
AcDbXrecord
  1
DWGPROPS COOKIE
  2

  3

  4

  6

  7

  8
jphassel
  9

300
=
301
=
302
=
303
=
304
=
305
=
306
=
307
=
308
=
309
=
 40
1.153877048611111
 41
2452863.594993102
 42
2453178.482232361
  1

 90
        0
  0
DICTIONARY
  5
3D72
102
{ACAD_REACTORS
330
3D71
102
}
330
3D71
100
AcDbDictionary
  0
XRECORD
  5
EDBE
102
{ACAD_REACTORS
330
4957
102
}
330
4957
100
AcDbXrecord
340
1F
  0
SORTENTSTABLE
  5
ED14
102
{ACAD_REACTORS
330
4957
102
}
330
4957
100
AcDbSortentsTable
330
1F
331
EC3D
  5
EC3D
331
ECAD
  5
ED6F
331
ECB6
  5
ED78
331
EBF8
  5
EBF8
331
ECBF
  5
ED81
331
ECA1
  5
ED63
331
EC01
  5
EC01
331
ED8A
  5
ED1F
331
EBCE
  5
EBCE
331
ECAE
  5
ED70
331
EC29
  5
EC29
331
ECB7
  5
ED79
331
EBF9
  5
EBF9
331
ECA2
  5
ED64
331
ECC0
  5
ED82
331
EBE4
  5
EBE4
331
ED8B
  5
ED21
331
EBCF
  5
EBCF
331
ECAF
  5
ED71
331
ECB8
  5
ED7A
331
EC9A
  5
ED5C
331
ED52
  5
ED8D
331
EBFA
  5
EBFA
331
ECC1
  5
ED83
331
ECA3
  5
ED65
331
ED8C
  5
ED23
331
EBD0
  5
EBD0
331
ECB0
  5
ED72
331
ECB9
  5
ED7B
331
EC9B
  5
ED5D
331
ED53
  5
ED8E
331
EBFB
  5
EBFB
331
ECC2
  5
ED84
331
ECA4
  5
ED66
331
ECA8
  5
ED6A
331
ED8D
  5
ED86
331
ECB1
  5
ED73
331
ECBA
  5
ED7C
331
EC9C
  5
ED5E
331
EBFC
  5
EBFC
331
ECA5
  5
ED67
331
ECA9
  5
ED6B
331
ED8E
  5
ED8B
331
ECB2
  5
ED74
331
ECBB
  5
ED7D
331
EC9D
  5
ED5F
331
EBFD
  5
EBFD
331
ED86
  5
ED17
331
ECA6
  5
ED68
331
EC58
  5
ED5B
331
ECAA
  5
ED6C
331
ECB3
  5
ED75
331
ECBC
  5
ED7E
331
EC9E
  5
ED60
331
EBFE
  5
EBFE
331
ED87
  5
ED19
331
ECA7
  5
ED69
331
ECAB
  5
ED6D
331
ECB4
  5
ED76
331
ECBD
  5
ED7F
331
EC9F
  5
ED61
331
EC15
  5
EC15
331
EBFF
  5
EBFF
331
ED88
  5
ED1B
331
ECAC
  5
ED6E
331
ECB5
  5
ED77
331
ECBE
  5
ED80
331
ECA0
  5
ED62
331
ED89
  5
ED1D
331
EC00
  5
EC00
  0
XRECORD
  5
EDC0
102
{ACAD_REACTORS
330
EDBF
102
}
330
EDBF
100
AcDbXrecord
340
DFCC
  0
MLINESTYLE
  5
18
102
{ACAD_REACTORS
330
17
102
}
330
17
100
AcDbMlineStyle
  2
STANDARD
 70
     0
  3

 62
   256
 51
90.0
 52
90.0
 71
     2
 49
0.5
 62
   256
  6
BYLAYER
 49
-0.5
 62
   256
  6
BYLAYER
  0
ACDBPLACEHOLDER
  5
F
102
{ACAD_REACTORS
330
E
102
}
330
E
100
AcDbPlaceHolder
280
     0
  0
ACAD_PROXY_OBJECT
  5
4B01
102
{ACAD_REACTORS
330
4B00
102
}
330
4B00
100
AcDbProxyObject
 90
      499
 91
      508
 93
     1841
310
4214DD185B99185C9928B81E85EB51B8AE3F2E07A17AD46E2B8FC02B5E8DC0F42B1CFD028000000C1008070000C3001FDFF8000000C1003FBFF000000182007F7FE00000030400FEFFC00000060801FDFF8000000C1003FBFF00000018200000000000000681FA0B0000001820100E000186003FBFF000000182007F7FE000
310
00030400FEFFC00000060801FDFF8000000C1003FBFF000000182007F7FE000000304000AD7A3703D0AC73F4160000003040201C00030C007F7FE00000030400FEFFC00000060801FDFF8000000C1003FBFF000000182007F7FE00000030400FEFFC00000060804D
340
11
340
11
340
11
 94
        0
1001
ACAD
1000
AcRTDxfName
1000
TABLESTYLE
1000
AcadProxyRoundTripData
1071
      506
1071
  2555929
1070
     0
  0
XRECORD
  5
EDA7
102
{ACAD_REACTORS
330
ED9D
102
}
330
ED9D
100
AcDbXrecord
 90
        0
  0
XRECORD
  5
EDAB
102
{ACAD_REACTORS
330
ED9D
102
}
330
ED9D
100
AcDbXrecord
1000
DSTYLE
1002
{
1070
    79
 70
     1
1070
   276
 70
     2
1070
   277
 70
     5
1070
   279
 70
     2
1070
   289
 70
     2
1002
}
  0
XRECORD
  5
EDA8
102
{ACAD_REACTORS
330
ED9D
102
}
330
ED9D
100
AcDbXrecord
  1
{FDEAD576-A652-11D2-9A35-0060089B3A3F}
  0
XRECORD
  5
EDA0
102
{ACAD_REACTORS
330
ED9D
102
}
330
ED9D
100
AcDbXrecord
  1

  0
XRECORD
  5
EDA6
102
{ACAD_REACTORS
330
ED9D
102
}
330
ED9D
100
AcDbXrecord
 90
        1
  0
XRECORD
  5
EDA2
102
{ACAD_REACTORS
330
ED9D
102
}
330
ED9D
100
AcDbXrecord
340
1A
  0
XRECORD
  5
EDA5
102
{ACAD_REACTORS
330
ED9D
102
}
330
ED9D
100
AcDbXrecord
 90
    10781
  0
XRECORD
  5
EDA3
102
{ACAD_REACTORS
330
ED9D
102
}
330
ED9D
100
AcDbXrecord
340
19
  0
XRECORD
  5
EDA4
102
{ACAD_REACTORS
330
ED9D
102
}
330
ED9D
100
AcDbXrecord
340
E
  0
XRECORD
  5
EDAA
102
{ACAD_REACTORS
330
ED9D
102
}
330
ED9D
100
AcDbXrecord
 40
0.0
  0
XRECORD
  5
EDAE
102
{ACAD_REACTORS
330
ED9D
102
}
330
ED9D
100
AcDbXrecord
340
0
  0
XRECORD
  5
EDB4
102
{ACAD_REACTORS
330
ED9D
102
}
330
ED9D
100
AcDbXrecord
 10
0.0
 20
0.0
 30
0.0
  0
XRECORD
  5
EDB0
102
{ACAD_REACTORS
330
ED9D
102
}
330
ED9D
100
AcDbXrecord
 10
0.0
 20
0.0
 30
0.0
  0
XRECORD
  5
EDB3
102
{ACAD_REACTORS
330
ED9D
102
}
330
ED9D
100
AcDbXrecord
 10
0.0
 20
0.0
 30
0.0
  0
XRECORD
  5
EDB1
102
{ACAD_REACTORS
330
ED9D
102
}
330
ED9D
100
AcDbXrecord
 10
0.0
 20
0.0
 30
0.0
  0
XRECORD
  5
EDB2
102
{ACAD_REACTORS
330
ED9D
102
}
330
ED9D
100
AcDbXrecord
 10
0.0
 20
0.0
 30
0.0
  0
XRECORD
  5
EDAF
102
{ACAD_REACTORS
330
ED9D
102
}
330
ED9D
100
AcDbXrecord
 10
0.0
 20
0.0
 30
0.0
  0
XRECORD
  5
EDAC
102
{ACAD_REACTORS
330
ED9D
102
}
330
ED9D
100
AcDbXrecord
340
0
  0
XRECORD
  5
EDAD
102
{ACAD_REACTORS
330
ED9D
102
}
330
ED9D
100
AcDbXrecord
 70
     0
  0
XRECORD
  5
EDA1
102
{ACAD_REACTORS
330
ED9D
102
}
330
ED9D
100
AcDbXrecord
  1

  0
XRECORD
  5
ED9E
102
{ACAD_REACTORS
330
ED9D
102
}
330
ED9D
100
AcDbXrecord
 90
        1
  0
XRECORD
  5
ED9F
102
{ACAD_REACTORS
330
ED9D
102
}
330
ED9D
100
AcDbXrecord
 90
       70
  0
XRECORD
  5
EDB7
102
{ACAD_REACTORS
330
ED9D
102
}
330
ED9D
100
AcDbXrecord
340
0
  0
XRECORD
  5
EDBD
102
{ACAD_REACTORS
330
ED9D
102
}
330
ED9D
100
AcDbXrecord
 10
0.0
 20
0.0
 30
0.0
  0
XRECORD
  5
EDB9
102
{ACAD_REACTORS
330
ED9D
102
}
330
ED9D
100
AcDbXrecord
 10
0.0
 20
0.0
 30
0.0
  0
XRECORD
  5
EDBC
102
{ACAD_REACTORS
330
ED9D
102
}
330
ED9D
100
AcDbXrecord
 10
0.0
 20
0.0
 30
0.0
  0
XRECORD
  5
EDBA
102
{ACAD_REACTORS
330
ED9D
102
}
330
ED9D
100
AcDbXrecord
 10
0.0
 20
0.0
 30
0.0
  0
XRECORD
  5
EDBB
102
{ACAD_REACTORS
330
ED9D
102
}
330
ED9D
100
AcDbXrecord
 10
0.0
 20
0.0
 30
0.0
  0
XRECORD
  5
EDB8
102
{ACAD_REACTORS
330
ED9D
102
}
330
ED9D
100
AcDbXrecord
 10
-712.151880282322
 20
184.4441460530962
 30
-2.510287246511623
  0
XRECORD
  5
EDB5
102
{ACAD_REACTORS
330
ED9D
102
}
330
ED9D
100
AcDbXrecord
340
0
  0
XRECORD
  5
EDB6
102
{ACAD_REACTORS
330
ED9D
102
}
330
ED9D
100
AcDbXrecord
 70
     1
  0
XRECORD
  5
EDA9
102
{ACAD_REACTORS
330
ED9D
102
}
330
ED9D
100
AcDbXrecord
  1
{EEA34CC5-53F5-4058-BEE9-4C8E037515B6}
  0
DICTIONARYVAR
  5
4BC7
102
{ACAD_REACTORS
330
66
102
}
330
66
100
DictionaryVariables
280
     0
  1
STANDARD
  0
DICTIONARYVAR
  5
67
102
{ACAD_REACTORS
330
66
102
}
330
66
100
DictionaryVariables
280
     0
  1
2
  0
DICTIONARYVAR
  5
6B
102
{ACAD_REACTORS
330
66
102
}
330
66
100
DictionaryVariables
280
     0
  1
1
  0
DICTIONARYVAR
  5
4955
102
{ACAD_REACTORS
330
66
102
}
330
66
100
DictionaryVariables
280
     0
  1

  0
XRECORD
  5
ED54
102
{ACAD_REACTORS
330
ED0B
102
}
330
ED0B
100
AcDbXrecord
 40
0.000001
  0
XRECORD
  5
ED57
102
{ACAD_REACTORS
330
ED0B
102
}
330
ED0B
100
AcDbXrecord
 70
     0
  0
XRECORD
  5
ED56
102
{ACAD_REACTORS
330
ED0B
102
}
330
ED0B
100
AcDbXrecord
 70
     0
  0
XRECORD
  5
ED55
102
{ACAD_REACTORS
330
ED0B
102
}
330
ED0B
100
AcDbXrecord
 70
     0
  0
ENDSEC
  0
EOF
