  0
SECTION
  2
HEADER
  9
$ACADVER
  1
AC1015
  9
$ACADMAINTVER
 70
     6
  9
$DWGCODEPAGE
  3
ANSI_1252
  9
$INSBASE
 10
0.0
 20
0.0
 30
0.0
  9
$EXTMIN
 10
-134.909714845695
 20
-113.8091488316071
 30
1.143337753488359
  9
$EXTMAX
 10
-11.44090666352177
 20
-38.21185545472184
 30
76.58133775348836
  9
$LIMMIN
 10
0.0
 20
0.0
  9
$LIMMAX
 10
12.0
 20
9.0
  9
$ORTHOMODE
 70
     1
  9
$REGENMODE
 70
     1
  9
$FILLMODE
 70
     1
  9
$QTEXTMODE
 70
     0
  9
$MIRRTEXT
 70
     0
  9
$LTSCALE
 40
1.0
  9
$ATTMODE
 70
     1
  9
$TEXTSIZE
 40
0.2
  9
$TRACEWID
 40
0.05
  9
$TEXTSTYLE
  7
Standard
  9
$CLAYER
  8
0
  9
$CELTYPE
  6
ByLayer
  9
$CECOLOR
 62
   256
  9
$CELTSCALE
 40
1.0
  9
$DISPSILH
 70
     0
  9
$DIMSCALE
 40
1.0
  9
$DIMASZ
 40
0.18
  9
$DIMEXO
 40
0.0625
  9
$DIMDLI
 40
0.38
  9
$DIMRND
 40
0.0
  9
$DIMDLE
 40
0.0
  9
$DIMEXE
 40
0.18
  9
$DIMTP
 40
0.0
  9
$DIMTM
 40
0.0
  9
$DIMTXT
 40
0.18
  9
$DIMCEN
 40
0.09
  9
$DIMTSZ
 40
0.0
  9
$DIMTOL
 70
     0
  9
$DIMLIM
 70
     0
  9
$DIMTIH
 70
     1
  9
$DIMTOH
 70
     1
  9
$DIMSE1
 70
     0
  9
$DIMSE2
 70
     0
  9
$DIMTAD
 70
     0
  9
$DIMZIN
 70
     0
  9
$DIMBLK
  1

  9
$DIMASO
 70
     1
  9
$DIMSHO
 70
     1
  9
$DIMPOST
  1

  9
$DIMAPOST
  1

  9
$DIMALT
 70
     0
  9
$DIMALTD
 70
     2
  9
$DIMALTF
 40
25.4
  9
$DIMLFAC
 40
1.0
  9
$DIMTOFL
 70
     0
  9
$DIMTVP
 40
0.0
  9
$DIMTIX
 70
     0
  9
$DIMSOXD
 70
     0
  9
$DIMSAH
 70
     0
  9
$DIMBLK1
  1

  9
$DIMBLK2
  1

  9
$DIMSTYLE
  2
Standard
  9
$DIMCLRD
 70
     0
  9
$DIMCLRE
 70
     0
  9
$DIMCLRT
 70
     0
  9
$DIMTFAC
 40
1.0
  9
$DIMGAP
 40
0.09
  9
$DIMJUST
 70
     0
  9
$DIMSD1
 70
     0
  9
$DIMSD2
 70
     0
  9
$DIMTOLJ
 70
     1
  9
$DIMTZIN
 70
     0
  9
$DIMALTZ
 70
     0
  9
$DIMALTTZ
 70
     0
  9
$DIMUPT
 70
     0
  9
$DIMDEC
 70
     4
  9
$DIMTDEC
 70
     4
  9
$DIMALTU
 70
     2
  9
$DIMALTTD
 70
     2
  9
$DIMTXSTY
  7
Standard
  9
$DIMAUNIT
 70
     0
  9
$DIMADEC
 70
     0
  9
$DIMALTRND
 40
0.0
  9
$DIMAZIN
 70
     0
  9
$DIMDSEP
 70
    46
  9
$DIMATFIT
 70
     3
  9
$DIMFRAC
 70
     0
  9
$DIMLDRBLK
  1

  9
$DIMLUNIT
 70
     2
  9
$DIMLWD
 70
    -2
  9
$DIMLWE
 70
    -2
  9
$DIMTMOVE
 70
     0
  9
$LUNITS
 70
     2
  9
$LUPREC
 70
     4
  9
$SKETCHINC
 40
0.1
  9
$FILLETRAD
 40
0.0
  9
$AUNITS
 70
     0
  9
$AUPREC
 70
     0
  9
$MENU
  1
.
  9
$ELEVATION
 40
0.0
  9
$PELEVATION
 40
0.0
  9
$THICKNESS
 40
0.0
  9
$LIMCHECK
 70
     0
  9
$CHAMFERA
 40
0.0
  9
$CHAMFERB
 40
0.0
  9
$CHAMFERC
 40
0.0
  9
$CHAMFERD
 40
0.0
  9
$SKPOLY
 70
     0
  9
$TDCREATE
 40
2452863.553326435
  9
$TDUCREATE
 40
2452863.803326435
  9
$TDUPDATE
 40
2453339.358508530
  9
$TDUUPDATE
 40
2453339.608508530
  9
$TDINDWG
 40
0.2188783796
  9
$TDUSRTIMER
 40
0.2188783796
  9
$USRTIMER
 70
     1
  9
$ANGBASE
 50
0.0
  9
$ANGDIR
 70
     0
  9
$PDMODE
 70
     3
  9
$PDSIZE
 40
2.5
  9
$PLINEWID
 40
0.0
  9
$SPLFRAME
 70
     0
  9
$SPLINETYPE
 70
     6
  9
$SPLINESEGS
 70
     8
  9
$HANDSEED
  5
4BB2
  9
$SURFTAB1
 70
     6
  9
$SURFTAB2
 70
     6
  9
$SURFTYPE
 70
     6
  9
$SURFU
 70
     6
  9
$SURFV
 70
     6
  9
$UCSBASE
  2

  9
$UCSNAME
  2

  9
$UCSORG
 10
0.0
 20
0.0
 30
0.0
  9
$UCSXDIR
 10
1.0
 20
0.0
 30
0.0
  9
$UCSYDIR
 10
0.0
 20
1.0
 30
0.0
  9
$UCSORTHOREF
  2

  9
$UCSORTHOVIEW
 70
     0
  9
$UCSORGTOP
 10
-56.25945103763877
 20
-79.51914883160651
 30
1.143337753488371
  9
$UCSORGBOTTOM
 10
0.0
 20
0.0
 30
0.0
  9
$UCSORGLEFT
 10
0.0
 20
0.0
 30
0.0
  9
$UCSORGRIGHT
 10
0.0
 20
0.0
 30
0.0
  9
$UCSORGFRONT
 10
0.0
 20
0.0
 30
0.0
  9
$UCSORGBACK
 10
0.0
 20
0.0
 30
0.0
  9
$PUCSBASE
  2

  9
$PUCSNAME
  2

  9
$PUCSORG
 10
0.0
 20
0.0
 30
0.0
  9
$PUCSXDIR
 10
1.0
 20
0.0
 30
0.0
  9
$PUCSYDIR
 10
0.0
 20
1.0
 30
0.0
  9
$PUCSORTHOREF
  2

  9
$PUCSORTHOVIEW
 70
     0
  9
$PUCSORGTOP
 10
0.0
 20
0.0
 30
0.0
  9
$PUCSORGBOTTOM
 10
0.0
 20
0.0
 30
0.0
  9
$PUCSORGLEFT
 10
0.0
 20
0.0
 30
0.0
  9
$PUCSORGRIGHT
 10
0.0
 20
0.0
 30
0.0
  9
$PUCSORGFRONT
 10
0.0
 20
0.0
 30
0.0
  9
$PUCSORGBACK
 10
0.0
 20
0.0
 30
0.0
  9
$USERI1
 70
     0
  9
$USERI2
 70
     0
  9
$USERI3
 70
     0
  9
$USERI4
 70
     0
  9
$USERI5
 70
     0
  9
$USERR1
 40
0.0
  9
$USERR2
 40
0.0
  9
$USERR3
 40
0.0
  9
$USERR4
 40
0.0
  9
$USERR5
 40
0.0
  9
$WORLDVIEW
 70
     1
  9
$SHADEDGE
 70
     3
  9
$SHADEDIF
 70
    70
  9
$TILEMODE
 70
     0
  9
$MAXACTVP
 70
    48
  9
$PINSBASE
 10
0.0
 20
0.0
 30
0.0
  9
$PLIMCHECK
 70
     0
  9
$PEXTMIN
 10
0.0226429257092988
 20
0.0040681204654334
 30
0.0
  9
$PEXTMAX
 10
10.55573210096327
 20
8.074637622092751
 30
0.0
  9
$PLIMMIN
 10
-0.2112501249538632
 20
-0.2112499935420479
  9
$PLIMMAX
 10
10.78874963475024
 20
8.288749766162061
  9
$UNITMODE
 70
     0
  9
$VISRETAIN
 70
     1
  9
$PLINEGEN
 70
     0
  9
$PSLTSCALE
 70
     1
  9
$TREEDEPTH
 70
  3020
  9
$CMLSTYLE
  2
Standard
  9
$CMLJUST
 70
     0
  9
$CMLSCALE
 40
1.0
  9
$PROXYGRAPHICS
 70
     1
  9
$MEASUREMENT
 70
     0
  9
$CELWEIGHT
370
    -1
  9
$ENDCAPS
280
     0
  9
$JOINSTYLE
280
     0
  9
$LWDISPLAY
290
     0
  9
$INSUNITS
 70
     1
  9
$HYPERLINKBASE
  1

  9
$STYLESHEET
  1

  9
$XEDIT
290
     1
  9
$CEPSNTYPE
380
     0
  9
$PSTYLEMODE
290
     1
  9
$FINGERPRINTGUID
  2
{FDEAD576-A652-11D2-9A35-0060089B3A3F}
  9
$VERSIONGUID
  2
{45DDE1C2-C3BE-4C1F-98FA-033F9A272042}
  9
$EXTNAMES
290
     1
  9
$PSVPSCALE
 40
0.0
  9
$OLESTARTUP
290
     0
  0
ENDSEC
  0
SECTION
  2
CLASSES
  0
CLASS
  1
ACDBDICTIONARYWDFLT
  2
AcDbDictionaryWithDefault
  3
AutoCAD 2000
 90
        0
280
     0
281
     0
  0
CLASS
  1
ACDBPLACEHOLDER
  2
AcDbPlaceHolder
  3
AutoCAD 2000
 90
        0
280
     0
281
     0
  0
CLASS
  1
LAYOUT
  2
AcDbLayout
  3
AutoCAD 2000
 90
        0
280
     0
281
     0
  0
CLASS
  1
DICTIONARYVAR
  2
AcDbDictionaryVar
  3
AutoCAD 2000
 90
        0
280
     0
281
     0
  0
CLASS
  1
LWPOLYLINE
  2
AcDbPolyline
  3
AutoCAD 2000
 90
    32768
280
     0
281
     1
  0
CLASS
  1
XRECORD
  2
AcDbXrecord
  3
AutoCAD 2000
 90
    32768
280
     0
281
     0
  0
CLASS
  1
LONG_TRANSACTION
  2
AcDbLongTransaction
  3
AutoCAD 2000
 90
    32768
280
     0
281
     0
  0
CLASS
  1
LWPOLYLINE
  2
AcDbPolyline
  3
AutoCAD 2000
 90
    32768
280
     0
281
     1
  0
CLASS
  1
HATCH
  2
AcDbHatch
  3
AutoCAD 2000
 90
    32768
280
     0
281
     1
  0
CLASS
  1
XRECORD
  2
AcDbXrecord
  3
AutoCAD 2000
 90
    32768
280
     0
281
     0
  0
ENDSEC
  0
SECTION
  2
TABLES
  0
TABLE
  2
VPORT
  5
8
330
0
100
AcDbSymbolTable
 70
     1
  0
VPORT
  5
4AE8
330
8
100
AcDbSymbolTableRecord
100
AcDbViewportTableRecord
  2
*Active
 70
     0
 10
0.0
 20
0.0
 11
1.0
 21
1.0
 12
-649.1580271994226
 22
-214.3230120215126
 13
0.0
 23
0.0
 14
0.5
 24
0.5
 15
0.5
 25
0.5
 16
0.0
 26
0.0
 36
1.0
 17
597.1132717491491
 27
140.6793838807493
 37
-214.2511548797272
 40
195.3997460927524
 41
1.803827751196172
 42
50.0
 43
0.0
 44
0.0
 50
0.0
 51
0.0
 71
     0
 72
  1000
 73
     1
 74
     2
 75
     0
 76
     0
 77
     0
 78
     0
281
     0
 65
     1
110
-56.25945103763877
120
-79.51914883160651
130
1.143337753488371
111
1.0
121
0.0
131
0.0
112
0.0
122
1.0
132
0.0
 79
     1
146
0.0
  0
ENDTAB
  0
TABLE
  2
LTYPE
  5
5
330
0
100
AcDbSymbolTable
 70
     1
  0
LTYPE
  5
14
330
5
100
AcDbSymbolTableRecord
100
AcDbLinetypeTableRecord
  2
ByBlock
 70
     0
  3

 72
    65
 73
     0
 40
0.0
  0
LTYPE
  5
15
330
5
100
AcDbSymbolTableRecord
100
AcDbLinetypeTableRecord
  2
ByLayer
 70
     0
  3

 72
    65
 73
     0
 40
0.0
  0
LTYPE
  5
16
330
5
100
AcDbSymbolTableRecord
100
AcDbLinetypeTableRecord
  2
Continuous
 70
     0
  3
Solid line
 72
    65
 73
     0
 40
0.0
  0
ENDTAB
  0
TABLE
  2
LAYER
  5
2
102
{ACAD_XDICTIONARY
360
3D71
102
}
330
0
100
AcDbSymbolTable
 70
     8
  0
LAYER
  5
10
330
2
100
AcDbSymbolTableRecord
100
AcDbLayerTableRecord
  2
0
 70
     0
 62
     7
  6
Continuous
370
    -3
390
F
  0
LAYER
  5
98E
330
2
100
AcDbSymbolTableRecord
100
AcDbLayerTableRecord
  2
AREA1
 70
     0
 62
     7
  6
Continuous
370
    -3
390
F
  0
LAYER
  5
98F
330
2
100
AcDbSymbolTableRecord
100
AcDbLayerTableRecord
  2
AREA2
 70
     0
 62
     7
  6
Continuous
370
    -3
390
F
  0
LAYER
  5
990
330
2
100
AcDbSymbolTableRecord
100
AcDbLayerTableRecord
  2
DEFPOINTS
 70
     0
 62
    -7
  6
Continuous
290
     0
370
    -3
390
F
  0
LAYER
  5
991
330
2
100
AcDbSymbolTableRecord
100
AcDbLayerTableRecord
  2
SCALE
 70
     0
 62
    -7
  6
Continuous
370
    -3
390
F
  0
LAYER
  5
992
330
2
100
AcDbSymbolTableRecord
100
AcDbLayerTableRecord
  2
SNAP_POINTS
 70
     0
 62
    -1
  6
Continuous
370
    -3
390
F
  0
LAYER
  5
993
330
2
100
AcDbSymbolTableRecord
100
AcDbLayerTableRecord
  2
ATTRIBUTES
 70
     0
 62
    -7
  6
Continuous
370
    -3
390
F
  0
LAYER
  5
1722
330
2
100
AcDbSymbolTableRecord
100
AcDbLayerTableRecord
  2
DIMS-MTG-HOLES
 70
     0
 62
    -1
  6
Continuous
370
    -3
390
F
  0
ENDTAB
  0
TABLE
  2
STYLE
  5
3
330
0
100
AcDbSymbolTable
 70
     1
  0
STYLE
  5
11
330
3
100
AcDbSymbolTableRecord
100
AcDbTextStyleTableRecord
  2
Standard
 70
     0
 40
0.0
 41
1.0
 50
0.0
 71
     0
 42
0.2
  3
txt
  4

  0
ENDTAB
  0
TABLE
  2
VIEW
  5
6
330
0
100
AcDbSymbolTable
 70
     0
  0
ENDTAB
  0
TABLE
  2
UCS
  5
7
330
0
100
AcDbSymbolTable
 70
     0
  0
ENDTAB
  0
TABLE
  2
APPID
  5
9
330
0
100
AcDbSymbolTable
 70
     1
  0
APPID
  5
12
330
9
100
AcDbSymbolTableRecord
100
AcDbRegAppTableRecord
  2
ACAD
 70
     0
  0
ENDTAB
  0
TABLE
  2
DIMSTYLE
  5
A
330
0
100
AcDbSymbolTable
 70
     2
100
AcDbDimStyleTable
 71
     0
  0
DIMSTYLE
105
27
330
A
100
AcDbSymbolTableRecord
100
AcDbDimStyleTableRecord
  2
Standard
 70
     0
340
11
  0
DIMSTYLE
105
995
102
{ACAD_REACTORS
330
4A9D
330
4A9E
330
4A9F
102
}
330
A
100
AcDbSymbolTableRecord
100
AcDbDimStyleTableRecord
  2
ABECAD_3D
 70
     0
 41
4.572
 42
1.587499999999999
 43
9.525
 44
2.0
 73
     0
 78
     4
140
4.572
141
2.286
143
0.03937
146
1.5
147
2.286
170
     1
171
     6
271
     2
272
     2
273
     7
274
     6
276
     2
279
     2
284
     4
285
     4
286
     4
289
     2
340
11
  0
ENDTAB
  0
TABLE
  2
BLOCK_RECORD
  5
1
330
0
100
AcDbSymbolTable
 70
     3
  0
BLOCK_RECORD
  5
1F
102
{ACAD_XDICTIONARY
360
4957
102
}
330
1
100
AcDbSymbolTableRecord
100
AcDbBlockTableRecord
  2
*Model_Space
340
22
  0
BLOCK_RECORD
  5
89
102
{ACAD_XDICTIONARY
360
4959
102
}
330
1
100
AcDbSymbolTableRecord
100
AcDbBlockTableRecord
  2
*Paper_Space
340
8A
  0
BLOCK_RECORD
  5
4AA0
330
1
100
AcDbSymbolTableRecord
100
AcDbBlockTableRecord
  2
*D0
340
0
  0
BLOCK_RECORD
  5
4AAD
330
1
100
AcDbSymbolTableRecord
100
AcDbBlockTableRecord
  2
*D1
340
0
  0
BLOCK_RECORD
  5
4ABA
330
1
100
AcDbSymbolTableRecord
100
AcDbBlockTableRecord
  2
*D2
340
0
  0
ENDTAB
  0
ENDSEC
  0
SECTION
  2
BLOCKS
  0
BLOCK
  5
20
330
1F
100
AcDbEntity
  8
0
100
AcDbBlockBegin
  2
*Model_Space
 70
     0
 10
0.0
 20
0.0
 30
0.0
  3
*Model_Space
  1

  0
ENDBLK
  5
21
330
1F
100
AcDbEntity
  8
0
100
AcDbBlockEnd
  0
BLOCK
  5
8B
330
89
100
AcDbEntity
 67
     1
  8
0
100
AcDbBlockBegin
  2
*Paper_Space
 70
     0
 10
0.0
 20
0.0
 30
0.0
  3
*Paper_Space
  1

  0
ENDBLK
  5
8C
330
89
100
AcDbEntity
 67
     1
  8
0
100
AcDbBlockEnd
  0
BLOCK
  5
4AAB
330
4AA0
100
AcDbEntity
  8
0
100
AcDbBlockBegin
  2
*D0
 70
     1
 10
0.0
 20
0.0
 30
0.0
  3
*D0
  1

  0
LINE
  5
4AC7
330
4AA0
100
AcDbEntity
  8
AREA1
 62
     0
370
    -2
100
AcDbLine
 10
-21.96945103763948
 20
-77.93164883160674
 30
0.0
 11
-21.96945103763948
 21
-38.21185545472184
 31
0.0
  0
LINE
  5
4AC8
330
4AA0
100
AcDbEntity
  8
AREA1
 62
     0
370
    -2
100
AcDbLine
 10
-90.54945103763945
 20
-77.93164883160674
 30
0.0
 11
-90.54945103763945
 21
-38.21185545472184
 31
0.0
  0
LINE
  5
4AC9
330
4AA0
100
AcDbEntity
  8
AREA1
 62
     0
370
    -2
100
AcDbLine
 10
-25.46945103763948
 20
-40.21185545472184
 30
0.0
 11
-30.64011770430613
 21
-40.21185545472184
 31
0.0
  0
LINE
  5
4ACA
330
4AA0
100
AcDbEntity
  8
AREA1
 62
     0
370
    -2
100
AcDbLine
 10
-87.04945103763945
 20
-40.21185545472184
 30
0.0
 11
-81.8787843709728
 21
-40.21185545472184
 31
0.0
  0
SOLID
  5
4ACB
330
4AA0
100
AcDbEntity
  8
AREA1
 62
     0
100
AcDbTrace
 10
-25.46945103763948
 20
-39.6285221213885
 30
0.0
 11
-25.46945103763948
 21
-40.79518878805518
 31
0.0
 12
-21.96945103763948
 22
-40.21185545472184
 32
0.0
 13
-21.96945103763948
 23
-40.21185545472184
 33
0.0
  0
SOLID
  5
4ACC
330
4AA0
100
AcDbEntity
  8
AREA1
 62
     0
100
AcDbTrace
 10
-87.04945103763945
 20
-39.6285221213885
 30
0.0
 11
-87.04945103763945
 21
-40.79518878805518
 31
0.0
 12
-90.54945103763945
 22
-40.21185545472184
 32
0.0
 13
-90.54945103763945
 23
-40.21185545472184
 33
0.0
  0
MTEXT
  5
4ACD
330
4AA0
100
AcDbEntity
  8
AREA1
 62
     0
100
AcDbMText
 10
-56.25945103763946
 20
-40.21185545472184
 30
0.0
 40
3.5
 41
0.0
 71
     5
 72
     1
  1
\A1;68.58 [2 45/64]
 73
     1
 44
1.0
  0
POINT
  5
4ACE
330
4AA0
100
AcDbEntity
  8
DEFPOINTS
 62
     0
100
AcDbPoint
 10
-21.96945103763948
 20
-79.51914883160674
 30
0.0
  0
POINT
  5
4ACF
330
4AA0
100
AcDbEntity
  8
DEFPOINTS
 62
     0
100
AcDbPoint
 10
-90.54945103763945
 20
-79.51914883160674
 30
0.0
  0
POINT
  5
4AD0
330
4AA0
100
AcDbEntity
  8
DEFPOINTS
 62
     0
100
AcDbPoint
 10
-90.54945103763945
 20
-40.21185545472184
 30
0.0
  0
ENDBLK
  5
4AAC
330
4AA0
100
AcDbEntity
  8
0
100
AcDbBlockEnd
  0
BLOCK
  5
4AB8
330
4AAD
100
AcDbEntity
  8
0
100
AcDbBlockBegin
  2
*D1
 70
     1
 10
0.0
 20
0.0
 30
0.0
  3
*D1
  1

  0
LINE
  5
4AD1
330
4AAD
100
AcDbEntity
  8
AREA2
 62
     0
370
    -2
100
AcDbLine
 10
-54.67195103763945
 20
76.58133775348836
 30
0.0
 11
-13.13428365187438
 21
76.58133775348834
 31
0.0
  0
LINE
  5
4AD2
330
4AAD
100
AcDbEntity
  8
AREA2
 62
     0
370
    -2
100
AcDbLine
 10
-54.67195103763945
 20
1.143337753488371
 30
0.0
 11
-13.13428365187439
 21
1.143337753488359
 31
0.0
  0
LINE
  5
4AD3
330
4AAD
100
AcDbEntity
  8
AREA2
 62
     0
370
    -2
100
AcDbLine
 10
-15.13428365187438
 20
73.08133775348834
 30
0.0
 11
-15.13428365187438
 21
63.89833775348835
 31
0.0
  0
LINE
  5
4AD4
330
4AAD
100
AcDbEntity
  8
AREA2
 62
     0
370
    -2
100
AcDbLine
 10
-15.13428365187439
 20
4.64333775348836
 30
0.0
 11
-15.13428365187439
 21
13.82633775348834
 31
0.0
  0
SOLID
  5
4AD5
330
4AAD
100
AcDbEntity
  8
AREA2
 62
     0
100
AcDbTrace
 10
-15.71761698520771
 20
73.08133775348834
 30
0.0
 11
-14.55095031854104
 21
73.08133775348834
 31
0.0
 12
-15.13428365187438
 22
76.58133775348834
 32
0.0
 13
-15.13428365187438
 23
76.58133775348834
 33
0.0
  0
SOLID
  5
4AD6
330
4AAD
100
AcDbEntity
  8
AREA2
 62
     0
100
AcDbTrace
 10
-15.71761698520773
 20
4.64333775348836
 30
0.0
 11
-14.55095031854106
 21
4.64333775348836
 31
0.0
 12
-15.13428365187439
 22
1.14333775348836
 32
0.0
 13
-15.13428365187439
 23
1.14333775348836
 33
0.0
  0
MTEXT
  5
4AD7
330
4AAD
100
AcDbEntity
  8
AREA2
 62
     0
100
AcDbMText
 10
-15.13428365187439
 20
38.86233775348834
 30
0.0
 40
3.5
 41
0.0
 71
     5
 72
     1
  1
\A1;75.44 [2 31/32]
 11
0.0000000000000001
 21
1.0
 31
0.0
 73
     1
 44
1.0
  0
POINT
  5
4AD8
330
4AAD
100
AcDbEntity
  8
DEFPOINTS
 62
     0
100
AcDbPoint
 10
-56.25945103763945
 20
76.58133775348836
 30
0.0
  0
POINT
  5
4AD9
330
4AAD
100
AcDbEntity
  8
DEFPOINTS
 62
     0
100
AcDbPoint
 10
-56.25945103763945
 20
1.143337753488371
 30
0.0
  0
POINT
  5
4ADA
330
4AAD
100
AcDbEntity
  8
DEFPOINTS
 62
     0
100
AcDbPoint
 10
-15.13428365187439
 20
1.14333775348836
 30
0.0
  0
ENDBLK
  5
4AB9
330
4AAD
100
AcDbEntity
  8
0
100
AcDbBlockEnd
  0
BLOCK
  5
4AC5
330
4ABA
100
AcDbEntity
  8
0
100
AcDbBlockBegin
  2
*D2
 70
     1
 10
0.0
 20
0.0
 30
0.0
  3
*D2
  1

  0
LINE
  5
4ADB
330
4ABA
100
AcDbEntity
  8
AREA1
 62
     0
370
    -2
100
AcDbLine
 10
-54.67195103763945
 20
-45.22914883160678
 30
0.0
 11
-11.44090666352177
 21
-45.22914883160679
 31
0.0
  0
LINE
  5
4ADC
330
4ABA
100
AcDbEntity
  8
AREA1
 62
     0
370
    -2
100
AcDbLine
 10
-54.67195103763945
 20
-113.8091488316071
 30
0.0
 11
-11.44090666352178
 21
-113.8091488316071
 31
0.0
  0
LINE
  5
4ADD
330
4ABA
100
AcDbEntity
  8
AREA1
 62
     0
370
    -2
100
AcDbLine
 10
-13.44090666352177
 20
-48.72914883160679
 30
0.0
 11
-13.44090666352177
 21
-52.94694444596888
 31
0.0
  0
LINE
  5
4ADE
330
4ABA
100
AcDbEntity
  8
AREA1
 62
     0
370
    -2
100
AcDbLine
 10
-13.44090666352178
 20
-110.3091488316071
 30
0.0
 11
-13.44090666352178
 21
-104.1856111126355
 31
0.0
  0
MTEXT
  5
4ADF
330
4ABA
100
AcDbEntity
  8
AREA1
 62
     0
100
AcDbMText
 10
-13.30075757243122
 20
-78.56627777930221
 30
0.0
 40
3.5
 41
0.0
 71
     5
 72
     1
  1
\A1;68.58 [2 45/64]
 11
0.0000000000000001
 21
1.0
 31
0.0
 73
     1
 44
1.0
  0
SOLID
  5
4AE0
330
4ABA
100
AcDbEntity
  8
AREA1
 62
     0
100
AcDbTrace
 10
-14.0242399968551
 20
-48.72914883160679
 30
0.0
 11
-12.85757333018843
 21
-48.72914883160679
 31
0.0
 12
-13.44090666352177
 22
-45.22914883160679
 32
0.0
 13
-13.44090666352177
 23
-45.22914883160679
 33
0.0
  0
SOLID
  5
4AE1
330
4ABA
100
AcDbEntity
  8
AREA1
 62
     0
100
AcDbTrace
 10
-14.02423999685512
 20
-110.3091488316071
 30
0.0
 11
-12.85757333018845
 21
-110.3091488316071
 31
0.0
 12
-13.44090666352178
 22
-113.8091488316071
 32
0.0
 13
-13.44090666352178
 23
-113.8091488316071
 33
0.0
  0
POINT
  5
4AE2
330
4ABA
100
AcDbEntity
  8
DEFPOINTS
 62
     0
100
AcDbPoint
 10
-56.25945103763945
 20
-45.22914883160678
 30
0.0
  0
POINT
  5
4AE3
330
4ABA
100
AcDbEntity
  8
DEFPOINTS
 62
     0
100
AcDbPoint
 10
-56.25945103763945
 20
-113.8091488316071
 30
0.0
  0
POINT
  5
4AE4
330
4ABA
100
AcDbEntity
  8
DEFPOINTS
 62
     0
100
AcDbPoint
 10
-13.44090666352178
 20
-113.8091488316071
 30
0.0
  0
ENDBLK
  5
4AC6
330
4ABA
100
AcDbEntity
  8
0
100
AcDbBlockEnd
  0
ENDSEC
  0
SECTION
  2
ENTITIES
  0
ATTDEF
  5
4A6C
330
1F
100
AcDbEntity
  8
ATTRIBUTES
100
AcDbText
 10
-70.35901108917897
 20
-63.36933642129231
 30
1.143337753488371
 40
0.7371124428729576
  1
ALLEN-BRADLEY
100
AcDbAttributeDefinition
  3
MANUFACTURER NAME?
  2
AC_VND_LABEL
 70
     1
  0
ATTDEF
  5
4A6D
330
1F
100
AcDbEntity
  8
ATTRIBUTES
100
AcDbText
 10
-70.35901108917897
 20
-64.9049873439442
 30
1.143337753488371
 40
0.7371124428729576
  1
855T-_DN/FN/BR
100
AcDbAttributeDefinition
  3
CATALOG NUMBER?
  2
AC_PART_NO
 70
     1
  0
ATTDEF
  5
4A6E
330
1F
100
AcDbEntity
  8
ATTRIBUTES
100
AcDbText
 10
-70.35901108917897
 20
-66.44063826659625
 30
1.143337753488371
 40
0.7371124428729576
  1
LIGHT MODULE
100
AcDbAttributeDefinition
  3
PART DESCRIPTION?
  2
AC_DESCRIPTION
 70
     1
  0
ATTDEF
  5
4A6F
330
1F
100
AcDbEntity
  8
ATTRIBUTES
100
AcDbText
 10
-70.35901108917897
 20
-67.97628918924814
 30
1.143337753488371
 40
0.7371124428729576
  1

100
AcDbAttributeDefinition
  3
DEVICE ID?
  2
DEVICE_ID
 70
     1
  0
ATTDEF
  5
4A70
330
1F
100
AcDbEntity
  8
ATTRIBUTES
100
AcDbText
 10
-70.35901108917897
 20
-69.51194011190018
 30
1.143337753488371
 40
0.7371124428729576
  1

100
AcDbAttributeDefinition
  3
CUSTOMER PART NUMBER?
  2
AC_CPART_NO
 70
     1
  0
ATTDEF
  5
4A71
330
1F
100
AcDbEntity
  8
ATTRIBUTES
100
AcDbText
 10
-70.35901108917897
 20
-71.04759103455229
 30
1.143337753488371
 40
0.7371124428729576
  1

100
AcDbAttributeDefinition
  3
CUSTOMER NOTE?
  2
AC_NOTE
 70
     1
  0
ATTDEF
  5
4A72
330
1F
100
AcDbEntity
  8
ATTRIBUTES
100
AcDbText
 10
-70.35901108917897
 20
-72.58324195720412
 30
1.143337753488371
 40
0.7371124428729576
  1

100
AcDbAttributeDefinition
  3
FASTENER DATA?
  2
FASTENER
 70
     1
  0
ATTDEF
  5
4A73
330
1F
100
AcDbEntity
  8
ATTRIBUTES
100
AcDbText
 10
-70.35901108917897
 20
-74.11889287985617
 30
1.143337753488371
 40
0.7371124428729576
  1
INCH
100
AcDbAttributeDefinition
  3
UNIT OF SCALE?
  2
AC_SCALE_UNIT
 70
     1
  0
ATTDEF
  5
4A74
330
1F
100
AcDbEntity
  8
ATTRIBUTES
100
AcDbText
 10
-70.33534174819379
 20
-75.64714111129736
 30
1.143337753488371
 40
0.7371124428729576
  1
0
100
AcDbAttributeDefinition
  3
VIEW CODE?
  2
AC_VIEW_CODE
 70
     1
  0
CIRCLE
  5
4A75
330
1F
100
AcDbEntity
  8
0
 62
     0
100
AcDbCircle
 39
67.818
 10
-56.25945103763877
 20
-79.5191488316065
 30
1.143337753488371
 40
34.29
  0
CIRCLE
  5
4A76
330
1F
100
AcDbEntity
  8
0
 62
     0
100
AcDbCircle
 39
7.619999999999999
 10
-56.25945103763877
 20
-79.5191488316065
 30
68.96133775348836
 40
31.623
  0
ARC
  5
4A77
330
1F
100
AcDbEntity
  8
0
 62
     0
100
AcDbCircle
 10
-28.44645103763878
 20
-75.07414883160693
 30
76.58133775348836
 40
1.27
100
AcDbArc
 50
0.0
 51
195.538631131094
  0
ARC
  5
4A78
330
1F
100
AcDbEntity
  8
0
 62
     0
100
AcDbCircle
 10
-28.44645103763878
 20
-83.96414883160678
 30
76.58133775348836
 40
1.27
100
AcDbArc
 50
164.4613688689059
 51
0.0
  0
ARC
  5
4A79
330
1F
100
AcDbEntity
  8
0
 62
     0
100
AcDbCircle
 10
-58.4854929265249
 20
-79.5191488316065
 30
76.58133775348836
 40
31.623
100
AcDbArc
 50
351.2459617337038
 51
8.754038266296147
  0
LWPOLYLINE
  5
4A7A
330
1F
100
AcDbEntity
  8
0
 62
     0
100
AcDbPolyline
 90
        2
 70
     0
 43
0.0
 38
76.58133775348836
 10
-29.71645103763978
 20
-83.96414883160691
 42
0.0706317460324611
 10
-29.71645103763978
 20
-75.07414883160703
 42
0.0706317460324611
  0
LWPOLYLINE
  5
4A7B
330
1F
100
AcDbEntity
  8
0
 62
     0
100
AcDbPolyline
 90
        2
 70
     0
 43
0.0
 38
76.58133775348836
 10
-65.68146811781764
 20
-54.30973653895666
 42
0.0706317460324611
 10
-73.38043395746092
 20
-58.75473653895681
 42
0.0706317460324611
  0
ARC
  5
4A7C
330
1F
100
AcDbEntity
  8
0
 62
     0
100
AcDbCircle
 10
-55.1464300931957
 20
-81.44695765727005
 30
76.58133775348836
 40
31.623
100
AcDbArc
 50
111.2459617337053
 51
128.754038266296
  0
ARC
  5
4A7D
330
1F
100
AcDbEntity
  8
0
 62
     0
100
AcDbCircle
 10
-66.31646811781741
 20
-53.20988427614995
 30
76.58133775348836
 40
1.27
100
AcDbArc
 50
284.4613688689067
 51
120.0000000000001
  0
ARC
  5
4A7E
330
1F
100
AcDbEntity
  8
0
 62
     0
100
AcDbCircle
 10
-74.0154339574608
 20
-57.65488427615025
 30
76.58133775348836
 40
1.27
100
AcDbArc
 50
120.0000000000001
 51
315.5386311310939
  0
LWPOLYLINE
  5
4A7F
330
1F
100
AcDbEntity
  8
0
 62
     0
100
AcDbPolyline
 90
        2
 70
     0
 43
0.0
 38
76.58133775348836
 10
-77.02386333028982
 20
-62.39816591178527
 42
0.0706317460324611
 10
-81.46886333028954
 20
-70.09713175142855
 42
0.0706317460324611
  0
ARC
  5
4A80
330
1F
100
AcDbEntity
  8
0
 62
     0
100
AcDbCircle
 10
-54.33164221197592
 20
-80.63216977604955
 30
76.58133775348836
 40
31.623
100
AcDbArc
 50
141.2459617337039
 51
158.7540382662949
  0
ARC
  5
4A81
330
1F
100
AcDbEntity
  8
0
 62
     0
100
AcDbCircle
 10
-78.12371559309577
 20
-61.76316591178519
 30
76.58133775348836
 40
1.27
100
AcDbArc
 50
314.461368868906
 51
150.0000000000002
  0
ARC
  5
4A82
330
1F
100
AcDbEntity
  8
0
 62
     0
100
AcDbCircle
 10
-82.56871559309525
 20
-69.46213175142855
 30
76.58133775348836
 40
1.27
100
AcDbArc
 50
150.0000000000002
 51
345.5386311310933
  0
LWPOLYLINE
  5
4A83
330
1F
100
AcDbEntity
  8
0
 62
     0
100
AcDbPolyline
 90
        2
 70
     0
 43
0.0
 38
76.58133775348836
 10
-82.80245103763911
 20
-75.07414883160703
 42
0.0706317460324611
 10
-82.80245103763911
 20
-83.96414883160691
 42
0.0706317460324611
  0
ARC
  5
4A84
330
1F
100
AcDbEntity
  8
0
 62
     0
100
AcDbCircle
 10
-54.03340914875332
 20
-79.5191488316065
 30
76.58133775348836
 40
31.623
100
AcDbArc
 50
171.2459617337038
 51
188.7540382662945
  0
ARC
  5
4A85
330
1F
100
AcDbEntity
  8
0
 62
     0
100
AcDbCircle
 10
-84.07245103763875
 20
-75.07414883160693
 30
76.58133775348836
 40
1.27
100
AcDbArc
 50
344.4613688689059
 51
180.0
  0
ARC
  5
4A86
330
1F
100
AcDbEntity
  8
0
 62
     0
100
AcDbCircle
 10
-84.07245103763875
 20
-83.96414883160678
 30
76.58133775348836
 40
1.27
100
AcDbArc
 50
180.0
 51
15.538631131094
  0
LWPOLYLINE
  5
4A87
330
1F
100
AcDbEntity
  8
0
 62
     0
100
AcDbPolyline
 90
        2
 70
     0
 43
0.0
 38
76.58133775348836
 10
-81.46886333028954
 20
-88.94116591178493
 42
0.0706317460324611
 10
-77.02386333028982
 20
-96.64013175142867
 42
0.0706317460324611
  0
ARC
  5
4A88
330
1F
100
AcDbEntity
  8
0
 62
     0
100
AcDbCircle
 10
-54.33164221197592
 20
-78.40612788716416
 30
76.58133775348836
 40
31.623
100
AcDbArc
 50
201.2459617337051
 51
218.754038266296
  0
ARC
  5
4A89
330
1F
100
AcDbEntity
  8
0
 62
     0
100
AcDbCircle
 10
-82.56871559309525
 20
-89.57616591178517
 30
76.58133775348836
 40
1.27
100
AcDbArc
 50
14.46136886890665
 51
209.9999999999997
  0
ARC
  5
4A8A
330
1F
100
AcDbEntity
  8
0
 62
     0
100
AcDbCircle
 10
-78.12371559309577
 20
-97.27513175142853
 30
76.58133775348836
 40
1.27
100
AcDbArc
 50
209.9999999999997
 51
45.53863113109392
  0
LWPOLYLINE
  5
4A8B
330
1F
100
AcDbEntity
  8
0
 62
     0
100
AcDbPolyline
 90
        2
 70
     0
 43
0.0
 38
76.58133775348836
 10
-73.38043395746092
 20
-100.2835611242571
 42
0.0706317460324611
 10
-65.68146811781764
 20
-104.7285611242572
 42
0.0706317460324611
  0
ARC
  5
4A8C
330
1F
100
AcDbEntity
  8
0
 62
     0
100
AcDbCircle
 10
-55.1464300931957
 20
-77.59134000594369
 30
76.58133775348836
 40
31.623
100
AcDbArc
 50
231.2459617337038
 51
248.7540382662945
  0
ARC
  5
4A8D
330
1F
100
AcDbEntity
  8
0
 62
     0
100
AcDbCircle
 10
-74.0154339574608
 20
-101.3834133870634
 30
76.58133775348836
 40
1.27
100
AcDbArc
 50
44.46136886890609
 51
239.9999999999998
  0
ARC
  5
4A8E
330
1F
100
AcDbEntity
  8
0
 62
     0
100
AcDbCircle
 10
-66.31646811781741
 20
-105.8284133870637
 30
76.58133775348836
 40
1.27
100
AcDbArc
 50
239.9999999999998
 51
75.53863113109334
  0
CIRCLE
  5
4A8F
330
1F
100
AcDbEntity
  8
0
 62
     0
100
AcDbCircle
 10
-76.25840914875334
 20
-79.5191488316065
 30
76.58133775348836
 40
1.650999999999999
  0
POINT
  5
4A90
330
1F
100
AcDbEntity
  8
SNAP_POINTS
100
AcDbPoint
 10
-56.25945103763877
 20
-79.5191488316065
 30
1.143337753488371
  0
POINT
  5
4A91
330
1F
100
AcDbEntity
  8
SNAP_POINTS
100
AcDbPoint
 10
-56.25945103763877
 20
-79.5191488316065
 30
68.96133775348836
  0
LINE
  5
4A92
330
1F
100
AcDbEntity
  8
SCALE
100
AcDbLine
 10
-133.4365487743342
 20
-73.99636345041144
 30
1.143337753488371
 11
-108.0365487743342
 21
-73.99636345041144
 31
1.143337753488371
  0
LINE
  5
4A93
330
1F
100
AcDbEntity
  8
SCALE
100
AcDbLine
 10
-108.0365487743342
 20
-73.99636345041144
 30
1.143337753488371
 11
-108.0365487743342
 21
-76.53636345041201
 31
1.143337753488371
  0
LINE
  5
4A94
330
1F
100
AcDbEntity
  8
SCALE
100
AcDbLine
 10
-108.0365487743342
 20
-76.53636345041201
 30
1.143337753488371
 11
-108.0365487743342
 21
-71.45636345041157
 31
1.143337753488371
  0
LINE
  5
4A95
330
1F
100
AcDbEntity
  8
SCALE
100
AcDbLine
 10
-133.4365487743342
 20
-76.53636345041201
 30
1.143337753488371
 11
-133.4365487743342
 21
-71.45636345041157
 31
1.143337753488371
  0
LINE
  5
4A96
330
1F
100
AcDbEntity
  8
SCALE
100
AcDbLine
 10
-133.4365487743342
 20
-84.15636345041157
 30
1.143337753488371
 11
-133.4365487743342
 21
-79.07636345041186
 31
1.143337753488371
  0
LINE
  5
4A97
330
1F
100
AcDbEntity
  8
SCALE
100
AcDbLine
 10
-123.4365687743343
 20
-84.15636345041157
 30
1.143337753488371
 11
-123.4365687743343
 21
-79.07636345041186
 31
1.143337753488371
  0
LINE
  5
4A98
330
1F
100
AcDbEntity
  8
SCALE
100
AcDbLine
 10
-133.4365487743342
 20
-81.61636345041172
 30
1.143337753488371
 11
-123.4365687743343
 21
-81.61636345041172
 31
1.143337753488371
  0
TEXT
  5
4A99
330
1F
100
AcDbEntity
  8
SCALE
100
AcDbText
 10
-131.927226033561
 20
-80.45457646044894
 30
1.143337753488371
 40
1.587499999999999
  1
[10mm]
100
AcDbText
  0
TEXT
  5
4A9A
330
1F
100
AcDbEntity
  8
SCALE
100
AcDbText
 10
-124.2091608668435
 20
-72.24252658793222
 30
1.143337753488371
 40
1.587499999999999
  1
1 Inch
100
AcDbText
  0
TEXT
  5
4A9B
330
1F
100
AcDbEntity
  8
SCALE
100
AcDbText
 10
-133.3976800370727
 20
-67.01448457006225
 30
1.143337753488371
 40
1.587499999999999
  1
SCALE:
100
AcDbText
  0
LWPOLYLINE
  5
4A9C
330
1F
100
AcDbEntity
  8
SCALE
100
AcDbPolyline
 90
        4
 70
     1
 43
0.0
 38
1.143337753488371
 10
-134.909714845695
 20
-64.34237415532511
 10
-106.0647428293288
 20
-64.34237415532511
 10
-106.0647428293288
 20
-85.71925715148649
 10
-134.909714845695
 20
-85.71925715148649
  0
DIMENSION
  5
4A9D
330
1F
100
AcDbEntity
  8
AREA1
100
AcDbDimension
  2
*D0
 10
-90.54945103763945
 20
-40.21185545472184
 30
1.143337753488371
 11
-56.25945103763946
 21
-40.21185545472184
 31
1.143337753488371
 70
    32
 71
     5
 42
-1.0
  3
ABECAD_3D
100
AcDbAlignedDimension
 13
-21.96945103763948
 23
-79.51914883160674
 33
1.143337753488371
 14
-90.54945103763945
 24
-79.51914883160674
 34
1.143337753488371
100
AcDbRotatedDimension
1001
ACAD
1000
DSTYLE
1002
{
1070
   171
1070
     6
1070
    41
1040
3.5
1070
   140
1040
3.5
1002
}
  0
DIMENSION
  5
4A9E
330
1F
100
AcDbEntity
  8
AREA2
100
AcDbDimension
  2
*D1
 10
-15.13428365187439
 20
-45.22914883160678
 30
1.14333775348836
 11
-15.13428365187439
 21
38.86233775348834
 31
45.22914883160678
 70
    32
 71
     5
 42
-1.0
210
0.0
220
-1.0
230
0.0
  3
ABECAD_3D
100
AcDbAlignedDimension
 13
-56.25945103763945
 23
-45.22914883160678
 33
76.58133775348836
 14
-56.25945103763945
 24
-45.22914883160678
 34
1.143337753488371
 50
90.0
100
AcDbRotatedDimension
1001
ACAD
1000
DSTYLE
1002
{
1070
   171
1070
     6
1070
    41
1040
3.5
1070
   140
1040
3.5
1002
}
  0
DIMENSION
  5
4A9F
330
1F
100
AcDbEntity
  8
AREA1
100
AcDbDimension
  2
*D2
 10
-13.44090666352178
 20
-113.8091488316071
 30
1.143337753488371
 11
-13.30075757243122
 21
-78.56627777930221
 31
1.143337753488371
 70
   160
 71
     5
 42
-1.0
  3
ABECAD_3D
100
AcDbAlignedDimension
 13
-56.25945103763945
 23
-45.22914883160678
 33
1.143337753488371
 14
-56.25945103763945
 24
-113.8091488316071
 34
1.143337753488371
 50
90.0
100
AcDbRotatedDimension
1001
ACAD
1000
DSTYLE
1002
{
1070
   171
1070
     6
1070
    41
1040
3.5
1070
   140
1040
3.5
1002
}
  0
VIEWPORT
  5
9C
102
{ACAD_XDICTIONARY
360
4B86
102
}
330
89
100
AcDbEntity
 67
     1
  8
0
100
AcDbViewport
 10
5.289169397200101
 20
4.365481707851727
 30
0.0
 40
15.80492611790593
 41
8.817779293013835
 68
     1
 69
     1
 12
5.289169397200101
 22
4.365481707851727
 13
0.0
 23
0.0
 14
0.5
 24
0.5
 15
0.5
 25
0.5
 16
0.0
 26
0.0
 36
1.0
 17
0.0
 27
0.0
 37
0.0
 42
50.0
 43
0.0
 44
0.0
 45
8.817779293013835
 50
0.0
 51
0.0
 72
  1000
 90
    32800
  1

281
     0
 71
     1
 74
     0
110
0.0
120
0.0
130
0.0
111
1.0
121
0.0
131
0.0
112
0.0
122
1.0
132
0.0
 79
     0
146
0.0
  0
VIEWPORT
  5
960
102
{ACAD_XDICTIONARY
360
4B88
102
}
330
89
100
AcDbEntity
 67
     1
  8
0
100
AcDbViewport
 10
2.655279694450206
 20
6.057012312879796
 30
0.0
 40
5.265273537481815
 41
4.03525061842591
 68
     3
 69
     2
 12
-49.6039857670382
 22
-76.00996274971464
 13
0.0
 23
0.0
 14
0.5
 24
0.5
 15
0.5
 25
0.5
 16
0.0
 26
0.0
 36
1.0
 17
0.0
 27
0.0
 37
0.0
 42
50.0
 43
0.0
 44
0.0
 45
96.33129543389593
 50
0.0
 51
0.0
 72
  1000
341
98F
 90
    32832
  1

281
     2
 71
     1
 74
     0
110
0.0
120
0.0
130
0.0
111
1.0
121
0.0
131
0.0
112
0.0
122
1.0
132
0.0
 79
     0
146
0.0
  0
VIEWPORT
  5
962
102
{ACAD_XDICTIONARY
360
4B8A
102
}
330
89
100
AcDbEntity
 67
     1
  8
0
100
AcDbViewport
 10
2.655279694450205
 20
2.021727562066137
 30
0.0
 40
5.265273537481814
 41
4.035318883201407
 68
     2
 69
     3
 12
-52.97080986189616
 22
41.10979558650178
 13
0.0
 23
0.0
 14
0.5
 24
0.5
 15
0.5
 25
0.5
 16
0.0
 26
-1.0
 36
0.0
 17
0.0
 27
0.0
 37
0.0
 42
50.0
 43
0.0
 44
0.0
 45
96.33295385364217
 50
0.0
 51
0.0
 72
  1000
341
98E
 90
    32832
  1

281
     0
 71
     1
 74
     0
110
0.0
120
0.0
130
0.0
111
1.0
121
0.0
131
0.0
112
0.0
122
1.0
132
0.0
 79
     0
146
0.0
  0
VIEWPORT
  5
964
102
{ACAD_XDICTIONARY
360
4B8C
102
}
330
89
100
AcDbEntity
 67
     1
  8
0
100
AcDbViewport
 10
7.921824282077194
 20
3.635929901306325
 30
0.0
 40
5.26781563777216
 41
7.263723561681783
 68
     4
 69
     4
 12
14.33551604676057
 22
3.527478356458848
 13
0.0
 23
0.0
 14
0.5
 24
0.5
 15
0.5
 25
0.5
 16
-1.0
 26
-1.0
 36
1.0
 17
0.0
 27
0.0
 37
0.0
 42
50.0
 43
0.0
 44
0.0
 45
165.4479252082438
 50
0.0
 51
0.0
 72
  1000
341
98E
341
98F
 90
    32832
  1

281
     0
 71
     1
 74
     0
110
0.0
120
0.0
130
0.0
111
1.0
121
0.0
131
0.0
112
0.0
122
0.0
132
1.0
 79
     3
146
0.0
  0
TEXT
  5
965
330
89
100
AcDbEntity
 67
     1
  8
0
100
AcDbText
 10
5.478669782259466
 20
7.727515017556658
 30
0.0
 40
0.203125
  1
855T-_DN/FN/BR
100
AcDbText
  0
TEXT
  5
966
330
89
100
AcDbEntity
 67
     1
  8
0
100
AcDbText
 10
5.478669782259466
 20
7.394181684223325
 30
0.0
 40
0.203125
  1
LIGHT MODULE
100
AcDbText
  0
TEXT
  5
344A
330
89
100
AcDbEntity
 67
     1
  8
0
100
AcDbText
 10
5.479838180965032
 20
7.031294393421783
 30
0.0
 40
0.203125
  1

100
AcDbText
  0
ENDSEC
  0
SECTION
  2
OBJECTS
  0
DICTIONARY
  5
C
330
0
100
AcDbDictionary
281
     1
  3
ACAD_COLOR
350
73
  3
ACAD_GROUP
350
D
  3
ACAD_LAYOUT
350
1A
  3
ACAD_MATERIAL
350
72
  3
ACAD_MLINESTYLE
350
17
  3
ACAD_PLOTSETTINGS
350
19
  3
ACAD_PLOTSTYLENAME
350
E
  3
ACDBHEADERROUNDTRIPXREC
350
4B92
  3
AcDbVariableDictionary
350
66
  0
DICTIONARY
  5
3D71
330
2
100
AcDbDictionary
280
     1
281
     1
  3
ACAD_LAYERSTATES
360
3D72
  0
DICTIONARY
  5
4957
330
1F
100
AcDbDictionary
280
     1
281
     1
  3
ACAD_LAYOUTSELFREF
360
4B7A
  0
DICTIONARY
  5
4959
330
89
100
AcDbDictionary
280
     1
281
     1
  3
ACAD_LAYOUTSELFREF
360
4B7B
  0
DICTIONARY
  5
4B86
330
9C
100
AcDbDictionary
280
     1
281
     1
  3
ACAD_XREC_ROUNDTRIP
360
4B87
  0
DICTIONARY
  5
4B88
330
960
100
AcDbDictionary
280
     1
281
     1
  3
ACAD_XREC_ROUNDTRIP
360
4B89
  0
DICTIONARY
  5
4B8A
330
962
100
AcDbDictionary
280
     1
281
     1
  3
ACAD_XREC_ROUNDTRIP
360
4B8B
  0
DICTIONARY
  5
4B8C
330
964
100
AcDbDictionary
280
     1
281
     1
  3
ACAD_XREC_ROUNDTRIP
360
4B8D
  0
DICTIONARY
  5
73
102
{ACAD_REACTORS
330
C
102
}
330
C
100
AcDbDictionary
281
     1
  0
DICTIONARY
  5
D
102
{ACAD_REACTORS
330
C
102
}
330
C
100
AcDbDictionary
281
     1
  0
DICTIONARY
  5
1A
102
{ACAD_REACTORS
330
C
102
}
330
C
100
AcDbDictionary
281
     1
  3
Model
350
22
  3
Viewports
350
8A
  0
DICTIONARY
  5
72
102
{ACAD_REACTORS
330
C
102
}
330
C
100
AcDbDictionary
281
     1
  0
DICTIONARY
  5
17
102
{ACAD_REACTORS
330
C
102
}
330
C
100
AcDbDictionary
281
     1
  3
Standard
350
18
  0
DICTIONARY
  5
19
102
{ACAD_REACTORS
330
C
102
}
330
C
100
AcDbDictionary
281
     1
  0
ACDBDICTIONARYWDFLT
  5
E
102
{ACAD_REACTORS
330
C
102
}
330
C
100
AcDbDictionary
281
     1
  3
Normal
350
F
100
AcDbDictionaryWithDefault
340
F
  0
DICTIONARY
  5
4B92
102
{ACAD_REACTORS
330
C
102
}
330
C
100
AcDbDictionary
281
     1
  3
CEPSNTYPE
350
4B9C
  3
FINGERPRINTGUID
350
4B9D
  3
HYPERLINKBASE
350
4B95
  3
INSUNITS
350
4B9B
  3
LAYOUTDICT
350
4B97
  3
LWETCUNION
350
4B9A
  3
PLOTSETDICT
350
4B98
  3
PLOTSTYLNAMDICT
350
4B99
  3
PSVPSCALE
350
4B9F
  3
PUCSBASE
350
4BA2
  3
PUCSORGBACK
350
4BA8
  3
PUCSORGBOTTOM
350
4BA4
  3
PUCSORGFRONT
350
4BA7
  3
PUCSORGLEFT
350
4BA5
  3
PUCSORGRIGHT
350
4BA6
  3
PUCSORGTOP
350
4BA3
  3
PUCSORTHOREF
350
4BA0
  3
PUCSORTHOVIEW
350
4BA1
  3
STYLESHEET
350
4B96
  3
TSTACKALIGN
350
4B93
  3
TSTACKSIZE
350
4B94
  3
UCSBASE
350
4BAB
  3
UCSORGBACK
350
4BB1
  3
UCSORGBOTTOM
350
4BAD
  3
UCSORGFRONT
350
4BB0
  3
UCSORGLEFT
350
4BAE
  3
UCSORGRIGHT
350
4BAF
  3
UCSORGTOP
350
4BAC
  3
UCSORTHOREF
350
4BA9
  3
UCSORTHOVIEW
350
4BAA
  3
VERSIONGUID
350
4B9E
  0
DICTIONARY
  5
66
102
{ACAD_REACTORS
330
C
102
}
330
C
100
AcDbDictionary
281
     1
  3
DIMASSOC
350
67
  3
HIDETEXT
350
6B
  3
PROJECTNAME
350
4955
  0
DICTIONARY
  5
3D72
102
{ACAD_REACTORS
330
3D71
102
}
330
3D71
100
AcDbDictionary
281
     1
  0
XRECORD
  5
4B7A
102
{ACAD_REACTORS
330
4957
102
}
330
4957
100
AcDbXrecord
280
     1
340
1F
  0
XRECORD
  5
4B7B
102
{ACAD_REACTORS
330
4959
102
}
330
4959
100
AcDbXrecord
280
     1
340
89
  0
XRECORD
  5
4B87
102
{ACAD_REACTORS
330
4B86
102
}
330
4B86
100
AcDbXrecord
280
     1
102
SHADEPLOT
 70
     0
  0
XRECORD
  5
4B89
102
{ACAD_REACTORS
330
4B88
102
}
330
4B88
100
AcDbXrecord
280
     1
102
SHADEPLOT
 70
     0
  0
XRECORD
  5
4B8B
102
{ACAD_REACTORS
330
4B8A
102
}
330
4B8A
100
AcDbXrecord
280
     1
102
SHADEPLOT
 70
     0
  0
XRECORD
  5
4B8D
102
{ACAD_REACTORS
330
4B8C
102
}
330
4B8C
100
AcDbXrecord
280
     1
102
SHADEPLOT
 70
     0
  0
LAYOUT
  5
22
102
{ACAD_XDICTIONARY
360
4B82
102
}
102
{ACAD_REACTORS
330
1A
102
}
330
1A
100
AcDbPlotSettings
  1

  2
none_device
  4
ANSI_A_(8.50_x_11.00_Inches)
  6

 40
6.349999904632568
 41
19.04999923706054
 42
6.350006103515625
 43
19.04998779296875
 44
215.8999938964843
 45
279.3999938964843
 46
0.0
 47
0.0
 48
0.0
 49
0.0
140
0.0
141
0.0
142
1.0
143
2.584895464708373
 70
 11952
 72
     0
 73
     1
 74
     0
  7

 75
     0
147
0.3868628397755418
148
0.0
149
0.0
100
AcDbLayout
  1
Model
 70
     1
 71
     0
 10
0.0
 20
0.0
 11
12.0
 21
9.0
 12
0.0
 22
0.0
 32
0.0
 14
0.0
 24
0.0
 34
0.0
 15
0.0
 25
0.0
 35
0.0
146
0.0
 13
0.0
 23
0.0
 33
0.0
 16
1.0
 26
0.0
 36
0.0
 17
0.0
 27
1.0
 37
0.0
 76
     0
330
1F
  0
LAYOUT
  5
8A
102
{ACAD_XDICTIONARY
360
4B84
102
}
102
{ACAD_REACTORS
330
1A
102
}
330
1A
100
AcDbPlotSettings
  1

  2
\\Usmkevprnt002\USMKEPD0178
  4
Letter
  6

 40
5.365749835968017
 41
5.408084392547607
 42
5.4080810546875
 43
5.365753173828125
 44
215.8999938964843
 45
279.3999938964843
 46
0.0
 47
0.0
 48
0.0
 49
0.0
140
0.0
141
0.0
142
1.0
143
1.0
 70
   688
 72
     0
 73
     1
 74
     5
  7

 75
    16
147
1.0
148
0.0
149
0.0
100
AcDbLayout
  1
Viewports
 70
     1
 71
     1
 10
-0.2112501249538632
 20
-0.2112499935420479
 11
10.78874963475024
 21
8.288749766162061
 12
0.0
 22
0.0
 32
0.0
 14
0.0226429257092988
 24
0.0040681204654334
 34
0.0
 15
10.55573210096327
 25
8.074637622092751
 35
0.0
146
0.0
 13
0.0
 23
0.0
 33
0.0
 16
1.0
 26
0.0
 36
0.0
 17
0.0
 27
1.0
 37
0.0
 76
     0
330
89
331
9C
  0
MLINESTYLE
  5
18
102
{ACAD_REACTORS
330
17
102
}
330
17
100
AcDbMlineStyle
  2
STANDARD
 70
     0
  3

 62
   256
 51
90.0
 52
90.0
 71
     2
 49
0.5
 62
   256
  6
BYLAYER
 49
-0.5
 62
   256
  6
BYLAYER
  0
ACDBPLACEHOLDER
  5
F
102
{ACAD_REACTORS
330
E
102
}
330
E
  0
XRECORD
  5
4B9C
102
{ACAD_REACTORS
330
4B92
102
}
330
4B92
100
AcDbXrecord
280
     1
 90
        0
  0
XRECORD
  5
4B9D
102
{ACAD_REACTORS
330
4B92
102
}
330
4B92
100
AcDbXrecord
280
     1
  1
{FDEAD576-A652-11D2-9A35-0060089B3A3F}
  0
XRECORD
  5
4B95
102
{ACAD_REACTORS
330
4B92
102
}
330
4B92
100
AcDbXrecord
280
     1
  1

  0
XRECORD
  5
4B9B
102
{ACAD_REACTORS
330
4B92
102
}
330
4B92
100
AcDbXrecord
280
     1
 90
        1
  0
XRECORD
  5
4B97
102
{ACAD_REACTORS
330
4B92
102
}
330
4B92
100
AcDbXrecord
280
     1
340
1A
  0
XRECORD
  5
4B9A
102
{ACAD_REACTORS
330
4B92
102
}
330
4B92
100
AcDbXrecord
280
     1
 90
    10781
  0
XRECORD
  5
4B98
102
{ACAD_REACTORS
330
4B92
102
}
330
4B92
100
AcDbXrecord
280
     1
340
19
  0
XRECORD
  5
4B99
102
{ACAD_REACTORS
330
4B92
102
}
330
4B92
100
AcDbXrecord
280
     1
340
E
  0
XRECORD
  5
4B9F
102
{ACAD_REACTORS
330
4B92
102
}
330
4B92
100
AcDbXrecord
280
     1
 40
0.0
  0
XRECORD
  5
4BA2
102
{ACAD_REACTORS
330
4B92
102
}
330
4B92
100
AcDbXrecord
280
     1
340
0
  0
XRECORD
  5
4BA8
102
{ACAD_REACTORS
330
4B92
102
}
330
4B92
100
AcDbXrecord
280
     1
 10
0.0
 20
0.0
 30
0.0
  0
XRECORD
  5
4BA4
102
{ACAD_REACTORS
330
4B92
102
}
330
4B92
100
AcDbXrecord
280
     1
 10
0.0
 20
0.0
 30
0.0
  0
XRECORD
  5
4BA7
102
{ACAD_REACTORS
330
4B92
102
}
330
4B92
100
AcDbXrecord
280
     1
 10
0.0
 20
0.0
 30
0.0
  0
XRECORD
  5
4BA5
102
{ACAD_REACTORS
330
4B92
102
}
330
4B92
100
AcDbXrecord
280
     1
 10
0.0
 20
0.0
 30
0.0
  0
XRECORD
  5
4BA6
102
{ACAD_REACTORS
330
4B92
102
}
330
4B92
100
AcDbXrecord
280
     1
 10
0.0
 20
0.0
 30
0.0
  0
XRECORD
  5
4BA3
102
{ACAD_REACTORS
330
4B92
102
}
330
4B92
100
AcDbXrecord
280
     1
 10
0.0
 20
0.0
 30
0.0
  0
XRECORD
  5
4BA0
102
{ACAD_REACTORS
330
4B92
102
}
330
4B92
100
AcDbXrecord
280
     1
340
0
  0
XRECORD
  5
4BA1
102
{ACAD_REACTORS
330
4B92
102
}
330
4B92
100
AcDbXrecord
280
     1
 70
     0
  0
XRECORD
  5
4B96
102
{ACAD_REACTORS
330
4B92
102
}
330
4B92
100
AcDbXrecord
280
     1
  1

  0
XRECORD
  5
4B93
102
{ACAD_REACTORS
330
4B92
102
}
330
4B92
100
AcDbXrecord
280
     1
 90
        1
  0
XRECORD
  5
4B94
102
{ACAD_REACTORS
330
4B92
102
}
330
4B92
100
AcDbXrecord
280
     1
 90
       70
  0
XRECORD
  5
4BAB
102
{ACAD_REACTORS
330
4B92
102
}
330
4B92
100
AcDbXrecord
280
     1
340
0
  0
XRECORD
  5
4BB1
102
{ACAD_REACTORS
330
4B92
102
}
330
4B92
100
AcDbXrecord
280
     1
 10
0.0
 20
0.0
 30
0.0
  0
XRECORD
  5
4BAD
102
{ACAD_REACTORS
330
4B92
102
}
330
4B92
100
AcDbXrecord
280
     1
 10
0.0
 20
0.0
 30
0.0
  0
XRECORD
  5
4BB0
102
{ACAD_REACTORS
330
4B92
102
}
330
4B92
100
AcDbXrecord
280
     1
 10
0.0
 20
0.0
 30
0.0
  0
XRECORD
  5
4BAE
102
{ACAD_REACTORS
330
4B92
102
}
330
4B92
100
AcDbXrecord
280
     1
 10
0.0
 20
0.0
 30
0.0
  0
XRECORD
  5
4BAF
102
{ACAD_REACTORS
330
4B92
102
}
330
4B92
100
AcDbXrecord
280
     1
 10
0.0
 20
0.0
 30
0.0
  0
XRECORD
  5
4BAC
102
{ACAD_REACTORS
330
4B92
102
}
330
4B92
100
AcDbXrecord
280
     1
 10
-56.25945103763877
 20
-79.51914883160651
 30
1.143337753488371
  0
XRECORD
  5
4BA9
102
{ACAD_REACTORS
330
4B92
102
}
330
4B92
100
AcDbXrecord
280
     1
340
0
  0
XRECORD
  5
4BAA
102
{ACAD_REACTORS
330
4B92
102
}
330
4B92
100
AcDbXrecord
280
     1
 70
     0
  0
XRECORD
  5
4B9E
102
{ACAD_REACTORS
330
4B92
102
}
330
4B92
100
AcDbXrecord
280
     1
  1
{45DDE1C2-C3BE-4C1F-98FA-033F9A272042}
  0
DICTIONARYVAR
  5
67
102
{ACAD_REACTORS
330
66
102
}
330
66
100
DictionaryVariables
280
     0
  1
2
  0
DICTIONARYVAR
  5
6B
102
{ACAD_REACTORS
330
66
102
}
330
66
100
DictionaryVariables
280
     0
  1
1
  0
DICTIONARYVAR
  5
4955
102
{ACAD_REACTORS
330
66
102
}
330
66
100
DictionaryVariables
280
     0
  1

  0
DICTIONARY
  5
4B82
330
22
100
AcDbDictionary
280
     1
281
     1
  3
ACAD_XREC_ROUNDTRIP
360
4B83
  0
DICTIONARY
  5
4B84
330
8A
100
AcDbDictionary
280
     1
281
     1
  3
ACAD_XREC_ROUNDTRIP
360
4B85
  0
XRECORD
  5
4B83
102
{ACAD_REACTORS
330
4B82
102
}
330
4B82
100
AcDbXrecord
280
     1
102
SHADEPLOT
 70
     0
102
SHADEPLOTRESLEVEL
 70
     2
102
SHADEPLOTCUSTOMDPI
 70
   300
  0
XRECORD
  5
4B85
102
{ACAD_REACTORS
330
4B84
102
}
330
4B84
100
AcDbXrecord
280
     1
102
SHADEPLOT
 70
     1
102
SHADEPLOTRESLEVEL
 70
     2
102
SHADEPLOTCUSTOMDPI
 70
   300
  0
ENDSEC
  0
EOF
