  0
SECTION
  2
HEADER
  9
$ACADVER
  1
AC1015
  9
$ACADMAINTVER
 70
     6
  9
$DWGCODEPAGE
  3
ANSI_1252
  9
$INSBASE
 10
0.0
 20
0.0
 30
0.0
  9
$EXTMIN
 10
210.1483556787946
 20
-139.278287782426
 30
-0.0000000000000129
  9
$EXTMAX
 10
336.189163860968
 20
-61.10899440554073
 30
75.438
  9
$LIMMIN
 10
0.0
 20
0.0
  9
$LIMMAX
 10
12.0
 20
9.0
  9
$ORTHOMODE
 70
     0
  9
$REGENMODE
 70
     1
  9
$FILLMODE
 70
     1
  9
$QTEXTMODE
 70
     0
  9
$MIRRTEXT
 70
     1
  9
$LTSCALE
 40
1.0
  9
$ATTMODE
 70
     1
  9
$TEXTSIZE
 40
0.12
  9
$TRACEWID
 40
0.05
  9
$TEXTSTYLE
  7
STANDARD
  9
$CLAYER
  8
0
  9
$CELTYPE
  6
BYBLOCK
  9
$CECOLOR
 62
     7
  9
$CELTSCALE
 40
1.0
  9
$DISPSILH
 70
     0
  9
$DIMSCALE
 40
1.0
  9
$DIMASZ
 40
4.572
  9
$DIMEXO
 40
1.587499999999999
  9
$DIMDLI
 40
9.525
  9
$DIMRND
 40
0.0
  9
$DIMDLE
 40
0.0
  9
$DIMEXE
 40
4.572
  9
$DIMTP
 40
0.0
  9
$DIMTM
 40
0.0
  9
$DIMTXT
 40
4.572
  9
$DIMCEN
 40
2.286
  9
$DIMTSZ
 40
0.0
  9
$DIMTOL
 70
     0
  9
$DIMLIM
 70
     0
  9
$DIMTIH
 70
     0
  9
$DIMTOH
 70
     1
  9
$DIMSE1
 70
     0
  9
$DIMSE2
 70
     0
  9
$DIMTAD
 70
     0
  9
$DIMZIN
 70
     4
  9
$DIMBLK
  1

  9
$DIMASO
 70
     1
  9
$DIMSHO
 70
     1
  9
$DIMPOST
  1

  9
$DIMAPOST
  1

  9
$DIMALT
 70
     1
  9
$DIMALTD
 70
     6
  9
$DIMALTF
 40
0.03937
  9
$DIMLFAC
 40
1.0
  9
$DIMTOFL
 70
     0
  9
$DIMTVP
 40
0.0
  9
$DIMTIX
 70
     0
  9
$DIMSOXD
 70
     0
  9
$DIMSAH
 70
     0
  9
$DIMBLK1
  1

  9
$DIMBLK2
  1

  9
$DIMSTYLE
  2
ABECAD_3D
  9
$DIMCLRD
 70
     0
  9
$DIMCLRE
 70
     0
  9
$DIMCLRT
 70
     0
  9
$DIMTFAC
 40
1.5
  9
$DIMGAP
 40
2.286
  9
$DIMJUST
 70
     0
  9
$DIMSD1
 70
     0
  9
$DIMSD2
 70
     0
  9
$DIMTOLJ
 70
     1
  9
$DIMTZIN
 70
     4
  9
$DIMALTZ
 70
     4
  9
$DIMALTTZ
 70
     4
  9
$DIMUPT
 70
     1
  9
$DIMDEC
 70
     2
  9
$DIMTDEC
 70
     2
  9
$DIMALTU
 70
     7
  9
$DIMALTTD
 70
     6
  9
$DIMTXSTY
  7
STANDARD
  9
$DIMAUNIT
 70
     0
  9
$DIMADEC
 70
     0
  9
$DIMALTRND
 40
0.0
  9
$DIMAZIN
 70
     0
  9
$DIMDSEP
 70
    46
  9
$DIMATFIT
 70
     2
  9
$DIMFRAC
 70
     2
  9
$DIMLDRBLK
  1

  9
$DIMLUNIT
 70
     2
  9
$DIMLWD
 70
    -2
  9
$DIMLWE
 70
    -2
  9
$DIMTMOVE
 70
     2
  9
$LUNITS
 70
     2
  9
$LUPREC
 70
     4
  9
$SKETCHINC
 40
0.1
  9
$FILLETRAD
 40
0.0
  9
$AUNITS
 70
     0
  9
$AUPREC
 70
     0
  9
$MENU
  1
ACAD
  9
$ELEVATION
 40
0.0
  9
$PELEVATION
 40
0.0
  9
$THICKNESS
 40
0.0
  9
$LIMCHECK
 70
     0
  9
$CHAMFERA
 40
0.0
  9
$CHAMFERB
 40
0.0
  9
$CHAMFERC
 40
0.0
  9
$CHAMFERD
 40
0.0
  9
$SKPOLY
 70
     0
  9
$TDCREATE
 40
2451760.387179051
  9
$TDUCREATE
 40
2451760.637179051
  9
$TDUPDATE
 40
2453339.356633727
  9
$TDUUPDATE
 40
2453339.606633727
  9
$TDINDWG
 40
0.0304413426
  9
$TDUSRTIMER
 40
0.0304413426
  9
$USRTIMER
 70
     1
  9
$ANGBASE
 50
0.0
  9
$ANGDIR
 70
     0
  9
$PDMODE
 70
     3
  9
$PDSIZE
 40
2.5
  9
$PLINEWID
 40
0.0
  9
$SPLFRAME
 70
     1
  9
$SPLINETYPE
 70
     6
  9
$SPLINESEGS
 70
     8
  9
$HANDSEED
  5
46ABF
  9
$SURFTAB1
 70
     6
  9
$SURFTAB2
 70
     6
  9
$SURFTYPE
 70
     6
  9
$SURFU
 70
     6
  9
$SURFV
 70
     6
  9
$UCSBASE
  2

  9
$UCSNAME
  2

  9
$UCSORG
 10
288.7986194868509
 20
-104.9882877824253
 30
0.0
  9
$UCSXDIR
 10
1.0
 20
0.0
 30
0.0
  9
$UCSYDIR
 10
0.0
 20
1.0
 30
0.0
  9
$UCSORTHOREF
  2

  9
$UCSORTHOVIEW
 70
     1
  9
$UCSORGTOP
 10
288.7986194868509
 20
-104.9882877824253
 30
0.0
  9
$UCSORGBOTTOM
 10
0.0
 20
0.0
 30
0.0
  9
$UCSORGLEFT
 10
0.0
 20
0.0
 30
0.0
  9
$UCSORGRIGHT
 10
44.57293710473379
 20
-10.57239502465733
 30
3.810000000000003
  9
$UCSORGFRONT
 10
288.7986194868509
 20
-104.9882877824253
 30
0.0
  9
$UCSORGBACK
 10
0.0
 20
0.0
 30
0.0
  9
$PUCSBASE
  2

  9
$PUCSNAME
  2

  9
$PUCSORG
 10
0.0
 20
0.0
 30
0.0
  9
$PUCSXDIR
 10
1.0
 20
0.0
 30
0.0
  9
$PUCSYDIR
 10
0.0
 20
1.0
 30
0.0
  9
$PUCSORTHOREF
  2

  9
$PUCSORTHOVIEW
 70
     0
  9
$PUCSORGTOP
 10
0.0
 20
0.0
 30
0.0
  9
$PUCSORGBOTTOM
 10
0.0
 20
0.0
 30
0.0
  9
$PUCSORGLEFT
 10
0.0
 20
0.0
 30
0.0
  9
$PUCSORGRIGHT
 10
0.0
 20
0.0
 30
0.0
  9
$PUCSORGFRONT
 10
0.0
 20
0.0
 30
0.0
  9
$PUCSORGBACK
 10
0.0
 20
0.0
 30
0.0
  9
$USERI1
 70
     0
  9
$USERI2
 70
     0
  9
$USERI3
 70
     0
  9
$USERI4
 70
     0
  9
$USERI5
 70
     0
  9
$USERR1
 40
0.0
  9
$USERR2
 40
0.0
  9
$USERR3
 40
0.0
  9
$USERR4
 40
0.0
  9
$USERR5
 40
0.0
  9
$WORLDVIEW
 70
     1
  9
$SHADEDGE
 70
     3
  9
$SHADEDIF
 70
    70
  9
$TILEMODE
 70
     1
  9
$MAXACTVP
 70
    16
  9
$PINSBASE
 10
0.0
 20
0.0
 30
0.0
  9
$PLIMCHECK
 70
     0
  9
$PEXTMIN
 10
26.66999878883362
 20
20.31999878883362
 30
0.0
  9
$PEXTMAX
 10
240.0299890995025
 20
182.8799890995025
 30
0.0
  9
$PLIMMIN
 10
-6.350006103515625
 20
-6.349999904632568
  9
$PLIMMAX
 10
273.0499877929687
 20
209.5499939918517
  9
$UNITMODE
 70
     0
  9
$VISRETAIN
 70
     0
  9
$PLINEGEN
 70
     0
  9
$PSLTSCALE
 70
     1
  9
$TREEDEPTH
 70
  3020
  9
$CMLSTYLE
  2
STANDARD
  9
$CMLJUST
 70
     0
  9
$CMLSCALE
 40
1.0
  9
$PROXYGRAPHICS
 70
     1
  9
$MEASUREMENT
 70
     1
  9
$CELWEIGHT
370
    -1
  9
$ENDCAPS
280
     0
  9
$JOINSTYLE
280
     0
  9
$LWDISPLAY
290
     0
  9
$INSUNITS
 70
     0
  9
$HYPERLINKBASE
  1

  9
$STYLESHEET
  1

  9
$XEDIT
290
     1
  9
$CEPSNTYPE
380
     0
  9
$PSTYLEMODE
290
     1
  9
$FINGERPRINTGUID
  2
{6E0CF4B8-225E-11D4-A150-00A0CC3303EC}
  9
$VERSIONGUID
  2
{6B8B8153-D920-42FF-8C80-372D422B00DB}
  9
$EXTNAMES
290
     1
  9
$PSVPSCALE
 40
0.0
  9
$OLESTARTUP
290
     0
  0
ENDSEC
  0
SECTION
  2
CLASSES
  0
CLASS
  1
DICTIONARYVAR
  2
AcDbDictionaryVar
  3
AutoCAD 2000
 90
        0
280
     0
281
     0
  0
CLASS
  1
ACDBDICTIONARYWDFLT
  2
AcDbDictionaryWithDefault
  3
AutoCAD 2000
 90
        0
280
     0
281
     0
  0
CLASS
  1
ACDBPLACEHOLDER
  2
AcDbPlaceHolder
  3
AutoCAD 2000
 90
        0
280
     0
281
     0
  0
CLASS
  1
LAYOUT
  2
AcDbLayout
  3
AutoCAD 2000
 90
        0
280
     0
281
     0
  0
CLASS
  1
LONG_TRANSACTION
  2
AcDbLongTransaction
  3
AutoCAD 2000
 90
    32768
280
     0
281
     0
  0
CLASS
  1
LWPOLYLINE
  2
AcDbPolyline
  3
AutoCAD 2000
 90
    32768
280
     0
281
     1
  0
CLASS
  1
HATCH
  2
AcDbHatch
  3
AutoCAD 2000
 90
    32768
280
     0
281
     1
  0
CLASS
  1
XRECORD
  2
AcDbXrecord
  3
AutoCAD 2000
 90
    32768
280
     0
281
     0
  0
CLASS
  1
LONG_TRANSACTION
  2
AcDbLongTransaction
  3
AutoCAD 2000
 90
    32768
280
     0
281
     0
  0
CLASS
  1
LWPOLYLINE
  2
AcDbPolyline
  3
AutoCAD 2000
 90
    32768
280
     0
281
     1
  0
CLASS
  1
HATCH
  2
AcDbHatch
  3
AutoCAD 2000
 90
    32768
280
     0
281
     1
  0
CLASS
  1
XRECORD
  2
AcDbXrecord
  3
AutoCAD 2000
 90
    32768
280
     0
281
     0
  0
CLASS
  1
LONG_TRANSACTION
  2
AcDbLongTransaction
  3
AutoCAD 2000
 90
    32768
280
     0
281
     0
  0
CLASS
  1
LWPOLYLINE
  2
AcDbPolyline
  3
AutoCAD 2000
 90
    32768
280
     0
281
     1
  0
CLASS
  1
HATCH
  2
AcDbHatch
  3
AutoCAD 2000
 90
    32768
280
     0
281
     1
  0
CLASS
  1
XRECORD
  2
AcDbXrecord
  3
AutoCAD 2000
 90
    32768
280
     0
281
     0
  0
ENDSEC
  0
SECTION
  2
TABLES
  0
TABLE
  2
VPORT
  5
458C7
330
0
100
AcDbSymbolTable
 70
     2
  0
VPORT
  5
46A9D
330
458C7
100
AcDbSymbolTableRecord
100
AcDbViewportTableRecord
  2
*Active
 70
     0
 10
0.0
 20
0.0
 11
1.0
 21
1.0
 12
-18.07560147447
 22
5.605239159284501
 13
0.0
 23
0.0
 14
0.25
 24
0.25
 15
0.25
 25
0.25
 16
0.0
 26
0.0
 36
1.0
 17
291.2421226154187
 27
-102.6382672051281
 37
-24.16781027922072
 40
85.41398201801296
 41
1.792393026941362
 42
50.0
 43
0.0
 44
0.0
 50
0.0
 51
0.0
 71
     0
 72
 20000
 73
     1
 74
     1
 75
     0
 76
     0
 77
     0
 78
     0
281
     0
 65
     1
110
288.7986194868509
120
-104.9882877824253
130
0.0
111
1.0
121
0.0
131
0.0
112
0.0
122
1.0
132
0.0
 79
     1
146
0.0
  0
ENDTAB
  0
TABLE
  2
LTYPE
  5
458C4
330
0
100
AcDbSymbolTable
 70
     1
  0
LTYPE
  5
458D0
330
458C4
100
AcDbSymbolTableRecord
100
AcDbLinetypeTableRecord
  2
BYBLOCK
 70
     0
  3

 72
    65
 73
     0
 40
0.0
  0
LTYPE
  5
458D1
330
458C4
100
AcDbSymbolTableRecord
100
AcDbLinetypeTableRecord
  2
BYLAYER
 70
     0
  3

 72
    65
 73
     0
 40
0.0
  0
LTYPE
  5
458D2
330
458C4
100
AcDbSymbolTableRecord
100
AcDbLinetypeTableRecord
  2
CONTINUOUS
 70
     0
  3
Solid line
 72
    65
 73
     0
 40
0.0
  0
ENDTAB
  0
TABLE
  2
LAYER
  5
458C1
330
0
100
AcDbSymbolTable
 70
     8
  0
LAYER
  5
458CD
330
458C1
100
AcDbSymbolTableRecord
100
AcDbLayerTableRecord
  2
0
 70
     0
 62
     7
  6
CONTINUOUS
370
    -3
390
458FA
  0
LAYER
  5
458EA
330
458C1
100
AcDbSymbolTableRecord
100
AcDbLayerTableRecord
  2
DIMS-MTG-HOLES
 70
     0
 62
     1
  6
CONTINUOUS
370
    -3
390
458FA
  0
LAYER
  5
458EB
330
458C1
100
AcDbSymbolTableRecord
100
AcDbLayerTableRecord
  2
ATTRIBUTES
 70
     0
 62
     7
  6
CONTINUOUS
370
    -3
390
458FA
  0
LAYER
  5
4593F
330
458C1
100
AcDbSymbolTableRecord
100
AcDbLayerTableRecord
  2
AREA1
 70
     0
 62
    -7
  6
CONTINUOUS
290
     0
370
    -3
390
458FA
  0
LAYER
  5
45946
330
458C1
100
AcDbSymbolTableRecord
100
AcDbLayerTableRecord
  2
Defpoints
 70
     0
 62
    -7
  6
CONTINUOUS
290
     0
370
    -3
390
458FA
  0
LAYER
  5
45972
330
458C1
100
AcDbSymbolTableRecord
100
AcDbLayerTableRecord
  2
SCALE
 70
     0
 62
    -7
  6
CONTINUOUS
370
    -3
390
458FA
  0
LAYER
  5
4597A
330
458C1
100
AcDbSymbolTableRecord
100
AcDbLayerTableRecord
  2
SNAP_POINTS
 70
     0
 62
    -1
  6
CONTINUOUS
370
    -3
390
458FA
  0
LAYER
  5
459D2
330
458C1
100
AcDbSymbolTableRecord
100
AcDbLayerTableRecord
  2
AREA2
 70
     0
 62
    -7
  6
CONTINUOUS
370
    -3
390
458FA
  0
ENDTAB
  0
TABLE
  2
STYLE
  5
458C2
330
0
100
AcDbSymbolTable
 70
     1
  0
STYLE
  5
458CE
330
458C2
100
AcDbSymbolTableRecord
100
AcDbTextStyleTableRecord
  2
STANDARD
 70
     0
 40
0.0
 41
1.0
 50
0.0
 71
     0
 42
0.12
  3
txt
  4

  0
ENDTAB
  0
TABLE
  2
VIEW
  5
458C5
330
0
100
AcDbSymbolTable
 70
     0
  0
ENDTAB
  0
TABLE
  2
UCS
  5
458C6
330
0
100
AcDbSymbolTable
 70
     0
  0
ENDTAB
  0
TABLE
  2
APPID
  5
458C8
330
0
100
AcDbSymbolTable
 70
     1
  0
APPID
  5
458CF
330
458C8
100
AcDbSymbolTableRecord
100
AcDbRegAppTableRecord
  2
ACAD
 70
     0
  0
ENDTAB
  0
TABLE
  2
DIMSTYLE
  5
458C9
330
0
100
AcDbSymbolTable
 70
     2
100
AcDbDimStyleTable
 71
     0
  0
DIMSTYLE
105
458F6
102
{ACAD_REACTORS
330
46879
330
4687A
330
4687B
102
}
330
458C9
100
AcDbSymbolTableRecord
100
AcDbDimStyleTableRecord
  2
ABECAD_3D
 70
     0
 41
4.572
 42
1.587499999999999
 43
9.525
 44
4.572
 73
     0
 78
     4
140
4.572
141
2.286
143
0.03937
146
1.5
147
2.286
170
     1
171
     6
271
     2
272
     2
273
     7
274
     6
276
     2
279
     2
284
     4
285
     4
286
     4
288
     1
289
     2
340
458CE
  0
DIMSTYLE
105
459E0
330
458C9
100
AcDbSymbolTableRecord
100
AcDbDimStyleTableRecord
  2
Standard
 70
     0
340
458CE
  0
ENDTAB
  0
TABLE
  2
BLOCK_RECORD
  5
458C0
330
0
100
AcDbSymbolTable
 70
     3
  0
BLOCK_RECORD
  5
458D6
102
{ACAD_XDICTIONARY
360
45930
102
}
330
458C0
100
AcDbSymbolTableRecord
100
AcDbBlockTableRecord
  2
*MODEL_SPACE
340
458FD
  0
BLOCK_RECORD
  5
458D3
102
{ACAD_XDICTIONARY
360
4592E
102
}
330
458C0
100
AcDbSymbolTableRecord
100
AcDbBlockTableRecord
  2
*PAPER_SPACE
340
458FE
  0
BLOCK_RECORD
  5
468AD
330
458C0
100
AcDbSymbolTableRecord
100
AcDbBlockTableRecord
  2
*D0
340
0
  0
BLOCK_RECORD
  5
468BA
330
458C0
100
AcDbSymbolTableRecord
100
AcDbBlockTableRecord
  2
*D1
340
0
  0
BLOCK_RECORD
  5
468C7
330
458C0
100
AcDbSymbolTableRecord
100
AcDbBlockTableRecord
  2
*D2
340
0
  0
ENDTAB
  0
ENDSEC
  0
SECTION
  2
BLOCKS
  0
BLOCK
  5
458DF
330
458D6
100
AcDbEntity
  8
0
100
AcDbBlockBegin
  2
*MODEL_SPACE
 70
     0
 10
0.0
 20
0.0
 30
0.0
  3
*MODEL_SPACE
  1

  0
ENDBLK
  5
458E0
330
458D6
100
AcDbEntity
  8
0
100
AcDbBlockEnd
  0
BLOCK
  5
458DD
330
458D3
100
AcDbEntity
 67
     1
  8
0
100
AcDbBlockBegin
  2
*PAPER_SPACE
 70
     0
 10
0.0
 20
0.0
 30
0.0
  3
*PAPER_SPACE
  1

  0
ENDBLK
  5
458DE
330
458D3
100
AcDbEntity
 67
     1
  8
0
100
AcDbBlockEnd
  0
BLOCK
  5
468B8
330
468AD
100
AcDbEntity
  8
0
100
AcDbBlockBegin
  2
*D0
 70
     1
 10
0.0
 20
0.0
 30
0.0
  3
*D0
  1

  0
LINE
  5
469E6
330
468AD
100
AcDbEntity
  8
AREA1
 62
     0
370
    -2
100
AcDbLine
 10
290.3861194868502
 20
-70.69828778242566
 30
0.0
 11
336.189163860968
 21
-70.69828778242566
 31
0.0
  0
LINE
  5
469E7
330
468AD
100
AcDbEntity
  8
AREA1
 62
     0
370
    -2
100
AcDbLine
 10
290.3861194868502
 20
-139.278287782426
 30
0.0
 11
336.1891638609679
 21
-139.278287782426
 31
0.0
  0
LINE
  5
469E8
330
468AD
100
AcDbEntity
  8
AREA1
 62
     0
370
    -2
100
AcDbLine
 10
331.617163860968
 20
-74.19828778242567
 30
0.0
 11
331.617163860968
 21
-78.41608339678782
 31
0.0
  0
LINE
  5
469E9
330
468AD
100
AcDbEntity
  8
AREA1
 62
     0
370
    -2
100
AcDbLine
 10
331.6171638609679
 20
-135.778287782426
 30
0.0
 11
331.6171638609679
 21
-129.6547500634545
 31
0.0
  0
MTEXT
  5
469EA
330
468AD
100
AcDbEntity
  8
AREA1
 62
     0
100
AcDbMText
 10
331.7573129520585
 20
-104.0354167301211
 30
0.0
 40
3.5
 41
0.0
 71
     5
 72
     1
  1
\A1;68.58 [2 45/64]
 11
0.0000000000000001
 21
1.0
 31
0.0
 73
     1
 44
1.0
  0
SOLID
  5
469EB
330
468AD
100
AcDbEntity
  8
AREA1
 62
     0
100
AcDbTrace
 10
331.0338305276346
 20
-74.19828778242567
 30
0.0
 11
332.2004971943012
 21
-74.19828778242567
 31
0.0
 12
331.617163860968
 22
-70.69828778242566
 32
0.0
 13
331.617163860968
 23
-70.69828778242566
 33
0.0
  0
SOLID
  5
469EC
330
468AD
100
AcDbEntity
  8
AREA1
 62
     0
100
AcDbTrace
 10
331.0338305276346
 20
-135.778287782426
 30
0.0
 11
332.2004971943012
 21
-135.778287782426
 31
0.0
 12
331.6171638609679
 22
-139.278287782426
 32
0.0
 13
331.6171638609679
 23
-139.278287782426
 33
0.0
  0
POINT
  5
469ED
330
468AD
100
AcDbEntity
  8
Defpoints
 62
     0
100
AcDbPoint
 10
288.7986194868502
 20
-70.69828778242566
 30
0.0
  0
POINT
  5
469EE
330
468AD
100
AcDbEntity
  8
Defpoints
 62
     0
100
AcDbPoint
 10
288.7986194868502
 20
-139.278287782426
 30
0.0
  0
POINT
  5
469EF
330
468AD
100
AcDbEntity
  8
Defpoints
 62
     0
100
AcDbPoint
 10
331.6171638609679
 20
-139.278287782426
 30
0.0
  0
ENDBLK
  5
468B9
330
468AD
100
AcDbEntity
  8
0
100
AcDbBlockEnd
  0
BLOCK
  5
468C5
330
468BA
100
AcDbEntity
  8
0
100
AcDbBlockBegin
  2
*D1
 70
     1
 10
0.0
 20
0.0
 30
0.0
  3
*D1
  1

  0
LINE
  5
469DC
330
468BA
100
AcDbEntity
  8
AREA2
 62
     0
370
    -2
100
AcDbLine
 10
290.3861194868502
 20
75.43799999999999
 30
0.0
 11
334.4957868726153
 21
75.43799999999999
 31
0.0
  0
LINE
  5
469DD
330
468BA
100
AcDbEntity
  8
AREA2
 62
     0
370
    -2
100
AcDbLine
 10
290.3861194868502
 20
-0.0000000000000004
 30
0.0
 11
334.4957868726153
 21
-0.0000000000000129
 31
0.0
  0
LINE
  5
469DE
330
468BA
100
AcDbEntity
  8
AREA2
 62
     0
370
    -2
100
AcDbLine
 10
329.9237868726153
 20
71.93799999999999
 30
0.0
 11
329.9237868726153
 21
62.755
 31
0.0
  0
LINE
  5
469DF
330
468BA
100
AcDbEntity
  8
AREA2
 62
     0
370
    -2
100
AcDbLine
 10
329.9237868726153
 20
3.499999999999988
 30
0.0
 11
329.9237868726153
 21
12.68299999999998
 31
0.0
  0
SOLID
  5
469E0
330
468BA
100
AcDbEntity
  8
AREA2
 62
     0
100
AcDbTrace
 10
329.340453539282
 20
71.93799999999999
 30
0.0
 11
330.5071202059486
 21
71.93799999999999
 31
0.0
 12
329.9237868726153
 22
75.43799999999999
 32
0.0
 13
329.9237868726153
 23
75.43799999999999
 33
0.0
  0
SOLID
  5
469E1
330
468BA
100
AcDbEntity
  8
AREA2
 62
     0
100
AcDbTrace
 10
329.340453539282
 20
3.499999999999988
 30
0.0
 11
330.5071202059486
 21
3.499999999999988
 31
0.0
 12
329.9237868726153
 22
-0.0000000000000116
 32
0.0
 13
329.9237868726153
 23
-0.0000000000000116
 33
0.0
  0
MTEXT
  5
469E2
330
468BA
100
AcDbEntity
  8
AREA2
 62
     0
100
AcDbMText
 10
329.9237868726153
 20
37.71900000000004
 30
0.0
 40
3.5
 41
0.0
 71
     5
 72
     1
  1
\A1;75.44 [2 31/32]
 11
0.0000000000000001
 21
1.0
 31
0.0
 73
     1
 44
1.0
  0
POINT
  5
469E3
330
468BA
100
AcDbEntity
  8
Defpoints
 62
     0
100
AcDbPoint
 10
288.7986194868502
 20
75.43799999999999
 30
0.0
  0
POINT
  5
469E4
330
468BA
100
AcDbEntity
  8
Defpoints
 62
     0
100
AcDbPoint
 10
288.7986194868502
 20
0.0
 30
0.0
  0
POINT
  5
469E5
330
468BA
100
AcDbEntity
  8
Defpoints
 62
     0
100
AcDbPoint
 10
329.9237868726153
 20
-0.0000000000000116
 30
0.0
  0
ENDBLK
  5
468C6
330
468BA
100
AcDbEntity
  8
0
100
AcDbBlockEnd
  0
BLOCK
  5
468D2
330
468C7
100
AcDbEntity
  8
0
100
AcDbBlockBegin
  2
*D2
 70
     1
 10
0.0
 20
0.0
 30
0.0
  3
*D2
  1

  0
LINE
  5
469D2
330
468C7
100
AcDbEntity
  8
AREA1
 62
     0
370
    -2
100
AcDbLine
 10
323.0886194868502
 20
-103.4007877824256
 30
0.0
 11
323.0886194868502
 21
-61.10899440554073
 31
0.0
  0
LINE
  5
469D3
330
468C7
100
AcDbEntity
  8
AREA1
 62
     0
370
    -2
100
AcDbLine
 10
254.5086194868502
 20
-103.4007877824256
 30
0.0
 11
254.5086194868502
 21
-61.10899440554073
 31
0.0
  0
LINE
  5
469D4
330
468C7
100
AcDbEntity
  8
AREA1
 62
     0
370
    -2
100
AcDbLine
 10
319.5886194868502
 20
-65.68099440554073
 30
0.0
 11
314.4179528201835
 21
-65.68099440554073
 31
0.0
  0
LINE
  5
469D5
330
468C7
100
AcDbEntity
  8
AREA1
 62
     0
370
    -2
100
AcDbLine
 10
258.0086194868503
 20
-65.68099440554073
 30
0.0
 11
263.1792861535169
 21
-65.68099440554073
 31
0.0
  0
SOLID
  5
469D6
330
468C7
100
AcDbEntity
  8
AREA1
 62
     0
100
AcDbTrace
 10
319.5886194868502
 20
-65.0976610722074
 30
0.0
 11
319.5886194868502
 21
-66.26432773887406
 31
0.0
 12
323.0886194868502
 22
-65.68099440554073
 32
0.0
 13
323.0886194868502
 23
-65.68099440554073
 33
0.0
  0
SOLID
  5
469D7
330
468C7
100
AcDbEntity
  8
AREA1
 62
     0
100
AcDbTrace
 10
258.0086194868503
 20
-65.0976610722074
 30
0.0
 11
258.0086194868503
 21
-66.26432773887406
 31
0.0
 12
254.5086194868502
 22
-65.68099440554073
 32
0.0
 13
254.5086194868502
 23
-65.68099440554073
 33
0.0
  0
MTEXT
  5
469D8
330
468C7
100
AcDbEntity
  8
AREA1
 62
     0
100
AcDbMText
 10
288.7986194868502
 20
-65.68099440554073
 30
0.0
 40
3.5
 41
0.0
 71
     5
 72
     1
  1
\A1;68.58 [2 45/64]
 73
     1
 44
1.0
  0
POINT
  5
469D9
330
468C7
100
AcDbEntity
  8
Defpoints
 62
     0
100
AcDbPoint
 10
323.0886194868502
 20
-104.9882877824256
 30
0.0
  0
POINT
  5
469DA
330
468C7
100
AcDbEntity
  8
Defpoints
 62
     0
100
AcDbPoint
 10
254.5086194868502
 20
-104.9882877824256
 30
0.0
  0
POINT
  5
469DB
330
468C7
100
AcDbEntity
  8
Defpoints
 62
     0
100
AcDbPoint
 10
254.5086194868502
 20
-65.68099440554073
 30
0.0
  0
ENDBLK
  5
468D3
330
468C7
100
AcDbEntity
  8
0
100
AcDbBlockEnd
  0
ENDSEC
  0
SECTION
  2
ENTITIES
  0
DIMENSION
  5
46879
330
458D6
100
AcDbEntity
  8
AREA1
100
AcDbDimension
  2
*D0
 10
331.6171638609679
 20
-139.278287782426
 30
0.0
 11
331.7573129520585
 21
-104.0354167301211
 31
0.0
 70
   160
 71
     5
 42
-1.0
  3
ABECAD_3D
100
AcDbAlignedDimension
 13
288.7986194868502
 23
-70.69828778242566
 33
0.0
 14
288.7986194868502
 24
-139.278287782426
 34
0.0
 50
90.0
100
AcDbRotatedDimension
1001
ACAD
1000
DSTYLE
1002
{
1070
   171
1070
     6
1070
    41
1040
3.5
1070
   140
1040
3.5
1002
}
  0
DIMENSION
  5
4687A
330
458D6
100
AcDbEntity
  8
AREA2
100
AcDbDimension
  2
*D1
 10
329.9237868726153
 20
-70.69828778242566
 30
-0.0000000000000116
 11
329.9237868726153
 21
37.71900000000004
 31
70.69828778242566
 70
    32
 71
     5
 42
-1.0
210
0.0
220
-1.0
230
0.0
  3
ABECAD_3D
100
AcDbAlignedDimension
 13
288.7986194868502
 23
-70.69828778242566
 33
75.43799999999999
 14
288.7986194868502
 24
-70.69828778242566
 34
0.0
 50
90.0
100
AcDbRotatedDimension
1001
ACAD
1000
DSTYLE
1002
{
1070
   171
1070
     6
1070
    41
1040
3.5
1070
   140
1040
3.5
1002
}
  0
DIMENSION
  5
4687B
330
458D6
100
AcDbEntity
  8
AREA1
100
AcDbDimension
  2
*D2
 10
254.5086194868502
 20
-65.68099440554073
 30
0.0
 11
288.7986194868502
 21
-65.68099440554073
 31
0.0
 70
    32
 71
     5
 42
-1.0
  3
ABECAD_3D
100
AcDbAlignedDimension
 13
323.0886194868502
 23
-104.9882877824256
 33
0.0
 14
254.5086194868502
 24
-104.9882877824256
 34
0.0
100
AcDbRotatedDimension
1001
ACAD
1000
DSTYLE
1002
{
1070
   171
1070
     6
1070
    41
1040
3.5
1070
   140
1040
3.5
1002
}
  0
LWPOLYLINE
  5
4687C
330
458D6
100
AcDbEntity
  8
SCALE
100
AcDbPolyline
 90
        4
 70
     1
 43
0.0
 10
210.1483556787946
 20
-89.81151310614398
 10
238.9933276951608
 20
-89.81151310614398
 10
238.9933276951608
 20
-111.1883961023053
 10
210.1483556787946
 20
-111.1883961023053
  0
TEXT
  5
4687D
330
458D6
100
AcDbEntity
  8
SCALE
100
AcDbText
 10
211.6603904874169
 20
-92.48362352088113
 30
0.0
 40
1.587499999999999
  1
SCALE:
100
AcDbText
  0
TEXT
  5
4687E
330
458D6
100
AcDbEntity
  8
SCALE
100
AcDbText
 10
220.8489096576462
 20
-97.71166553875112
 30
0.0
 40
1.587499999999999
  1
1 Inch
100
AcDbText
  0
TEXT
  5
4687F
330
458D6
100
AcDbEntity
  8
SCALE
100
AcDbText
 10
213.1308444909286
 20
-105.9237154112678
 30
0.0
 40
1.587499999999999
  1
[10mm]
100
AcDbText
  0
LINE
  5
46880
330
458D6
100
AcDbEntity
  8
SCALE
100
AcDbLine
 10
211.6215217501554
 20
-107.0855024012306
 30
0.0
 11
221.6215017501553
 21
-107.0855024012306
 31
0.0
  0
LINE
  5
46881
330
458D6
100
AcDbEntity
  8
SCALE
100
AcDbLine
 10
221.6215017501553
 20
-109.6255024012304
 30
0.0
 11
221.6215017501553
 21
-104.5455024012307
 31
0.0
  0
LINE
  5
46882
330
458D6
100
AcDbEntity
  8
SCALE
100
AcDbLine
 10
211.6215217501554
 20
-109.6255024012304
 30
0.0
 11
211.6215217501554
 21
-104.5455024012307
 31
0.0
  0
LINE
  5
46883
330
458D6
100
AcDbEntity
  8
SCALE
100
AcDbLine
 10
211.6215217501554
 20
-102.0055024012308
 30
0.0
 11
211.6215217501554
 21
-96.92550240123047
 31
0.0
  0
LINE
  5
46884
330
458D6
100
AcDbEntity
  8
SCALE
100
AcDbLine
 10
237.0215217501554
 20
-102.0055024012308
 30
0.0
 11
237.0215217501554
 21
-96.92550240123047
 31
0.0
  0
LINE
  5
46885
330
458D6
100
AcDbEntity
  8
SCALE
100
AcDbLine
 10
237.0215217501554
 20
-99.46550240123032
 30
0.0
 11
237.0215217501554
 21
-102.0055024012308
 31
0.0
  0
LINE
  5
46886
330
458D6
100
AcDbEntity
  8
SCALE
100
AcDbLine
 10
211.6215217501554
 20
-99.46550240123032
 30
0.0
 11
237.0215217501554
 21
-99.46550240123032
 31
0.0
  0
POINT
  5
46887
330
458D6
100
AcDbEntity
  8
SNAP_POINTS
100
AcDbPoint
 10
288.7986194868509
 20
-104.9882877824253
 30
67.818
  0
POINT
  5
46888
330
458D6
100
AcDbEntity
  8
SNAP_POINTS
100
AcDbPoint
 10
288.7986194868509
 20
-104.9882877824253
 30
0.0
  0
CIRCLE
  5
46889
330
458D6
100
AcDbEntity
  8
0
 62
     0
100
AcDbCircle
 10
268.7996613757363
 20
-104.9882877824253
 30
75.43799999999999
 40
1.650999999999999
  0
ARC
  5
4688A
330
458D6
100
AcDbEntity
  8
0
 62
     0
100
AcDbCircle
 10
278.7416024066723
 20
-131.2975523378826
 30
75.43799999999999
 40
1.27
100
AcDbArc
 50
240.0000000000002
 51
75.53863113109334
  0
ARC
  5
4688B
330
458D6
100
AcDbEntity
  8
0
 62
     0
100
AcDbCircle
 10
271.0426365670289
 20
-126.8525523378823
 30
75.43799999999999
 40
1.27
100
AcDbArc
 50
44.46136886890609
 51
240.0000000000002
  0
ARC
  5
4688C
330
458D6
100
AcDbEntity
  8
0
 62
     0
100
AcDbCircle
 10
289.911640431294
 20
-103.0604789567625
 30
75.43799999999999
 40
31.623
100
AcDbArc
 50
231.2459617337038
 51
248.7540382662948
  0
LWPOLYLINE
  5
4688D
330
458D6
100
AcDbEntity
  8
0
 62
     0
100
AcDbPolyline
 90
        2
 70
     0
 43
0.0
 38
75.43799999999999
 10
271.6776365670288
 20
-125.752700075076
 42
0.0706317460324611
 10
279.376602406672
 20
-130.1977000750761
 42
0.0706317460324611
  0
ARC
  5
4688E
330
458D6
100
AcDbEntity
  8
0
 62
     0
100
AcDbCircle
 10
266.9343549313939
 20
-122.7442707022474
 30
75.43799999999999
 40
1.27
100
AcDbArc
 50
209.9999999999997
 51
45.53863113109392
  0
ARC
  5
4688F
330
458D6
100
AcDbEntity
  8
0
 62
     0
100
AcDbCircle
 10
262.4893549313944
 20
-115.045304862604
 30
75.43799999999999
 40
1.27
100
AcDbArc
 50
14.46136886890665
 51
209.9999999999997
  0
ARC
  5
46890
330
458D6
100
AcDbEntity
  8
0
 62
     0
100
AcDbCircle
 10
290.7264283125138
 20
-103.875266837983
 30
75.43799999999999
 40
31.623
100
AcDbArc
 50
201.2459617337051
 51
218.7540382662961
  0
LWPOLYLINE
  5
46891
330
458D6
100
AcDbEntity
  8
0
 62
     0
100
AcDbPolyline
 90
        2
 70
     0
 43
0.0
 38
75.43799999999999
 10
263.5892071942001
 20
-114.4103048626038
 42
0.0706317460324611
 10
268.0342071941999
 20
-122.1092707022475
 42
0.0706317460324611
  0
ARC
  5
46892
330
458D6
100
AcDbEntity
  8
0
 62
     0
100
AcDbCircle
 10
260.9856194868509
 20
-109.4332877824256
 30
75.43799999999999
 40
1.27
100
AcDbArc
 50
180.0
 51
15.538631131094
  0
ARC
  5
46893
330
458D6
100
AcDbEntity
  8
0
 62
     0
100
AcDbCircle
 10
260.9856194868509
 20
-100.5432877824258
 30
75.43799999999999
 40
1.27
100
AcDbArc
 50
344.4613688689059
 51
180.0
  0
ARC
  5
46894
330
458D6
100
AcDbEntity
  8
0
 62
     0
100
AcDbCircle
 10
291.0246613757363
 20
-104.9882877824253
 30
75.43799999999999
 40
31.623
100
AcDbArc
 50
171.2459617337038
 51
188.7540382662945
  0
LWPOLYLINE
  5
46895
330
458D6
100
AcDbEntity
  8
0
 62
     0
100
AcDbPolyline
 90
        2
 70
     0
 43
0.0
 38
75.43799999999999
 10
262.2556194868506
 20
-100.5432877824259
 42
0.0706317460324611
 10
262.2556194868506
 20
-109.4332877824258
 42
0.0706317460324611
  0
ARC
  5
46896
330
458D6
100
AcDbEntity
  8
0
 62
     0
100
AcDbCircle
 10
262.4893549313944
 20
-94.93127070224744
 30
75.43799999999999
 40
1.27
100
AcDbArc
 50
150.0000000000002
 51
345.5386311310933
  0
ARC
  5
46897
330
458D6
100
AcDbEntity
  8
0
 62
     0
100
AcDbCircle
 10
266.9343549313939
 20
-87.23230486260408
 30
75.43799999999999
 40
1.27
100
AcDbArc
 50
314.461368868906
 51
150.0000000000002
  0
ARC
  5
46898
330
458D6
100
AcDbEntity
  8
0
 62
     0
100
AcDbCircle
 10
290.7264283125138
 20
-106.1013087268684
 30
75.43799999999999
 40
31.623
100
AcDbArc
 50
141.2459617337039
 51
158.7540382662949
  0
LWPOLYLINE
  5
46899
330
458D6
100
AcDbEntity
  8
0
 62
     0
100
AcDbPolyline
 90
        2
 70
     0
 43
0.0
 38
75.43799999999999
 10
268.0342071941999
 20
-87.86730486260415
 42
0.0706317460324611
 10
263.5892071942001
 20
-95.56627070224744
 42
0.0706317460324611
  0
ARC
  5
4689A
330
458D6
100
AcDbEntity
  8
0
 62
     0
100
AcDbCircle
 10
271.0426365670289
 20
-83.12402322696915
 30
75.43799999999999
 40
1.27
100
AcDbArc
 50
119.9999999999997
 51
315.5386311310939
  0
ARC
  5
4689B
330
458D6
100
AcDbEntity
  8
0
 62
     0
100
AcDbCircle
 10
278.7416024066723
 20
-78.67902322696884
 30
75.43799999999999
 40
1.27
100
AcDbArc
 50
284.4613688689067
 51
119.9999999999997
  0
ARC
  5
4689C
330
458D6
100
AcDbEntity
  8
0
 62
     0
100
AcDbCircle
 10
289.911640431294
 20
-106.9160966080889
 30
75.43799999999999
 40
31.623
100
AcDbArc
 50
111.2459617337051
 51
128.754038266296
  0
LWPOLYLINE
  5
4689D
330
458D6
100
AcDbEntity
  8
0
 62
     0
100
AcDbPolyline
 90
        2
 70
     0
 43
0.0
 38
75.43799999999999
 10
279.376602406672
 20
-79.77887548977554
 42
0.0706317460324611
 10
271.6776365670288
 20
-84.22387548977571
 42
0.0706317460324611
  0
LWPOLYLINE
  5
4689E
330
458D6
100
AcDbEntity
  8
0
 62
     0
100
AcDbPolyline
 90
        2
 70
     0
 43
0.0
 38
75.43799999999999
 10
315.3416194868499
 20
-109.4332877824258
 42
0.0706317460324611
 10
315.3416194868499
 20
-100.5432877824259
 42
0.0706317460324611
  0
ARC
  5
4689F
330
458D6
100
AcDbEntity
  8
0
 62
     0
100
AcDbCircle
 10
286.5725775979648
 20
-104.9882877824253
 30
75.43799999999999
 40
31.623
100
AcDbArc
 50
351.2459617337038
 51
8.754038266296147
  0
ARC
  5
468A0
330
458D6
100
AcDbEntity
  8
0
 62
     0
100
AcDbCircle
 10
316.6116194868509
 20
-109.4332877824256
 30
75.43799999999999
 40
1.27
100
AcDbArc
 50
164.4613688689059
 51
0.0
  0
ARC
  5
468A1
330
458D6
100
AcDbEntity
  8
0
 62
     0
100
AcDbCircle
 10
316.6116194868509
 20
-100.5432877824258
 30
75.43799999999999
 40
1.27
100
AcDbArc
 50
0.0
 51
195.5386311310939
  0
CIRCLE
  5
468A2
330
458D6
100
AcDbEntity
  8
0
 62
     0
100
AcDbCircle
 39
7.619999999999999
 10
288.7986194868509
 20
-104.9882877824253
 30
67.818
 40
31.623
  0
CIRCLE
  5
468A3
330
458D6
100
AcDbEntity
  8
0
 62
     0
100
AcDbCircle
 39
67.818
 10
288.7986194868509
 20
-104.9882877824253
 30
0.0
 40
34.29
  0
ATTDEF
  5
468A4
330
458D6
100
AcDbEntity
  8
ATTRIBUTES
100
AcDbText
 10
274.7227287762959
 20
-101.1162800621162
 30
0.0
 40
0.7371124428729576
  1
0
100
AcDbAttributeDefinition
  3
VIEW CODE?
  2
AC_VIEW_CODE
 70
     1
  0
ATTDEF
  5
468A5
330
458D6
100
AcDbEntity
  8
ATTRIBUTES
100
AcDbText
 10
274.6990594353107
 20
-99.58803183067507
 30
0.0
 40
0.7371124428729576
  1
INCH
100
AcDbAttributeDefinition
  3
UNIT OF SCALE?
  2
AC_SCALE_UNIT
 70
     1
  0
ATTDEF
  5
468A6
330
458D6
100
AcDbEntity
  8
ATTRIBUTES
100
AcDbText
 10
274.6990594353107
 20
-98.05238090802301
 30
0.0
 40
0.7371124428729576
  1

100
AcDbAttributeDefinition
  3
FASTENER DATA?
  2
FASTENER
 70
     1
  0
ATTDEF
  5
468A7
330
458D6
100
AcDbEntity
  8
ATTRIBUTES
100
AcDbText
 10
274.6990594353107
 20
-96.51672998537119
 30
0.0
 40
0.7371124428729576
  1

100
AcDbAttributeDefinition
  3
CUSTOMER NOTE?
  2
AC_NOTE
 70
     1
  0
ATTDEF
  5
468A8
330
458D6
100
AcDbEntity
  8
ATTRIBUTES
100
AcDbText
 10
274.6990594353107
 20
-94.98107906271908
 30
0.0
 40
0.7371124428729576
  1

100
AcDbAttributeDefinition
  3
CUSTOMER PART NUMBER?
  2
AC_CPART_NO
 70
     1
  0
ATTDEF
  5
468A9
330
458D6
100
AcDbEntity
  8
ATTRIBUTES
100
AcDbText
 10
274.6990594353107
 20
-93.44542814006702
 30
0.0
 40
0.7371124428729576
  1

100
AcDbAttributeDefinition
  3
DEVICE ID?
  2
DEVICE_ID
 70
     1
  0
ATTDEF
  5
468AA
330
458D6
100
AcDbEntity
  8
ATTRIBUTES
100
AcDbText
 10
274.6990594353107
 20
-91.90977721741514
 30
0.0
 40
0.7371124428729576
  1
LIGHT MODULE
100
AcDbAttributeDefinition
  3
PART DESCRIPTION?
  2
AC_DESCRIPTION
 70
     1
  0
ATTDEF
  5
468AB
330
458D6
100
AcDbEntity
  8
ATTRIBUTES
100
AcDbText
 10
274.6990594353107
 20
-90.37412629476309
 30
0.0
 40
0.7371124428729576
  1
855T-_DN/FN/BR
100
AcDbAttributeDefinition
  3
CATALOG NUMBER?
  2
AC_PART_NO
 70
     1
  0
ATTDEF
  5
468AC
330
458D6
100
AcDbEntity
  8
ATTRIBUTES
100
AcDbText
 10
274.6990594353107
 20
-88.83847537211121
 30
0.0
 40
0.7371124428729576
  1
ALLEN-BRADLEY
100
AcDbAttributeDefinition
  3
MANUFACTURER NAME?
  2
AC_VND_LABEL
 70
     1
  0
VIEWPORT
  5
469F3
102
{ACAD_XDICTIONARY
360
46A96
102
}
330
458D3
100
AcDbEntity
 67
     1
  8
0
  6
ByBlock
 62
     7
100
AcDbViewport
 10
172.8775953094141
 20
101.5999970436096
 30
0.0
 40
412.0342917010293
 41
228.4221935424804
 68
     1
 69
     1
 12
172.8775953094141
 22
101.5999970436096
 13
0.0
 23
0.0
 14
0.5
 24
0.5
 15
0.5
 25
0.5
 16
0.0
 26
0.0
 36
1.0
 17
0.0
 27
0.0
 37
0.0
 42
50.0
 43
0.0
 44
0.0
 45
228.4221935424804
 50
0.0
 51
0.0
 72
 20000
 90
    32800
  1

281
     0
 71
     1
 74
     0
110
0.0
120
0.0
130
0.0
111
1.0
121
0.0
131
0.0
112
0.0
122
1.0
132
0.0
 79
     0
146
0.0
  0
VIEWPORT
  5
469F5
102
{ACAD_XDICTIONARY
360
46A98
102
}
330
458D3
100
AcDbEntity
 67
     1
  8
0
  6
ByBlock
 62
     7
100
AcDbViewport
 10
133.349993944168
 20
101.599993944168
 30
0.0
 40
213.3599903106689
 41
162.5599903106689
 68
     2
 69
     2
 12
-18.07336284553746
 22
2.444626111144714
 13
0.0
 23
0.0
 14
0.25
 24
0.25
 15
0.25
 25
0.25
 16
0.0
 26
0.0
 36
1.0
 17
291.2421226154187
 27
-102.6382672051281
 37
-24.16781027922072
 42
50.0
 43
0.0
 44
0.0
 45
97.01602484790461
 50
0.0
 51
0.0
 72
 20000
 90
    32800
  1

281
     2
 71
     1
 74
     0
110
288.7986194868509
120
-104.9882877824253
130
0.0
111
1.0
121
0.0
131
0.0
112
0.0
122
1.0
132
0.0
 79
     1
146
0.0
  0
ENDSEC
  0
SECTION
  2
OBJECTS
  0
DICTIONARY
  5
458CB
330
0
100
AcDbDictionary
281
     1
  3
ACAD_COLOR
350
459D8
  3
ACAD_GROUP
350
458CC
  3
ACAD_LAYOUT
350
458FB
  3
ACAD_MATERIAL
350
459D7
  3
ACAD_MLINESTYLE
350
458D9
  3
ACAD_PLOTSETTINGS
350
458FC
  3
ACAD_PLOTSTYLENAME
350
458F9
  3
ACDBHEADERROUNDTRIPXREC
350
46A9E
  3
ACDBVARIABLEDICTIONARY
350
458E1
  3
DWGPROPS
350
46A8F
  0
DICTIONARY
  5
45930
330
458D6
100
AcDbDictionary
280
     1
281
     1
  3
ACAD_LAYOUTSELFREF
360
46A87
  0
DICTIONARY
  5
4592E
330
458D3
100
AcDbDictionary
280
     1
281
     1
  3
ACAD_LAYOUTSELFREF
360
46A86
  0
DICTIONARY
  5
46A96
330
469F3
100
AcDbDictionary
280
     1
281
     1
  3
ACAD_XREC_ROUNDTRIP
360
46A97
  0
DICTIONARY
  5
46A98
330
469F5
100
AcDbDictionary
280
     1
281
     1
  3
ACAD_XREC_ROUNDTRIP
360
46A99
  0
DICTIONARY
  5
459D8
102
{ACAD_REACTORS
330
458CB
102
}
330
458CB
100
AcDbDictionary
281
     1
  0
DICTIONARY
  5
458CC
102
{ACAD_REACTORS
330
458CB
102
}
330
458CB
100
AcDbDictionary
281
     1
  0
DICTIONARY
  5
458FB
102
{ACAD_REACTORS
330
458CB
102
}
330
458CB
100
AcDbDictionary
281
     1
  3
Layout1
350
458FE
  3
Model
350
458FD
  0
DICTIONARY
  5
459D7
102
{ACAD_REACTORS
330
458CB
102
}
330
458CB
100
AcDbDictionary
281
     1
  0
DICTIONARY
  5
458D9
102
{ACAD_REACTORS
330
458CB
102
}
330
458CB
100
AcDbDictionary
281
     1
  3
STANDARD
350
458DA
  0
DICTIONARY
  5
458FC
102
{ACAD_REACTORS
330
458CB
102
}
330
458CB
100
AcDbDictionary
281
     1
  0
ACDBDICTIONARYWDFLT
  5
458F9
102
{ACAD_REACTORS
330
458CB
102
}
330
458CB
100
AcDbDictionary
281
     1
  3
Normal
350
458FA
100
AcDbDictionaryWithDefault
340
458FA
  0
DICTIONARY
  5
46A9E
102
{ACAD_REACTORS
330
458CB
102
}
330
458CB
100
AcDbDictionary
281
     1
  3
CEPSNTYPE
350
46AA8
  3
DIMSTYLEDATA
350
46AAC
  3
FINGERPRINTGUID
350
46AA9
  3
HYPERLINKBASE
350
46AA1
  3
INSUNITS
350
46AA7
  3
LAYOUTDICT
350
46AA3
  3
LWETCUNION
350
46AA6
  3
PLOTSETDICT
350
46AA4
  3
PLOTSTYLNAMDICT
350
46AA5
  3
PSVPSCALE
350
46AAB
  3
PUCSBASE
350
46AAF
  3
PUCSORGBACK
350
46AB5
  3
PUCSORGBOTTOM
350
46AB1
  3
PUCSORGFRONT
350
46AB4
  3
PUCSORGLEFT
350
46AB2
  3
PUCSORGRIGHT
350
46AB3
  3
PUCSORGTOP
350
46AB0
  3
PUCSORTHOREF
350
46AAD
  3
PUCSORTHOVIEW
350
46AAE
  3
STYLESHEET
350
46AA2
  3
TSTACKALIGN
350
46A9F
  3
TSTACKSIZE
350
46AA0
  3
UCSBASE
350
46AB8
  3
UCSORGBACK
350
46ABE
  3
UCSORGBOTTOM
350
46ABA
  3
UCSORGFRONT
350
46ABD
  3
UCSORGLEFT
350
46ABB
  3
UCSORGRIGHT
350
46ABC
  3
UCSORGTOP
350
46AB9
  3
UCSORTHOREF
350
46AB6
  3
UCSORTHOVIEW
350
46AB7
  3
VERSIONGUID
350
46AAA
  0
DICTIONARY
  5
458E1
102
{ACAD_REACTORS
330
458CB
102
}
330
458CB
100
AcDbDictionary
281
     1
  3
DIMADEC
350
458E2
  3
DIMASSOC
350
46A57
  3
PROJECTNAME
350
46A58
  0
XRECORD
  5
46A8F
102
{ACAD_REACTORS
330
458CB
102
}
330
458CB
100
AcDbXrecord
280
     1
  1
DWGPROPS COOKIE
  2

  3

  4

  6

  7

  8
colin
  9

300
=
301
=
302
=
303
=
304
=
305
=
306
=
307
=
308
=
309
=
 40
0.030438912037037
 41
2451760.387179051
 42
2453055.427640498
  1

 90
        0
  0
XRECORD
  5
46A87
102
{ACAD_REACTORS
330
45930
102
}
330
45930
100
AcDbXrecord
280
     1
340
458D6
  0
XRECORD
  5
46A86
102
{ACAD_REACTORS
330
4592E
102
}
330
4592E
100
AcDbXrecord
280
     1
340
458D3
  0
XRECORD
  5
46A97
102
{ACAD_REACTORS
330
46A96
102
}
330
46A96
100
AcDbXrecord
280
     1
102
SHADEPLOT
 70
     0
  0
XRECORD
  5
46A99
102
{ACAD_REACTORS
330
46A98
102
}
330
46A98
100
AcDbXrecord
280
     1
102
SHADEPLOT
 70
     0
  0
LAYOUT
  5
458FE
102
{ACAD_XDICTIONARY
360
46A93
102
}
102
{ACAD_REACTORS
330
458FB
102
}
330
458FB
100
AcDbPlotSettings
  1

  2
none_device
  4
Letter_(8.50_x_11.00_Inches)
  6

 40
6.349999904632568
 41
6.349999904632568
 42
6.350006103515625
 43
6.350006103515625
 44
215.8999938964843
 45
279.3999938964843
 46
0.0
 47
0.0
 48
0.0
 49
0.0
140
0.0
141
0.0
142
1.0
143
1.0
 70
   688
 72
     1
 73
     1
 74
     5
  7
Default R14 pen assignments.ctb
 75
    16
147
1.0
148
0.0
149
0.0
100
AcDbLayout
  1
Layout1
 70
     1
 71
     1
 10
-6.350006103515625
 20
-6.349999904632568
 11
273.0499877929687
 21
209.5499939918517
 12
0.0
 22
0.0
 32
0.0
 14
26.66999878883362
 24
20.31999878883362
 34
0.0
 15
240.0299890995025
 25
182.8799890995025
 35
0.0
146
0.0
 13
0.0
 23
0.0
 33
0.0
 16
1.0
 26
0.0
 36
0.0
 17
0.0
 27
1.0
 37
0.0
 76
     0
330
458D3
331
469F3
  0
LAYOUT
  5
458FD
102
{ACAD_XDICTIONARY
360
46A91
102
}
102
{ACAD_REACTORS
330
458FB
102
}
330
458FB
100
AcDbPlotSettings
  1

  2
HP LaserJet 5000 Series PCL 6
  4

  6

 40
0.0
 41
0.0
 42
0.0
 43
0.0
 44
0.0
 45
0.0
 46
0.0
 47
0.0
 48
0.0
 49
0.0
140
0.0
141
0.0
142
1.0
143
1.0
 70
  1712
 72
     0
 73
     0
 74
     0
  7
Default R14 pen assignments.ctb
 75
     0
147
1.0
148
0.0
149
0.0
100
AcDbLayout
  1
Model
 70
     1
 71
     0
 10
0.0
 20
0.0
 11
12.0
 21
9.0
 12
0.0
 22
0.0
 32
0.0
 14
0.0
 24
0.0
 34
0.0
 15
0.0
 25
0.0
 35
0.0
146
0.0
 13
0.0
 23
0.0
 33
0.0
 16
1.0
 26
0.0
 36
0.0
 17
0.0
 27
1.0
 37
0.0
 76
     0
330
458D6
  0
MLINESTYLE
  5
458DA
102
{ACAD_REACTORS
330
458D9
102
}
330
458D9
100
AcDbMlineStyle
  2
STANDARD
 70
     0
  3

 62
   256
 51
90.0
 52
90.0
 71
     2
 49
0.5
 62
   256
  6
BYLAYER
 49
-0.5
 62
   256
  6
BYLAYER
  0
ACDBPLACEHOLDER
  5
458FA
102
{ACAD_REACTORS
330
458F9
102
}
330
458F9
  0
XRECORD
  5
46AA8
102
{ACAD_REACTORS
330
46A9E
102
}
330
46A9E
100
AcDbXrecord
280
     1
 90
        0
  0
XRECORD
  5
46AAC
102
{ACAD_REACTORS
330
46A9E
102
}
330
46A9E
100
AcDbXrecord
280
     1
1000
DSTYLE
1002
{
1070
   276
 70
     2
1070
   279
 70
     2
1070
   289
 70
     2
1002
}
  0
XRECORD
  5
46AA9
102
{ACAD_REACTORS
330
46A9E
102
}
330
46A9E
100
AcDbXrecord
280
     1
  1
{6E0CF4B8-225E-11D4-A150-00A0CC3303EC}
  0
XRECORD
  5
46AA1
102
{ACAD_REACTORS
330
46A9E
102
}
330
46A9E
100
AcDbXrecord
280
     1
  1

  0
XRECORD
  5
46AA7
102
{ACAD_REACTORS
330
46A9E
102
}
330
46A9E
100
AcDbXrecord
280
     1
 90
        0
  0
XRECORD
  5
46AA3
102
{ACAD_REACTORS
330
46A9E
102
}
330
46A9E
100
AcDbXrecord
280
     1
340
458FB
  0
XRECORD
  5
46AA6
102
{ACAD_REACTORS
330
46A9E
102
}
330
46A9E
100
AcDbXrecord
280
     1
 90
    14877
  0
XRECORD
  5
46AA4
102
{ACAD_REACTORS
330
46A9E
102
}
330
46A9E
100
AcDbXrecord
280
     1
340
458FC
  0
XRECORD
  5
46AA5
102
{ACAD_REACTORS
330
46A9E
102
}
330
46A9E
100
AcDbXrecord
280
     1
340
458F9
  0
XRECORD
  5
46AAB
102
{ACAD_REACTORS
330
46A9E
102
}
330
46A9E
100
AcDbXrecord
280
     1
 40
0.0
  0
XRECORD
  5
46AAF
102
{ACAD_REACTORS
330
46A9E
102
}
330
46A9E
100
AcDbXrecord
280
     1
340
0
  0
XRECORD
  5
46AB5
102
{ACAD_REACTORS
330
46A9E
102
}
330
46A9E
100
AcDbXrecord
280
     1
 10
0.0
 20
0.0
 30
0.0
  0
XRECORD
  5
46AB1
102
{ACAD_REACTORS
330
46A9E
102
}
330
46A9E
100
AcDbXrecord
280
     1
 10
0.0
 20
0.0
 30
0.0
  0
XRECORD
  5
46AB4
102
{ACAD_REACTORS
330
46A9E
102
}
330
46A9E
100
AcDbXrecord
280
     1
 10
0.0
 20
0.0
 30
0.0
  0
XRECORD
  5
46AB2
102
{ACAD_REACTORS
330
46A9E
102
}
330
46A9E
100
AcDbXrecord
280
     1
 10
0.0
 20
0.0
 30
0.0
  0
XRECORD
  5
46AB3
102
{ACAD_REACTORS
330
46A9E
102
}
330
46A9E
100
AcDbXrecord
280
     1
 10
0.0
 20
0.0
 30
0.0
  0
XRECORD
  5
46AB0
102
{ACAD_REACTORS
330
46A9E
102
}
330
46A9E
100
AcDbXrecord
280
     1
 10
0.0
 20
0.0
 30
0.0
  0
XRECORD
  5
46AAD
102
{ACAD_REACTORS
330
46A9E
102
}
330
46A9E
100
AcDbXrecord
280
     1
340
0
  0
XRECORD
  5
46AAE
102
{ACAD_REACTORS
330
46A9E
102
}
330
46A9E
100
AcDbXrecord
280
     1
 70
     0
  0
XRECORD
  5
46AA2
102
{ACAD_REACTORS
330
46A9E
102
}
330
46A9E
100
AcDbXrecord
280
     1
  1

  0
XRECORD
  5
46A9F
102
{ACAD_REACTORS
330
46A9E
102
}
330
46A9E
100
AcDbXrecord
280
     1
 90
        1
  0
XRECORD
  5
46AA0
102
{ACAD_REACTORS
330
46A9E
102
}
330
46A9E
100
AcDbXrecord
280
     1
 90
       70
  0
XRECORD
  5
46AB8
102
{ACAD_REACTORS
330
46A9E
102
}
330
46A9E
100
AcDbXrecord
280
     1
340
0
  0
XRECORD
  5
46ABE
102
{ACAD_REACTORS
330
46A9E
102
}
330
46A9E
100
AcDbXrecord
280
     1
 10
0.0
 20
0.0
 30
0.0
  0
XRECORD
  5
46ABA
102
{ACAD_REACTORS
330
46A9E
102
}
330
46A9E
100
AcDbXrecord
280
     1
 10
0.0
 20
0.0
 30
0.0
  0
XRECORD
  5
46ABD
102
{ACAD_REACTORS
330
46A9E
102
}
330
46A9E
100
AcDbXrecord
280
     1
 10
288.7986194868509
 20
-104.9882877824253
 30
0.0
  0
XRECORD
  5
46ABB
102
{ACAD_REACTORS
330
46A9E
102
}
330
46A9E
100
AcDbXrecord
280
     1
 10
0.0
 20
0.0
 30
0.0
  0
XRECORD
  5
46ABC
102
{ACAD_REACTORS
330
46A9E
102
}
330
46A9E
100
AcDbXrecord
280
     1
 10
44.57293710473379
 20
-10.57239502465733
 30
3.810000000000003
  0
XRECORD
  5
46AB9
102
{ACAD_REACTORS
330
46A9E
102
}
330
46A9E
100
AcDbXrecord
280
     1
 10
288.7986194868509
 20
-104.9882877824253
 30
0.0
  0
XRECORD
  5
46AB6
102
{ACAD_REACTORS
330
46A9E
102
}
330
46A9E
100
AcDbXrecord
280
     1
340
0
  0
XRECORD
  5
46AB7
102
{ACAD_REACTORS
330
46A9E
102
}
330
46A9E
100
AcDbXrecord
280
     1
 70
     1
  0
XRECORD
  5
46AAA
102
{ACAD_REACTORS
330
46A9E
102
}
330
46A9E
100
AcDbXrecord
280
     1
  1
{6B8B8153-D920-42FF-8C80-372D422B00DB}
  0
DICTIONARYVAR
  5
458E2
102
{ACAD_REACTORS
330
458E1
102
}
330
458E1
100
DictionaryVariables
280
     0
  1
0
  0
DICTIONARYVAR
  5
46A57
102
{ACAD_REACTORS
330
458E1
102
}
330
458E1
100
DictionaryVariables
280
     0
  1
1
  0
DICTIONARYVAR
  5
46A58
102
{ACAD_REACTORS
330
458E1
102
}
330
458E1
100
DictionaryVariables
280
     0
  1

  0
DICTIONARY
  5
46A93
330
458FE
100
AcDbDictionary
280
     1
281
     1
  3
ACAD_XREC_ROUNDTRIP
360
46A94
  0
DICTIONARY
  5
46A91
330
458FD
100
AcDbDictionary
280
     1
281
     1
  3
ACAD_XREC_ROUNDTRIP
360
46A92
  0
XRECORD
  5
46A94
102
{ACAD_REACTORS
330
46A93
102
}
330
46A93
100
AcDbXrecord
280
     1
102
SHADEPLOT
 70
     0
102
SHADEPLOTRESLEVEL
 70
     2
102
SHADEPLOTCUSTOMDPI
 70
   300
  0
XRECORD
  5
46A92
102
{ACAD_REACTORS
330
46A91
102
}
330
46A91
100
AcDbXrecord
280
     1
102
SHADEPLOT
 70
     0
102
SHADEPLOTRESLEVEL
 70
     2
102
SHADEPLOTCUSTOMDPI
 70
   300
  0
ENDSEC
  0
EOF
