  0
SECTION
  2
HEADER
  9
$ACADVER
  1
AC1014
  9
$ACADMAINTVER
 70
     8
  9
$DWGCODEPAGE
  3
ANSI_1252
  9
$INSBASE
 10
0.0
 20
0.0
 30
0.0
  9
$EXTMIN
 10
-1.686146
 20
-0.726283
 30
-1.80598
  9
$EXTMAX
 10
0.674376
 20
1.116146
 30
0.197025
  9
$LIMMIN
 10
0.0
 20
0.0
  9
$LIMMAX
 10
22.0
 20
17.0
  9
$ORTHOMODE
 70
     0
  9
$REGENMODE
 70
     1
  9
$FILLMODE
 70
     1
  9
$QTEXTMODE
 70
     0
  9
$MIRRTEXT
 70
     1
  9
$DRAGMODE
 70
     2
  9
$LTSCALE
 40
1.21
  9
$OSMODE
 70
    31
  9
$ATTMODE
 70
     1
  9
$TEXTSIZE
 40
0.2
  9
$TRACEWID
 40
0.05
  9
$TEXTSTYLE
  7
STANDARD
  9
$CLAYER
  8
0
  9
$CELTYPE
  6
BYLAYER
  9
$CECOLOR
 62
   256
  9
$CELTSCALE
 40
1.0
  9
$DELOBJ
 70
     1
  9
$DISPSILH
 70
     1
  9
$DIMSCALE
 40
1.0
  9
$DIMASZ
 40
0.18
  9
$DIMEXO
 40
0.1375
  9
$DIMDLI
 40
0.836
  9
$DIMRND
 40
0.0
  9
$DIMDLE
 40
0.0
  9
$DIMEXE
 40
0.396
  9
$DIMTP
 40
0.0
  9
$DIMTM
 40
0.0
  9
$DIMTXT
 40
0.125
  9
$DIMCEN
 40
0.198
  9
$DIMTSZ
 40
0.0
  9
$DIMTOL
 70
     0
  9
$DIMLIM
 70
     0
  9
$DIMTIH
 70
     1
  9
$DIMTOH
 70
     1
  9
$DIMSE1
 70
     0
  9
$DIMSE2
 70
     0
  9
$DIMTAD
 70
     0
  9
$DIMZIN
 70
     0
  9
$DIMBLK
  1

  9
$DIMASO
 70
     1
  9
$DIMSHO
 70
     1
  9
$DIMPOST
  1

  9
$DIMAPOST
  1

  9
$DIMALT
 70
     0
  9
$DIMALTD
 70
     2
  9
$DIMALTF
 40
25.4
  9
$DIMLFAC
 40
1.0
  9
$DIMTOFL
 70
     0
  9
$DIMTVP
 40
0.0
  9
$DIMTIX
 70
     0
  9
$DIMSOXD
 70
     0
  9
$DIMSAH
 70
     0
  9
$DIMBLK1
  1

  9
$DIMBLK2
  1

  9
$DIMSTYLE
  2
STANDARD
  9
$DIMCLRD
 70
     0
  9
$DIMCLRE
 70
     0
  9
$DIMCLRT
 70
     0
  9
$DIMTFAC
 40
1.0
  9
$DIMGAP
 40
0.09
  9
$DIMJUST
 70
     0
  9
$DIMSD1
 70
     0
  9
$DIMSD2
 70
     0
  9
$DIMTOLJ
 70
     1
  9
$DIMTZIN
 70
     0
  9
$DIMALTZ
 70
     0
  9
$DIMALTTZ
 70
     0
  9
$DIMFIT
 70
     3
  9
$DIMUPT
 70
     0
  9
$DIMUNIT
 70
     2
  9
$DIMDEC
 70
     4
  9
$DIMTDEC
 70
     4
  9
$DIMALTU
 70
     2
  9
$DIMALTTD
 70
     2
  9
$DIMTXSTY
  7
STANDARD
  9
$DIMAUNIT
 70
     0
  9
$LUNITS
 70
     2
  9
$LUPREC
 70
     4
  9
$SKETCHINC
 40
0.1
  9
$FILLETRAD
 40
0.125
  9
$AUNITS
 70
     0
  9
$AUPREC
 70
     0
  9
$MENU
  1
acad
  9
$ELEVATION
 40
0.0
  9
$PELEVATION
 40
0.0
  9
$THICKNESS
 40
0.0
  9
$LIMCHECK
 70
     0
  9
$BLIPMODE
 70
     0
  9
$CHAMFERA
 40
0.0
  9
$CHAMFERB
 40
0.0
  9
$CHAMFERC
 40
0.0
  9
$CHAMFERD
 40
0.0
  9
$SKPOLY
 70
     0
  9
$TDCREATE
 40
2444971.791666666
  9
$TDUPDATE
 40
2452769.628334838
  9
$TDINDWG
 40
0.8593225000
  9
$TDUSRTIMER
 40
0.8593225000
  9
$USRTIMER
 70
     1
  9
$ANGBASE
 50
0.0
  9
$ANGDIR
 70
     0
  9
$PDMODE
 70
     3
  9
$PDSIZE
 40
0.075
  9
$PLINEWID
 40
0.0
  9
$COORDS
 70
     1
  9
$SPLFRAME
 70
     0
  9
$SPLINETYPE
 70
     6
  9
$SPLINESEGS
 70
     8
  9
$ATTDIA
 70
     0
  9
$ATTREQ
 70
     1
  9
$HANDLING
 70
     1
  9
$HANDSEED
  5
45C7
  9
$SURFTAB1
 70
     6
  9
$SURFTAB2
 70
     6
  9
$SURFTYPE
 70
     6
  9
$SURFU
 70
     6
  9
$SURFV
 70
     6
  9
$UCSNAME
  2

  9
$UCSORG
 10
0.0
 20
0.0
 30
0.0
  9
$UCSXDIR
 10
1.0
 20
0.0
 30
0.0
  9
$UCSYDIR
 10
0.0
 20
1.0
 30
0.0
  9
$PUCSNAME
  2

  9
$PUCSORG
 10
0.0
 20
0.0
 30
0.0
  9
$PUCSXDIR
 10
1.0
 20
0.0
 30
0.0
  9
$PUCSYDIR
 10
0.0
 20
1.0
 30
0.0
  9
$USERI1
 70
     0
  9
$USERI2
 70
     0
  9
$USERI3
 70
     0
  9
$USERI4
 70
     0
  9
$USERI5
 70
     0
  9
$USERR1
 40
0.0
  9
$USERR2
 40
0.0
  9
$USERR3
 40
0.0
  9
$USERR4
 40
0.0
  9
$USERR5
 40
0.0
  9
$WORLDVIEW
 70
     1
  9
$SHADEDGE
 70
     3
  9
$SHADEDIF
 70
    70
  9
$TILEMODE
 70
     1
  9
$MAXACTVP
 70
    16
  9
$PINSBASE
 10
0.0
 20
0.0
 30
0.0
  9
$PLIMCHECK
 70
     0
  9
$PEXTMIN
 10
1.000000E+20
 20
1.000000E+20
 30
1.000000E+20
  9
$PEXTMAX
 10
-1.000000E+20
 20
-1.000000E+20
 30
-1.000000E+20
  9
$PLIMMIN
 10
0.0
 20
0.0
  9
$PLIMMAX
 10
12.0
 20
9.0
  9
$UNITMODE
 70
     0
  9
$VISRETAIN
 70
     0
  9
$PLINEGEN
 70
     1
  9
$PSLTSCALE
 70
     0
  9
$TREEDEPTH
 70
  3020
  9
$PICKSTYLE
 70
     1
  9
$CMLSTYLE
  2
STANDARD
  9
$CMLJUST
 70
     0
  9
$CMLSCALE
 40
1.0
  9
$PROXYGRAPHICS
 70
     1
  9
$MEASUREMENT
 70
     0
  0
ENDSEC
  0
SECTION
  2
CLASSES
  0
CLASS
  1
LWPOLYLINE
  2
AcDbPolyline
  3
"AutoCAD"
 90
        0
280
     0
281
     1
  0
CLASS
  1
IMAGE
  2
AcDbRasterImage
  3
ISM
 90
      127
280
     0
281
     1
  0
CLASS
  1
OLE2FRAME
  2
AcDbOle2Frame
  3
""
 90
        0
280
     0
281
     1
  0
CLASS
  1
HATCH
  2
AcDbHatch
  3
"ACAD_SEDONA"
 90
        0
280
     0
281
     1
  0
CLASS
  1
DICTIONARYVAR
  2
AcDbDictionaryVar
  3
"AutoCAD"
 90
        0
280
     0
281
     0
  0
CLASS
  1
RASTERVARIABLES
  2
AcDbRasterVariables
  3
ISM
 90
        0
280
     0
281
     0
  0
CLASS
  1
IMAGEDEF
  2
AcDbRasterImageDef
  3
ISM
 90
        0
280
     0
281
     0
  0
CLASS
  1
IMAGEDEF_REACTOR
  2
AcDbRasterImageDefReactor
  3
ISM
 90
        1
280
     0
281
     0
  0
CLASS
  1
IDBUFFER
  2
AcDbIdBuffer
  3
"Acad"
 90
        0
280
     0
281
     0
  0
CLASS
  1
SPATIAL_FILTER
  2
AcDbSpatialFilter
  3
"Acad"
 90
        0
280
     0
281
     0
  0
CLASS
  1
XRECORD
  2
AcDbXrecord
  3
"<Built In>"
 90
        0
280
     0
281
     0
  0
CLASS
  1
SORTENTSTABLE
  2
AcDbSortentsTable
  3
"AutoCAD"
 90
        0
280
     0
281
     0
  0
CLASS
  1
LAYER_INDEX
  2
AcDbLayerIndex
  3
"Acad"
 90
        0
280
     0
281
     0
  0
CLASS
  1
SPATIAL_INDEX
  2
AcDbSpatialIndex
  3
"Acad"
 90
        0
280
     0
281
     0
  0
CLASS
  1
OBJECT_PTR
  2
CAseDLPNTableRecord
  3
ASE-LPNTableRecord
 90
        1
280
     0
281
     0
  0
CLASS
  1
LAYOUT
  2
AcDbLayout
  3
AutoCAD 2000
 90
        0
280
     0
281
     0
  0
CLASS
  1
PLOTSETTINGS
  2
AcDbPlotSettings
  3
AutoCAD 2000
 90
        0
280
     0
281
     0
  0
CLASS
  1
ACDBDICTIONARYWDFLT
  2
AcDbDictionaryWithDefault
  3
AutoCAD 2000
 90
        0
280
     0
281
     0
  0
CLASS
  1
ACDBPLACEHOLDER
  2
AcDbPlaceHolder
  3
AutoCAD 2000
 90
        0
280
     0
281
     0
  0
CLASS
  1
VBA_PROJECT
  2
AcDbVbaProject
  3
acad
 90
        0
280
     0
281
     0
  0
CLASS
  1
WIPEOUT
  2
AcDbWipeout
  3
WipeOut|AutoCAD Express Tool|expresstools@autodesk.com
 90
      127
280
     0
281
     1
  0
CLASS
  1
WIPEOUTVARIABLES
  2
AcDbWipeoutVariables
  3
WipeOut|AutoCAD Express Tool|expresstools@autodesk.com
 90
        0
280
     0
281
     0
  0
CLASS
  1
RTEXT
  2
RText
  3
RText|AutoCAD Express Tool|expresstools@autodesk.com
 90
        0
280
     0
281
     1
  0
CLASS
  1
ARCALIGNEDTEXT
  2
AcDbArcAlignedText
  3
ATEXT|AutoCAD Express Tool|expresstools@autodesk.com
 90
        0
280
     0
281
     1
  0
CLASS
  1
LONG_TRANSACTION
  2
AcDbLongTransaction
  3
AutoCAD 2000
 90
        0
280
     0
281
     0
  0
CLASS
  1
LWPOLYLINE
  2
AcDbPolyline
  3
"AutoCAD"
 90
        0
280
     0
281
     1
  0
CLASS
  1
HATCH
  2
AcDbHatch
  3
"ACAD_SEDONA"
 90
        0
280
     0
281
     1
  0
CLASS
  1
XRECORD
  2
AcDbXrecord
  3
"<Built In>"
 90
        0
280
     0
281
     0
  0
CLASS
  1
LONG_TRANSACTION
  2
AcDbLongTransaction
  3
AutoCAD 2000
 90
        0
280
     0
281
     0
  0
CLASS
  1
LWPOLYLINE
  2
AcDbPolyline
  3
"AutoCAD"
 90
        0
280
     0
281
     1
  0
CLASS
  1
HATCH
  2
AcDbHatch
  3
"ACAD_SEDONA"
 90
        0
280
     0
281
     1
  0
CLASS
  1
XRECORD
  2
AcDbXrecord
  3
"<Built In>"
 90
        0
280
     0
281
     0
  0
CLASS
  1
LONG_TRANSACTION
  2
AcDbLongTransaction
  3
AutoCAD 2000
 90
        0
280
     0
281
     0
  0
CLASS
  1
LWPOLYLINE
  2
AcDbPolyline
  3
"AutoCAD"
 90
        0
280
     0
281
     1
  0
CLASS
  1
HATCH
  2
AcDbHatch
  3
"ACAD_SEDONA"
 90
        0
280
     0
281
     1
  0
CLASS
  1
XRECORD
  2
AcDbXrecord
  3
"<Built In>"
 90
        0
280
     0
281
     0
  0
CLASS
  1
LONG_TRANSACTION
  2
AcDbLongTransaction
  3
AutoCAD 2000
 90
        0
280
     0
281
     0
  0
CLASS
  1
LWPOLYLINE
  2
AcDbPolyline
  3
"AutoCAD"
 90
        0
280
     0
281
     1
  0
CLASS
  1
HATCH
  2
AcDbHatch
  3
"ACAD_SEDONA"
 90
        0
280
     0
281
     1
  0
CLASS
  1
XRECORD
  2
AcDbXrecord
  3
"<Built In>"
 90
        0
280
     0
281
     0
  0
CLASS
  1
LONG_TRANSACTION
  2
AcDbLongTransaction
  3
AutoCAD 2000
 90
        0
280
     0
281
     0
  0
CLASS
  1
LWPOLYLINE
  2
AcDbPolyline
  3
"AutoCAD"
 90
        0
280
     0
281
     1
  0
CLASS
  1
HATCH
  2
AcDbHatch
  3
"ACAD_SEDONA"
 90
        0
280
     0
281
     1
  0
CLASS
  1
XRECORD
  2
AcDbXrecord
  3
"<Built In>"
 90
        0
280
     0
281
     0
  0
CLASS
  1
LONG_TRANSACTION
  2
AcDbLongTransaction
  3
AutoCAD 2000
 90
        0
280
     0
281
     0
  0
CLASS
  1
LWPOLYLINE
  2
AcDbPolyline
  3
"AutoCAD"
 90
        0
280
     0
281
     1
  0
CLASS
  1
HATCH
  2
AcDbHatch
  3
"ACAD_SEDONA"
 90
        0
280
     0
281
     1
  0
CLASS
  1
XRECORD
  2
AcDbXrecord
  3
"<Built In>"
 90
        0
280
     0
281
     0
  0
CLASS
  1
LONG_TRANSACTION
  2
AcDbLongTransaction
  3
AutoCAD 2000
 90
        0
280
     0
281
     0
  0
CLASS
  1
LWPOLYLINE
  2
AcDbPolyline
  3
"AutoCAD"
 90
        0
280
     0
281
     1
  0
CLASS
  1
HATCH
  2
AcDbHatch
  3
"ACAD_SEDONA"
 90
        0
280
     0
281
     1
  0
CLASS
  1
XRECORD
  2
AcDbXrecord
  3
"<Built In>"
 90
        0
280
     0
281
     0
  0
ENDSEC
  0
SECTION
  2
TABLES
  0
TABLE
  2
VPORT
  5
8
100
AcDbSymbolTable
 70
     1
  0
VPORT
  5
4593
102
{ACAD_XDICTIONARY
360
4594
102
}
100
AcDbSymbolTableRecord
100
AcDbViewportTableRecord
  2
*ACTIVE
 70
     0
 10
0.0
 20
0.0
 11
1.0
 21
1.0
 12
-0.941861
 22
-0.532434
 13
0.0
 23
0.0
 14
1.0
 24
1.0
 15
0.0
 25
0.0
 16
0.0
 26
0.0
 36
1.0
 17
0.435938
 27
0.727277
 37
0.898045
 40
1.863814
 41
1.896104
 42
50.0
 43
0.0
 44
0.0
 50
0.0
 51
0.0
 71
     0
 72
 20000
 73
     1
 74
     1
 75
     0
 76
     0
 77
     0
 78
     0
  0
ENDTAB
  0
TABLE
  2
LTYPE
  5
5
100
AcDbSymbolTable
 70
     1
  0
LTYPE
  5
14
100
AcDbSymbolTableRecord
100
AcDbLinetypeTableRecord
  2
BYBLOCK
 70
     0
  3

 72
    65
 73
     0
 40
0.0
  0
LTYPE
  5
15
100
AcDbSymbolTableRecord
100
AcDbLinetypeTableRecord
  2
BYLAYER
 70
     0
  3

 72
    65
 73
     0
 40
0.0
  0
LTYPE
  5
16
100
AcDbSymbolTableRecord
100
AcDbLinetypeTableRecord
  2
CONTINUOUS
 70
     0
  3
Solid line
 72
    65
 73
     0
 40
0.0
  0
ENDTAB
  0
TABLE
  2
LAYER
  5
2
100
AcDbSymbolTable
 70
     7
  0
LAYER
  5
10
100
AcDbSymbolTableRecord
100
AcDbLayerTableRecord
  2
0
 70
     0
 62
     7
  6
CONTINUOUS
  0
LAYER
  5
13C4
100
AcDbSymbolTableRecord
100
AcDbLayerTableRecord
  2
ATTRIBUTES
 70
     0
 62
     7
  6
CONTINUOUS
  0
LAYER
  5
13C5
102
{ACAD_XDICTIONARY
360
45BC
102
}
100
AcDbSymbolTableRecord
100
AcDbLayerTableRecord
  2
DEFPOINTS
 70
     0
 62
    -7
  6
CONTINUOUS
  0
LAYER
  5
13C6
102
{ACAD_XDICTIONARY
360
45BE
102
}
100
AcDbSymbolTableRecord
100
AcDbLayerTableRecord
  2
AREA1
 70
     0
 62
    -7
  6
CONTINUOUS
  0
LAYER
  5
13C7
100
AcDbSymbolTableRecord
100
AcDbLayerTableRecord
  2
SCALE
 70
     0
 62
    -7
  6
CONTINUOUS
  0
LAYER
  5
13C8
100
AcDbSymbolTableRecord
100
AcDbLayerTableRecord
  2
SNAP_POINTS
 70
     0
 62
    -1
  6
CONTINUOUS
  0
LAYER
  5
149D
100
AcDbSymbolTableRecord
100
AcDbLayerTableRecord
  2
DIMS-MTG-HOLES
 70
     0
 62
     1
  6
CONTINUOUS
  0
ENDTAB
  0
TABLE
  2
STYLE
  5
3
100
AcDbSymbolTable
 70
     1
  0
STYLE
  5
11
100
AcDbSymbolTableRecord
100
AcDbTextStyleTableRecord
  2
STANDARD
 70
     0
 40
0.0
 41
0.8
 50
0.0
 71
     0
 42
0.2
  3
txt
  4

  0
ENDTAB
  0
TABLE
  2
VIEW
  5
6
100
AcDbSymbolTable
 70
     0
  0
ENDTAB
  0
TABLE
  2
UCS
  5
7
100
AcDbSymbolTable
 70
     0
  0
ENDTAB
  0
TABLE
  2
APPID
  5
9
100
AcDbSymbolTable
 70
     2
  0
APPID
  5
201
100
AcDbSymbolTableRecord
100
AcDbRegAppTableRecord
  2
ACAD
 70
     0
  0
APPID
  5
28A0
100
AcDbSymbolTableRecord
100
AcDbRegAppTableRecord
  2
DCO15
 70
     0
  0
ENDTAB
  0
TABLE
  2
DIMSTYLE
  5
A
100
AcDbSymbolTable
 70
     2
  0
DIMSTYLE
105
202
100
AcDbSymbolTableRecord
100
AcDbDimStyleTableRecord
  2
STANDARD
 70
     0
  3

  4

  5

  6

  7

 40
1.0
 41
0.18
 42
0.0625
 43
0.38
 44
0.18
 45
0.0
 46
0.0
 47
0.01
 48
0.01
140
0.125
141
0.09
142
0.0
143
25.4
144
1.0
145
0.0
146
1.0
147
0.09
 71
     0
 72
     0
 73
     1
 74
     1
 75
     0
 76
     0
 77
     0
 78
     4
170
     0
171
     2
172
     0
173
     0
174
     0
175
     0
176
     0
177
     0
178
     0
270
     2
271
     3
272
     3
273
     2
274
     2
340
11
275
     0
280
     0
281
     0
282
     0
283
     1
284
     4
285
     0
286
     0
287
     3
288
     0
  0
DIMSTYLE
105
13C9
102
{ACAD_XDICTIONARY
360
45C0
102
}
102
{ACAD_REACTORS
330
13F0
330
2D94
102
}
100
AcDbSymbolTableRecord
100
AcDbDimStyleTableRecord
  2
ABECAD_3D
 70
     0
  3

  4

  5

  6

  7

 40
1.0
 41
0.09
 42
0.0625
 43
0.375
 44
0.05
 45
0.0
 46
0.0
 47
0.0
 48
0.0
140
0.09
141
0.09
142
0.0
143
25.4
144
1.0
145
0.0
146
1.5
147
0.09
 71
     0
 72
     0
 73
     0
 74
     1
 75
     0
 76
     0
 77
     0
 78
     4
170
     1
171
     2
172
     0
173
     0
174
     0
175
     0
176
     0
177
     0
178
     0
270
     7
271
     6
272
     6
273
     2
274
     2
340
11
275
     0
280
     0
281
     0
282
     0
283
     1
284
     4
285
     4
286
     4
287
     5
288
     0
  0
ENDTAB
  0
TABLE
  2
BLOCK_RECORD
  5
1
100
AcDbSymbolTable
 70
     2
  0
BLOCK_RECORD
  5
1B
102
{ACAD_XDICTIONARY
360
14F7
102
}
100
AcDbSymbolTableRecord
100
AcDbBlockTableRecord
  2
*MODEL_SPACE
  0
BLOCK_RECORD
  5
1C
102
{ACAD_XDICTIONARY
360
14F9
102
}
100
AcDbSymbolTableRecord
100
AcDbBlockTableRecord
  2
*PAPER_SPACE
  0
BLOCK_RECORD
  5
1406
100
AcDbSymbolTableRecord
100
AcDbBlockTableRecord
  2
*D0
  0
BLOCK_RECORD
  5
2D95
100
AcDbSymbolTableRecord
100
AcDbBlockTableRecord
  2
*D1
  0
ENDTAB
  0
ENDSEC
  0
SECTION
  2
BLOCKS
  0
BLOCK
  5
1E
100
AcDbEntity
  8
0
100
AcDbBlockBegin
  2
*MODEL_SPACE
 70
     0
 10
0.0
 20
0.0
 30
0.0
  3
*MODEL_SPACE
  1

  0
ENDBLK
  5
1F
100
AcDbEntity
  8
0
100
AcDbBlockEnd
  0
BLOCK
  5
20
100
AcDbEntity
 67
     1
  8
0
100
AcDbBlockBegin
  2
*PAPER_SPACE
 70
     0
 10
0.0
 20
0.0
 30
0.0
  3
*PAPER_SPACE
  1

  0
ENDBLK
  5
21
100
AcDbEntity
 67
     1
  8
0
100
AcDbBlockEnd
  0
BLOCK
  5
1411
100
AcDbEntity
  8
0
100
AcDbBlockBegin
  2
*D0
 70
     1
 10
0.0
 20
0.0
 30
0.0
  3
*D0
  1

  0
LINE
  5
4556
100
AcDbEntity
  8
AREA1
 62
     0
100
AcDbLine
 10
-0.192913
 20
0.731791
 30
0.0
 11
-0.192913
 21
0.978837
 31
0.0
1001
ACAD
1000
RTLwPs
1070
   158
  0
LINE
  5
4557
100
AcDbEntity
  8
AREA1
 62
     0
100
AcDbLine
 10
0.192913
 20
0.731791
 30
0.0
 11
0.192913
 21
0.978837
 31
0.0
1001
ACAD
1000
RTLwPs
1070
   158
  0
LINE
  5
4558
100
AcDbEntity
  8
AREA1
 62
     0
100
AcDbLine
 10
-0.102913
 20
0.928837
 30
0.0
 11
0.102913
 21
0.928837
 31
0.0
1001
ACAD
1000
RTLwPs
1070
   158
  0
MTEXT
  5
4559
100
AcDbEntity
  8
AREA1
 62
     0
100
AcDbMText
 10
-0.000013
 20
1.071146
 30
0.0
 40
0.09
 41
0.0
 71
     5
 72
     1
  1
\A1;25/64 [9.80]
1001
ACAD
1000
MTEXTBEGIN
1070
    73
1070
     1
1070
    44
1040
1.0
1070
    74
1070
     0
1000
MTEXTEND
1000
MTEXTBEGIN
1070
    73
1070
     1
1070
    44
1040
1.0
1070
    74
1070
     0
1000
MTEXTEND
  0
SOLID
  5
455A
100
AcDbEntity
  8
AREA1
 62
     0
100
AcDbTrace
 10
-0.102913
 20
0.943837
 30
0.0
 11
-0.102913
 21
0.913837
 31
0.0
 12
-0.192913
 22
0.928837
 32
0.0
 13
-0.192913
 23
0.928837
 33
0.0
  0
SOLID
  5
455B
100
AcDbEntity
  8
AREA1
 62
     0
100
AcDbTrace
 10
0.102913
 20
0.943837
 30
0.0
 11
0.102913
 21
0.913837
 31
0.0
 12
0.192913
 22
0.928837
 32
0.0
 13
0.192913
 23
0.928837
 33
0.0
  0
POINT
  5
455C
100
AcDbEntity
  8
DEFPOINTS
 62
     0
100
AcDbPoint
 10
-0.192913
 20
0.669291
 30
-0.074172
  0
POINT
  5
455D
100
AcDbEntity
  8
DEFPOINTS
 62
     0
100
AcDbPoint
 10
0.192913
 20
0.669291
 30
-0.074172
  0
POINT
  5
455E
100
AcDbEntity
  8
DEFPOINTS
 62
     0
100
AcDbPoint
 10
0.192913
 20
0.928837
 30
0.0
  0
ENDBLK
  5
1412
100
AcDbEntity
  8
0
100
AcDbBlockEnd
  0
BLOCK
  5
2DA0
100
AcDbEntity
  8
0
100
AcDbBlockBegin
  2
*D1
 70
     1
 10
0.0
 20
0.0
 30
0.0
  3
*D1
  1

  0
LINE
  5
454C
100
AcDbEntity
  8
AREA1
 62
     0
100
AcDbLine
 10
0.255413
 20
0.669291
 30
0.0
 11
0.674376
 21
0.669291
 31
0.0
1001
ACAD
1000
RTLwPs
1070
   158
  0
LINE
  5
454D
100
AcDbEntity
  8
AREA1
 62
     0
100
AcDbLine
 10
0.255413
 20
-0.726283
 30
0.0
 11
0.674376
 21
-0.726283
 31
0.0
1001
ACAD
1000
RTLwPs
1070
   158
  0
LINE
  5
454E
100
AcDbEntity
  8
AREA1
 62
     0
100
AcDbLine
 10
0.624376
 20
0.579291
 30
0.0
 11
0.624376
 21
0.529504
 31
0.0
1001
ACAD
1000
RTLwPs
1070
   158
  0
LINE
  5
454F
100
AcDbEntity
  8
AREA1
 62
     0
100
AcDbLine
 10
0.624376
 20
-0.636283
 30
0.0
 11
0.624376
 21
-0.586496
 31
0.0
1001
ACAD
1000
RTLwPs
1070
   158
  0
MTEXT
  5
4550
100
AcDbEntity
  8
AREA1
 62
     0
100
AcDbMText
 10
0.624376
 20
-0.028496
 30
0.0
 40
0.09
 41
0.0
 71
     5
 72
     1
  1
\A1;1 25/64 [35.45]
 11
0.0
 21
1.0
 31
0.0
1001
ACAD
1000
MTEXTBEGIN
1070
    73
1070
     1
1070
    44
1040
1.0
1070
    74
1070
     0
1000
MTEXTEND
1000
MTEXTBEGIN
1070
    73
1070
     1
1070
    44
1040
1.0
1070
    74
1070
     0
1000
MTEXTEND
  0
SOLID
  5
4551
100
AcDbEntity
  8
AREA1
 62
     0
100
AcDbTrace
 10
0.609376
 20
0.579291
 30
0.0
 11
0.639376
 21
0.579291
 31
0.0
 12
0.624376
 22
0.669291
 32
0.0
 13
0.624376
 23
0.669291
 33
0.0
  0
SOLID
  5
4552
100
AcDbEntity
  8
AREA1
 62
     0
100
AcDbTrace
 10
0.609376
 20
-0.636283
 30
0.0
 11
0.639376
 21
-0.636283
 31
0.0
 12
0.624376
 22
-0.726283
 32
0.0
 13
0.624376
 23
-0.726283
 33
0.0
  0
POINT
  5
4553
100
AcDbEntity
  8
DEFPOINTS
 62
     0
100
AcDbPoint
 10
0.192913
 20
0.669291
 30
-0.074172
  0
POINT
  5
4554
100
AcDbEntity
  8
DEFPOINTS
 62
     0
100
AcDbPoint
 10
0.192913
 20
-0.726283
 30
0.029725
  0
POINT
  5
4555
100
AcDbEntity
  8
DEFPOINTS
 62
     0
100
AcDbPoint
 10
0.624376
 20
-0.726283
 30
0.0
  0
ENDBLK
  5
2DA1
100
AcDbEntity
  8
0
100
AcDbBlockEnd
  0
ENDSEC
  0
SECTION
  2
ENTITIES
  0
POINT
  5
13EF
100
AcDbEntity
  8
SNAP_POINTS
100
AcDbPoint
 10
0.0
 20
0.0
 30
0.0
 50
90.0
  0
DIMENSION
  5
13F0
100
AcDbEntity
  8
AREA1
100
AcDbDimension
  2
*D0
 10
0.192913
 20
0.928837
 30
0.1673
 11
-0.000013
 21
1.071146
 31
0.1673
 70
   160
  3
ABECAD_3D
100
AcDbAlignedDimension
 13
-0.192913
 23
0.669291
 33
0.093128
 14
0.192913
 24
0.669291
 34
0.093128
100
AcDbRotatedDimension
  0
TEXT
  5
13F1
100
AcDbEntity
  8
SCALE
100
AcDbText
 10
-1.264865
 20
0.381582
 30
0.1673
 40
0.0625
  1
1 Inch
100
AcDbText
  0
LWPOLYLINE
  5
13F2
100
AcDbEntity
  8
SCALE
100
AcDbPolyline
 90
        4
 70
     1
 43
0.0
 38
0.1673
 10
-1.686146
 20
0.692611
 10
-0.550517
 20
0.692611
 10
-0.550517
 20
-0.148998
 10
-1.686146
 20
-0.148998
  0
LINE
  5
13F3
100
AcDbEntity
  8
SCALE
100
AcDbLine
 10
-1.628148
 20
0.312533
 30
0.1673
 11
-0.628148
 21
0.312533
 31
0.1673
  0
LINE
  5
13F4
100
AcDbEntity
  8
SCALE
100
AcDbLine
 10
-1.628148
 20
0.212533
 30
0.1673
 11
-1.628148
 21
0.412533
 31
0.1673
  0
LINE
  5
13F5
100
AcDbEntity
  8
SCALE
100
AcDbLine
 10
-1.234448
 20
-0.087467
 30
0.1673
 11
-1.234448
 21
0.112533
 31
0.1673
  0
LINE
  5
13F6
100
AcDbEntity
  8
SCALE
100
AcDbLine
 10
-1.628148
 20
-0.087467
 30
0.1673
 11
-1.628148
 21
0.112533
 31
0.1673
  0
LINE
  5
13F7
100
AcDbEntity
  8
SCALE
100
AcDbLine
 10
-1.628148
 20
0.012533
 30
0.1673
 11
-1.234448
 21
0.012533
 31
0.1673
  0
TEXT
  5
13F8
100
AcDbEntity
  8
SCALE
100
AcDbText
 10
-1.568725
 20
0.058273
 30
0.1673
 40
0.0625
  1
[10mm]
100
AcDbText
  0
TEXT
  5
13F9
100
AcDbEntity
  8
SCALE
100
AcDbText
 10
-1.626617
 20
0.58741
 30
0.1673
 40
0.0625
  1
SCALE:
100
AcDbText
  0
LINE
  5
13FA
100
AcDbEntity
  8
SCALE
100
AcDbLine
 10
-0.628148
 20
0.212533
 30
0.1673
 11
-0.628148
 21
0.412533
 31
0.1673
  0
LINE
  5
13FB
100
AcDbEntity
  8
SCALE
100
AcDbLine
 10
-0.628148
 20
0.312533
 30
0.1673
 11
-0.628148
 21
0.212533
 31
0.1673
  0
DIMENSION
  5
2D94
100
AcDbEntity
  8
AREA1
100
AcDbDimension
  2
*D1
 10
0.624376
 20
-0.726283
 30
0.1673
 11
0.624376
 21
-0.028496
 31
0.1673
 70
   160
  3
ABECAD_3D
100
AcDbAlignedDimension
 13
0.192913
 23
0.669291
 33
0.093128
 14
0.192913
 24
-0.726283
 34
0.197025
 50
90.0
100
AcDbRotatedDimension
  0
ATTDEF
  5
327B
100
AcDbEntity
  8
ATTRIBUTES
100
AcDbText
 10
-0.180438
 20
-0.109525
 30
-1.781519
 40
0.012
  1
ALLEN-BRADLEY
100
AcDbAttributeDefinition
  3
MANUFACTURER NAME?
  2
AC_VND_LABEL
 70
     1
  0
ATTDEF
  5
327C
100
AcDbEntity
  8
ATTRIBUTES
100
AcDbText
 10
-0.180438
 20
-0.134525
 30
-1.781519
 40
0.012
  1
800F-X02D
100
AcDbAttributeDefinition
  3
CATALOG NUMBER?
  2
AC_PART_NO
 70
     1
  0
ATTDEF
  5
327D
100
AcDbEntity
  8
ATTRIBUTES
100
AcDbText
 10
-0.180438
 20
-0.159525
 30
-1.781519
 40
0.012
  1
DUAL CIRCUIT 2 N.C. CONTACT BLOCK
100
AcDbAttributeDefinition
  3
PART DESCRIPTION?
  2
AC_DESCRIPTION
 70
     1
  0
ATTDEF
  5
327E
100
AcDbEntity
  8
ATTRIBUTES
100
AcDbText
 10
-0.180438
 20
-0.184525
 30
-1.781519
 40
0.012
  1

100
AcDbAttributeDefinition
  3
DEVICE ID?
  2
DEVICE_ID
 70
     1
  0
ATTDEF
  5
327F
100
AcDbEntity
  8
ATTRIBUTES
100
AcDbText
 10
-0.180438
 20
-0.209525
 30
-1.781519
 40
0.012
  1

100
AcDbAttributeDefinition
  3
CUSTOMER PART NUMBER?
  2
AC_CPART_NO
 70
     1
  0
ATTDEF
  5
3280
100
AcDbEntity
  8
ATTRIBUTES
100
AcDbText
 10
-0.180438
 20
-0.234525
 30
-1.781519
 40
0.012
  1

100
AcDbAttributeDefinition
  3
CUSTOMER NOTE?
  2
AC_NOTE
 70
     1
  0
ATTDEF
  5
3281
100
AcDbEntity
  8
ATTRIBUTES
100
AcDbText
 10
-0.180438
 20
-0.259525
 30
-1.781519
 40
0.012
  1

100
AcDbAttributeDefinition
  3
FASTENER DATA?
  2
FASTENER
 70
     1
  0
ATTDEF
  5
3282
100
AcDbEntity
  8
ATTRIBUTES
100
AcDbText
 10
-0.180438
 20
-0.284525
 30
-1.781519
 40
0.012
  1
INCH
100
AcDbAttributeDefinition
  3
UNIT OF SCALE?
  2
AC_SCALE_UNIT
 70
     1
  0
ATTDEF
  5
3283
100
AcDbEntity
  8
ATTRIBUTES
100
AcDbText
 10
-0.180438
 20
-0.309525
 30
-1.781519
 40
0.012
  1
0
100
AcDbAttributeDefinition
  3
VIEW CODE?
  2
AC_VIEW_CODE
 70
     1
  0
LINE
  5
33F5
100
AcDbEntity
  8
0
  6
CONTINUOUS
100
AcDbLine
 10
0.109929
 20
-0.432503
 30
-1.781519
 11
0.113082
 21
-0.417823
 31
-1.781519
210
-0.0000000000000001
220
0.0
230
-1.0
  0
LINE
  5
33F6
100
AcDbEntity
  8
0
  6
CONTINUOUS
100
AcDbLine
 10
0.123563
 20
-0.365322
 30
-1.781519
 11
0.125098
 21
-0.380784
 31
-1.781519
210
-0.0000000000000001
220
0.0
230
-1.0
  0
LINE
  5
33F7
100
AcDbEntity
  8
0
  6
CONTINUOUS
100
AcDbLine
 10
0.124861
 20
-0.383195
 30
-1.781519
 11
0.123564
 21
-0.370122
 31
-1.781519
210
-0.0000000000000001
220
0.0
230
-1.0
  0
LWPOLYLINE
  5
33F8
100
AcDbEntity
  8
0
  6
CONTINUOUS
100
AcDbPolyline
 90
        3
 70
     0
 43
0.0
 38
1.781519
 10
-0.11665
 20
-0.391839
 10
-0.117709
 20
-0.40747
 10
-0.116972
 20
-0.418351
210
-0.0000000000000001
220
0.0
230
-1.0
  0
LINE
  5
33F9
100
AcDbEntity
  8
0
  6
CONTINUOUS
100
AcDbLine
 10
0.066929
 20
-0.310723
 30
-1.781519
 11
0.066929
 21
-0.288918
 31
-1.781519
210
-0.0000000000000001
220
0.0
230
-1.0
  0
LINE
  5
33FA
100
AcDbEntity
  8
0
  6
CONTINUOUS
100
AcDbLine
 10
-0.085285
 20
-0.32685
 30
-1.781519
 11
-0.091167
 21
-0.33341
 31
-1.781519
210
-0.0000000000000001
220
0.0
230
-1.0
  0
LWPOLYLINE
  5
33FB
100
AcDbEntity
  8
0
  6
CONTINUOUS
100
AcDbPolyline
 90
        7
 70
     0
 43
0.0
 38
1.781519
 10
0.085288
 20
-0.326854
 10
0.074962
 20
-0.316717
 10
0.061903
 20
-0.306972
 10
0.047575
 20
-0.299177
 10
0.032271
 20
-0.293491
 10
0.016306
 20
-0.290031
 10
0.0
 20
-0.28887
210
-0.0000000000000001
220
0.0
230
-1.0
  0
LWPOLYLINE
  5
33FC
100
AcDbEntity
  8
0
  6
CONTINUOUS
100
AcDbPolyline
 90
        6
 70
     0
 43
0.0
 38
1.781519
 10
-0.121484
 20
-0.403432
 10
-0.118987
 20
-0.386992
 10
-0.113611
 20
-0.369691
 10
-0.105696
 20
-0.353378
 10
-0.09542
 20
-0.338419
 10
-0.091169
 20
-0.333414
210
-0.0000000000000001
220
0.0
230
-1.0
  0
LINE
  5
33FD
100
AcDbEntity
  8
0
  6
CONTINUOUS
100
AcDbLine
 10
0.015748
 20
-0.482299
 30
-1.781519
 11
0.015748
 21
-0.417823
 31
-1.781519
210
-0.0000000000000001
220
0.0
230
-1.0
  0
LINE
  5
33FE
100
AcDbEntity
  8
0
  6
CONTINUOUS
100
AcDbLine
 10
0.015748
 20
-0.322085
 30
-1.781519
 11
0.015748
 21
-0.391839
 31
-1.781519
210
-0.0000000000000001
220
0.0
230
-1.0
  0
LWPOLYLINE
  5
33FF
100
AcDbEntity
  8
0
  6
CONTINUOUS
100
AcDbPolyline
 90
        8
 70
     0
 43
0.0
 38
1.781519
 10
-0.123564
 20
-0.370122
 10
-0.116395
 20
-0.346665
 10
-0.104753
 20
-0.325045
 10
-0.089084
 20
-0.306095
 10
-0.069992
 20
-0.290543
 10
-0.04821
 20
-0.278988
 10
-0.024576
 20
-0.271872
 10
0.0
 20
-0.26947
210
-0.0000000000000001
220
0.0
230
-1.0
  0
LWPOLYLINE
  5
3400
100
AcDbEntity
  8
0
  6
CONTINUOUS
100
AcDbPolyline
 90
        6
 70
     0
 43
0.0
 38
1.781519
 10
-0.113082
 20
-0.386561
 10
-0.109675
 20
-0.370697
 10
-0.104022
 20
-0.35548
 10
-0.09624
 20
-0.341221
 10
-0.086486
 20
-0.328211
 10
-0.085288
 20
-0.326854
210
-0.0000000000000001
220
0.0
230
-1.0
  0
LINE
  5
3401
100
AcDbEntity
  8
0
  6
CONTINUOUS
100
AcDbLine
 10
-0.015748
 20
-0.322085
 30
-1.781519
 11
-0.015748
 21
-0.391839
 31
-1.781519
210
-0.0000000000000001
220
0.0
230
-1.0
  0
LINE
  5
3402
100
AcDbEntity
  8
0
  6
CONTINUOUS
100
AcDbLine
 10
-0.015748
 20
-0.417823
 30
-1.781519
 11
-0.015748
 21
-0.482299
 31
-1.781519
210
-0.0000000000000001
220
0.0
230
-1.0
  0
LINE
  5
3403
100
AcDbEntity
  8
0
  6
CONTINUOUS
100
AcDbLine
 10
-0.066929
 20
-0.310723
 30
-1.781519
 11
-0.066929
 21
-0.28927
 31
-1.781519
210
-0.0000000000000001
220
0.0
230
-1.0
  0
LWPOLYLINE
  5
3404
100
AcDbEntity
  8
0
  6
CONTINUOUS
100
AcDbPolyline
 90
        6
 70
     0
 43
0.0
 38
1.781519
 10
0.121449
 20
-0.403199
 10
0.118987
 20
-0.386992
 10
0.113611
 20
-0.369691
 10
0.105696
 20
-0.353378
 10
0.09542
 20
-0.338419
 10
0.091169
 20
-0.333414
210
-0.0000000000000001
220
0.0
230
-1.0
  0
LWPOLYLINE
  5
3405
100
AcDbEntity
  8
0
  6
CONTINUOUS
100
AcDbPolyline
 90
        3
 70
     0
 43
0.0
 38
1.781519
 10
0.119818
 20
-0.355872
 10
0.125294
 20
-0.381444
 10
0.125386
 20
-0.383193
210
-0.0000000000000001
220
0.0
230
-1.0
  0
LWPOLYLINE
  5
3406
100
AcDbEntity
  8
0
  6
CONTINUOUS
100
AcDbPolyline
 90
        7
 70
     0
 43
0.0
 38
1.781519
 10
0.125294
 20
-0.376646
 10
0.119818
 20
-0.351076
 10
0.109106
 20
-0.327195
 10
0.093625
 20
-0.306046
 10
0.074052
 20
-0.288554
 10
0.051242
 20
-0.275483
 10
0.026194
 20
-0.267405
210
-0.0000000000000001
220
0.0
230
-1.0
  0
LWPOLYLINE
  5
3407
100
AcDbEntity
  8
0
  6
CONTINUOUS
100
AcDbPolyline
 90
        6
 70
     0
 43
0.0
 38
1.781519
 10
0.113082
 20
-0.386561
 10
0.109675
 20
-0.370697
 10
0.104022
 20
-0.35548
 10
0.09624
 20
-0.341221
 10
0.086486
 20
-0.328211
 10
0.085288
 20
-0.326854
210
-0.0000000000000001
220
0.0
230
-1.0
  0
LINE
  5
3408
100
AcDbEntity
  8
0
  6
CONTINUOUS
100
AcDbLine
 10
-0.125511
 20
-0.380781
 30
-1.781519
 11
-0.125294
 21
-0.376646
 31
-1.781519
210
-0.0000000000000001
220
0.0
230
-1.0
  0
LWPOLYLINE
  5
3409
100
AcDbEntity
  8
0
  6
CONTINUOUS
100
AcDbPolyline
 90
        7
 70
     0
 43
0.0
 38
1.781519
 10
-0.085288
 20
-0.326854
 10
-0.074962
 20
-0.316717
 10
-0.061903
 20
-0.306972
 10
-0.047575
 20
-0.299177
 10
-0.032271
 20
-0.293491
 10
-0.016306
 20
-0.290031
 10
0.0
 20
-0.28887
210
-0.0000000000000001
220
0.0
230
-1.0
  0
LINE
  5
340A
100
AcDbEntity
  8
0
  6
CONTINUOUS
100
AcDbLine
 10
0.085285
 20
-0.32685
 30
-1.781519
 11
0.091167
 21
-0.33341
 31
-1.781519
210
-0.0000000000000001
220
0.0
230
-1.0
  0
LWPOLYLINE
  5
340B
100
AcDbEntity
  8
0
  6
CONTINUOUS
100
AcDbPolyline
 90
        3
 70
     0
 43
0.0
 38
1.781519
 10
0.117045
 20
-0.41727
 10
0.117709
 20
-0.40747
 10
0.11665
 20
-0.391839
210
-0.0000000000000001
220
0.0
230
-1.0
  0
LINE
  5
340C
100
AcDbEntity
  8
0
  6
CONTINUOUS
100
AcDbLine
 10
-0.026194
 20
-0.267405
 30
-1.781519
 11
0.0
 21
-0.264672
 31
-1.781519
210
-0.0000000000000001
220
0.0
230
-1.0
  0
LWPOLYLINE
  5
340D
100
AcDbEntity
  8
0
  6
CONTINUOUS
100
AcDbPolyline
 90
        7
 70
     0
 43
0.0
 38
1.781519
 10
0.0
 20
-0.26947
 10
0.026191
 20
-0.272202
 10
0.051239
 20
-0.280279
 10
0.074049
 20
-0.293349
 10
0.093622
 20
-0.310841
 10
0.109104
 20
-0.33199
 10
0.119818
 20
-0.355872
210
-0.0000000000000001
220
0.0
230
-1.0
  0
LINE
  5
340E
100
AcDbEntity
  8
0
  6
CONTINUOUS
100
AcDbLine
 10
0.058152
 20
-0.264672
 30
-1.781519
 11
-0.058174
 21
-0.264672
 31
-1.781519
210
-0.0000000000000001
220
0.0
230
-1.0
  0
LWPOLYLINE
  5
340F
100
AcDbEntity
  8
0
  6
CONTINUOUS
100
AcDbPolyline
 90
        8
 70
     0
 43
0.0
 38
1.781519
 10
0.0
 20
-0.264672
 10
-0.024578
 20
-0.267075
 10
-0.048212
 20
-0.274191
 10
-0.069993
 20
-0.285746
 10
-0.089084
 20
-0.301297
 10
-0.104752
 20
-0.320246
 10
-0.116394
 20
-0.341865
 10
-0.123563
 20
-0.365322
210
-0.0000000000000001
220
0.0
230
-1.0
  0
LINE
  5
3410
100
AcDbEntity
  8
0
  6
CONTINUOUS
100
AcDbLine
 10
0.015748
 20
-0.322085
 30
-1.781519
 11
-0.015748
 21
-0.322085
 31
-1.781519
210
-0.0000000000000001
220
0.0
230
-1.0
  0
LINE
  5
3411
100
AcDbEntity
  8
0
  6
CONTINUOUS
100
AcDbLine
 10
0.015748
 20
-0.327363
 30
-1.781519
 11
-0.015748
 21
-0.327363
 31
-1.781519
210
-0.0000000000000001
220
0.0
230
-1.0
  0
LWPOLYLINE
  5
3412
100
AcDbEntity
  8
0
  6
CONTINUOUS
100
AcDbPolyline
 90
        3
 70
     0
 43
0.0
 38
1.781519
 10
0.109253
 20
-0.434823
 10
0.109675
 20
-0.433687
 10
0.113082
 20
-0.417823
210
-0.0000000000000001
220
0.0
230
-1.0
  0
LINE
  5
3413
100
AcDbEntity
  8
0
  6
CONTINUOUS
100
AcDbLine
 10
-0.113082
 20
-0.386561
 30
-1.781519
 11
-0.015748
 21
-0.386561
 31
-1.781519
210
-0.0000000000000001
220
0.0
230
-1.0
  0
LINE
  5
3414
100
AcDbEntity
  8
0
  6
CONTINUOUS
100
AcDbLine
 10
0.113082
 20
-0.386561
 30
-1.781519
 11
0.015748
 21
-0.386561
 31
-1.781519
210
-0.0000000000000001
220
0.0
230
-1.0
  0
LINE
  5
3415
100
AcDbEntity
  8
0
  6
CONTINUOUS
100
AcDbLine
 10
0.11665
 20
-0.391839
 30
-1.781519
 11
0.015748
 21
-0.391839
 31
-1.781519
210
-0.0000000000000001
220
0.0
230
-1.0
  0
LINE
  5
3416
100
AcDbEntity
  8
0
  6
CONTINUOUS
100
AcDbLine
 10
-0.015748
 20
-0.391839
 30
-1.781519
 11
-0.11665
 21
-0.391839
 31
-1.781519
210
-0.0000000000000001
220
0.0
230
-1.0
  0
LINE
  5
3417
100
AcDbEntity
  8
0
  6
CONTINUOUS
100
AcDbLine
 10
-0.113082
 20
-0.417823
 30
-1.781519
 11
-0.015748
 21
-0.417823
 31
-1.781519
210
-0.0000000000000001
220
0.0
230
-1.0
  0
LINE
  5
3418
100
AcDbEntity
  8
0
  6
CONTINUOUS
100
AcDbLine
 10
0.113082
 20
-0.417823
 30
-1.781519
 11
0.015748
 21
-0.417823
 31
-1.781519
210
-0.0000000000000001
220
0.0
230
-1.0
  0
LINE
  5
3419
100
AcDbEntity
  8
0
  6
CONTINUOUS
100
AcDbLine
 10
-0.015748
 20
-0.482299
 30
-1.781519
 11
0.015748
 21
-0.482299
 31
-1.781519
210
-0.0000000000000001
220
0.0
230
-1.0
  0
SPLINE
  5
341A
100
AcDbEntity
  8
0
  6
CONTINUOUS
100
AcDbSpline
210
-0.8283964814545138
220
0.5601421868720314
230
0.0
 70
    24
 71
     3
 72
     9
 73
     5
 74
     3
 42
0.0000001
 43
0.0000001
 44
0.0000000001
 40
0.0
 40
0.0
 40
0.0
 40
0.0
 40
0.0021147591961939
 40
0.0040067619519159
 40
0.0040067619519159
 40
0.0040067619519159
 40
0.0040067619519159
 10
-0.1130819418499982
 20
-0.4178227382500018
 30
-1.781518897599998
 10
-0.1134768336906853
 20
-0.4184066665538301
 30
-1.781518897599998
 10
-0.1142250217610978
 20
-0.4195130155483807
 30
-1.781518897599999
 10
-0.1149730686748094
 20
-0.4206194599892812
 30
-1.781518897599999
 10
-0.1153262982499967
 20
-0.4211419257500025
 30
-1.781518897599998
 11
-0.1130819418499982
 21
-0.4178227382500018
 31
-1.781518897599998
 11
-0.1142665780499996
 21
-0.4195745497500019
 31
-1.781518897599998
 11
-0.1153262982499967
 21
-0.4211419257500025
 31
-1.781518897599998
  0
SPLINE
  5
341B
100
AcDbEntity
  8
0
  6
CONTINUOUS
100
AcDbSpline
210
-0.8284041953558112
220
-0.5601307785837976
230
0.0
 70
    24
 71
     3
 72
    10
 73
     6
 74
     4
 42
0.0000001
 43
0.0000001
 44
0.0000000001
 40
0.0
 40
0.0
 40
0.0
 40
0.0
 40
0.0004247840523449
 40
0.0025484205836768
 40
0.0046632317010582
 40
0.0046632317010582
 40
0.0046632317010582
 40
0.0046632317010582
 10
0.115693961449999
 20
-0.4216857789500024
 30
-1.781518897599998
 10
0.115614660646611
 20
-0.4215684740602971
 30
-1.781518897599998
 10
0.1151389087944865
 20
-0.4208647230747299
 30
-1.781518897599999
 10
0.1142682882753656
 20
-0.4195770072154432
 30
-1.781518897599998
 10
0.113476841334153
 20
-0.4184066822774025
 30
-1.781518897599998
 10
0.1130819418499982
 20
-0.4178227382500018
 30
-1.781518897599998
 11
0.115693961449999
 21
-0.4216857789500024
 31
-1.781518897599998
 11
0.1154560580500004
 21
-0.421333864950003
 31
-1.781518897599998
 11
0.1142666071500002
 21
-0.4195745927500019
 31
-1.781518897599998
 11
0.1130819418499982
 21
-0.4178227382500018
 31
-1.781518897599998
  0
SPLINE
  5
341C
100
AcDbEntity
  8
0
  6
CONTINUOUS
100
AcDbSpline
210
-0.8284240137955277
220
-0.5601014670279908
230
0.0
 70
    24
 71
     3
 72
    10
 73
     6
 74
     4
 42
0.0000001
 43
0.0000001
 44
0.0000000001
 40
0.0
 40
0.0
 40
0.0
 40
0.0
 40
0.0021147591961939
 40
0.0042383956446849
 40
0.0063708995948248
 40
0.0063708995948248
 40
0.0063708995948248
 40
0.0063708995948248
 10
0.1130819418499982
 20
-0.3865614421499996
 30
-1.781518897599998
 10
0.1134768311598007
 20
-0.387145372164743
 30
-1.781518897599998
 10
0.1142682674300919
 20
-0.3883156833924908
 30
-1.781518897599999
 10
0.1154577149142646
 20
-0.3900749538852964
 30
-1.781518897599998
 10
0.1162522145684594
 20
-0.3912503339090347
 30
-1.781518897599998
 10
0.1166502920499965
 20
-0.3918392483500019
 30
-1.781518897599998
 11
0.1130819418499982
 21
-0.3865614421499996
 31
-1.781518897599998
 11
0.1142665780499996
 21
-0.3883132536499998
 31
-1.781518897599998
 11
0.1154560289499997
 21
-0.3900725257500026
 31
-1.781518897599998
 11
0.1166502920499965
 21
-0.3918392483500019
 31
-1.781518897599998
  0
SPLINE
  5
341D
100
AcDbEntity
  8
0
  6
CONTINUOUS
100
AcDbSpline
210
-0.8284240065122583
220
0.5601014778003876
230
0.0
 70
    24
 71
     3
 72
    10
 73
     6
 74
     4
 42
0.0000001
 43
0.0000001
 44
0.0000000001
 40
0.0
 40
0.0
 40
0.0
 40
0.0
 40
0.0021324520289565
 40
0.0042560885334586
 40
0.0063708996508399
 40
0.0063708996508399
 40
0.0063708996508399
 40
0.0063708996508399
 10
-0.1166502921499983
 20
-0.3918392483500019
 30
-1.781518897599998
 10
-0.1162522243774879
 20
-0.3912503482362655
 30
-1.781518897599998
 10
-0.1154577344386215
 20
-0.3900749825129613
 30
-1.781518897599998
 10
-0.1142682868261201
 20
-0.3883157120843789
 30
-1.781518897599998
 10
-0.1134768408534099
 20
-0.3871453865023971
 30
-1.781518897599998
 10
-0.1130819418499982
 20
-0.3865614421499996
 30
-1.781518897599998
 11
-0.1166502921499983
 21
-0.3918392483500019
 31
-1.781518897599998
 11
-0.1154560581500021
 21
-0.3900725687500026
 31
-1.781518897599998
 11
-0.1142666071500002
 21
-0.3883132966499998
 31
-1.781518897599998
 11
-0.1130819418499982
 21
-0.3865614421499996
 31
-1.781518897599998
  0
SPLINE
  5
341E
100
AcDbEntity
  8
0
  6
CONTINUOUS
100
AcDbSpline
210
0.0000000000000083
220
-0.0000000000000083
230
1.0
 70
     8
 71
     3
 72
    15
 73
    11
 74
     9
 42
0.0000001
 43
0.0000001
 44
0.0000000001
 40
0.0
 40
0.0
 40
0.0
 40
0.0
 40
0.0249896020877379
 40
0.0499501794281384
 40
0.0748550427797844
 40
0.0996862857673655
 40
0.1244374347715873
 40
0.1491142263808522
 40
0.1737334652228412
 40
0.1983204455413456
 40
0.1983204455413456
 40
0.1983204455413456
 40
0.1983204455413456
 10
0.1259842519500012
 20
-0.3717548725500022
 30
-1.781518897599998
 10
0.1255114709036658
 20
-0.3800980247175686
 30
-1.781518897599998
 10
0.1245664579334007
 20
-0.3967746387069803
 30
-1.781518897599998
 10
0.1170215207690035
 20
-0.4208114057026949
 30
-1.781518897599999
 10
0.1053135326545602
 20
-0.4429290558268939
 30
-1.781518897599998
 10
0.089472103542626
 20
-0.4622659674863109
 30
-1.781518897599999
 10
0.0702448299123115
 20
-0.4781213000421961
 30
-1.781518897599998
 10
0.0483504655500909
 20
-0.4897870294062196
 30
-1.781518897599999
 10
0.0246373430945389
 20
-0.4972796526583085
 30
-1.781518897599998
 10
0.0082088576126546
 20
-0.4982169185364554
 30
-1.781518897599998
 10
-0.0000000000500009
 20
-0.4986852442500008
 30
-1.781518897599998
 11
0.1259842519500012
 21
-0.3717548725500022
 31
-1.781518897599998
 11
0.1235423042500017
 21
-0.3966248766500007
 31
-1.781518897599998
 11
0.1163168974499982
 21
-0.4205167982500014
 31
-1.781518897599998
 11
0.1046044653500004
 21
-0.442495677950002
 31
-1.781518897599998
 11
0.0888799427499976
 21
-0.461713638750001
 31
-1.781518897599998
 11
0.0697699652500035
 21
-0.4774434873500005
 31
-1.781518897599998
 11
0.0480212468499985
 21
-0.4891027022500003
 31
-1.781518897599998
 11
0.0244679054500026
 21
-0.4962683864500006
 31
-1.781518897599998
 11
-0.0000000000500009
 21
-0.4986852442500008
 31
-1.781518897599998
  0
SPLINE
  5
341F
100
AcDbEntity
  8
0
  6
CONTINUOUS
100
AcDbSpline
210
0.0000000000000086
220
0.0000000000000088
230
-1.0
 70
     8
 71
     3
 72
    15
 73
    11
 74
     9
 42
0.0000001
 43
0.0000001
 44
0.0000000001
 40
0.0
 40
0.0
 40
0.0
 40
0.0
 40
0.0245898179980721
 40
0.04920989286763
 40
0.0738859365841975
 40
0.0986354583799574
 40
0.1234648139656182
 40
0.1483682144710522
 40
0.1733285287127859
 40
0.193535998880725
 40
0.193535998880725
 40
0.193535998880725
 40
0.193535998880725
 10
-0.0000000000500009
 20
-0.2496585386500021
 30
-1.781518897599998
 10
0.0082098060328877
 20
-0.2501269700500888
 30
-1.781518897599998
 10
0.0246395200647135
 20
-0.2510644092379635
 30
-1.781518897599998
 10
0.0483534397846929
 20
-0.2585579811305415
 30
-1.781518897599999
 10
0.0702468874556662
 20
-0.2702240171089661
 30
-1.781518897599999
 10
0.0894733094272873
 20
-0.2860788276135663
 30
-1.781518897599998
 10
0.1053116038140729
 20
-0.3054141802746236
 30
-1.781518897599999
 10
0.1170267666797643
 20
-0.3275317139771539
 30
-1.781518897599998
 10
0.1240635616449219
 20
-0.3500283786453847
 30
-1.781518897599999
 10
0.125328126317762
 20
-0.3650612427872737
 30
-1.781518897599999
 10
0.1258938758499966
 20
-0.3717867476500016
 30
-1.781518897599998
 11
-0.0000000000500009
 21
-0.2496585386500021
 31
-1.781518897599998
 11
0.0244707018499995
 21
-0.2520759541500004
 31
-1.781518897599998
 11
0.0480246559500017
 21
-0.2592424967500007
 31
-1.781518897599998
 11
0.0697724075499977
 21
-0.2709019321500028
 31
-1.781518897599998
 11
0.0888808640499974
 21
-0.2866310681500002
 31
-1.781518897599998
 11
0.1046041372499999
 21
-0.3058476125500027
 31
-1.781518897599998
 11
0.1163161105500023
 21
-0.3278250791500019
 31
-1.781518897599998
 11
0.123541851749998
 21
-0.3517166247499999
 31
-1.781518897599998
 11
0.1258938758499966
 21
-0.3717867476500016
 31
-1.781518897599998
  0
SPLINE
  5
3420
100
AcDbEntity
  8
0
  6
CONTINUOUS
100
AcDbSpline
210
0.0019038093967431
220
0.9999981877532484
230
0.0
 70
    24
 71
     3
 72
     8
 73
     4
 74
     2
 42
0.0000001
 43
0.0000001
 44
0.0000000001
 40
0.0
 40
0.0
 40
0.0
 40
0.0
 40
0.0004730515572881
 40
0.0004730515572881
 40
0.0004730515572881
 40
0.0004730515572881
 10
-0.0000000000500009
 20
-0.2448245007500018
 30
-1.781518897599998
 10
0.0001576835166664
 20
-0.2448248009500018
 30
-1.781518897599998
 10
0.0003153670833337
 20
-0.2448251011500017
 30
-1.781518897599998
 10
0.000473050650001
 20
-0.2448254013500017
 30
-1.781518897599998
 11
-0.0000000000500009
 21
-0.2448245007500018
 31
-1.781518897599998
 11
0.000473050650001
 21
-0.2448254013500017
 31
-1.781518897599998
  0
SPLINE
  5
3421
100
AcDbEntity
  8
0
  6
CONTINUOUS
100
AcDbSpline
210
0.0
220
0.0
230
1.0
 70
     8
 71
     3
 72
    15
 73
    11
 74
     9
 42
0.0000001
 43
0.0000001
 44
0.0000000001
 40
0.0
 40
0.0
 40
0.0
 40
0.0
 40
0.0241161753946011
 40
0.0487354142657024
 40
0.0734122057868252
 40
0.0981633546502918
 40
0.1229945974971533
 40
0.1478994608075759
 40
0.1728600382436933
 40
0.1978496405304776
 40
0.1978496405304776
 40
0.1978496405304776
 40
0.1978496405304776
 10
0.000473050650001
 20
-0.2448254013500017
 30
-1.781518897599998
 10
0.0085223455878695
 20
-0.245306872319378
 30
-1.781518897599999
 10
0.024788843775292
 20
-0.2462798577437049
 30
-1.781518897599999
 10
0.0483503591554689
 20
-0.2537221683190759
 30
-1.781518897599998
 10
0.0702448586556226
 20
-0.2653885923528649
 30
-1.781518897599999
 10
0.0894720958412205
 20
-0.2812437378479863
 30
-1.781518897599998
 10
0.1053135345968834
 20
-0.300580699801204
 30
-1.781518897599998
 10
0.1170215202851909
 20
-0.3226983362560362
 30
-1.781518897599998
 10
0.1245664580688948
 20
-0.346735106950204
 30
-1.781518897599998
 10
0.1255114709481976
 20
-0.3634117205567564
 30
-1.781518897599999
 10
0.1259842519500012
 20
-0.3717548725500022
 30
-1.781518897599998
 11
0.000473050650001
 21
-0.2448254013500017
 31
-1.781518897599998
 11
0.024467905649999
 21
-0.2472413585500019
 31
-1.781518897599998
 11
0.0480212470500021
 21
-0.2544070428500005
 31
-1.781518897599998
 11
0.0697699653499981
 21
-0.2660662577500004
 31
-1.781518897599998
 11
0.0888799427499976
 21
-0.2817961062500016
 31
-1.781518897599998
 11
0.1046044652499987
 21
-0.3010140669500023
 31
-1.781518897599998
 11
0.1163168974499982
 21
-0.3229929465500012
 31
-1.781518897599998
 11
0.1235423042500017
 21
-0.3468848682500001
 31
-1.781518897599998
 11
0.1259842519500012
 21
-0.3717548725500022
 31
-1.781518897599998
  0
SPLINE
  5
3422
100
AcDbEntity
  8
0
  6
CONTINUOUS
100
AcDbSpline
210
0.0000000000000086
220
-0.0000000000000089
230
-1.0
 70
     8
 71
     3
 72
    15
 73
    11
 74
     9
 42
0.0000001
 43
0.0000001
 44
0.0000000001
 40
0.0
 40
0.0
 40
0.0
 40
0.0
 40
0.0085208516305397
 40
0.0351569723294659
 40
0.0617394592114572
 40
0.0882433565686166
 40
0.1146570901763079
 40
0.1409850438181373
 40
0.1672461661009435
 40
0.1934707093847777
 40
0.1934707093847777
 40
0.1934707093847777
 40
0.1934707093847777
 10
-0.1258926520499983
 20
-0.3717616071500016
 30
-1.781518897599998
 10
-0.1257269704228729
 20
-0.3689256329594535
 30
-1.781518897599998
 10
-0.1250433692251389
 20
-0.3572244239175275
 30
-1.781518897599999
 10
-0.1206242811514073
 20
-0.336931599398295
 30
-1.781518897599998
 10
-0.1098099658908712
 20
-0.3124667642164247
 30
-1.781518897599998
 10
-0.0941429600209674
 20
-0.2908504837928622
 30
-1.781518897599999
 10
-0.0744014864809814
 20
-0.2729898431306486
 30
-1.781518897599998
 10
-0.0514460848889023
 20
-0.2597766573032541
 30
-1.781518897599999
 10
-0.0262847402280461
 20
-0.2512591192210585
 30
-1.781518897599998
 10
-0.0087575083398462
 20
-0.2501918175610602
 30
-1.781518897599998
 10
-0.0000000000500009
 20
-0.2496585386500021
 30
-1.781518897599998
 11
-0.1258926520499983
 21
-0.3717616071500016
 31
-1.781518897599998
 11
-0.1252879457500029
 21
-0.3632622399500027
 31
-1.781518897599998
 11
-0.119766253249999
 21
-0.3372047297500016
 31
-1.781518897599998
 11
-0.1089817552499994
 21
-0.3129081618500029
 31
-1.781518897599998
 11
-0.0934342698500004
 21
-0.2914434868500022
 31
-1.781518897599998
 11
-0.0738318455499965
 21
-0.2737395244499998
 31
-1.781518897599998
 11
-0.051048553050002
 21
-0.2605454831500031
 31
-1.781518897599998
 11
-0.0260800138499988
 21
-0.252408002350001
 31
-1.781518897599998
 11
-0.0000000000500009
 21
-0.2496585386500021
 31
-1.781518897599998
  0
SPLINE
  5
3423
100
AcDbEntity
  8
0
  6
CONTINUOUS
100
AcDbSpline
210
0.0
220
0.0
230
-1.0
 70
     8
 71
     3
 72
    15
 73
    11
 74
     9
 42
0.0000001
 43
0.0000001
 44
0.0000000001
 40
0.0
 40
0.0
 40
0.0
 40
0.0
 40
0.0262219290006109
 40
0.0524812889778813
 40
0.0788083959739683
 40
0.105222110053195
 40
0.1317266063872793
 40
0.1583103839632653
 40
0.1849481096963728
 40
0.1982946819384387
 40
0.1982946819384387
 40
0.1982946819384387
 40
0.1982946819384387
 10
-0.0000000000500009
 20
-0.4986852442500008
 30
-1.781518897599998
 10
-0.0087566368710501
 20
-0.4981520712033908
 30
-1.781518897599998
 10
-0.0262824103360432
 20
-0.4970849640224618
 30
-1.781518897599998
 10
-0.0514422189230063
 20
-0.4885687326592197
 30
-1.781518897599998
 10
-0.0743976402734415
 20
-0.4753568700278617
 30
-1.781518897599999
 10
-0.094138727346138
 20
-0.4574971076794122
 30
-1.781518897599998
 10
-0.1098109435506454
 20
-0.4358809461843622
 30
-1.781518897599999
 10
-0.1206115593682037
 20
-0.4114152820916092
 30
-1.781518897599998
 10
-0.1254233441423449
 20
-0.3895356916074292
 30
-1.781518897599999
 10
-0.1258434248637654
 20
-0.3762046964720172
 30
-1.781518897599998
 10
-0.125983645849999
 20
-0.3717548724500004
 30
-1.781518897599998
 11
-0.0000000000500009
 21
-0.4986852442500008
 31
-1.781518897599998
 11
-0.0260774428500028
 21
-0.495936328550001
 31
-1.781518897599998
 11
-0.0510445346500035
 21
-0.4878000939500025
 31
-1.781518897599998
 11
-0.0738276008500023
 21
-0.4746073513500014
 31
-1.781518897599998
 11
-0.0934307481499985
 21
-0.4569042186500019
 31
-1.781518897599998
 11
-0.1089794256499985
 21
-0.4354396675500026
 31
-1.781518897599998
 11
-0.1197652141500001
 21
-0.4111422603500002
 31
-1.781518897599998
 11
-0.125287762550002
 21
-0.3850832908500008
 31
-1.781518897599998
 11
-0.125983645849999
 21
-0.3717548724500004
 31
-1.781518897599998
  0
SPLINE
  5
3424
100
AcDbEntity
  8
0
  6
CONTINUOUS
100
AcDbSpline
210
0.0
220
0.0
230
-1.0
 70
     8
 71
     3
 72
    15
 73
    11
 74
     9
 42
0.0000001
 43
0.0000001
 44
0.0000000001
 40
0.0
 40
0.0
 40
0.0
 40
0.0
 40
0.013346572042338
 40
0.039984297656884
 40
0.0665680753242677
 40
0.0930725717980034
 40
0.1194862860926857
 40
0.1458133933119583
 40
0.1720727532582451
 40
0.1977932204688062
 40
0.1977932204688062
 40
0.1977932204688062
 40
0.1977932204688062
 10
-0.125983645849999
 20
-0.3717548724500004
 30
-1.781518897599998
 10
-0.1258434248779492
 20
-0.3673050485886762
 30
-1.781518897599998
 10
-0.125423344196079
 20
-0.3539740538412998
 30
-1.781518897599999
 10
-0.1206115587724551
 20
-0.332094459693075
 30
-1.781518897599998
 10
-0.1098109461728618
 20
-0.3076288111314533
 30
-1.781518897599999
 10
-0.0941387179951068
 20
-0.2860125918922603
 30
-1.781518897599998
 10
-0.0743976747602697
 20
-0.2681530434178847
 30
-1.781518897599998
 10
-0.0514420897169216
 20
-0.2549403860704475
 30
-1.781518897599998
 10
-0.0264429786116462
 20
-0.2464812800157262
 30
-1.781518897599998
 10
-0.009090482740731
 20
-0.245373615258147
 30
-1.781518897599998
 10
-0.0005041844500013
 20
-0.2448255246500031
 30
-1.781518897599998
 11
-0.125983645849999
 21
-0.3717548724500004
 31
-1.781518897599998
 11
-0.125287762550002
 21
-0.35842645425
 31
-1.781518897599998
 11
-0.1197652142500019
 21
-0.3323674848500024
 31
-1.781518897599998
 11
-0.1089794257500003
 21
-0.3080700775500018
 31
-1.781518897599998
 11
-0.0934307481499985
 21
-0.2866055263500007
 31
-1.781518897599998
 11
-0.0738276006499987
 21
-0.268902393550003
 31
-1.781518897599998
 11
-0.0510445342500034
 21
-0.2557096508500001
 31
-1.781518897599998
 11
-0.0260774424500028
 21
-0.2475734163499998
 31
-1.781518897599998
 11
-0.0005041844500013
 21
-0.2448255246500031
 31
-1.781518897599998
  0
SPLINE
  5
3425
100
AcDbEntity
  8
0
  6
CONTINUOUS
100
AcDbSpline
210
-0.002030800417203
220
0.9999979379227069
230
0.0
 70
    24
 71
     3
 72
     8
 73
     4
 74
     2
 42
0.0000001
 43
0.0000001
 44
0.0000000001
 40
0.0
 40
0.0
 40
0.0
 40
0.0
 40
0.0005041854396698
 40
0.0005041854396698
 40
0.0005041854396698
 40
0.0005041854396698
 10
-0.0005041844500013
 20
-0.2448255246500031
 30
-1.781518897599998
 10
-0.0003361229833345
 20
-0.2448251833500026
 30
-1.781518897599998
 10
-0.0001680615166677
 20
-0.2448248420500022
 30
-1.781518897599998
 10
-0.0000000000500009
 20
-0.2448245007500018
 30
-1.781518897599998
 11
-0.0005041844500013
 21
-0.2448255246500031
 31
-1.781518897599998
 11
-0.0000000000500009
 21
-0.2448245007500018
 31
-1.781518897599998
  0
3DSOLID
  5
3426
100
AcDbEntity
  8
0
100
AcDbModelerGeometry
 70
     1
  1
noi nlhk n o        
  1
=0;& {n {m {rn {rn |
  1
-:9@)+r3(;r>++-6= {rn {rn {rn {o {l {k |
  1
3*2/ {j {rn {i {o |
  1
-:961:2:1+ {rn o o o o oqoonoooooookhkfhkjnl lo o k n o o |
  1
):-+:'@+:2/3>+: {rn l o n g |
  1
-:9@)+r3(;r>++-6= {rn {rn {rn {m {l {k |
  1
,7:33 {h {rn {rn {g {m |
  1
-:9@)+r3(;r>++-6= {rn {rn {rn {i {l {k |
  1
9><: {f {no {nn {i {rn {nm 90-(>-; ,6183: |
  1
92:,7r3(;r>++-6= {rn {nl {rn {g |
  1
9><: {nk {nj {ni {i {rn {nh -:):-,:; ,6183: |
  1
300/ {rn {ng {nf {g |
  1
/3>1:r,*-9><: {rn roqnfmfnllgjgkfffgoi roqnfmimgknnkkfffgjk rmqmglkiffffkfmmkfm:rooj lqkkjojmkolohmifol:roni mqkkfmnmhohikkhjkj:roni n n o rlqkkjojmkolohmifol:roni o V V V V |
  1
-:9@)+r3(;r>++-6= {rn {rn {f {g {l {k |
  1
92:,7r3(;r>++-6= {rn {mo {rn {no |
  1
9><: {mn {mm {ml {i {rn {mk 90-(>-; ,6183: |
  1
300/ {rn {rn {mj {no |
  1
/3>1:r,*-9><: {rn roqnfmfnllgjgkfffgoi roqonjimmmljonhijjjgk roqhmofjjhgooghfomhl n o rlqkkjojmkolohmifol:roni rlqkkjojmkolohmifol:roni rmqkkfmnmhohikkhjkj:roni rn o V V V V |
  1
300/ {rn {mi {mh {g |
  1
<0:;8: {rn {mg {mf {lo {ln n {nn {rn |
  1
-:9@)+r3(;r>++-6= {rn {rn {nk {no {l {k |
  1
92:,7r3(;r>++-6= {rn {lm {rn {nj |
  1
9><: {ll {lk {lj {i {rn {li 90-(>-; ,6183: |
  1
300/ {rn {rn {lh {nj |
  1
/3>1:r,*-9><: {rn roqnfmfnllgjgkfffgoi roqjgklmjlnmnmigfnmn oqnifkofofmhmikmkig nqkjjfkmoilggfjmkm:roni oqfoilohhgimijkgkli oqkmmingmillfkkifjn n o rlqkkjojmkolohmifol:roni o V V V V |
  1
<0:;8: {rn {lg {lf {ko {kn n {ni {rn |
  1
300/ {rn {rn {km {g |
  1
<0:;8: {rn {kl {kk {kj {ki n {ng {rn |
  1
<0:;8: {rn {kh {nf {kg {kf n {nn {rn |
  1
<0:;8: {rn {nf {kh {jo {jn o {nn {rn |
  1
<0:;8: {rn {jm {jl {nf {ln o {jk {rn |
  1
:;8: {jj {ji {jh {lo {jg o |
  1
-:9@)+r3(;r>++-6= {rn {rn {mn {nj {l {k |
  1
92:,7r3(;r>++-6= {rn {jf {rn {mm |
  1
9><: {io {in {im {i {rn {il 90-(>-; ,6183: |
  1
300/ {rn {rn {ik {mm |
  1
/3>1:r,*-9><: {rn roqnfmfnllgjgkfffgoi roqjikoijlmgmkfffhmm oqnmjfinknhloooolij rgqklhiiinmknohhlmn:rolm n rmqkkfmnmhohikkhjkj:roni n o rlqkkjojmkolohmifol:roni o V V V V |
  1
<0:;8: {rn {ij {ii {ih {ig o {ml {rn |
  1
<0:;8: {rn {if {mj {ho {hn n {ni {rn |
  1
<0:;8: {rn {mj {hm {hl {hk n {ni {rn |
  1
<0:;8: {rn {hj {hi {mj {kn o {mi {rn |
  1
:;8: {hh {hg {hf {mj {go o |
  1
<0:;8: {rn {hi {hj {gn {gm o {mi {rn |
  1
<0:;8: {rn {gl {mh {gk {gj n {ng {rn |
  1
<0:;8: {rn {mh {gl {gi {gh o {ng {rn |
  1
<0:;8: {rn {gg {gf {mh {ki o {fo {rn |
  1
:;8: {fn {fm {fl {kj {fk o |
  1
<0:;8: {rn {mf {mg {fj {fi o {nn {rn |
  1
<0:;8: {rn {fh {fg {mg {kf o {ff {rn |
  1
:;8: {noo {non {ji {kg {nom o |
  1
<0:;8: {rn {nol {nok {mf {jn n {noj {rn |
  1
:;8: {noi {noh {jh {jo {nog o |
  1
<0:;8: {rn {nof {lo {nok {nno o {jk {rn |
  1
<0:;8: {rn {lo {nof {fh {nnn n {jk {rn |
  1
300/ {rn {rn {jm {nnm |
  1
/+36,+r3(;r>++-6= {rn {rn {rn {ln |
  1
):-+:' {rn {kf {nnl |
  1
):-+:' {rn {ln {nnk |
  1
,+->687+r<*-): {rn roqnkjikffffffffffgk roqoggjgmihhnjooooihh rmqmglkiooooomklmgg:rooj n o rlqkkjojmkolohmifol:roni V V |
  1
-:9@)+r3(;r>++-6= {rn {rn {ll {mm {l {k |
  1
92:,7r3(;r>++-6= {rn {nnj {rn {lk |
  1
9><: {nni {nnh {nng {i {rn {nnf 90-(>-; ,6183: |
  1
300/ {rn {rn {nmo {lk |
  1
/3>1:r,*-9><: {rn roqnfmfnllgjgkfffgoi roqjikoijlmgmkfffhmm oqnninnggfhioooomkf rlqlmhiijoghgkknfnj:roni roqmjggnfokikojihnfk roqfijfmjgmjflfgfooh rn o lqkkjojmkolohmifol:roni o V V V V |
  1
<0:;8: {rn {nmn {nmm {nml {nmk o {lj {rn |
  1
<0:;8: {rn {nmj {lh {nmm {nmi n {ml {rn |
  1
<0:;8: {rn {lh {nmj {nmh {nmg o {ml {rn |
  1
<0:;8: {rn {nmf {nml {lh {ig n {nlo {rn |
  1
:;8: {nln {nlm {nll {lh {nlk o |
  1
<0:;8: {rn {nlj {lg {nli {nlh n {ni {rn |
  1
<0:;8: {rn {nlg {nlf {lg {hn o {nko {rn |
  1
:;8: {nkn {nkm {hg {lg {nkl o |
  1
<0:;8: {rn {lf {nkk {nkj {nki n {ni {rn |
  1
<0:;8: {rn {nkh {nkg {lf {hk o {nkf {rn |
  1
:;8: {njo {hf {njn {lf {njm o |
  1
<0:;8: {rn {km {ko {nkg {njl o {mi {rn |
  1
<0:;8: {rn {ko {km {nlg {njk n {mi {rn |
  1
/+36,+r3(;r>++-6= {rn {rn {rn {kn |
  1
):-+:' {rn {hn {njj |
  1
):-+:' {rn {kn {nji |
  1
,+->687+r<*-): {rn roqnfmfnllgjgkfffgoi oqnfmimgknnjjooomn rmqmglkiffffkfmmkfm:rooj gqklhiiinmknohhlmn:rolm rn mqkkfmnmhohikkhjkj:roni V V |
  1
<0:;8: {rn {njh {njg {km {gm n {nlo {rn |
  1
:;8: {njf {nio {nin {km {nim o |
  1
<0:;8: {rn {kk {kl {nil {nik o {ng {rn |
  1
<0:;8: {rn {nij {nii {kl {gj o {nih {rn |
  1
:;8: {nig {nif {fm {gk {nho o |
  1
<0:;8: {rn {nhn {nhm {kk {gh n {nhl {rn |
  1
:;8: {nhk {nhj {fl {gi {nhi o |
  1
<0:;8: {rn {nhh {kj {nhm {nhg o {fo {rn |
  1
<0:;8: {rn {kj {nhh {nij {nhf n {fo {rn |
  1
300/ {rn {rn {gg {ngo |
  1
/+36,+r3(;r>++-6= {rn {rn {rn {ki |
  1
):-+:' {rn {gj {ngn |
  1
):-+:' {rn {ki {ngm |
  1
,+->687+r<*-): {rn oqogmijhghlffnolljmi roqoggjgmihhnjooooihh rmqmglkiooooomklmgg:rooj n o rlqkkjojmkolohmifol:roni V V |
  1
<0:;8: {rn {ngl {ngk {kh {fi n {ngj {rn |
  1
:;8: {ngi {non {noh {fj {ngh o |
  1
<0:;8: {rn {ngg {kg {jl {nnn o {ff {rn |
  1
<0:;8: {rn {kg {ngf {ngl {nfo o {ff {rn |
  1
300/ {rn {rn {nfn {nfm |
  1
/+36,+r3(;r>++-6= {rn {rn {rn {kf |
  1
):-+:' {rn {nfo {nfl |
  1
,+->687+r<*-): {rn roqnkjikffffffffffgk oqoggjgmihhnkfffgfon rmqmglkiooooomklmgg:rooj o rn o V V |
  1
<0:;8: {rn {nfk {jo {ngk {nfj n {noj {rn |
  1
<0:;8: {rn {jo {nfi {jm {nno n {noj {rn |
  1
300/ {rn {rn {nfk {nfh |
  1
/+36,+r3(;r>++-6= {rn {rn {rn {jn |
  1
):-+:' {rn {fi {nfg |
  1
,+->687+r<*-): {rn roqogmijhghlffnolljmi oqoggjgmihhnkfffgfon rmqmglkiooooomklmgg:rooj o rn o V V |
  1
<0:;8: {rn {jl {jm {nff {moo n {jk {rn |
  1
:;8: {mon {jh {mom {jm {mol o |
  1
:;8: {mok {ji {moj {fh {moi o |
  1
9><: {moh {mog {jk {i {rn {mof 90-(>-; ,6183: |
  1
/061+ {rn roqnkjikffffffffffgk roqoggjgmihhnjooooihh rmqmglkiooooomklmgg:rooj |
  1
/061+ {rn roqogmijhghlffnolljmi roqoggjgmihhnjooooihh rmqmglkiooooomklmgg:rooj |
  1
-:9@)+r3(;r>++-6= {rn {rn {io {lk {l {k |
  1
92:,7r3(;r>++-6= {rn {mno {rn {in |
  1
9><: {mnn {mnm {mnl {i {rn {mnk 90-(>-; ,6183: |
  1
300/ {rn {rn {mnj {in |
  1
/3>1:r,*-9><: {rn roqnfmfnllgjgkfffgoi roqjfkkggnggfkfffhnn oqnmkmhoihgiooookhk rlqhhmfnnnngkimilhi:rolo n rnqofjnihffohfihjnn:ronk n o rlqkkjojmkolohmifol:roni o V V V V |
  1
<0:;8: {rn {mni {mnh {mng {mnf o {im {rn |
  1
<0:;8: {rn {mmo {ik {mnh {mmn n {lj {rn |
  1
<0:;8: {rn {ik {mmo {ij {nmi o {lj {rn |
  1
<0:;8: {rn {ih {mng {ik {nmk n {nlo {rn |
  1
:;8: {mmm {nll {mml {ik {mmk o |
  1
<0:;8: {rn {ii {ij {mmj {mmi o {ml {rn |
  1
:;8: {mmh {mmg {nll {nmm {mmf o |
  1
<0:;8: {rn {mlo {mln {ii {nmg n {mlm {rn |
  1
:;8: {mll {mlk {nlm {ii {mlj o |
  1
<0:;8: {rn {mli {ih {mln {mlh n {nlo {rn |
  1
300/ {rn {rn {gn {mlg |
  1
/+36,+r3(;r>++-6= {rn {rn {rn {ig |
  1
):-+:' {rn {nmg {mlf |
  1
):-+:' {rn {nmi {mko |
  1
,+->687+r<*-): {rn oqnfmfnllgjgkfffgoi roqjikoijlmgmkfffhmm oqnmjfinknhlooooli rlqnmmmhhgniffhlfhn:roni oqkmmingmillfkkifjn roqfoilohhgimijkgkli V V |
  1
<0:;8: {rn {mkn {if {mkm {mkl n {ni {rn |
  1
<0:;8: {rn {mkk {mkj {if {nlh o {mki {rn |
  1
:;8: {mkh {mkg {nkm {if {mkf o |
  1
<0:;8: {rn {mjo {ho {hi {njk o {nko {rn |
  1
<0:;8: {rn {ho {mjo {mkk {mjn n {nko {rn |
  1
300/ {rn {rn {mjo {mjm |
  1
/+36,+r3(;r>++-6= {rn {rn {rn {hn |
  1
):-+:' {rn {nlh {mjl |
  1
,+->687+r<*-): {rn roqnfmfnllgjgkfffgoi oqnfmimgknnjjooomn roqojhlfkkmlnffffjkfm lqkkjojmkolohmifol:roni mqkkfmnmhohikkhjkj:roni n V V |
  1
<0:;8: {rn {hm {mjk {mjj {mji n {ni {rn |
  1
<0:;8: {rn {mjh {mjg {hm {nki o {mjf {rn |
  1
:;8: {mio {njn {min {hm {mim o |
  1
<0:;8: {rn {mil {hl {mjg {mik o {nkf {rn |
  1
<0:;8: {rn {hl {mil {hj {njl n {nkf {rn |
  1
300/ {rn {rn {mil {mij |
  1
/+36,+r3(;r>++-6= {rn {rn {rn {hk |
  1
):-+:' {rn {hk {mii |
  1
,+->687+r<*-): {rn roqnfmfnllgjgkfffgoi roqnfmimgknnkkfffgjk rmqmglkiffffkfmmkfm:rooj rlqkkjojmkolohmifol:roni rmqkkfmnmhohikkhjkj:roni rn V V |
  1
:;8: {mih {hf {nio {hj {mig o |
  1
:;8: {mif {hg {nin {nlg {mho o |
  1
/061+ {rn roqnfmfnllgjgkfffgoi oqnfmimgknnjjooomn rmqmglkiffffkfmmkfm:rooj |
  1
/061+ {rn roqnfmfnllgjgkfffgoi roqnfmimgknnkkfffgjk rmqmglkiffffkfmmkfm:rooj |
  1
<0:;8: {rn {mhn {gn {mil {mhm n {nlo {rn |
  1
<0:;8: {rn {gn {mhl {mjo {mhk n {nlo {rn |
  1
/+36,+r3(;r>++-6= {rn {rn {rn {gm |
  1
):-+:' {rn {njl {mhj |
  1
):-+:' {rn {njk {mhi |
  1
,+->687+r<*-): {rn oqnfmfnllgjgkfffgoi oqnfmimgknnjjooomn rmqmglkiffffkfmmkfm:rooj rgqklhiiinmknohhlmn:rolm n rmqkkfmnmhohikkhjkj:roni V V |
  1
<0:;8: {rn {mhh {mhg {gl {nik n {mhf {rn |
  1
:;8: {mgo {nif {nhj {nil {mgn o |
  1
<0:;8: {rn {mgm {gk {gf {nhf o {nih {rn |
  1
<0:;8: {rn {gk {mgl {mhh {mgk o {nih {rn |
  1
300/ {rn {rn {mgj {mgi |
  1
/+36,+r3(;r>++-6= {rn {rn {rn {gj |
  1
):-+:' {rn {mgk {mgh |
  1
,+->687+r<*-): {rn oqogmijhghlffnolljmi oqoggjgmihhnkfffgfon rmqmglkiooooomklmgg:rooj o rn o V V |
  1
<0:;8: {rn {mgg {gi {mhg {mgf n {nhl {rn |
  1
<0:;8: {rn {gi {mfo {gg {nhg n {nhl {rn |
  1
300/ {rn {rn {mgg {mfn |
  1
/+36,+r3(;r>++-6= {rn {rn {rn {gh |
  1
):-+:' {rn {nik {mfm |
  1
,+->687+r<*-): {rn oqnkjikffffffffffgk oqoggjgmihhnkfffgfon rmqmglkiooooomklmgg:rooj o rn o V V |
  1
<0:;8: {rn {gf {gg {mfl {mfk n {fo {rn |
  1
:;8: {mfj {fl {mfi {gg {mfh o |
  1
:;8: {mfg {fm {mff {nij {loo o |
  1
9><: {lon {lom {fo {i {rn {lol 90-(>-; ,6183: |
  1
/061+ {rn oqogmijhghlffnolljmi roqoggjgmihhnjooooihh rmqmglkiooooomklmgg:rooj |
  1
/061+ {rn oqnkjikffffffffffgk roqoggjgmihhnjooooihh rmqmglkiooooomklmgg:rooj |
  1
<0:;8: {rn {lok {fj {fg {nfo n {ngj {rn |
  1
<0:;8: {rn {fj {lok {nol {nfj o {ngj {rn |
  1
300/ {rn {rn {ngk {loj |
  1
/+36,+r3(;r>++-6= {rn {rn {rn {fi |
  1
,+->687+r<*-): {rn roqnkjikffffffffffgk oqoggjgmihhnkfffgfon rmqmglkiooooomklmgg:rooj n o rlqkkjojmkolohmifol:roni V V |
  1
<0:;8: {rn {nfn {fh {loi {loh o {ff {rn |
  1
<0:;8: {rn {fg {nfn {log {lof o {ff {rn |
  1
:;8: {lno {lnn {non {fg {lnm o |
  1
<0:;8: {rn {ngf {ngg {lnl {lnk o {ff {rn |
  1
9><: {lnj {rn {ff {i {rn {lni -:):-,:; ,6183: |
  1
/061+ {rn roqnkjikffffffffffgk oqoggjgmihhnkfffgfon rmqmglkiooooomklmgg:rooj |
  1
<0:;8: {rn {lnh {nol {lng {lnf n {noj {rn |
  1
:;8: {lmo {lmn {noh {ngk {lmm o |
  1
<0:;8: {rn {nok {lnh {lml {lmk n {noj {rn |
  1
9><: {lmj {nfm {noj {i {rn {lmi 90-(>-; ,6183: |
  1
/061+ {rn roqogmijhghlffnolljmi oqoggjgmihhnkfffgfon rmqmglkiooooomklmgg:rooj |
  1
<0:;8: {rn {lml {loi {nof {moo o {lmh {rn |
  1
:;8: {lmg {moj {mom {nff {lmf o |
  1
/+36,+r3(;r>++-6= {rn {rn {rn {nno |
  1
):-+:' {rn {moo {llo |
  1
,+->687+r<*-): {rn roqogmijhghlffnolljmi roqoggjgmihhnjooooihh rmqmglkiooooomklmgg:rooj lqkkjojmkolohmifol:roni o n V V |
  1
/+36,+r3(;r>++-6= {rn {rn {rn {nnn |
  1
):-+:' {rn {nnn {lln |
  1
,+->687+r<*-): {rn roqnkjikffffffffffgk roqoggjgmihhnjooooihh rmqmglkiooooomklmgg:rooj lqkkjojmkolohmifol:roni o n V V |
  1
92:,7r3(;r>++-6= {rn {llm {rn {nnm |
  1
9><: {lll {llk {lmh {i {rn {llj 90-(>-; ,6183: |
  1
/3>1:r,*-9><: {rn roqnkjikffffffffffgk roqoggjgmihhnjooooihh rmqmglkiooooomklmgg:rooj o rn o rn o lqkkjojmkolohmifol:roni o V V V V |
  1
-:9@)+r3(;r>++-6= {rn {rn {nni {in {l {k |
  1
92:,7r3(;r>++-6= {rn {lli {rn {nnh |
  1
9><: {llh {llg {llf {i {rn {lko 90-(>-; ,6183: |
  1
300/ {rn {rn {lkn {nnh |
  1
<01:r,*-9><: {rn roqnfmfnllgjgkfffgoi roqjjjnngnnomkfffhg oqoknlnjhkgoooookfgn n o rlqkkjojmkolohmifol:roni rfqjfoimfjhfgohoonj:rong roqomhglggkfimkinghgl roqomhglggkfimkingnkg n V V o rn o V V V V |
  1
<0:;8: {rn {lkm {lkl {lkk {lkj o {nng {rn |
  1
<0:;8: {rn {lki {nmo {lkl {lkh n {im {rn |
  1
<0:;8: {rn {nmo {lki {nmn {mmn o {im {rn |
  1
<0:;8: {rn {nml {lkk {nmo {mnf n {nlo {rn |
  1
:;8: {lkg {mml {lkf {nmo {ljo o |
  1
<0:;8: {rn {nmm {nmn {ljn {ljm o {lj {rn |
  1
:;8: {ljl {ljk {mml {mnh {ljj o |
  1
/+36,+r3(;r>++-6= {rn {rn {rn {nmk |
  1
):-+:' {rn {mmn {lji |
  1
,+->687+r<*-): {rn oqnfmfnllgjgkfffgoi roqjikoijlmgmkfffhmm oqnninnggfhioooomkk rlqkkjojmkolohmifol:roni rmqkkfmnmhohikkhjkj:roni rn V V |
  1
<0:;8: {rn {ljn {ljh {nmj {mmi n {ni {rn |
  1
:;8: {ljg {mmg {mlk {mmj {ljf o |
  1
/+36,+r3(;r>++-6= {rn {rn {rn {nmi |
  1
):-+:' {rn {ljm {lio |
  1
,+->687+r<*-): {rn roqnfmfnllgjgkfffgoi roqjikoijlmgmkfffhmm oqnmjfinknhloooolij n o rlqkkjojmkolohmifol:roni V V |
  1
<0:;8: {rn {lin {nmh {ljh {lim o {mlm {rn |
  1
<0:;8: {rn {nmh {lin {nmf {mlh o {mlm {rn |
  1
300/ {rn {rn {mln {lil |
  1
/+36,+r3(;r>++-6= {rn {rn {rn {nmg |
  1
):-+:' {rn {lim {lik |
  1
,+->687+r<*-): {rn roqnfmfnllgjgkfffgoi roqjgklmjlnmnmigfnmn oqnifkofofmhmikmkig n o rlqkkjojmkolohmifol:roni V V |
  1
<0:;8: {rn {lij {nmf {lii {lih n {nlo {rn |
  1
:;8: {lig {lif {nlm {mln {lho o |
  1
9><: {lhn {lhm {nlo {i {rn {lhl 90-(>-; ,6183: |
  1
/061+ {rn oqnfmfnllgjgkfffgoi roqjgklmjlnmnmigfnmn oqnifkofofmhmikmkil |
  1
/061+ {rn oqnfmfnllgjgkfffgoi roqjikoijlmgmkfffhmm oqnmjfinknhlooooli |
  1
<0:;8: {rn {lhk {nlj {lhj {lhi n {ni {rn |
  1
<0:;8: {rn {lhh {lhg {nlj {mkl o {lhf {rn |
  1
:;8: {lgo {lgn {mkg {nlj {lgm o |
  1
<0:;8: {rn {lgl {nli {nlf {mjn o {mki {rn |
  1
<0:;8: {rn {nli {lgl {lhh {lgk n {mki {rn |
  1
300/ {rn {rn {lgl {lgj |
  1
/+36,+r3(;r>++-6= {rn {rn {rn {nlh |
  1
):-+:' {rn {mkl {lgi |
  1
,+->687+r<*-): {rn roqnfmfnllgjgkfffgoi oqmjkmmnfgmmjooolli roqojhlfkkmlnffffjkfm gqklhiiinmknohhlmn:rolm rn mqkkfmnmhohikkhjkj:roni V V |
  1
<0:;8: {rn {nlf {nlg {njg {mhk o {nko {rn |
  1
:;8: {lgh {nkm {lgg {mkk {lgf o |
  1
9><: {lfo {lgj {nko {i {rn {lfn 90-(>-; ,6183: |
  1
/061+ {rn roqnfmfnllgjgkfffgoi oqnfmimgknnjjooomn roqojhlfkkmlnffffjkfm |
  1
<0:;8: {rn {nkk {lfm {lfl {lfk n {ni {rn |
  1
<0:;8: {rn {lfj {lfi {nkk {mji o {lfh {rn |
  1
:;8: {lfg {min {lff {nkk {koo o |
  1
<0:;8: {rn {kon {nkj {lfi {kom o {mjf {rn |
  1
<0:;8: {rn {nkj {kon {nkh {mik n {mjf {rn |
  1
300/ {rn {rn {kon {kol |
  1
/+36,+r3(;r>++-6= {rn {rn {rn {nki |
  1
):-+:' {rn {nki {kok |
  1
,+->687+r<*-): {rn roqnfmfnllgjgkfffgoi roqnfmimgknnkkfffgjk roqojhlfkkmlnffffjkfm gqklhiiinmknohhlmn:rolm rn mqkkfmnmhohikkhjkj:roni V V |
  1
<0:;8: {rn {nkg {nkh {njh {mhm o {nkf {rn |
  1
:;8: {koj {njn {koi {nkh {koh o |
  1
9><: {kog {mjm {nkf {i {rn {kof 90-(>-; ,6183: |
  1
/061+ {rn roqnfmfnllgjgkfffgoi roqnfmimgknnkkfffgjk roqojhlfkkmlnffffjkfm |
  1
/+36,+r3(;r>++-6= {rn {rn {rn {njl |
  1
,+->687+r<*-): {rn roqnfmfnllgjgkfffgoi roqnfmimgknnkkfffgjk rmqmglkiffffkfmmkfm:rooj n o rlqkkjojmkolohmifol:roni V V |
  1
/+36,+r3(;r>++-6= {rn {rn {rn {njk |
  1
,+->687+r<*-): {rn roqnfmfnllgjgkfffgoi oqnfmimgknnjjooomn rmqmglkiffffkfmmkfm:rooj n o rlqkkjojmkolohmifol:roni V V |
  1
<0:;8: {rn {kno {njh {kon {knn n {nlo {rn |
  1
:;8: {knm {koi {nio {mil {knl o |
  1
<0:;8: {rn {njg {knk {lgl {knj n {nlo {rn |
  1
:;8: {kni {nin {lgg {mjo {knh o |
  1
/061+ {rn oqnfmfnllgjgkfffgoi roqnfmimgknnkkfffgjk rmqmglkiffffkfmmkfm:rooj |
  1
/061+ {rn oqnfmfnllgjgkfffgoi oqnfmimgknnjjooomn rmqmglkiffffkfmmkfm:rooj |
  1
<0:;8: {rn {kng {nil {nii {mgk n {mhf {rn |
  1
<0:;8: {rn {nil {kng {nhn {mgf o {mhf {rn |
  1
300/ {rn {rn {mhg {knf |
  1
/+36,+r3(;r>++-6= {rn {rn {rn {nik |
  1
,+->687+r<*-): {rn oqogmijhghlffnolljmi oqoggjgmihhnkfffgfon rmqmglkiooooomklmgg:rooj n o rlqkkjojmkolohmifol:roni V V |
  1
<0:;8: {rn {mgj {nij {kmo {kmn o {nih {rn |
  1
<0:;8: {rn {nii {mgj {kmm {kml o {nih {rn |
  1
:;8: {kmk {kmj {nif {nii {kmi o |
  1
<0:;8: {rn {mgl {mgm {kmh {kmg o {nih {rn |
  1
9><: {kmf {klo {nih {i {rn {kln -:):-,:; ,6183: |
  1
/061+ {rn oqogmijhghlffnolljmi oqoggjgmihhnkfffgfon rmqmglkiooooomklmgg:rooj |
  1
<0:;8: {rn {klm {nhn {kll {klk n {nhl {rn |
  1
:;8: {klj {kli {nhj {mhg {klh o |
  1
<0:;8: {rn {nhm {klm {klg {klf n {nhl {rn |
  1
9><: {kko {mgi {nhl {i {rn {kkn 90-(>-; ,6183: |
  1
/061+ {rn oqnkjikffffffffffgk oqoggjgmihhnkfffgfon rmqmglkiooooomklmgg:rooj |
  1
<0:;8: {rn {klg {kmo {nhh {mfk o {kkm {rn |
  1
:;8: {kkl {mff {mfi {mfl {kkk o |
  1
/+36,+r3(;r>++-6= {rn {rn {rn {nhg |
  1
):-+:' {rn {mfk {kkj |
  1
,+->687+r<*-): {rn oqnkjikffffffffffgk roqoggjgmihhnjooooihh rmqmglkiooooomklmgg:rooj lqkkjojmkolohmifol:roni o n V V |
  1
/+36,+r3(;r>++-6= {rn {rn {rn {nhf |
  1
):-+:' {rn {nhf {kki |
  1
,+->687+r<*-): {rn oqogmijhghlffnolljmi roqoggjgmihhnjooooihh rmqmglkiooooomklmgg:rooj lqkkjojmkolohmifol:roni o n V V |
  1
92:,7r3(;r>++-6= {rn {kkh {rn {ngo |
  1
9><: {kkg {kkf {kkm {i {rn {kjo 90-(>-; ,6183: |
  1
/3>1:r,*-9><: {rn oqogmijhghlffnolljmi roqoggjgmihhnjooooihh rmqmglkiooooomklmgg:rooj o rn o rn o lqkkjojmkolohmifol:roni o V V V V |
  1
<0:;8: {rn {ngk {ngl {kjn {kjm o {ngj {rn |
  1
9><: {kjl {nnm {ngj {i {rn {kjk 90-(>-; ,6183: |
  1
<0:;8: {rn {nff {kjj {ngg {loh n {lmh {rn |
  1
:;8: {kji {moj {kjh {ngg {kjg o |
  1
<0:;8: {rn {kjf {kjn {ngf {lof n {kio {rn |
  1
:;8: {kin {kim {lnn {ngf {kil o |
  1
/+36,+r3(;r>++-6= {rn {rn {rn {nfo |
  1
):-+:' {rn {lof {kik |
  1
,+->687+r<*-): {rn roqnkjikffffffffffgk oqoggjgmihhnkfffgfon oqokfngfhilgoooooml rlqkkjojmkolohmifol:roni o rn V V |
  1
<0:;8: {rn {kij {kii {nfn {lnk n {kih {rn |
  1
:;8: {kig {kjh {kim {nfn {kif o |
  1
92:,7r3(;r>++-6= {rn {kho {rn {nfm |
  1
/3>1:r,*-9><: {rn roqnkjikffffffffffgk rnqhhiljiglfkoomjoj:ronj oqohoflgjjhlohonlgni n o rlqkkjojmkolohmifol:roni rlqkkjojmkolohmifol:roni o rn o V V V V |
  1
<0:;8: {rn {nfi {nfk {khn {khm n {noj {rn |
  1
<0:;8: {rn {kjn {kjf {nfk {lnf o {kio {rn |
  1
:;8: {khl {khk {lmn {lng {khj o |
  1
/+36,+r3(;r>++-6= {rn {rn {rn {nfj |
  1
):-+:' {rn {kjm {khi |
  1
,+->687+r<*-): {rn roqogmijhghlffnolljmi oqoggjgmihhnkfffgfon oqokfngfhilgoooooml rlqkkjojmkolohmifol:roni o rn V V |
  1
<0:;8: {rn {kjj {nff {nfi {lmk o {lmh {rn |
  1
:;8: {khh {mom {khg {lml {khf o |
  1
92:,7r3(;r>++-6= {rn {kgo {rn {nfh |
  1
/3>1:r,*-9><: {rn roqogmijhghlffnolljmi rnqhhiljiglfkoomjoj:ronj oqohoflgjjhlohonlgni n o rlqkkjojmkolohmifol:roni rlqkkjojmkolohmifol:roni o rn o V V V V |
  1
300/ {rn {rn {lml {mog |
  1
/+36,+r3(;r>++-6= {rn {rn {rn {moo |
  1
,+->687+r<*-): {rn roqnkjikffffffffffgk roqoggjgmihhnjooooihh oqokfngfhilgoooooml n o rlqkkjojmkolohmifol:roni V V |
  1
/061+ {rn roqogmijhghlffnolljmi roqoggjgmihhnjooooihh oqokfngfhilgoooooml |
  1
/061+ {rn roqnkjikffffffffffgk roqoggjgmihhnjooooihh oqokfngfhilgoooooml |
  1
-:9@)+r3(;r>++-6= {rn {rn {moh {nnm {l {k |
  1
92:,7r3(;r>++-6= {rn {kgn {rn {mog |
  1
9><: {kgm {nfh {kih {i {rn {kgl 90-(>-; ,6183: |
  1
/3>1:r,*-9><: {rn roqnkjikffffffffffgk roqoggjgmihhnjooooihh oqokfngfhilgoooooml nqlmjomonjkikjinmf:roni roqfmlohifmlnmlniili oqlgkinjlgkjokkoogi rn o lqkkjojmkolohmifol:roni o V V V V |
  1
-:9@)+r3(;r>++-6= {rn {rn {mnn {nnh {l {k |
  1
92:,7r3(;r>++-6= {rn {kgk {rn {mnm |
  1
9><: {kgj {kgi {kgh {i {rn {kgg 90-(>-; ,6183: |
  1
300/ {rn {rn {kgf {mnm |
  1
/3>1:r,*-9><: {rn roqnfmfnllgjgkfffgoi roqjjjnngnnomkfffhg oqoonfkjiifloooomnnhj lqkkjojmkolohmifol:roni mqkkfmnmhohikkhjkj:roni n n o rlqkkjojmkolohmifol:roni o V V V V |
  1
<0:;8: {rn {kfo {kfn {kfm {kfl o {mnl {rn |
  1
<0:;8: {rn {kfk {mnj {kfn {kfj n {nng {rn |
  1
<0:;8: {rn {mnj {kfk {mni {lkh o {nng {rn |
  1
<0:;8: {rn {mng {kfm {mnj {lkj n {nlo {rn |
  1
:;8: {kfi {lkf {kfh {mnj {kfg o |
  1
<0:;8: {rn {mnh {mni {kff {joo o {im {rn |
  1
:;8: {jon {jom {lkf {lkl {jol o |
  1
/+36,+r3(;r>++-6= {rn {rn {rn {mnf |
  1
):-+:' {rn {lkh {jok |
  1
,+->687+r<*-): {rn oqnfmfnllgjgkfffgoi roqjfkkggnggfkfffhnn oqnmkmhoihgiooookig gqfnikjnhhhgogkmog:ronh roqfijfmjgmjflfggffi oqmjggnfokikojihngg V V |
  1
<0:;8: {rn {kff {mmj {mmo {ljm n {ni {rn |
  1
:;8: {joj {ljk {mmg {ljn {joi o |
  1
/+36,+r3(;r>++-6= {rn {rn {rn {mmn |
  1
):-+:' {rn {joo {joh |
  1
,+->687+r<*-): {rn roqnfmfnllgjgkfffgoi roqjikoijlmgmkfffhmm oqnninnggfhioooomkf n o rlqkkjojmkolohmifol:roni V V |
  1
/061+ {rn oqnfmfnllgjgkfffgoi roqjikoijlmgmkfffhmm oqnninnggfhioooomkk |
  1
<0:;8: {rn {mmj {jog {mlo {lim n {ni {rn |
  1
/+36,+r3(;r>++-6= {rn {rn {rn {mmi |
  1
,+->687+r<*-): {rn roqnfmfnllgjgkfffgoi roqjikoijlmgmkfffhmm oqnmjfinknhloooolij lqnmmmhhgniffhlfhn:roni roqkmmingmillfkkifjn oqfoilohhgimijkgkli V V |
  1
/061+ {rn roqnfmfnllgjgkfffgoi roqjikoijlmgmkfffhmm oqnmjfinknhloooolij |
  1
<0:;8: {rn {mln {mlo {jof {jno o {mlm {rn |
  1
:;8: {jnn {mlk {jnm {ljh {jnl o |
  1
9><: {jnk {mlg {mlm {i {rn {jnj 90-(>-; ,6183: |
  1
/061+ {rn roqnfmfnllgjgkfffgoi roqjgklmjlnmnmigfnmn oqnifkofofmhmikmkig |
  1
<0:;8: {rn {jni {mli {jnh {jng n {nlo {rn |
  1
<0:;8: {rn {jof {jnf {mli {lih o {jmo {rn |
  1
:;8: {jmn {jmm {lif {lii {jml o |
  1
/+36,+r3(;r>++-6= {rn {rn {rn {mlh |
  1
):-+:' {rn {jno {jmk |
  1
:336/,:r<*-): {rn oqnfmfnllgjgkfffgoi roqiojhlknjhjmkimof oqnjfkmjfgkmokjofjk rn o lqkkjojmkolohmifol:roni hqmngkmmlighffgkkm:rong oqonofohkkhjfglnhnhk oqomofjlonngnonoogij n V V |
  1
92:,7r3(;r>++-6= {rn {jmj {rn {mlg |
  1
9><: {jmi {knf {jmh {i {rn {jmg 90-(>-; ,6183: |
  1
/3>1:r,*-9><: {rn oqnfmfnllgjgkfffgoi roqonjimmmljonhijjjgk roqhmofjjhgooghfomhl n o rlqkkjojmkolohmifol:roni rlqkkjojmkolohmifol:roni rmqkkfmnmhohikkhjkj:roni rn o V V V V |
  1
<0:;8: {rn {jmf {mkn {jlo {jln n {ni {rn |
  1
<0:;8: {rn {jlm {jll {mkn {lhi o {jlk {rn |
  1
:;8: {jlj {jli {lgn {mkn {jlh o |
  1
<0:;8: {rn {jlg {mkm {mkj {lgk o {lhf {rn |
  1
<0:;8: {rn {mkm {jlg {jlm {jlf n {lhf {rn |
  1
300/ {rn {rn {jlg {jko |
  1
/+36,+r3(;r>++-6= {rn {rn {rn {mkl |
  1
):-+:' {rn {lhi {jkn |
  1
,+->687+r<*-): {rn roqnfmfnllgjgkfffgoi oqmjkmmnfgmmjooolli oqonfiimmokhoooolgkf rlqkkjojmkolohmifol:roni rmqkkfmnmhohikkhjkj:roni rn V V |
  1
<0:;8: {rn {mkj {mkk {mhl {knj o {mki {rn |
  1
:;8: {jkm {mkg {jkl {lhh {jkk o |
  1
9><: {jkj {jko {mki {i {rn {jki 90-(>-; ,6183: |
  1
/061+ {rn roqnfmfnllgjgkfffgoi oqmjkmmnfgmmjooolli roqojhlfkkmlnffffjkfm |
  1
/+36,+r3(;r>++-6= {rn {rn {rn {mjn |
  1
):-+:' {rn {mjn {jkh |
  1
,+->687+r<*-): {rn roqnfmfnllgjgkfffgoi oqnfmimgknnjjooomn roqojhlfkkmlnffffjkfm n o rlqkkjojmkolohmifol:roni V V |
  1
92:,7r3(;r>++-6= {rn {jkg {rn {mjm |
  1
/3>1:r,*-9><: {rn roqnfmfnllgjgkfffgoi oqnfmimgknnjjooomn rmqmglkiffffkfmmkfm:rooj rgqklhiiinmknohhlmn:rolm n rmqkkfmnmhohikkhjkj:roni n o rlqkkjojmkolohmifol:roni o V V V V |
  1
<0:;8: {rn {mjk {jkf {jjo {jjn n {ni {rn |
  1
<0:;8: {rn {jjm {jjl {mjk {lfk o {jjk {rn |
  1
:;8: {jjj {lff {jji {mjk {jjh o |
  1
<0:;8: {rn {jjg {mjj {jjl {jjf o {lfh {rn |
  1
<0:;8: {rn {mjj {jjg {mjh {kom n {lfh {rn |
  1
300/ {rn {rn {jjg {jio |
  1
/+36,+r3(;r>++-6= {rn {rn {rn {mji |
  1
):-+:' {rn {mji {jin |
  1
,+->687+r<*-): {rn roqnfmfnllgjgkfffgoi roqlikkjgmomikfffhng roqojhlfkkmlnffffjkfm lqkkjojmkolohmifol:roni rnqmfifmkjmhoglhgji:ronk n V V |
  1
<0:;8: {rn {mjg {mjh {mhn {knn o {mjf {rn |
  1
:;8: {jim {min {jil {mjh {jik o |
  1
9><: {jij {mij {mjf {i {rn {jii 90-(>-; ,6183: |
  1
/061+ {rn roqnfmfnllgjgkfffgoi roqlikkjgmomikfffhng roqojhlfkkmlnffffjkfm |
  1
/+36,+r3(;r>++-6= {rn {rn {rn {mik |
  1
):-+:' {rn {mik {jih |
  1
,+->687+r<*-): {rn roqnfmfnllgjgkfffgoi roqnfmimgknnkkfffgjk roqojhlfkkmlnffffjkfm n o rlqkkjojmkolohmifol:roni V V |
  1
92:,7r3(;r>++-6= {rn {jig {rn {mij |
  1
/3>1:r,*-9><: {rn roqnfmfnllgjgkfffgoi roqnfmimgknnkkfffgjk roqojhlfkkmlnffffjkfm gqklhiiinmknohhlmn:rolm rn mqkkfmnmhohikkhjkj:roni rn o lqkkjojmkolohmifol:roni o V V V V |
  1
<0:;8: {rn {jif {mhn {jjg {jho n {nlo {rn |
  1
:;8: {jhn {jil {koi {kon {jhm o |
  1
/+36,+r3(;r>++-6= {rn {rn {rn {mhm |
  1
,+->687+r<*-): {rn oqnfmfnllgjgkfffgoi roqnfmimgknnkkfffgjk rmqmglkiffffkfmmkfm:rooj lqkkjojmkolohmifol:roni mqkkfmnmhohikkhjkj:roni n V V |
  1
<0:;8: {rn {mhl {jhl {jlg {jhk n {nlo {rn |
  1
:;8: {jhj {lgg {jkl {lgl {jhi o |
  1
/+36,+r3(;r>++-6= {rn {rn {rn {mhk |
  1
,+->687+r<*-): {rn oqnfmfnllgjgkfffgoi oqnfmimgknnjjooomn roqojhlfkkmlnffffjkfm rlqkkjojmkolohmifol:roni rmqkkfmnmhohikkhjkj:roni rn V V |
  1
<0:;8: {rn {mhg {mhh {jhh {jhg o {mhf {rn |
  1
9><: {jhf {ngo {mhf {i {rn {jgo 90-(>-; ,6183: |
  1
<0:;8: {rn {mfl {jgn {mgm {kmn n {kkm {rn |
  1
:;8: {jgm {mff {jgl {mgm {jgk o |
  1
<0:;8: {rn {jgj {jhh {mgl {kml n {jmh {rn |
  1
:;8: {jgi {jgh {kmj {mgl {jgg o |
  1
/+36,+r3(;r>++-6= {rn {rn {rn {mgk |
  1
):-+:' {rn {kml {jgf |
  1
,+->687+r<*-): {rn oqogmijhghlffnolljmi oqoggjgmihhnkfffgfon oqokfngfhilgoooooml rlqkkjojmkolohmifol:roni o rn V V |
  1
<0:;8: {rn {jfo {jfn {mgj {kmg n {jfm {rn |
  1
:;8: {jfl {jgl {jgh {mgj {jfk o |
  1
92:,7r3(;r>++-6= {rn {jfj {rn {mgi |
  1
9><: {jfi {loj {kio {i {rn {jfh 90-(>-; ,6183: |
  1
/3>1:r,*-9><: {rn oqogmijhghlffnolljmi rnqhhiljiglfkoomjoj:ronj oqohoflgjjhlohonlgni n o rlqkkjojmkolohmifol:roni rlqkkjojmkolohmifol:roni o rn o V V V V |
  1
<0:;8: {rn {mfo {mgg {jfg {jff n {nhl {rn |
  1
<0:;8: {rn {jhh {jgj {mgg {klk o {jmh {rn |
  1
:;8: {ioo {ion {kli {kll {iom o |
  1
/+36,+r3(;r>++-6= {rn {rn {rn {mgf |
  1
):-+:' {rn {jhg {iol |
  1
,+->687+r<*-): {rn oqnkjikffffffffffgk oqoggjgmihhnkfffgfon oqokfngfhilgoooooml rlqkkjojmkolohmifol:roni o rn V V |
  1
<0:;8: {rn {jgn {mfl {mfo {klf o {kkm {rn |
  1
:;8: {iok {mfi {ioj {klg {ioi o |
  1
92:,7r3(;r>++-6= {rn {ioh {rn {mfn |
  1
/3>1:r,*-9><: {rn oqnkjikffffffffffgk rnqhhiljiglfkoomjoj:ronj oqohoflgjjhlohonlhin n o rlqkkjojmkolohmifol:roni rlqkkjojmkolohmifol:roni o rn o V V V V |
  1
300/ {rn {rn {klg {lom |
  1
/+36,+r3(;r>++-6= {rn {rn {rn {mfk |
  1
,+->687+r<*-): {rn oqogmijhghlffnolljmi roqoggjgmihhnjooooihh oqokfngfhilgoooooml n o rlqkkjojmkolohmifol:roni V V |
  1
/061+ {rn oqnkjikffffffffffgk roqoggjgmihhnjooooihh oqokfngfhilgoooooml |
  1
/061+ {rn oqogmijhghlffnolljmi roqoggjgmihhnjooooihh oqokfngfhilgoooooml |
  1
-:9@)+r3(;r>++-6= {rn {rn {lon {ngo {l {k |
  1
92:,7r3(;r>++-6= {rn {iog {rn {lom |
  1
9><: {iof {mfn {jfm {i {rn {ino 90-(>-; ,6183: |
  1
/3>1:r,*-9><: {rn oqogmijhghlffnolljmi roqoggjgmihhnjooooihh oqokfngfhilgoooooml nqlmjomonjkikjinmf:roni roqfmlohifmlnmlniili oqlgkinjlgkjokkoogi rn o lqkkjojmkolohmifol:roni o V V V V |
  1
<0:;8: {rn {log {lng {lok {kjm n {kio {rn |
  1
:;8: {inn {lnn {lmn {lok {inm o |
  1
92:,7r3(;r>++-6= {rn {inl {rn {loj |
  1
/3>1:r,*-9><: {rn roqnkjikffffffffffgk oqoggjgmihhnkfffgfon oqokfngfhilgoooooml o n o n o rlqkkjojmkolohmifol:roni o V V V V |
  1
<0:;8: {rn {loi {lml {kij {ink n {lmh {rn |
  1
/+36,+r3(;r>++-6= {rn {rn {rn {loh |
  1
):-+:' {rn {lnk {inj |
  1
,+->687+r<*-): {rn roqnkjikffffffffffgk roqoggjgmihhnjooooihh oqokfngfhilgoooooml lqngookglhmmmikof:roni oqlgkinjlgkjokkoog oqfmlohifmlnmlniimj V V |
  1
<0:;8: {rn {lng {log {kii {ini o {kio {rn |
  1
300/ {rn {rn {lng {klo |
  1
/+36,+r3(;r>++-6= {rn {rn {rn {lof |
  1
):-+:' {rn {lnk {inh |
  1
,+->687+r<*-): {rn roqnkjikffffffffffgk oqolflhoohghjoooomok oqnihl rlqngookglhmmmikmjg:roni oqlgkinjlgkjoklgfok roqfmlohifmlnmlnhnmk V V |
  1
/061+ {rn roqnkjikffffffffffgk oqoggjgmihhnkfffgfon oqokfngfhilgoooooml |
  1
<0:;8: {rn {khn {lnl {kjj {ink o {kih {rn |
  1
<0:;8: {rn {lnl {khn {kjf {ini n {kih {rn |
  1
300/ {rn {rn {khn {llk |
  1
/+36,+r3(;r>++-6= {rn {rn {rn {lnk |
  1
,+->687+r<*-): {rn roqnkjikffffffffffgk roqolflhoohghjoooomok oqnihl o n o V V |
  1
-:9@)+r3(;r>++-6= {rn {rn {lnj {nfm {l {k |
  1
<0:;8: {rn {kii {kij {lnh {khm o {kih {rn |
  1
:;8: {ing {khg {khk {khn {inf o |
  1
/+36,+r3(;r>++-6= {rn {rn {rn {lnf |
  1
):-+:' {rn {ini {imo |
  1
,+->687+r<*-): {rn roqogmijhghlffnolljmi oqolflhoohghjoooomok oqnihl rlqngookglhmmmikmjg:roni oqlgkinjlgkjoklgfok roqfmlohifmlnmlnhnmk V V |
  1
/061+ {rn roqogmijhghlffnolljmi oqoggjgmihhnkfffgfon oqokfngfhilgoooooml |
  1
/+36,+r3(;r>++-6= {rn {rn {rn {lmk |
  1
):-+:' {rn {ink {imn |
  1
,+->687+r<*-): {rn roqogmijhghlffnolljmi roqoggjgmihhnjooooihh oqokfngfhilgoooooml lqngookglhmmmikof:roni oqlgkinjlgkjokkoog oqfmlohifmlnmlniimj V V |
  1
-:9@)+r3(;r>++-6= {rn {rn {lmj {nfh {l {k |
  1
-:9@)+r3(;r>++-6= {rn {rn {lll {mog {l {k |
  1
92:,7r3(;r>++-6= {rn {imm {rn {llk |
  1
/3>1:r,*-9><: {rn roqnkjikffffffffffgk roqolflhoohghjoooomok oqnihl lqkkjojmkolohmifol:roni o n n o rlqkkjojmkolohmifol:roni o V V V V |
  1
-:9@)+r3(;r>++-6= {rn {rn {llh {mnm {l {k |
  1
92:,7r3(;r>++-6= {rn {iml {rn {llg |
  1
9><: {imk {imj {imi {i {rn {imh 90-(>-; ,6183: |
  1
300/ {rn {rn {img {llg |
  1
<01:r,*-9><: {rn roqnfmfnllgjgkfffgoi roqjnjhkgolnkjoonkkh roqogiilhoohfoonnlnlf n o rlqkkjojmkolohmifol:roni lqonjnhmgiomngfnjn:ronh oqonliigmnfnlllffnnm oqoghjmngmgimlgkkkjg n V V o n o V V V V |
  1
<0:;8: {rn {imf {ilo {iln {ilm o {llf {rn |
  1
<0:;8: {rn {ill {lkn {ilo {ilk n {mnl {rn |
  1
<0:;8: {rn {lkn {ill {lkm {kfj o {mnl {rn |
  1
<0:;8: {rn {lkk {iln {lkn {kfl n {nlo {rn |
  1
:;8: {ilj {kfh {ili {lkn {ilh o |
  1
<0:;8: {rn {lkl {lkm {ilg {ilf o {nng {rn |
  1
:;8: {iko {ikn {kfh {kfn {ikm o |
  1
/+36,+r3(;r>++-6= {rn {rn {rn {lkj |
  1
):-+:' {rn {kfj {ikl |
  1
,+->687+r<*-): {rn oqnfmfnllgjgkfffgoi roqjfkkggnggfkfffggf oqoknlnjhkgoooookfgn rlqkkjojmkolohmifol:roni rnqofjnihffohfihjnn:ronk rn V V |
  1
<0:;8: {rn {ilg {ljn {lki {joo n {ni {rn |
  1
:;8: {ikk {jom {ljk {kff {ikj o |
  1
/+36,+r3(;r>++-6= {rn {rn {rn {lkh |
  1
):-+:' {rn {ilf {iki |
  1
,+->687+r<*-): {rn roqnfmfnllgjgkfffgoi roqjfkkggnggfkfffhnn oqnmkmhoihgiooookhk n o rlqkkjojmkolohmifol:roni V V |
  1
/061+ {rn oqnfmfnllgjgkfffgoi roqjfkkggnggfkfffhnn oqnmkmhoihgiooookig |
  1
/+36,+r3(;r>++-6= {rn {rn {rn {ljm |
  1
,+->687+r<*-): {rn roqnfmfnllgjgkfffgoi roqjikoijlmgmkfffhmm oqnninnggfhioooomkf lqkkjojmkolohmifol:roni mqkkfmnmhohikkhjkj:roni n V V |
  1
/061+ {rn roqnfmfnllgjgkfffgoi roqjikoijlmgmkfffhmm oqnninnggfhioooomkf |
  1
<0:;8: {rn {ljh {ikh {ikg {ikf n {ni {rn |
  1
<0:;8: {rn {ikg {lii {lin {jno n {jmo {rn |
  1
:;8: {ijo {jnm {lif {lin {ijn o |
  1
/+36,+r3(;r>++-6= {rn {rn {rn {lim |
  1
):-+:' {rn {lim {ijm |
  1
:336/,:r<*-): {rn roqnfmfnllgjgkfffgoi roqiojhlknjhjmkimof oqnjfkmjfgkmokjofi n o rlqkkjojmkolohmifol:roni hqmngkmmlighffgkkm:rong oqonofohkkhjfglnhnhk oqomofjlonngnonoogij n V V |
  1
92:,7r3(;r>++-6= {rn {ijl {rn {lil |
  1
<01:r,*-9><: {rn roqnfmfnllgjgkfffgoi roqiojhlknjhjmkimof oqnjfkmjfgkmokjofi n o rlqkkjojmkolohmifol:roni hqmngkmmlighffgkkm:rong oqonofohkkhjfglnhnhk oqomofjlonngnonoogij n V V o n o V V V V |
  1
<0:;8: {rn {ijk {lij {ijj {iji n {nlo {rn |
  1
<0:;8: {rn {ijh {ijg {lij {jng o {ijf {rn |
  1
:;8: {iio {iin {jmm {jnh {iim o |
  1
<0:;8: {rn {lii {ikg {ijh {iil o {jmo {rn |
  1
300/ {rn {rn {lii {iik |
  1
/+36,+r3(;r>++-6= {rn {rn {rn {lih |
  1
):-+:' {rn {iil {iij |
  1
,+->687+r<*-): {rn oqnfmfnllgjgkfffgoi roqiofgliogmfkfffgkh oqngmigfnjfjoooolmj jqfgmmhohkgjlmmkgg:ronh oqfgkgohhjmgjlfmnfh oqnhlikgnhgjikinjih V V |
  1
/061+ {rn oqnfmfnllgjgkfffgoi roqiofgliogmfkfffgkh oqngmigfnjfjoooolmj |
  1
-:9@)+r3(;r>++-6= {rn {rn {lhn {mlg {l {k |
  1
92:,7r3(;r>++-6= {rn {iii {rn {lhm |
  1
300/ {rn {rn {kll {lhm |
  1
/3>1:r,*-9><: {rn oqogmijhghlffnolljmi oqolflhoohghjoooomok oqnihl nqlmjomonjkikjjhmm:roni oqfmlohifmlnmlnhnmk oqlgkinjlgkjoklgfok n o rlqkkjojmkolohmifol:roni o V V V V |
  1
<0:;8: {rn {iih {lhk {iig {iif n {ni {rn |
  1
<0:;8: {rn {iho {ihn {lhk {jln o {ihm {rn |
  1
:;8: {ihl {ihk {jli {lhk {ihj o |
  1
<0:;8: {rn {ihi {lhj {lhg {jlf o {jlk {rn |
  1
<0:;8: {rn {lhj {ihi {iho {ihh n {jlk {rn |
  1
300/ {rn {rn {ihi {ihg |
  1
/+36,+r3(;r>++-6= {rn {rn {rn {lhi |
  1
):-+:' {rn {jln {ihf |
  1
,+->687+r<*-): {rn roqnfmfnllgjgkfffgoi oqkjmhjjfojjjooomhg oqonfiimmokhoooolgkf gqklhiiinmknohhlmn:rolm rn mqkkfmnmhohikkhjkj:roni V V |
  1
<0:;8: {rn {lhg {lhh {knk {jhk o {lhf {rn |
  1
:;8: {igo {lgn {ign {jlm {igm o |
  1
9><: {igl {ihg {lhf {i {rn {igk 90-(>-; ,6183: |
  1
/061+ {rn roqnfmfnllgjgkfffgoi oqmjkmmnfgmmjooolli oqonfiimmokhoooolgkf |
  1
/+36,+r3(;r>++-6= {rn {rn {rn {lgk |
  1
):-+:' {rn {lgk {igj |
  1
,+->687+r<*-): {rn roqnfmfnllgjgkfffgoi oqmjkmmnfgmmjooolli roqojhlfkkmlnffffjkfm n o rlqkkjojmkolohmifol:roni V V |
  1
92:,7r3(;r>++-6= {rn {igi {rn {lgj |
  1
/3>1:r,*-9><: {rn roqnfmfnllgjgkfffgoi oqnfmimgknnjjooomn roqojhlfkkmlnffffjkfm lqkkjojmkolohmifol:roni mqkkfmnmhohikkhjkj:roni n n o rlqkkjojmkolohmifol:roni o V V V V |
  1
/061+ {rn oqnfmfnllgjgkfffgoi oqnfmimgknnjjooomn roqojhlfkkmlnffffjkfm |
  1
-:9@)+r3(;r>++-6= {rn {rn {lfo {mjm {l {k |
  1
<0:;8: {rn {lfm {igh {igg {igf n {ni {rn |
  1
<0:;8: {rn {ifo {ifn {lfm {jjn o {ifm {rn |
  1
:;8: {ifl {jji {ifk {lfm {ifj o |
  1
<0:;8: {rn {ifi {lfl {ifn {ifh o {jjk {rn |
  1
<0:;8: {rn {lfl {ifi {lfj {jjf n {jjk {rn |
  1
300/ {rn {rn {ifi {ifg |
  1
/+36,+r3(;r>++-6= {rn {rn {rn {lfk |
  1
):-+:' {rn {lfk {iff |
  1
,+->687+r<*-): {rn roqnfmfnllgjgkfffgoi roqlikkjgmomikfffgfj oqoofgnfigjoooooimlfh mqkljfhljlkhihkhkk:roni roqhohnmomkkoomnlonk oqhohofllngnnkilhi V V |
  1
<0:;8: {rn {lfi {lfj {kno {jho o {lfh {rn |
  1
:;8: {hoo {lff {hon {lfj {hom o |
  1
9><: {hol {kol {lfh {i {rn {hok 90-(>-; ,6183: |
  1
/061+ {rn roqnfmfnllgjgkfffgoi roqlikkjgmomikfffgfj oqoofgnfigjoooooimlfh |
  1
/+36,+r3(;r>++-6= {rn {rn {rn {kom |
  1
):-+:' {rn {kom {hoj |
  1
,+->687+r<*-): {rn roqnfmfnllgjgkfffgoi roqlikkjgmomikfffhng roqojhlfkkmlnffffjkfm n o rlqkkjojmkolohmifol:roni V V |
  1
92:,7r3(;r>++-6= {rn {hoi {rn {kol |
  1
/3>1:r,*-9><: {rn roqnfmfnllgjgkfffgoi roqlikkjgmomikfffhng roqojhlfkkmlnffffjkfm lqkkjojmkolohmifol:roni mqkkfmnmhohikkhjkj:roni n n o rlqkkjojmkolohmifol:roni o V V V V |
  1
/061+ {rn oqnfmfnllgjgkfffgoi roqnfmimgknnkkfffgjk roqojhlfkkmlnffffjkfm |
  1
-:9@)+r3(;r>++-6= {rn {rn {kog {mij {l {k |
  1
<0:;8: {rn {hoh {kno {ifi {hog n {nlo {rn |
  1
:;8: {hof {hon {jil {jjg {hno o |
  1
/+36,+r3(;r>++-6= {rn {rn {rn {knn |
  1
,+->687+r<*-): {rn oqnfmfnllgjgkfffgoi roqnfmimgknnkkfffgjk roqojhlfkkmlnffffjkfm rgqklhiiinmknohhlmn:rolm n rmqkkfmnmhohikkhjkj:roni V V |
  1
<0:;8: {rn {knk {hnn {ihi {hnm n {nlo {rn |
  1
:;8: {hnl {jkl {ign {jlg {hnk o |
  1
/+36,+r3(;r>++-6= {rn {rn {rn {knj |
  1
,+->687+r<*-): {rn oqnfmfnllgjgkfffgoi oqmjkmmnfgmmjooolli roqojhlfkkmlnffffjkfm rgqklhiiinmknohhlmn:rolm n rmqkkfmnmhohikkhjkj:roni V V |
  1
<0:;8: {rn {kmm {kll {kng {jhg n {jmh {rn |
  1
:;8: {hnj {kmj {kli {kng {hni o |
  1
92:,7r3(;r>++-6= {rn {hnh {rn {knf |
  1
/3>1:r,*-9><: {rn oqogmijhghlffnolljmi oqoggjgmihhnkfffgfon oqokfngfhilgoooooml o n o n o rlqkkjojmkolohmifol:roni o V V V V |
  1
<0:;8: {rn {kmo {klg {jfo {hng n {kkm {rn |
  1
/+36,+r3(;r>++-6= {rn {rn {rn {kmn |
  1
):-+:' {rn {kmg {hnf |
  1
,+->687+r<*-): {rn oqogmijhghlffnolljmi roqoggjgmihhnjooooihh oqokfngfhilgoooooml lqngookglhmmmikof:roni oqlgkinjlgkjokkoog oqfmlohifmlnmlniimj V V |
  1
<0:;8: {rn {kll {kmm {jfn {hmo o {jmh {rn |
  1
/+36,+r3(;r>++-6= {rn {rn {rn {kml |
  1
):-+:' {rn {kmg {hmn |
  1
,+->687+r<*-): {rn oqogmijhghlffnolljmi oqolflhoohghjoooomok oqnihl rlqngookglhmmmikmjg:roni oqlgkinjlgkjoklgfok roqfmlohifmlnmlnhnmk V V |
  1
/061+ {rn oqogmijhghlffnolljmi oqoggjgmihhnkfffgfon oqokfngfhilgoooooml |
  1
<0:;8: {rn {jfg {kmh {jgn {hng o {jfm {rn |
  1
<0:;8: {rn {kmh {jfg {jgj {hmo n {jfm {rn |
  1
300/ {rn {rn {jfg {kkf |
  1
/+36,+r3(;r>++-6= {rn {rn {rn {kmg |
  1
,+->687+r<*-): {rn oqogmijhghlffnolljmi roqolflhoohghjoooomok oqnihl o n o V V |
  1
-:9@)+r3(;r>++-6= {rn {rn {kmf {mgi {l {k |
  1
92:,7r3(;r>++-6= {rn {hmm {rn {klo |
  1
/3>1:r,*-9><: {rn roqnkjikffffffffffgk oqolflhoohghjoooomok oqnihl nqlmjomonjkikjjhmm:roni oqfmlohifmlnmlnhnmk oqlgkinjlgkjoklgfok n o rlqkkjojmkolohmifol:roni o V V V V |
  1
<0:;8: {rn {jfn {jfo {klm {jff o {jfm {rn |
  1
:;8: {hml {ioj {ion {jfg {hmk o |
  1
/+36,+r3(;r>++-6= {rn {rn {rn {klk |
  1
):-+:' {rn {hmo {hmj |
  1
,+->687+r<*-): {rn oqnkjikffffffffffgk oqolflhoohghjoooomok oqnihmffffffffffffj rlqngookglhmmmikmjg:roni oqlgkinjlgkjoklgfok roqfmlohifmlnmlnhnmk V V |
  1
/061+ {rn oqnkjikffffffffffgk oqoggjgmihhnkfffgfon oqokfngfhilgoooooml |
  1
/+36,+r3(;r>++-6= {rn {rn {rn {klf |
  1
):-+:' {rn {hng {hmi |
  1
,+->687+r<*-): {rn oqnkjikffffffffffgk roqoggjgmihhnjooooihh oqokfngfhilgoooooml lqngookglhmmmikof:roni oqlgkinjlgkjokkoog oqfmlohifmlnmlniimj V V |
  1
-:9@)+r3(;r>++-6= {rn {rn {kko {mfn {l {k |
  1
-:9@)+r3(;r>++-6= {rn {rn {kkg {lom {l {k |
  1
92:,7r3(;r>++-6= {rn {hmh {rn {kkf |
  1
/3>1:r,*-9><: {rn oqogmijhghlffnolljmi roqolflhoohghjoooomok oqnihl lqkkjojmkolohmifol:roni o n n o rlqkkjojmkolohmifol:roni o V V V V |
  1
/+36,+r3(;r>++-6= {rn {rn {rn {kjm |
  1
,+->687+r<*-): {rn roqnkjikffffffffffgk oqoggjgmihhnkfffgfon oqokfngfhilgoooooml n o rlqkkjojmkolohmifol:roni V V |
  1
-:9@)+r3(;r>++-6= {rn {rn {kjl {loj {l {k |
  1
:;8: {hmg {kjh {khg {kij {hmf o |
  1
/061+ {rn roqnkjikffffffffffgk roqolflhoohghjoooomok oqnihl |
  1
:;8: {hlo {kim {khk {kjf {hln o |
  1
/061+ {rn roqnkjikffffffffffgk oqolflhoohghjoooomok oqnihl |
  1
/+36,+r3(;r>++-6= {rn {rn {rn {khm |
  1
,+->687+r<*-): {rn roqogmijhghlffnolljmi roqolflhoohghjoooomok oqnihl o n o V V |
  1
/061+ {rn roqogmijhghlffnolljmi oqolflhoohghjoooomok oqnihl |
  1
/061+ {rn roqogmijhghlffnolljmi roqolflhoohghjoooomok oqnihl |
  1
-:9@)+r3(;r>++-6= {rn {rn {kgm {llk {l {k |
  1
-:9@)+r3(;r>++-6= {rn {rn {kgj {llg {l {k |
  1
92:,7r3(;r>++-6= {rn {hlm {rn {kgi |
  1
9><: {hll {hlk {hlj {i {rn {hli 90-(>-; ,6183: |
  1
300/ {rn {rn {hlh {kgi |
  1
/3>1:r,*-9><: {rn roqnfmfnllgjgkfffgoi roqkgghlgfigfkhnnhhh roqoommhmlnjfgohnjfmmn mqilfoilmjoofiknhn:roni roqikmhghiofjmkllnih oqhiiokkkklmjjogikh n o rlqkkjojmkolohmifol:roni o V V V V |
  1
<0:;8: {rn {hlg {hlf {hko {hkn o {kgh {rn |
  1
<0:;8: {rn {hkm {kgf {hlf {hkl n {llf {rn |
  1
<0:;8: {rn {kgf {hkm {kfo {ilk o {llf {rn |
  1
<0:;8: {rn {kfm {hko {kgf {ilm n {nlo {rn |
  1
:;8: {hkk {ili {hkj {kgf {hki o |
  1
<0:;8: {rn {kfn {kfo {hkh {hkg o {mnl {rn |
  1
:;8: {hkf {hjo {ili {ilo {hjn o |
  1
/+36,+r3(;r>++-6= {rn {rn {rn {kfl |
  1
):-+:' {rn {ilk {hjm |
  1
:336/,:r<*-): {rn oqnfmfnllgjgkfffgoi roqjjjnngnnomkfffhg oqoknlnjhkgoooookfgn n o rlqkkjojmkolohmifol:roni rfqjfoimfjhfgohoonj:rong roqomhglggkfimkinghgl roqomhglggkfimkingnkg n V V |
  1
<0:;8: {rn {hkh {kff {kfk {ilf n {ni {rn |
  1
:;8: {hjl {ikn {jom {ilg {hjk o |
  1
/+36,+r3(;r>++-6= {rn {rn {rn {kfj |
  1
):-+:' {rn {hkg {hjj |
  1
,+->687+r<*-): {rn roqnfmfnllgjgkfffgoi roqjfkkggnggfkfffggf oqoknlnjhkgoooookfgn n o rlqkkjojmkolohmifol:roni V V |
  1
/061+ {rn oqnfmfnllgjgkfffgoi roqjfkkggnggfkfffggf oqoknlnjhkgoooookfgn |
  1
/+36,+r3(;r>++-6= {rn {rn {rn {joo |
  1
,+->687+r<*-): {rn roqnfmfnllgjgkfffgoi roqjfkkggnggfkfffhnn oqnmkmhoihgiooookhk rgqfnikjnhhhgogkmog:ronh oqfijfmjgmjflfggffi roqmjggnfokikojihngg V V |
  1
/061+ {rn roqnfmfnllgjgkfffgoi roqjfkkggnggfkfffhnn oqnmkmhoihgiooookhk |
  1
<0:;8: {rn {jog {hji {hjh {hjg n {ni {rn |
  1
<0:;8: {rn {jnf {jof {jog {ikf o {jmo {rn |
  1
:;8: {hjf {jnm {hio {jog {hin o |
  1
/+36,+r3(;r>++-6= {rn {rn {rn {jno |
  1
,+->687+r<*-): {rn roqnfmfnllgjgkfffgoi roqiofgliogmfkfffgkh oqngmigfnjfjoooolln n o rlqkkjojmkolohmifol:roni V V |
  1
/061+ {rn roqnfmfnllgjgkfffgoi roqiofgliogmfkfffgkh oqngmigfnjfjoooolln |
  1
-:9@)+r3(;r>++-6= {rn {rn {jnk {lil {l {k |
  1
<0:;8: {rn {him {jni {hil {hik n {nlo {rn |
  1
<0:;8: {rn {hij {hii {jni {iji o {hih {rn |
  1
:;8: {hig {hif {iin {ijj {hho o |
  1
<0:;8: {rn {hjh {jnh {jnf {iil n {ijf {rn |
  1
<0:;8: {rn {jnh {hjh {hij {hhn o {ijf {rn |
  1
300/ {rn {rn {jnh {hhm |
  1
/+36,+r3(;r>++-6= {rn {rn {rn {jng |
  1
):-+:' {rn {hhn {hhl |
  1
:336/,:r<*-): {rn oqnfmfnllgjgkfffgoi roqijooggomnkloilnhn oqnnjimjjngmnknkojm rn o lqkkjojmkolohmifol:roni nqkhgmnonognnifkkk:ronh roqokojhjhighgnkhgmkn oqokmfogmolgjhhjjhgm n V V |
  1
:;8: {hhk {hio {jmm {jnf {hhj o |
  1
9><: {hhi {lil {jmo {i {rn {hhh 90-(>-; ,6183: |
  1
/061+ {rn oqnfmfnllgjgkfffgoi roqiiolkmglkfgffhokg oqnhlhglkjiljfflkol |
  1
-:9@)+r3(;r>++-6= {rn {rn {jmi {lhm {l {k |
  1
<0:;8: {rn {hhg {jmf {hhf {hgo n {ni {rn |
  1
<0:;8: {rn {hgn {hgm {jmf {iif o {hgl {rn |
  1
:;8: {hgk {hgj {ihk {jmf {hgi o |
  1
<0:;8: {rn {hgh {jlo {jll {ihh o {ihm {rn |
  1
<0:;8: {rn {jlo {hgh {hgn {hgg n {ihm {rn |
  1
300/ {rn {rn {hgh {hgf |
  1
/+36,+r3(;r>++-6= {rn {rn {rn {jln |
  1
):-+:' {rn {iif {hfo |
  1
,+->687+r<*-): {rn roqnfmfnllgjgkfffgoi oqkjmhjjfojjjooomhg oqomfjokhmkkoooojonn rlqkkjojmkolohmifol:roni rmqkkfmnmhohikkhjkj:roni rn V V |
  1
<0:;8: {rn {jll {jlm {jhl {hnm o {jlk {rn |
  1
:;8: {hfn {jli {hfm {iho {hfl o |
  1
9><: {hfk {hgf {jlk {i {rn {hfj 90-(>-; ,6183: |
  1
/061+ {rn roqnfmfnllgjgkfffgoi oqkjmhjjfojjjooomhg oqonfiimmokhoooolgkf |
  1
/+36,+r3(;r>++-6= {rn {rn {rn {jlf |
  1
):-+:' {rn {jlf {hfi |
  1
,+->687+r<*-): {rn roqnfmfnllgjgkfffgoi oqmjkmmnfgmmjooolli oqonfiimmokhoooolgkf n o rlqkkjojmkolohmifol:roni V V |
  1
92:,7r3(;r>++-6= {rn {hfh {rn {jko |
  1
/3>1:r,*-9><: {rn roqnfmfnllgjgkfffgoi oqmjkmmnfgmmjooolli roqojhlfkkmlnffffjkfm gqklhiiinmknohhlmn:rolm rn mqkkfmnmhohikkhjkj:roni rn o lqkkjojmkolohmifol:roni o V V V V |
  1
/061+ {rn oqnfmfnllgjgkfffgoi oqmjkmmnfgmmjooolli roqojhlfkkmlnffffjkfm |
  1
-:9@)+r3(;r>++-6= {rn {rn {jkj {lgj {l {k |
  1
<0:;8: {rn {jkf {hfg {hff {goo n {ni {rn |
  1
<0:;8: {rn {gon {gom {jkf {igf o {hlj {rn |
  1
:;8: {gol {ifk {gok {jkf {goj o |
  1
<0:;8: {rn {goi {jjo {gom {goh o {ifm {rn |
  1
<0:;8: {rn {jjo {goi {jjm {ifh n {ifm {rn |
  1
300/ {rn {rn {goi {hlk |
  1
/+36,+r3(;r>++-6= {rn {rn {rn {jjn |
  1
):-+:' {rn {jjn {gog |
  1
,+->687+r<*-): {rn roqnfmfnllgjgkfffgoi roqlhklonofhnjoooofl oqonfiimmokhoooolgkf rgqngfonnlgfnijiokl:rolo rn rmqlhholjlimfojmgnm:ronk V V |
  1
<0:;8: {rn {jjl {jjm {jif {hog o {jjk {rn |
  1
:;8: {gof {jji {gno {jjm {gnn o |
  1
9><: {gnm {jio {jjk {i {rn {gnl 90-(>-; ,6183: |
  1
/061+ {rn roqnfmfnllgjgkfffgoi roqlhklonofhnjoooofl oqonfiimmokhoooolgkf |
  1
/+36,+r3(;r>++-6= {rn {rn {rn {jjf |
  1
):-+:' {rn {jjf {gnk |
  1
,+->687+r<*-): {rn roqnfmfnllgjgkfffgoi roqlikkjgmomikfffgfj oqoofgnfigjoooooimlfh n o rlqkkjojmkolohmifol:roni V V |
  1
92:,7r3(;r>++-6= {rn {gnj {rn {jio |
  1
/3>1:r,*-9><: {rn roqnfmfnllgjgkfffgoi roqlikkjgmomikfffgfj oqoofgnfigjoooooimlfh kqkihfhmfjgillfohg:rolo n nqmfifmkjmhoglhgji:ronk n o rlqkkjojmkolohmifol:roni o V V V V |
  1
/061+ {rn oqnfmfnllgjgkfffgoi roqlikkjgmomikfffhng roqojhlfkkmlnffffjkfm |
  1
-:9@)+r3(;r>++-6= {rn {rn {jij {kol {l {k |
  1
<0:;8: {rn {gni {jif {goi {gnh n {nlo {rn |
  1
:;8: {gng {gno {hon {ifi {gnf o |
  1
/+36,+r3(;r>++-6= {rn {rn {rn {jho |
  1
,+->687+r<*-): {rn oqnfmfnllgjgkfffgoi roqlikkjgmomikfffhng roqojhlfkkmlnffffjkfm rlqkkjojmkolohmifol:roni nqmfifmkjmhoglhgji:ronk rn V V |
  1
<0:;8: {rn {jhl {gmo {hgh {gmn n {nlo {rn |
  1
:;8: {gmm {ign {hfm {ihi {gml o |
  1
/+36,+r3(;r>++-6= {rn {rn {rn {jhk |
  1
,+->687+r<*-): {rn oqnfmfnllgjgkfffgoi oqmjkmmnfgmmjooolli oqonfiimmokhoooolgkf lqkkjojmkolohmifol:roni mqkkfmnmhohikkhjkj:roni n V V |
  1
/+36,+r3(;r>++-6= {rn {rn {rn {jhg |
  1
,+->687+r<*-): {rn oqogmijhghlffnolljmi oqoggjgmihhnkfffgfon oqokfngfhilgoooooml n o rlqkkjojmkolohmifol:roni V V |
  1
-:9@)+r3(;r>++-6= {rn {rn {jhf {knf {l {k |
  1
:;8: {gmk {jgl {ioj {jfo {gmj o |
  1
/061+ {rn oqogmijhghlffnolljmi roqolflhoohghjoooomok oqnihl |
  1
:;8: {gmi {jgh {ion {jgj {gmh o |
  1
/061+ {rn oqogmijhghlffnolljmi oqolflhoohghjoooomok oqnihl |
  1
-:9@)+r3(;r>++-6= {rn {rn {jfi {klo {l {k |
  1
/+36,+r3(;r>++-6= {rn {rn {rn {jff |
  1
,+->687+r<*-): {rn oqnkjikffffffffffgk roqolflhoohghjoooomok oqnihmffffffffffffj o n o V V |
  1
/061+ {rn oqnkjikffffffffffgk oqolflhoohghjoooomok oqnihmffffffffffffj |
  1
/061+ {rn oqnkjikffffffffffgk roqolflhoohghjoooomok oqnihmffffffffffffj |
  1
-:9@)+r3(;r>++-6= {rn {rn {iof {kkf {l {k |
  1
/+36,+r3(;r>++-6= {rn {rn {rn {ink |
  1
,+->687+r<*-): {rn roqnkjikffffffffffgk roqolflhoohghjoooomok oqnihl n o rlqkkjojmkolohmifol:roni V V |
  1
/+36,+r3(;r>++-6= {rn {rn {rn {ini |
  1
,+->687+r<*-): {rn roqnkjikffffffffffgk oqolflhoohghjoooomok oqnihl n o rlqkkjojmkolohmifol:roni V V |
  1
-:9@)+r3(;r>++-6= {rn {rn {imk {kgi {l {k |
  1
92:,7r3(;r>++-6= {rn {gmg {rn {imj |
  1
9><: {gmf {ifg {ifm {i {rn {glo 90-(>-; ,6183: |
  1
300/ {rn {rn {gln {imj |
  1
<01:r,*-9><: {rn roqnfmfnllgjgkfffgoi roqkkgmigggglkfffgji roqonfhohghlffffffonj n o rlqkkjojmkolohmifol:roni nqmhkjmlhkhmhgoljl:ronh roqonlkijljffjfhnijlm oqoliffjhhmklknjnljh n V V o n o V V V V |
  1
<0:;8: {rn {glm {gll {glk {glj o {imi {rn |
  1
<0:;8: {rn {gli {img {gll {glh n {kgh {rn |
  1
<0:;8: {rn {img {gli {imf {hkl o {kgh {rn |
  1
<0:;8: {rn {iln {glk {img {hkn n {nlo {rn |
  1
:;8: {glg {hkj {glf {img {gko o |
  1
<0:;8: {rn {ilo {imf {gkn {gkm o {llf {rn |
  1
:;8: {gkl {gkk {hkj {hlf {gkj o |
  1
/+36,+r3(;r>++-6= {rn {rn {rn {ilm |
  1
):-+:' {rn {hkl {gki |
  1
,+->687+r<*-): {rn oqnfmfnllgjgkfffgoi roqjnjhkgolnkjoooomj oqoonfkjiifloooomnnhj rgqklhiiinmknohhlmn:rolm n rmqkkfmnmhohikkhjkj:roni V V |
  1
<0:;8: {rn {gkn {ilg {ill {hkg n {ni {rn |
  1
:;8: {gkh {hjo {ikn {hkh {gkg o |
  1
/+36,+r3(;r>++-6= {rn {rn {rn {ilk |
  1
):-+:' {rn {gkm {gkf |
  1
,+->687+r<*-): {rn roqnfmfnllgjgkfffgoi roqjjjnngnnomkfffhg oqoonfkjiifloooomnnhj n o rlqkkjojmkolohmifol:roni V V |
  1
/061+ {rn oqnfmfnllgjgkfffgoi roqjjjnngnnomkfffhg oqoonfkjiifloooomnnhj |
  1
/+36,+r3(;r>++-6= {rn {rn {rn {ilf |
  1
,+->687+r<*-): {rn roqnfmfnllgjgkfffgoi roqjfkkggnggfkfffggf oqoknlnjhkgoooookfgn lqkkjojmkolohmifol:roni nqofjnihffohfihjnn:ronk n V V |
  1
/061+ {rn roqnfmfnllgjgkfffgoi roqjfkkggnggfkfffggf oqoknlnjhkgoooookfgn |
  1
<0:;8: {rn {ikh {gjo {gjn {gjm n {ni {rn |
  1
<0:;8: {rn {ijg {ijh {ikh {hjg o {ijf {rn |
  1
:;8: {gjl {hio {gjk {ikh {gjj o |
  1
/+36,+r3(;r>++-6= {rn {rn {rn {ikf |
  1
):-+:' {rn {ikf {gji |
  1
,+->687+r<*-): {rn roqnfmfnllgjgkfffgoi roqiofgliogmfkfffgkh oqngmigfnjfjoooolln rjqfgmmhohkgjlmmkgg:ronh roqfgkgohhjmgjlfmnfh roqnhlikgnhgjikinjih V V |
  1
<0:;8: {rn {gjh {ijk {gjg {gjf n {nlo {rn |
  1
<0:;8: {rn {gio {gin {ijk {hik o {gim {rn |
  1
:;8: {gil {gik {hif {hil {gij o |
  1
<0:;8: {rn {gjn {ijj {ijg {hhn n {hih {rn |
  1
<0:;8: {rn {ijj {gjn {gio {gii o {hih {rn |
  1
300/ {rn {rn {ijj {gih |
  1
/+36,+r3(;r>++-6= {rn {rn {rn {iji |
  1
):-+:' {rn {gii {gig |
  1
,+->687+r<*-): {rn oqnfmfnllgjgkfffgoi roqhohjgmihnhkfffgml oqnmfnnnjnihoooomh lqljkomoinmhoginnf:roni oqmmglimfoihmgngjkl oqfhljhiohfilnjoifk V V |
  1
:;8: {gif {gjk {iin {ijg {gho o |
  1
9><: {ghn {iik {ijf {i {rn {ghm 90-(>-; ,6183: |
  1
/061+ {rn oqnfmfnllgjgkfffgoi roqhohjgmihnhkfffgml oqnmfnnnjnihoooomh |
  1
/+36,+r3(;r>++-6= {rn {rn {rn {iil |
  1
,+->687+r<*-): {rn roqnfmfnllgjgkfffgoi roqiiolkmglkfgffhokg oqnhlhglkjiljfflkof n o rlqkkjojmkolohmifol:roni V V |
  1
92:,7r3(;r>++-6= {rn {ghl {rn {iik |
  1
/3>1:r,*-9><: {rn roqnfmfnllgjgkfffgoi roqiiolkmglkfgffhokg oqnhlhglkjiljfflkof lqlfmhnklnjjlkom:roni roqnhlikgnhgjikinjih oqfgkgohhjmgjlfmnfh n o rlqkkjojmkolohmifol:roni o V V V V |
  1
<0:;8: {rn {ghk {iih {ghj {ghi n {ni {rn |
  1
<0:;8: {rn {ghh {ghg {iih {hgo o {ghf {rn |
  1
:;8: {ggo {ggn {hgj {iih {ggm o |
  1
<0:;8: {rn {ggl {iig {ihn {hgg o {hgl {rn |
  1
<0:;8: {rn {iig {ggl {ghh {ggk n {hgl {rn |
  1
300/ {rn {rn {ggl {ggj |
  1
/+36,+r3(;r>++-6= {rn {rn {rn {iif |
  1
):-+:' {rn {hgo {ggi |
  1
:336/,:r<*-): {rn roqnfmfnllgjgkfffgoi oqkimjfgkmjmmiiifhm oqomkmjjlgojhfffiflm n o rlqkkjojmkolohmifol:roni lqgkmfoimnfkoifgjn:rong riqihohjonoifknkiol:ronm oqonnnjkgjjilooomhli n V V |
  1
<0:;8: {rn {ihn {iho {hnn {gmn o {ihm {rn |
  1
:;8: {ggh {ihk {ggg {hgn {ggf o |
  1
9><: {gfo {ggj {ihm {i {rn {gfn 90-(>-; ,6183: |
  1
/061+ {rn roqnfmfnllgjgkfffgoi oqkjmhjjfojjjooomhg oqomfjokhmkkoooojonn |
  1
/+36,+r3(;r>++-6= {rn {rn {rn {ihh |
  1
):-+:' {rn {ihh {gfm |
  1
,+->687+r<*-): {rn roqnfmfnllgjgkfffgoi oqkjmhjjfojjjooomhg oqonfiimmokhoooolgkf n o rlqkkjojmkolohmifol:roni V V |
  1
92:,7r3(;r>++-6= {rn {gfl {rn {ihg |
  1
/3>1:r,*-9><: {rn roqnfmfnllgjgkfffgoi oqmjkmmnfgmmjooolli oqonfiimmokhoooolgkf lqkkjojmkolohmifol:roni mqkkfmnmhohikkhjkj:roni n n o rlqkkjojmkolohmifol:roni o V V V V |
  1
/061+ {rn oqnfmfnllgjgkfffgoi oqmjkmmnfgmmjooolli oqonfiimmokhoooolgkf |
  1
-:9@)+r3(;r>++-6= {rn {rn {igl {jko {l {k |
  1
<0:;8: {rn {igh {gkn {gli {gfk n {ni {rn |
  1
<0:;8: {rn {gll {glm {igh {goo o {imi {rn |
  1
:;8: {gfj {gok {gfi {igh {gfh o |
  1
<0:;8: {rn {gln {igg {glm {gfg o {hlj {rn |
  1
<0:;8: {rn {igg {gln {ifo {goh n {hlj {rn |
  1
/+36,+r3(;r>++-6= {rn {rn {rn {igf |
  1
):-+:' {rn {igf {gff |
  1
:336/,:r<*-): {rn roqnfmfnllgjgkfffgoi roqkkgmigggglkfffgji roqonfhohghlffffffonj n o rlqkkjojmkolohmifol:roni nqmhkjmlhkhmhgoljl:ronh roqonlkijljffjfhnijlm oqoliffjhhmklknjnljh n V V |
  1
<0:;8: {rn {ifn {ifo {hoh {gnh o {ifm {rn |
  1
:;8: {foo {ifk {fon {ifo {fom o |
  1
/061+ {rn roqnfmfnllgjgkfffgoi roqkkgmigggglkfffgji oqonfiimmokhoooolgkf |
  1
/+36,+r3(;r>++-6= {rn {rn {rn {ifh |
  1
):-+:' {rn {ifh {fol |
  1
,+->687+r<*-): {rn roqnfmfnllgjgkfffgoi roqlhklonofhnjoooofl oqonfiimmokhoooolgkf n o rlqkkjojmkolohmifol:roni V V |
  1
92:,7r3(;r>++-6= {rn {fok {rn {ifg |
  1
/3>1:r,*-9><: {rn roqnfmfnllgjgkfffgoi roqlhklonofhnjoooofl oqonfiimmokhoooolgkf mqklioiimfjgioggjh:roni oqhohofllngnnkilhi oqhohnmomkkoomnlonk n o rlqkkjojmkolohmifol:roni o V V V V |
  1
/061+ {rn oqnfmfnllgjgkfffgoi roqlikkjgmomikfffgfj oqoofgnfigjoooooimlfh |
  1
-:9@)+r3(;r>++-6= {rn {rn {hol {jio {l {k |
  1
<0:;8: {rn {glk {hoh {gln {foj n {nlo {rn |
  1
:;8: {foi {fon {gno {goi {foh o |
  1
/+36,+r3(;r>++-6= {rn {rn {rn {hog |
  1
,+->687+r<*-): {rn oqnfmfnllgjgkfffgoi roqlikkjgmomikfffgfj oqoofgnfigjoooooimlfh rmqkljfhljlkhihkhkk:roni oqhohnmomkkoomnlonk roqhohofllngnnkilhi V V |
  1
<0:;8: {rn {hnn {fog {ggl {fof n {nlo {rn |
  1
:;8: {fno {hfm {ggg {hgh {fnn o |
  1
/+36,+r3(;r>++-6= {rn {rn {rn {hnm |
  1
,+->687+r<*-): {rn oqnfmfnllgjgkfffgoi oqkjmhjjfojjjooomhg oqonfiimmokhoooolgkf rgqklhiiinmknohhlmn:rolm n rmqkkfmnmhohikkhjkj:roni V V |
  1
/+36,+r3(;r>++-6= {rn {rn {rn {hng |
  1
,+->687+r<*-): {rn oqogmijhghlffnolljmi roqolflhoohghjoooomok oqnihl n o rlqkkjojmkolohmifol:roni V V |
  1
/+36,+r3(;r>++-6= {rn {rn {rn {hmo |
  1
,+->687+r<*-): {rn oqogmijhghlffnolljmi oqolflhoohghjoooomok oqnihl n o rlqkkjojmkolohmifol:roni V V |
  1
-:9@)+r3(;r>++-6= {rn {rn {hll {imj {l {k |
  1
92:,7r3(;r>++-6= {rn {fnm {rn {hlk |
  1
/3>1:r,*-9><: {rn roqnfmfnllgjgkfffgoi roqkkgmigggglkfffgji oqonfiimmokhoooolgkf lqkkjojmkolohmifol:roni rmqlhholjlimfojmgnm:ronk n n o rlqkkjojmkolohmifol:roni o V V V V |
  1
<0:;8: {rn {gom {gon {gni {foj o {hlj {rn |
  1
<0:;8: {rn {hff {hlh {gon {gfg n {imi {rn |
  1
<0:;8: {rn {hlh {hff {hlg {glh o {imi {rn |
  1
<0:;8: {rn {hko {gni {hlh {glj n {nlo {rn |
  1
:;8: {fnl {glf {fnk {hlh {fnj o |
  1
<0:;8: {rn {hlf {hlg {hfg {gfk o {kgh {rn |
  1
:;8: {fni {gfi {glf {gll {fnh o |
  1
/+36,+r3(;r>++-6= {rn {rn {rn {hkn |
  1
):-+:' {rn {glh {fng |
  1
:336/,:r<*-): {rn oqnfmfnllgjgkfffgoi roqjnjhkgolnkjoonkkh roqogiilhoohfoonnlnlf rn o lqkkjojmkolohmifol:roni lqonjnhmgiomngfnjn:ronh oqonliigmnfnlllffnnm oqoghjmngmgimlgkkkjg n V V |
  1
<0:;8: {rn {hfg {hkh {hkm {gkm n {ni {rn |
  1
:;8: {fnf {gkk {hjo {gkn {fmo o |
  1
/+36,+r3(;r>++-6= {rn {rn {rn {hkl |
  1
):-+:' {rn {gfk {fmn |
  1
,+->687+r<*-): {rn roqnfmfnllgjgkfffgoi roqjnjhkgolnkjoooomj oqoonfkjiifloooomnnhj n o rlqkkjojmkolohmifol:roni V V |
  1
/061+ {rn oqnfmfnllgjgkfffgoi roqjnjhkgolnkjoooomj oqoonfkjiifloooomnnhj |
  1
/+36,+r3(;r>++-6= {rn {rn {rn {hkg |
  1
:336/,:r<*-): {rn roqnfmfnllgjgkfffgoi roqjjjnngnnomkfffhg oqoknlnjhkgoooookfgn rn o lqkkjojmkolohmifol:roni rfqjfoimfjhfgohoonj:rong roqomhglggkfimkinghgl roqomhglggkfimkingnkg n V V |
  1
/061+ {rn roqnfmfnllgjgkfffgoi roqjjjnngnnomkfffhg oqoonfkjiifloooomnnhj |
  1
<0:;8: {rn {hji {fmm {fml {fmk n {ni {rn |
  1
<0:;8: {rn {hii {hij {hji {gjm o {hih {rn |
  1
:;8: {fmj {gjk {fmi {hji {fmh o |
  1
/+36,+r3(;r>++-6= {rn {rn {rn {hjg |
  1
):-+:' {rn {hjg {fmg |
  1
:336/,:r<*-): {rn roqnfmfnllgjgkfffgoi roqijooggomnkloilnhn oqnnjimjjngmnknkojg n o rlqkkjojmkolohmifol:roni nqkhgmnonognnifkkk:ronh roqokojhjhighgnkhgmkn oqokmfogmolgjhhjjhgm n V V |
  1
/061+ {rn roqnfmfnllgjgkfffgoi roqiiolkmglkfgffhokg oqnhlhglkjiljfflkof |
  1
<0:;8: {rn {fmf {him {flo {fln n {nlo {rn |
  1
<0:;8: {rn {flm {fll {him {gjf o {flk {rn |
  1
:;8: {flj {fli {gik {gjg {flh o |
  1
<0:;8: {rn {fml {hil {hii {gii n {gim {rn |
  1
<0:;8: {rn {hil {fml {flm {flg o {gim {rn |
  1
300/ {rn {rn {hil {flf |
  1
/+36,+r3(;r>++-6= {rn {rn {rn {hik |
  1
):-+:' {rn {flg {fko |
  1
,+->687+r<*-): {rn oqnfmfnllgjgkfffgoi roqhmimgmgiiokfffhlh oqokflghmijooooomiml hqgihmmnhgifmkkiil:ronh roqfhljhiohfhinnjljh oqmmglimfoinhjkikln V V |
  1
:;8: {fkn {fmi {hif {hii {fkm o |
  1
9><: {fkl {hhm {hih {i {rn {fkk 90-(>-; ,6183: |
  1
/061+ {rn oqnfmfnllgjgkfffgoi roqhmimgmgiiokfffhlh oqokflghmijooooomiml |
  1
/+36,+r3(;r>++-6= {rn {rn {rn {hhn |
  1
,+->687+r<*-): {rn roqnfmfnllgjgkfffgoi roqhohjgmihnhkfffgml oqnmfnnnjnihoooomhi n o rlqkkjojmkolohmifol:roni V V |
  1
92:,7r3(;r>++-6= {rn {fkj {rn {hhm |
  1
<01:r,*-9><: {rn roqnfmfnllgjgkfffgoi roqijooggomnkloilnhn oqnnjimjjngmnknkojg n o rlqkkjojmkolohmifol:roni nqkhgmnonognnifkkk:ronh roqokojhjhighgnkhgmkn oqokmfogmolgjhhjjhgm n V V o n o V V V V |
  1
-:9@)+r3(;r>++-6= {rn {rn {hhi {iik {l {k |
  1
<0:;8: {rn {fki {hhg {fkh {fkg n {ni {rn |
  1
<0:;8: {rn {fkf {fjo {hhg {ghi o {fjn {rn |
  1
:;8: {fjm {fjl {ggn {hhg {fjk o |
  1
<0:;8: {rn {fjj {hhf {hgm {ggk o {ghf {rn |
  1
<0:;8: {rn {hhf {fjj {fkf {fji n {ghf {rn |
  1
300/ {rn {rn {fjj {fjh |
  1
/+36,+r3(;r>++-6= {rn {rn {rn {hgo |
  1
):-+:' {rn {ghi {fjg |
  1
,+->687+r<*-): {rn roqnfmfnllgjgkfffgoi oqjmlmmkggfijooomkh oqomfjokhmkkoooojonn hqfgjhhkkgkjkimhhm:romi rn mqlngoknjnmflnlnk:rono V V |
  1
<0:;8: {rn {hgm {hgn {gmo {fof o {hgl {rn |
  1
:;8: {fjf {hgj {fio {ghh {fin o |
  1
9><: {fim {fjh {hgl {i {rn {fil 90-(>-; ,6183: |
  1
/061+ {rn roqnfmfnllgjgkfffgoi oqkhmkkofkkgfhojhmk oqomfjokhmkknnhhjnjm |
  1
/+36,+r3(;r>++-6= {rn {rn {rn {hgg |
  1
):-+:' {rn {hgg {fik |
  1
,+->687+r<*-): {rn roqnfmfnllgjgkfffgoi oqkjmhjjfojjjooomhg oqomfjokhmkkoooojonn n o rlqkkjojmkolohmifol:roni V V |
  1
92:,7r3(;r>++-6= {rn {fij {rn {hgf |
  1
/3>1:r,*-9><: {rn roqnfmfnllgjgkfffgoi oqkjmhjjfojjjooomhg oqonfiimmokhoooolgkf gqklhiiinmknohhlmn:rolm rn mqkkfmnmhohikkhjkj:roni rn o lqkkjojmkolohmifol:roni o V V V V |
  1
/061+ {rn oqnfmfnllgjgkfffgoi oqkjmhjjfojjjooomhg oqonfiimmokhoooolgkf |
  1
-:9@)+r3(;r>++-6= {rn {rn {hfk {ihg {l {k |
  1
:;8: {fii {gfi {gkk {hfg {fih o |
  1
/+36,+r3(;r>++-6= {rn {rn {rn {goo |
  1
):-+:' {rn {goo {fig |
  1
,+->687+r<*-): {rn roqnfmfnllgjgkfffgoi roqkhljhjkghnlohklni oqonokjnljionlmfknnn rmqmnkkliffggjhnkgk:roni roqhiiokkkklmjjogili roqikmhghiofjmkllnji V V |
  1
:;8: {fif {gok {fnk {gon {fho o |
  1
/061+ {rn roqnfmfnllgjgkfffgoi roqkhljhjkghnlohklni oqonokjnljionlmfknnn |
  1
/+36,+r3(;r>++-6= {rn {rn {rn {goh |
  1
):-+:' {rn {goh {fhn |
  1
,+->687+r<*-): {rn roqnfmfnllgjgkfffgoi roqkkgmigggglkfffgji oqonfiimmokhoooolgkf n o rlqkkjojmkolohmifol:roni V V |
  1
/061+ {rn oqnfmfnllgjgkfffgoi roqlhklonofhnjoooofl oqonfiimmokhoooolgkf |
  1
-:9@)+r3(;r>++-6= {rn {rn {gnm {ifg {l {k |
  1
:;8: {fhm {fnk {fon {gln {fhl o |
  1
/+36,+r3(;r>++-6= {rn {rn {rn {gnh |
  1
,+->687+r<*-): {rn oqnfmfnllgjgkfffgoi roqlhklonofhnjoooofl oqonfiimmokhoooolgkf gqngfonnlgfnijiokl:rolo n mqlhholjlimfojmgnm:ronk V V |
  1
<0:;8: {rn {gmo {fhk {fjj {fhj n {nlo {rn |
  1
:;8: {fhi {ggg {fio {ggl {fhh o |
  1
/+36,+r3(;r>++-6= {rn {rn {rn {gmn |
  1
,+->687+r<*-): {rn oqnfmfnllgjgkfffgoi oqkjmhjjfojjjooomhg oqomfjokhmkkoooojonn lqkkjojmkolohmifol:roni mqkkfmnmhohikkhjkj:roni n V V |
  1
-:9@)+r3(;r>++-6= {rn {rn {gmf {hlk {l {k |
  1
/+36,+r3(;r>++-6= {rn {rn {rn {glj |
  1
):-+:' {rn {gfg {fhg |
  1
,+->687+r<*-): {rn oqnfmfnllgjgkfffgoi roqkhljhjkghnlohklni oqonokjnljionlmfknnn mqmnkkliffggjhnkgk:roni oqhiiokkkklmjjogili oqikmhghiofjmkllnji V V |
  1
/+36,+r3(;r>++-6= {rn {rn {rn {glh |
  1
,+->687+r<*-): {rn roqnfmfnllgjgkfffgoi roqkgghlgfigfkhnnhhh roqoommhmlnjfgohnjfmmn n o rlqkkjojmkolohmifol:roni V V |
  1
/061+ {rn oqnfmfnllgjgkfffgoi roqkgghlgfigfkhnnhhh roqoommhmlnjfgohnjfmmn |
  1
/+36,+r3(;r>++-6= {rn {rn {rn {gkm |
  1
,+->687+r<*-): {rn roqnfmfnllgjgkfffgoi roqjnjhkgolnkjoooomj oqoonfkjiifloooomnnhj gqklhiiinmknohhlmn:rolm rn mqkkfmnmhohikkhjkj:roni V V |
  1
/061+ {rn roqnfmfnllgjgkfffgoi roqjnjhkgolnkjoooomj oqoonfkjiifloooomnnhj |
  1
<0:;8: {rn {gjo {fhf {fgo {fgn n {ni {rn |
  1
<0:;8: {rn {gin {gio {gjo {fmk o {gim {rn |
  1
:;8: {fgm {fmi {fgl {gjo {fgk o |
  1
/+36,+r3(;r>++-6= {rn {rn {rn {gjm |
  1
):-+:' {rn {gjm {fgj |
  1
,+->687+r<*-): {rn roqnfmfnllgjgkfffgoi roqhohjgmihnhkfffgml oqnmfnnnjnihoooomhi rlqljkomoinmhoginnf:roni roqmmglimfoihmgngjkl roqfhljhiohfilnjoifk V V |
  1
/061+ {rn roqnfmfnllgjgkfffgoi roqhohjgmihnhkfffgml oqnmfnnnjnihoooomhi |
  1
<0:;8: {rn {fgi {gjh {fgh {fgg n {nlo {rn |
  1
<0:;8: {rn {fgf {ffo {gjh {fln o {ffn {rn |
  1
:;8: {ffm {ffl {fli {flo {ffk o |
  1
<0:;8: {rn {fgo {gjg {gin {flg n {flk {rn |
  1
<0:;8: {rn {gjg {fgo {fgf {ffj o {flk {rn |
  1
300/ {rn {rn {gjg {ffi |
  1
/+36,+r3(;r>++-6= {rn {rn {rn {gjf |
  1
):-+:' {rn {ffj {ffh |
  1
,+->687+r<*-): {rn oqnfmfnllgjgkfffgoi roqilnkikhknikhmnmlk oqomhnkiilhfffljomfg lqklfihglhinhgffmj:roni oqojjgllgkggkmmjmkmi oqffgkkoohlfhhnlnhj V V |
  1
:;8: {ffg {fgl {gik {gin {fff o |
  1
9><: {nooo {gih {gim {i {rn {noon 90-(>-; ,6183: |
  1
/061+ {rn oqnfmfnllgjgkfffgoi roqilnkikhknikhmnmlk oqomhnkiilhfffljomfg |
  1
/+36,+r3(;r>++-6= {rn {rn {rn {gii |
  1
,+->687+r<*-): {rn roqnfmfnllgjgkfffgoi roqhmimgmgiiokfffhlh oqokflghmijooooomiml n o rlqkkjojmkolohmifol:roni V V |
  1
92:,7r3(;r>++-6= {rn {noom {rn {gih |
  1
/3>1:r,*-9><: {rn roqnfmfnllgjgkfffgoi roqhmimgmgiiokfffhlh oqokflghmijooooomiml hqgihmmngojfijffgm:ronh roqfhljhiohfilnjoifk oqmmglimfoihmgngjkl rn o lqkkjojmkolohmifol:roni o V V V V |
  1
-:9@)+r3(;r>++-6= {rn {rn {ghn {hhm {l {k |
  1
<0:;8: {rn {nool {ghk {nook {nooj n {ni {rn |
  1
<0:;8: {rn {nooi {nooh {ghk {fkg o {noog {rn |
  1
:;8: {noof {nono {fjl {ghk {nonn o |
  1
<0:;8: {rn {nonm {ghj {ghg {fji o {fjn {rn |
  1
<0:;8: {rn {ghj {nonm {nooi {nonl n {fjn {rn |
  1
300/ {rn {rn {nonm {nonk |
  1
/+36,+r3(;r>++-6= {rn {rn {rn {ghi |
  1
):-+:' {rn {fkg {nonj |
  1
:336/,:r<*-): {rn roqnfmfnllgjgkfffgoi oqjmlmmkggfijoookmk oqoigghkgolnooooogmj rn o lqkkjojmkolohmifol:roni rnqnigikkhmhojohohn:ronh oqonffgngmjmflolnni roqollfmmkohgjihfhogi n V V |
  1
<0:;8: {rn {ghg {ghh {fog {fhj o {ghf {rn |
  1
:;8: {noni {ggn {nonh {fkf {nong o |
  1
9><: {nonf {nonk {ghf {i {rn {nomo 90-(>-; ,6183: |
  1
/061+ {rn roqnfmfnllgjgkfffgoi oqjmlmmkggfijooomkh oqomfjokhmkkoooojonn |
  1
/+36,+r3(;r>++-6= {rn {rn {rn {ggk |
  1
):-+:' {rn {ggk {nomn |
  1
,+->687+r<*-): {rn roqnfmfnllgjgkfffgoi oqkhmkkofkkgfhojhmk oqomfjokhmkknnhhjnjm n o rlqkkjojmkolohmifol:roni V V |
  1
92:,7r3(;r>++-6= {rn {nomm {rn {ggj |
  1
<01:r,*-9><: {rn roqnfmfnllgjgkfffgoi oqkimjfgkmjmmiiifhm oqomkmjjlgojhfffiflm n o rlqkkjojmkolohmifol:roni lqgkmfoimnfkoifgjn:rong riqihohjonoifknkiol:ronm oqonnnjkgjjilooomhli n V V o n o V V V V |
  1
/061+ {rn oqnfmfnllgjgkfffgoi oqkjmhjjfojjjooomhg oqomfjokhmkkoooojonn |
  1
-:9@)+r3(;r>++-6= {rn {rn {gfo {hgf {l {k |
  1
/+36,+r3(;r>++-6= {rn {rn {rn {gfk |
  1
:336/,:r<*-): {rn roqnfmfnllgjgkfffgoi roqjnjhkgolnkjoonkkh roqogiilhoohfoonnlnlf n o rlqkkjojmkolohmifol:roni lqonjnhmgiomngfnjn:ronh oqonliigmnfnlllffnnm oqoghjmngmgimlgkkkjg n V V |
  1
/061+ {rn roqnfmfnllgjgkfffgoi roqkgghlgfigfkhnnhhh roqoommhmlnjfgohnjfmmn |
  1
/+36,+r3(;r>++-6= {rn {rn {rn {gfg |
  1
,+->687+r<*-): {rn roqnfmfnllgjgkfffgoi roqkhljhjkghnlohklni oqonokjnljionlmfknnn n o rlqkkjojmkolohmifol:roni V V |
  1
/061+ {rn oqnfmfnllgjgkfffgoi roqkkgmigggglkfffgji oqonfiimmokhoooolgkf |
  1
/+36,+r3(;r>++-6= {rn {rn {rn {foj |
  1
:336/,:r<*-): {rn oqnfmfnllgjgkfffgoi roqkkgmigggglkfffgji roqonfhohghlffffffonj rn o lqkkjojmkolohmifol:roni nqmhkjmlhkhmhgoljl:ronh roqonlkijljffjfhnijlm oqoliffjhhmklknjnljh n V V |
  1
<0:;8: {rn {fog {noml {nonm {nomk n {nlo {rn |
  1
:;8: {nomj {fio {nonh {fjj {nomi o |
  1
/+36,+r3(;r>++-6= {rn {rn {rn {fof |
  1
:336/,:r<*-): {rn oqnfmfnllgjgkfffgoi oqkimjfgkmjmmiiifhm oqomkmjjlgojhfffiflm rn o lqkkjojmkolohmifol:roni lqgkmfoimnfkoifgjn:rong riqihohjonoifknkiol:ronm oqonnnjkgjjilooomhli n V V |
  1
/061+ {rn oqnfmfnllgjgkfffgoi roqkhljhjkghnlohklni oqonokjnljionlmfknnn |
  1
<0:;8: {rn {fmm {nomh {nomg {nomf n {ni {rn |
  1
<0:;8: {rn {fll {flm {fmm {fgn o {flk {rn |
  1
:;8: {nolo {fgl {noln {fmm {nolm o |
  1
/+36,+r3(;r>++-6= {rn {rn {rn {fmk |
  1
):-+:' {rn {fmk {noll |
  1
,+->687+r<*-): {rn roqnfmfnllgjgkfffgoi roqhmimgmgiiokfffhlh oqokflghmijooooomiml rhqgihmmnhgifmkkiil:ronh oqfhljhiohfhinnjljh roqmmglimfoinhjkikln V V |
  1
/061+ {rn roqnfmfnllgjgkfffgoi roqhmimgmgiiokfffhlh oqokflghmijooooomiml |
  1
<0:;8: {rn {nolk {fmf {nolj {noli n {nlo {rn |
  1
<0:;8: {rn {nolh {nolg {fmf {fgg o {nolf {rn |
  1
:;8: {noko {nokn {ffl {fgh {nokm o |
  1
<0:;8: {rn {nomg {flo {fll {ffj n {ffn {rn |
  1
<0:;8: {rn {flo {nomg {nolh {nokl o {ffn {rn |
  1
300/ {rn {rn {flo {nokk |
  1
/+36,+r3(;r>++-6= {rn {rn {rn {fln |
  1
):-+:' {rn {nokl {nokj |
  1
:336/,:r<*-): {rn oqnfmfnllgjgkfffgoi roqinomlimmokkffgjgm roqnjjinkiomiooooofg rn o lqkkjojmkolohmifol:roni kqihmijhgimnjnngjj:rong roqolifjffkillolkojig oqonljillgigfikhihkh n V V |
  1
:;8: {noki {noln {fli {fll {nokh o |
  1
9><: {nokg {flf {flk {i {rn {nokf 90-(>-; ,6183: |
  1
/061+ {rn oqnfmfnllgjgkfffgoi roqikomiogjljikonlhk roqnlonkgkjglkjoimji |
  1
/+36,+r3(;r>++-6= {rn {rn {rn {flg |
  1
,+->687+r<*-): {rn roqnfmfnllgjgkfffgoi roqilnkikhknikhmnmlk oqomhnkiilhfffljomfg n o rlqkkjojmkolohmifol:roni V V |
  1
92:,7r3(;r>++-6= {rn {nojo {rn {flf |
  1
/3>1:r,*-9><: {rn roqnfmfnllgjgkfffgoi roqilnkikhknikhmnmlk oqomhnkiilhfffljomfg rlqljkomoinlnjjmjni:roni roqmmglimfoinhjkiklk roqfhljhiohfhinnjlig rn o lqkkjojmkolohmifol:roni o V V V V |
  1
-:9@)+r3(;r>++-6= {rn {rn {fkl {gih {l {k |
  1
<0:;8: {rn {nojn {fki {nojm {nojl n {ni {rn |
  1
<0:;8: {rn {nojk {nojj {fki {nooj o {noji {rn |
  1
:;8: {nojh {nojg {nono {fki {nojf o |
  1
<0:;8: {rn {noio {fkh {fjo {nonl o {noog {rn |
  1
<0:;8: {rn {fkh {noio {nojk {noin n {noog {rn |
  1
300/ {rn {rn {noio {noim |
  1
/+36,+r3(;r>++-6= {rn {rn {rn {fkg |
  1
):-+:' {rn {nooj {noil |
  1
,+->687+r<*-): {rn roqnfmfnllgjgkfffgoi oqjgfoholnnjjooolnn oqnoikjjhfnfoooomgh rlqonlnnohmljfijlih:roni roqkgkgofimolgngkini roqghkinfhohoikmgngl V V |
  1
<0:;8: {rn {fjo {fkf {fhk {nomk o {fjn {rn |
  1
:;8: {noik {fjl {noij {nooi {noii o |
  1
9><: {noih {noim {fjn {i {rn {noig 90-(>-; ,6183: |
  1
/061+ {rn roqnfmfnllgjgkfffgoi oqjjhijghliljmijnhl oqokfhghgnonfilghjoj |
  1
/+36,+r3(;r>++-6= {rn {rn {rn {fji |
  1
):-+:' {rn {fji {noif |
  1
,+->687+r<*-): {rn roqnfmfnllgjgkfffgoi oqjmlmmkggfijooomkh oqomfjokhmkkoooojonn n o rlqkkjojmkolohmifol:roni V V |
  1
92:,7r3(;r>++-6= {rn {noho {rn {fjh |
  1
/3>1:r,*-9><: {rn roqnfmfnllgjgkfffgoi oqkhmkkofkkgfhojhmk oqomfjokhmkknnhhjnjm lqkkjojmkolohmifol:roni mqlngoknjnmflnlnk:rono n n o rlqkkjojmkolohmifol:roni o V V V V |
  1
/061+ {rn oqnfmfnllgjgkfffgoi oqkhmkkofkkgfhojhmk oqomfjokhmkknnhhjnjm |
  1
-:9@)+r3(;r>++-6= {rn {rn {fim {ggj {l {k |
  1
<0:;8: {rn {fhk {nohn {noio {nohm n {nlo {rn |
  1
:;8: {nohl {nonh {noij {nonm {nohk o |
  1
/+36,+r3(;r>++-6= {rn {rn {rn {fhj |
  1
,+->687+r<*-): {rn oqnfmfnllgjgkfffgoi oqjmlmmkggfijooomkh oqomfjokhmkkoooojonn rhqfgjhhkkgkjkimhhm:romi n rmqlngoknjnmflnlnk:rono V V |
  1
<0:;8: {rn {fhf {nohj {nohi {nohh n {ni {rn |
  1
<0:;8: {rn {ffo {fgf {fhf {nomf o {ffn {rn |
  1
:;8: {nohg {noln {nohf {fhf {nogo o |
  1
/+36,+r3(;r>++-6= {rn {rn {rn {fgn |
  1
):-+:' {rn {fgn {nogn |
  1
,+->687+r<*-): {rn roqnfmfnllgjgkfffgoi roqilnkikhknikhmnmlk oqomhnkiilhfffljomfg rlqklfihglhinhgffmj:roni roqojjgllgkggkmmjmkmi roqffgkkoohlfhhnlnhj V V |
  1
/061+ {rn roqnfmfnllgjgkfffgoi roqilnkikhknikhmnmlk oqomhnkiilhfffljomfg |
  1
<0:;8: {rn {nogm {fgi {nogl {nogk n {nlo {rn |
  1
<0:;8: {rn {nogj {nogi {fgi {noli o {nogh {rn |
  1
:;8: {nogg {nogf {nokn {nolj {nofo o |
  1
<0:;8: {rn {nohi {fgh {ffo {nokl n {nolf {rn |
  1
<0:;8: {rn {fgh {nohi {nogj {nofn o {nolf {rn |
  1
300/ {rn {rn {fgh {nofm |
  1
/+36,+r3(;r>++-6= {rn {rn {rn {fgg |
  1
):-+:' {rn {nofn {nofl |
  1
,+->687+r<*-): {rn oqnfmfnllgjgkfffgoi roqikfioimffnkfffflk roqnjjinkiomjffffhkl lqkkjojmkolohmifol:roni mqkkfmnmhohikkhjkj:roni n V V |
  1
:;8: {nofk {nohf {ffl {ffo {nofj o |
  1
9><: {nofi {ffi {ffn {i {rn {nofh 90-(>-; ,6183: |
  1
/061+ {rn oqnfmfnllgjgkfffgoi roqikfioimffnkfffflk roqnjjinkiomjffffhkl |
  1
/+36,+r3(;r>++-6= {rn {rn {rn {ffj |
  1
,+->687+r<*-): {rn roqnfmfnllgjgkfffgoi roqikomiogjljikonlhk roqnlonkgkjglkjoimkj n o rlqkkjojmkolohmifol:roni V V |
  1
92:,7r3(;r>++-6= {rn {nofg {rn {ffi |
  1
/3>1:r,*-9><: {rn roqnfmfnllgjgkfffgoi roqikomiogjljikonlhk roqnlonkgkjglkjoimkj nqfmljojljnmihffn:ronh roqffgkkoohlfhhnlngi oqojjgllgkggkmmjmkll rn o lqkkjojmkolohmifol:roni o V V V V |
  1
-:9@)+r3(;r>++-6= {rn {rn {nooo {flf {l {k |
  1
<0:;8: {rn {noff {nool {nnoo {nnon n {ni {rn |
  1
<0:;8: {rn {nnom {nnol {nool {nojl o {nnok {rn |
  1
:;8: {nnoj {nnoi {nojg {nool {nnoh o |
  1
<0:;8: {rn {nnog {nook {nooh {noin o {noji {rn |
  1
<0:;8: {rn {nook {nnog {nnom {nnof n {noji {rn |
  1
300/ {rn {rn {nnog {nnno |
  1
/+36,+r3(;r>++-6= {rn {rn {rn {nooj |
  1
):-+:' {rn {nojl {nnnn |
  1
:336/,:r<*-): {rn roqnfmfnllgjgkfffgoi oqjhghkonjhjkofmjgf oqnnmngnggfhgliofn rn o lqkkjojmkolohmifol:roni mqlimgjigmnionjlfh:rong oqoofinjjlhinfnfohmjn oqooigjgifilnlmgnmjif n V V |
  1
<0:;8: {rn {nooh {nooi {noml {nohm o {noog {rn |
  1
:;8: {nnnm {nono {nnnl {nojk {nnnk o |
  1
9><: {nnnj {nnno {noog {i {rn {nnni 90-(>-; ,6183: |
  1
/061+ {rn roqnfmfnllgjgkfffgoi oqjgfoholnnjjooolnn oqnoikjjhfnfoooomgh |
  1
/+36,+r3(;r>++-6= {rn {rn {rn {nonl |
  1
):-+:' {rn {nonl {nnnh |
  1
,+->687+r<*-): {rn roqnfmfnllgjgkfffgoi oqjjhijghliljmijnhl oqokfhghgnonfilghjoj n o rlqkkjojmkolohmifol:roni V V |
  1
92:,7r3(;r>++-6= {rn {nnng {rn {nonk |
  1
<01:r,*-9><: {rn roqnfmfnllgjgkfffgoi oqjmlmmkggfijoookmk oqoigghkgolnooooogmj n o rlqkkjojmkolohmifol:roni rnqnigikkhmhojohohn:ronh oqonffgngmjmflolnni roqollfmmkohgjihfhogi n V V o rn o V V V V |
  1
/061+ {rn oqnfmfnllgjgkfffgoi oqjmlmmkggfijooomkh oqomfjokhmkkoooojonn |
  1
-:9@)+r3(;r>++-6= {rn {rn {nonf {fjh {l {k |
  1
<0:;8: {rn {noml {nnnf {nnog {nnmo n {nlo {rn |
  1
:;8: {nnmn {noij {nnnl {noio {nnmm o |
  1
/+36,+r3(;r>++-6= {rn {rn {rn {nomk |
  1
:336/,:r<*-): {rn oqnfmfnllgjgkfffgoi oqjmlmmkggfijoookmk oqoigghkgolnooooohh n o rlqkkjojmkolohmifol:roni rnqnigikkhmhojohohn:ronh oqonffgngmjmflolnni roqollfmmkohgjihfhogi n V V |
  1
<0:;8: {rn {nomh {nnml {nnmk {nnmj n {ni {rn |
  1
<0:;8: {rn {nolg {nolh {nomh {nohh o {nolf {rn |
  1
:;8: {nnmi {nohf {nnmh {nomh {nnmg o |
  1
/+36,+r3(;r>++-6= {rn {rn {rn {nomf |
  1
):-+:' {rn {nomf {nnmf |
  1
:336/,:r<*-): {rn roqnfmfnllgjgkfffgoi roqinomlimmokkffgjgm roqnjjinkiomiooooogh n o rlqkkjojmkolohmifol:roni kqihmijhgimnjnngjj:rong roqolifjffkillolkojig oqonljillgigfikhihkh n V V |
  1
/061+ {rn roqnfmfnllgjgkfffgoi roqikomiogjljikonlhk roqnlonkgkjglkjoimkj |
  1
<0:;8: {rn {nnlo {nolk {nnln {nnlm n {nlo {rn |
  1
<0:;8: {rn {nnll {nnlk {nolk {nogk o {nnlj {rn |
  1
:;8: {nnli {nnlh {nogf {nogl {nnlg o |
  1
<0:;8: {rn {nnmk {nolj {nolg {nofn n {nogh {rn |
  1
<0:;8: {rn {nolj {nnmk {nnll {nnlf o {nogh {rn |
  1
300/ {rn {rn {nolj {nnko |
  1
/+36,+r3(;r>++-6= {rn {rn {rn {noli |
  1
):-+:' {rn {nnlf {nnkn |
  1
:336/,:r<*-): {rn oqnfmfnllgjgkfffgoi roqjlnkfioimfjoooihl rnqiilkogiinkoooomg rn o lqkkjojmkolohmifol:roni rmqghhnggghilhhfjni:ronh roqogljnijkgfkkjiomkj roqogljnijkgfkkjiomng n V V |
  1
:;8: {nnkm {nnmh {nokn {nolg {nnkl o |
  1
9><: {nnkk {nokk {nolf {i {rn {nnkj 90-(>-; ,6183: |
  1
/061+ {rn oqnfmfnllgjgkfffgoi roqikfioimffnjooonnm rnqiilkogiinlffffjh |
  1
/+36,+r3(;r>++-6= {rn {rn {rn {nokl |
  1
,+->687+r<*-): {rn roqnfmfnllgjgkfffgoi roqikfioimffnkfffflk roqnjjinkiomjffffhlm n o rlqkkjojmkolohmifol:roni V V |
  1
92:,7r3(;r>++-6= {rn {nnki {rn {nokk |
  1
<01:r,*-9><: {rn roqnfmfnllgjgkfffgoi roqinomlimmokkffgjgm roqnjjinkiomiooooogh n o rlqkkjojmkolohmifol:roni kqihmijhgimnjnngjj:rong roqolifjffkillolkojig oqonljillgigfikhihkh n V V o n o V V V V |
  1
-:9@)+r3(;r>++-6= {rn {rn {nokg {ffi {l {k |
  1
<0:;8: {rn {nnkh {nojn {nnkg {nnkf n {ni {rn |
  1
<0:;8: {rn {nnjo {nnjn {nojn {nnon o {nnjm {rn |
  1
:;8: {nnjl {nnjk {nnoi {nojn {nnjj o |
  1
<0:;8: {rn {nnji {nojm {nojj {nnof o {nnok {rn |
  1
<0:;8: {rn {nojm {nnji {nnjo {nnjh n {nnok {rn |
  1
300/ {rn {rn {nnji {nnjg |
  1
/+36,+r3(;r>++-6= {rn {rn {rn {nojl |
  1
):-+:' {rn {nnon {nnjf |
  1
,+->687+r<*-): {rn roqnfmfnllgjgkfffgoi oqjinnoiogogjooomg oqnmnoijhjkooooomil jqfgmmhoiikhlnkiin:ronh oqfgkgohhjlmgmglijk oqnhlikgnhinlmnnfog V V |
  1
<0:;8: {rn {nojj {nojk {nohn {nnmo o {noji {rn |
  1
:;8: {nnio {nojg {nnin {nnom {nnim o |
  1
9><: {nnil {nnjg {noji {i {rn {nnik 90-(>-; ,6183: |
  1
/061+ {rn roqnfmfnllgjgkfffgoi oqjhiigfnfkgmjiikfk oqnmlgnlkhhknmlmjgj |
  1
/+36,+r3(;r>++-6= {rn {rn {rn {noin |
  1
):-+:' {rn {noin {nnij |
  1
,+->687+r<*-): {rn roqnfmfnllgjgkfffgoi oqjgfoholnnjjooolnn oqnoikjjhfnfoooomgh n o rlqkkjojmkolohmifol:roni V V |
  1
92:,7r3(;r>++-6= {rn {nnii {rn {noim |
  1
/3>1:r,*-9><: {rn roqnfmfnllgjgkfffgoi oqjjhijghliljmijnhl oqokfhghgnonfilghjoj nqihonfkjkhhmfmlgm:roni roqghkinfhohoikmgnfk oqkgkgofimolgngkimm rn o lqkkjojmkolohmifol:roni o V V V V |
  1
/061+ {rn oqnfmfnllgjgkfffgoi oqjjhijghliljmijnhl oqokfhghgnonfilghjoj |
  1
-:9@)+r3(;r>++-6= {rn {rn {noih {nonk {l {k |
  1
<0:;8: {rn {nohn {nnih {nnji {nnig n {nlo {rn |
  1
:;8: {nnif {nnnl {nnin {nnog {nnho o |
  1
/+36,+r3(;r>++-6= {rn {rn {rn {nohm |
  1
,+->687+r<*-): {rn oqnfmfnllgjgkfffgoi oqjgfoholnnjjooolnn oqnoikjjhfnfoooomgm lqonlnnohmljfijlih:roni oqkgkgofimolgngkini oqghkinfhohoikmgngl V V |
  1
<0:;8: {rn {nohj {nnhn {nnhm {nnhl n {ni {rn |
  1
<0:;8: {rn {nogi {nogj {nohj {nnmj o {nogh {rn |
  1
:;8: {nnhk {nnmh {nnhj {nohj {nnhi o |
  1
/+36,+r3(;r>++-6= {rn {rn {rn {nohh |
  1
):-+:' {rn {nohh {nnhh |
  1
,+->687+r<*-): {rn roqnfmfnllgjgkfffgoi roqikfioimffnkfffflk roqnjjinkiomjffffhlm rlqkkjojmkolohmifol:roni rmqkkfmnmhohikkhjkj:roni rn V V |
  1
/061+ {rn roqnfmfnllgjgkfffgoi roqikfioimffnkfffflk roqnjjinkiomjffffhlm |
  1
<0:;8: {rn {nnhg {nogm {nnhf {nngo n {nlo {rn |
  1
<0:;8: {rn {nngn {nngm {nogm {nnlm o {nngl {rn |
  1
:;8: {nngk {nngj {nnlh {nnln {nngi o |
  1
<0:;8: {rn {nnhm {nogl {nogi {nnlf n {nnlj {rn |
  1
<0:;8: {rn {nogl {nnhm {nngn {nngh o {nnlj {rn |
  1
300/ {rn {rn {nogl {nngg |
  1
/+36,+r3(;r>++-6= {rn {rn {rn {nogk |
  1
):-+:' {rn {nngh {nngf |
  1
,+->687+r<*-): {rn oqnfmfnllgjgkfffgoi roqjlnkfioimfjooonk rnqhgnjnggfhjffffgf gqklhiiinmknohhlmn:rolm rn mqkkfmnmhohikkhjkj:roni V V |
  1
:;8: {nnfo {nnhj {nogf {nogi {nnfn o |
  1
9><: {nnfm {nofm {nogh {i {rn {nnfl 90-(>-; ,6183: |
  1
/061+ {rn oqnfmfnllgjgkfffgoi roqjlnkfioimfjooonk rnqhgnjnggfhjffffgf |
  1
/+36,+r3(;r>++-6= {rn {rn {rn {nofn |
  1
,+->687+r<*-): {rn roqnfmfnllgjgkfffgoi roqikfioimffnjooonnm rnqiilkogiinlffffjh n o rlqkkjojmkolohmifol:roni V V |
  1
92:,7r3(;r>++-6= {rn {nnfk {rn {nofm |
  1
/3>1:r,*-9><: {rn roqnfmfnllgjgkfffgoi roqikfioimffnjooonnm rnqiilkogiinlffffjh gqklhiiinmknohhlmn:rolm rn mqkkfmnmhohikkhjkj:roni rn o lqkkjojmkolohmifol:roni o V V V V |
  1
-:9@)+r3(;r>++-6= {rn {rn {nofi {nokk {l {k |
  1
<0:;8: {rn {nnfj {noff {nnfi {nnfh n {ni {rn |
  1
<0:;8: {rn {nnfg {nnff {noff {nnkf o {nmoo {rn |
  1
:;8: {nmon {nmom {nnjk {noff {nmol o |
  1
<0:;8: {rn {nmok {nnoo {nnol {nnjh o {nnjm {rn |
  1
<0:;8: {rn {nnoo {nmok {nnfg {nmoj n {nnjm {rn |
  1
300/ {rn {rn {nmok {nmoi |
  1
/+36,+r3(;r>++-6= {rn {rn {rn {nnon |
  1
):-+:' {rn {nnkf {nmoh |
  1
:336/,:r<*-): {rn roqnfmfnllgjgkfffgoi oqjjfojjnngnlkmhmgf oqnlmifhlknjffnlmlg n o rlqkkjojmkolohmifol:roni rmqinillfjjiglhhgml:rong roqoofokjiiifniihjmfjj roqoohjfkkgkoimnknjooi n V V |
  1
<0:;8: {rn {nnol {nnom {nnnf {nnig o {nnok {rn |
  1
:;8: {nmog {nnoi {nmof {nnjo {nmno o |
  1
9><: {nmnn {nmoi {nnok {i {rn {nmnm 90-(>-; ,6183: |
  1
/061+ {rn roqnfmfnllgjgkfffgoi oqjinnoiogogjooomg oqnmnoijhjkooooomil |
  1
/+36,+r3(;r>++-6= {rn {rn {rn {nnof |
  1
):-+:' {rn {nnof {nmnl |
  1
,+->687+r<*-): {rn roqnfmfnllgjgkfffgoi oqjhiigfnfkgmjiikfk oqnmlgnlkhhknmlmjgj n o rlqkkjojmkolohmifol:roni V V |
  1
92:,7r3(;r>++-6= {rn {nmnk {rn {nnno |
  1
<01:r,*-9><: {rn roqnfmfnllgjgkfffgoi oqjhghkonjhjkofmjgf oqnnmngnggfhgliofn n o rlqkkjojmkolohmifol:roni mqlimgjigmnionjlfh:rong oqoofinjjlhinfnfohmjn oqooigjgifilnlmgnmjif n V V o rn o V V V V |
  1
/061+ {rn oqnfmfnllgjgkfffgoi oqjgfoholnnjjooolnn oqnoikjjhfnfoooomgm |
  1
-:9@)+r3(;r>++-6= {rn {rn {nnnj {noim {l {k |
  1
<0:;8: {rn {nnnf {nmnj {nmok {nmni n {nlo {rn |
  1
:;8: {nmnh {nnin {nmof {nnji {nmng o |
  1
/+36,+r3(;r>++-6= {rn {rn {rn {nnmo |
  1
:336/,:r<*-): {rn oqnfmfnllgjgkfffgoi oqjhghkonjhjkofmjgf oqnnmngnggfhgliofoj n o rlqkkjojmkolohmifol:roni mqlimgjigmnionjlfh:rong oqoofinjjlhinfnfohmjn oqooigjgifilnlmgnmjif n V V |
  1
<0:;8: {rn {nnml {nmnf {nmmo {nmmn n {ni {rn |
  1
<0:;8: {rn {nnlk {nnll {nnml {nnhl o {nnlj {rn |
  1
:;8: {nmmm {nnhj {nmml {nnml {nmmk o |
  1
/+36,+r3(;r>++-6= {rn {rn {rn {nnmj |
  1
):-+:' {rn {nnmj {nmmj |
  1
:336/,:r<*-): {rn roqnfmfnllgjgkfffgoi roqjlnkfioimfjoooihl rnqiilkogiinkoooomg n o rlqkkjojmkolohmifol:roni rmqghhnggghilhhfjni:ronh roqogljnijkgfkkjiomkj roqogljnijkgfkkjiomng n V V |
  1
/061+ {rn roqnfmfnllgjgkfffgoi roqikfioimffnjooonnm rnqiilkogiinlffffjh |
  1
<0:;8: {rn {nmmi {nnlo {nmmh {nmmg n {nlo {rn |
  1
<0:;8: {rn {nmmf {nmlo {nnlo {nngo o {nmln {rn |
  1
:;8: {nmlm {nmll {nngj {nnhf {nmlk o |
  1
<0:;8: {rn {nmmo {nnln {nnlk {nngh n {nngl {rn |
  1
<0:;8: {rn {nnln {nmmo {nmmf {nmlj o {nngl {rn |
  1
300/ {rn {rn {nnln {nmli |
  1
/+36,+r3(;r>++-6= {rn {rn {rn {nnlm |
  1
):-+:' {rn {nmlj {nmlh |
  1
:336/,:r<*-): {rn oqnfmfnllgjgkfffgoi oqjlnkfioilokfffhgi rnqiilkogiinlffffmn rn o lqkkjojmkolohmifol:roni rmqghhnggghilhgmhhh:ronh oqogljnijkgfkkjihnkl roqogljnijkgfkkjifigm n V V |
  1
:;8: {nmlg {nmml {nnlh {nnlk {nmlf o |
  1
9><: {nmko {nnko {nnlj {i {rn {nmkn 90-(>-; ,6183: |
  1
/061+ {rn oqnfmfnllgjgkfffgoi oqjlnkfioilokffffil rnqhgnjnggfhjffffgf |
  1
/+36,+r3(;r>++-6= {rn {rn {rn {nnlf |
  1
,+->687+r<*-): {rn roqnfmfnllgjgkfffgoi roqjlnkfioimfjooonk rnqhgnjnggfhjffffgf n o rlqkkjojmkolohmifol:roni V V |
  1
92:,7r3(;r>++-6= {rn {nmkm {rn {nnko |
  1
<01:r,*-9><: {rn roqnfmfnllgjgkfffgoi roqjlnkfioimfjoooihl rnqiilkogiinkoooomg n o rlqkkjojmkolohmifol:roni rmqghhnggghilhhfjni:ronh roqogljnijkgfkkjiomkj roqogljnijkgfkkjiomng n V V o n o V V V V |
  1
-:9@)+r3(;r>++-6= {rn {rn {nnkk {nofm {l {k |
  1
<0:;8: {rn {nmkl {nnkh {nmkk {nmkj n {ni {rn |
  1
<0:;8: {rn {nmki {nmkh {nnkh {nnfh o {nmkg {rn |
  1
:;8: {nmkf {nmjo {nmom {nnkh {nmjn o |
  1
<0:;8: {rn {nmjm {nnkg {nnjn {nmoj o {nmoo {rn |
  1
<0:;8: {rn {nnkg {nmjm {nmki {nmjl n {nmoo {rn |
  1
300/ {rn {rn {nmjm {nmjk |
  1
/+36,+r3(;r>++-6= {rn {rn {rn {nnkf |
  1
):-+:' {rn {nnfh {nmjj |
  1
:336/,:r<*-): {rn roqnfmfnllgjgkfffgoi oqjfhmojoflilokffji oqnnggljgongnnnnnjl n o rlqkkjojmkolohmifol:roni nqkhgkgihnnmmfhllh:ronh roqolooihfhgflkfojhkf oqokmfnimlmgjljjifnn n V V |
  1
<0:;8: {rn {nnjn {nnjo {nnih {nmni o {nnjm {rn |
  1
:;8: {nmji {nnjk {nmjh {nnfg {nmjg o |
  1
9><: {nmjf {nmjk {nnjm {i {rn {nmio 90-(>-; ,6183: |
  1
/061+ {rn roqnfmfnllgjgkfffgoi oqjkhfjknjnjmokngmi oqnlihlogolflonknnk |
  1
/+36,+r3(;r>++-6= {rn {rn {rn {nnjh |
  1
):-+:' {rn {nnjh {nmin |
  1
,+->687+r<*-): {rn roqnfmfnllgjgkfffgoi oqjinnoiogogjooomg oqnmnoijhjkooooomil n o rlqkkjojmkolohmifol:roni V V |
  1
92:,7r3(;r>++-6= {rn {nmim {rn {nnjg |
  1
/3>1:r,*-9><: {rn roqnfmfnllgjgkfffgoi oqjhiigfnfkgmjiikfk oqnmlgnlkhhknmlmjgj rlqlfmhnklnhonnijli:roni oqnhlikgnhinlmnnfnn roqfgkgohhjlmgmgliij rn o lqkkjojmkolohmifol:roni o V V V V |
  1
/061+ {rn oqnfmfnllgjgkfffgoi oqjhiigfnfkgmjiikfk oqnmlgnlkhhknmlmjhf |
  1
-:9@)+r3(;r>++-6= {rn {rn {nnil {nnno {l {k |
  1
<0:;8: {rn {nnih {nmil {nmjm {nmik n {nlo {rn |
  1
:;8: {nmij {nmof {nmjh {nmok {nmii o |
  1
/+36,+r3(;r>++-6= {rn {rn {rn {nnig |
  1
,+->687+r<*-): {rn oqnfmfnllgjgkfffgoi oqjinnoiogogjooomg oqnmnoijhjkooooomjg rjqfgmmhoiikhlnkiin:ronh roqfgkgohhjlmgmglijk roqnhlikgnhinlmnnfog V V |
  1
<0:;8: {rn {nnhn {nmih {nmig {nmif n {ni {rn |
  1
<0:;8: {rn {nngm {nngn {nnhn {nmmn o {nngl {rn |
  1
:;8: {nmho {nmml {nmhn {nnhn {nmhm o |
  1
/+36,+r3(;r>++-6= {rn {rn {rn {nnhl |
  1
):-+:' {rn {nnhl {nmhl |
  1
,+->687+r<*-): {rn roqnfmfnllgjgkfffgoi roqjlnkfioimfjooonk rnqhgnjnggfhjffffgf rgqklhiiinmknohhlmn:rolm n rmqkkfmnmhohikkhjkj:roni V V |
  1
/061+ {rn roqnfmfnllgjgkfffgoi roqjlnkfioimfjooonk rnqhgnjnggfhjffffgf |
  1
<0:;8: {rn {nmhk {nnhg {nmhj {nmhi n {nlo {rn |
  1
<0:;8: {rn {nmhh {nmhg {nnhg {nmmg o {nmhf {rn |
  1
:;8: {nmgo {nmgn {nmll {nmmh {nmgm o |
  1
<0:;8: {rn {nmig {nnhf {nngm {nmlj n {nmln {rn |
  1
<0:;8: {rn {nnhf {nmig {nmhh {nmgl o {nmln {rn |
  1
300/ {rn {rn {nnhf {nmgk |
  1
/+36,+r3(;r>++-6= {rn {rn {rn {nngo |
  1
):-+:' {rn {nmgl {nmgj |
  1
,+->687+r<*-): {rn oqnfmfnllgjgkfffgoi oqikfioimffmjooomfn rnqiilkogiinlffffjh rlqkkjojmkolohmifol:roni mqonnojnfnjmgmgihi:ronj rn V V |
  1
:;8: {nmgi {nmhn {nngj {nngm {nmgh o |
  1
9><: {nmgg {nngg {nngl {i {rn {nmgf 90-(>-; ,6183: |
  1
/061+ {rn oqnfmfnllgjgkfffgoi oqikfioimffmjooomfn rnqiilkogiinlffffjh |
  1
/+36,+r3(;r>++-6= {rn {rn {rn {nngh |
  1
,+->687+r<*-): {rn roqnfmfnllgjgkfffgoi oqjlnkfioilokffffil rnqhgnjnggfhjffffgf n o rlqkkjojmkolohmifol:roni V V |
  1
92:,7r3(;r>++-6= {rn {nmfo {rn {nngg |
  1
/3>1:r,*-9><: {rn roqnfmfnllgjgkfffgoi oqjlnkfioilokffffil rnqhgnjnggfhjffffgf rlqkkjojmkolohmifol:roni rmqkkfmnmhohikkhjkj:roni rn rn o lqkkjojmkolohmifol:roni o V V V V |
  1
-:9@)+r3(;r>++-6= {rn {rn {nnfm {nnko {l {k |
  1
<0:;8: {rn {nmih {nnfj {nmfn {nmfm n {ni {rn |
  1
<0:;8: {rn {nmfl {nmfk {nnfj {nmkj o {nmfj {rn |
  1
:;8: {nmfi {nmfh {nmjo {nnfj {nmfg o |
  1
<0:;8: {rn {nmff {nnfi {nnff {nmjl o {nmkg {rn |
  1
<0:;8: {rn {nnfi {nmff {nmfl {nloo n {nmkg {rn |
  1
300/ {rn {rn {nmff {nlon |
  1
/+36,+r3(;r>++-6= {rn {rn {rn {nnfh |
  1
):-+:' {rn {nmkj {nlom |
  1
,+->687+r<*-): {rn roqnfmfnllgjgkfffgoi oqinigfonlmhjooomhn oqnhnmlhoohfoooomfi gqklhiiinmknohhlmn:rolm rn mqkkfmnmhohikkhjkj:roni V V |
  1
<0:;8: {rn {nnff {nnfg {nmnj {nmik o {nmoo {rn |
  1
:;8: {nlol {nmom {nlok {nmki {nloj o |
  1
9><: {nloi {nlon {nmoo {i {rn {nloh 90-(>-; ,6183: |
  1
/061+ {rn roqnfmfnllgjgkfffgoi oqjfhmojoflkjooomnh oqnhnmlhoohfoooomfi |
  1
/+36,+r3(;r>++-6= {rn {rn {rn {nmoj |
  1
):-+:' {rn {nmoj {nlog |
  1
,+->687+r<*-): {rn roqnfmfnllgjgkfffgoi oqjkhfjknjnjmokngmi oqnlihlogolflonknnk n o rlqkkjojmkolohmifol:roni V V |
  1
92:,7r3(;r>++-6= {rn {nlof {rn {nmoi |
  1
<01:r,*-9><: {rn roqnfmfnllgjgkfffgoi oqjjfojjnngnlkmhmgf oqnlmifhlknjffnlmlg n o rlqkkjojmkolohmifol:roni rmqinillfjjiglhhgml:rong roqoofokjiiifniihjmfjj roqoohjfkkgkoimnknjooi n V V o n o V V V V |
  1
/061+ {rn oqnfmfnllgjgkfffgoi oqjinnoiogogjooomg oqnmnoijhjkooooomjg |
  1
-:9@)+r3(;r>++-6= {rn {rn {nmnn {nnjg {l {k |
  1
<0:;8: {rn {nmnj {nmhk {nmff {nlno n {nlo {rn |
  1
:;8: {nlnn {nmjh {nlok {nmjm {nlnm o |
  1
/+36,+r3(;r>++-6= {rn {rn {rn {nmni |
  1
:336/,:r<*-): {rn oqnfmfnllgjgkfffgoi oqjjfojjnngnlkmhmgf oqnlmifhlknjffnlmlm rn o lqkkjojmkolohmifol:roni rmqinillfjjiglhhgml:rong roqoofokjiiifniihjmfjj roqoohjfkkgkoimnknjooi n V V |
  1
<0:;8: {rn {nmnf {nmkl {nlnl {nlnk n {ni {rn |
  1
<0:;8: {rn {nmlo {nmmf {nmnf {nmif o {nmln {rn |
  1
:;8: {nlnj {nmhn {nlni {nmnf {nlnh o |
  1
/+36,+r3(;r>++-6= {rn {rn {rn {nmmn |
  1
):-+:' {rn {nmmn {nlng |
  1
:336/,:r<*-): {rn roqnfmfnllgjgkfffgoi oqjlnkfioilokfffhgi rnqiilkogiinlffffmn n o rlqkkjojmkolohmifol:roni rmqghhnggghilhgmhhh:ronh oqogljnijkgfkkjihnkl roqogljnijkgfkkjifigm n V V |
  1
/061+ {rn roqnfmfnllgjgkfffgoi oqjlnkfioilokffffil rnqhgnjnggfhjffffgf |
  1
<0:;8: {rn {nmil {nmmi {nlnf {nlmo n {nlo {rn |
  1
<0:;8: {rn {nlmn {nlmm {nmmi {nmhi o {nlml {rn |
  1
:;8: {nlmk {nlmj {nmgn {nmhj {nlmi o |
  1
<0:;8: {rn {nlnl {nmmh {nmlo {nmgl n {nmhf {rn |
  1
<0:;8: {rn {nmmh {nlnl {nlmn {nlmh o {nmhf {rn |
  1
300/ {rn {rn {nmmh {nlmg |
  1
/+36,+r3(;r>++-6= {rn {rn {rn {nmmg |
  1
):-+:' {rn {nlmh {nlmf |
  1
,+->687+r<*-): {rn oqnfmfnllgjgkfffgoi oqikfioimffmjooomfn roqoggiojjnnhffffgmi rmqfgljomgfikijminm:roni roqjoooooooofghjggig roqgiiomjkolmnkmjlfm V V |
  1
:;8: {nllo {nlni {nmll {nmlo {nlln o |
  1
9><: {nllm {nmli {nmln {i {rn {nlll 90-(>-; ,6183: |
  1
/061+ {rn oqnfmfnllgjgkfffgoi oqikfioimffmjooomfn roqoggiojjnnhffffgmi |
  1
/+36,+r3(;r>++-6= {rn {rn {rn {nmlj |
  1
,+->687+r<*-): {rn roqnfmfnllgjgkfffgoi oqikfioimffmjooomfn rnqiilkogiinlffffjh n o rlqkkjojmkolohmifol:roni V V |
  1
92:,7r3(;r>++-6= {rn {nllk {rn {nmli |
  1
<01:r,*-9><: {rn roqnfmfnllgjgkfffgoi oqjlnkfioilokfffhgi rnqiilkogiinlffffmn n o rlqkkjojmkolohmifol:roni rmqghhnggghilhgmhhh:ronh oqogljnijkgfkkjihnkl roqogljnijkgfkkjifigm n V V o n o V V V V |
  1
-:9@)+r3(;r>++-6= {rn {rn {nmko {nngg {l {k |
  1
<0:;8: {rn {nlmm {nlmn {nmkl {nmfm o {nlml {rn |
  1
:;8: {nllj {nlli {nmfh {nmkl {nllh o |
  1
<0:;8: {rn {nlnf {nmkk {nmkh {nloo o {nmfj {rn |
  1
<0:;8: {rn {nmkk {nlnf {nlmm {nllg n {nmfj {rn |
  1
300/ {rn {rn {nlnf {nllf |
  1
/+36,+r3(;r>++-6= {rn {rn {rn {nmkj |
  1
):-+:' {rn {nmfm {nlko |
  1
:336/,:r<*-): {rn roqnfmfnllgjgkfffgoi oqinigfonlmimfmfmnj oqnnggljgonghfmfjmn n o rlqkkjojmkolohmifol:roni nqmhijolgnkhioikmk:ronh oqolhojlmkgnnfjfhihi oqolhojlmkgnnfjfikoi n V V |
  1
<0:;8: {rn {nmkh {nmki {nmil {nlno o {nmkg {rn |
  1
:;8: {nlkn {nmjo {nlkm {nmfl {nlkl o |
  1
9><: {nlkk {nllf {nmkg {i {rn {nlkj 90-(>-; ,6183: |
  1
/061+ {rn roqnfmfnllgjgkfffgoi oqinigfonlmhjooomhn oqnhnmlhoohfoooomfi |
  1
/+36,+r3(;r>++-6= {rn {rn {rn {nmjl |
  1
):-+:' {rn {nmjl {nlki |
  1
,+->687+r<*-): {rn roqnfmfnllgjgkfffgoi oqjfhmojoflkjooomnh oqnhnmlhoohfoooomfi n o rlqkkjojmkolohmifol:roni V V |
  1
92:,7r3(;r>++-6= {rn {nlkh {rn {nmjk |
  1
<01:r,*-9><: {rn roqnfmfnllgjgkfffgoi oqjfhmojoflilokffji oqnnggljgongnnnnnjl n o rlqkkjojmkolohmifol:roni nqkhgkgihnnmmfhllh:ronh roqolooihfhgflkfojhkf oqokmfnimlmgjljjifnn n V V o n o V V V V |
  1
/061+ {rn oqnfmfnllgjgkfffgoi oqjkhfjknjnjmokngmi oqnlihlogolflonknof |
  1
-:9@)+r3(;r>++-6= {rn {rn {nmjf {nmoi {l {k |
  1
:;8: {nlkg {nlok {nlkm {nmff {nlkf o |
  1
/+36,+r3(;r>++-6= {rn {rn {rn {nmik |
  1
:336/,:r<*-): {rn oqnfmfnllgjgkfffgoi oqjfhmojoflilokffji oqnnggljgongnnnnnkh rn o lqkkjojmkolohmifol:roni nqkhgkgihnnmmfhllh:ronh roqolooihfhgflkfojhkf oqokmfnimlmgjljjifnn n V V |
  1
<0:;8: {rn {nmhg {nmhh {nmih {nlnk o {nmhf {rn |
  1
:;8: {nljo {nlni {nlli {nmih {nljn o |
  1
/+36,+r3(;r>++-6= {rn {rn {rn {nmif |
  1
):-+:' {rn {nmif {nljm |
  1
,+->687+r<*-): {rn roqnfmfnllgjgkfffgoi oqikfioimffmjooomfn rnqiilkogiinlffffjh lqkkjojmkolohmifol:roni rmqonnojnfnjmgmgihi:ronj n V V |
  1
/061+ {rn roqnfmfnllgjgkfffgoi oqikfioimffmjooomfn rnqiilkogiinlffffjh |
  1
<0:;8: {rn {nmfk {nmfl {nmhk {nlmo o {nmfj {rn |
  1
:;8: {nljl {nlkm {nlmj {nlnf {nljk o |
  1
<0:;8: {rn {nmfn {nmhj {nmhg {nlmh n {nlml {rn |
  1
<0:;8: {rn {nmhj {nmfn {nmfk {nllg o {nlml {rn |
  1
300/ {rn {rn {nmhj {nljj |
  1
/+36,+r3(;r>++-6= {rn {rn {rn {nmhi |
  1
):-+:' {rn {nllg {nlji |
  1
,+->687+r<*-): {rn oqnfmfnllgjgkfffgoi oqiifmfnllgijooonig roqojkjnoomlkffffgoim rlqkkjojmkolohmifol:roni rmqkkfmnmhohikkhjkj:roni rn V V |
  1
:;8: {nljh {nlli {nmgn {nmhg {nljg o |
  1
9><: {nljf {nmgk {nmhf {i {rn {nlio 90-(>-; ,6183: |
  1
/061+ {rn oqnfmfnllgjgkfffgoi oqiifmfnllgijooonig roqojkjnoomlkffffgoim |
  1
/+36,+r3(;r>++-6= {rn {rn {rn {nmgl |
  1
,+->687+r<*-): {rn roqnfmfnllgjgkfffgoi oqikfioimffmjooomfn roqoggiojjnnhffffgnkf n o rlqkkjojmkolohmifol:roni V V |
  1
92:,7r3(;r>++-6= {rn {nlin {rn {nmgk |
  1
/3>1:r,*-9><: {rn roqnfmfnllgjgkfffgoi oqikfioimffmjooomfn roqoggiojjnnhffffgnkf iqfmgnhfmllkkfnhfh:roln n mqonnojnfnjmgmgihi:ronj n o rlqkkjojmkolohmifol:roni o V V V V |
  1
-:9@)+r3(;r>++-6= {rn {rn {nmgg {nmli {l {k |
  1
/+36,+r3(;r>++-6= {rn {rn {rn {nmfm |
  1
):-+:' {rn {nlnk {nlim |
  1
,+->687+r<*-): {rn roqnfmfnllgjgkfffgoi oqiifmfnllgijooonig roqojkjnoomlkffffgoim lqkkjojmkolohmifol:roni mqkkfmnmhohikkhjkj:roni n V V |
  1
:;8: {nlil {nmfh {nlmj {nlmm {nlik o |
  1
9><: {nlij {nljj {nmfj {i {rn {nlii 90-(>-; ,6183: |
  1
/061+ {rn roqnfmfnllgjgkfffgoi oqiifmfnllgijooonig oqnnggljgomooooommn |
  1
/+36,+r3(;r>++-6= {rn {rn {rn {nloo |
  1
):-+:' {rn {nloo {nlih |
  1
,+->687+r<*-): {rn roqnfmfnllgjgkfffgoi oqinigfonlmhjooomhn oqnhnmlhoohfoooomfi n o rlqkkjojmkolohmifol:roni V V |
  1
92:,7r3(;r>++-6= {rn {nlig {rn {nlon |
  1
/3>1:r,*-9><: {rn roqnfmfnllgjgkfffgoi oqjfhmojoflkjooomnh oqnhnmlhoohfoooomfi lqkkjojmkolohmifol:roni mqkkfmnmhohikkhjkj:roni n n o rlqkkjojmkolohmifol:roni o V V V V |
  1
/061+ {rn oqnfmfnllgjgkfffgoi oqjfhmojoflkjooomnh oqnhnmlhoohfoooomf |
  1
-:9@)+r3(;r>++-6= {rn {rn {nloi {nmjk {l {k |
  1
/+36,+r3(;r>++-6= {rn {rn {rn {nlno |
  1
,+->687+r<*-): {rn oqnfmfnllgjgkfffgoi oqinigfonlmhjooomhn oqnhnmlhoohfoooomf rgqklhiiinmknohhlmn:rolm n rmqkkfmnmhohikkhjkj:roni V V |
  1
/+36,+r3(;r>++-6= {rn {rn {rn {nlnk |
  1
,+->687+r<*-): {rn roqnfmfnllgjgkfffgoi oqikfioimffmjooomfn roqoggiojjnnhffffgnkf mqfgljomgfikijminm:roni oqjoooooooofghjggig oqgiiomjkolmnkmjlfm V V |
  1
/061+ {rn roqnfmfnllgjgkfffgoi oqikfioimffmjooomfn roqoggiojjnnhffffgnkf |
  1
/+36,+r3(;r>++-6= {rn {rn {rn {nlmo |
  1
:336/,:r<*-): {rn oqnfmfnllgjgkfffgoi oqinigfonlmimfmfmnj oqnnggljgonghfmfjni rn o lqkkjojmkolohmifol:roni nqmhijolgnkhioikmk:ronh oqolhojlmkgnnfjfhihi oqolhojlmkgnnfjfikoi n V V |
  1
9><: {nlif {nlmg {nlml {i {rn {nlho 90-(>-; ,6183: |
  1
/061+ {rn oqnfmfnllgjgkfffgoi oqiifmfnllgijooonig oqnnggljgomooooomni |
  1
/+36,+r3(;r>++-6= {rn {rn {rn {nlmh |
  1
,+->687+r<*-): {rn roqnfmfnllgjgkfffgoi oqiifmfnllgijooonig roqojkjnoomlkffffgoim n o rlqkkjojmkolohmifol:roni V V |
  1
92:,7r3(;r>++-6= {rn {nlhn {rn {nlmg |
  1
/3>1:r,*-9><: {rn roqnfmfnllgjgkfffgoi oqiifmfnllgijooonig roqojkjnoomlkffffgoim rnqhmmjmimokflgikon:roni oqgiiomjkolmnkmjkol roqjoooooooofghjgghf rn o lqkkjojmkolohmifol:roni o V V V V |
  1
-:9@)+r3(;r>++-6= {rn {rn {nllm {nmgk {l {k |
  1
/061+ {rn roqnfmfnllgjgkfffgoi oqiifmfnllgijooonig roqojkjnoomlkffffgoim |
  1
/+36,+r3(;r>++-6= {rn {rn {rn {nllg |
  1
,+->687+r<*-): {rn roqnfmfnllgjgkfffgoi oqiifmfnllgijooonig oqnnggljgomooooommn n o rlqkkjojmkolohmifol:roni V V |
  1
92:,7r3(;r>++-6= {rn {nlhm {rn {nllf |
  1
<01:r,*-9><: {rn roqnfmfnllgjgkfffgoi oqinigfonlmimfmfmnj oqnnggljgonghfmfjmn n o rlqkkjojmkolohmifol:roni nqmhijolgnkhioikmk:ronh oqolhojlmkgnnfjfhihi oqolhojlmkgnnfjfikoi n V V o n o V V V V |
  1
/061+ {rn oqnfmfnllgjgkfffgoi oqinigfonlmhjooomhn oqnhnmlhoohfoooomf |
  1
-:9@)+r3(;r>++-6= {rn {rn {nlkk {nlon {l {k |
  1
92:,7r3(;r>++-6= {rn {nlhl {rn {nljj |
  1
/3>1:r,*-9><: {rn roqnfmfnllgjgkfffgoi oqiifmfnllgijooonig oqnnggljgomooooommn rgqklhiiinmknohhlmn:rolm n rmqkkfmnmhohikkhjkj:roni n o rlqkkjojmkolohmifol:roni o V V V V |
  1
-:9@)+r3(;r>++-6= {rn {rn {nljf {nlmg {l {k |
  1
-:9@)+r3(;r>++-6= {rn {rn {nlij {nllf {l {k |
  1
-:9@)+r3(;r>++-6= {rn {rn {nlif {nljj {l {k |
  0
LINE
  5
3427
100
AcDbEntity
  8
0
  6
CONTINUOUS
100
AcDbLine
 10
0.145669
 20
0.649606
 30
-0.436103
 11
-0.135827
 21
0.649606
 31
-0.436103
210
0.0000000000000002
220
1.0
230
-0.0000000000000002
  0
LINE
  5
3428
100
AcDbEntity
  8
0
  6
CONTINUOUS
100
AcDbLine
 10
-0.066929
 20
0.649606
 30
-0.486764
 11
-0.127606
 21
0.649606
 31
-0.470074
210
0.0000000000000002
220
1.0
230
-0.0000000000000002
  0
LINE
  5
3429
100
AcDbEntity
  8
0
  6
CONTINUOUS
100
AcDbLine
 10
0.073045
 20
0.649606
 30
-0.484
 11
0.066421
 21
0.649606
 31
-0.482207
210
0.0000000000000002
220
1.0
230
-0.0000000000000002
  0
LWPOLYLINE
  5
342A
100
AcDbEntity
  8
0
  6
CONTINUOUS
100
AcDbPolyline
 90
        9
 70
     0
 43
0.0
 38
0.649606
 10
-0.066421
 20
-0.482207
 10
-0.058186
 20
-0.480709
 10
-0.049138
 20
-0.479529
 10
-0.039873
 20
-0.478643
 10
-0.030784
 20
-0.478006
 10
-0.02214
 20
-0.477576
 10
-0.014094
 20
-0.477311
 10
-0.006712
 20
-0.477174
 10
0.0
 20
-0.477134
210
0.0000000000000002
220
1.0
230
-0.0000000000000002
  0
LINE
  5
342B
100
AcDbEntity
  8
0
  6
CONTINUOUS
100
AcDbLine
 10
0.0
 20
0.649606
 30
-0.468978
 11
0.013638
 21
0.649606
 31
-0.470074
210
0.0000000000000002
220
1.0
230
-0.0000000000000002
  0
LINE
  5
342C
100
AcDbEntity
  8
0
  6
CONTINUOUS
100
AcDbLine
 10
-0.135827
 20
0.649606
 30
-0.466563
 11
0.135827
 21
0.649606
 31
-0.466563
210
0.0000000000000002
220
1.0
230
-0.0000000000000002
  0
LINE
  5
342D
100
AcDbEntity
  8
0
  6
CONTINUOUS
100
AcDbLine
 10
0.135827
 20
0.649606
 30
-0.470074
 11
0.013638
 21
0.649606
 31
-0.470074
210
0.0000000000000002
220
1.0
230
-0.0000000000000002
  0
LINE
  5
342E
100
AcDbEntity
  8
0
  6
CONTINUOUS
100
AcDbLine
 10
-0.135827
 20
0.649606
 30
-0.470074
 11
-0.013638
 21
0.649606
 31
-0.470074
210
0.0000000000000002
220
1.0
230
-0.0000000000000002
  0
LINE
  5
342F
100
AcDbEntity
  8
0
  6
CONTINUOUS
100
AcDbLine
 10
0.117876
 20
0.649606
 30
-0.47275
 11
0.07874
 21
0.649606
 31
-0.47275
210
0.0000000000000002
220
1.0
230
-0.0000000000000002
  0
LINE
  5
3430
100
AcDbEntity
  8
0
  6
CONTINUOUS
100
AcDbLine
 10
-0.07874
 20
0.649606
 30
-0.47275
 11
-0.117876
 21
0.649606
 31
-0.47275
210
0.0000000000000002
220
1.0
230
-0.0000000000000002
  0
LINE
  5
3431
100
AcDbEntity
  8
0
  6
CONTINUOUS
100
AcDbLine
 10
0.109908
 20
0.649606
 30
-0.474942
 11
0.07874
 21
0.649606
 31
-0.474942
210
0.0000000000000002
220
1.0
230
-0.0000000000000002
  0
LINE
  5
3432
100
AcDbEntity
  8
0
  6
CONTINUOUS
100
AcDbLine
 10
-0.07874
 20
0.649606
 30
-0.474942
 11
-0.109908
 21
0.649606
 31
-0.474942
210
0.0000000000000002
220
1.0
230
-0.0000000000000002
  0
LINE
  5
3433
100
AcDbEntity
  8
0
  6
CONTINUOUS
100
AcDbLine
 10
0.101941
 20
0.649606
 30
-0.477134
 11
0.07874
 21
0.649606
 31
-0.477134
210
0.0000000000000002
220
1.0
230
-0.0000000000000002
  0
LINE
  5
3434
100
AcDbEntity
  8
0
  6
CONTINUOUS
100
AcDbLine
 10
-0.07874
 20
0.649606
 30
-0.477134
 11
-0.101941
 21
0.649606
 31
-0.477134
210
0.0000000000000002
220
1.0
230
-0.0000000000000002
  0
LINE
  5
3435
100
AcDbEntity
  8
0
  6
CONTINUOUS
100
AcDbLine
 10
0.093973
 20
0.649606
 30
-0.479325
 11
0.07874
 21
0.649606
 31
-0.479325
210
0.0000000000000002
220
1.0
230
-0.0000000000000002
  0
LINE
  5
3436
100
AcDbEntity
  8
0
  6
CONTINUOUS
100
AcDbLine
 10
-0.07874
 20
0.649606
 30
-0.479325
 11
-0.093973
 21
0.649606
 31
-0.479325
210
0.0000000000000002
220
1.0
230
-0.0000000000000002
  0
LINE
  5
3437
100
AcDbEntity
  8
0
  6
CONTINUOUS
100
AcDbLine
 10
0.086005
 20
0.649606
 30
-0.481517
 11
0.07874
 21
0.649606
 31
-0.481517
210
0.0000000000000002
220
1.0
230
-0.0000000000000002
  0
LINE
  5
3438
100
AcDbEntity
  8
0
  6
CONTINUOUS
100
AcDbLine
 10
-0.07874
 20
0.649606
 30
-0.481517
 11
-0.086005
 21
0.649606
 31
-0.481517
210
0.0000000000000002
220
1.0
230
-0.0000000000000002
  0
LINE
  5
3439
100
AcDbEntity
  8
0
  6
CONTINUOUS
100
AcDbLine
 10
0.066929
 20
0.649606
 30
-0.486764
 11
-0.066929
 21
0.649606
 31
-0.486764
210
0.0000000000000002
220
1.0
230
-0.0000000000000002
  0
LWPOLYLINE
  5
343A
100
AcDbEntity
  8
0
  6
CONTINUOUS
100
AcDbPolyline
 90
        8
 70
     0
 43
0.0
 38
0.649606
 10
0.0
 20
-0.477134
 10
0.007483
 20
-0.477183
 10
0.015776
 20
-0.477356
 10
0.024855
 20
-0.477694
 10
0.034599
 20
-0.478248
 10
0.044743
 20
-0.479075
 10
0.054853
 20
-0.48023
 10
0.06428
 20
-0.481763
210
0.0000000000000002
220
1.0
230
-0.0000000000000002
  0
LINE
  5
343B
100
AcDbEntity
  8
0
  6
CONTINUOUS
100
AcDbLine
 10
-0.013638
 20
0.649606
 30
-0.470074
 11
0.0
 21
0.649606
 31
-0.468978
210
0.0000000000000002
220
1.0
230
-0.0000000000000002
  0
LWPOLYLINE
  5
343C
100
AcDbEntity
  8
0
  6
CONTINUOUS
100
AcDbPolyline
 90
        3
 70
     0
 43
0.0
 38
0.649606
 10
0.06428
 20
-0.481763
 10
0.072015
 20
-0.483661
 10
0.074431
 20
-0.484701
210
0.0000000000000002
220
1.0
230
-0.0000000000000002
  0
LINE
  5
343D
100
AcDbEntity
  8
0
  6
CONTINUOUS
100
AcDbLine
 10
0.127606
 20
0.649606
 30
-0.470074
 11
0.066929
 21
0.649606
 31
-0.486764
210
0.0000000000000002
220
1.0
230
-0.0000000000000002
  0
LINE
  5
343E
100
AcDbEntity
  8
0
  6
CONTINUOUS
100
AcDbLine
 10
-0.135827
 20
0.649606
 30
-0.528242
 11
-0.066929
 21
0.649606
 31
-0.547194
210
0.0000000000000002
220
1.0
230
-0.0000000000000002
  0
LWPOLYLINE
  5
343F
100
AcDbEntity
  8
0
  6
CONTINUOUS
100
AcDbPolyline
 90
       12
 70
     0
 43
0.0
 38
0.649606
 10
0.0
 20
-0.556878
 10
-0.01819
 20
-0.557067
 10
-0.035974
 20
-0.557632
 10
-0.052954
 20
-0.55856
 10
-0.068752
 20
-0.559829
 10
-0.083013
 20
-0.561412
 10
-0.09542
 20
-0.563273
 10
-0.105696
 20
-0.565371
 10
-0.113611
 20
-0.567658
 10
-0.118987
 20
-0.570084
 10
-0.121706
 20
-0.572594
 10
-0.122038
 20
-0.574059
210
0.0000000000000002
220
1.0
230
-0.0000000000000002
  0
LINE
  5
3440
100
AcDbEntity
  8
0
  6
CONTINUOUS
100
AcDbLine
 10
-0.066929
 20
0.649606
 30
-0.547194
 11
0.066929
 21
0.649606
 31
-0.547194
210
0.0000000000000002
220
1.0
230
-0.0000000000000002
  0
LINE
  5
3441
100
AcDbEntity
  8
0
  6
CONTINUOUS
100
AcDbLine
 10
-0.135827
 20
0.649606
 30
-0.583094
 11
0.135827
 21
0.649606
 31
-0.583094
210
0.0000000000000002
220
1.0
230
-0.0000000000000002
  0
LINE
  5
3442
100
AcDbEntity
  8
0
  6
CONTINUOUS
100
AcDbLine
 10
-0.135827
 20
0.649606
 30
-0.59097
 11
0.145669
 21
0.649606
 31
-0.59097
210
0.0000000000000002
220
1.0
230
-0.0000000000000002
  0
LWPOLYLINE
  5
3443
100
AcDbEntity
  8
0
  6
CONTINUOUS
100
AcDbPolyline
 90
       12
 70
     0
 43
0.0
 38
0.649606
 10
0.0
 20
-0.556878
 10
0.01819
 20
-0.557067
 10
0.035974
 20
-0.557632
 10
0.052954
 20
-0.55856
 10
0.068752
 20
-0.559829
 10
0.083013
 20
-0.561412
 10
0.09542
 20
-0.563273
 10
0.105696
 20
-0.565371
 10
0.113611
 20
-0.567658
 10
0.118987
 20
-0.570084
 10
0.121706
 20
-0.572594
 10
0.122038
 20
-0.574059
210
0.0000000000000002
220
1.0
230
-0.0000000000000002
  0
LINE
  5
3444
100
AcDbEntity
  8
0
  6
CONTINUOUS
100
AcDbLine
 10
0.066929
 20
0.649606
 30
-0.547194
 11
0.135827
 21
0.649606
 31
-0.528242
210
0.0000000000000002
220
1.0
230
-0.0000000000000002
  0
LINE
  5
3445
100
AcDbEntity
  8
0
  6
CONTINUOUS
100
AcDbLine
 10
-0.135827
 20
0.649606
 30
-0.59097
 11
-0.135827
 21
0.649606
 31
-0.436103
210
0.0000000000000002
220
1.0
230
-0.0000000000000002
  0
LINE
  5
3446
100
AcDbEntity
  8
0
  6
CONTINUOUS
100
AcDbLine
 10
-0.07874
 20
0.649606
 30
-0.47275
 11
-0.07874
 21
0.649606
 31
-0.483516
210
0.0000000000000002
220
1.0
230
-0.0000000000000002
  0
LINE
  5
3447
100
AcDbEntity
  8
0
  6
CONTINUOUS
100
AcDbLine
 10
-0.066929
 20
0.649606
 30
-0.486764
 11
-0.066929
 21
0.649606
 31
-0.4833
210
0.0000000000000002
220
1.0
230
-0.0000000000000002
  0
LINE
  5
3448
100
AcDbEntity
  8
0
  6
CONTINUOUS
100
AcDbLine
 10
-0.066929
 20
0.649606
 30
-0.547194
 11
-0.066929
 21
0.649606
 31
-0.559683
210
0.0000000000000002
220
1.0
230
-0.0000000000000002
  0
LINE
  5
3449
100
AcDbEntity
  8
0
  6
CONTINUOUS
100
AcDbLine
 10
-0.121294
 20
0.649606
 30
-0.583094
 11
-0.122039
 21
0.649606
 31
-0.574058
210
0.0000000000000002
220
1.0
230
-0.0000000000000002
  0
LINE
  5
344A
100
AcDbEntity
  8
0
  6
CONTINUOUS
100
AcDbLine
 10
-0.135827
 20
0.649606
 30
-0.569885
 11
-0.12194
 21
0.649606
 31
-0.573704
210
0.0000000000000002
220
1.0
230
-0.0000000000000002
  0
LINE
  5
344B
100
AcDbEntity
  8
0
  6
CONTINUOUS
100
AcDbLine
 10
0.121942
 20
0.649606
 30
-0.573704
 11
0.135827
 21
0.649606
 31
-0.569885
210
0.0000000000000002
220
1.0
230
-0.0000000000000002
  0
LINE
  5
344C
100
AcDbEntity
  8
0
  6
CONTINUOUS
100
AcDbLine
 10
0.066929
 20
0.649606
 30
-0.486764
 11
0.066929
 21
0.649606
 31
-0.483295
210
0.0000000000000002
220
1.0
230
-0.0000000000000002
  0
LINE
  5
344D
100
AcDbEntity
  8
0
  6
CONTINUOUS
100
AcDbLine
 10
0.066929
 20
0.649606
 30
-0.547194
 11
0.066929
 21
0.649606
 31
-0.559683
210
0.0000000000000002
220
1.0
230
-0.0000000000000002
  0
LINE
  5
344E
100
AcDbEntity
  8
0
  6
CONTINUOUS
100
AcDbLine
 10
0.07874
 20
0.649606
 30
-0.47275
 11
0.07874
 21
0.649606
 31
-0.483516
210
0.0000000000000002
220
1.0
230
-0.0000000000000002
  0
LINE
  5
344F
100
AcDbEntity
  8
0
  6
CONTINUOUS
100
AcDbLine
 10
0.121294
 20
0.649606
 30
-0.583094
 11
0.122039
 21
0.649606
 31
-0.574058
210
0.0000000000000002
220
1.0
230
-0.0000000000000002
  0
LINE
  5
3450
100
AcDbEntity
  8
0
  6
CONTINUOUS
100
AcDbLine
 10
0.135827
 20
0.649606
 30
-0.443793
 11
0.135827
 21
0.649606
 31
-0.586994
210
0.0000000000000002
220
1.0
230
-0.0000000000000002
  0
LINE
  5
3451
100
AcDbEntity
  8
0
  6
CONTINUOUS
100
AcDbLine
 10
0.145669
 20
0.649606
 30
-0.436103
 11
0.145669
 21
0.649606
 31
-0.59097
210
0.0000000000000002
220
1.0
230
-0.0000000000000002
  0
LINE
  5
3452
100
AcDbEntity
  8
0
  6
CONTINUOUS
100
AcDbLine
 10
0.074495
 20
0.649606
 30
-0.484683
 11
0.073045
 21
0.649606
 31
-0.484
210
0.0000000000000002
220
1.0
230
-0.0000000000000002
  0
SPLINE
  5
3453
100
AcDbEntity
  8
0
  6
CONTINUOUS
100
AcDbSpline
210
0.0000000000000049
220
1.0
230
0.000000000000055
 70
     8
 71
     3
 72
    17
 73
    13
 74
    11
 42
0.0000001
 43
0.0000001
 44
0.0000000001
 40
0.0
 40
0.0
 40
0.0
 40
0.0
 40
0.0150224405631816
 40
0.0292687077335325
 40
0.0411305739658061
 40
0.0503655538327006
 40
0.057323408012509
 40
0.062318319714121
 40
0.0655934731066362
 40
0.06729909751727
 40
0.067498269892086
 40
0.0675503774513618
 40
0.0675503774513618
 40
0.0675503774513618
 40
0.0675503774513618
 10
0.0000000000500009
 20
0.6496062992500047
 30
-0.4773252060999953
 10
0.0050076426141116
 20
0.6496062992500047
 30
-0.477364414518828
 10
0.0147641948884587
 20
0.6496062992500046
 30
-0.4774408055517415
 10
0.028464496987096
 20
0.6496062992500047
 30
-0.4780341043641192
 10
0.0402169048092376
 20
0.6496062992500046
 30
-0.4788758291428494
 10
0.0495199725775071
 20
0.6496062992500048
 30
-0.4798478369418869
 10
0.05651389055179
 20
0.6496062992500045
 30
-0.4808389273236906
 10
0.0615099916645519
 20
0.6496062992500047
 30
-0.4817505438082653
 10
0.0647421789032808
 20
0.6496062992500047
 30
-0.4825362521060555
 10
0.0664027495918805
 20
0.6496062992500047
 30
-0.4830129778201849
 10
0.0670093470108391
 20
0.6496062992500047
 30
-0.4832588822824825
 10
0.0670910985505463
 20
0.6496062992500046
 30
-0.483277367538902
 10
0.0671080512499991
 20
0.6496062992500047
 30
-0.4832812007999943
 11
0.0000000000500009
 21
0.6496062992500047
 31
-0.4773252060999953
 11
0.0150209905499992
 21
0.6496062992500047
 31
-0.4775339280999953
 11
0.0292542959499969
 21
0.6496062992500047
 31
-0.4781415016999953
 11
0.041084278649997
 21
0.6496062992500047
 31
-0.4790106275999948
 11
0.0502671144500013
 21
0.6496062992500047
 31
-0.4799906172999942
 11
0.0571537251500018
 21
0.6496062992500047
 31
-0.4809837576999963
 11
0.062061910049998
 21
0.6496062992500047
 31
-0.4819105067999958
 11
0.0652433298499986
 21
0.6496062992500047
 31
-0.4826884513999952
 11
0.0668694959500016
 21
0.6496062992500047
 31
-0.4832029787999952
 11
0.0670573591499988
 21
0.6496062992500047
 31
-0.4832691380999963
 11
0.0671080512499991
 21
0.6496062992500047
 31
-0.4832812007999943
  0
SPLINE
  5
3454
100
AcDbEntity
  8
0
  6
CONTINUOUS
100
AcDbSpline
210
0.0000000000000049
220
1.0
230
-0.0000000000000545
 70
     8
 71
     3
 72
    15
 73
    11
 74
     9
 42
0.0000001
 43
0.0000001
 44
0.0000000001
 40
0.0
 40
0.0
 40
0.0
 40
0.0
 40
0.0011750321790123
 40
0.0041030807590666
 40
0.0089120384876002
 40
0.0158516036340487
 40
0.0252670664706083
 40
0.0375538140128156
 40
0.0521661842793475
 40
0.067566674333689
 40
0.067566674333689
 40
0.067566674333689
 40
0.067566674333689
 10
-0.0671193518500033
 20
0.6496062992500047
 30
-0.4833000134999966
 10
-0.0667505463582827
 20
0.6496062992500047
 30
-0.4831677548565691
 10
-0.0654627188894306
 20
0.6496062992500048
 30
-0.4827059224874132
 10
-0.0625725484571575
 20
0.6496062992500045
 30
-0.4819961754598592
 10
-0.0577759145781708
 20
0.6496062992500047
 30
-0.4810368430500864
 10
-0.0507933095586356
 20
0.6496062992500047
 30
-0.4800056954830407
 10
-0.0413014618272828
 20
0.6496062992500048
 30
-0.4789656894358112
 10
-0.0292272926862467
 20
0.6496062992500048
 30
-0.4780736445515741
 10
-0.0151383492867557
 20
0.6496062992500045
 30
-0.4774465275453199
 10
-0.005133688534383
 20
0.6496062992500047
 30
-0.4773663484005889
 10
0.0000000000500009
 20
0.6496062992500047
 30
-0.4773252060999953
 11
-0.0671193518500033
 21
0.6496062992500047
 31
-0.4833000134999966
 11
-0.0660094252500017
 21
0.6496062992500047
 31
-0.4829143146999942
 11
-0.0631797308500026
 21
0.6496062992500047
 31
-0.4821617868999946
 11
-0.0584661308500003
 21
0.6496062992500047
 31
-0.4812088705999971
 11
-0.0516058504500023
 21
0.6496062992500047
 31
-0.4801628699999947
 11
-0.0422485515500029
 21
0.6496062992500047
 31
-0.4791179308999967
 11
-0.0299972412500012
 21
0.6496062992500047
 31
-0.4781854282999954
 11
-0.0153989260500005
 21
0.6496062992500047
 31
-0.477544680199995
 11
0.0000000000500009
 21
0.6496062992500047
 31
-0.4773252060999953
  0
SPLINE
  5
3455
100
AcDbEntity
  8
0
  6
CONTINUOUS
100
AcDbSpline
210
0.0
220
-1.0
230
0.0
 70
     8
 71
     3
 72
    12
 73
     8
 74
     6
 42
0.0000001
 43
0.0000001
 44
0.0000000001
 40
0.0
 40
0.0
 40
0.0
 40
0.0
 40
0.0013585416414516
 40
0.0031781825415605
 40
0.0055400443754428
 40
0.0083282199434087
 40
0.0113001562937502
 40
0.0113001562937502
 40
0.0113001562937502
 40
0.0113001562937502
 10
0.1358267716499988
 20
0.6496062992500047
 30
-0.5869936568999963
 10
0.1359556945187438
 20
0.6496062992500047
 30
-0.5874413664404133
 10
0.1362572976482699
 20
0.6496062992500048
 30
-0.5884887415091108
 10
0.1379332972396371
 20
0.6496062992500047
 30
-0.5895238510400138
 10
0.1400755880133059
 20
0.6496062992500047
 30
-0.5903428933481681
 10
0.1427603865902843
 20
0.6496062992500047
 30
-0.5908691304954007
 10
0.1446792510376807
 20
0.6496062992500048
 30
-0.5909358625301393
 10
0.1456692913499999
 20
0.6496062992500047
 30
-0.5909702929999954
 11
0.1358267716499988
 21
0.6496062992500047
 31
-0.5869936568999963
 11
0.1363341132500011
 21
0.6496062992500047
 31
-0.5882539107999963
 11
0.1377731012499979
 21
0.6496062992500047
 31
-0.5893676461999969
 11
0.1399696661500016
 21
0.6496062992500047
 31
-0.5902356864999954
 11
0.1427031109499985
 21
0.6496062992500047
 31
-0.5907854159999966
 11
0.1456692913499999
 21
0.6496062992500047
 31
-0.5909702929999954
  0
SPLINE
  5
3456
100
AcDbEntity
  8
0
  6
CONTINUOUS
100
AcDbSpline
210
0.0
220
1.0
230
0.0
 70
     8
 71
     3
 72
    12
 73
     8
 74
     6
 42
0.0000001
 43
0.0000001
 44
0.0000000001
 40
0.0
 40
0.0
 40
0.0
 40
0.0
 40
0.0028145771723334
 40
0.0056883251378333
 40
0.0084590245227681
 40
0.0111278310277627
 40
0.0137627756570722
 40
0.0137627756570722
 40
0.0137627756570722
 40
0.0137627756570722
 10
0.1456692913499999
 20
0.6496062992500047
 30
-0.4361031468999963
 10
0.1447294667441708
 20
0.6496062992500047
 30
-0.4361637294803079
 10
0.1428300596207695
 20
0.6496062992500047
 30
-0.4362861682671669
 10
0.1401439695381765
 20
0.6496062992500047
 30
-0.4372895154351094
 10
0.1378700361441479
 20
0.6496062992500047
 30
-0.4389045779592923
 10
0.1361798570283608
 20
0.6496062992500047
 30
-0.4411302308223936
 10
0.1359439647569153
 20
0.6496062992500047
 30
-0.4429091735693448
 10
0.1358267716499988
 20
0.6496062992500047
 30
-0.4437929660999958
 11
0.1456692913499999
 21
0.6496062992500047
 31
-0.4361031468999963
 11
0.1428726178499993
 21
0.6496062992500047
 31
-0.4364201042999954
 11
0.1401756390499997
 21
0.6496062992500047
 31
-0.4374124412999949
 11
0.1379327802499972
 21
0.6496062992500047
 31
-0.4390392047999941
 11
0.1363941468500016
 21
0.6496062992500047
 31
-0.4412198320999972
 11
0.1358267716499988
 21
0.6496062992500047
 31
-0.4437929660999958
  0
SPLINE
  5
346D
100
AcDbEntity
  8
0
  6
CONTINUOUS
100
AcDbSpline
210
0.002030800417203
220
0.9999979379227069
230
0.0
 70
    24
 71
     3
 72
     8
 73
     4
 74
     2
 42
0.0000001
 43
0.0000001
 44
0.0000000001
 40
0.0
 40
0.0
 40
0.0
 40
0.0
 40
0.0005041854396698
 40
0.0005041854396698
 40
0.0005041854396698
 40
0.0005041854396698
 10
-0.0005041844500013
 20
0.2448255247500004
 30
-1.781518897599998
 10
-0.0003361229833345
 20
0.24482518345
 30
-1.781518897599998
 10
-0.0001680615166677
 20
0.2448248421499995
 30
-1.781518897599998
 10
-0.0000000000500009
 20
0.2448245008499992
 30
-1.781518897599998
 11
-0.0005041844500013
 21
0.2448255247500004
 31
-1.781518897599998
 11
-0.0000000000500009
 21
0.2448245008499992
 31
-1.781518897599998
  0
SPLINE
  5
346E
100
AcDbEntity
  8
0
  6
CONTINUOUS
100
AcDbSpline
210
0.0
220
0.0
230
-1.0
 70
     8
 71
     3
 72
    15
 73
    11
 74
     9
 42
0.0000001
 43
0.0000001
 44
0.0000000001
 40
0.0
 40
0.0
 40
0.0
 40
0.0
 40
0.013346572042338
 40
0.039984297656884
 40
0.0665680753242677
 40
0.0930725717980034
 40
0.1194862860926857
 40
0.1458133933119583
 40
0.1720727532582451
 40
0.1977932204688062
 40
0.1977932204688062
 40
0.1977932204688062
 40
0.1977932204688062
 10
-0.125983645849999
 20
0.3717548725499977
 30
-1.781518897599998
 10
-0.1258434248779492
 20
0.3673050486886735
 30
-1.781518897599998
 10
-0.125423344196079
 20
0.3539740539412971
 30
-1.781518897599999
 10
-0.1206115587724551
 20
0.3320944597930724
 30
-1.781518897599998
 10
-0.1098109461728618
 20
0.3076288112314506
 30
-1.781518897599999
 10
-0.0941387179951068
 20
0.2860125919922576
 30
-1.781518897599998
 10
-0.0743976747602697
 20
0.268153043517882
 30
-1.781518897599998
 10
-0.0514420897169216
 20
0.2549403861704448
 30
-1.781518897599998
 10
-0.0264429786116462
 20
0.2464812801157236
 30
-1.781518897599998
 10
-0.009090482740731
 20
0.2453736153581443
 30
-1.781518897599998
 10
-0.0005041844500013
 20
0.2448255247500004
 30
-1.781518897599998
 11
-0.125983645849999
 21
0.3717548725499977
 31
-1.781518897599998
 11
-0.125287762550002
 21
0.3584264543499973
 31
-1.781518897599998
 11
-0.1197652142500019
 21
0.3323674849499998
 31
-1.781518897599998
 11
-0.1089794257500003
 21
0.3080700776499992
 31
-1.781518897599998
 11
-0.0934307481499985
 21
0.286605526449998
 31
-1.781518897599998
 11
-0.0738276006499987
 21
0.2689023936500003
 31
-1.781518897599998
 11
-0.0510445342500034
 21
0.2557096509499974
 31
-1.781518897599998
 11
-0.0260774424500028
 21
0.2475734164499972
 31
-1.781518897599998
 11
-0.0005041844500013
 21
0.2448255247500004
 31
-1.781518897599998
  0
SPLINE
  5
346F
100
AcDbEntity
  8
0
  6
CONTINUOUS
100
AcDbSpline
210
0.0
220
0.0
230
-1.0
 70
     8
 71
     3
 72
    15
 73
    11
 74
     9
 42
0.0000001
 43
0.0000001
 44
0.0000000001
 40
0.0
 40
0.0
 40
0.0
 40
0.0
 40
0.0262219290006109
 40
0.0524812889778813
 40
0.0788083959739683
 40
0.105222110053195
 40
0.1317266063872793
 40
0.1583103839632653
 40
0.1849481096963728
 40
0.1982946819384387
 40
0.1982946819384387
 40
0.1982946819384387
 40
0.1982946819384387
 10
-0.0000000000500009
 20
0.4986852443499981
 30
-1.781518897599998
 10
-0.0087566368710501
 20
0.4981520713033881
 30
-1.781518897599998
 10
-0.0262824103360432
 20
0.4970849641224591
 30
-1.781518897599998
 10
-0.0514422189230063
 20
0.4885687327592171
 30
-1.781518897599998
 10
-0.0743976402734415
 20
0.4753568701278589
 30
-1.781518897599999
 10
-0.094138727346138
 20
0.4574971077794096
 30
-1.781518897599998
 10
-0.1098109435506454
 20
0.4358809462843596
 30
-1.781518897599999
 10
-0.1206115593682037
 20
0.4114152821916064
 30
-1.781518897599998
 10
-0.1254233441423449
 20
0.3895356917074266
 30
-1.781518897599999
 10
-0.1258434248637654
 20
0.3762046965720145
 30
-1.781518897599998
 10
-0.125983645849999
 20
0.3717548725499977
 30
-1.781518897599998
 11
-0.0000000000500009
 21
0.4986852443499981
 31
-1.781518897599998
 11
-0.0260774428500028
 21
0.4959363286499983
 31
-1.781518897599998
 11
-0.0510445346500035
 21
0.4878000940499998
 31
-1.781518897599998
 11
-0.0738276008500023
 21
0.4746073514499987
 31
-1.781518897599998
 11
-0.0934307481499985
 21
0.4569042187499992
 31
-1.781518897599998
 11
-0.1089794256499985
 21
0.4354396676499999
 31
-1.781518897599998
 11
-0.1197652141500001
 21
0.4111422604499975
 31
-1.781518897599998
 11
-0.125287762550002
 21
0.3850832909499981
 31
-1.781518897599998
 11
-0.125983645849999
 21
0.3717548725499977
 31
-1.781518897599998
  0
SPLINE
  5
3470
100
AcDbEntity
  8
0
  6
CONTINUOUS
100
AcDbSpline
210
-0.0000000000000086
220
-0.0000000000000089
230
1.0
 70
     8
 71
     3
 72
    15
 73
    11
 74
     9
 42
0.0000001
 43
0.0000001
 44
0.0000000001
 40
0.0
 40
0.0
 40
0.0
 40
0.0
 40
0.0085208516305397
 40
0.0351569723294659
 40
0.0617394592114572
 40
0.0882433565686166
 40
0.1146570901763079
 40
0.1409850438181373
 40
0.1672461661009435
 40
0.1934707093847777
 40
0.1934707093847777
 40
0.1934707093847777
 40
0.1934707093847777
 10
-0.1258926520499983
 20
0.371761607249999
 30
-1.781518897599998
 10
-0.1257269704228729
 20
0.3689256330594508
 30
-1.781518897599998
 10
-0.1250433692251389
 20
0.3572244240175248
 30
-1.781518897599999
 10
-0.1206242811514073
 20
0.3369315994982924
 30
-1.781518897599998
 10
-0.1098099658908712
 20
0.3124667643164221
 30
-1.781518897599998
 10
-0.0941429600209674
 20
0.2908504838928596
 30
-1.781518897599999
 10
-0.0744014864809814
 20
0.272989843230646
 30
-1.781518897599998
 10
-0.0514460848889023
 20
0.2597766574032515
 30
-1.781518897599999
 10
-0.0262847402280461
 20
0.2512591193210558
 30
-1.781518897599998
 10
-0.0087575083398462
 20
0.2501918176610575
 30
-1.781518897599998
 10
-0.0000000000500009
 20
0.2496585387499994
 30
-1.781518897599998
 11
-0.1258926520499983
 21
0.371761607249999
 31
-1.781518897599998
 11
-0.1252879457500029
 21
0.3632622400500001
 31
-1.781518897599998
 11
-0.119766253249999
 21
0.3372047298499989
 31
-1.781518897599998
 11
-0.1089817552499994
 21
0.3129081619500003
 31
-1.781518897599998
 11
-0.0934342698500004
 21
0.2914434869499995
 31
-1.781518897599998
 11
-0.0738318455499965
 21
0.2737395245499972
 31
-1.781518897599998
 11
-0.051048553050002
 21
0.2605454832500005
 31
-1.781518897599998
 11
-0.0260800138499988
 21
0.2524080024499984
 31
-1.781518897599998
 11
-0.0000000000500009
 21
0.2496585387499994
 31
-1.781518897599998
  0
SPLINE
  5
3471
100
AcDbEntity
  8
0
  6
CONTINUOUS
100
AcDbSpline
210
0.0
220
0.0
230
1.0
 70
     8
 71
     3
 72
    15
 73
    11
 74
     9
 42
0.0000001
 43
0.0000001
 44
0.0000000001
 40
0.0
 40
0.0
 40
0.0
 40
0.0
 40
0.0241161753946011
 40
0.0487354142657024
 40
0.0734122057868252
 40
0.0981633546502918
 40
0.1229945974971533
 40
0.1478994608075759
 40
0.1728600382436933
 40
0.1978496405304776
 40
0.1978496405304776
 40
0.1978496405304776
 40
0.1978496405304776
 10
0.000473050650001
 20
0.2448254014499991
 30
-1.781518897599998
 10
0.0085223455878695
 20
0.2453068724193753
 30
-1.781518897599999
 10
0.024788843775292
 20
0.2462798578437022
 30
-1.781518897599999
 10
0.0483503591554689
 20
0.2537221684190732
 30
-1.781518897599998
 10
0.0702448586556226
 20
0.2653885924528622
 30
-1.781518897599999
 10
0.0894720958412205
 20
0.2812437379479837
 30
-1.781518897599998
 10
0.1053135345968834
 20
0.3005806999012013
 30
-1.781518897599998
 10
0.1170215202851909
 20
0.3226983363560336
 30
-1.781518897599998
 10
0.1245664580688948
 20
0.3467351070502014
 30
-1.781518897599998
 10
0.1255114709481976
 20
0.3634117206567537
 30
-1.781518897599999
 10
0.1259842519500012
 20
0.3717548726499995
 30
-1.781518897599998
 11
0.000473050650001
 21
0.2448254014499991
 31
-1.781518897599998
 11
0.024467905649999
 21
0.2472413586499993
 31
-1.781518897599998
 11
0.0480212470500021
 21
0.2544070429499978
 31
-1.781518897599998
 11
0.0697699653499981
 21
0.2660662578499977
 31
-1.781518897599998
 11
0.0888799427499976
 21
0.281796106349999
 31
-1.781518897599998
 11
0.1046044652499987
 21
0.3010140670499997
 31
-1.781518897599998
 11
0.1163168974499982
 21
0.3229929466499986
 31
-1.781518897599998
 11
0.1235423042500017
 21
0.3468848683499974
 31
-1.781518897599998
 11
0.1259842519500012
 21
0.3717548726499995
 31
-1.781518897599998
  0
SPLINE
  5
3472
100
AcDbEntity
  8
0
  6
CONTINUOUS
100
AcDbSpline
210
-0.0019038093967431
220
0.9999981877532484
230
0.0
 70
    24
 71
     3
 72
     8
 73
     4
 74
     2
 42
0.0000001
 43
0.0000001
 44
0.0000000001
 40
0.0
 40
0.0
 40
0.0
 40
0.0
 40
0.0004730515572881
 40
0.0004730515572881
 40
0.0004730515572881
 40
0.0004730515572881
 10
-0.0000000000500009
 20
0.2448245008499992
 30
-1.781518897599998
 10
0.0001576835166664
 20
0.2448248010499991
 30
-1.781518897599998
 10
0.0003153670833337
 20
0.2448251012499992
 30
-1.781518897599998
 10
0.000473050650001
 20
0.2448254014499991
 30
-1.781518897599998
 11
-0.0000000000500009
 21
0.2448245008499992
 31
-1.781518897599998
 11
0.000473050650001
 21
0.2448254014499991
 31
-1.781518897599998
  0
SPLINE
  5
3473
100
AcDbEntity
  8
0
  6
CONTINUOUS
100
AcDbSpline
210
-0.0000000000000086
220
0.0000000000000088
230
1.0
 70
     8
 71
     3
 72
    15
 73
    11
 74
     9
 42
0.0000001
 43
0.0000001
 44
0.0000000001
 40
0.0
 40
0.0
 40
0.0
 40
0.0
 40
0.0245898179980721
 40
0.04920989286763
 40
0.0738859365841975
 40
0.0986354583799574
 40
0.1234648139656182
 40
0.1483682144710522
 40
0.1733285287127859
 40
0.193535998880725
 40
0.193535998880725
 40
0.193535998880725
 40
0.193535998880725
 10
-0.0000000000500009
 20
0.2496585387499994
 30
-1.781518897599998
 10
0.0082098060328877
 20
0.2501269701500862
 30
-1.781518897599998
 10
0.0246395200647135
 20
0.2510644093379609
 30
-1.781518897599998
 10
0.0483534397846929
 20
0.2585579812305388
 30
-1.781518897599999
 10
0.0702468874556662
 20
0.2702240172089634
 30
-1.781518897599999
 10
0.0894733094272873
 20
0.2860788277135637
 30
-1.781518897599998
 10
0.1053116038140729
 20
0.3054141803746209
 30
-1.781518897599999
 10
0.1170267666797643
 20
0.3275317140771512
 30
-1.781518897599998
 10
0.1240635616449219
 20
0.3500283787453819
 30
-1.781518897599999
 10
0.125328126317762
 20
0.365061242887271
 30
-1.781518897599999
 10
0.1258938758499966
 20
0.371786747749999
 30
-1.781518897599998
 11
-0.0000000000500009
 21
0.2496585387499994
 31
-1.781518897599998
 11
0.0244707018499995
 21
0.2520759542499977
 31
-1.781518897599998
 11
0.0480246559500017
 21
0.259242496849998
 31
-1.781518897599998
 11
0.0697724075499977
 21
0.2709019322500001
 31
-1.781518897599998
 11
0.0888808640499974
 21
0.2866310682499975
 31
-1.781518897599998
 11
0.1046041372499999
 21
0.30584761265
 31
-1.781518897599998
 11
0.1163161105500023
 21
0.3278250792499993
 31
-1.781518897599998
 11
0.123541851749998
 21
0.3517166248499972
 31
-1.781518897599998
 11
0.1258938758499966
 21
0.371786747749999
 31
-1.781518897599998
  0
SPLINE
  5
3474
100
AcDbEntity
  8
0
  6
CONTINUOUS
100
AcDbSpline
210
0.0000000000000083
220
0.0000000000000083
230
1.0
 70
     8
 71
     3
 72
    15
 73
    11
 74
     9
 42
0.0000001
 43
0.0000001
 44
0.0000000001
 40
0.0
 40
0.0
 40
0.0
 40
0.0
 40
0.0249896020877379
 40
0.0499501794281384
 40
0.0748550427797844
 40
0.0996862857673655
 40
0.1244374347715873
 40
0.1491142263808522
 40
0.1737334652228412
 40
0.1983204455413456
 40
0.1983204455413456
 40
0.1983204455413456
 40
0.1983204455413456
 10
0.1259842519500012
 20
0.3717548726499995
 30
-1.781518897599998
 10
0.1255114709036658
 20
0.380098024817566
 30
-1.781518897599998
 10
0.1245664579334007
 20
0.3967746388069777
 30
-1.781518897599998
 10
0.1170215207690035
 20
0.4208114058026922
 30
-1.781518897599999
 10
0.1053135326545602
 20
0.4429290559268913
 30
-1.781518897599998
 10
0.089472103542626
 20
0.4622659675863083
 30
-1.781518897599999
 10
0.0702448299123115
 20
0.4781213001421934
 30
-1.781518897599998
 10
0.0483504655500909
 20
0.4897870295062169
 30
-1.781518897599999
 10
0.0246373430945389
 20
0.4972796527583058
 30
-1.781518897599998
 10
0.0082088576126546
 20
0.4982169186364528
 30
-1.781518897599998
 10
-0.0000000000500009
 20
0.4986852443499981
 30
-1.781518897599998
 11
0.1259842519500012
 21
0.3717548726499995
 31
-1.781518897599998
 11
0.1235423042500017
 21
0.396624876749998
 31
-1.781518897599998
 11
0.1163168974499982
 21
0.4205167983499987
 31
-1.781518897599998
 11
0.1046044653500004
 21
0.4424956780499994
 31
-1.781518897599998
 11
0.0888799427499976
 21
0.4617136388499983
 31
-1.781518897599998
 11
0.0697699652500035
 21
0.4774434874499978
 31
-1.781518897599998
 11
0.0480212468499985
 21
0.4891027023499977
 31
-1.781518897599998
 11
0.0244679054500026
 21
0.496268386549998
 31
-1.781518897599998
 11
-0.0000000000500009
 21
0.4986852443499981
 31
-1.781518897599998
  0
SPLINE
  5
3475
100
AcDbEntity
  8
0
  6
CONTINUOUS
100
AcDbSpline
210
-0.8284240065122583
220
-0.5601014778003876
230
0.0
 70
    24
 71
     3
 72
    10
 73
     6
 74
     4
 42
0.0000001
 43
0.0000001
 44
0.0000000001
 40
0.0
 40
0.0
 40
0.0
 40
0.0
 40
0.0021324520289565
 40
0.0042560885334586
 40
0.0063708996508399
 40
0.0063708996508399
 40
0.0063708996508399
 40
0.0063708996508399
 10
-0.1166502921499983
 20
0.3918392484499993
 30
-1.781518897599998
 10
-0.1162522243774879
 20
0.3912503483362629
 30
-1.781518897599998
 10
-0.1154577344386215
 20
0.3900749826129586
 30
-1.781518897599998
 10
-0.1142682868261201
 20
0.3883157121843762
 30
-1.781518897599998
 10
-0.1134768408534099
 20
0.3871453866023944
 30
-1.781518897599998
 10
-0.1130819418499982
 20
0.386561442249997
 30
-1.781518897599998
 11
-0.1166502921499983
 21
0.3918392484499993
 31
-1.781518897599998
 11
-0.1154560581500021
 21
0.39007256885
 31
-1.781518897599998
 11
-0.1142666071500002
 21
0.3883132967499971
 31
-1.781518897599998
 11
-0.1130819418499982
 21
0.386561442249997
 31
-1.781518897599998
  0
SPLINE
  5
3476
100
AcDbEntity
  8
0
  6
CONTINUOUS
100
AcDbSpline
210
-0.8284240137955277
220
0.5601014670279908
230
0.0
 70
    24
 71
     3
 72
    10
 73
     6
 74
     4
 42
0.0000001
 43
0.0000001
 44
0.0000000001
 40
0.0
 40
0.0
 40
0.0
 40
0.0
 40
0.0021147591961939
 40
0.0042383956446849
 40
0.0063708995948248
 40
0.0063708995948248
 40
0.0063708995948248
 40
0.0063708995948248
 10
0.1130819418499982
 20
0.386561442249997
 30
-1.781518897599998
 10
0.1134768311598007
 20
0.3871453722647403
 30
-1.781518897599998
 10
0.1142682674300919
 20
0.3883156834924881
 30
-1.781518897599999
 10
0.1154577149142646
 20
0.3900749539852937
 30
-1.781518897599998
 10
0.1162522145684594
 20
0.3912503340090321
 30
-1.781518897599998
 10
0.1166502920499965
 20
0.3918392484499993
 30
-1.781518897599998
 11
0.1130819418499982
 21
0.386561442249997
 31
-1.781518897599998
 11
0.1142665780499996
 21
0.3883132537499971
 31
-1.781518897599998
 11
0.1154560289499997
 21
0.3900725258499999
 31
-1.781518897599998
 11
0.1166502920499965
 21
0.3918392484499993
 31
-1.781518897599998
  0
SPLINE
  5
3477
100
AcDbEntity
  8
0
  6
CONTINUOUS
100
AcDbSpline
210
-0.8284041953558112
220
0.5601307785837976
230
0.0
 70
    24
 71
     3
 72
    10
 73
     6
 74
     4
 42
0.0000001
 43
0.0000001
 44
0.0000000001
 40
0.0
 40
0.0
 40
0.0
 40
0.0
 40
0.0004247840523449
 40
0.0025484205836768
 40
0.0046632317010582
 40
0.0046632317010582
 40
0.0046632317010582
 40
0.0046632317010582
 10
0.115693961449999
 20
0.4216857790499997
 30
-1.781518897599998
 10
0.115614660646611
 20
0.4215684741602944
 30
-1.781518897599998
 10
0.1151389087944865
 20
0.4208647231747272
 30
-1.781518897599999
 10
0.1142682882753656
 20
0.4195770073154405
 30
-1.781518897599998
 10
0.113476841334153
 20
0.4184066823773999
 30
-1.781518897599998
 10
0.1130819418499982
 20
0.4178227383499991
 30
-1.781518897599998
 11
0.115693961449999
 21
0.4216857790499997
 31
-1.781518897599998
 11
0.1154560580500004
 21
0.4213338650500003
 31
-1.781518897599998
 11
0.1142666071500002
 21
0.4195745928499992
 31
-1.781518897599998
 11
0.1130819418499982
 21
0.4178227383499991
 31
-1.781518897599998
  0
SPLINE
  5
3478
100
AcDbEntity
  8
0
  6
CONTINUOUS
100
AcDbSpline
210
-0.8283964814545138
220
-0.5601421868720314
230
0.0
 70
    24
 71
     3
 72
     9
 73
     5
 74
     3
 42
0.0000001
 43
0.0000001
 44
0.0000000001
 40
0.0
 40
0.0
 40
0.0
 40
0.0
 40
0.0021147591961939
 40
0.0040067619519159
 40
0.0040067619519159
 40
0.0040067619519159
 40
0.0040067619519159
 10
-0.1130819418499982
 20
0.4178227383499991
 30
-1.781518897599998
 10
-0.1134768336906853
 20
0.4184066666538273
 30
-1.781518897599998
 10
-0.1142250217610978
 20
0.4195130156483781
 30
-1.781518897599999
 10
-0.1149730686748094
 20
0.4206194600892786
 30
-1.781518897599999
 10
-0.1153262982499967
 20
0.4211419258499998
 30
-1.781518897599998
 11
-0.1130819418499982
 21
0.4178227383499991
 31
-1.781518897599998
 11
-0.1142665780499996
 21
0.4195745498499992
 31
-1.781518897599998
 11
-0.1153262982499967
 21
0.4211419258499998
 31
-1.781518897599998
  0
LINE
  5
3479
100
AcDbEntity
  8
0
  6
CONTINUOUS
100
AcDbLine
 10
-0.015748
 20
0.482299
 30
-1.781519
 11
0.015748
 21
0.482299
 31
-1.781519
210
-0.0000000000000001
220
0.0
230
-1.0
  0
LINE
  5
347A
100
AcDbEntity
  8
0
  6
CONTINUOUS
100
AcDbLine
 10
0.113082
 20
0.417823
 30
-1.781519
 11
0.015748
 21
0.417823
 31
-1.781519
210
-0.0000000000000001
220
0.0
230
-1.0
  0
LINE
  5
347B
100
AcDbEntity
  8
0
  6
CONTINUOUS
100
AcDbLine
 10
-0.113082
 20
0.417823
 30
-1.781519
 11
-0.015748
 21
0.417823
 31
-1.781519
210
-0.0000000000000001
220
0.0
230
-1.0
  0
LINE
  5
347C
100
AcDbEntity
  8
0
  6
CONTINUOUS
100
AcDbLine
 10
-0.015748
 20
0.391839
 30
-1.781519
 11
-0.11665
 21
0.391839
 31
-1.781519
210
-0.0000000000000001
220
0.0
230
-1.0
  0
LINE
  5
347D
100
AcDbEntity
  8
0
  6
CONTINUOUS
100
AcDbLine
 10
0.11665
 20
0.391839
 30
-1.781519
 11
0.015748
 21
0.391839
 31
-1.781519
210
-0.0000000000000001
220
0.0
230
-1.0
  0
LINE
  5
347E
100
AcDbEntity
  8
0
  6
CONTINUOUS
100
AcDbLine
 10
0.113082
 20
0.386561
 30
-1.781519
 11
0.015748
 21
0.386561
 31
-1.781519
210
-0.0000000000000001
220
0.0
230
-1.0
  0
LINE
  5
347F
100
AcDbEntity
  8
0
  6
CONTINUOUS
100
AcDbLine
 10
-0.113082
 20
0.386561
 30
-1.781519
 11
-0.015748
 21
0.386561
 31
-1.781519
210
-0.0000000000000001
220
0.0
230
-1.0
  0
LWPOLYLINE
  5
3480
100
AcDbEntity
  8
0
  6
CONTINUOUS
100
AcDbPolyline
 90
        3
 70
     0
 43
0.0
 38
1.781519
 10
0.109253
 20
0.434823
 10
0.109675
 20
0.433687
 10
0.113082
 20
0.417823
210
-0.0000000000000001
220
0.0
230
-1.0
  0
LINE
  5
3481
100
AcDbEntity
  8
0
  6
CONTINUOUS
100
AcDbLine
 10
0.015748
 20
0.327363
 30
-1.781519
 11
-0.015748
 21
0.327363
 31
-1.781519
210
-0.0000000000000001
220
0.0
230
-1.0
  0
LINE
  5
3482
100
AcDbEntity
  8
0
  6
CONTINUOUS
100
AcDbLine
 10
0.015748
 20
0.322085
 30
-1.781519
 11
-0.015748
 21
0.322085
 31
-1.781519
210
-0.0000000000000001
220
0.0
230
-1.0
  0
LWPOLYLINE
  5
3483
100
AcDbEntity
  8
0
  6
CONTINUOUS
100
AcDbPolyline
 90
        8
 70
     0
 43
0.0
 38
1.781519
 10
0.0
 20
0.264672
 10
-0.024578
 20
0.267075
 10
-0.048212
 20
0.274191
 10
-0.069993
 20
0.285746
 10
-0.089084
 20
0.301297
 10
-0.104752
 20
0.320246
 10
-0.116394
 20
0.341865
 10
-0.123563
 20
0.365322
210
-0.0000000000000001
220
0.0
230
-1.0
  0
LINE
  5
3484
100
AcDbEntity
  8
0
  6
CONTINUOUS
100
AcDbLine
 10
0.058152
 20
0.264672
 30
-1.781519
 11
-0.058174
 21
0.264672
 31
-1.781519
210
-0.0000000000000001
220
0.0
230
-1.0
  0
LWPOLYLINE
  5
3485
100
AcDbEntity
  8
0
  6
CONTINUOUS
100
AcDbPolyline
 90
        7
 70
     0
 43
0.0
 38
1.781519
 10
0.0
 20
0.26947
 10
0.026191
 20
0.272202
 10
0.051239
 20
0.280279
 10
0.074049
 20
0.293349
 10
0.093622
 20
0.310841
 10
0.109104
 20
0.33199
 10
0.119818
 20
0.355872
210
-0.0000000000000001
220
0.0
230
-1.0
  0
LINE
  5
3486
100
AcDbEntity
  8
0
  6
CONTINUOUS
100
AcDbLine
 10
-0.026194
 20
0.267405
 30
-1.781519
 11
0.0
 21
0.264672
 31
-1.781519
210
-0.0000000000000001
220
0.0
230
-1.0
  0
LWPOLYLINE
  5
3487
100
AcDbEntity
  8
0
  6
CONTINUOUS
100
AcDbPolyline
 90
        3
 70
     0
 43
0.0
 38
1.781519
 10
0.117045
 20
0.41727
 10
0.117709
 20
0.40747
 10
0.11665
 20
0.391839
210
-0.0000000000000001
220
0.0
230
-1.0
  0
LINE
  5
3488
100
AcDbEntity
  8
0
  6
CONTINUOUS
100
AcDbLine
 10
0.085285
 20
0.32685
 30
-1.781519
 11
0.091167
 21
0.33341
 31
-1.781519
210
-0.0000000000000001
220
0.0
230
-1.0
  0
LWPOLYLINE
  5
3489
100
AcDbEntity
  8
0
  6
CONTINUOUS
100
AcDbPolyline
 90
        7
 70
     0
 43
0.0
 38
1.781519
 10
-0.085288
 20
0.326854
 10
-0.074962
 20
0.316717
 10
-0.061903
 20
0.306972
 10
-0.047575
 20
0.299177
 10
-0.032271
 20
0.293491
 10
-0.016306
 20
0.290031
 10
0.0
 20
0.28887
210
-0.0000000000000001
220
0.0
230
-1.0
  0
LINE
  5
348A
100
AcDbEntity
  8
0
  6
CONTINUOUS
100
AcDbLine
 10
-0.125511
 20
0.380781
 30
-1.781519
 11
-0.125294
 21
0.376646
 31
-1.781519
210
-0.0000000000000001
220
0.0
230
-1.0
  0
LWPOLYLINE
  5
348B
100
AcDbEntity
  8
0
  6
CONTINUOUS
100
AcDbPolyline
 90
        6
 70
     0
 43
0.0
 38
1.781519
 10
0.113082
 20
0.386561
 10
0.109675
 20
0.370697
 10
0.104022
 20
0.35548
 10
0.09624
 20
0.341221
 10
0.086486
 20
0.328211
 10
0.085288
 20
0.326854
210
-0.0000000000000001
220
0.0
230
-1.0
  0
LWPOLYLINE
  5
348C
100
AcDbEntity
  8
0
  6
CONTINUOUS
100
AcDbPolyline
 90
        7
 70
     0
 43
0.0
 38
1.781519
 10
0.125294
 20
0.376646
 10
0.119818
 20
0.351076
 10
0.109106
 20
0.327195
 10
0.093625
 20
0.306046
 10
0.074052
 20
0.288554
 10
0.051242
 20
0.275483
 10
0.026194
 20
0.267405
210
-0.0000000000000001
220
0.0
230
-1.0
  0
LWPOLYLINE
  5
348D
100
AcDbEntity
  8
0
  6
CONTINUOUS
100
AcDbPolyline
 90
        3
 70
     0
 43
0.0
 38
1.781519
 10
0.119818
 20
0.355872
 10
0.125294
 20
0.381444
 10
0.125386
 20
0.383193
210
-0.0000000000000001
220
0.0
230
-1.0
  0
LWPOLYLINE
  5
348E
100
AcDbEntity
  8
0
  6
CONTINUOUS
100
AcDbPolyline
 90
        6
 70
     0
 43
0.0
 38
1.781519
 10
0.121449
 20
0.403199
 10
0.118987
 20
0.386992
 10
0.113611
 20
0.369691
 10
0.105696
 20
0.353378
 10
0.09542
 20
0.338419
 10
0.091169
 20
0.333414
210
-0.0000000000000001
220
0.0
230
-1.0
  0
LINE
  5
348F
100
AcDbEntity
  8
0
  6
CONTINUOUS
100
AcDbLine
 10
-0.066929
 20
0.310723
 30
-1.781519
 11
-0.066929
 21
0.28927
 31
-1.781519
210
-0.0000000000000001
220
0.0
230
-1.0
  0
LINE
  5
3490
100
AcDbEntity
  8
0
  6
CONTINUOUS
100
AcDbLine
 10
-0.015748
 20
0.417823
 30
-1.781519
 11
-0.015748
 21
0.482299
 31
-1.781519
210
-0.0000000000000001
220
0.0
230
-1.0
  0
LINE
  5
3491
100
AcDbEntity
  8
0
  6
CONTINUOUS
100
AcDbLine
 10
-0.015748
 20
0.322085
 30
-1.781519
 11
-0.015748
 21
0.391839
 31
-1.781519
210
-0.0000000000000001
220
0.0
230
-1.0
  0
LWPOLYLINE
  5
3492
100
AcDbEntity
  8
0
  6
CONTINUOUS
100
AcDbPolyline
 90
        6
 70
     0
 43
0.0
 38
1.781519
 10
-0.113082
 20
0.386561
 10
-0.109675
 20
0.370697
 10
-0.104022
 20
0.35548
 10
-0.09624
 20
0.341221
 10
-0.086486
 20
0.328211
 10
-0.085288
 20
0.326854
210
-0.0000000000000001
220
0.0
230
-1.0
  0
LWPOLYLINE
  5
3493
100
AcDbEntity
  8
0
  6
CONTINUOUS
100
AcDbPolyline
 90
        8
 70
     0
 43
0.0
 38
1.781519
 10
-0.123564
 20
0.370122
 10
-0.116395
 20
0.346665
 10
-0.104753
 20
0.325045
 10
-0.089084
 20
0.306095
 10
-0.069992
 20
0.290543
 10
-0.04821
 20
0.278988
 10
-0.024576
 20
0.271872
 10
0.0
 20
0.26947
210
-0.0000000000000001
220
0.0
230
-1.0
  0
LINE
  5
3494
100
AcDbEntity
  8
0
  6
CONTINUOUS
100
AcDbLine
 10
0.015748
 20
0.322085
 30
-1.781519
 11
0.015748
 21
0.391839
 31
-1.781519
210
-0.0000000000000001
220
0.0
230
-1.0
  0
LINE
  5
3495
100
AcDbEntity
  8
0
  6
CONTINUOUS
100
AcDbLine
 10
0.015748
 20
0.482299
 30
-1.781519
 11
0.015748
 21
0.417823
 31
-1.781519
210
-0.0000000000000001
220
0.0
230
-1.0
  0
LWPOLYLINE
  5
3496
100
AcDbEntity
  8
0
  6
CONTINUOUS
100
AcDbPolyline
 90
        6
 70
     0
 43
0.0
 38
1.781519
 10
-0.121484
 20
0.403432
 10
-0.118987
 20
0.386992
 10
-0.113611
 20
0.369691
 10
-0.105696
 20
0.353378
 10
-0.09542
 20
0.338419
 10
-0.091169
 20
0.333414
210
-0.0000000000000001
220
0.0
230
-1.0
  0
LWPOLYLINE
  5
3497
100
AcDbEntity
  8
0
  6
CONTINUOUS
100
AcDbPolyline
 90
        7
 70
     0
 43
0.0
 38
1.781519
 10
0.085288
 20
0.326854
 10
0.074962
 20
0.316717
 10
0.061903
 20
0.306972
 10
0.047575
 20
0.299177
 10
0.032271
 20
0.293491
 10
0.016306
 20
0.290031
 10
0.0
 20
0.28887
210
-0.0000000000000001
220
0.0
230
-1.0
  0
LINE
  5
3498
100
AcDbEntity
  8
0
  6
CONTINUOUS
100
AcDbLine
 10
-0.085285
 20
0.32685
 30
-1.781519
 11
-0.091167
 21
0.33341
 31
-1.781519
210
-0.0000000000000001
220
0.0
230
-1.0
  0
LINE
  5
3499
100
AcDbEntity
  8
0
  6
CONTINUOUS
100
AcDbLine
 10
0.066929
 20
0.310723
 30
-1.781519
 11
0.066929
 21
0.288918
 31
-1.781519
210
-0.0000000000000001
220
0.0
230
-1.0
  0
LWPOLYLINE
  5
349A
100
AcDbEntity
  8
0
  6
CONTINUOUS
100
AcDbPolyline
 90
        3
 70
     0
 43
0.0
 38
1.781519
 10
-0.11665
 20
0.391839
 10
-0.117709
 20
0.40747
 10
-0.116972
 20
0.418351
210
-0.0000000000000001
220
0.0
230
-1.0
  0
LINE
  5
349B
100
AcDbEntity
  8
0
  6
CONTINUOUS
100
AcDbLine
 10
0.124861
 20
0.383195
 30
-1.781519
 11
0.123564
 21
0.370122
 31
-1.781519
210
-0.0000000000000001
220
0.0
230
-1.0
  0
LINE
  5
349C
100
AcDbEntity
  8
0
  6
CONTINUOUS
100
AcDbLine
 10
0.123563
 20
0.365322
 30
-1.781519
 11
0.125098
 21
0.380784
 31
-1.781519
210
-0.0000000000000001
220
0.0
230
-1.0
  0
LINE
  5
349D
100
AcDbEntity
  8
0
  6
CONTINUOUS
100
AcDbLine
 10
0.109929
 20
0.432503
 30
-1.781519
 11
0.113082
 21
0.417823
 31
-1.781519
210
-0.0000000000000001
220
0.0
230
-1.0
  0
LINE
  5
41EA
100
AcDbEntity
  8
0
  6
CONTINUOUS
100
AcDbLine
 10
-0.124016
 20
-0.649606
 30
-0.800797
 11
-0.124016
 21
-0.649606
 31
-0.799717
210
0.0
220
1.0
230
0.0000000000000002
  0
LWPOLYLINE
  5
41EB
100
AcDbEntity
  8
0
  6
CONTINUOUS
100
AcDbPolyline
 90
        9
 70
     0
 43
0.0
 38
-0.649606
 10
0.125984
 20
-0.803886
 10
0.123182
 20
-0.807562
 10
0.115769
 20
-0.8108
 10
0.104005
 20
-0.813779
 10
0.088331
 20
-0.816386
 10
0.069336
 20
-0.818524
 10
0.047731
 20
-0.820111
 10
0.024322
 20
-0.821088
 10
-0.00015
 20
-0.82142
210
0.0
220
1.0
230
0.0000000000000002
  0
LINE
  5
41EC
100
AcDbEntity
  8
0
  6
CONTINUOUS
100
AcDbLine
 10
-0.124016
 20
-0.649606
 30
-0.800797
 11
-0.125984
 21
-0.649606
 31
-0.803886
210
0.0
220
1.0
230
0.0000000000000002
  0
LINE
  5
41ED
100
AcDbEntity
  8
0
  6
CONTINUOUS
100
AcDbLine
 10
-0.135827
 20
-0.649606
 30
-0.779138
 11
0.135827
 21
-0.649606
 31
-0.77914
210
0.0
220
1.0
230
0.0000000000000002
  0
LINE
  5
41EE
100
AcDbEntity
  8
0
  6
CONTINUOUS
100
AcDbLine
 10
-0.017729
 20
-0.649606
 30
-0.82142
 11
0.017718
 21
-0.649606
 31
-0.82142
210
0.0
220
1.0
230
0.0000000000000002
  0
LWPOLYLINE
  5
41EF
100
AcDbEntity
  8
0
  6
CONTINUOUS
100
AcDbPolyline
 90
        9
 70
     0
 43
0.0
 38
-0.649606
 10
0.0
 20
-0.82142
 10
-0.024313
 20
-0.82109
 10
-0.047712
 20
-0.820114
 10
-0.069317
 20
-0.818527
 10
-0.088316
 20
-0.81639
 10
-0.103995
 20
-0.813783
 10
-0.115763
 20
-0.810804
 10
-0.12318
 20
-0.807565
 10
-0.125984
 20
-0.803888
210
0.0
220
1.0
230
0.0000000000000002
  0
LINE
  5
41F0
100
AcDbEntity
  8
0
  6
CONTINUOUS
100
AcDbLine
 10
0.124016
 20
-0.649606
 30
-0.800799
 11
0.124016
 21
-0.649606
 31
-0.799719
210
0.0
220
1.0
230
0.0000000000000002
  0
LINE
  5
41F1
100
AcDbEntity
  8
0
  6
CONTINUOUS
100
AcDbLine
 10
0.125984
 20
-0.649606
 30
-0.803888
 11
0.124016
 21
-0.649606
 31
-0.800799
210
0.0
220
1.0
230
0.0000000000000002
  0
SPLINE
  5
41F2
100
AcDbEntity
  8
0
  6
CONTINUOUS
100
AcDbSpline
210
0.0000000000000042
220
1.0
230
0.0000000000000038
 70
     8
 71
     3
 72
    15
 73
    11
 74
     9
 42
0.0000001
 43
0.0000001
 44
0.0000000001
 40
0.0
 40
0.0
 40
0.0
 40
0.0
 40
0.0046308737459566
 40
0.0131147362905007
 40
0.0257490943798724
 40
0.041988271620969
 40
0.0610719055027368
 40
0.0822092924006628
 40
0.1046578974553996
 40
0.127740581772324
 40
0.127740581772324
 40
0.127740581772324
 40
0.127740581772324
 10
0.1240157479500024
 20
-0.6496062991500007
 30
-0.7997194769999956
 10
0.1232388268778384
 20
-0.6496062991500007
 30
-0.7983393431443086
 10
0.1210385693154596
 20
-0.6496062991500007
 30
-0.7944307737131659
 10
0.1122066287153041
 20
-0.6496062991500006
 30
-0.7917972957106004
 10
0.1005071587933547
 20
-0.6496062991500008
 30
-0.7884613654390056
 10
0.0845764904109413
 20
-0.6496062991500006
 30
-0.7859281335121402
 10
0.0659264272706003
 20
-0.6496062991500007
 30
-0.7837412823316679
 10
0.0450742060888701
 20
-0.649606299150001
 30
-0.7821967573698454
 10
0.022873136643343
 20
-0.6496062991500001
 30
-0.7812081287585596
 10
0.0076948376812572
 20
-0.6496062991500002
 30
-0.7810870201151734
 10
-0.0000000000499973
 20
-0.6496062991500003
 30
-0.781025622499997
 11
0.1240157479500024
 21
-0.6496062991500007
 31
-0.7997194769999956
 11
0.1213984513500019
 21
-0.6496062991500007
 31
-0.7958991693999958
 11
0.1137318936500016
 21
-0.6496062991500007
 31
-0.7922660141999965
 11
0.1015310159500018
 21
-0.6496062991500007
 31
-0.7889849186999962
 11
0.0855352860500016
 21
-0.6496062991500007
 31
-0.7861835792999968
 11
0.0665830044500027
 21
-0.6496062991500007
 31
-0.7839483825999958
 11
0.0455076873500016
 21
-0.6496062991500007
 31
-0.7823296997999956
 11
0.0230803736500018
 21
-0.6496062991500003
 31
-0.781352218799996
 11
-0.0000000000499973
 21
-0.6496062991500003
 31
-0.781025622499997
  0
SPLINE
  5
41F3
100
AcDbEntity
  8
0
  6
CONTINUOUS
100
AcDbSpline
210
-0.0000000000000023
220
-1.0
230
0.0000000000000162
 70
     8
 71
     3
 72
    16
 73
    12
 74
    10
 42
0.0000001
 43
0.0000001
 44
0.0000000001
 40
0.0
 40
0.0
 40
0.0
 40
0.0
 40
0.0033636150511688
 40
0.0094707702090035
 40
0.0186860360758134
 40
0.0309593243278772
 40
0.0460154572743706
 40
0.0630786073290621
 40
0.0817417420984398
 40
0.1014690194783967
 40
0.1212821156505213
 40
0.1212821156505213
 40
0.1212821156505213
 40
0.1212821156505213
 10
0.1358267715500023
 20
-0.6496062991500007
 30
-0.8047211057999961
 10
0.1353030113096564
 20
-0.6496062991500007
 30
-0.8057455884820374
 10
0.1338282846226044
 20
-0.6496062991500007
 30
-0.8086301754270699
 10
0.1274978179411166
 20
-0.6496062991500007
 30
-0.8107917700717671
 10
0.1189197991919158
 20
-0.6496062991500007
 30
-0.8134728340600043
 10
0.1068275429619144
 20
-0.6496062991500008
 30
-0.8156923440827876
 10
0.0922048702445258
 20
-0.6496062991500007
 30
-0.8177230099939345
 10
0.0753378384876851
 20
-0.6496062991500007
 30
-0.8193403954879514
 10
0.0568936957339178
 20
-0.6496062991500008
 30
-0.8205300807197092
 10
0.0375025589009139
 20
-0.6496062991500007
 30
-0.8212798378745342
 10
0.0243222748703938
 20
-0.6496062991500007
 30
-0.8213731527809976
 10
0.0177178295500014
 20
-0.6496062991500007
 30
-0.8214199114999969
 11
0.1358267715500023
 21
-0.6496062991500007
 31
-0.8047211057999961
 11
0.1340367964500029
 21
-0.6496062991500007
 31
-0.8075688935999965
 11
0.1286187828500012
 21
-0.6496062991500007
 31
-0.8103871328999963
 11
0.1197911632500013
 21
-0.6496062991500007
 31
-0.8130317986999964
 11
0.1077565973500025
 21
-0.6496062991500007
 31
-0.8154407046999958
 11
0.0928465724500019
 21
-0.6496062991500007
 31
-0.8175331426999958
 11
0.0758654969500015
 21
-0.6496062991500007
 31
-0.8192047181999972
 11
0.0572425926500024
 21
-0.6496062991500007
 31
-0.8204294772999967
 11
0.0375294141500025
 21
-0.6496062991500007
 31
-0.8211751757999961
 11
0.0177178295500014
 21
-0.6496062991500007
 31
-0.8214199114999969
  0
SPLINE
  5
41F4
100
AcDbEntity
  8
0
  6
CONTINUOUS
100
AcDbSpline
210
-0.0000000000000063
220
1.0
230
0.000000000000018
 70
     8
 71
     3
 72
    15
 73
    11
 74
     9
 42
0.0000001
 43
0.0000001
 44
0.0000000001
 40
0.0
 40
0.0
 40
0.0
 40
0.0
 40
0.004631762231811
 40
0.0131164615788661
 40
0.0257511730890703
 40
0.0419897838050596
 40
0.0610723963469568
 40
0.0822089930622662
 40
0.1046574484433817
 40
0.1277406036523098
 40
0.1277406036523098
 40
0.1277406036523098
 40
0.1277406036523098
 10
-0.1240157480499988
 20
-0.6496062991500007
 30
-0.7997170183999965
 10
-0.1232385958500437
 20
-0.6496062991500007
 30
-0.7983366664291242
 10
-0.1210378164357565
 20
-0.6496062991500006
 30
-0.7944277150008944
 10
-0.1122051559028974
 20
-0.6496062991500007
 30
-0.7917943095292693
 10
-0.1005054112374593
 20
-0.649606299150001
 30
-0.7884584526756165
 10
-0.0845751659496089
 20
-0.6496062991500007
 30
-0.7859253623360846
 10
-0.0659258784291149
 20
-0.6496062991500006
 30
-0.7837386186288001
 10
-0.0450743138417572
 20
-0.649606299150001
 30
-0.7821941266413761
 10
-0.0228734007286209
 20
-0.6496062991500001
 30
-0.7812054826264779
 10
-0.0076949947333222
 20
-0.6496062991500002
 30
-0.7810843696375814
 10
-0.0000000000499973
 20
-0.6496062991500003
 30
-0.7810229689999959
 11
-0.1240157480499988
 21
-0.6496062991500007
 31
-0.7997170183999965
 11
-0.1213977143499978
 21
-0.6496062991500007
 31
-0.7958961387999972
 11
-0.1137302641499982
 21
-0.6496062991500007
 31
-0.7922629128999957
 11
-0.101528994549998
 21
-0.6496062991500007
 31
-0.7889819137999963
 11
-0.0855338060499982
 21
-0.6496062991500007
 31
-0.7861807670999968
 11
-0.0665825358499976
 21
-0.6496062991500007
 31
-0.7839457146999971
 11
-0.0455080076499979
 21
-0.6496062991500007
 31
-0.7823270788999972
 11
-0.0230808444499982
 21
-0.6496062991500003
 31
-0.7813495821999963
 11
-0.0000000000499973
 21
-0.6496062991500003
 31
-0.7810229689999959
  0
SPLINE
  5
41F5
100
AcDbEntity
  8
0
  6
CONTINUOUS
100
AcDbSpline
210
0.0
220
-1.0
230
0.0
 70
     8
 71
     3
 72
    15
 73
    11
 74
     9
 42
0.0000001
 43
0.0000001
 44
0.0000000001
 40
0.0
 40
0.0
 40
0.0
 40
0.0
 40
0.0222819223000258
 40
0.0443211904100647
 40
0.0647716719903848
 40
0.0830999352897354
 40
0.0983613994517697
 40
0.1097963061239055
 40
0.1173234971883595
 40
0.1212445288899116
 40
0.1212445288899116
 40
0.1212445288899116
 40
0.1212445288899116
 10
-0.0177179972499975
 20
-0.6496062991500007
 30
-0.8214199114999969
 10
-0.0251458893268719
 20
-0.6496062991500006
 30
-0.8213612621208435
 10
-0.0399207823837507
 20
-0.6496062991500004
 30
-0.8212446020649521
 10
-0.061490437681641
 20
-0.649606299150001
 30
-0.8202996923538586
 10
-0.0817293744042875
 20
-0.6496062991500007
 30
-0.8188323939388384
 10
-0.0995828319797445
 20
-0.6496062991500007
 30
-0.8167837450130091
 10
-0.1145541248581596
 20
-0.6496062991500007
 30
-0.8144770002220681
 10
-0.1252836327156994
 20
-0.6496062991500007
 30
-0.8114765271188078
 10
-0.1331689913530816
 20
-0.6496062991500008
 30
-0.809251229839414
 10
-0.1351487140592973
 20
-0.6496062991500007
 30
-0.8058780331164342
 10
-0.1358267717499988
 20
-0.6496062991500007
 30
-0.8047227086999972
 11
-0.0177179972499975
 21
-0.6496062991500007
 31
-0.8214199114999969
 11
-0.0399977646499981
 21
-0.6496062991500007
 31
-0.8211100308999972
 11
-0.062016868649998
 21
-0.6496062991500007
 31
-0.820167482299996
 11
-0.0824096650499975
 21
-0.6496062991500007
 31
-0.8186325386999966
 11
-0.1006174210499982
 21
-0.6496062991500007
 31
-0.8165342400999966
 11
-0.1156607317499976
 21
-0.6496062991500007
 31
-0.813963035799996
 11
-0.126723070749998
 21
-0.6496062991500007
 31
-0.8110679111999958
 11
-0.1335620606499983
 21
-0.6496062991500007
 31
-0.8079235793999961
 11
-0.1358267717499988
 21
-0.6496062991500007
 31
-0.8047227086999972
  0
LINE
  5
41F6
100
AcDbEntity
  8
0
  6
CONTINUOUS
100
AcDbLine
 10
0.135827
 20
-0.649606
 30
-0.77914
 11
0.135827
 21
-0.649606
 31
-1.260026
210
0.0
220
1.0
230
0.0000000000000002
  0
SPLINE
  5
41F7
100
AcDbEntity
  8
0
  6
CONTINUOUS
100
AcDbSpline
210
-0.0000000000003665
220
-1.0
230
-0.0000000000000699
 70
     8
 71
     3
 72
    13
 73
     9
 74
     7
 42
0.0000001
 43
0.0000001
 44
0.0000000001
 40
0.0
 40
0.0
 40
0.0
 40
0.0
 40
0.0835776145869979
 40
0.1720395715759645
 40
0.2569039154225281
 40
0.3322678324344357
 40
0.39868427522765
 40
0.4121392565566947
 40
0.4121392565566947
 40
0.4121392565566947
 40
0.4121392565566947
 10
0.0177259810500026
 20
-0.6496062991500007
 30
-0.8214199114999969
 10
0.0228117420174709
 20
-0.6496062991500007
 30
-0.8488112836829944
 10
0.0332804798763418
 20
-0.6496062991500007
 30
-0.905194801668369
 10
0.0499936046237134
 20
-0.6496062991500006
 30
-0.9891837813057605
 10
0.0658771041931021
 20
-0.649606299150001
 30
-1.070545137943956
 10
0.0795223225921454
 20
-0.6496062991499996
 30
-1.144853034316497
 10
0.0880038130999515
 20
-0.6496062991499998
 30
-1.195902731100001
 10
0.091973870647695
 20
-0.6496062991499998
 30
-1.222228908491203
 10
0.0926426586500018
 20
-0.6496062991499998
 30
-1.226663763999996
 11
0.0177259810500026
 21
-0.6496062991500007
 31
-0.8214199114999969
 11
0.0331540043500027
 21
-0.6496062991500007
 31
-0.9035612150999972
 11
0.0501740442500012
 21
-0.6496062991500007
 31
-0.990370408599996
 11
0.0663192254500018
 21
-0.6496062991500007
 31
-1.073684812999997
 11
0.0798379145500015
 21
-0.6496062991499998
 31
-1.147826333299996
 11
0.0906251186500029
 21
-0.6496062991499998
 31
-1.213360905099995
 11
0.0926426586500018
 21
-0.6496062991499998
 31
-1.226663763999996
  0
LINE
  5
41F8
100
AcDbEntity
  8
0
  6
CONTINUOUS
100
AcDbLine
 10
-0.135827
 20
-0.649606
 30
-1.260016
 11
-0.135827
 21
-0.649606
 31
-0.779138
210
0.0
220
1.0
230
0.0000000000000002
  0
SPLINE
  5
41F9
100
AcDbEntity
  8
0
  6
CONTINUOUS
100
AcDbSpline
210
0.0000000000001703
220
1.0
230
-0.0000000000000287
 70
     8
 71
     3
 72
    13
 73
     9
 74
     7
 42
0.0000001
 43
0.0000001
 44
0.0000000001
 40
0.0
 40
0.0
 40
0.0
 40
0.0
 40
0.0591158660049746
 40
0.1256261522154844
 40
0.1998553979600778
 40
0.2829440083573631
 40
0.3722700680932774
 40
0.4577400436736411
 40
0.4577400436736411
 40
0.4577400436736411
 40
0.4577400436736411
 10
-0.0989735040499973
 20
-0.6496062991499998
 30
-1.271824549199997
 10
-0.0962689355518049
 20
-0.6496062991499998
 30
-1.252304947546811
 10
-0.0905215016259865
 20
-0.6496062991499999
 30
-1.210824163889472
 10
-0.0795400090869618
 20
-0.6496062991499995
 30
-1.145109427712397
 10
-0.0661106809763829
 20
-0.6496062991500012
 30
-1.071717566905286
 10
-0.0503855692428659
 20
-0.6496062991500006
 30
-0.9910198093163277
 10
-0.0336092235355722
 20
-0.6496062991500007
 30
-0.9067103159132976
 10
-0.0229437476451416
 20
-0.6496062991500008
 30
-0.8494288272909223
 10
-0.017728652449998
 20
-0.6496062991500007
 30
-0.8214199114999969
 11
-0.0989735040499973
 21
-0.6496062991499998
 31
-1.271824549199997
 11
-0.0906039581499982
 21
-0.6496062991499998
 31
-1.213304156899996
 11
-0.0798053787499988
 21
-0.6496062991499998
 31
-1.147676351399996
 11
-0.0665106084499971
 21
-0.6496062991500007
 31
-1.074647384499995
 11
-0.0507312985499979
 21
-0.6496062991500007
 31
-0.9930708525999962
 11
-0.0335426528499987
 21
-0.6496062991500007
 31
-0.9054141619999969
 11
-0.017728652449998
 21
-0.6496062991500007
 31
-0.8214199114999969
  0
LINE
  5
41FA
100
AcDbEntity
  8
0
  6
CONTINUOUS
100
AcDbLine
 10
-0.114682
 20
-0.649606
 30
-1.492563
 11
-0.115734
 21
-0.649606
 31
-1.490787
210
0.0
220
1.0
230
0.0000000000000002
  0
LINE
  5
41FB
100
AcDbEntity
  8
0
  6
CONTINUOUS
100
AcDbLine
 10
-0.115734
 20
-0.649606
 30
-1.490787
 11
-0.120073
 21
-0.649606
 31
-1.438039
210
0.0
220
1.0
230
0.0000000000000002
  0
LINE
  5
41FC
100
AcDbEntity
  8
0
  6
CONTINUOUS
100
AcDbLine
 10
-0.114417
 20
-0.649606
 30
-1.369504
 11
-0.114417
 21
-0.649606
 31
-1.379346
210
0.0
220
1.0
230
0.0000000000000002
  0
LINE
  5
41FD
100
AcDbEntity
  8
0
  6
CONTINUOUS
100
AcDbLine
 10
-0.064961
 20
-0.649606
 30
-1.389692
 11
-0.064961
 21
-0.649606
 31
-1.379346
210
0.0
220
1.0
230
0.0000000000000002
  0
LWPOLYLINE
  5
41FE
100
AcDbEntity
  8
0
  6
CONTINUOUS
100
AcDbPolyline
 90
        3
 70
     0
 43
0.0
 38
-0.649606
 10
-0.124008
 20
-1.438039
 10
-0.123674
 20
-1.436778
 10
-0.12218
 20
-1.43557
210
0.0
220
1.0
230
0.0000000000000002
  0
LINE
  5
41FF
100
AcDbEntity
  8
0
  6
CONTINUOUS
100
AcDbLine
 10
0.068898
 20
-0.649606
 30
-1.389692
 11
0.068898
 21
-0.649606
 31
-1.379344
210
0.0
220
1.0
230
0.0000000000000002
  0
LWPOLYLINE
  5
4200
100
AcDbEntity
  8
0
  6
CONTINUOUS
100
AcDbPolyline
 90
        3
 70
     0
 43
0.0
 38
-0.649606
 10
0.120071
 20
-1.438039
 10
0.119737
 20
-1.436778
 10
0.118243
 20
-1.43557
210
0.0
220
1.0
230
0.0000000000000002
  0
LINE
  5
4201
100
AcDbEntity
  8
0
  6
CONTINUOUS
100
AcDbLine
 10
0.114419
 20
-0.649606
 30
-1.369502
 11
0.114419
 21
-0.649606
 31
-1.379344
210
0.0
220
1.0
230
0.0000000000000002
  0
LINE
  5
4202
100
AcDbEntity
  8
0
  6
CONTINUOUS
100
AcDbLine
 10
0.123102
 20
-0.649606
 30
-1.49465
 11
0.123102
 21
-0.649606
 31
-1.449072
210
0.0
220
1.0
230
0.0000000000000002
  0
LINE
  5
4203
100
AcDbEntity
  8
0
  6
CONTINUOUS
100
AcDbLine
 10
0.123102
 20
-0.649606
 30
-1.436316
 11
0.123102
 21
-0.649606
 31
-1.435316
210
0.0
220
1.0
230
0.0000000000000002
  0
LINE
  5
4204
100
AcDbEntity
  8
0
  6
CONTINUOUS
100
AcDbLine
 10
0.129921
 20
-0.649606
 30
-1.49465
 11
0.129921
 21
-0.649606
 31
-1.433436
210
0.0
220
1.0
230
0.0000000000000002
  0
LINE
  5
4205
100
AcDbEntity
  8
0
  6
CONTINUOUS
100
AcDbLine
 10
0.119671
 20
-0.649606
 30
-1.490787
 11
0.12401
 21
-0.649606
 31
-1.438039
210
0.0
220
1.0
230
0.0000000000000002
  0
LINE
  5
4206
100
AcDbEntity
  8
0
  6
CONTINUOUS
100
AcDbLine
 10
0.098979
 20
-0.649606
 30
-1.271825
 11
-0.098974
 21
-0.649606
 31
-1.271825
210
0.0
220
1.0
230
0.0000000000000002
  0
LINE
  5
4207
100
AcDbEntity
  8
0
  6
CONTINUOUS
100
AcDbLine
 10
0.105487
 20
-0.649606
 30
-1.311895
 11
-0.105481
 21
-0.649606
 31
-1.311896
210
0.0
220
1.0
230
0.0000000000000002
  0
LINE
  5
4208
100
AcDbEntity
  8
0
  6
CONTINUOUS
100
AcDbLine
 10
0.119671
 20
-0.649606
 30
-1.490787
 11
0.118619
 21
-0.649606
 31
-1.492563
210
0.0
220
1.0
230
0.0000000000000002
  0
LINE
  5
4209
100
AcDbEntity
  8
0
  6
CONTINUOUS
100
AcDbLine
 10
-0.064961
 20
-0.649606
 30
-1.389692
 11
-0.102485
 21
-0.649606
 31
-1.379346
210
0.0
220
1.0
230
0.0000000000000002
  0
LWPOLYLINE
  5
420A
100
AcDbEntity
  8
0
  6
CONTINUOUS
100
AcDbPolyline
 90
        3
 70
     0
 43
0.0
 38
-0.649606
 10
-0.001969
 20
-1.379616
 10
0.009654
 20
-1.379492
 10
0.014127
 20
-1.379346
210
0.0
220
1.0
230
0.0000000000000002
  0
LINE
  5
420B
100
AcDbEntity
  8
0
  6
CONTINUOUS
100
AcDbLine
 10
0.114419
 20
-0.649606
 30
-1.369502
 11
-0.114417
 21
-0.649606
 31
-1.369504
210
0.0
220
1.0
230
0.0000000000000002
  0
LINE
  5
420C
100
AcDbEntity
  8
0
  6
CONTINUOUS
100
AcDbLine
 10
0.114419
 20
-0.649606
 30
-1.379344
 11
-0.114417
 21
-0.649606
 31
-1.379346
210
0.0
220
1.0
230
0.0000000000000002
  0
LINE
  5
420D
100
AcDbEntity
  8
0
  6
CONTINUOUS
100
AcDbLine
 10
0.068898
 20
-0.649606
 30
-1.389692
 11
-0.064961
 21
-0.649606
 31
-1.389692
210
0.0
220
1.0
230
0.0000000000000002
  0
LWPOLYLINE
  5
420E
100
AcDbEntity
  8
0
  6
CONTINUOUS
100
AcDbPolyline
 90
        3
 70
     0
 43
0.0
 38
-0.649606
 10
-0.018124
 20
-1.379344
 10
-0.013591
 20
-1.379492
 10
-0.001969
 20
-1.379616
210
0.0
220
1.0
230
0.0000000000000002
  0
LINE
  5
420F
100
AcDbEntity
  8
0
  6
CONTINUOUS
100
AcDbLine
 10
0.106429
 20
-0.649606
 30
-1.379344
 11
0.068898
 21
-0.649606
 31
-1.389692
210
0.0
220
1.0
230
0.0000000000000002
  0
LINE
  5
4210
100
AcDbEntity
  8
0
  6
CONTINUOUS
100
AcDbLine
 10
-0.135827
 20
-0.649606
 30
-1.430723
 11
-0.064961
 21
-0.649606
 31
-1.450261
210
0.0
220
1.0
230
0.0000000000000002
  0
LWPOLYLINE
  5
4211
100
AcDbEntity
  8
0
  6
CONTINUOUS
100
AcDbPolyline
 90
        9
 70
     0
 43
0.0
 38
-0.649606
 10
0.050986
 20
-1.451291
 10
0.066783
 20
-1.450179
 10
0.081045
 20
-1.448793
 10
0.093452
 20
-1.447164
 10
0.103728
 20
-1.445327
 10
0.111642
 20
-1.443324
 10
0.117019
 20
-1.4412
 10
0.119737
 20
-1.439001
 10
0.120071
 20
-1.438039
210
0.0
220
1.0
230
0.0000000000000002
  0
LWPOLYLINE
  5
4212
100
AcDbEntity
  8
0
  6
CONTINUOUS
100
AcDbPolyline
 90
        4
 70
     0
 43
0.0
 38
-0.649606
 10
-0.001969
 20
-1.452764
 10
0.016222
 20
-1.452598
 10
0.034006
 20
-1.452103
 10
0.050986
 20
-1.451291
210
0.0
220
1.0
230
0.0000000000000002
  0
LINE
  5
4213
100
AcDbEntity
  8
0
  6
CONTINUOUS
100
AcDbLine
 10
-0.064961
 20
-0.649606
 30
-1.450261
 11
0.068898
 21
-0.649606
 31
-1.450261
210
0.0
220
1.0
230
0.0000000000000002
  0
LWPOLYLINE
  5
4214
100
AcDbEntity
  8
0
  6
CONTINUOUS
100
AcDbPolyline
 90
        4
 70
     0
 43
0.0
 38
-0.649606
 10
-0.001969
 20
-1.452764
 10
-0.020159
 20
-1.452598
 10
-0.037943
 20
-1.452103
 10
-0.054923
 20
-1.451291
210
0.0
220
1.0
230
0.0000000000000002
  0
LWPOLYLINE
  5
4215
100
AcDbEntity
  8
0
  6
CONTINUOUS
100
AcDbPolyline
 90
        9
 70
     0
 43
0.0
 38
-0.649606
 10
-0.054923
 20
-1.451291
 10
-0.07072
 20
-1.450179
 10
-0.084982
 20
-1.448793
 10
-0.097389
 20
-1.447164
 10
-0.107665
 20
-1.445327
 10
-0.115579
 20
-1.443324
 10
-0.120956
 20
-1.4412
 10
-0.123674
 20
-1.439001
 10
-0.124008
 20
-1.438039
210
0.0
220
1.0
230
0.0000000000000002
  0
LINE
  5
4216
100
AcDbEntity
  8
0
  6
CONTINUOUS
100
AcDbLine
 10
0.068898
 20
-0.649606
 30
-1.450261
 11
0.135827
 21
-0.649606
 31
-1.431808
210
0.0
220
1.0
230
0.0000000000000002
  0
LINE
  5
4217
100
AcDbEntity
  8
0
  6
CONTINUOUS
100
AcDbLine
 10
-0.135827
 20
-0.649606
 30
-1.49465
 11
0.135827
 21
-0.649606
 31
-1.49465
210
0.0
220
1.0
230
0.0000000000000002
  0
LINE
  5
4218
100
AcDbEntity
  8
0
  6
CONTINUOUS
100
AcDbLine
 10
0.135827
 20
-0.649606
 30
-1.548406
 11
-0.135827
 21
-0.649606
 31
-1.548413
210
0.0
220
1.0
230
0.0000000000000002
  0
SPLINE
  5
4219
100
AcDbEntity
  8
0
  6
CONTINUOUS
100
AcDbSpline
210
0.9965737758539567
220
0.0
230
0.0827085804508081
 70
    24
 71
     3
 72
     8
 73
     4
 74
     2
 42
0.0000001
 43
0.0000001
 44
0.0000000001
 40
0.0
 40
0.0
 40
0.0
 40
0.0
 40
0.0020945215001378
 40
0.0020945215001378
 40
0.0020945215001378
 40
0.0020945215001378
 10
-0.1145085533499976
 20
-0.6496062991499998
 30
-1.494649917399995
 10
-0.1145662983166643
 20
-0.6496062991499998
 30
-1.493954135666662
 10
-0.114624043283331
 20
-0.6496062991499999
 30
-1.493258353933329
 10
-0.1146817882499977
 20
-0.6496062991499998
 30
-1.492562572199996
 11
-0.1145085533499976
 21
-0.6496062991499998
 31
-1.494649917399995
 11
-0.1146817882499977
 21
-0.6496062991499998
 31
-1.492562572199996
  0
SPLINE
  5
421A
100
AcDbEntity
  8
0
  6
CONTINUOUS
100
AcDbSpline
210
0.996573779789232
220
0.0
230
-0.0827085330338024
 70
    24
 71
     3
 72
     8
 73
     4
 74
     2
 42
0.0000001
 43
0.0000001
 44
0.0000000001
 40
0.0
 40
0.0
 40
0.0
 40
0.0
 40
0.002094521491867
 40
0.002094521491867
 40
0.002094521491867
 40
0.002094521491867
 10
0.1186187959500025
 20
-0.6496062991499998
 30
-1.492562572199996
 10
0.1185610510166691
 20
-0.6496062991499998
 30
-1.493258353933329
 10
0.1185033060833357
 20
-0.6496062991499999
 30
-1.493954135666662
 10
0.1184455611500024
 20
-0.6496062991499998
 30
-1.494649917399995
 11
0.1186187959500025
 21
-0.6496062991499998
 31
-1.492562572199996
 11
0.1184455611500024
 21
-0.6496062991499998
 31
-1.494649917399995
  0
SPLINE
  5
421B
100
AcDbEntity
  8
0
  6
CONTINUOUS
100
AcDbSpline
210
0.0000000000000179
220
1.0
230
0.0000000000003525
 70
     8
 71
     3
 72
    14
 73
    10
 74
     8
 42
0.0000001
 43
0.0000001
 44
0.0000000001
 40
0.0
 40
0.0
 40
0.0
 40
0.0
 40
0.0018730220839525
 40
0.0048733470736339
 40
0.0082964599324943
 40
0.0120931030141006
 40
0.0162009999414404
 40
0.0205488789537097
 40
0.0214477146282341
 40
0.0214477146282341
 40
0.0214477146282341
 40
0.0214477146282341
 10
0.1358274360500022
 20
-0.6496062991499998
 30
-1.380429129599996
 10
0.1352072394952742
 20
-0.6496062991499998
 30
-1.380357197546691
 10
0.1335935729555378
 20
-0.6496062991499998
 30
-1.380170040190417
 10
0.1308388876409224
 20
-0.6496062991499997
 30
-1.379921569517216
 10
0.1274399380299839
 20
-0.6496062991499999
 30
-1.379689108399471
 10
0.1236681805024629
 20
-0.6496062991499997
 30
-1.379507240840298
 10
0.1195856527032774
 20
-0.6496062991499999
 30
-1.379385872005536
 10
0.1164674967807751
 20
-0.6496062991499996
 30
-1.37934667161788
 10
0.1147185932992589
 20
-0.6496062991499999
 30
-1.379344643453028
 10
0.1144189816500027
 20
-0.6496062991499998
 30
-1.379344295999996
 11
0.1358274360500022
 21
-0.6496062991499998
 31
-1.380429129599996
 11
0.1339661908500016
 21
-0.6496062991499998
 31
-1.380219420199996
 11
0.1309785038500024
 21
-0.6496062991499998
 31
-1.379944326699996
 11
0.1275635265500021
 21
-0.6496062991499998
 31
-1.379708462999995
 11
0.1237713939500011
 21
-0.6496062991499998
 31
-1.379523452099996
 11
0.1196653628500019
 21
-0.6496062991499998
 31
-1.379399654799995
 11
0.1153178158500019
 21
-0.6496062991499998
 31
-1.379345924099996
 11
0.1144189816500027
 21
-0.6496062991499998
 31
-1.379344295999996
  0
SPLINE
  5
421C
100
AcDbEntity
  8
0
  6
CONTINUOUS
100
AcDbSpline
210
0.0000000000000013
220
1.0
230
0.0000000000001335
 70
     8
 71
     3
 72
    12
 73
     8
 74
     6
 42
0.0000001
 43
0.0000001
 44
0.0000000001
 40
0.0
 40
0.0
 40
0.0
 40
0.0
 40
0.0081425716261905
 40
0.0156409728121272
 40
0.0220012274534299
 40
0.0267854082714523
 40
0.0296901833026314
 40
0.0296901833026314
 40
0.0296901833026314
 40
0.0296901833026314
 10
0.1054845776500013
 20
-0.6496062991499998
 30
-1.311894880399996
 10
0.1081983353449207
 20
-0.6496062991499998
 30
-1.311945454585782
 10
0.1134111614978291
 20
-0.6496062991499998
 30
-1.312042601961474
 10
0.1207486564137212
 20
-0.6496062991499999
 30
-1.311783746906081
 10
0.1269313489767326
 20
-0.6496062991499997
 30
-1.311285677323338
 10
0.131654728724468
 20
-0.6496062991499999
 30
-1.311312677382831
 10
0.1341461628767137
 20
-0.6496062991499997
 30
-1.311940068655756
 10
0.1350873902500016
 20
-0.6496062991499998
 30
-1.312177087899995
 11
0.1054845776500013
 21
-0.6496062991499998
 31
-1.311894880399996
 11
0.1136267990500013
 21
-0.6496062991499998
 31
-1.311970400999997
 11
0.1211206668500022
 21
-0.6496062991499998
 31
-1.311709698599996
 11
0.1274706013500015
 21
-0.6496062991499998
 31
-1.311347523299995
 11
0.1322503476500021
 21
-0.6496062991499998
 31
-1.311553463599996
 11
0.1350873902500016
 21
-0.6496062991499998
 31
-1.312177087899995
  0
SPLINE
  5
421D
100
AcDbEntity
  8
0
  6
CONTINUOUS
100
AcDbSpline
210
0.0
220
-1.0
230
0.0
 70
     8
 71
     3
 72
    17
 73
    13
 74
    11
 42
0.0000001
 43
0.0000001
 44
0.0000000001
 40
0.0
 40
0.0
 40
0.0
 40
0.0
 40
0.0037777596683236
 40
0.0076487650468178
 40
0.0116015185607605
 40
0.0156244463332295
 40
0.0197061543642923
 40
0.0238352119971597
 40
0.0280002030385197
 40
0.0321896326202183
 40
0.0363920857930221
 40
0.0405971413614268
 40
0.0405971413614268
 40
0.0405971413614268
 40
0.0405971413614268
 10
0.0989788593500016
 20
-0.6496062991499998
 30
-1.271825134599995
 10
0.0992128812629664
 20
-0.6496062991499997
 30
-1.273062459711485
 10
0.0996867014064454
 20
-0.6496062991499998
 30
-1.275567650590533
 10
0.1003634761892131
 20
-0.6496062991499998
 30
-1.279375210630885
 10
0.1010302427919963
 20
-0.6496062991499998
 30
-1.283267422309332
 10
0.1016852505828314
 20
-0.6496062991499998
 30
-1.287232841286791
 10
0.1023313026569659
 20
-0.6496062991499999
 30
-1.291259247889826
 10
0.1029698944094557
 20
-0.6496062991499996
 30
-1.295334780617217
 10
0.1036028018244048
 20
-0.6496062991499998
 30
-1.299447529624303
 10
0.1042317032802034
 20
-0.6496062991499997
 30
-1.303585638941235
 10
0.1048580690520065
 20
-0.6496062991500001
 30
-1.307737637967023
 10
0.1052757088263359
 20
-0.6496062991499998
 30
-1.310508846996094
 10
0.1054845933500026
 20
-0.6496062991499998
 30
-1.311894880399996
 11
0.0989788593500016
 21
-0.6496062991499998
 31
-1.271825134599995
 11
0.0996741851500023
 21
-0.6496062991499998
 31
-1.275538352899997
 11
0.1003547771500024
 21
-0.6496062991499998
 31
-1.279349058499996
 11
0.1010224559500017
 21
-0.6496062991499998
 31
-1.283245013499995
 11
0.1016790322500025
 21
-0.6496062991499998
 31
-1.287214000199996
 11
0.1023263489500028
 21
-0.6496062991499998
 31
-1.291244052499997
 11
0.1029661889500026
 21
-0.6496062991499998
 31
-1.295323233999996
 11
0.1036002850500015
 21
-0.6496062991499998
 31
-1.299439673299995
 11
0.1042302968500017
 21
-0.6496062991499998
 31
-1.303581460999995
 11
0.1048578366500017
 21
-0.6496062991499998
 31
-1.307736795699995
 11
0.1054845933500026
 21
-0.6496062991499998
 31
-1.311894880399996
  0
SPLINE
  5
421E
100
AcDbEntity
  8
0
  6
CONTINUOUS
100
AcDbSpline
210
0.9546259640647333
220
0.0
230
-0.297807435658478
 70
    24
 71
     3
 72
     8
 73
     4
 74
     2
 42
0.0000001
 43
0.0000001
 44
0.0000000001
 40
0.0
 40
0.0
 40
0.0
 40
0.0
 40
0.0042301589858351
 40
0.0042301589858351
 40
0.0042301589858351
 40
0.0042301589858351
 10
0.1358267689500021
 20
-0.6496062991499998
 30
-1.253073756399996
 10
0.1354068446833357
 20
-0.6496062991499998
 30
-1.254419829599996
 10
0.1349869204166693
 20
-0.6496062991499998
 30
-1.255765902799996
 10
0.1345669961500029
 20
-0.6496062991499998
 30
-1.257111975999996
 11
0.1358267689500021
 21
-0.6496062991499998
 31
-1.253073756399996
 11
0.1345669961500029
 21
-0.6496062991499998
 31
-1.257111975999996
  0
SPLINE
  5
421F
100
AcDbEntity
  8
0
  6
CONTINUOUS
100
AcDbSpline
210
0.8265318956347066
220
0.0
230
-0.5628898875432907
 70
    24
 71
     3
 72
     8
 73
     4
 74
     2
 42
0.0000001
 43
0.0000001
 44
0.0000000001
 40
0.0
 40
0.0
 40
0.0
 40
0.0
 40
0.0012888492333162
 40
0.0012888492333162
 40
0.0012888492333162
 40
0.0012888492333162
 10
0.1345669961500029
 20
-0.6496062991499998
 30
-1.257111975999996
 10
0.134325169416669
 20
-0.6496062991499998
 30
-1.257467067666663
 10
0.1340833426833352
 20
-0.6496062991499999
 30
-1.257822159333329
 10
0.1338415159500013
 20
-0.6496062991499998
 30
-1.258177250999996
 11
0.1345669961500029
 21
-0.6496062991499998
 31
-1.257111975999996
 11
0.1338415159500013
 21
-0.6496062991499998
 31
-1.258177250999996
  0
SPLINE
  5
4220
100
AcDbEntity
  8
0
  6
CONTINUOUS
100
AcDbSpline
210
-0.0000000000000122
220
-1.0
230
0.0000000000000312
 70
     8
 71
     3
 72
    12
 73
     8
 74
     6
 42
0.0000001
 43
0.0000001
 44
0.0000000001
 40
0.0
 40
0.0
 40
0.0
 40
0.0
 40
0.0041842219325676
 40
0.0111304338008551
 40
0.0193967478732075
 40
0.0285913695185446
 40
0.0382072944680617
 40
0.0382072944680617
 40
0.0382072944680617
 40
0.0382072944680617
 10
0.1338415159500013
 20
-0.6496062991499998
 30
-1.258177250999996
 10
0.1328863402855942
 20
-0.6496062991499998
 30
-1.259200224260573
 10
0.1303454809162286
 20
-0.6496062991499999
 30
-1.26192143177308
 10
0.1246709622613787
 20
-0.6496062991499997
 30
-1.265206317000566
 10
0.1171376388419909
 20
-0.6496062991499999
 30
-1.268270136895535
 10
0.1083840273378727
 20
-0.6496062991499998
 30
-1.270620287307835
 10
0.1021603794119552
 20
-0.6496062991499998
 30
-1.271417566565427
 10
0.0989788593500016
 20
-0.6496062991499998
 30
-1.271825134599995
 11
0.1338415159500013
 21
-0.6496062991499998
 31
-1.258177250999996
 11
0.1308748954500025
 21
-0.6496062991499998
 31
-1.261127992599996
 11
0.1250060860500017
 21
-0.6496062991499998
 31
-1.264843761099997
 11
0.1173668895500022
 21
-0.6496062991499998
 31
-1.268002024099996
 11
0.1084861984500023
 21
-0.6496062991499998
 31
-1.270384122499996
 11
0.0989788593500016
 21
-0.6496062991499998
 31
-1.271825134599995
  0
SPLINE
  5
4221
100
AcDbEntity
  8
0
  6
CONTINUOUS
100
AcDbSpline
210
0.0
220
1.0
230
0.0
 70
     8
 71
     3
 72
    10
 73
     6
 74
     4
 42
0.0000001
 43
0.0000001
 44
0.0000000001
 40
0.0
 40
0.0
 40
0.0
 40
0.0
 40
0.015539844902726
 40
0.0328656929783296
 40
0.0521613810198181
 40
0.0521613810198181
 40
0.0521613810198181
 40
0.0521613810198181
 10
0.1350873902500016
 20
-0.6496062991499998
 30
-1.312177087899995
 10
0.1350109380228353
 20
-0.6496062991499998
 30
-1.306996867458784
 10
0.1348492468707493
 20
-0.6496062991499998
 30
-1.296041060908164
 10
0.1354830764352147
 20
-0.6496062991499998
 30
-1.278661283148864
 10
0.1357081706391717
 20
-0.6496062991499998
 30
-1.266456461037238
 10
0.1358267715500023
 20
-0.6496062991499998
 30
-1.260025806699997
 11
0.1350873902500016
 21
-0.6496062991499998
 31
-1.312177087899995
 11
0.1349834664500022
 21
-0.6496062991499998
 31
-1.296637590499996
 11
0.1354099190500015
 21
-0.6496062991499998
 31
-1.279316991499995
 11
0.1358267715500023
 21
-0.6496062991499998
 31
-1.260025806699997
  0
SPLINE
  5
4222
100
AcDbEntity
  8
0
  6
CONTINUOUS
100
AcDbSpline
210
0.0000000000000207
220
1.0
230
0.0000000000001177
 70
     8
 71
     3
 72
    17
 73
    13
 74
    11
 42
0.0000001
 43
0.0000001
 44
0.0000000001
 40
0.0
 40
0.0
 40
0.0
 40
0.0
 40
0.0002968031866219
 40
0.0008339476458358
 40
0.0017581404793955
 40
0.0031752029810625
 40
0.0051706137869497
 40
0.0078106222216346
 40
0.0110596855791615
 40
0.0147164865575858
 40
0.0184642982332291
 40
0.0219657922287054
 40
0.0219657922287054
 40
0.0219657922287054
 40
0.0219657922287054
 10
0.1358267712500023
 20
-0.6496062991499998
 30
-1.373266679799995
 10
0.1357879346883276
 20
-0.6496062991499998
 30
-1.373173198364272
 10
0.1356788130190167
 20
-0.6496062991499998
 30
-1.372910537359385
 10
0.1351175704714008
 20
-0.6496062991499999
 30
-1.372637148354082
 10
0.1342491208295375
 20
-0.6496062991499997
 30
-1.372278069478619
 10
0.1328423355733593
 20
-0.6496062991500001
 30
-1.3718923430892
 10
0.130877699420444
 20
-0.6496062991499995
 30
-1.371454977545753
 10
0.1282868305024946
 20
-0.6496062991499999
 30
-1.370997165383222
 10
0.1251382776876065
 20
-0.6496062991499999
 30
-1.370540119417918
 10
0.1216111464889495
 20
-0.6496062991499996
 30
-1.370122357564233
 10
0.1179928122216316
 20
-0.6496062991500001
 30
-1.369768017044031
 10
0.1155829737241713
 20
-0.6496062991499998
 30
-1.369588630004024
 10
0.1144189953500021
 20
-0.6496062991499998
 30
-1.369501984099996
 11
0.1358267712500023
 21
-0.6496062991499998
 31
-1.373266679799995
 11
0.1356903629500028
 21
-0.6496062991499998
 31
-1.373003079899995
 11
0.1352445836500014
 21
-0.6496062991499998
 31
-1.372703405099996
 11
0.1343895515500026
 21
-0.6496062991499998
 31
-1.372352616699996
 11
0.1330298261500022
 21
-0.6496062991499998
 31
-1.371953601699996
 11
0.1310834970500014
 21
-0.6496062991499998
 31
-1.371513752499995
 11
0.1284855119500019
 21
-0.6496062991499998
 31
-1.371044585199997
 11
0.1252708712500024
 21
-0.6496062991499998
 31
-1.370572888399997
 11
0.1216400140500013
 21
-0.6496062991499998
 31
-1.370138067299996
 11
0.1179098278500028
 21
-0.6496062991499998
 31
-1.369775020099996
 11
0.1144189953500021
 21
-0.6496062991499998
 31
-1.369501984099996
  0
SPLINE
  5
4223
100
AcDbEntity
  8
0
  6
CONTINUOUS
100
AcDbSpline
210
-0.0000000000016195
220
1.0
230
-0.0000000000002511
 70
     8
 71
     3
 72
     9
 73
     5
 74
     3
 42
0.0000001
 43
0.0000001
 44
0.0000000001
 40
0.0
 40
0.0
 40
0.0
 40
0.0
 40
0.0295051960757087
 40
0.0582954779218418
 40
0.0582954779218418
 40
0.0582954779218418
 40
0.0582954779218418
 10
0.1144189956500021
 20
-0.6496062991499998
 30
-1.369501892899996
 10
0.1128895192762773
 20
-0.6496062991499999
 30
-1.359786466651862
 10
0.1098676259139126
 20
-0.6496062991499999
 30
-1.340591020029643
 10
0.1069349907528254
 20
-0.6496062991499998
 30
-1.321381735082492
 10
0.1054866555500027
 20
-0.6496062991499998
 30
-1.311894880399996
 11
0.1144189956500021
 21
-0.6496062991499998
 31
-1.369501892899996
 11
0.1098534317500022
 21
-0.6496062991499998
 31
-1.340352069199997
 11
0.1054866555500027
 21
-0.6496062991499998
 31
-1.311894880399996
  0
SPLINE
  5
4224
100
AcDbEntity
  8
0
  6
CONTINUOUS
100
AcDbSpline
210
0.0000000000012116
220
-1.0
230
0.0000000000000207
 70
     8
 71
     3
 72
    10
 73
     6
 74
     4
 42
0.0000001
 43
0.0000001
 44
0.0000000001
 40
0.0
 40
0.0
 40
0.0
 40
0.0
 40
0.0147735972005233
 40
0.0291732164204733
 40
0.0431872593570294
 40
0.0431872593570294
 40
0.0431872593570294
 40
0.0431872593570294
 10
0.1350873902500016
 20
-0.6496062991499998
 30
-1.312177087899995
 10
0.1352263630653524
 20
-0.6496062991499998
 30
-1.317099663416925
 10
0.1355007907462863
 20
-0.6496062991499998
 30
-1.326820204660355
 10
0.1357678646789788
 20
-0.6496062991499996
 30
-1.341213975860493
 10
0.1358073143717748
 20
-0.6496062991499999
 30
-1.350685211429936
 10
0.1358267715500023
 20
-0.6496062991499998
 30
-1.355356566399996
 11
0.1350873902500016
 21
-0.6496062991499998
 31
-1.312177087899995
 11
0.1354801977500024
 21
-0.6496062991499998
 31
-1.326945462099996
 11
0.1357352525500026
 21
-0.6496062991499998
 31
-1.341342822299997
 11
0.1358267715500023
 21
-0.6496062991499998
 31
-1.355356566399996
  0
SPLINE
  5
4225
100
AcDbEntity
  8
0
  6
CONTINUOUS
100
AcDbSpline
210
0.9893779231030038
220
0.0
230
0.1453661765211799
 70
    24
 71
     3
 72
     8
 73
     4
 74
     2
 42
0.0000001
 43
0.0000001
 44
0.0000000001
 40
0.0
 40
0.0
 40
0.0
 40
0.0
 40
0.0122533180869631
 40
0.0122533180869631
 40
0.0122533180869631
 40
0.0122533180869631
 10
0.0926426586500018
 20
-0.6496062991499998
 30
-1.226663763999996
 10
0.093236397983335
 20
-0.6496062991499998
 30
-1.23070481813333
 10
0.0938301373166682
 20
-0.6496062991499998
 30
-1.234745872266663
 10
0.0944238766500014
 20
-0.6496062991499998
 30
-1.238786926399996
 11
0.0926426586500018
 21
-0.6496062991499998
 31
-1.226663763999996
 11
0.0944238766500014
 21
-0.6496062991499998
 31
-1.238786926399996
  0
SPLINE
  5
4226
100
AcDbEntity
  8
0
  6
CONTINUOUS
100
AcDbSpline
210
0.9903348407778308
220
0.0
230
0.1386971634228634
 70
    24
 71
     3
 72
     8
 73
     4
 74
     2
 42
0.0000001
 43
0.0000001
 44
0.0000000001
 40
0.0
 40
0.0
 40
0.0
 40
0.0
 40
0.0228251308236777
 40
0.0228251308236777
 40
0.0228251308236777
 40
0.0228251308236777
 10
0.0944238766500014
 20
-0.6496062991499998
 30
-1.238786926399996
 10
0.0954791369500014
 20
-0.6496062991499998
 30
-1.246321767166663
 10
0.0965343972500013
 20
-0.6496062991499997
 30
-1.25385660793333
 10
0.0975896575500013
 20
-0.6496062991499998
 30
-1.261391448699996
 11
0.0944238766500014
 21
-0.6496062991499998
 31
-1.238786926399996
 11
0.0975896575500013
 21
-0.6496062991499998
 31
-1.261391448699996
  0
SPLINE
  5
4227
100
AcDbEntity
  8
0
  6
CONTINUOUS
100
AcDbSpline
210
0.9909751211206392
220
0.0
230
0.1340459224293458
 70
    24
 71
     3
 72
     8
 73
     4
 74
     2
 42
0.0000001
 43
0.0000001
 44
0.0000000001
 40
0.0
 40
0.0
 40
0.0
 40
0.0
 40
0.0005568957163877
 40
0.0005568957163877
 40
0.0005568957163877
 40
0.0005568957163877
 10
0.0975896575500013
 20
-0.6496062991499998
 30
-1.261391448699996
 10
0.0976145407500013
 20
-0.6496062991499998
 30
-1.261575405299996
 10
0.0976394239500014
 20
-0.6496062991499998
 30
-1.261759361899996
 10
0.0976643071500014
 20
-0.6496062991499998
 30
-1.261943318499995
 11
0.0975896575500013
 21
-0.6496062991499998
 31
-1.261391448699996
 11
0.0976643071500014
 21
-0.6496062991499998
 31
-1.261943318499995
  0
SPLINE
  5
4228
100
AcDbEntity
  8
0
  6
CONTINUOUS
100
AcDbSpline
210
0.9912675858692859
220
0.0
230
0.1318657393141892
 70
    24
 71
     3
 72
     8
 73
     4
 74
     2
 42
0.0000001
 43
0.0000001
 44
0.0000000001
 40
0.0
 40
0.0
 40
0.0
 40
0.0
 40
0.0099688683871714
 40
0.0099688683871714
 40
0.0099688683871714
 40
0.0099688683871714
 10
0.0976643071500014
 20
-0.6496062991499998
 30
-1.261943318499995
 10
0.0981024912166682
 20
-0.6496062991499998
 30
-1.265237257199995
 10
0.0985406752833349
 20
-0.6496062991499998
 30
-1.268531195899996
 10
0.0989788593500016
 20
-0.6496062991499998
 30
-1.271825134599995
 11
0.0976643071500014
 21
-0.6496062991499998
 31
-1.261943318499995
 11
0.0989788593500016
 21
-0.6496062991499998
 31
-1.271825134599995
  0
SPLINE
  5
4229
100
AcDbEntity
  8
0
  6
CONTINUOUS
100
AcDbSpline
210
0.0
220
1.0
230
0.0
 70
     8
 71
     3
 72
    13
 73
     9
 74
     7
 42
0.0000001
 43
0.0000001
 44
0.0000000001
 40
0.0
 40
0.0
 40
0.0
 40
0.0
 40
0.000512559461647
 40
0.0056705515735772
 40
0.0105025224109561
 40
0.0148769602599263
 40
0.0186824381900639
 40
0.0214497914865845
 40
0.0214497914865845
 40
0.0214497914865845
 40
0.0214497914865845
 10
-0.1144167176499984
 20
-0.6496062991499998
 30
-1.379346260699995
 10
-0.1145875707010492
 20
-0.6496062991499998
 30
-1.379346372141786
 10
-0.1164777534212619
 20
-0.6496062991499999
 30
-1.379347605045423
 10
-0.119978602737419
 20
-0.6496062991499998
 30
-1.379391502871905
 10
-0.1247645505164862
 20
-0.6496062991499998
 30
-1.37954926421769
 10
-0.1290952773990747
 20
-0.6496062991499998
 30
-1.379792085016471
 10
-0.1327338979295265
 20
-0.6496062991499997
 30
-1.380078342183473
 10
-0.1349106556002479
 20
-0.6496062991499998
 30
-1.380328328839941
 10
-0.1358271339499986
 20
-0.6496062991499998
 30
-1.380433580499995
 11
-0.1144167176499984
 21
-0.6496062991499998
 31
-1.379346260699995
 11
-0.1149292768499972
 21
-0.6496062991499998
 31
-1.379346778599995
 11
-0.1200868693499988
 21
-0.6496062991499998
 31
-1.379410983199996
 11
-0.1249160975499972
 21
-0.6496062991499998
 31
-1.379573762699997
 11
-0.1292835872499971
 21
-0.6496062991499998
 31
-1.379820217999996
 11
-0.133076298449998
 21
-0.6496062991499998
 31
-1.380131672699996
 11
-0.1358271339499986
 21
-0.6496062991499998
 31
-1.380433580499995
  0
SPLINE
  5
422A
100
AcDbEntity
  8
0
  6
CONTINUOUS
100
AcDbSpline
210
0.0000000000000414
220
1.0
230
-0.0000000000002354
 70
     8
 71
     3
 72
    17
 73
    13
 74
    11
 42
0.0000001
 43
0.0000001
 44
0.0000000001
 40
0.0
 40
0.0
 40
0.0
 40
0.0
 40
0.0035290267139958
 40
0.0071829554180801
 40
0.0108193846288788
 40
0.0140743013534445
 40
0.0167330795620018
 40
0.0187553402525687
 40
0.0201941125139874
 40
0.0211345091658801
 40
0.0216768176036079
 40
0.0219683925347817
 40
0.0219683925347817
 40
0.0219683925347817
 40
0.0219683925347817
 10
-0.1144167359499981
 20
-0.6496062991499998
 30
-1.369503879799997
 10
-0.1155898716874282
 20
-0.6496062991499997
 30
-1.369591155673989
 10
-0.1179776636720843
 20
-0.6496062991499998
 30
-1.369768796355901
 10
-0.1215672625248657
 20
-0.6496062991499998
 30
-1.370119794900014
 10
-0.1250587060799467
 20
-0.6496062991499998
 30
-1.370531591117886
 10
-0.1282089760482791
 20
-0.6496062991499998
 30
-1.370986520578102
 10
-0.1308172370544245
 20
-0.6496062991499996
 30
-1.371444817747335
 10
-0.1328041361115888
 20
-0.6496062991499999
 30
-1.371884583678274
 10
-0.1342327522658746
 20
-0.6496062991499997
 30
-1.372274191199474
 10
-0.1351140577404903
 20
-0.6496062991500001
 30
-1.37263738912676
 10
-0.135681300961426
 20
-0.6496062991499998
 30
-1.372913801664927
 10
-0.1357890786110655
 20
-0.6496062991499997
 30
-1.373176946578959
 10
-0.1358267640499982
 20
-0.6496062991499998
 30
-1.373268957599996
 11
-0.1144167359499981
 21
-0.6496062991499998
 31
-1.369503879799997
 11
-0.1179350162499979
 21
-0.6496062991499998
 31
-1.369779076599995
 11
-0.1215718158499985
 21
-0.6496062991499998
 31
-1.370132465399996
 11
-0.1251826728499985
 21
-0.6496062991499998
 31
-1.370562964099996
 11
-0.1284034669499974
 21
-0.6496062991499998
 31
-1.371033036699995
 11
-0.131020401149998
 21
-0.6496062991499998
 31
-1.371502884499997
 11
-0.1329934729499982
 21
-0.6496062991499998
 31
-1.371946196999997
 11
-0.1343745765499982
 21
-0.6496062991499998
 31
-1.372349456799995
 11
-0.1352449059499978
 21
-0.6496062991499998
 31
-1.372705648599995
 11
-0.1356942904499974
 21
-0.6496062991499998
 31
-1.373009214099996
 11
-0.1358267640499982
 21
-0.6496062991499998
 31
-1.373268957599996
  0
SPLINE
  5
422B
100
AcDbEntity
  8
0
  6
CONTINUOUS
100
AcDbSpline
210
0.9545962398630839
220
0.0
230
0.2979027002886372
 70
    24
 71
     3
 72
     8
 73
     4
 74
     2
 42
0.0000001
 43
0.0000001
 44
0.0000000001
 40
0.0
 40
0.0
 40
0.0
 40
0.0
 40
0.0042294772715412
 40
0.0042294772715412
 40
0.0042294772715412
 40
0.0042294772715412
 10
-0.1358267717499988
 20
-0.6496062991499998
 30
-1.253069650799996
 10
-0.1354067808499983
 20
-0.6496062991499998
 30
-1.254415465166662
 10
-0.1349867899499978
 20
-0.6496062991499999
 30
-1.255761279533329
 10
-0.1345667990499972
 20
-0.6496062991499998
 30
-1.257107093899995
 11
-0.1358267717499988
 21
-0.6496062991499998
 31
-1.253069650799996
 11
-0.1345667990499972
 21
-0.6496062991499998
 31
-1.257107093899995
  0
SPLINE
  5
422C
100
AcDbEntity
  8
0
  6
CONTINUOUS
100
AcDbSpline
210
0.0
220
-1.0
230
0.0
 70
     8
 71
     3
 72
    12
 73
     8
 74
     6
 42
0.0000001
 43
0.0000001
 44
0.0000000001
 40
0.0
 40
0.0
 40
0.0
 40
0.0
 40
0.0054555254341911
 40
0.0124027116490498
 40
0.0206704370665041
 40
0.0298666446921228
 40
0.0394840876173049
 40
0.0394840876173049
 40
0.0394840876173049
 40
0.0394840876173049
 10
-0.1345667990499972
 20
-0.6496062991499998
 30
-1.257107093899995
 10
-0.1334006889617951
 20
-0.6496062991499998
 30
-1.258518576242573
 10
-0.1307496286103251
 20
-0.6496062991499998
 30
-1.261727471280071
 10
-0.1246572722512999
 20
-0.6496062991499998
 30
-1.265192300724242
 10
-0.1171385818177425
 20
-0.6496062991499998
 30
-1.268269392873856
 10
-0.108378940284145
 20
-0.6496062991500001
 30
-1.270617072613346
 10
-0.1021550997999028
 20
-0.6496062991499998
 30
-1.271416093676982
 10
-0.0989735040499973
 20
-0.6496062991499998
 30
-1.271824549199997
 11
-0.1345667990499972
 21
-0.6496062991499998
 31
-1.257107093899995
 11
-0.1308741191499987
 21
-0.6496062991499998
 31
-1.261122921699995
 11
-0.1250044067499978
 21
-0.6496062991499998
 31
-1.264839085399995
 11
-0.1173640701499981
 21
-0.6496062991499998
 31
-1.267998284699996
 11
-0.1084821123499982
 21
-0.6496062991499998
 31
-1.270381782199996
 11
-0.0989735040499973
 21
-0.6496062991499998
 31
-1.271824549199997
  0
SPLINE
  5
422D
100
AcDbEntity
  8
0
  6
CONTINUOUS
100
AcDbSpline
210
0.0000000000005417
220
1.0
230
-0.000000000000088
 70
     8
 71
     3
 72
    16
 73
    12
 74
    10
 42
0.0000001
 43
0.0000001
 44
0.0000000001
 40
0.0
 40
0.0
 40
0.0
 40
0.0
 40
0.0046682326364353
 40
0.009333670962872
 40
0.0139803737321479
 40
0.0185933705022145
 40
0.0231567741218306
 40
0.0276548412825588
 40
0.0320718921443123
 40
0.0363932177540211
 40
0.0405993444842449
 40
0.0405993444842449
 40
0.0405993444842449
 40
0.0405993444842449
 10
-0.1054824086499977
 20
-0.6496062991499998
 30
-1.311895993199995
 10
-0.1052502791647272
 20
-0.6496062991499998
 30
-1.310357327168392
 10
-0.104786159142219
 20
-0.6496062991499998
 30
-1.307280916119671
 10
-0.1040903703933192
 20
-0.6496062991499998
 30
-1.302673026941968
 10
-0.1033910127819524
 20
-0.6496062991500001
 30
-1.298084299765322
 10
-0.1026860941382104
 20
-0.6496062991499998
 30
-1.293530832744081
 10
-0.1019730016620742
 20
-0.6496062991499997
 30
-1.28902879103806
 10
-0.1012496119905216
 20
-0.6496062991499998
 30
-1.284594541804895
 10
-0.1005120175166732
 20
-0.6496062991499998
 30
-1.280244467311848
 10
-0.0997622444439283
 20
-0.6496062991499998
 30
-1.275995183431247
 10
-0.0992340389739054
 20
-0.6496062991499997
 30
-1.273202183565433
 10
-0.0989735040499973
 20
-0.6496062991499998
 30
-1.271824549199997
 11
-0.1054824086499977
 21
-0.6496062991499998
 31
-1.311895993199995
 11
-0.1047859183499984
 21
-0.6496062991499998
 31
-1.307280010399996
 11
-0.1040883774499974
 21
-0.6496062991499998
 31
-1.302667012299996
 11
-0.1033875174499972
 21
-0.6496062991499998
 31
-1.298073468799995
 11
-0.1026808935499979
 21
-0.6496062991499998
 31
-1.293514913999996
 11
-0.1019660965499973
 21
-0.6496062991499998
 31
-1.289007839799995
 11
-0.101240600749998
 21
-0.6496062991499998
 31
-1.284568665999995
 11
-0.1005017766499971
 21
-0.6496062991499998
 31
-1.280213843699995
 11
-0.0997467694499985
 21
-0.6496062991499998
 31
-1.275958985399996
 11
-0.0989735040499973
 21
-0.6496062991499998
 31
-1.271824549199997
  0
SPLINE
  5
422E
100
AcDbEntity
  8
0
  6
CONTINUOUS
100
AcDbSpline
210
-0.0000000000000001
220
1.0
230
0.0000000000001074
 70
     8
 71
     3
 72
    11
 73
     7
 74
     5
 42
0.0000001
 43
0.0000001
 44
0.0000000001
 40
0.0
 40
0.0
 40
0.0
 40
0.0
 40
0.0039440627553581
 40
0.0107246198429857
 40
0.0196357402074426
 40
0.0297131298140874
 40
0.0297131298140874
 40
0.0297131298140874
 40
0.0297131298140874
 10
-0.135080991349998
 20
-0.6496062991499998
 30
-1.311924226299995
 10
-0.133793710782021
 20
-0.6496062991499998
 30
-1.311645085479335
 10
-0.1302933621366907
 20
-0.6496062991499999
 30
-1.31088605111048
 10
-0.1236882027207448
 20
-0.6496062991499997
 30
-1.31098151070853
 10
-0.1151930337088483
 20
-0.6496062991499998
 30
-1.312371612047225
 10
-0.1088490944252441
 20
-0.6496062991499998
 30
-1.312060894217939
 10
-0.1054823032499978
 20
-0.6496062991499998
 30
-1.311895993199995
 11
-0.135080991349998
 21
-0.6496062991499998
 31
-1.311924226299995
 11
-0.1312046448499977
 21
-0.6496062991499998
 31
-1.311196511499995
 11
-0.1244245781499984
 21
-0.6496062991499998
 31
-1.311114964199997
 11
-0.1155589939499979
 21
-0.6496062991499998
 31
-1.312014676899996
 11
-0.1054823032499978
 21
-0.6496062991499998
 31
-1.311895993199995
  0
SPLINE
  5
422F
100
AcDbEntity
  8
0
  6
CONTINUOUS
100
AcDbSpline
210
-0.0000000000006003
220
1.0
230
0.0000000000000103
 70
     8
 71
     3
 72
    10
 73
     6
 74
     4
 42
0.0000001
 43
0.0000001
 44
0.0000000001
 40
0.0
 40
0.0
 40
0.0
 40
0.0
 40
0.0141089537419971
 40
0.0285926436712573
 40
0.0434386382526806
 40
0.0434386382526806
 40
0.0434386382526806
 40
0.0434386382526806
 10
-0.1358267717499988
 20
-0.6496062991499998
 30
-1.355354989899995
 10
-0.1358071256104265
 20
-0.6496062991499998
 30
-1.350651998218476
 10
-0.1357673115265066
 20
-0.6496062991499999
 30
-1.341121102604415
 10
-0.1354982616253974
 20
-0.6496062991499998
 30
-1.326643553996961
 10
-0.1352212221823221
 20
-0.6496062991499998
 30
-1.316870908812238
 10
-0.135080991349998
 20
-0.6496062991499998
 30
-1.311924226299995
 11
-0.1358267717499988
 21
-0.6496062991499998
 31
-1.355354989899995
 11
-0.1357344063499983
 21
-0.6496062991499998
 31
-1.341246338499996
 11
-0.1354772467499981
 21
-0.6496062991499998
 31
-1.326764931699996
 11
-0.135080991349998
 21
-0.6496062991499998
 31
-1.311924226299995
  0
SPLINE
  5
4230
100
AcDbEntity
  8
0
  6
CONTINUOUS
100
AcDbSpline
210
-0.000000000004077
220
-1.0
230
0.0000000000006324
 70
     8
 71
     3
 72
     9
 73
     5
 74
     3
 42
0.0000001
 43
0.0000001
 44
0.0000000001
 40
0.0
 40
0.0
 40
0.0
 40
0.0
 40
0.0288552188887924
 40
0.0582968320585966
 40
0.0582968320585966
 40
0.0582968320585966
 40
0.0582968320585966
 10
-0.1054806151499985
 20
-0.6496062991499998
 30
-1.311895993199995
 10
-0.1069373774821154
 20
-0.6496062991499999
 30
-1.321403451130382
 10
-0.1098805063958834
 20
-0.6496062991500001
 30
-1.34061157706448
 10
-0.1128945471203086
 20
-0.6496062991499998
 30
-1.359808704075585
 10
-0.1144167262499973
 20
-0.6496062991499998
 30
-1.369503817299995
 11
-0.1054806151499985
 21
-0.6496062991499998
 31
-1.311895993199995
 11
-0.1098682752499975
 21
-0.6496062991499998
 31
-1.340415672299996
 11
-0.1144167262499973
 21
-0.6496062991499998
 31
-1.369503817299995
  0
SPLINE
  5
4231
100
AcDbEntity
  8
0
  6
CONTINUOUS
100
AcDbSpline
210
-0.000000000000241
220
-1.0
230
-0.0000000000000035
 70
     8
 71
     3
 72
    10
 73
     6
 74
     4
 42
0.0000001
 43
0.0000001
 44
0.0000000001
 40
0.0
 40
0.0
 40
0.0
 40
0.0
 40
0.0156264877806337
 40
0.0328849646459588
 40
0.0519179692553476
 40
0.0519179692553476
 40
0.0519179692553476
 40
0.0519179692553476
 10
-0.135080991349998
 20
-0.6496062991499998
 30
-1.311924226299995
 10
-0.1350074627749606
 20
-0.6496062991499998
 30
-1.306715077355329
 10
-0.134852726494837
 20
-0.6496062991499999
 30
-1.295752749717431
 10
-0.1354912354722275
 20
-0.6496062991499998
 30
-1.278454393841229
 10
-0.135711338892444
 20
-0.6496062991499999
 30
-1.266359480142944
 10
-0.1358267717499988
 20
-0.6496062991499998
 30
-1.260016323599995
 11
-0.135080991349998
 21
-0.6496062991499998
 31
-1.311924226299995
 11
-0.1349866672499989
 21
-0.6496062991499998
 31
-1.296298023199995
 11
-0.1354182510499982
 21
-0.6496062991499998
 31
-1.279044943499996
 11
-0.1358267717499988
 21
-0.6496062991499998
 31
-1.260016323599995
  0
LINE
  5
4232
100
AcDbEntity
  8
0
  6
CONTINUOUS
100
AcDbLine
 10
0.135827
 20
-0.649606
 30
-1.355264
 11
0.135827
 21
-0.649606
 31
-1.548406
210
0.0
220
1.0
230
0.0000000000000002
  0
LINE
  5
4233
100
AcDbEntity
  8
0
  6
CONTINUOUS
100
AcDbLine
 10
-0.135827
 20
-0.649606
 30
-1.355267
 11
-0.135827
 21
-0.649606
 31
-1.548413
210
0.0
220
1.0
230
0.0000000000000002
  0
SPLINE
  5
4236
100
AcDbEntity
  8
0
  6
CONTINUOUS
100
AcDbSpline
210
0.0000000000000045
220
-1.0
230
0.000000000000032
 70
     8
 71
     3
 72
    15
 73
    11
 74
     9
 42
0.0000001
 43
0.0000001
 44
0.0000000001
 40
0.0
 40
0.0
 40
0.0
 40
0.0
 40
0.0222819223000258
 40
0.0443211904100647
 40
0.0647716719903848
 40
0.0830999352897354
 40
0.0983613994517697
 40
0.1097963061239055
 40
0.1173234971883595
 40
0.1212445288899116
 40
0.1212445288899116
 40
0.1212445288899116
 40
0.1212445288899116
 10
-0.0177179972499975
 20
0.6496062992500025
 30
-0.8214199114999969
 10
-0.0251458893268719
 20
0.6496062992500024
 30
-0.8213612621208435
 10
-0.0399207823837507
 20
0.6496062992500025
 30
-0.8212446020649521
 10
-0.061490437681641
 20
0.6496062992500026
 30
-0.8202996923538586
 10
-0.0817293744042875
 20
0.6496062992500028
 30
-0.8188323939388384
 10
-0.0995828319797445
 20
0.6496062992500022
 30
-0.8167837450130091
 10
-0.1145541248581596
 20
0.6496062992500025
 30
-0.8144770002220681
 10
-0.1252836327156994
 20
0.6496062992500025
 30
-0.8114765271188078
 10
-0.1331689913530816
 20
0.6496062992500025
 30
-0.809251229839414
 10
-0.1351487140592973
 20
0.6496062992500026
 30
-0.8058780331164342
 10
-0.1358267717499988
 20
0.6496062992500025
 30
-0.8047227086999972
 11
-0.0177179972499975
 21
0.6496062992500025
 31
-0.8214199114999969
 11
-0.0399977646499981
 21
0.6496062992500025
 31
-0.8211100308999972
 11
-0.062016868649998
 21
0.6496062992500025
 31
-0.820167482299996
 11
-0.0824096650499975
 21
0.6496062992500025
 31
-0.8186325386999966
 11
-0.1006174210499982
 21
0.6496062992500025
 31
-0.8165342400999966
 11
-0.1156607317499976
 21
0.6496062992500025
 31
-0.813963035799996
 11
-0.126723070749998
 21
0.6496062992500025
 31
-0.8110679111999958
 11
-0.1335620606499983
 21
0.6496062992500025
 31
-0.8079235793999961
 11
-0.1358267717499988
 21
0.6496062992500025
 31
-0.8047227086999972
  0
SPLINE
  5
4237
100
AcDbEntity
  8
0
  6
CONTINUOUS
100
AcDbSpline
210
-0.0000000000000084
220
1.0
230
0.0000000000000321
 70
     8
 71
     3
 72
    15
 73
    11
 74
     9
 42
0.0000001
 43
0.0000001
 44
0.0000000001
 40
0.0
 40
0.0
 40
0.0
 40
0.0
 40
0.004631762231811
 40
0.0131164615788661
 40
0.0257511730890703
 40
0.0419897838050596
 40
0.0610723963469568
 40
0.0822089930622662
 40
0.1046574484433817
 40
0.1277406036523098
 40
0.1277406036523098
 40
0.1277406036523098
 40
0.1277406036523098
 10
-0.1240157480499988
 20
0.6496062992500025
 30
-0.7997170183999965
 10
-0.1232385958500437
 20
0.6496062992500025
 30
-0.7983366664291242
 10
-0.1210378164357565
 20
0.6496062992500022
 30
-0.7944277150008944
 10
-0.1122051559028974
 20
0.6496062992500025
 30
-0.7917943095292693
 10
-0.1005054112374593
 20
0.6496062992500028
 30
-0.7884584526756165
 10
-0.0845751659496089
 20
0.6496062992500024
 30
-0.7859253623360846
 10
-0.0659258784291149
 20
0.6496062992500025
 30
-0.7837386186288001
 10
-0.0450743138417572
 20
0.6496062992500024
 30
-0.7821941266413761
 10
-0.0228734007286209
 20
0.649606299250003
 30
-0.7812054826264779
 10
-0.0076949947333222
 20
0.649606299250003
 30
-0.7810843696375814
 10
-0.0000000000499973
 20
0.6496062992500029
 30
-0.7810229689999959
 11
-0.1240157480499988
 21
0.6496062992500025
 31
-0.7997170183999965
 11
-0.1213977143499978
 21
0.6496062992500025
 31
-0.7958961387999972
 11
-0.1137302641499982
 21
0.6496062992500025
 31
-0.7922629128999957
 11
-0.101528994549998
 21
0.6496062992500025
 31
-0.7889819137999963
 11
-0.0855338060499982
 21
0.6496062992500025
 31
-0.7861807670999968
 11
-0.0665825358499976
 21
0.6496062992500025
 31
-0.7839457146999971
 11
-0.0455080076499979
 21
0.6496062992500025
 31
-0.7823270788999972
 11
-0.0230808444499982
 21
0.6496062992500029
 31
-0.7813495821999963
 11
-0.0000000000499973
 21
0.6496062992500029
 31
-0.7810229689999959
  0
SPLINE
  5
4238
100
AcDbEntity
  8
0
  6
CONTINUOUS
100
AcDbSpline
210
0.0000000000000023
220
-1.0
230
-0.0000000000000162
 70
     8
 71
     3
 72
    16
 73
    12
 74
    10
 42
0.0000001
 43
0.0000001
 44
0.0000000001
 40
0.0
 40
0.0
 40
0.0
 40
0.0
 40
0.0033636150511688
 40
0.0094707702090035
 40
0.0186860360758134
 40
0.0309593243278772
 40
0.0460154572743706
 40
0.0630786073290621
 40
0.0817417420984398
 40
0.1014690194783967
 40
0.1212821156505213
 40
0.1212821156505213
 40
0.1212821156505213
 40
0.1212821156505213
 10
0.1358267715500023
 20
0.6496062992500025
 30
-0.8047211057999961
 10
0.1353030113096564
 20
0.6496062992500025
 30
-0.8057455884820374
 10
0.1338282846226044
 20
0.6496062992500026
 30
-0.8086301754270699
 10
0.1274978179411166
 20
0.6496062992500024
 30
-0.8107917700717671
 10
0.1189197991919158
 20
0.6496062992500024
 30
-0.8134728340600043
 10
0.1068275429619144
 20
0.6496062992500026
 30
-0.8156923440827876
 10
0.0922048702445258
 20
0.6496062992500024
 30
-0.8177230099939345
 10
0.0753378384876851
 20
0.6496062992500025
 30
-0.8193403954879514
 10
0.0568936957339178
 20
0.6496062992500025
 30
-0.8205300807197092
 10
0.0375025589009139
 20
0.6496062992500025
 30
-0.8212798378745342
 10
0.0243222748703938
 20
0.6496062992500026
 30
-0.8213731527809976
 10
0.0177178295500014
 20
0.6496062992500025
 30
-0.8214199114999969
 11
0.1358267715500023
 21
0.6496062992500025
 31
-0.8047211057999961
 11
0.1340367964500029
 21
0.6496062992500025
 31
-0.8075688935999965
 11
0.1286187828500012
 21
0.6496062992500025
 31
-0.8103871328999963
 11
0.1197911632500013
 21
0.6496062992500025
 31
-0.8130317986999964
 11
0.1077565973500025
 21
0.6496062992500025
 31
-0.8154407046999958
 11
0.0928465724500019
 21
0.6496062992500025
 31
-0.8175331426999958
 11
0.0758654969500015
 21
0.6496062992500025
 31
-0.8192047181999972
 11
0.0572425926500024
 21
0.6496062992500025
 31
-0.8204294772999967
 11
0.0375294141500025
 21
0.6496062992500025
 31
-0.8211751757999961
 11
0.0177178295500014
 21
0.6496062992500025
 31
-0.8214199114999969
  0
LINE
  5
4239
100
AcDbEntity
  8
0
  6
CONTINUOUS
100
AcDbLine
 10
0.125984
 20
0.649606
 30
-0.803888
 11
0.124016
 21
0.649606
 31
-0.800799
210
0.0
220
1.0
230
0.0000000000000002
  0
LINE
  5
423A
100
AcDbEntity
  8
0
  6
CONTINUOUS
100
AcDbLine
 10
0.124016
 20
0.649606
 30
-0.800799
 11
0.124016
 21
0.649606
 31
-0.799719
210
0.0
220
1.0
230
0.0000000000000002
  0
LWPOLYLINE
  5
423B
100
AcDbEntity
  8
0
  6
CONTINUOUS
100
AcDbPolyline
 90
        9
 70
     0
 43
0.0
 38
0.649606
 10
0.0
 20
-0.82142
 10
-0.024313
 20
-0.82109
 10
-0.047712
 20
-0.820114
 10
-0.069317
 20
-0.818527
 10
-0.088316
 20
-0.81639
 10
-0.103995
 20
-0.813783
 10
-0.115763
 20
-0.810804
 10
-0.12318
 20
-0.807565
 10
-0.125984
 20
-0.803888
210
0.0
220
1.0
230
0.0000000000000002
  0
LINE
  5
423C
100
AcDbEntity
  8
0
  6
CONTINUOUS
100
AcDbLine
 10
-0.017729
 20
0.649606
 30
-0.82142
 11
0.017718
 21
0.649606
 31
-0.82142
210
0.0
220
1.0
230
0.0000000000000002
  0
LINE
  5
423D
100
AcDbEntity
  8
0
  6
CONTINUOUS
100
AcDbLine
 10
-0.124016
 20
0.649606
 30
-0.800797
 11
-0.125984
 21
0.649606
 31
-0.803886
210
0.0
220
1.0
230
0.0000000000000002
  0
LWPOLYLINE
  5
423E
100
AcDbEntity
  8
0
  6
CONTINUOUS
100
AcDbPolyline
 90
        9
 70
     0
 43
0.0
 38
0.649606
 10
0.125984
 20
-0.803886
 10
0.123182
 20
-0.807562
 10
0.115769
 20
-0.8108
 10
0.104005
 20
-0.813779
 10
0.088331
 20
-0.816386
 10
0.069336
 20
-0.818524
 10
0.047731
 20
-0.820111
 10
0.024322
 20
-0.821088
 10
-0.00015
 20
-0.82142
210
0.0
220
1.0
230
0.0000000000000002
  0
LINE
  5
423F
100
AcDbEntity
  8
0
  6
CONTINUOUS
100
AcDbLine
 10
-0.124016
 20
0.649606
 30
-0.800797
 11
-0.124016
 21
0.649606
 31
-0.799717
210
0.0
220
1.0
230
0.0000000000000002
  0
LINE
  5
4240
100
AcDbEntity
  8
0
  6
CONTINUOUS
100
AcDbLine
 10
0.135827
 20
0.649606
 30
-0.77914
 11
0.135827
 21
0.649606
 31
-1.260026
210
0.0
220
1.0
230
0.0000000000000002
  0
SPLINE
  5
4241
100
AcDbEntity
  8
0
  6
CONTINUOUS
100
AcDbSpline
210
0.0000000000000063
220
1.0
230
0.000000000000018
 70
     8
 71
     3
 72
    15
 73
    11
 74
     9
 42
0.0000001
 43
0.0000001
 44
0.0000000001
 40
0.0
 40
0.0
 40
0.0
 40
0.0
 40
0.0046308737459566
 40
0.0131147362905007
 40
0.0257490943798724
 40
0.041988271620969
 40
0.0610719055027368
 40
0.0822092924006628
 40
0.1046578974553996
 40
0.127740581772324
 40
0.127740581772324
 40
0.127740581772324
 40
0.127740581772324
 10
0.1240157479500024
 20
0.6496062992500025
 30
-0.7997194769999956
 10
0.1232388268778384
 20
0.6496062992500025
 30
-0.7983393431443086
 10
0.1210385693154596
 20
0.6496062992500026
 30
-0.7944307737131659
 10
0.1122066287153041
 20
0.6496062992500025
 30
-0.7917972957106004
 10
0.1005071587933547
 20
0.6496062992500025
 30
-0.7884613654390056
 10
0.0845764904109413
 20
0.6496062992500025
 30
-0.7859281335121402
 10
0.0659264272706003
 20
0.6496062992500026
 30
-0.7837412823316679
 10
0.0450742060888701
 20
0.6496062992500022
 30
-0.7821967573698454
 10
0.022873136643343
 20
0.6496062992500029
 30
-0.7812081287585596
 10
0.0076948376812572
 20
0.6496062992500029
 30
-0.7810870201151734
 10
-0.0000000000499973
 20
0.6496062992500029
 30
-0.781025622499997
 11
0.1240157479500024
 21
0.6496062992500025
 31
-0.7997194769999956
 11
0.1213984513500019
 21
0.6496062992500025
 31
-0.7958991693999958
 11
0.1137318936500016
 21
0.6496062992500025
 31
-0.7922660141999965
 11
0.1015310159500018
 21
0.6496062992500025
 31
-0.7889849186999962
 11
0.0855352860500016
 21
0.6496062992500025
 31
-0.7861835792999968
 11
0.0665830044500027
 21
0.6496062992500025
 31
-0.7839483825999958
 11
0.0455076873500016
 21
0.6496062992500025
 31
-0.7823296997999956
 11
0.0230803736500018
 21
0.6496062992500029
 31
-0.781352218799996
 11
-0.0000000000499973
 21
0.6496062992500029
 31
-0.781025622499997
  0
LINE
  5
4242
100
AcDbEntity
  8
0
  6
CONTINUOUS
100
AcDbLine
 10
-0.135827
 20
0.649606
 30
-0.779138
 11
0.135827
 21
0.649606
 31
-0.77914
210
0.0
220
1.0
230
0.0000000000000002
  0
LINE
  5
4243
100
AcDbEntity
  8
0
  6
CONTINUOUS
100
AcDbLine
 10
-0.135827
 20
0.649606
 30
-1.355267
 11
-0.135827
 21
0.649606
 31
-1.548413
210
0.0
220
1.0
230
0.0000000000000002
  0
LINE
  5
4244
100
AcDbEntity
  8
0
  6
CONTINUOUS
100
AcDbLine
 10
0.135827
 20
0.649606
 30
-1.355264
 11
0.135827
 21
0.649606
 31
-1.548406
210
0.0
220
1.0
230
0.0000000000000002
  0
SPLINE
  5
4245
100
AcDbEntity
  8
0
  6
CONTINUOUS
100
AcDbSpline
210
0.0
220
-1.0
230
0.0
 70
     8
 71
     3
 72
    10
 73
     6
 74
     4
 42
0.0000001
 43
0.0000001
 44
0.0000000001
 40
0.0
 40
0.0
 40
0.0
 40
0.0
 40
0.0156264877806337
 40
0.0328849646459588
 40
0.0519179692553476
 40
0.0519179692553476
 40
0.0519179692553476
 40
0.0519179692553476
 10
-0.135080991349998
 20
0.6496062992500034
 30
-1.311924226299995
 10
-0.1350074627749606
 20
0.6496062992500034
 30
-1.306715077355329
 10
-0.134852726494837
 20
0.6496062992500034
 30
-1.295752749717431
 10
-0.1354912354722275
 20
0.6496062992500034
 30
-1.278454393841229
 10
-0.135711338892444
 20
0.6496062992500035
 30
-1.266359480142944
 10
-0.1358267717499988
 20
0.6496062992500034
 30
-1.260016323599995
 11
-0.135080991349998
 21
0.6496062992500034
 31
-1.311924226299995
 11
-0.1349866672499989
 21
0.6496062992500034
 31
-1.296298023199995
 11
-0.1354182510499982
 21
0.6496062992500034
 31
-1.279044943499996
 11
-0.1358267717499988
 21
0.6496062992500034
 31
-1.260016323599995
  0
SPLINE
  5
4246
100
AcDbEntity
  8
0
  6
CONTINUOUS
100
AcDbSpline
210
0.000000000004077
220
-1.0
230
-0.0000000000006324
 70
     8
 71
     3
 72
     9
 73
     5
 74
     3
 42
0.0000001
 43
0.0000001
 44
0.0000000001
 40
0.0
 40
0.0
 40
0.0
 40
0.0
 40
0.0288552188887924
 40
0.0582968320585966
 40
0.0582968320585966
 40
0.0582968320585966
 40
0.0582968320585966
 10
-0.1054806151499985
 20
0.6496062992500034
 30
-1.311895993199995
 10
-0.1069373774821154
 20
0.6496062992500035
 30
-1.321403451130382
 10
-0.1098805063958834
 20
0.6496062992500037
 30
-1.34061157706448
 10
-0.1128945471203086
 20
0.6496062992500034
 30
-1.359808704075585
 10
-0.1144167262499973
 20
0.6496062992500034
 30
-1.369503817299995
 11
-0.1054806151499985
 21
0.6496062992500034
 31
-1.311895993199995
 11
-0.1098682752499975
 21
0.6496062992500034
 31
-1.340415672299996
 11
-0.1144167262499973
 21
0.6496062992500034
 31
-1.369503817299995
  0
SPLINE
  5
4247
100
AcDbEntity
  8
0
  6
CONTINUOUS
100
AcDbSpline
210
0.0000000000012005
220
1.0
230
-0.0000000000000206
 70
     8
 71
     3
 72
    10
 73
     6
 74
     4
 42
0.0000001
 43
0.0000001
 44
0.0000000001
 40
0.0
 40
0.0
 40
0.0
 40
0.0
 40
0.0141089537419971
 40
0.0285926436712573
 40
0.0434386382526806
 40
0.0434386382526806
 40
0.0434386382526806
 40
0.0434386382526806
 10
-0.1358267717499988
 20
0.6496062992500034
 30
-1.355354989899995
 10
-0.1358071256104265
 20
0.6496062992500034
 30
-1.350651998218476
 10
-0.1357673115265066
 20
0.6496062992500037
 30
-1.341121102604415
 10
-0.1354982616253974
 20
0.6496062992500034
 30
-1.326643553996961
 10
-0.1352212221823221
 20
0.6496062992500034
 30
-1.316870908812238
 10
-0.135080991349998
 20
0.6496062992500034
 30
-1.311924226299995
 11
-0.1358267717499988
 21
0.6496062992500034
 31
-1.355354989899995
 11
-0.1357344063499983
 21
0.6496062992500034
 31
-1.341246338499996
 11
-0.1354772467499981
 21
0.6496062992500034
 31
-1.326764931699996
 11
-0.135080991349998
 21
0.6496062992500034
 31
-1.311924226299995
  0
SPLINE
  5
4248
100
AcDbEntity
  8
0
  6
CONTINUOUS
100
AcDbSpline
210
0.0000000000000001
220
1.0
230
-0.0000000000001074
 70
     8
 71
     3
 72
    11
 73
     7
 74
     5
 42
0.0000001
 43
0.0000001
 44
0.0000000001
 40
0.0
 40
0.0
 40
0.0
 40
0.0
 40
0.0039440627553581
 40
0.0107246198429857
 40
0.0196357402074426
 40
0.0297131298140874
 40
0.0297131298140874
 40
0.0297131298140874
 40
0.0297131298140874
 10
-0.135080991349998
 20
0.6496062992500034
 30
-1.311924226299995
 10
-0.133793710782021
 20
0.6496062992500034
 30
-1.311645085479335
 10
-0.1302933621366907
 20
0.6496062992500035
 30
-1.31088605111048
 10
-0.1236882027207448
 20
0.6496062992500033
 30
-1.31098151070853
 10
-0.1151930337088483
 20
0.6496062992500034
 30
-1.312371612047225
 10
-0.1088490944252441
 20
0.6496062992500034
 30
-1.312060894217939
 10
-0.1054823032499978
 20
0.6496062992500034
 30
-1.311895993199995
 11
-0.135080991349998
 21
0.6496062992500034
 31
-1.311924226299995
 11
-0.1312046448499977
 21
0.6496062992500034
 31
-1.311196511499995
 11
-0.1244245781499984
 21
0.6496062992500034
 31
-1.311114964199997
 11
-0.1155589939499979
 21
0.6496062992500034
 31
-1.312014676899996
 11
-0.1054823032499978
 21
0.6496062992500034
 31
-1.311895993199995
  0
SPLINE
  5
4249
100
AcDbEntity
  8
0
  6
CONTINUOUS
100
AcDbSpline
210
0.0
220
1.0
230
0.0
 70
     8
 71
     3
 72
    16
 73
    12
 74
    10
 42
0.0000001
 43
0.0000001
 44
0.0000000001
 40
0.0
 40
0.0
 40
0.0
 40
0.0
 40
0.0046682326364353
 40
0.009333670962872
 40
0.0139803737321479
 40
0.0185933705022145
 40
0.0231567741218306
 40
0.0276548412825588
 40
0.0320718921443123
 40
0.0363932177540211
 40
0.0405993444842449
 40
0.0405993444842449
 40
0.0405993444842449
 40
0.0405993444842449
 10
-0.1054824086499977
 20
0.6496062992500034
 30
-1.311895993199995
 10
-0.1052502791647272
 20
0.6496062992500034
 30
-1.310357327168392
 10
-0.104786159142219
 20
0.6496062992500035
 30
-1.307280916119671
 10
-0.1040903703933192
 20
0.6496062992500033
 30
-1.302673026941968
 10
-0.1033910127819524
 20
0.6496062992500035
 30
-1.298084299765322
 10
-0.1026860941382104
 20
0.6496062992500033
 30
-1.293530832744081
 10
-0.1019730016620742
 20
0.6496062992500034
 30
-1.28902879103806
 10
-0.1012496119905216
 20
0.6496062992500034
 30
-1.284594541804895
 10
-0.1005120175166732
 20
0.6496062992500034
 30
-1.280244467311848
 10
-0.0997622444439283
 20
0.6496062992500034
 30
-1.275995183431247
 10
-0.0992340389739054
 20
0.6496062992500033
 30
-1.273202183565433
 10
-0.0989735040499973
 20
0.6496062992500034
 30
-1.271824549199997
 11
-0.1054824086499977
 21
0.6496062992500034
 31
-1.311895993199995
 11
-0.1047859183499984
 21
0.6496062992500034
 31
-1.307280010399996
 11
-0.1040883774499974
 21
0.6496062992500034
 31
-1.302667012299996
 11
-0.1033875174499972
 21
0.6496062992500034
 31
-1.298073468799995
 11
-0.1026808935499979
 21
0.6496062992500034
 31
-1.293514913999996
 11
-0.1019660965499973
 21
0.6496062992500034
 31
-1.289007839799995
 11
-0.101240600749998
 21
0.6496062992500034
 31
-1.284568665999995
 11
-0.1005017766499971
 21
0.6496062992500034
 31
-1.280213843699995
 11
-0.0997467694499985
 21
0.6496062992500034
 31
-1.275958985399996
 11
-0.0989735040499973
 21
0.6496062992500034
 31
-1.271824549199997
  0
SPLINE
  5
424A
100
AcDbEntity
  8
0
  6
CONTINUOUS
100
AcDbSpline
210
0.0
220
-1.0
230
0.0
 70
     8
 71
     3
 72
    12
 73
     8
 74
     6
 42
0.0000001
 43
0.0000001
 44
0.0000000001
 40
0.0
 40
0.0
 40
0.0
 40
0.0
 40
0.0054555254341911
 40
0.0124027116490498
 40
0.0206704370665041
 40
0.0298666446921228
 40
0.0394840876173049
 40
0.0394840876173049
 40
0.0394840876173049
 40
0.0394840876173049
 10
-0.1345667990499972
 20
0.6496062992500034
 30
-1.257107093899995
 10
-0.1334006889617951
 20
0.6496062992500034
 30
-1.258518576242573
 10
-0.1307496286103251
 20
0.6496062992500035
 30
-1.261727471280071
 10
-0.1246572722512999
 20
0.6496062992500034
 30
-1.265192300724242
 10
-0.1171385818177425
 20
0.6496062992500034
 30
-1.268269392873856
 10
-0.108378940284145
 20
0.6496062992500035
 30
-1.270617072613346
 10
-0.1021550997999028
 20
0.6496062992500034
 30
-1.271416093676982
 10
-0.0989735040499973
 20
0.6496062992500034
 30
-1.271824549199997
 11
-0.1345667990499972
 21
0.6496062992500034
 31
-1.257107093899995
 11
-0.1308741191499987
 21
0.6496062992500034
 31
-1.261122921699995
 11
-0.1250044067499978
 21
0.6496062992500034
 31
-1.264839085399995
 11
-0.1173640701499981
 21
0.6496062992500034
 31
-1.267998284699996
 11
-0.1084821123499982
 21
0.6496062992500034
 31
-1.270381782199996
 11
-0.0989735040499973
 21
0.6496062992500034
 31
-1.271824549199997
  0
SPLINE
  5
424B
100
AcDbEntity
  8
0
  6
CONTINUOUS
100
AcDbSpline
210
0.9545962398630839
220
0.0
230
0.2979027002886372
 70
    24
 71
     3
 72
     8
 73
     4
 74
     2
 42
0.0000001
 43
0.0000001
 44
0.0000000001
 40
0.0
 40
0.0
 40
0.0
 40
0.0
 40
0.0042294772715412
 40
0.0042294772715412
 40
0.0042294772715412
 40
0.0042294772715412
 10
-0.1358267717499988
 20
0.6496062992500034
 30
-1.253069650799996
 10
-0.1354067808499983
 20
0.6496062992500034
 30
-1.254415465166662
 10
-0.1349867899499978
 20
0.6496062992500035
 30
-1.255761279533329
 10
-0.1345667990499972
 20
0.6496062992500034
 30
-1.257107093899995
 11
-0.1358267717499988
 21
0.6496062992500034
 31
-1.253069650799996
 11
-0.1345667990499972
 21
0.6496062992500034
 31
-1.257107093899995
  0
SPLINE
  5
424C
100
AcDbEntity
  8
0
  6
CONTINUOUS
100
AcDbSpline
210
-0.0000000000000207
220
1.0
230
0.0000000000001177
 70
     8
 71
     3
 72
    17
 73
    13
 74
    11
 42
0.0000001
 43
0.0000001
 44
0.0000000001
 40
0.0
 40
0.0
 40
0.0
 40
0.0
 40
0.0035290267139958
 40
0.0071829554180801
 40
0.0108193846288788
 40
0.0140743013534445
 40
0.0167330795620018
 40
0.0187553402525687
 40
0.0201941125139874
 40
0.0211345091658801
 40
0.0216768176036079
 40
0.0219683925347817
 40
0.0219683925347817
 40
0.0219683925347817
 40
0.0219683925347817
 10
-0.1144167359499981
 20
0.6496062992500034
 30
-1.369503879799997
 10
-0.1155898716874282
 20
0.6496062992500034
 30
-1.369591155673989
 10
-0.1179776636720843
 20
0.6496062992500035
 30
-1.369768796355901
 10
-0.1215672625248657
 20
0.6496062992500034
 30
-1.370119794900014
 10
-0.1250587060799467
 20
0.6496062992500035
 30
-1.370531591117886
 10
-0.1282089760482791
 20
0.6496062992500034
 30
-1.370986520578102
 10
-0.1308172370544245
 20
0.6496062992500033
 30
-1.371444817747335
 10
-0.1328041361115888
 20
0.6496062992500034
 30
-1.371884583678274
 10
-0.1342327522658746
 20
0.6496062992500033
 30
-1.372274191199474
 10
-0.1351140577404903
 20
0.6496062992500037
 30
-1.37263738912676
 10
-0.135681300961426
 20
0.6496062992500034
 30
-1.372913801664927
 10
-0.1357890786110655
 20
0.6496062992500034
 30
-1.373176946578959
 10
-0.1358267640499982
 20
0.6496062992500034
 30
-1.373268957599996
 11
-0.1144167359499981
 21
0.6496062992500034
 31
-1.369503879799997
 11
-0.1179350162499979
 21
0.6496062992500034
 31
-1.369779076599995
 11
-0.1215718158499985
 21
0.6496062992500034
 31
-1.370132465399996
 11
-0.1251826728499985
 21
0.6496062992500034
 31
-1.370562964099996
 11
-0.1284034669499974
 21
0.6496062992500034
 31
-1.371033036699995
 11
-0.131020401149998
 21
0.6496062992500034
 31
-1.371502884499997
 11
-0.1329934729499982
 21
0.6496062992500034
 31
-1.371946196999997
 11
-0.1343745765499982
 21
0.6496062992500034
 31
-1.372349456799995
 11
-0.1352449059499978
 21
0.6496062992500034
 31
-1.372705648599995
 11
-0.1356942904499974
 21
0.6496062992500034
 31
-1.373009214099996
 11
-0.1358267640499982
 21
0.6496062992500034
 31
-1.373268957599996
  0
SPLINE
  5
424D
100
AcDbEntity
  8
0
  6
CONTINUOUS
100
AcDbSpline
210
0.0
220
1.0
230
0.0
 70
     8
 71
     3
 72
    13
 73
     9
 74
     7
 42
0.0000001
 43
0.0000001
 44
0.0000000001
 40
0.0
 40
0.0
 40
0.0
 40
0.0
 40
0.000512559461647
 40
0.0056705515735772
 40
0.0105025224109561
 40
0.0148769602599263
 40
0.0186824381900639
 40
0.0214497914865845
 40
0.0214497914865845
 40
0.0214497914865845
 40
0.0214497914865845
 10
-0.1144167176499984
 20
0.6496062992500034
 30
-1.379346260699995
 10
-0.1145875707010492
 20
0.6496062992500034
 30
-1.379346372141786
 10
-0.1164777534212619
 20
0.6496062992500034
 30
-1.379347605045423
 10
-0.119978602737419
 20
0.6496062992500031
 30
-1.379391502871905
 10
-0.1247645505164862
 20
0.6496062992500034
 30
-1.37954926421769
 10
-0.1290952773990747
 20
0.6496062992500035
 30
-1.379792085016471
 10
-0.1327338979295265
 20
0.6496062992500034
 30
-1.380078342183473
 10
-0.1349106556002479
 20
0.6496062992500033
 30
-1.380328328839941
 10
-0.1358271339499986
 20
0.6496062992500034
 30
-1.380433580499995
 11
-0.1144167176499984
 21
0.6496062992500034
 31
-1.379346260699995
 11
-0.1149292768499972
 21
0.6496062992500034
 31
-1.379346778599995
 11
-0.1200868693499988
 21
0.6496062992500034
 31
-1.379410983199996
 11
-0.1249160975499972
 21
0.6496062992500034
 31
-1.379573762699997
 11
-0.1292835872499971
 21
0.6496062992500034
 31
-1.379820217999996
 11
-0.133076298449998
 21
0.6496062992500034
 31
-1.380131672699996
 11
-0.1358271339499986
 21
0.6496062992500034
 31
-1.380433580499995
  0
SPLINE
  5
424E
100
AcDbEntity
  8
0
  6
CONTINUOUS
100
AcDbSpline
210
0.9912675858692859
220
0.0
230
0.1318657393141892
 70
    24
 71
     3
 72
     8
 73
     4
 74
     2
 42
0.0000001
 43
0.0000001
 44
0.0000000001
 40
0.0
 40
0.0
 40
0.0
 40
0.0
 40
0.0099688683871714
 40
0.0099688683871714
 40
0.0099688683871714
 40
0.0099688683871714
 10
0.0976643071500014
 20
0.6496062992500034
 30
-1.261943318499995
 10
0.0981024912166682
 20
0.6496062992500034
 30
-1.265237257199995
 10
0.0985406752833349
 20
0.6496062992500034
 30
-1.268531195899996
 10
0.0989788593500016
 20
0.6496062992500034
 30
-1.271825134599995
 11
0.0976643071500014
 21
0.6496062992500034
 31
-1.261943318499995
 11
0.0989788593500016
 21
0.6496062992500034
 31
-1.271825134599995
  0
SPLINE
  5
424F
100
AcDbEntity
  8
0
  6
CONTINUOUS
100
AcDbSpline
210
0.9909751211206392
220
0.0
230
0.1340459224293458
 70
    24
 71
     3
 72
     8
 73
     4
 74
     2
 42
0.0000001
 43
0.0000001
 44
0.0000000001
 40
0.0
 40
0.0
 40
0.0
 40
0.0
 40
0.0005568957163877
 40
0.0005568957163877
 40
0.0005568957163877
 40
0.0005568957163877
 10
0.0975896575500013
 20
0.6496062992500034
 30
-1.261391448699996
 10
0.0976145407500013
 20
0.6496062992500034
 30
-1.261575405299996
 10
0.0976394239500014
 20
0.6496062992500034
 30
-1.261759361899996
 10
0.0976643071500014
 20
0.6496062992500034
 30
-1.261943318499995
 11
0.0975896575500013
 21
0.6496062992500034
 31
-1.261391448699996
 11
0.0976643071500014
 21
0.6496062992500034
 31
-1.261943318499995
  0
SPLINE
  5
4250
100
AcDbEntity
  8
0
  6
CONTINUOUS
100
AcDbSpline
210
0.9903348407778308
220
0.0
230
0.1386971634228634
 70
    24
 71
     3
 72
     8
 73
     4
 74
     2
 42
0.0000001
 43
0.0000001
 44
0.0000000001
 40
0.0
 40
0.0
 40
0.0
 40
0.0
 40
0.0228251308236777
 40
0.0228251308236777
 40
0.0228251308236777
 40
0.0228251308236777
 10
0.0944238766500014
 20
0.6496062992500034
 30
-1.238786926399996
 10
0.0954791369500014
 20
0.6496062992500034
 30
-1.246321767166663
 10
0.0965343972500013
 20
0.6496062992500034
 30
-1.25385660793333
 10
0.0975896575500013
 20
0.6496062992500034
 30
-1.261391448699996
 11
0.0944238766500014
 21
0.6496062992500034
 31
-1.238786926399996
 11
0.0975896575500013
 21
0.6496062992500034
 31
-1.261391448699996
  0
SPLINE
  5
4251
100
AcDbEntity
  8
0
  6
CONTINUOUS
100
AcDbSpline
210
0.9893779231030038
220
0.0
230
0.1453661765211799
 70
    24
 71
     3
 72
     8
 73
     4
 74
     2
 42
0.0000001
 43
0.0000001
 44
0.0000000001
 40
0.0
 40
0.0
 40
0.0
 40
0.0
 40
0.0122533180869631
 40
0.0122533180869631
 40
0.0122533180869631
 40
0.0122533180869631
 10
0.0926426586500018
 20
0.6496062992500034
 30
-1.226663763999996
 10
0.093236397983335
 20
0.6496062992500034
 30
-1.23070481813333
 10
0.0938301373166682
 20
0.6496062992500035
 30
-1.234745872266663
 10
0.0944238766500014
 20
0.6496062992500034
 30
-1.238786926399996
 11
0.0926426586500018
 21
0.6496062992500034
 31
-1.226663763999996
 11
0.0944238766500014
 21
0.6496062992500034
 31
-1.238786926399996
  0
SPLINE
  5
4252
100
AcDbEntity
  8
0
  6
CONTINUOUS
100
AcDbSpline
210
0.0
220
-1.0
230
0.0
 70
     8
 71
     3
 72
    10
 73
     6
 74
     4
 42
0.0000001
 43
0.0000001
 44
0.0000000001
 40
0.0
 40
0.0
 40
0.0
 40
0.0
 40
0.0147735972005233
 40
0.0291732164204733
 40
0.0431872593570294
 40
0.0431872593570294
 40
0.0431872593570294
 40
0.0431872593570294
 10
0.1350873902500016
 20
0.6496062992500034
 30
-1.312177087899995
 10
0.1352263630653524
 20
0.6496062992500034
 30
-1.317099663416925
 10
0.1355007907462863
 20
0.6496062992500033
 30
-1.326820204660355
 10
0.1357678646789788
 20
0.6496062992500034
 30
-1.341213975860493
 10
0.1358073143717748
 20
0.6496062992500035
 30
-1.350685211429936
 10
0.1358267715500023
 20
0.6496062992500034
 30
-1.355356566399996
 11
0.1350873902500016
 21
0.6496062992500034
 31
-1.312177087899995
 11
0.1354801977500024
 21
0.6496062992500034
 31
-1.326945462099996
 11
0.1357352525500026
 21
0.6496062992500034
 31
-1.341342822299997
 11
0.1358267715500023
 21
0.6496062992500034
 31
-1.355356566399996
  0
SPLINE
  5
4253
100
AcDbEntity
  8
0
  6
CONTINUOUS
100
AcDbSpline
210
0.0
220
1.0
230
0.0
 70
     8
 71
     3
 72
     9
 73
     5
 74
     3
 42
0.0000001
 43
0.0000001
 44
0.0000000001
 40
0.0
 40
0.0
 40
0.0
 40
0.0
 40
0.0295051960757087
 40
0.0582954779218418
 40
0.0582954779218418
 40
0.0582954779218418
 40
0.0582954779218418
 10
0.1144189956500021
 20
0.6496062992500034
 30
-1.369501892899996
 10
0.1128895192762773
 20
0.6496062992500035
 30
-1.359786466651862
 10
0.1098676259139126
 20
0.6496062992500034
 30
-1.340591020029643
 10
0.1069349907528254
 20
0.6496062992500035
 30
-1.321381735082492
 10
0.1054866555500027
 20
0.6496062992500034
 30
-1.311894880399996
 11
0.1144189956500021
 21
0.6496062992500034
 31
-1.369501892899996
 11
0.1098534317500022
 21
0.6496062992500034
 31
-1.340352069199997
 11
0.1054866555500027
 21
0.6496062992500034
 31
-1.311894880399996
  0
SPLINE
  5
4254
100
AcDbEntity
  8
0
  6
CONTINUOUS
100
AcDbSpline
210
0.0
220
1.0
230
0.0
 70
     8
 71
     3
 72
    17
 73
    13
 74
    11
 42
0.0000001
 43
0.0000001
 44
0.0000000001
 40
0.0
 40
0.0
 40
0.0
 40
0.0
 40
0.0002968031866219
 40
0.0008339476458358
 40
0.0017581404793955
 40
0.0031752029810625
 40
0.0051706137869497
 40
0.0078106222216346
 40
0.0110596855791615
 40
0.0147164865575858
 40
0.0184642982332291
 40
0.0219657922287054
 40
0.0219657922287054
 40
0.0219657922287054
 40
0.0219657922287054
 10
0.1358267712500023
 20
0.6496062992500034
 30
-1.373266679799995
 10
0.1357879346883276
 20
0.6496062992500035
 30
-1.373173198364272
 10
0.1356788130190167
 20
0.6496062992500034
 30
-1.372910537359385
 10
0.1351175704714008
 20
0.6496062992500034
 30
-1.372637148354082
 10
0.1342491208295375
 20
0.6496062992500034
 30
-1.372278069478619
 10
0.1328423355733593
 20
0.6496062992500037
 30
-1.3718923430892
 10
0.130877699420444
 20
0.6496062992500031
 30
-1.371454977545753
 10
0.1282868305024946
 20
0.6496062992500034
 30
-1.370997165383222
 10
0.1251382776876065
 20
0.6496062992500037
 30
-1.370540119417918
 10
0.1216111464889495
 20
0.6496062992500031
 30
-1.370122357564233
 10
0.1179928122216316
 20
0.6496062992500037
 30
-1.369768017044031
 10
0.1155829737241713
 20
0.6496062992500034
 30
-1.369588630004024
 10
0.1144189953500021
 20
0.6496062992500034
 30
-1.369501984099996
 11
0.1358267712500023
 21
0.6496062992500034
 31
-1.373266679799995
 11
0.1356903629500028
 21
0.6496062992500034
 31
-1.373003079899995
 11
0.1352445836500014
 21
0.6496062992500034
 31
-1.372703405099996
 11
0.1343895515500026
 21
0.6496062992500034
 31
-1.372352616699996
 11
0.1330298261500022
 21
0.6496062992500034
 31
-1.371953601699996
 11
0.1310834970500014
 21
0.6496062992500034
 31
-1.371513752499995
 11
0.1284855119500019
 21
0.6496062992500034
 31
-1.371044585199997
 11
0.1252708712500024
 21
0.6496062992500034
 31
-1.370572888399997
 11
0.1216400140500013
 21
0.6496062992500034
 31
-1.370138067299996
 11
0.1179098278500028
 21
0.6496062992500034
 31
-1.369775020099996
 11
0.1144189953500021
 21
0.6496062992500034
 31
-1.369501984099996
  0
SPLINE
  5
4255
100
AcDbEntity
  8
0
  6
CONTINUOUS
100
AcDbSpline
210
0.0
220
1.0
230
0.0
 70
     8
 71
     3
 72
    10
 73
     6
 74
     4
 42
0.0000001
 43
0.0000001
 44
0.0000000001
 40
0.0
 40
0.0
 40
0.0
 40
0.0
 40
0.015539844902726
 40
0.0328656929783296
 40
0.0521613810198181
 40
0.0521613810198181
 40
0.0521613810198181
 40
0.0521613810198181
 10
0.1350873902500016
 20
0.6496062992500034
 30
-1.312177087899995
 10
0.1350109380228353
 20
0.6496062992500034
 30
-1.306996867458784
 10
0.1348492468707493
 20
0.6496062992500034
 30
-1.296041060908164
 10
0.1354830764352147
 20
0.6496062992500034
 30
-1.278661283148864
 10
0.1357081706391717
 20
0.6496062992500035
 30
-1.266456461037238
 10
0.1358267715500023
 20
0.6496062992500034
 30
-1.260025806699997
 11
0.1350873902500016
 21
0.6496062992500034
 31
-1.312177087899995
 11
0.1349834664500022
 21
0.6496062992500034
 31
-1.296637590499996
 11
0.1354099190500015
 21
0.6496062992500034
 31
-1.279316991499995
 11
0.1358267715500023
 21
0.6496062992500034
 31
-1.260025806699997
  0
SPLINE
  5
4256
100
AcDbEntity
  8
0
  6
CONTINUOUS
100
AcDbSpline
210
0.0000000000000245
220
-1.0
230
-0.0000000000000625
 70
     8
 71
     3
 72
    12
 73
     8
 74
     6
 42
0.0000001
 43
0.0000001
 44
0.0000000001
 40
0.0
 40
0.0
 40
0.0
 40
0.0
 40
0.0041842219325676
 40
0.0111304338008551
 40
0.0193967478732075
 40
0.0285913695185446
 40
0.0382072944680617
 40
0.0382072944680617
 40
0.0382072944680617
 40
0.0382072944680617
 10
0.1338415159500013
 20
0.6496062992500034
 30
-1.258177250999996
 10
0.1328863402855942
 20
0.6496062992500034
 30
-1.259200224260573
 10
0.1303454809162286
 20
0.6496062992500037
 30
-1.26192143177308
 10
0.1246709622613787
 20
0.6496062992500033
 30
-1.265206317000566
 10
0.1171376388419909
 20
0.6496062992500037
 30
-1.268270136895535
 10
0.1083840273378727
 20
0.6496062992500033
 30
-1.270620287307835
 10
0.1021603794119552
 20
0.6496062992500033
 30
-1.271417566565427
 10
0.0989788593500016
 20
0.6496062992500034
 30
-1.271825134599995
 11
0.1338415159500013
 21
0.6496062992500034
 31
-1.258177250999996
 11
0.1308748954500025
 21
0.6496062992500034
 31
-1.261127992599996
 11
0.1250060860500017
 21
0.6496062992500034
 31
-1.264843761099997
 11
0.1173668895500022
 21
0.6496062992500034
 31
-1.268002024099996
 11
0.1084861984500023
 21
0.6496062992500034
 31
-1.270384122499996
 11
0.0989788593500016
 21
0.6496062992500034
 31
-1.271825134599995
  0
SPLINE
  5
4257
100
AcDbEntity
  8
0
  6
CONTINUOUS
100
AcDbSpline
210
0.8265318956347066
220
0.0
230
-0.5628898875432907
 70
    24
 71
     3
 72
     8
 73
     4
 74
     2
 42
0.0000001
 43
0.0000001
 44
0.0000000001
 40
0.0
 40
0.0
 40
0.0
 40
0.0
 40
0.0012888492333162
 40
0.0012888492333162
 40
0.0012888492333162
 40
0.0012888492333162
 10
0.1345669961500029
 20
0.6496062992500034
 30
-1.257111975999996
 10
0.134325169416669
 20
0.6496062992500034
 30
-1.257467067666663
 10
0.1340833426833352
 20
0.6496062992500035
 30
-1.257822159333329
 10
0.1338415159500013
 20
0.6496062992500034
 30
-1.258177250999996
 11
0.1345669961500029
 21
0.6496062992500034
 31
-1.257111975999996
 11
0.1338415159500013
 21
0.6496062992500034
 31
-1.258177250999996
  0
SPLINE
  5
4258
100
AcDbEntity
  8
0
  6
CONTINUOUS
100
AcDbSpline
210
0.9546259640647333
220
0.0
230
-0.297807435658478
 70
    24
 71
     3
 72
     8
 73
     4
 74
     2
 42
0.0000001
 43
0.0000001
 44
0.0000000001
 40
0.0
 40
0.0
 40
0.0
 40
0.0
 40
0.0042301589858351
 40
0.0042301589858351
 40
0.0042301589858351
 40
0.0042301589858351
 10
0.1358267689500021
 20
0.6496062992500034
 30
-1.253073756399996
 10
0.1354068446833357
 20
0.6496062992500034
 30
-1.254419829599996
 10
0.1349869204166693
 20
0.6496062992500034
 30
-1.255765902799996
 10
0.1345669961500029
 20
0.6496062992500034
 30
-1.257111975999996
 11
0.1358267689500021
 21
0.6496062992500034
 31
-1.253073756399996
 11
0.1345669961500029
 21
0.6496062992500034
 31
-1.257111975999996
  0
SPLINE
  5
4259
100
AcDbEntity
  8
0
  6
CONTINUOUS
100
AcDbSpline
210
-0.0000000000005421
220
-1.0
230
-0.000000000000088
 70
     8
 71
     3
 72
    17
 73
    13
 74
    11
 42
0.0000001
 43
0.0000001
 44
0.0000000001
 40
0.0
 40
0.0
 40
0.0
 40
0.0
 40
0.0037777596683236
 40
0.0076487650468178
 40
0.0116015185607605
 40
0.0156244463332295
 40
0.0197061543642923
 40
0.0238352119971597
 40
0.0280002030385197
 40
0.0321896326202183
 40
0.0363920857930221
 40
0.0405971413614268
 40
0.0405971413614268
 40
0.0405971413614268
 40
0.0405971413614268
 10
0.0989788593500016
 20
0.6496062992500034
 30
-1.271825134599995
 10
0.0992128812629664
 20
0.6496062992500033
 30
-1.273062459711485
 10
0.0996867014064454
 20
0.6496062992500034
 30
-1.275567650590533
 10
0.1003634761892131
 20
0.6496062992500034
 30
-1.279375210630885
 10
0.1010302427919963
 20
0.6496062992500033
 30
-1.283267422309332
 10
0.1016852505828314
 20
0.6496062992500033
 30
-1.287232841286791
 10
0.1023313026569659
 20
0.6496062992500034
 30
-1.291259247889826
 10
0.1029698944094557
 20
0.6496062992500035
 30
-1.295334780617217
 10
0.1036028018244048
 20
0.6496062992500031
 30
-1.299447529624303
 10
0.1042317032802034
 20
0.6496062992500034
 30
-1.303585638941235
 10
0.1048580690520065
 20
0.6496062992500037
 30
-1.307737637967023
 10
0.1052757088263359
 20
0.6496062992500033
 30
-1.310508846996094
 10
0.1054845933500026
 20
0.6496062992500034
 30
-1.311894880399996
 11
0.0989788593500016
 21
0.6496062992500034
 31
-1.271825134599995
 11
0.0996741851500023
 21
0.6496062992500034
 31
-1.275538352899997
 11
0.1003547771500024
 21
0.6496062992500034
 31
-1.279349058499996
 11
0.1010224559500017
 21
0.6496062992500034
 31
-1.283245013499995
 11
0.1016790322500025
 21
0.6496062992500034
 31
-1.287214000199996
 11
0.1023263489500028
 21
0.6496062992500034
 31
-1.291244052499997
 11
0.1029661889500026
 21
0.6496062992500034
 31
-1.295323233999996
 11
0.1036002850500015
 21
0.6496062992500034
 31
-1.299439673299995
 11
0.1042302968500017
 21
0.6496062992500034
 31
-1.303581460999995
 11
0.1048578366500017
 21
0.6496062992500034
 31
-1.307736795699995
 11
0.1054845933500026
 21
0.6496062992500034
 31
-1.311894880399996
  0
SPLINE
  5
425A
100
AcDbEntity
  8
0
  6
CONTINUOUS
100
AcDbSpline
210
0.0
220
1.0
230
0.0
 70
     8
 71
     3
 72
    12
 73
     8
 74
     6
 42
0.0000001
 43
0.0000001
 44
0.0000000001
 40
0.0
 40
0.0
 40
0.0
 40
0.0
 40
0.0081425716261905
 40
0.0156409728121272
 40
0.0220012274534299
 40
0.0267854082714523
 40
0.0296901833026314
 40
0.0296901833026314
 40
0.0296901833026314
 40
0.0296901833026314
 10
0.1054845776500013
 20
0.6496062992500034
 30
-1.311894880399996
 10
0.1081983353449207
 20
0.6496062992500034
 30
-1.311945454585782
 10
0.1134111614978291
 20
0.6496062992500033
 30
-1.312042601961474
 10
0.1207486564137212
 20
0.6496062992500035
 30
-1.311783746906081
 10
0.1269313489767326
 20
0.6496062992500034
 30
-1.311285677323338
 10
0.131654728724468
 20
0.6496062992500034
 30
-1.311312677382831
 10
0.1341461628767137
 20
0.6496062992500033
 30
-1.311940068655756
 10
0.1350873902500016
 20
0.6496062992500034
 30
-1.312177087899995
 11
0.1054845776500013
 21
0.6496062992500034
 31
-1.311894880399996
 11
0.1136267990500013
 21
0.6496062992500034
 31
-1.311970400999997
 11
0.1211206668500022
 21
0.6496062992500034
 31
-1.311709698599996
 11
0.1274706013500015
 21
0.6496062992500034
 31
-1.311347523299995
 11
0.1322503476500021
 21
0.6496062992500034
 31
-1.311553463599996
 11
0.1350873902500016
 21
0.6496062992500034
 31
-1.312177087899995
  0
SPLINE
  5
425B
100
AcDbEntity
  8
0
  6
CONTINUOUS
100
AcDbSpline
210
0.0000000000000179
220
1.0
230
0.0000000000003525
 70
     8
 71
     3
 72
    14
 73
    10
 74
     8
 42
0.0000001
 43
0.0000001
 44
0.0000000001
 40
0.0
 40
0.0
 40
0.0
 40
0.0
 40
0.0018730220839525
 40
0.0048733470736339
 40
0.0082964599324943
 40
0.0120931030141006
 40
0.0162009999414404
 40
0.0205488789537097
 40
0.0214477146282341
 40
0.0214477146282341
 40
0.0214477146282341
 40
0.0214477146282341
 10
0.1358274360500022
 20
0.6496062992500034
 30
-1.380429129599996
 10
0.1352072394952742
 20
0.6496062992500034
 30
-1.380357197546691
 10
0.1335935729555378
 20
0.6496062992500033
 30
-1.380170040190417
 10
0.1308388876409224
 20
0.6496062992500035
 30
-1.379921569517216
 10
0.1274399380299839
 20
0.6496062992500033
 30
-1.379689108399471
 10
0.1236681805024629
 20
0.6496062992500034
 30
-1.379507240840298
 10
0.1195856527032774
 20
0.6496062992500034
 30
-1.379385872005536
 10
0.1164674967807751
 20
0.6496062992500034
 30
-1.37934667161788
 10
0.1147185932992589
 20
0.6496062992500034
 30
-1.379344643453028
 10
0.1144189816500027
 20
0.6496062992500034
 30
-1.379344295999996
 11
0.1358274360500022
 21
0.6496062992500034
 31
-1.380429129599996
 11
0.1339661908500016
 21
0.6496062992500034
 31
-1.380219420199996
 11
0.1309785038500024
 21
0.6496062992500034
 31
-1.379944326699996
 11
0.1275635265500021
 21
0.6496062992500034
 31
-1.379708462999995
 11
0.1237713939500011
 21
0.6496062992500034
 31
-1.379523452099996
 11
0.1196653628500019
 21
0.6496062992500034
 31
-1.379399654799995
 11
0.1153178158500019
 21
0.6496062992500034
 31
-1.379345924099996
 11
0.1144189816500027
 21
0.6496062992500034
 31
-1.379344295999996
  0
SPLINE
  5
425C
100
AcDbEntity
  8
0
  6
CONTINUOUS
100
AcDbSpline
210
0.996573779789232
220
0.0
230
-0.0827085330338024
 70
    24
 71
     3
 72
     8
 73
     4
 74
     2
 42
0.0000001
 43
0.0000001
 44
0.0000000001
 40
0.0
 40
0.0
 40
0.0
 40
0.0
 40
0.002094521491867
 40
0.002094521491867
 40
0.002094521491867
 40
0.002094521491867
 10
0.1186187959500025
 20
0.6496062992500034
 30
-1.492562572199996
 10
0.1185610510166691
 20
0.6496062992500034
 30
-1.493258353933329
 10
0.1185033060833357
 20
0.6496062992500034
 30
-1.493954135666662
 10
0.1184455611500024
 20
0.6496062992500034
 30
-1.494649917399995
 11
0.1186187959500025
 21
0.6496062992500034
 31
-1.492562572199996
 11
0.1184455611500024
 21
0.6496062992500034
 31
-1.494649917399995
  0
SPLINE
  5
425D
100
AcDbEntity
  8
0
  6
CONTINUOUS
100
AcDbSpline
210
0.9965737758539567
220
0.0
230
0.0827085804508081
 70
    24
 71
     3
 72
     8
 73
     4
 74
     2
 42
0.0000001
 43
0.0000001
 44
0.0000000001
 40
0.0
 40
0.0
 40
0.0
 40
0.0
 40
0.0020945215001378
 40
0.0020945215001378
 40
0.0020945215001378
 40
0.0020945215001378
 10
-0.1145085533499976
 20
0.6496062992500034
 30
-1.494649917399995
 10
-0.1145662983166643
 20
0.6496062992500034
 30
-1.493954135666662
 10
-0.114624043283331
 20
0.6496062992500034
 30
-1.493258353933329
 10
-0.1146817882499977
 20
0.6496062992500034
 30
-1.492562572199996
 11
-0.1145085533499976
 21
0.6496062992500034
 31
-1.494649917399995
 11
-0.1146817882499977
 21
0.6496062992500034
 31
-1.492562572199996
  0
LINE
  5
425E
100
AcDbEntity
  8
0
  6
CONTINUOUS
100
AcDbLine
 10
0.135827
 20
0.649606
 30
-1.548406
 11
-0.135827
 21
0.649606
 31
-1.548413
210
0.0
220
1.0
230
0.0000000000000002
  0
LINE
  5
425F
100
AcDbEntity
  8
0
  6
CONTINUOUS
100
AcDbLine
 10
-0.135827
 20
0.649606
 30
-1.49465
 11
0.135827
 21
0.649606
 31
-1.49465
210
0.0
220
1.0
230
0.0000000000000002
  0
LINE
  5
4260
100
AcDbEntity
  8
0
  6
CONTINUOUS
100
AcDbLine
 10
0.068898
 20
0.649606
 30
-1.450261
 11
0.135827
 21
0.649606
 31
-1.431808
210
0.0
220
1.0
230
0.0000000000000002
  0
LWPOLYLINE
  5
4261
100
AcDbEntity
  8
0
  6
CONTINUOUS
100
AcDbPolyline
 90
        9
 70
     0
 43
0.0
 38
0.649606
 10
-0.054923
 20
-1.451291
 10
-0.07072
 20
-1.450179
 10
-0.084982
 20
-1.448793
 10
-0.097389
 20
-1.447164
 10
-0.107665
 20
-1.445327
 10
-0.115579
 20
-1.443324
 10
-0.120956
 20
-1.4412
 10
-0.123674
 20
-1.439001
 10
-0.124008
 20
-1.438039
210
0.0
220
1.0
230
0.0000000000000002
  0
LWPOLYLINE
  5
4262
100
AcDbEntity
  8
0
  6
CONTINUOUS
100
AcDbPolyline
 90
        4
 70
     0
 43
0.0
 38
0.649606
 10
-0.001969
 20
-1.452764
 10
-0.020159
 20
-1.452598
 10
-0.037943
 20
-1.452103
 10
-0.054923
 20
-1.451291
210
0.0
220
1.0
230
0.0000000000000002
  0
LINE
  5
4263
100
AcDbEntity
  8
0
  6
CONTINUOUS
100
AcDbLine
 10
-0.064961
 20
0.649606
 30
-1.450261
 11
0.068898
 21
0.649606
 31
-1.450261
210
0.0
220
1.0
230
0.0000000000000002
  0
LWPOLYLINE
  5
4264
100
AcDbEntity
  8
0
  6
CONTINUOUS
100
AcDbPolyline
 90
        4
 70
     0
 43
0.0
 38
0.649606
 10
-0.001969
 20
-1.452764
 10
0.016222
 20
-1.452598
 10
0.034006
 20
-1.452103
 10
0.050986
 20
-1.451291
210
0.0
220
1.0
230
0.0000000000000002
  0
LWPOLYLINE
  5
4265
100
AcDbEntity
  8
0
  6
CONTINUOUS
100
AcDbPolyline
 90
        9
 70
     0
 43
0.0
 38
0.649606
 10
0.050986
 20
-1.451291
 10
0.066783
 20
-1.450179
 10
0.081045
 20
-1.448793
 10
0.093452
 20
-1.447164
 10
0.103728
 20
-1.445327
 10
0.111642
 20
-1.443324
 10
0.117019
 20
-1.4412
 10
0.119737
 20
-1.439001
 10
0.120071
 20
-1.438039
210
0.0
220
1.0
230
0.0000000000000002
  0
LINE
  5
4266
100
AcDbEntity
  8
0
  6
CONTINUOUS
100
AcDbLine
 10
-0.135827
 20
0.649606
 30
-1.430723
 11
-0.064961
 21
0.649606
 31
-1.450261
210
0.0
220
1.0
230
0.0000000000000002
  0
LINE
  5
4267
100
AcDbEntity
  8
0
  6
CONTINUOUS
100
AcDbLine
 10
0.106429
 20
0.649606
 30
-1.379344
 11
0.068898
 21
0.649606
 31
-1.389692
210
0.0
220
1.0
230
0.0000000000000002
  0
LWPOLYLINE
  5
4268
100
AcDbEntity
  8
0
  6
CONTINUOUS
100
AcDbPolyline
 90
        3
 70
     0
 43
0.0
 38
0.649606
 10
-0.018124
 20
-1.379344
 10
-0.013591
 20
-1.379492
 10
-0.001969
 20
-1.379616
210
0.0
220
1.0
230
0.0000000000000002
  0
LINE
  5
4269
100
AcDbEntity
  8
0
  6
CONTINUOUS
100
AcDbLine
 10
0.068898
 20
0.649606
 30
-1.389692
 11
-0.064961
 21
0.649606
 31
-1.389692
210
0.0
220
1.0
230
0.0000000000000002
  0
LINE
  5
426A
100
AcDbEntity
  8
0
  6
CONTINUOUS
100
AcDbLine
 10
0.114419
 20
0.649606
 30
-1.379344
 11
-0.114417
 21
0.649606
 31
-1.379346
210
0.0
220
1.0
230
0.0000000000000002
  0
LINE
  5
426B
100
AcDbEntity
  8
0
  6
CONTINUOUS
100
AcDbLine
 10
0.114419
 20
0.649606
 30
-1.369502
 11
-0.114417
 21
0.649606
 31
-1.369504
210
0.0
220
1.0
230
0.0000000000000002
  0
LWPOLYLINE
  5
426C
100
AcDbEntity
  8
0
  6
CONTINUOUS
100
AcDbPolyline
 90
        3
 70
     0
 43
0.0
 38
0.649606
 10
-0.001969
 20
-1.379616
 10
0.009654
 20
-1.379492
 10
0.014127
 20
-1.379346
210
0.0
220
1.0
230
0.0000000000000002
  0
LINE
  5
426D
100
AcDbEntity
  8
0
  6
CONTINUOUS
100
AcDbLine
 10
-0.064961
 20
0.649606
 30
-1.389692
 11
-0.102485
 21
0.649606
 31
-1.379346
210
0.0
220
1.0
230
0.0000000000000002
  0
LINE
  5
426E
100
AcDbEntity
  8
0
  6
CONTINUOUS
100
AcDbLine
 10
0.119671
 20
0.649606
 30
-1.490787
 11
0.118619
 21
0.649606
 31
-1.492563
210
0.0
220
1.0
230
0.0000000000000002
  0
LINE
  5
426F
100
AcDbEntity
  8
0
  6
CONTINUOUS
100
AcDbLine
 10
0.105487
 20
0.649606
 30
-1.311895
 11
-0.105481
 21
0.649606
 31
-1.311896
210
0.0
220
1.0
230
0.0000000000000002
  0
LINE
  5
4270
100
AcDbEntity
  8
0
  6
CONTINUOUS
100
AcDbLine
 10
0.098979
 20
0.649606
 30
-1.271825
 11
-0.098974
 21
0.649606
 31
-1.271825
210
0.0
220
1.0
230
0.0000000000000002
  0
LINE
  5
4271
100
AcDbEntity
  8
0
  6
CONTINUOUS
100
AcDbLine
 10
0.119671
 20
0.649606
 30
-1.490787
 11
0.12401
 21
0.649606
 31
-1.438039
210
0.0
220
1.0
230
0.0000000000000002
  0
LINE
  5
4272
100
AcDbEntity
  8
0
  6
CONTINUOUS
100
AcDbLine
 10
0.129921
 20
0.649606
 30
-1.49465
 11
0.129921
 21
0.649606
 31
-1.433436
210
0.0
220
1.0
230
0.0000000000000002
  0
LINE
  5
4273
100
AcDbEntity
  8
0
  6
CONTINUOUS
100
AcDbLine
 10
0.123102
 20
0.649606
 30
-1.436316
 11
0.123102
 21
0.649606
 31
-1.435316
210
0.0
220
1.0
230
0.0000000000000002
  0
LINE
  5
4274
100
AcDbEntity
  8
0
  6
CONTINUOUS
100
AcDbLine
 10
0.123102
 20
0.649606
 30
-1.49465
 11
0.123102
 21
0.649606
 31
-1.449072
210
0.0
220
1.0
230
0.0000000000000002
  0
LINE
  5
4275
100
AcDbEntity
  8
0
  6
CONTINUOUS
100
AcDbLine
 10
0.114419
 20
0.649606
 30
-1.369502
 11
0.114419
 21
0.649606
 31
-1.379344
210
0.0
220
1.0
230
0.0000000000000002
  0
LWPOLYLINE
  5
4276
100
AcDbEntity
  8
0
  6
CONTINUOUS
100
AcDbPolyline
 90
        3
 70
     0
 43
0.0
 38
0.649606
 10
0.120071
 20
-1.438039
 10
0.119737
 20
-1.436778
 10
0.118243
 20
-1.43557
210
0.0
220
1.0
230
0.0000000000000002
  0
LINE
  5
4277
100
AcDbEntity
  8
0
  6
CONTINUOUS
100
AcDbLine
 10
0.068898
 20
0.649606
 30
-1.389692
 11
0.068898
 21
0.649606
 31
-1.379344
210
0.0
220
1.0
230
0.0000000000000002
  0
LWPOLYLINE
  5
4278
100
AcDbEntity
  8
0
  6
CONTINUOUS
100
AcDbPolyline
 90
        3
 70
     0
 43
0.0
 38
0.649606
 10
-0.124008
 20
-1.438039
 10
-0.123674
 20
-1.436778
 10
-0.12218
 20
-1.43557
210
0.0
220
1.0
230
0.0000000000000002
  0
LINE
  5
4279
100
AcDbEntity
  8
0
  6
CONTINUOUS
100
AcDbLine
 10
-0.064961
 20
0.649606
 30
-1.389692
 11
-0.064961
 21
0.649606
 31
-1.379346
210
0.0
220
1.0
230
0.0000000000000002
  0
LINE
  5
427A
100
AcDbEntity
  8
0
  6
CONTINUOUS
100
AcDbLine
 10
-0.114417
 20
0.649606
 30
-1.369504
 11
-0.114417
 21
0.649606
 31
-1.379346
210
0.0
220
1.0
230
0.0000000000000002
  0
LINE
  5
427B
100
AcDbEntity
  8
0
  6
CONTINUOUS
100
AcDbLine
 10
-0.115734
 20
0.649606
 30
-1.490787
 11
-0.120073
 21
0.649606
 31
-1.438039
210
0.0
220
1.0
230
0.0000000000000002
  0
LINE
  5
427C
100
AcDbEntity
  8
0
  6
CONTINUOUS
100
AcDbLine
 10
-0.114682
 20
0.649606
 30
-1.492563
 11
-0.115734
 21
0.649606
 31
-1.490787
210
0.0
220
1.0
230
0.0000000000000002
  0
SPLINE
  5
427D
100
AcDbEntity
  8
0
  6
CONTINUOUS
100
AcDbSpline
210
0.0000000000001703
220
1.0
230
-0.0000000000000287
 70
     8
 71
     3
 72
    13
 73
     9
 74
     7
 42
0.0000001
 43
0.0000001
 44
0.0000000001
 40
0.0
 40
0.0
 40
0.0
 40
0.0
 40
0.0591158660049746
 40
0.1256261522154844
 40
0.1998553979600778
 40
0.2829440083573631
 40
0.3722700680932774
 40
0.4577400436736411
 40
0.4577400436736411
 40
0.4577400436736411
 40
0.4577400436736411
 10
-0.0989735040499973
 20
0.6496062992500034
 30
-1.271824549199997
 10
-0.0962689355518049
 20
0.6496062992500034
 30
-1.252304947546811
 10
-0.0905215016259865
 20
0.6496062992500034
 30
-1.210824163889472
 10
-0.0795400090869618
 20
0.6496062992500037
 30
-1.145109427712397
 10
-0.0661106809763829
 20
0.6496062992500021
 30
-1.071717566905286
 10
-0.0503855692428659
 20
0.6496062992500025
 30
-0.9910198093163277
 10
-0.0336092235355722
 20
0.6496062992500025
 30
-0.9067103159132976
 10
-0.0229437476451416
 20
0.6496062992500024
 30
-0.8494288272909223
 10
-0.017728652449998
 20
0.6496062992500025
 30
-0.8214199114999969
 11
-0.0989735040499973
 21
0.6496062992500034
 31
-1.271824549199997
 11
-0.0906039581499982
 21
0.6496062992500034
 31
-1.213304156899996
 11
-0.0798053787499988
 21
0.6496062992500034
 31
-1.147676351399996
 11
-0.0665106084499971
 21
0.6496062992500025
 31
-1.074647384499995
 11
-0.0507312985499979
 21
0.6496062992500025
 31
-0.9930708525999962
 11
-0.0335426528499987
 21
0.6496062992500025
 31
-0.9054141619999969
 11
-0.017728652449998
 21
0.6496062992500025
 31
-0.8214199114999969
  0
LINE
  5
427E
100
AcDbEntity
  8
0
  6
CONTINUOUS
100
AcDbLine
 10
-0.135827
 20
0.649606
 30
-1.260016
 11
-0.135827
 21
0.649606
 31
-0.779138
210
0.0
220
1.0
230
0.0000000000000002
  0
SPLINE
  5
427F
100
AcDbEntity
  8
0
  6
CONTINUOUS
100
AcDbSpline
210
-0.0000000000004194
220
-1.0
230
-0.0000000000000797
 70
     8
 71
     3
 72
    13
 73
     9
 74
     7
 42
0.0000001
 43
0.0000001
 44
0.0000000001
 40
0.0
 40
0.0
 40
0.0
 40
0.0
 40
0.0835776145869979
 40
0.1720395715759645
 40
0.2569039154225281
 40
0.3322678324344357
 40
0.39868427522765
 40
0.4121392565566947
 40
0.4121392565566947
 40
0.4121392565566947
 40
0.4121392565566947
 10
0.0177259810500026
 20
0.6496062992500025
 30
-0.8214199114999969
 10
0.0228117420174709
 20
0.6496062992500025
 30
-0.8488112836829944
 10
0.0332804798763418
 20
0.6496062992500026
 30
-0.905194801668369
 10
0.0499936046237134
 20
0.6496062992500025
 30
-0.9891837813057605
 10
0.0658771041931021
 20
0.6496062992500021
 30
-1.070545137943956
 10
0.0795223225921454
 20
0.6496062992500037
 30
-1.144853034316497
 10
0.0880038130999515
 20
0.6496062992500031
 30
-1.195902731100001
 10
0.091973870647695
 20
0.6496062992500034
 30
-1.222228908491203
 10
0.0926426586500018
 20
0.6496062992500034
 30
-1.226663763999996
 11
0.0177259810500026
 21
0.6496062992500025
 31
-0.8214199114999969
 11
0.0331540043500027
 21
0.6496062992500025
 31
-0.9035612150999972
 11
0.0501740442500012
 21
0.6496062992500025
 31
-0.990370408599996
 11
0.0663192254500018
 21
0.6496062992500025
 31
-1.073684812999997
 11
0.0798379145500015
 21
0.6496062992500034
 31
-1.147826333299996
 11
0.0906251186500029
 21
0.6496062992500034
 31
-1.213360905099995
 11
0.0926426586500018
 21
0.6496062992500034
 31
-1.226663763999996
  0
LINE
  5
4280
100
AcDbEntity
  8
0
  6
CONTINUOUS
100
AcDbLine
 10
-0.074495
 20
-0.649606
 30
-0.484683
 11
-0.073045
 21
-0.649606
 31
-0.484
210
0.0
220
-1.0
230
-0.0000000000000003
  0
LINE
  5
4281
100
AcDbEntity
  8
0
  6
CONTINUOUS
100
AcDbLine
 10
-0.145669
 20
-0.649606
 30
-0.436101
 11
-0.145669
 21
-0.649606
 31
-0.590968
210
0.0
220
-1.0
230
-0.0000000000000003
  0
LINE
  5
4282
100
AcDbEntity
  8
0
  6
CONTINUOUS
100
AcDbLine
 10
-0.121294
 20
-0.649606
 30
-0.583092
 11
-0.122039
 21
-0.649606
 31
-0.574058
210
0.0
220
-1.0
230
-0.0000000000000003
  0
LINE
  5
4283
100
AcDbEntity
  8
0
  6
CONTINUOUS
100
AcDbLine
 10
-0.135827
 20
-0.649606
 30
-0.443791
 11
-0.135827
 21
-0.649606
 31
-0.586991
210
0.0
220
-1.0
230
-0.0000000000000003
  0
LINE
  5
4284
100
AcDbEntity
  8
0
  6
CONTINUOUS
100
AcDbLine
 10
-0.07874
 20
-0.649606
 30
-0.47275
 11
-0.07874
 21
-0.649606
 31
-0.483516
210
0.0
220
-1.0
230
-0.0000000000000003
  0
LINE
  5
4285
100
AcDbEntity
  8
0
  6
CONTINUOUS
100
AcDbLine
 10
-0.066929
 20
-0.649606
 30
-0.547194
 11
-0.066929
 21
-0.649606
 31
-0.559683
210
0.0
220
-1.0
230
-0.0000000000000003
  0
LINE
  5
4286
100
AcDbEntity
  8
0
  6
CONTINUOUS
100
AcDbLine
 10
-0.066929
 20
-0.649606
 30
-0.486764
 11
-0.066929
 21
-0.649606
 31
-0.483295
210
0.0
220
-1.0
230
-0.0000000000000003
  0
LINE
  5
4287
100
AcDbEntity
  8
0
  6
CONTINUOUS
100
AcDbLine
 10
0.066929
 20
-0.649606
 30
-0.547194
 11
0.066929
 21
-0.649606
 31
-0.559683
210
0.0
220
-1.0
230
-0.0000000000000003
  0
LINE
  5
4288
100
AcDbEntity
  8
0
  6
CONTINUOUS
100
AcDbLine
 10
0.066929
 20
-0.649606
 30
-0.486764
 11
0.066929
 21
-0.649606
 31
-0.4833
210
0.0
220
-1.0
230
-0.0000000000000003
  0
LINE
  5
4289
100
AcDbEntity
  8
0
  6
CONTINUOUS
100
AcDbLine
 10
0.07874
 20
-0.649606
 30
-0.47275
 11
0.07874
 21
-0.649606
 31
-0.483516
210
0.0
220
-1.0
230
-0.0000000000000003
  0
LINE
  5
428A
100
AcDbEntity
  8
0
  6
CONTINUOUS
100
AcDbLine
 10
0.121294
 20
-0.649606
 30
-0.583094
 11
0.122039
 21
-0.649606
 31
-0.574058
210
0.0
220
-1.0
230
-0.0000000000000003
  0
LINE
  5
428B
100
AcDbEntity
  8
0
  6
CONTINUOUS
100
AcDbLine
 10
0.137795
 20
-0.649606
 30
-0.569343
 11
0.12194
 21
-0.649606
 31
-0.573704
210
0.0
220
-1.0
230
-0.0000000000000003
  0
LINE
  5
428C
100
AcDbEntity
  8
0
  6
CONTINUOUS
100
AcDbLine
 10
0.137795
 20
-0.649606
 30
-0.527701
 11
0.066929
 21
-0.649606
 31
-0.547194
210
0.0
220
-1.0
230
-0.0000000000000003
  0
LINE
  5
428D
100
AcDbEntity
  8
0
  6
CONTINUOUS
100
AcDbLine
 10
0.139764
 20
-0.649606
 30
-0.59097
 11
-0.145669
 21
-0.649606
 31
-0.590968
210
0.0
220
-1.0
230
-0.0000000000000003
  0
LINE
  5
428E
100
AcDbEntity
  8
0
  6
CONTINUOUS
100
AcDbLine
 10
-0.135827
 20
-0.649606
 30
-0.583092
 11
0.139764
 21
-0.649606
 31
-0.583094
210
0.0
220
-1.0
230
-0.0000000000000003
  0
LINE
  5
428F
100
AcDbEntity
  8
0
  6
CONTINUOUS
100
AcDbLine
 10
-0.121942
 20
-0.649606
 30
-0.573704
 11
-0.135827
 21
-0.649606
 31
-0.569885
210
0.0
220
-1.0
230
-0.0000000000000003
  0
LINE
  5
4290
100
AcDbEntity
  8
0
  6
CONTINUOUS
100
AcDbLine
 10
-0.066929
 20
-0.649606
 30
-0.547194
 11
-0.135827
 21
-0.649606
 31
-0.528242
210
0.0
220
-1.0
230
-0.0000000000000003
  0
LINE
  5
4291
100
AcDbEntity
  8
0
  6
CONTINUOUS
100
AcDbLine
 10
0.066929
 20
-0.649606
 30
-0.486764
 11
0.131248
 21
-0.649606
 31
-0.469072
210
0.0
220
-1.0
230
-0.0000000000000003
  0
LINE
  5
4292
100
AcDbEntity
  8
0
  6
CONTINUOUS
100
AcDbLine
 10
0.135827
 20
-0.649606
 30
-0.467812
 11
0.137795
 21
-0.649606
 31
-0.467271
210
0.0
220
-1.0
230
-0.0000000000000003
  0
LWPOLYLINE
  5
4293
100
AcDbEntity
  8
0
  6
CONTINUOUS
100
AcDbPolyline
 90
       12
 70
     0
 43
0.0
 38
0.649606
 10
0.0
 20
-0.556878
 10
-0.01819
 20
-0.557067
 10
-0.035974
 20
-0.557632
 10
-0.052954
 20
-0.55856
 10
-0.068752
 20
-0.559829
 10
-0.083013
 20
-0.561412
 10
-0.09542
 20
-0.563273
 10
-0.105696
 20
-0.565371
 10
-0.113611
 20
-0.567658
 10
-0.118987
 20
-0.570084
 10
-0.121706
 20
-0.572594
 10
-0.122038
 20
-0.574059
210
0.0
220
-1.0
230
-0.0000000000000003
  0
LINE
  5
4294
100
AcDbEntity
  8
0
  6
CONTINUOUS
100
AcDbLine
 10
0.066929
 20
-0.649606
 30
-0.547194
 11
-0.066929
 21
-0.649606
 31
-0.547194
210
0.0
220
-1.0
230
-0.0000000000000003
  0
LWPOLYLINE
  5
429A
100
AcDbEntity
  8
0
  6
CONTINUOUS
100
AcDbPolyline
 90
       12
 70
     0
 43
0.0
 38
0.649606
 10
0.0
 20
-0.556878
 10
0.01819
 20
-0.557067
 10
0.035974
 20
-0.557632
 10
0.052954
 20
-0.55856
 10
0.068752
 20
-0.559829
 10
0.083013
 20
-0.561412
 10
0.09542
 20
-0.563273
 10
0.105696
 20
-0.565371
 10
0.113611
 20
-0.567658
 10
0.118987
 20
-0.570084
 10
0.121706
 20
-0.572594
 10
0.122038
 20
-0.574059
210
0.0
220
-1.0
230
-0.0000000000000003
  0
LINE
  5
429B
100
AcDbEntity
  8
0
  6
CONTINUOUS
100
AcDbLine
 10
-0.127606
 20
-0.649606
 30
-0.470074
 11
-0.066929
 21
-0.649606
 31
-0.486764
210
0.0
220
-1.0
230
-0.0000000000000003
  0
LINE
  5
429C
100
AcDbEntity
  8
0
  6
CONTINUOUS
100
AcDbLine
 10
-0.073045
 20
-0.649606
 30
-0.484
 11
-0.066421
 21
-0.649606
 31
-0.482207
210
0.0
220
-1.0
230
-0.0000000000000003
  0
LWPOLYLINE
  5
429D
100
AcDbEntity
  8
0
  6
CONTINUOUS
100
AcDbPolyline
 90
        9
 70
     0
 43
0.0
 38
0.649606
 10
-0.066421
 20
-0.482207
 10
-0.058186
 20
-0.480709
 10
-0.049138
 20
-0.479529
 10
-0.039873
 20
-0.478643
 10
-0.030784
 20
-0.478006
 10
-0.02214
 20
-0.477576
 10
-0.014094
 20
-0.477311
 10
-0.006712
 20
-0.477174
 10
0.0
 20
-0.477134
210
0.0
220
-1.0
230
-0.0000000000000003
  0
LINE
  5
429E
100
AcDbEntity
  8
0
  6
CONTINUOUS
100
AcDbLine
 10
0.118779
 20
-0.649606
 30
-0.470074
 11
0.135827
 21
-0.649606
 31
-0.468704
210
0.0
220
-1.0
230
-0.0000000000000003
  0
LINE
  5
42A3
100
AcDbEntity
  8
0
  6
CONTINUOUS
100
AcDbLine
 10
-0.066929
 20
-0.649606
 30
-0.486764
 11
0.066929
 21
-0.649606
 31
-0.486764
210
0.0
220
-1.0
230
-0.0000000000000003
  0
LINE
  5
42B2
100
AcDbEntity
  8
0
  6
CONTINUOUS
100
AcDbLine
 10
-0.117876
 20
-0.649606
 30
-0.47275
 11
-0.07874
 21
-0.649606
 31
-0.47275
210
0.0
220
-1.0
230
-0.0000000000000003
  0
LINE
  5
42B3
100
AcDbEntity
  8
0
  6
CONTINUOUS
100
AcDbLine
 10
0.07874
 20
-0.649606
 30
-0.47275
 11
0.117876
 21
-0.649606
 31
-0.47275
210
0.0
220
-1.0
230
-0.0000000000000003
  0
LINE
  5
42B5
100
AcDbEntity
  8
0
  6
CONTINUOUS
100
AcDbLine
 10
0.118779
 20
-0.649606
 30
-0.470074
 11
-0.135827
 21
-0.649606
 31
-0.470074
210
0.0
220
-1.0
230
-0.0000000000000003
  0
LINE
  5
42B6
100
AcDbEntity
  8
0
  6
CONTINUOUS
100
AcDbLine
 10
-0.135827
 20
-0.649606
 30
-0.466561
 11
0.135827
 21
-0.649606
 31
-0.466561
210
0.0
220
-1.0
230
-0.0000000000000003
  0
LWPOLYLINE
  5
42B7
100
AcDbEntity
  8
0
  6
CONTINUOUS
100
AcDbPolyline
 90
        8
 70
     0
 43
0.0
 38
0.649606
 10
0.0
 20
-0.477134
 10
0.007483
 20
-0.477183
 10
0.015776
 20
-0.477356
 10
0.024855
 20
-0.477694
 10
0.034599
 20
-0.478248
 10
0.044743
 20
-0.479075
 10
0.054853
 20
-0.48023
 10
0.06428
 20
-0.481763
210
0.0
220
-1.0
230
-0.0000000000000003
  0
LWPOLYLINE
  5
42BA
100
AcDbEntity
  8
0
  6
CONTINUOUS
100
AcDbPolyline
 90
        3
 70
     0
 43
0.0
 38
0.649606
 10
0.06428
 20
-0.481763
 10
0.072015
 20
-0.483661
 10
0.074431
 20
-0.484701
210
0.0
220
-1.0
230
-0.0000000000000003
  0
SPLINE
  5
42BC
100
AcDbEntity
  8
0
  6
CONTINUOUS
100
AcDbSpline
210
0.0
220
1.0
230
0.0
 70
     8
 71
     3
 72
    17
 73
    13
 74
    11
 42
0.0000001
 43
0.0000001
 44
0.0000000001
 40
0.0
 40
0.0
 40
0.0
 40
0.0
 40
0.0150224405631833
 40
0.0292687077378026
 40
0.0411305740624805
 40
0.0503655538405461
 40
0.0573234080060807
 40
0.0623183197076961
 40
0.0655934732211019
 40
0.0672990976317323
 40
0.0674982699122297
 40
0.0675503774483547
 40
0.0675503774483547
 40
0.0675503774483547
 40
0.0675503774483547
 10
-0.0000000000499973
 20
-0.6496062991499994
 30
-0.4773252060999989
 10
-0.0050076426151155
 20
-0.6496062991499994
 30
-0.4773644144996262
 10
-0.0147641948928478
 20
-0.6496062991499994
 30
-0.4774408054951326
 10
-0.0284644970103285
 20
-0.6496062991499993
 30
-0.4780341045637402
 10
-0.0402169048549137
 20
-0.6496062991499994
 30
-0.4788758290483585
 10
-0.0495199726045961
 20
-0.6496062991499994
 30
-0.4798478370800768
 10
-0.0565138905284536
 20
-0.6496062991499996
 30
-0.4808389274170562
 10
-0.0615099917754805
 20
-0.649606299149999
 30
-0.4817505435452703
 10
-0.0647421788450878
 20
-0.6496062991499998
 30
-0.4825362526467614
 10
-0.0664027498000306
 20
-0.6496062991499989
 30
-0.4830129773888674
 10
-0.0670093470076124
 20
-0.6496062991499996
 30
-0.4832588824977835
 10
-0.0670910985496649
 20
-0.6496062991499994
 30
-0.4832773675758099
 10
-0.0671080512499973
 20
-0.6496062991499994
 30
-0.4832812007999979
 11
-0.0000000000499973
 21
-0.6496062991499994
 31
-0.4773252060999989
 11
-0.0150209905499974
 21
-0.6496062991499994
 31
-0.4775339280999989
 11
-0.0292542959499986
 21
-0.6496062991499994
 31
-0.4781415017999971
 11
-0.0410842787499988
 21
-0.6496062991499994
 31
-0.4790106275999984
 11
-0.0502671144499978
 21
-0.6496062991499994
 31
-0.4799906173999995
 11
-0.0571537251499983
 21
-0.6496062991499994
 31
-0.4809837576999998
 11
-0.062061910049998
 21
-0.6496062991499994
 31
-0.4819105067999994
 11
-0.0652433299499986
 21
-0.6496062991499994
 31
-0.482688451499997
 11
-0.066869496049998
 21
-0.6496062991499994
 31
-0.483202978899997
 11
-0.0670573591499988
 21
-0.6496062991499994
 31
-0.4832691381999981
 11
-0.0671080512499973
 21
-0.6496062991499994
 31
-0.4832812007999979
  0
SPLINE
  5
42BD
100
AcDbEntity
  8
0
  6
CONTINUOUS
100
AcDbSpline
210
0.0
220
1.0
230
0.0
 70
     8
 71
     3
 72
    15
 73
    11
 74
     9
 42
0.0000001
 43
0.0000001
 44
0.0000000001
 40
0.0
 40
0.0
 40
0.0
 40
0.0
 40
0.0011750321790095
 40
0.0041030807847649
 40
0.0089120386113145
 40
0.0158516037426912
 40
0.0252670665903492
 40
0.0375538140252554
 40
0.0521661843960742
 40
0.0675666743504242
 40
0.0675666743504242
 40
0.0675666743504242
 40
0.0675666743504242
 10
0.0671193518500015
 20
-0.6496062991499994
 30
-0.4833000135999983
 10
0.0667505463576537
 20
-0.6496062991499994
 30
-0.4831677549589159
 10
0.0654627188785428
 20
-0.6496062991499993
 30
-0.4827059225950549
 10
0.0625725484506786
 20
-0.6496062991499995
 30
-0.4819961753910445
 10
0.057775914509249
 20
-0.6496062991499993
 30
-0.4810368430689617
 10
0.050793309443274
 20
-0.6496062991499994
 30
-0.4800056956466431
 10
0.0413014617756658
 20
-0.6496062991499994
 30
-0.4789656893458413
 10
0.0292272926089171
 20
-0.6496062991499994
 30
-0.4780736447403669
 10
0.0151383492579724
 20
-0.6496062991499994
 30
-0.4774465274939799
 10
0.0051336885021105
 20
-0.6496062991499994
 30
-0.4773663483830006
 10
-0.0000000000499973
 20
-0.6496062991499994
 30
-0.4773252060999989
 11
0.0671193518500015
 21
-0.6496062991499994
 31
-0.4833000135999983
 11
0.0660094252500017
 21
-0.6496062991499994
 31
-0.4829143147999995
 11
0.0631797308500026
 21
-0.6496062991499994
 31
-0.4821617868999982
 11
0.0584661307500021
 21
-0.6496062991499994
 31
-0.4812088705999971
 11
0.0516058503500023
 21
-0.6496062991499994
 31
-0.4801628700999983
 11
0.0422485514500028
 21
-0.6496062991499994
 31
-0.4791179308999985
 11
0.0299972412500012
 21
-0.6496062991499994
 31
-0.4781854283999972
 11
0.0153989259500023
 21
-0.6496062991499994
 31
-0.4775446801999986
 11
-0.0000000000499973
 21
-0.6496062991499994
 31
-0.4773252060999989
  0
SPLINE
  5
42BE
100
AcDbEntity
  8
0
  6
CONTINUOUS
100
AcDbSpline
210
0.0000000000000264
220
1.0
230
0.0000000000000338
 70
     8
 71
     3
 72
    12
 73
     8
 74
     6
 42
0.0000001
 43
0.0000001
 44
0.0000000001
 40
0.0
 40
0.0
 40
0.0
 40
0.0
 40
0.00286652083088
 40
0.0057585591224
 40
0.0085174697188948
 40
0.0111511414407517
 40
0.0137632322264551
 40
0.0137632322264551
 40
0.0137632322264551
 40
0.0137632322264551
 10
-0.1456692914499982
 20
-0.6496062991499994
 30
-0.4361009142999999
 10
-0.1447120301600085
 20
-0.6496062991499993
 30
-0.4361636990948396
 10
-0.142788986142813
 20
-0.6496062991499993
 30
-0.4362898275880209
 10
-0.1400890121013322
 20
-0.6496062991499994
 30
-0.4373151126149524
 10
-0.1378338427255678
 20
-0.6496062991499995
 30
-0.438940490979377
 10
-0.1361728654198664
 20
-0.6496062991499994
 30
-0.4411552965048925
 10
-0.1359418194675257
 20
-0.6496062991499994
 30
-0.4429146671706469
 10
-0.1358267717499988
 20
-0.6496062991499994
 30
-0.4437907334999994
 11
-0.1456692914499982
 21
-0.6496062991499994
 31
-0.4361009142999999
 11
-0.1428216977499979
 21
-0.6496062991499994
 31
-0.4364297787
 11
-0.1401130912499973
 21
-0.6496062991499994
 31
-0.4374433546999983
 11
-0.1378910897499974
 21
-0.6496062991499994
 31
-0.4390786824999973
 11
-0.1363845184499972
 21
-0.6496062991499994
 31
-0.4412388837999979
 11
-0.1358267717499988
 21
-0.6496062991499994
 31
-0.4437907334999994
  0
SPLINE
  5
42BF
100
AcDbEntity
  8
0
  6
CONTINUOUS
100
AcDbSpline
210
0.0
220
-1.0
230
0.0
 70
     8
 71
     3
 72
    11
 73
     7
 74
     5
 42
0.0000001
 43
0.0000001
 44
0.0000000001
 40
0.0
 40
0.0
 40
0.0
 40
0.0
 40
0.0017421539759577
 40
0.0042702266397837
 40
0.0075825162797739
 40
0.0112735747934283
 40
0.0112735747934283
 40
0.0112735747934283
 40
0.0112735747934283
 10
-0.1358267717499988
 20
-0.6496062991499994
 30
-0.5869914242999999
 10
-0.1360389340418115
 20
-0.6496062991499993
 30
-0.5875525149229082
 10
-0.1365589690576361
 20
-0.6496062991499993
 30
-0.5889278147863772
 10
-0.1390596812928193
 20
-0.6496062991499994
 30
-0.5900079463177607
 10
-0.142080272827368
 20
-0.6496062991499994
 30
-0.5908257537121506
 10
-0.1444305805841368
 20
-0.6496062991499994
 30
-0.5909189447895614
 10
-0.1456692914499982
 20
-0.6496062991499994
 30
-0.590968060399999
 11
-0.1358267717499988
 21
-0.6496062991499994
 31
-0.5869914242999999
 11
-0.1366111093499978
 21
-0.6496062991499994
 31
-0.5885470318999984
 11
-0.1387869400499984
 21
-0.6496062991499994
 31
-0.5898342428999977
 11
-0.1419895151499979
 21
-0.6496062991499994
 31
-0.5906796867999989
 11
-0.1456692914499982
 21
-0.6496062991499994
 31
-0.590968060399999
  0
LINE
  5
42C0
100
AcDbEntity
  8
0
  6
CONTINUOUS
100
AcDbLine
 10
0.135827
 20
-0.649606
 30
-0.468704
 11
0.135827
 21
-0.649606
 31
-0.436101
210
0.0
220
-1.0
230
-0.0000000000000003
  0
LINE
  5
42C1
100
AcDbEntity
  8
0
  6
CONTINUOUS
100
AcDbLine
 10
0.137795
 20
-0.649606
 30
-0.569343
 11
0.137795
 21
-0.649606
 31
-0.436101
210
0.0
220
-1.0
230
-0.0000000000000003
  0
LINE
  5
42C2
100
AcDbEntity
  8
0
  6
CONTINUOUS
100
AcDbLine
 10
0.139764
 20
-0.649606
 30
-0.59097
 11
0.139764
 21
-0.649606
 31
-0.436101
210
0.0
220
-1.0
230
-0.0000000000000003
  0
LINE
  5
42C3
100
AcDbEntity
  8
0
  6
CONTINUOUS
100
AcDbLine
 10
-0.145669
 20
-0.649606
 30
-0.436101
 11
0.139764
 21
-0.649606
 31
-0.436101
210
0.0
220
-1.0
230
-0.0000000000000003
  0
ARC
  5
4443
100
AcDbEntity
  8
0
100
AcDbCircle
 10
0.001969
 20
0.000016
 30
1.781519
 40
0.080709
210
-0.0000000000000001
220
0.0
230
-1.0
100
AcDbArc
 50
167.949338
 51
192.050662
  0
ARC
  5
4444
100
AcDbEntity
  8
0
100
AcDbCircle
 10
0.001969
 20
0.000016
 30
1.781519
 40
0.080709
210
-0.0000000000000001
220
0.0
230
-1.0
100
AcDbArc
 50
347.949338
 51
12.050662
  0
LINE
  5
4462
100
AcDbEntity
  8
0
100
AcDbLine
 10
-0.155512
 20
-0.102346
 30
-1.781519
 11
-0.155512
 21
0.102378
 31
-1.781519
210
-0.0000000000000001
220
0.0
230
-1.0
  0
LINE
  5
4465
100
AcDbEntity
  8
0
100
AcDbLine
 10
-0.151575
 20
-0.098409
 30
-1.781519
 11
-0.151575
 21
0.098441
 31
-1.781519
210
-0.0000000000000001
220
0.0
230
-1.0
  0
LINE
  5
4466
100
AcDbEntity
  8
0
100
AcDbLine
 10
-0.093904
 20
0.098441
 30
-1.781519
 11
-0.094488
 21
0.097857
 31
-1.781519
210
-0.0000000000000001
220
0.0
230
-1.0
  0
LINE
  5
4469
100
AcDbEntity
  8
0
100
AcDbLine
 10
-0.080709
 20
0.102378
 30
-1.781519
 11
-0.155512
 21
0.102378
 31
-1.781519
210
-0.0000000000000001
220
0.0
230
-1.0
  0
LINE
  5
446A
100
AcDbEntity
  8
0
100
AcDbLine
 10
0.151575
 20
0.102378
 30
-1.781519
 11
0.076772
 21
0.102378
 31
-1.781519
210
-0.0000000000000001
220
0.0
230
-1.0
  0
LINE
  5
446B
100
AcDbEntity
  8
0
100
AcDbLine
 10
-0.080709
 20
0.098441
 30
-1.781519
 11
-0.151575
 21
0.098441
 31
-1.781519
210
-0.0000000000000001
220
0.0
230
-1.0
  0
LINE
  5
446C
100
AcDbEntity
  8
0
100
AcDbLine
 10
0.147638
 20
0.098441
 30
-1.781519
 11
0.076772
 21
0.098441
 31
-1.781519
210
-0.0000000000000001
220
0.0
230
-1.0
  0
LINE
  5
446D
100
AcDbEntity
  8
0
100
AcDbLine
 10
-0.094488
 20
0.097857
 30
-1.781519
 11
-0.098425
 21
0.097857
 31
-1.781519
210
-0.0000000000000001
220
0.0
230
-1.0
  0
LINE
  5
446E
100
AcDbEntity
  8
0
100
AcDbLine
 10
0.090551
 20
0.097857
 30
-1.781519
 11
0.094488
 21
0.097857
 31
-1.781519
210
-0.0000000000000001
220
0.0
230
-1.0
  0
LINE
  5
4470
100
AcDbEntity
  8
0
100
AcDbLine
 10
-0.093904
 20
-0.098409
 30
-1.781519
 11
-0.094488
 21
-0.097825
 31
-1.781519
210
-0.0000000000000001
220
0.0
230
-1.0
  0
LINE
  5
4476
100
AcDbEntity
  8
0
100
AcDbLine
 10
-0.127953
 20
-0.098409
 30
-1.781519
 11
-0.127953
 21
-0.064945
 31
-1.781519
210
-0.0000000000000001
220
0.0
230
-1.0
  0
LINE
  5
4477
100
AcDbEntity
  8
0
100
AcDbLine
 10
-0.127953
 20
0.098441
 30
-1.781519
 11
-0.127953
 21
0.064977
 31
-1.781519
210
-0.0000000000000001
220
0.0
230
-1.0
  0
LINE
  5
4478
100
AcDbEntity
  8
0
100
AcDbLine
 10
-0.125984
 20
0.098441
 30
-1.781519
 11
-0.125984
 21
0.102378
 31
-1.781519
210
-0.0000000000000001
220
0.0
230
-1.0
  0
LINE
  5
4479
100
AcDbEntity
  8
0
100
AcDbLine
 10
-0.125984
 20
-0.102346
 30
-1.781519
 11
-0.125984
 21
-0.098409
 31
-1.781519
210
-0.0000000000000001
220
0.0
230
-1.0
  0
LINE
  5
447A
100
AcDbEntity
  8
0
100
AcDbLine
 10
-0.122047
 20
-0.102346
 30
-1.781519
 11
-0.122047
 21
-0.098409
 31
-1.781519
210
-0.0000000000000001
220
0.0
230
-1.0
  0
LINE
  5
447B
100
AcDbEntity
  8
0
100
AcDbLine
 10
-0.122047
 20
0.102378
 30
-1.781519
 11
-0.122047
 21
0.098441
 31
-1.781519
210
-0.0000000000000001
220
0.0
230
-1.0
  0
LINE
  5
447E
100
AcDbEntity
  8
0
100
AcDbLine
 10
-0.11811
 20
-0.019669
 30
-1.781519
 11
-0.11811
 21
0.019701
 31
-1.781519
210
-0.0000000000000001
220
0.0
230
-1.0
  0
LINE
  5
4481
100
AcDbEntity
  8
0
100
AcDbLine
 10
-0.112205
 20
0.013795
 30
-1.781519
 11
-0.112205
 21
-0.013764
 31
-1.781519
210
-0.0000000000000001
220
0.0
230
-1.0
  0
LINE
  5
4482
100
AcDbEntity
  8
0
100
AcDbLine
 10
-0.111621
 20
0.013211
 30
-1.781519
 11
-0.111621
 21
-0.01318
 31
-1.781519
210
-0.0000000000000001
220
0.0
230
-1.0
  0
LINE
  5
4484
100
AcDbEntity
  8
0
100
AcDbLine
 10
-0.108268
 20
-0.019669
 30
-1.781519
 11
-0.108268
 21
-0.064945
 31
-1.781519
210
-0.0000000000000001
220
0.0
230
-1.0
  0
LINE
  5
4485
100
AcDbEntity
  8
0
100
AcDbLine
 10
-0.108268
 20
0.064977
 30
-1.781519
 11
-0.108268
 21
0.019701
 31
-1.781519
210
-0.0000000000000001
220
0.0
230
-1.0
  0
LINE
  5
4486
100
AcDbEntity
  8
0
100
AcDbLine
 10
-0.098425
 20
-0.098409
 30
-1.781519
 11
-0.098425
 21
-0.013764
 31
-1.781519
210
-0.0000000000000001
220
0.0
230
-1.0
  0
LINE
  5
4487
100
AcDbEntity
  8
0
100
AcDbLine
 10
-0.098425
 20
0.098441
 30
-1.781519
 11
-0.098425
 21
0.013795
 31
-1.781519
210
-0.0000000000000001
220
0.0
230
-1.0
  0
LINE
  5
4488
100
AcDbEntity
  8
0
100
AcDbLine
 10
-0.094488
 20
-0.013764
 30
-1.781519
 11
-0.094488
 21
-0.097825
 31
-1.781519
210
-0.0000000000000001
220
0.0
230
-1.0
  0
LINE
  5
4489
100
AcDbEntity
  8
0
100
AcDbLine
 10
-0.094488
 20
0.097857
 30
-1.781519
 11
-0.094488
 21
0.013795
 31
-1.781519
210
-0.0000000000000001
220
0.0
230
-1.0
  0
LINE
  5
448A
100
AcDbEntity
  8
0
100
AcDbLine
 10
-0.093904
 20
-0.01318
 30
-1.781519
 11
-0.093904
 21
-0.098409
 31
-1.781519
210
-0.0000000000000001
220
0.0
230
-1.0
  0
LINE
  5
448B
100
AcDbEntity
  8
0
100
AcDbLine
 10
-0.093904
 20
0.098441
 30
-1.781519
 11
-0.093904
 21
0.013211
 31
-1.781519
210
-0.0000000000000001
220
0.0
230
-1.0
  0
LINE
  5
448C
100
AcDbEntity
  8
0
100
AcDbLine
 10
-0.080709
 20
0.102378
 30
-1.781519
 11
-0.080709
 21
-0.102346
 31
-1.781519
210
-0.0000000000000001
220
0.0
230
-1.0
  0
LINE
  5
4493
100
AcDbEntity
  8
0
100
AcDbLine
 10
-0.111621
 20
-0.01318
 30
-1.781519
 11
-0.112205
 21
-0.013764
 31
-1.781519
210
-0.0000000000000001
220
0.0
230
-1.0
  0
LINE
  5
4494
100
AcDbEntity
  8
0
100
AcDbLine
 10
-0.093904
 20
-0.01318
 30
-1.781519
 11
-0.094488
 21
-0.013764
 31
-1.781519
210
-0.0000000000000001
220
0.0
230
-1.0
  0
LINE
  5
4495
100
AcDbEntity
  8
0
100
AcDbLine
 10
-0.094488
 20
0.068914
 30
-1.781519
 11
-0.098425
 21
0.068914
 31
-1.781519
210
-0.0000000000000001
220
0.0
230
-1.0
  0
LINE
  5
4496
100
AcDbEntity
  8
0
100
AcDbLine
 10
0.151575
 20
0.068914
 30
-1.781519
 11
0.147638
 21
0.068914
 31
-1.781519
210
-0.0000000000000001
220
0.0
230
-1.0
  0
LINE
  5
4497
100
AcDbEntity
  8
0
100
AcDbLine
 10
0.090551
 20
0.068914
 30
-1.781519
 11
0.094488
 21
0.068914
 31
-1.781519
210
-0.0000000000000001
220
0.0
230
-1.0
  0
LINE
  5
4498
100
AcDbEntity
  8
0
100
AcDbLine
 10
-0.155512
 20
0.068914
 30
-1.781519
 11
-0.151575
 21
0.068914
 31
-1.781519
210
-0.0000000000000001
220
0.0
230
-1.0
  0
LINE
  5
4499
100
AcDbEntity
  8
0
100
AcDbLine
 10
-0.094488
 20
0.064977
 30
-1.781519
 11
-0.127953
 21
0.064977
 31
-1.781519
210
-0.0000000000000001
220
0.0
230
-1.0
  0
LINE
  5
449A
100
AcDbEntity
  8
0
100
AcDbLine
 10
0.124016
 20
0.064977
 30
-1.781519
 11
0.090551
 21
0.064977
 31
-1.781519
210
-0.0000000000000001
220
0.0
230
-1.0
  0
LINE
  5
449B
100
AcDbEntity
  8
0
100
AcDbLine
 10
-0.094488
 20
0.057103
 30
-1.781519
 11
-0.098425
 21
0.057103
 31
-1.781519
210
-0.0000000000000001
220
0.0
230
-1.0
  0
LINE
  5
449C
100
AcDbEntity
  8
0
100
AcDbLine
 10
0.094488
 20
0.057103
 30
-1.781519
 11
0.090551
 21
0.057103
 31
-1.781519
210
-0.0000000000000001
220
0.0
230
-1.0
  0
LINE
  5
449D
100
AcDbEntity
  8
0
100
AcDbLine
 10
-0.098425
 20
0.019701
 30
-1.781519
 11
-0.11811
 21
0.019701
 31
-1.781519
210
-0.0000000000000001
220
0.0
230
-1.0
  0
LINE
  5
449E
100
AcDbEntity
  8
0
100
AcDbLine
 10
0.094488
 20
0.019701
 30
-1.781519
 11
0.114173
 21
0.019701
 31
-1.781519
210
-0.0000000000000001
220
0.0
230
-1.0
  0
LINE
  5
449F
100
AcDbEntity
  8
0
100
AcDbLine
 10
-0.094488
 20
0.013795
 30
-1.781519
 11
-0.112205
 21
0.013795
 31
-1.781519
210
-0.0000000000000001
220
0.0
230
-1.0
  0
LINE
  5
44A0
100
AcDbEntity
  8
0
100
AcDbLine
 10
0.108268
 20
0.013795
 30
-1.781519
 11
0.090551
 21
0.013795
 31
-1.781519
210
-0.0000000000000001
220
0.0
230
-1.0
  0
LINE
  5
44A1
100
AcDbEntity
  8
0
100
AcDbLine
 10
-0.093904
 20
0.013211
 30
-1.781519
 11
-0.111621
 21
0.013211
 31
-1.781519
210
-0.0000000000000001
220
0.0
230
-1.0
  0
LINE
  5
44A2
100
AcDbEntity
  8
0
100
AcDbLine
 10
0.107684
 20
0.013211
 30
-1.781519
 11
0.089967
 21
0.013211
 31
-1.781519
210
-0.0000000000000001
220
0.0
230
-1.0
  0
LINE
  5
44A3
100
AcDbEntity
  8
0
100
AcDbLine
 10
-0.111621
 20
0.013211
 30
-1.781519
 11
-0.112205
 21
0.013795
 31
-1.781519
210
-0.0000000000000001
220
0.0
230
-1.0
  0
LINE
  5
44A4
100
AcDbEntity
  8
0
100
AcDbLine
 10
-0.093904
 20
0.013211
 30
-1.781519
 11
-0.094488
 21
0.013795
 31
-1.781519
210
-0.0000000000000001
220
0.0
230
-1.0
  0
LINE
  5
44B0
100
AcDbEntity
  8
0
100
AcDbLine
 10
0.089967
 20
0.013211
 30
-1.781519
 11
0.090551
 21
0.013795
 31
-1.781519
210
-0.0000000000000001
220
0.0
230
-1.0
  0
LINE
  5
44B1
100
AcDbEntity
  8
0
100
AcDbLine
 10
0.089967
 20
-0.01318
 30
-1.781519
 11
0.107684
 21
-0.01318
 31
-1.781519
210
-0.0000000000000001
220
0.0
230
-1.0
  0
LINE
  5
44B2
100
AcDbEntity
  8
0
100
AcDbLine
 10
-0.111621
 20
-0.01318
 30
-1.781519
 11
-0.093904
 21
-0.01318
 31
-1.781519
210
-0.0000000000000001
220
0.0
230
-1.0
  0
LINE
  5
44B3
100
AcDbEntity
  8
0
100
AcDbLine
 10
0.090551
 20
-0.013764
 30
-1.781519
 11
0.108268
 21
-0.013764
 31
-1.781519
210
-0.0000000000000001
220
0.0
230
-1.0
  0
LINE
  5
44B4
100
AcDbEntity
  8
0
100
AcDbLine
 10
-0.112205
 20
-0.013764
 30
-1.781519
 11
-0.094488
 21
-0.013764
 31
-1.781519
210
-0.0000000000000001
220
0.0
230
-1.0
  0
LINE
  5
44B5
100
AcDbEntity
  8
0
100
AcDbLine
 10
-0.098425
 20
-0.019669
 30
-1.781519
 11
-0.11811
 21
-0.019669
 31
-1.781519
210
-0.0000000000000001
220
0.0
230
-1.0
  0
LINE
  5
44B6
100
AcDbEntity
  8
0
100
AcDbLine
 10
0.114173
 20
-0.019669
 30
-1.781519
 11
0.094488
 21
-0.019669
 31
-1.781519
210
-0.0000000000000001
220
0.0
230
-1.0
  0
LINE
  5
44B7
100
AcDbEntity
  8
0
100
AcDbLine
 10
0.090551
 20
-0.057071
 30
-1.781519
 11
0.094488
 21
-0.057071
 31
-1.781519
210
-0.0000000000000001
220
0.0
230
-1.0
  0
LINE
  5
44B8
100
AcDbEntity
  8
0
100
AcDbLine
 10
-0.098425
 20
-0.057071
 30
-1.781519
 11
-0.094488
 21
-0.057071
 31
-1.781519
210
-0.0000000000000001
220
0.0
230
-1.0
  0
LINE
  5
44B9
100
AcDbEntity
  8
0
100
AcDbLine
 10
0.089967
 20
-0.01318
 30
-1.781519
 11
0.090551
 21
-0.013764
 31
-1.781519
210
-0.0000000000000001
220
0.0
230
-1.0
  0
LINE
  5
44C5
100
AcDbEntity
  8
0
100
AcDbLine
 10
0.107684
 20
0.013211
 30
-1.781519
 11
0.108268
 21
0.013795
 31
-1.781519
210
-0.0000000000000001
220
0.0
230
-1.0
  0
LINE
  5
44C6
100
AcDbEntity
  8
0
100
AcDbLine
 10
-0.094488
 20
-0.064945
 30
-1.781519
 11
-0.127953
 21
-0.064945
 31
-1.781519
210
-0.0000000000000001
220
0.0
230
-1.0
  0
LINE
  5
44C7
100
AcDbEntity
  8
0
100
AcDbLine
 10
0.124016
 20
-0.064945
 30
-1.781519
 11
0.090551
 21
-0.064945
 31
-1.781519
210
-0.0000000000000001
220
0.0
230
-1.0
  0
LINE
  5
44C8
100
AcDbEntity
  8
0
100
AcDbLine
 10
-0.094488
 20
-0.068882
 30
-1.781519
 11
-0.098425
 21
-0.068882
 31
-1.781519
210
-0.0000000000000001
220
0.0
230
-1.0
  0
LINE
  5
44C9
100
AcDbEntity
  8
0
100
AcDbLine
 10
0.151575
 20
-0.068882
 30
-1.781519
 11
0.147638
 21
-0.068882
 31
-1.781519
210
-0.0000000000000001
220
0.0
230
-1.0
  0
LINE
  5
44CA
100
AcDbEntity
  8
0
100
AcDbLine
 10
0.090551
 20
-0.068882
 30
-1.781519
 11
0.094488
 21
-0.068882
 31
-1.781519
210
-0.0000000000000001
220
0.0
230
-1.0
  0
LINE
  5
44CB
100
AcDbEntity
  8
0
100
AcDbLine
 10
-0.155512
 20
-0.068882
 30
-1.781519
 11
-0.151575
 21
-0.068882
 31
-1.781519
210
-0.0000000000000001
220
0.0
230
-1.0
  0
LINE
  5
44CD
100
AcDbEntity
  8
0
100
AcDbLine
 10
-0.094488
 20
-0.097825
 30
-1.781519
 11
-0.098425
 21
-0.097825
 31
-1.781519
210
-0.0000000000000001
220
0.0
230
-1.0
  0
LINE
  5
44CE
100
AcDbEntity
  8
0
100
AcDbLine
 10
0.090551
 20
-0.097825
 30
-1.781519
 11
0.094488
 21
-0.097825
 31
-1.781519
210
-0.0000000000000001
220
0.0
230
-1.0
  0
LINE
  5
44CF
100
AcDbEntity
  8
0
100
AcDbLine
 10
-0.080709
 20
-0.098409
 30
-1.781519
 11
-0.151575
 21
-0.098409
 31
-1.781519
210
-0.0000000000000001
220
0.0
230
-1.0
  0
LINE
  5
44D0
100
AcDbEntity
  8
0
100
AcDbLine
 10
0.147638
 20
-0.098409
 30
-1.781519
 11
0.076772
 21
-0.098409
 31
-1.781519
210
-0.0000000000000001
220
0.0
230
-1.0
  0
LINE
  5
44D1
100
AcDbEntity
  8
0
100
AcDbLine
 10
0.151575
 20
-0.102346
 30
-1.781519
 11
0.076772
 21
-0.102346
 31
-1.781519
210
-0.0000000000000001
220
0.0
230
-1.0
  0
LINE
  5
44D2
100
AcDbEntity
  8
0
100
AcDbLine
 10
-0.155512
 20
-0.102346
 30
-1.781519
 11
-0.080709
 21
-0.102346
 31
-1.781519
210
-0.0000000000000001
220
0.0
230
-1.0
  0
LINE
  5
44D3
100
AcDbEntity
  8
0
100
AcDbLine
 10
0.107684
 20
-0.01318
 30
-1.781519
 11
0.108268
 21
-0.013764
 31
-1.781519
210
-0.0000000000000001
220
0.0
230
-1.0
  0
LINE
  5
44D9
100
AcDbEntity
  8
0
100
AcDbLine
 10
0.076772
 20
-0.102346
 30
-1.781519
 11
0.076772
 21
0.102378
 31
-1.781519
210
-0.0000000000000001
220
0.0
230
-1.0
  0
LINE
  5
44DC
100
AcDbEntity
  8
0
100
AcDbLine
 10
0.089967
 20
0.013211
 30
-1.781519
 11
0.089967
 21
0.098441
 31
-1.781519
210
-0.0000000000000001
220
0.0
230
-1.0
  0
LINE
  5
44DD
100
AcDbEntity
  8
0
100
AcDbLine
 10
0.089967
 20
-0.098409
 30
-1.781519
 11
0.089967
 21
-0.01318
 31
-1.781519
210
-0.0000000000000001
220
0.0
230
-1.0
  0
LINE
  5
44DE
100
AcDbEntity
  8
0
100
AcDbLine
 10
0.090551
 20
0.013795
 30
-1.781519
 11
0.090551
 21
0.097857
 31
-1.781519
210
-0.0000000000000001
220
0.0
230
-1.0
  0
LINE
  5
44DF
100
AcDbEntity
  8
0
100
AcDbLine
 10
0.090551
 20
-0.097825
 30
-1.781519
 11
0.090551
 21
-0.013764
 31
-1.781519
210
-0.0000000000000001
220
0.0
230
-1.0
  0
LINE
  5
44E0
100
AcDbEntity
  8
0
100
AcDbLine
 10
0.094488
 20
0.013795
 30
-1.781519
 11
0.094488
 21
0.098441
 31
-1.781519
210
-0.0000000000000001
220
0.0
230
-1.0
  0
LINE
  5
44E1
100
AcDbEntity
  8
0
100
AcDbLine
 10
0.094488
 20
-0.098409
 30
-1.781519
 11
0.094488
 21
-0.013764
 31
-1.781519
210
-0.0000000000000001
220
0.0
230
-1.0
  0
LINE
  5
44E2
100
AcDbEntity
  8
0
100
AcDbLine
 10
0.104331
 20
0.019701
 30
-1.781519
 11
0.104331
 21
0.064977
 31
-1.781519
210
-0.0000000000000001
220
0.0
230
-1.0
  0
LINE
  5
44E3
100
AcDbEntity
  8
0
100
AcDbLine
 10
0.104331
 20
-0.064945
 30
-1.781519
 11
0.104331
 21
-0.019669
 31
-1.781519
210
-0.0000000000000001
220
0.0
230
-1.0
  0
LINE
  5
44E4
100
AcDbEntity
  8
0
100
AcDbLine
 10
0.107684
 20
-0.01318
 30
-1.781519
 11
0.107684
 21
0.013211
 31
-1.781519
210
-0.0000000000000001
220
0.0
230
-1.0
  0
LINE
  5
44E5
100
AcDbEntity
  8
0
100
AcDbLine
 10
0.108268
 20
-0.013764
 30
-1.781519
 11
0.108268
 21
0.013795
 31
-1.781519
210
-0.0000000000000001
220
0.0
230
-1.0
  0
LINE
  5
44E8
100
AcDbEntity
  8
0
100
AcDbLine
 10
0.114173
 20
0.019701
 30
-1.781519
 11
0.114173
 21
-0.019669
 31
-1.781519
210
-0.0000000000000001
220
0.0
230
-1.0
  0
LINE
  5
44E9
100
AcDbEntity
  8
0
100
AcDbLine
 10
0.11811
 20
-0.102346
 30
-1.781519
 11
0.11811
 21
-0.098409
 31
-1.781519
210
-0.0000000000000001
220
0.0
230
-1.0
  0
LINE
  5
44EA
100
AcDbEntity
  8
0
100
AcDbLine
 10
0.11811
 20
0.102378
 30
-1.781519
 11
0.11811
 21
0.098441
 31
-1.781519
210
-0.0000000000000001
220
0.0
230
-1.0
  0
LINE
  5
44EB
100
AcDbEntity
  8
0
100
AcDbLine
 10
0.122047
 20
-0.098409
 30
-1.781519
 11
0.122047
 21
-0.102346
 31
-1.781519
210
-0.0000000000000001
220
0.0
230
-1.0
  0
LINE
  5
44EC
100
AcDbEntity
  8
0
100
AcDbLine
 10
0.122047
 20
0.102378
 30
-1.781519
 11
0.122047
 21
0.098441
 31
-1.781519
210
-0.0000000000000001
220
0.0
230
-1.0
  0
LINE
  5
44ED
100
AcDbEntity
  8
0
100
AcDbLine
 10
0.124016
 20
-0.098409
 30
-1.781519
 11
0.124016
 21
-0.064945
 31
-1.781519
210
-0.0000000000000001
220
0.0
230
-1.0
  0
LINE
  5
44EE
100
AcDbEntity
  8
0
100
AcDbLine
 10
0.124016
 20
0.098441
 30
-1.781519
 11
0.124016
 21
0.064977
 31
-1.781519
210
-0.0000000000000001
220
0.0
230
-1.0
  0
LINE
  5
44F3
100
AcDbEntity
  8
0
100
AcDbLine
 10
0.089967
 20
-0.098409
 30
-1.781519
 11
0.090551
 21
-0.097825
 31
-1.781519
210
-0.0000000000000001
220
0.0
230
-1.0
  0
LINE
  5
44F8
100
AcDbEntity
  8
0
100
AcDbLine
 10
0.089967
 20
0.098441
 30
-1.781519
 11
0.090551
 21
0.097857
 31
-1.781519
210
-0.0000000000000001
220
0.0
230
-1.0
  0
LINE
  5
44FC
100
AcDbEntity
  8
0
100
AcDbLine
 10
0.147638
 20
0.098441
 30
-1.781519
 11
0.147638
 21
-0.098409
 31
-1.781519
210
-0.0000000000000001
220
0.0
230
-1.0
  0
LINE
  5
44FE
100
AcDbEntity
  8
0
100
AcDbLine
 10
0.151575
 20
-0.102346
 30
-1.781519
 11
0.151575
 21
0.102378
 31
-1.781519
210
-0.0000000000000001
220
0.0
230
-1.0
  0
ENDSEC
  0
SECTION
  2
OBJECTS
  0
DICTIONARY
  5
B4A
102
{ACAD_XDICTIONARY
360
45B8
102
}
100
AcDbDictionary
  3
ACAD_COLOR
350
2895
  3
ACAD_GROUP
350
B4B
  3
ACAD_LAYOUT
350
DB6
  3
ACAD_MATERIAL
350
2894
  3
ACAD_MLINESTYLE
350
B4C
  3
ACAD_PLOTSETTINGS
350
DB7
  3
ACAD_PLOTSTYLENAME
350
DB4
  3
ACDBHEADERROUNDTRIPXREC
350
4596
  3
ACDBVARIABLEDICTIONARY
350
1503
  3
ASE_INDEX_DICTIONARY
350
3259
  0
DICTIONARY
  5
4594
100
AcDbDictionary
280
     1
  3
ACAD_XREC_ROUNDTRIP
360
4595
  0
DICTIONARY
  5
45BC
100
AcDbDictionary
280
     1
  3
ACAD_XREC_ROUNDTRIP
360
45BD
  0
DICTIONARY
  5
45BE
100
AcDbDictionary
280
     1
  3
ACAD_XREC_ROUNDTRIP
360
45BF
  0
DICTIONARY
  5
45C0
100
AcDbDictionary
280
     1
  3
ACAD_XREC_ROUNDTRIP
360
45C1
  0
DICTIONARY
  5
14F7
100
AcDbDictionary
280
     1
  3
ACAD_LAYOUTSELFREF
360
45B6
  0
DICTIONARY
  5
14F9
100
AcDbDictionary
280
     1
  3
ACAD_LAYOUTSELFREF
360
45B7
  0
DICTIONARY
  5
45B8
100
AcDbDictionary
280
     1
  3
ACAD_XREC_ROUNDTRIP
360
45B9
  0
DICTIONARY
  5
2895
102
{ACAD_REACTORS
330
B4A
102
}
100
AcDbDictionary
  0
DICTIONARY
  5
B4B
102
{ACAD_REACTORS
330
B4A
102
}
100
AcDbDictionary
  0
DICTIONARY
  5
DB6
102
{ACAD_XDICTIONARY
360
45BA
102
}
102
{ACAD_REACTORS
330
B4A
102
}
100
AcDbDictionary
  3
LAYOUT1
350
DB9
  3
MODEL
350
DB8
  0
DICTIONARY
  5
2894
102
{ACAD_REACTORS
330
B4A
102
}
100
AcDbDictionary
  0
DICTIONARY
  5
B4C
102
{ACAD_REACTORS
330
B4A
102
}
100
AcDbDictionary
  3
STANDARD
350
B4D
  0
DICTIONARY
  5
DB7
102
{ACAD_REACTORS
330
B4A
102
}
100
AcDbDictionary
  0
ACAD_PROXY_OBJECT
  5
DB4
102
{ACAD_REACTORS
330
B4A
102
}
100
AcDbProxyObject
 90
      499
 91
      517
 93
       86
310
405010041939BDC9B585B0
350
DB5
340
DB5
 94
        0
  0
DICTIONARY
  5
4596
102
{ACAD_REACTORS
330
B4A
102
}
100
AcDbDictionary
  3
CEPSNTYPE
350
45A0
  3
FINGERPRINTGUID
350
45A1
  3
HYPERLINKBASE
350
4599
  3
INSUNITS
350
459F
  3
LAYOUTDICT
350
459B
  3
LWETCUNION
350
459E
  3
PLOTSETDICT
350
459C
  3
PLOTSTYLNAMDICT
350
459D
  3
PSVPSCALE
350
45A3
  3
PUCSBASE
350
45A6
  3
PUCSORGBACK
350
45AC
  3
PUCSORGBOTTOM
350
45A8
  3
PUCSORGFRONT
350
45AB
  3
PUCSORGLEFT
350
45A9
  3
PUCSORGRIGHT
350
45AA
  3
PUCSORGTOP
350
45A7
  3
PUCSORTHOREF
350
45A4
  3
PUCSORTHOVIEW
350
45A5
  3
STYLESHEET
350
459A
  3
TSTACKALIGN
350
4597
  3
TSTACKSIZE
350
4598
  3
UCSBASE
350
45AF
  3
UCSORGBACK
350
45B5
  3
UCSORGBOTTOM
350
45B1
  3
UCSORGFRONT
350
45B4
  3
UCSORGLEFT
350
45B2
  3
UCSORGRIGHT
350
45B3
  3
UCSORGTOP
350
45B0
  3
UCSORTHOREF
350
45AD
  3
UCSORTHOVIEW
350
45AE
  3
VERSIONGUID
350
45A2
  0
DICTIONARY
  5
1503
102
{ACAD_REACTORS
330
B4A
102
}
100
AcDbDictionary
  3
DIMASSOC
350
1504
  3
PROJECTNAME
350
2936
  0
DICTIONARY
  5
3259
102
{ACAD_XDICTIONARY
360
45C2
102
}
102
{ACAD_REACTORS
330
B4A
102
}
100
AcDbDictionary
  3
ASEBLOCKHIERARCHYINDEXRECORD
350
325A
1001
DCO15
1040
1465123326.656
  0
XRECORD
  5
4595
102
{ACAD_REACTORS
330
4594
102
}
100
AcDbXrecord
102
EXTNAMES
  1
*ACTIVE
  2
*Active
102
UCS
 74
     0
 71
     1
 10
0.0
 20
0.0
 30
0.0
 10
1.0
 20
0.0
 30
0.0
 10
0.0
 20
1.0
 30
0.0
146
0.0
 79
     1
102
VIEW
281
     0
  0
XRECORD
  5
45BD
102
{ACAD_REACTORS
330
45BC
102
}
100
AcDbXrecord
102
PLOTBIT
280
     0
  0
XRECORD
  5
45BF
102
{ACAD_REACTORS
330
45BE
102
}
100
AcDbXrecord
102
PLOTBIT
280
     0
  0
XRECORD
  5
45C1
102
{ACAD_REACTORS
330
45C0
102
}
100
AcDbXrecord
102
ACADR14ROUNDTRIP
1000
DSTYLE
1002
{
1070
   276
 70
     2
1070
   277
 70
     5
1070
   279
 70
     2
1070
   289
 70
     2
1002
}
  0
XRECORD
  5
45B6
102
{ACAD_REACTORS
330
14F7
102
}
100
AcDbXrecord
340
1B
  0
XRECORD
  5
45B7
102
{ACAD_REACTORS
330
14F9
102
}
100
AcDbXrecord
340
1C
  0
XRECORD
  5
45B9
102
{ACAD_REACTORS
330
45B8
102
}
100
AcDbXrecord
102
EXTNAMES
  1
ACDBVARIABLEDICTIONARY
  2
AcDbVariableDictionary
  0
DICTIONARY
  5
45BA
100
AcDbDictionary
280
     1
  3
ACAD_XREC_ROUNDTRIP
360
45BB
  0
ACAD_PROXY_OBJECT
  5
DB9
102
{ACAD_XDICTIONARY
360
452D
102
}
102
{ACAD_REACTORS
330
DB6
102
}
100
AcDbProxyObject
 90
      499
 91
      515
 93
     1172
310
91B5C5C4254535F5345525645525C4850204C617365724A65742034562C00AAAAAA416AA54314D51053911054910B98DD1891069074C61796F757431406A800000000000000000000000000000000000000000000A1000000000000008902A6A6A10232D5E076BC5510408CB5781DAF154410232D5E076BC5510408CB5781D
310
AF15C410232D5E076BC5710408CB5781DAF15C40
330
1C
330
0
340
0
340
0
 94
        0
  0
ACAD_PROXY_OBJECT
  5
DB8
102
{ACAD_XDICTIONARY
360
452B
102
}
102
{ACAD_REACTORS
330
DB6
102
}
100
AcDbProxyObject
 90
      499
 91
      515
 93
      756
310
91B5C5C4254535F5345525645525C4850204C617365724A65742034562C01AAAAAAAAA54314D51053911054910B98DD18A69054D6F64656C901A800000000000000000000000000000000000000000000A1000000000000008902A6A6AAAA0
330
1B
330
0
340
0
340
0
 94
        0
  0
MLINESTYLE
  5
B4D
102
{ACAD_REACTORS
330
B4C
102
}
100
AcDbMlineStyle
  2
STANDARD
 70
     0
  3

 62
   256
 51
90.0
 52
90.0
 71
     2
 49
0.5
 62
   256
  6
BYLAYER
 49
-0.5
 62
   256
  6
BYLAYER
  0
ACAD_PROXY_OBJECT
  5
DB5
102
{ACAD_REACTORS
330
DB4
102
}
100
AcDbProxyObject
 90
      499
 91
      518
 93
        0
 94
        0
  0
XRECORD
  5
45A0
102
{ACAD_REACTORS
330
4596
102
}
100
AcDbXrecord
 90
        0
  0
XRECORD
  5
45A1
102
{ACAD_REACTORS
330
4596
102
}
100
AcDbXrecord
  1
{06B59665-270B-11D7-BDCA-000629EE37FA}
  0
XRECORD
  5
4599
102
{ACAD_REACTORS
330
4596
102
}
100
AcDbXrecord
  1

  0
XRECORD
  5
459F
102
{ACAD_REACTORS
330
4596
102
}
100
AcDbXrecord
 90
        0
  0
XRECORD
  5
459B
102
{ACAD_REACTORS
330
4596
102
}
100
AcDbXrecord
340
DB6
  0
XRECORD
  5
459E
102
{ACAD_REACTORS
330
4596
102
}
100
AcDbXrecord
 90
    14877
  0
XRECORD
  5
459C
102
{ACAD_REACTORS
330
4596
102
}
100
AcDbXrecord
340
DB7
  0
XRECORD
  5
459D
102
{ACAD_REACTORS
330
4596
102
}
100
AcDbXrecord
340
DB4
  0
XRECORD
  5
45A3
102
{ACAD_REACTORS
330
4596
102
}
100
AcDbXrecord
 40
0.0
  0
XRECORD
  5
45A6
102
{ACAD_REACTORS
330
4596
102
}
100
AcDbXrecord
340
0
  0
XRECORD
  5
45AC
102
{ACAD_REACTORS
330
4596
102
}
100
AcDbXrecord
 10
0.0
 20
0.0
 30
0.0
  0
XRECORD
  5
45A8
102
{ACAD_REACTORS
330
4596
102
}
100
AcDbXrecord
 10
0.0
 20
0.0
 30
0.0
  0
XRECORD
  5
45AB
102
{ACAD_REACTORS
330
4596
102
}
100
AcDbXrecord
 10
0.0
 20
0.0
 30
0.0
  0
XRECORD
  5
45A9
102
{ACAD_REACTORS
330
4596
102
}
100
AcDbXrecord
 10
0.0
 20
0.0
 30
0.0
  0
XRECORD
  5
45AA
102
{ACAD_REACTORS
330
4596
102
}
100
AcDbXrecord
 10
0.0
 20
0.0
 30
0.0
  0
XRECORD
  5
45A7
102
{ACAD_REACTORS
330
4596
102
}
100
AcDbXrecord
 10
0.0
 20
0.0
 30
0.0
  0
XRECORD
  5
45A4
102
{ACAD_REACTORS
330
4596
102
}
100
AcDbXrecord
340
0
  0
XRECORD
  5
45A5
102
{ACAD_REACTORS
330
4596
102
}
100
AcDbXrecord
 70
     0
  0
XRECORD
  5
459A
102
{ACAD_REACTORS
330
4596
102
}
100
AcDbXrecord
  1

  0
XRECORD
  5
4597
102
{ACAD_REACTORS
330
4596
102
}
100
AcDbXrecord
 90
        1
  0
XRECORD
  5
4598
102
{ACAD_REACTORS
330
4596
102
}
100
AcDbXrecord
 90
       70
  0
XRECORD
  5
45AF
102
{ACAD_REACTORS
330
4596
102
}
100
AcDbXrecord
340
0
  0
XRECORD
  5
45B5
102
{ACAD_REACTORS
330
4596
102
}
100
AcDbXrecord
 10
0.0
 20
0.0
 30
0.0
  0
XRECORD
  5
45B1
102
{ACAD_REACTORS
330
4596
102
}
100
AcDbXrecord
 10
0.0
 20
0.0
 30
0.0
  0
XRECORD
  5
45B4
102
{ACAD_REACTORS
330
4596
102
}
100
AcDbXrecord
 10
0.0
 20
0.0
 30
0.0
  0
XRECORD
  5
45B2
102
{ACAD_REACTORS
330
4596
102
}
100
AcDbXrecord
 10
0.0
 20
0.0
 30
0.0
  0
XRECORD
  5
45B3
102
{ACAD_REACTORS
330
4596
102
}
100
AcDbXrecord
 10
0.0
 20
0.0
 30
0.0
  0
XRECORD
  5
45B0
102
{ACAD_REACTORS
330
4596
102
}
100
AcDbXrecord
 10
0.0
 20
0.0
 30
0.0
  0
XRECORD
  5
45AD
102
{ACAD_REACTORS
330
4596
102
}
100
AcDbXrecord
340
0
  0
XRECORD
  5
45AE
102
{ACAD_REACTORS
330
4596
102
}
100
AcDbXrecord
 70
     1
  0
XRECORD
  5
45A2
102
{ACAD_REACTORS
330
4596
102
}
100
AcDbXrecord
  1
{8828695B-0598-4157-A037-D723786FF971}
  0
DICTIONARYVAR
  5
1504
102
{ACAD_REACTORS
330
1503
102
}
100
DictionaryVariables
280
     0
  1
1
  0
DICTIONARYVAR
  5
2936
102
{ACAD_REACTORS
330
1503
102
}
100
DictionaryVariables
280
     0
  1

  0
DICTIONARY
  5
45C2
100
AcDbDictionary
280
     1
  3
ACAD_XREC_ROUNDTRIP
360
45C3
  0
XRECORD
  5
325A
102
{ACAD_REACTORS
330
3259
102
}
100
AcDbXrecord
  0
XRECORD
  5
45BB
102
{ACAD_REACTORS
330
45BA
102
}
100
AcDbXrecord
102
EXTNAMES
  1
LAYOUT1
  2
Layout1
  1
MODEL
  2
Model
  0
DICTIONARY
  5
452D
100
AcDbDictionary
280
     1
  3
ACAD_XREC_ROUNDTRIP
360
452E
  0
DICTIONARY
  5
452B
100
AcDbDictionary
280
     1
  3
ACAD_XREC_ROUNDTRIP
360
452C
  0
XRECORD
  5
45C3
102
{ACAD_REACTORS
330
45C2
102
}
100
AcDbXrecord
102
EXTNAMES
  1
ASEBLOCKHIERARCHYINDEXRECORD
  2
ASEBlockHierarchyIndexRecord
  0
XRECORD
  5
452E
102
{ACAD_REACTORS
330
452D
102
}
100
AcDbXrecord
102
SHADEPLOT
 70
     0
102
SHADEPLOTRESLEVEL
 70
     2
102
SHADEPLOTCUSTOMDPI
 70
   300
  0
XRECORD
  5
452C
102
{ACAD_REACTORS
330
452B
102
}
100
AcDbXrecord
102
SHADEPLOT
 70
     0
102
SHADEPLOTRESLEVEL
 70
     2
102
SHADEPLOTCUSTOMDPI
 70
   300
  0
ENDSEC
  0
EOF
