  0
SECTION
  2
HEADER
  9
$ACADVER
  1
AC1015
  9
$ACADMAINTVER
 70
     6
  9
$DWGCODEPAGE
  3
ANSI_1252
  9
$INSBASE
 10
0.0
 20
0.0
 30
0.0
  9
$EXTMIN
 10
-0.8745000000000011
 20
-4.009685460388974
 30
0.0
  9
$EXTMAX
 10
2.809722584309348
 20
1.017579998980473
 30
3.3125
  9
$LIMMIN
 10
0.0
 20
0.0
  9
$LIMMAX
 10
12.0
 20
9.0
  9
$ORTHOMODE
 70
     0
  9
$REGENMODE
 70
     1
  9
$FILLMODE
 70
     1
  9
$QTEXTMODE
 70
     0
  9
$MIRRTEXT
 70
     1
  9
$LTSCALE
 40
1.0
  9
$ATTMODE
 70
     1
  9
$TEXTSIZE
 40
0.12
  9
$TRACEWID
 40
0.05
  9
$TEXTSTYLE
  7
STANDARD
  9
$CLAYER
  8
0
  9
$CELTYPE
  6
BYLAYER
  9
$CECOLOR
 62
   256
  9
$CELTSCALE
 40
1.0
  9
$DISPSILH
 70
     0
  9
$DIMSCALE
 40
1.0
  9
$DIMASZ
 40
0.18
  9
$DIMEXO
 40
0.0625
  9
$DIMDLI
 40
0.375
  9
$DIMRND
 40
0.0
  9
$DIMDLE
 40
0.0
  9
$DIMEXE
 40
0.18
  9
$DIMTP
 40
0.0
  9
$DIMTM
 40
0.0
  9
$DIMTXT
 40
0.18
  9
$DIMCEN
 40
0.09
  9
$DIMTSZ
 40
0.0
  9
$DIMTOL
 70
     0
  9
$DIMLIM
 70
     0
  9
$DIMTIH
 70
     0
  9
$DIMTOH
 70
     1
  9
$DIMSE1
 70
     0
  9
$DIMSE2
 70
     0
  9
$DIMTAD
 70
     0
  9
$DIMZIN
 70
     4
  9
$DIMBLK
  1

  9
$DIMASO
 70
     1
  9
$DIMSHO
 70
     1
  9
$DIMPOST
  1

  9
$DIMAPOST
  1

  9
$DIMALT
 70
     1
  9
$DIMALTD
 70
     1
  9
$DIMALTF
 40
25.4
  9
$DIMLFAC
 40
1.0
  9
$DIMTOFL
 70
     0
  9
$DIMTVP
 40
0.0
  9
$DIMTIX
 70
     0
  9
$DIMSOXD
 70
     0
  9
$DIMSAH
 70
     0
  9
$DIMBLK1
  1

  9
$DIMBLK2
  1

  9
$DIMSTYLE
  2
ABECAD_3D
  9
$DIMCLRD
 70
     0
  9
$DIMCLRE
 70
     0
  9
$DIMCLRT
 70
     0
  9
$DIMTFAC
 40
1.5
  9
$DIMGAP
 40
0.09
  9
$DIMJUST
 70
     0
  9
$DIMSD1
 70
     0
  9
$DIMSD2
 70
     0
  9
$DIMTOLJ
 70
     1
  9
$DIMTZIN
 70
     4
  9
$DIMALTZ
 70
     4
  9
$DIMALTTZ
 70
     4
  9
$DIMUPT
 70
     0
  9
$DIMDEC
 70
     6
  9
$DIMTDEC
 70
     6
  9
$DIMALTU
 70
     2
  9
$DIMALTTD
 70
     1
  9
$DIMTXSTY
  7
STANDARD
  9
$DIMAUNIT
 70
     0
  9
$DIMADEC
 70
     0
  9
$DIMALTRND
 40
0.0
  9
$DIMAZIN
 70
     0
  9
$DIMDSEP
 70
    46
  9
$DIMATFIT
 70
     3
  9
$DIMFRAC
 70
     2
  9
$DIMLDRBLK
  1

  9
$DIMLUNIT
 70
     5
  9
$DIMLWD
 70
    -2
  9
$DIMLWE
 70
    -2
  9
$DIMTMOVE
 70
     0
  9
$LUNITS
 70
     2
  9
$LUPREC
 70
     4
  9
$SKETCHINC
 40
0.1
  9
$FILLETRAD
 40
0.0
  9
$AUNITS
 70
     0
  9
$AUPREC
 70
     0
  9
$MENU
  1
ACAD
  9
$ELEVATION
 40
0.0
  9
$PELEVATION
 40
0.0
  9
$THICKNESS
 40
0.0
  9
$LIMCHECK
 70
     0
  9
$CHAMFERA
 40
0.0
  9
$CHAMFERB
 40
0.0
  9
$CHAMFERC
 40
0.0
  9
$CHAMFERD
 40
0.0
  9
$SKPOLY
 70
     0
  9
$TDCREATE
 40
2451737.695923495
  9
$TDUCREATE
 40
2451737.945923495
  9
$TDUPDATE
 40
2453682.386174039
  9
$TDUUPDATE
 40
2453682.636174039
  9
$TDINDWG
 40
0.0073262153
  9
$TDUSRTIMER
 40
0.0073211227
  9
$USRTIMER
 70
     1
  9
$ANGBASE
 50
0.0
  9
$ANGDIR
 70
     0
  9
$PDMODE
 70
     3
  9
$PDSIZE
 40
0.09
  9
$PLINEWID
 40
0.0
  9
$SPLFRAME
 70
     1
  9
$SPLINETYPE
 70
     6
  9
$SPLINESEGS
 70
     8
  9
$HANDSEED
  5
45ADD
  9
$SURFTAB1
 70
     6
  9
$SURFTAB2
 70
     6
  9
$SURFTYPE
 70
     6
  9
$SURFU
 70
     6
  9
$SURFV
 70
     6
  9
$UCSBASE
  2

  9
$UCSNAME
  2

  9
$UCSORG
 10
0.0
 20
0.0
 30
0.0
  9
$UCSXDIR
 10
1.0
 20
0.0
 30
0.0
  9
$UCSYDIR
 10
0.0
 20
1.0
 30
0.0
  9
$UCSORTHOREF
  2

  9
$UCSORTHOVIEW
 70
     1
  9
$UCSORGTOP
 10
0.0
 20
0.0
 30
0.0
  9
$UCSORGBOTTOM
 10
0.0
 20
0.0
 30
0.0
  9
$UCSORGLEFT
 10
0.0
 20
0.0
 30
0.0
  9
$UCSORGRIGHT
 10
0.0
 20
0.0
 30
0.0
  9
$UCSORGFRONT
 10
0.0
 20
0.0
 30
0.0
  9
$UCSORGBACK
 10
0.0
 20
0.0
 30
0.0
  9
$PUCSBASE
  2

  9
$PUCSNAME
  2

  9
$PUCSORG
 10
0.0
 20
0.0
 30
0.0
  9
$PUCSXDIR
 10
1.0
 20
0.0
 30
0.0
  9
$PUCSYDIR
 10
0.0
 20
1.0
 30
0.0
  9
$PUCSORTHOREF
  2

  9
$PUCSORTHOVIEW
 70
     0
  9
$PUCSORGTOP
 10
0.0
 20
0.0
 30
0.0
  9
$PUCSORGBOTTOM
 10
0.0
 20
0.0
 30
0.0
  9
$PUCSORGLEFT
 10
0.0
 20
0.0
 30
0.0
  9
$PUCSORGRIGHT
 10
0.0
 20
0.0
 30
0.0
  9
$PUCSORGFRONT
 10
0.0
 20
0.0
 30
0.0
  9
$PUCSORGBACK
 10
0.0
 20
0.0
 30
0.0
  9
$USERI1
 70
     0
  9
$USERI2
 70
     0
  9
$USERI3
 70
     0
  9
$USERI4
 70
     0
  9
$USERI5
 70
     0
  9
$USERR1
 40
0.0
  9
$USERR2
 40
0.0
  9
$USERR3
 40
0.0
  9
$USERR4
 40
0.0
  9
$USERR5
 40
0.0
  9
$WORLDVIEW
 70
     1
  9
$SHADEDGE
 70
     3
  9
$SHADEDIF
 70
    70
  9
$TILEMODE
 70
     1
  9
$MAXACTVP
 70
    16
  9
$PINSBASE
 10
0.0
 20
0.0
 30
0.0
  9
$PLIMCHECK
 70
     0
  9
$PEXTMIN
 10
1.000000000000000E+20
 20
1.000000000000000E+20
 30
1.000000000000000E+20
  9
$PEXTMAX
 10
-1.000000000000000E+20
 20
-1.000000000000000E+20
 30
-1.000000000000000E+20
  9
$PLIMMIN
 10
0.0
 20
0.0
  9
$PLIMMAX
 10
12.0
 20
9.0
  9
$UNITMODE
 70
     0
  9
$VISRETAIN
 70
     0
  9
$PLINEGEN
 70
     0
  9
$PSLTSCALE
 70
     1
  9
$TREEDEPTH
 70
  3020
  9
$CMLSTYLE
  2
STANDARD
  9
$CMLJUST
 70
     0
  9
$CMLSCALE
 40
1.0
  9
$PROXYGRAPHICS
 70
     1
  9
$MEASUREMENT
 70
     0
  9
$CELWEIGHT
370
    -1
  9
$ENDCAPS
280
     0
  9
$JOINSTYLE
280
     0
  9
$LWDISPLAY
290
     0
  9
$INSUNITS
 70
     0
  9
$HYPERLINKBASE
  1

  9
$STYLESHEET
  1

  9
$XEDIT
290
     1
  9
$CEPSNTYPE
380
     0
  9
$PSTYLEMODE
290
     1
  9
$FINGERPRINTGUID
  2
{6E0CF4B8-225E-11D4-A150-00A0CC3303EC}
  9
$VERSIONGUID
  2
{984CEE46-A4C4-4C07-ACE6-EF2CF397F5EA}
  9
$EXTNAMES
290
     1
  9
$PSVPSCALE
 40
0.0
  9
$OLESTARTUP
290
     0
  0
ENDSEC
  0
SECTION
  2
CLASSES
  0
CLASS
  1
DICTIONARYVAR
  2
AcDbDictionaryVar
  3
AutoCAD 2000
 90
        0
280
     0
281
     0
  0
CLASS
  1
ACDBDICTIONARYWDFLT
  2
AcDbDictionaryWithDefault
  3
AutoCAD 2000
 90
        0
280
     0
281
     0
  0
CLASS
  1
ACDBPLACEHOLDER
  2
AcDbPlaceHolder
  3
AutoCAD 2000
 90
        0
280
     0
281
     0
  0
CLASS
  1
LAYOUT
  2
AcDbLayout
  3
AutoCAD 2000
 90
        0
280
     0
281
     0
  0
CLASS
  1
LONG_TRANSACTION
  2
AcDbLongTransaction
  3
AutoCAD 2000
 90
    32768
280
     0
281
     0
  0
CLASS
  1
LWPOLYLINE
  2
AcDbPolyline
  3
AutoCAD 2000
 90
    32768
280
     0
281
     1
  0
CLASS
  1
HATCH
  2
AcDbHatch
  3
AutoCAD 2000
 90
    32768
280
     0
281
     1
  0
CLASS
  1
XRECORD
  2
AcDbXrecord
  3
AutoCAD 2000
 90
    32768
280
     0
281
     0
  0
CLASS
  1
LONG_TRANSACTION
  2
AcDbLongTransaction
  3
AutoCAD 2000
 90
    32768
280
     0
281
     0
  0
CLASS
  1
LWPOLYLINE
  2
AcDbPolyline
  3
AutoCAD 2000
 90
    32768
280
     0
281
     1
  0
CLASS
  1
HATCH
  2
AcDbHatch
  3
AutoCAD 2000
 90
    32768
280
     0
281
     1
  0
CLASS
  1
XRECORD
  2
AcDbXrecord
  3
AutoCAD 2000
 90
    32768
280
     0
281
     0
  0
CLASS
  1
LONG_TRANSACTION
  2
AcDbLongTransaction
  3
AutoCAD 2000
 90
    32768
280
     0
281
     0
  0
CLASS
  1
LWPOLYLINE
  2
AcDbPolyline
  3
AutoCAD 2000
 90
    32768
280
     0
281
     1
  0
CLASS
  1
HATCH
  2
AcDbHatch
  3
AutoCAD 2000
 90
    32768
280
     0
281
     1
  0
CLASS
  1
XRECORD
  2
AcDbXrecord
  3
AutoCAD 2000
 90
    32768
280
     0
281
     0
  0
CLASS
  1
LONG_TRANSACTION
  2
AcDbLongTransaction
  3
AutoCAD 2000
 90
    32768
280
     0
281
     0
  0
CLASS
  1
LWPOLYLINE
  2
AcDbPolyline
  3
AutoCAD 2000
 90
    32768
280
     0
281
     1
  0
CLASS
  1
HATCH
  2
AcDbHatch
  3
AutoCAD 2000
 90
    32768
280
     0
281
     1
  0
CLASS
  1
XRECORD
  2
AcDbXrecord
  3
AutoCAD 2000
 90
    32768
280
     0
281
     0
  0
ENDSEC
  0
SECTION
  2
TABLES
  0
TABLE
  2
VPORT
  5
458C7
330
0
100
AcDbSymbolTable
 70
     2
  0
VPORT
  5
45ADC
330
458C7
100
AcDbSymbolTableRecord
100
AcDbViewportTableRecord
  2
*Active
 70
     0
 10
0.0
 20
0.0
 11
1.0
 21
1.0
 12
0.9678013704517507
 22
-1.495927393593163
 13
0.0
 23
0.0
 14
0.25
 24
0.25
 15
0.25
 25
0.25
 16
0.0
 26
0.0
 36
1.0
 17
0.0
 27
0.0
 37
0.0
 40
5.104883371772913
 41
2.994910941475827
 42
50.0
 43
0.0
 44
0.0
 50
0.0
 51
0.0
 71
     0
 72
 20000
 73
     1
 74
     1
 75
     0
 76
     0
 77
     0
 78
     0
281
     0
 65
     1
110
0.0
120
0.0
130
0.0
111
1.0
121
0.0
131
0.0
112
0.0
122
1.0
132
0.0
 79
     1
146
0.0
  0
ENDTAB
  0
TABLE
  2
LTYPE
  5
458C4
330
0
100
AcDbSymbolTable
 70
     1
  0
LTYPE
  5
458D0
330
458C4
100
AcDbSymbolTableRecord
100
AcDbLinetypeTableRecord
  2
BYBLOCK
 70
     0
  3

 72
    65
 73
     0
 40
0.0
  0
LTYPE
  5
458D1
330
458C4
100
AcDbSymbolTableRecord
100
AcDbLinetypeTableRecord
  2
BYLAYER
 70
     0
  3

 72
    65
 73
     0
 40
0.0
  0
LTYPE
  5
458D2
330
458C4
100
AcDbSymbolTableRecord
100
AcDbLinetypeTableRecord
  2
CONTINUOUS
 70
     0
  3
Solid line
 72
    65
 73
     0
 40
0.0
  0
ENDTAB
  0
TABLE
  2
LAYER
  5
458C1
330
0
100
AcDbSymbolTable
 70
     7
  0
LAYER
  5
458CD
330
458C1
100
AcDbSymbolTableRecord
100
AcDbLayerTableRecord
  2
0
 70
     0
 62
     7
  6
CONTINUOUS
370
    -3
390
458FA
  0
LAYER
  5
458EA
330
458C1
100
AcDbSymbolTableRecord
100
AcDbLayerTableRecord
  2
DIMS-MTG-HOLES
 70
     0
 62
     1
  6
CONTINUOUS
370
    -3
390
458FA
  0
LAYER
  5
458EB
330
458C1
100
AcDbSymbolTableRecord
100
AcDbLayerTableRecord
  2
ATTRIBUTES
 70
     0
 62
     7
  6
CONTINUOUS
370
    -3
390
458FA
  0
LAYER
  5
4593B
330
458C1
100
AcDbSymbolTableRecord
100
AcDbLayerTableRecord
  2
AREA1
 70
     0
 62
    -7
  6
CONTINUOUS
290
     0
370
    -3
390
458FA
  0
LAYER
  5
45940
330
458C1
100
AcDbSymbolTableRecord
100
AcDbLayerTableRecord
  2
Defpoints
 70
     0
 62
    -7
  6
CONTINUOUS
290
     0
370
    -3
390
458FA
  0
LAYER
  5
45954
330
458C1
100
AcDbSymbolTableRecord
100
AcDbLayerTableRecord
  2
SCALE
 70
     0
 62
    -7
  6
CONTINUOUS
370
    -3
390
458FA
  0
LAYER
  5
4597B
330
458C1
100
AcDbSymbolTableRecord
100
AcDbLayerTableRecord
  2
SNAP_POINTS
 70
     0
 62
    -1
  6
CONTINUOUS
370
    -3
390
458FA
  0
ENDTAB
  0
TABLE
  2
STYLE
  5
458C2
330
0
100
AcDbSymbolTable
 70
     1
  0
STYLE
  5
458CE
330
458C2
100
AcDbSymbolTableRecord
100
AcDbTextStyleTableRecord
  2
STANDARD
 70
     0
 40
0.0
 41
1.0
 50
0.0
 71
     0
 42
0.12
  3
txt
  4

  0
ENDTAB
  0
TABLE
  2
VIEW
  5
458C5
330
0
100
AcDbSymbolTable
 70
     0
  0
ENDTAB
  0
TABLE
  2
UCS
  5
458C6
330
0
100
AcDbSymbolTable
 70
     0
  0
ENDTAB
  0
TABLE
  2
APPID
  5
458C8
330
0
100
AcDbSymbolTable
 70
     1
  0
APPID
  5
458CF
330
458C8
100
AcDbSymbolTableRecord
100
AcDbRegAppTableRecord
  2
ACAD
 70
     0
  0
ENDTAB
  0
TABLE
  2
DIMSTYLE
  5
458C9
330
0
100
AcDbSymbolTable
 70
     2
100
AcDbDimStyleTable
 71
     0
  0
DIMSTYLE
105
458F1
330
458C9
100
AcDbSymbolTableRecord
100
AcDbDimStyleTableRecord
  2
ABECAD
 70
     0
 43
0.375
 73
     0
 78
     4
146
1.5
170
     1
171
     1
271
     6
272
     6
274
     1
276
     2
277
     5
284
     4
285
     4
286
     4
340
458CE
  0
DIMSTYLE
105
458F6
102
{ACAD_REACTORS
330
45A19
330
45A27
102
}
330
458C9
100
AcDbSymbolTableRecord
100
AcDbDimStyleTableRecord
  2
ABECAD_3D
 70
     0
 43
0.375
 73
     0
 78
     4
146
1.5
170
     1
171
     1
271
     6
272
     6
274
     1
276
     2
277
     5
284
     4
285
     4
286
     4
340
458CE
  0
ENDTAB
  0
TABLE
  2
BLOCK_RECORD
  5
458C0
330
0
100
AcDbSymbolTable
 70
     3
  0
BLOCK_RECORD
  5
458D6
102
{ACAD_XDICTIONARY
360
4592C
102
}
330
458C0
100
AcDbSymbolTableRecord
100
AcDbBlockTableRecord
  2
*MODEL_SPACE
340
458FD
  0
BLOCK_RECORD
  5
458D3
102
{ACAD_XDICTIONARY
360
4592A
102
}
330
458C0
100
AcDbSymbolTableRecord
100
AcDbBlockTableRecord
  2
*PAPER_SPACE
340
458FE
  0
BLOCK_RECORD
  5
45941
330
458C0
100
AcDbSymbolTableRecord
100
AcDbBlockTableRecord
  2
scale
340
0
102
{BLKREFS
331
45975
102
}
1001
ACAD
1000
DesignCenter Data
1002
{
1070
     1
1070
     1
1002
}
  0
BLOCK_RECORD
  5
45A1A
330
458C0
100
AcDbSymbolTableRecord
100
AcDbBlockTableRecord
  2
*D1
340
0
  0
BLOCK_RECORD
  5
45A28
330
458C0
100
AcDbSymbolTableRecord
100
AcDbBlockTableRecord
  2
*D2
340
0
  0
ENDTAB
  0
ENDSEC
  0
SECTION
  2
BLOCKS
  0
BLOCK
  5
458DF
330
458D6
100
AcDbEntity
  8
0
100
AcDbBlockBegin
  2
*MODEL_SPACE
 70
     0
 10
0.0
 20
0.0
 30
0.0
  3
*MODEL_SPACE
  1

  0
ENDBLK
  5
458E0
330
458D6
100
AcDbEntity
  8
0
100
AcDbBlockEnd
  0
BLOCK
  5
458DD
330
458D3
100
AcDbEntity
 67
     1
  8
0
100
AcDbBlockBegin
  2
*PAPER_SPACE
 70
     0
 10
0.0
 20
0.0
 30
0.0
  3
*PAPER_SPACE
  1

  0
ENDBLK
  5
458DE
330
458D3
100
AcDbEntity
 67
     1
  8
0
100
AcDbBlockEnd
  0
BLOCK
  5
4594D
330
45941
100
AcDbEntity
  8
0
100
AcDbBlockBegin
  2
scale
 70
     0
 10
0.0
 20
0.0
 30
0.0
  3
scale
  1

  0
LINE
  5
4596A
330
45941
100
AcDbEntity
  8
SCALE
100
AcDbLine
 10
0.057998664226762
 20
-0.380078318704216
 30
0.0
 11
1.057998664226762
 21
-0.380078318704216
 31
0.0
  0
LWPOLYLINE
  5
4596B
330
45941
100
AcDbEntity
  8
SCALE
100
AcDbPolyline
 90
        4
 70
     1
 43
0.0
 10
0.0
 20
0.0
 10
1.135628819541972
 20
0.0
 10
1.135628819541972
 20
-0.8416095667780147
 10
0.0
 20
-0.8416095667780147
  0
LINE
  5
4596C
330
45941
100
AcDbEntity
  8
SCALE
100
AcDbLine
 10
0.057998664226762
 20
-0.4800783187042157
 30
0.0
 11
0.057998664226762
 21
-0.2800783187042146
 31
0.0
  0
TEXT
  5
4596D
330
45941
100
AcDbEntity
  8
SCALE
100
AcDbText
 10
0.1174208193753392
 20
-0.6343386734301007
 30
0.0
 40
0.0625
  1
[10mm]
100
AcDbText
  0
LINE
  5
4596E
330
45941
100
AcDbEntity
  8
SCALE
100
AcDbLine
 10
0.057998664226762
 20
-0.680078318704215
 30
0.0
 11
0.451698664226762
 21
-0.680078318704215
 31
0.0
  0
LINE
  5
4596F
330
45941
100
AcDbEntity
  8
SCALE
100
AcDbLine
 10
0.057998664226762
 20
-0.7800783187042147
 30
0.0
 11
0.057998664226762
 21
-0.5800783187042154
 31
0.0
  0
LINE
  5
45970
330
45941
100
AcDbEntity
  8
SCALE
100
AcDbLine
 10
0.451698664226762
 20
-0.7800783187042147
 30
0.0
 11
0.451698664226762
 21
-0.5800783187042154
 31
0.0
  0
TEXT
  5
45971
330
45941
100
AcDbEntity
  8
SCALE
100
AcDbText
 10
0.0595289294732879
 20
-0.1052011974306026
 30
0.0
 40
0.0625
  1
SCALE:
100
AcDbText
  0
TEXT
  5
45972
330
45941
100
AcDbEntity
  8
SCALE
100
AcDbText
 10
0.4212816527106718
 20
-0.3110296233310148
 30
0.0
 40
0.0625
  1
1 Inch
100
AcDbText
  0
LINE
  5
45973
330
45941
100
AcDbEntity
  8
SCALE
100
AcDbLine
 10
1.057998664226762
 20
-0.380078318704216
 30
0.0
 11
1.057998664226762
 21
-0.4800783187042157
 31
0.0
  0
LINE
  5
45974
330
45941
100
AcDbEntity
  8
SCALE
100
AcDbLine
 10
1.057998664226762
 20
-0.4800783187042157
 30
0.0
 11
1.057998664226762
 21
-0.2800783187042146
 31
0.0
  0
ENDBLK
  5
4594E
330
45941
100
AcDbEntity
  8
0
100
AcDbBlockEnd
  0
BLOCK
  5
45A25
330
45A1A
100
AcDbEntity
  8
0
100
AcDbBlockBegin
  2
*D1
 70
     1
 10
0.0
 20
0.0
 30
0.0
  3
*D1
  1

  0
LINE
  5
45A1B
330
45A1A
100
AcDbEntity
  8
AREA1
 62
     0
370
    -2
100
AcDbLine
 10
1.813
 20
-3.068500999999999
 30
0.0
 11
2.809722584309347
 21
-3.068500999999999
 31
0.0
  0
LINE
  5
45A1C
330
45A1A
100
AcDbEntity
  8
AREA1
 62
     0
370
    -2
100
AcDbLine
 10
0.9544150000000009
 20
0.1502489999999987
 30
0.0
 11
2.809722584309348
 21
0.1502489999999982
 31
0.0
  0
LINE
  5
45A1D
330
45A1A
100
AcDbEntity
  8
AREA1
 62
     0
370
    -2
100
AcDbLine
 10
2.629722584309348
 20
-2.888500999999999
 30
0.0
 11
2.629722584309348
 21
-2.539126
 31
0.0
  0
LINE
  5
45A1E
330
45A1A
100
AcDbEntity
  8
AREA1
 62
     0
370
    -2
100
AcDbLine
 10
2.629722584309348
 20
-0.0297510000000018
 30
0.0
 11
2.629722584309348
 21
-0.3791260000000002
 31
0.0
  0
SOLID
  5
45A1F
330
45A1A
100
AcDbEntity
  8
AREA1
 62
     0
100
AcDbTrace
 10
2.599722584309348
 20
-2.888500999999999
 30
0.0
 11
2.659722584309347
 21
-2.888500999999999
 31
0.0
 12
2.629722584309347
 22
-3.068500999999999
 32
0.0
 13
2.629722584309347
 23
-3.068500999999999
 33
0.0
  0
SOLID
  5
45A20
330
45A1A
100
AcDbEntity
  8
AREA1
 62
     0
100
AcDbTrace
 10
2.599722584309348
 20
-0.0297510000000018
 30
0.0
 11
2.659722584309348
 21
-0.0297510000000018
 31
0.0
 12
2.629722584309348
 22
0.1502489999999983
 32
0.0
 13
2.629722584309348
 23
0.1502489999999983
 33
0.0
  0
MTEXT
  5
45A21
330
45A1A
100
AcDbEntity
  8
AREA1
 62
     0
100
AcDbMText
 10
2.629722584309348
 20
-1.459126
 30
0.0
 40
0.18
 41
0.0
 71
     5
 72
     1
  1
\A1;3 7/32 [81.8]
 11
0.0000000000000001
 21
1.0
 31
0.0
 73
     1
 44
1.0
1001
ACAD
1000
MTEXTBEGIN
1070
    73
1070
     1
1070
    44
1040
1.0
1070
    74
1070
     0
1000
MTEXTEND
1000
MTEXTBEGIN
1070
    73
1070
     1
1070
    44
1040
1.0
1070
    74
1070
     0
1000
MTEXTEND
1000
MTEXTBEGIN
1070
    73
1070
     1
1070
    44
1040
1.0
1070
    74
1070
     0
1000
MTEXTEND
  0
POINT
  5
45A22
330
45A1A
100
AcDbEntity
  8
Defpoints
 62
     0
100
AcDbPoint
 10
1.7505
 20
-3.068500999999999
 30
0.0
  0
POINT
  5
45A23
330
45A1A
100
AcDbEntity
  8
Defpoints
 62
     0
100
AcDbPoint
 10
0.8919150000000009
 20
0.1502489999999987
 30
0.0
  0
POINT
  5
45A24
330
45A1A
100
AcDbEntity
  8
Defpoints
 62
     0
100
AcDbPoint
 10
2.629722584309348
 20
0.1502489999999983
 30
0.0
  0
ENDBLK
  5
45A26
330
45A1A
100
AcDbEntity
  8
0
100
AcDbBlockEnd
  0
BLOCK
  5
45A33
330
45A28
100
AcDbEntity
  8
0
100
AcDbBlockBegin
  2
*D2
 70
     1
 10
0.0
 20
0.0
 30
0.0
  3
*D2
  1

  0
LINE
  5
45A29
330
45A28
100
AcDbEntity
  8
AREA1
 62
     0
370
    -2
100
AcDbLine
 10
-0.8745000000000011
 20
-0.0997510000000013
 30
0.0
 11
-0.8745000000000009
 21
1.017579998980473
 31
0.0
  0
LINE
  5
45A2A
330
45A28
100
AcDbEntity
  8
AREA1
 62
     0
370
    -2
100
AcDbLine
 10
1.7505
 20
-0.0997510000000013
 30
0.0
 11
1.7505
 21
1.017579998980473
 31
0.0
  0
LINE
  5
45A2B
330
45A28
100
AcDbEntity
  8
AREA1
 62
     0
370
    -2
100
AcDbLine
 10
-0.694500000000001
 20
0.8375799989804733
 30
0.0
 11
-0.5820000000000003
 21
0.8375799989804733
 31
0.0
  0
LINE
  5
45A2C
330
45A28
100
AcDbEntity
  8
AREA1
 62
     0
370
    -2
100
AcDbLine
 10
1.5705
 20
0.8375799989804733
 30
0.0
 11
1.457999999999999
 21
0.8375799989804733
 31
0.0
  0
SOLID
  5
45A2D
330
45A28
100
AcDbEntity
  8
AREA1
 62
     0
100
AcDbTrace
 10
-0.694500000000001
 20
0.8675799989804733
 30
0.0
 11
-0.694500000000001
 21
0.8075799989804732
 31
0.0
 12
-0.8745000000000009
 22
0.8375799989804733
 32
0.0
 13
-0.8745000000000009
 23
0.8375799989804733
 33
0.0
  0
SOLID
  5
45A2E
330
45A28
100
AcDbEntity
  8
AREA1
 62
     0
100
AcDbTrace
 10
1.5705
 20
0.8675799989804733
 30
0.0
 11
1.5705
 21
0.8075799989804732
 31
0.0
 12
1.7505
 22
0.8375799989804733
 32
0.0
 13
1.7505
 23
0.8375799989804733
 33
0.0
  0
MTEXT
  5
45A2F
330
45A28
100
AcDbEntity
  8
AREA1
 62
     0
100
AcDbMText
 10
0.4379999999999999
 20
0.8375799989804733
 30
0.0
 40
0.18
 41
0.0
 71
     5
 72
     1
  1
\A1;2 5/8 [66.7]
 73
     1
 44
1.0
1001
ACAD
1000
MTEXTBEGIN
1070
    73
1070
     1
1070
    44
1040
1.0
1070
    74
1070
     0
1000
MTEXTEND
1000
MTEXTBEGIN
1070
    73
1070
     1
1070
    44
1040
1.0
1070
    74
1070
     0
1000
MTEXTEND
1000
MTEXTBEGIN
1070
    73
1070
     1
1070
    44
1040
1.0
1070
    74
1070
     0
1000
MTEXTEND
  0
POINT
  5
45A30
330
45A28
100
AcDbEntity
  8
Defpoints
 62
     0
100
AcDbPoint
 10
-0.8745000000000011
 20
-0.1622510000000012
 30
0.0
  0
POINT
  5
45A31
330
45A28
100
AcDbEntity
  8
Defpoints
 62
     0
100
AcDbPoint
 10
1.7505
 20
-0.1622510000000012
 30
0.0
  0
POINT
  5
45A32
330
45A28
100
AcDbEntity
  8
Defpoints
 62
     0
100
AcDbPoint
 10
1.7505
 20
0.8375799989804733
 30
0.0
  0
ENDBLK
  5
45A34
330
45A28
100
AcDbEntity
  8
0
100
AcDbBlockEnd
  0
ENDSEC
  0
SECTION
  2
ENTITIES
  0
ATTDEF
  5
1
330
458D6
100
AcDbEntity
  8
ATTRIBUTES
100
AcDbText
 10
-0.7410432658428277
 20
-1.065436156137421
 30
0.0
 40
0.1125
  1
ALLEN-BRADLEY
100
AcDbAttributeDefinition
  3
MANUFACTURER NAME?
  2
AC_VND_LABEL
 70
     1
  0
ATTDEF
  5
2
330
458D6
100
AcDbEntity
  8
ATTRIBUTES
100
AcDbText
 10
-0.7410432658428277
 20
-1.299811156137421
 30
0.0
 40
0.1125
  1
592-J/K
100
AcDbAttributeDefinition
  3
CATALOG NUMBER?
  2
AC_PART_NO
 70
     1
  0
ATTDEF
  5
3
330
458D6
100
AcDbEntity
  8
ATTRIBUTES
100
AcDbText
 10
-0.7410432658428277
 20
-1.534186156137421
 30
0.0
 40
0.1125
  1
NEMA EUTECTIC ALLOY OVERLOAD RELAY, SIZE 00, 24A & 32A, 3 POLE
100
AcDbAttributeDefinition
  3
PART DESCRIPTION?
  2
AC_DESCRIPTION
 70
     1
  0
ATTDEF
  5
4
330
458D6
100
AcDbEntity
  8
ATTRIBUTES
100
AcDbText
 10
-0.7410432658428277
 20
-1.768561156137421
 30
0.0
 40
0.1125
  1

100
AcDbAttributeDefinition
  3
DEVICE ID?
  2
DEVICE_ID
 70
     1
  0
ATTDEF
  5
5
330
458D6
100
AcDbEntity
  8
ATTRIBUTES
100
AcDbText
 10
-0.7410432658428277
 20
-2.002936156137421
 30
0.0
 40
0.1125
  1

100
AcDbAttributeDefinition
  3
CUSTOMER PART NUMBER?
  2
AC_CPART_NO
 70
     1
  0
ATTDEF
  5
6
330
458D6
100
AcDbEntity
  8
ATTRIBUTES
100
AcDbText
 10
-0.7410432658428277
 20
-2.237311156137421
 30
0.0
 40
0.1125
  1

100
AcDbAttributeDefinition
  3
CUSTOMER NOTE?
  2
AC_NOTE
 70
     1
  0
ATTDEF
  5
7
330
458D6
100
AcDbEntity
  8
ATTRIBUTES
100
AcDbText
 10
-0.7410432658428277
 20
-2.471686156137421
 30
0.0
 40
0.1125
  1

100
AcDbAttributeDefinition
  3
FASTENER DATA?
  2
FASTENER
 70
     1
  0
ATTDEF
  5
8
330
458D6
100
AcDbEntity
  8
ATTRIBUTES
100
AcDbText
 10
-0.7410432658428277
 20
-2.706061156137421
 30
0.0
 40
0.1125
  1
INCH
100
AcDbAttributeDefinition
  3
UNIT OF SCALE?
  2
AC_SCALE_UNIT
 70
     1
  0
ATTDEF
  5
9
330
458D6
100
AcDbEntity
  8
ATTRIBUTES
100
AcDbText
 10
-0.7410432658428277
 20
-2.940436156137421
 30
0.0
 40
0.1125
  1
0
100
AcDbAttributeDefinition
  3
VIEW CODE?
  2
AC_VIEW_CODE
 70
     1
  0
INSERT
  5
45975
330
458D6
100
AcDbEntity
  8
SCALE
100
AcDbBlockReference
  2
scale
 10
-0.8467441978472152
 20
-3.168075893610959
 30
0.0
  0
3DSOLID
  5
459DA
330
458D6
100
AcDbEntity
  8
0
100
AcDbModelerGeometry
 70
     1
  1
koo mgj n o         
  1
h J1410(1 nl ^ \VL kqoqm QK mk R01 Q0) oh ofenieoj mooj 
  1
rn fqfffffffffffffffj:rooh n:rono 
  1
=0;& {rn {n {rn {rn |
  1
3*2/ {rn {rn {m {o |
  1
,7:33 {rn {rn {rn {l {rn {n |
  1
9><: {rn {k {j {m {rn {i -:):-,:; ,6183: |
  1
9><: {rn {h {g {m {rn {f 90-(>-; ,6183: |
  1
300/ {rn {rn {no {l |
  1
/3>1:r,*-9><: {rn oqooknkffffffffffmoff rmqlijlkffffffffffg l o o n n o o 90-(>-;@) V V V V |
  1
9><: {rn {nn {nm {m {rn {nl -:):-,:; ,6183: |
  1
300/ {rn {rn {nk {k |
  1
/3>1:r,*-9><: {rn oqooknkffffffffffmoff rmqlijlkffffffffffg lqlnmj o o n n o o 90-(>-;@) V V V V |
  1
<0:;8: {rn {nj {ni {nh {ng 90-(>-; {j {rn |
  1
9><: {rn {nf {mo {m {rn {mn -:):-,:; ,6183: |
  1
300/ {rn {rn {mm {h |
  1
/3>1:r,*-9><: {rn oqooknkffffffffffmoff rmqinjljooooooooool lqnjimj o n o o o n 90-(>-;@) V V V V |
  1
<0:;8: {rn {ml {mk {mj {mi 90-(>-; {g {rn |
  1
<0:;8: {rn {mh {no {mg {mf 90-(>-; {j {rn |
  1
<0:;8: {rn {no {mh {lo {ln 90-(>-; {j {rn |
  1
<0:;8: {rn {lm {ll {no {ng -:):-,:; {lk {rn |
  1
:;8: {rn {lj {li {nh {lh 90-(>-; |
  1
9><: {rn {lg {lf {m {rn {ko -:):-,:; ,6183: |
  1
300/ {rn {rn {kn {nn |
  1
/3>1:r,*-9><: {rn roqmkjgjoooooooooohf rmqlijlkffffffffffg lqnjimj n o o o o rn 90-(>-;@) V V V V |
  1
<0:;8: {rn {km {kl {kk {kj 90-(>-; {nm {rn |
  1
<0:;8: {rn {ki {nk {kh {kg 90-(>-; {g {rn |
  1
<0:;8: {rn {nk {ki {kl {kf 90-(>-; {g {rn |
  1
<0:;8: {rn {jo {jn {nk {mi -:):-,:; {jm {rn |
  1
:;8: {rn {jl {jk {mj {jj 90-(>-; |
  1
<0:;8: {rn {ni {nj {km {ji 90-(>-; {j {rn |
  1
<0:;8: {rn {jh {jo {nj {mf -:):-,:; {jm {rn |
  1
:;8: {rn {li {jg {mg {jf 90-(>-; |
  1
<0:;8: {rn {kk {io {ni {ln -:):-,:; {mo {rn |
  1
:;8: {rn {in {lj {lo {im 90-(>-; |
  1
<0:;8: {rn {il {nh {ik {ij -:):-,:; {lk {rn |
  1
<0:;8: {rn {nh {ii {ih {ig -:):-,:; {lk {rn |
  1
300/ {rn {rn {if {ho |
  1
):-+:' {rn {ng {hn |
  1
):-+:' {rn {ig {hm |
  1
,+->687+r<*-): {rn oqklhffffffffffffhm rmqjigkfffffffffffl lqooooooooooooniij n o o V V |
  1
9><: {rn {hl {jm {m {rn {hk -:):-,:; ,6183: |
  1
300/ {rn {rn {hj {nf |
  1
/3>1:r,*-9><: {rn oqooknkffffffffffmoff rmqnnjlkffffffffffk lqnjimj o rn o o o rn 90-(>-;@) V V V V |
  1
<0:;8: {rn {io {hi {hh {hg 90-(>-; {mo {rn |
  1
<0:;8: {rn {hf {mm {mh {ji -:):-,:; {nm {rn |
  1
<0:;8: {rn {mm {hf {mk {kf -:):-,:; {nm {rn |
  1
<0:;8: {rn {hi {lo {mm {kj -:):-,:; {mo {rn |
  1
:;8: {rn {go {in {kk {gn 90-(>-; |
  1
<0:;8: {rn {mk {ml {hi {gm 90-(>-; {g {rn |
  1
<0:;8: {rn {hj {hh {ml {kg -:):-,:; {lf {rn |
  1
:;8: {rn {jk {gl {kh {gk 90-(>-; |
  1
:;8: {rn {go {jl {kl {gj 90-(>-; |
  1
<0:;8: {rn {mg {mj {hf {gi 90-(>-; {jm {rn |
  1
<0:;8: {rn {mj {jh {hj {gh -:):-,:; {jm {rn |
  1
300/ {rn {rn {jo {lg |
  1
):-+:' {rn {mi {gg |
  1
):-+:' {rn {mi {gf |
  1
,+->687+r<*-): {rn oqmjknkffffffffffmn rmqlijlkffffffffffg lqlnmj o n o V V |
  1
:;8: {rn {jg {in {km {fo 90-(>-; |
  1
<0:;8: {rn {jn {mg {fn {fm -:):-,:; {jm {rn |
  1
):-+:' {rn {gi {fl |
  1
,+->687+r<*-): {rn oqmjknkffffffffffmn rmqlijlkffffffffffg l o rn o V V |
  1
<0:;8: {rn {lo {kn {fk {fj -:):-,:; {mo {rn |
  1
):-+:' {rn {ln {fi |
  1
,+->687+r<*-): {rn roqmkjgjoooooooooohf rmqlijlkffffffffffg l o n o V V |
  1
<0:;8: {rn {if {lm {fh {fg 90-(>-; {lk {rn |
  1
<0:;8: {rn {fk {ff {lm {ij 90-(>-; {noo {rn |
  1
:;8: {rn {non {lj {lm {lh 90-(>-; |
  1
<0:;8: {rn {ll {if {nom {nol -:):-,:; {lk {rn |
  1
<0:;8: {rn {nok {fn {ll {ig 90-(>-; {noo {rn |
  1
:;8: {rn {li {noj {ll {lh 90-(>-; |
  1
<0:;8: {rn {ii {il {noi {noh -:):-,:; {lk {rn |
  1
9><: {rn {nog {lk {m {rn {nof -:):-,:; ,6183: |
  1
/061+ {rn roqmkjgjoooooooooohf rmqjigkfffffffffffl l |
  1
/061+ {rn oqmjknkffffffffffmn rmqjigkfffffffffffl l |
  1
9><: {rn {nno {noo {m {rn {nnn 90-(>-; ,6183: |
  1
/3>1:r,*-9><: {rn oqmjknkffffffffffmn rmqlijlkffffffffffg lqnjimj rn o o o o n 90-(>-;@) V V V V |
  1
<0:;8: {rn {nnm {kh {jn {gh 90-(>-; {lf {rn |
  1
<0:;8: {rn {kn {kk {ki {gm -:):-,:; {mo {rn |
  1
<0:;8: {rn {kh {nnm {kn {hg -:):-,:; {lf {rn |
  1
:;8: {rn {gl {nnl {hh {nnk 90-(>-; |
  1
<0:;8: {rn {kl {km {jo {gi -:):-,:; {nm {rn |
  1
):-+:' {rn {gm {nnj |
  1
,+->687+r<*-): {rn roqmkjgjoooooooooohf rmqinjljooooooooool lqnjimj o o rn V V |
  1
:;8: {rn {gl {go {hi {nni 90-(>-; |
  1
):-+:' {rn {kg {nnh |
  1
,+->687+r<*-): {rn oqooknkffffffffffmoff rmqnnjlkffffffffffk lqlnmj rn o o V V |
  1
,+->687+r<*-): {rn oqooknkffffffffffmoff rmqinjljooooooooool lqlnmj n o o V V |
  1
:;8: {rn {jl {jg {jo {nng 90-(>-; |
  1
:;8: {rn {jk {nnf {jn {nmo 90-(>-; |
  1
/061+ {rn oqmjknkffffffffffmn rmqinjljooooooooool lqlnmj |
  1
/061+ {rn oqmjknkffffffffffmn rmqnnjlkffffffffffk lqlnmj |
  1
,+->687+r<*-): {rn oqooknkffffffffffmoff rmqinjljooooooooool l rn o o V V |
  1
<0:;8: {rn {ih {nmn {jh {fm 90-(>-; {noo {rn |
  1
:;8: {rn {nnf {li {fn {nmm 90-(>-; |
  1
/061+ {rn oqmjknkffffffffffmn rmqinjljooooooooool l |
  1
<0:;8: {rn {nmn {ik {io {fj 90-(>-; {noo {rn |
  1
:;8: {rn {lj {nnl {fk {nml 90-(>-; |
  1
/061+ {rn roqmkjgjoooooooooohf rmqinjljooooooooool l |
  1
<0:;8: {rn {nmk {nmj {il {fg -:):-,:; {nmi {rn |
  1
:;8: {rn {non {nmh {fh {nmg 90-(>-; |
  1
<0:;8: {rn {ik {nmf {nmk {nlo 90-(>-; {noo {rn |
  1
300/ {rn {rn {fk {hl |
  1
):-+:' {rn {nlo {nln |
  1
<0:;8: {rn {nlm {nll {ii {nol 90-(>-; {nlk {rn |
  1
:;8: {rn {noj {nlj {nom {nli 90-(>-; |
  1
<0:;8: {rn {nmf {ih {nll {nlh 90-(>-; {noo {rn |
  1
):-+:' {rn {nlh {nlg |
  1
<0:;8: {rn {nlf {nko {if {noh 90-(>-; {nkn {rn |
  1
:;8: {rn {nlj {nmh {noi {nkm 90-(>-; |
  1
9><: {rn {nkl {nkk {m {rn {nkj -:):-,:; ,6183: |
  1
/3>1:r,*-9><: {rn oqklhffffffffffffhm rmqjigkfffffffffffl nqjoooooooooooogll o n o o o n 90-(>-;@) V V V V |
  1
9><: {rn {nki {nkh {m {rn {nkg -:):-,:; ,6183: |
  1
/3>1:r,*-9><: {rn oqklhffffffffffffhm rnqlijlhjjooooooool lqooooooooooooniij o o n n o o 90-(>-;@) V V V V |
  1
<0:;8: {rn {hh {hj {nmn {nkf -:):-,:; {lf {rn |
  1
):-+:' {rn {fj {njo |
  1
,+->687+r<*-): {rn roqmkjgjoooooooooohf rmqnnjlkffffffffffk lqnjimj o o rn V V |
  1
/061+ {rn roqmkjgjoooooooooohf rmqinjljooooooooool lqlnmj |
  1
,+->687+r<*-): {rn roqmkjgjoooooooooohf rmqlijlkffffffffffg lqlnmj o rn o V V |
  1
/061+ {rn roqmkjgjoooooooooohf rmqnnjlkffffffffffk lqlnmj |
  1
,+->687+r<*-): {rn oqmjknkffffffffffmn rmqinjljooooooooool lqnjimj o o rn V V |
  1
):-+:' {rn {nkf {njn |
  1
,+->687+r<*-): {rn oqmjknkffffffffffmn rmqnnjlkffffffffffk lqnjimj o o rn V V |
  1
<0:;8: {rn {fn {fk {nnm {nkf 90-(>-; {noo {rn |
  1
,+->687+r<*-): {rn oqmjknkffffffffffmn rnqgijlimhjooooooon lqooooooooooooniij o rn o V V |
  1
,+->687+r<*-): {rn roqmkjgjoooooooooohf rnqgijlimhjooooooon lqooooooooooooniij o n o V V |
  1
<0:;8: {rn {njm {fh {ff {nlo -:):-,:; {nmi {rn |
  1
<0:;8: {rn {fh {njl {nlf {njk -:):-,:; {nmi {rn |
  1
300/ {rn {rn {njj {nji |
  1
):-+:' {rn {noh {njh |
  1
,+->687+r<*-): {rn roqghkjoooooooooonnh rmqjigkfffffffffffl nqjoooooooooooogll o o rn V V |
  1
<0:;8: {rn {ff {nok {njg {njf 90-(>-; {noo {rn |
  1
:;8: {rn {nio {non {nmk {nin 90-(>-; |
  1
/061+ {rn roqghkjoooooooooonnh rmqjigkfffffffffffl lqooooooooooooniij |
  1
<0:;8: {rn {nim {nom {nko {nil -:):-,:; {nlk {rn |
  1
<0:;8: {rn {nom {nik {nok {nlh -:):-,:; {nlk {rn |
  1
300/ {rn {rn {nim {nij |
  1
):-+:' {rn {nil {nii |
  1
,+->687+r<*-): {rn nqhjojoooooooooooi rmqjigkfffffffffffl nqjoooooooooooogll o o rn V V |
  1
:;8: {rn {noj {nih {nll {nig 90-(>-; |
  1
/061+ {rn nqhjojoooooooooooi rmqjigkfffffffffffl lqooooooooooooniij |
  1
<0:;8: {rn {nif {noi {nmj {njk 90-(>-; {nkn {rn |
  1
<0:;8: {rn {noi {nif {nlm {nil 90-(>-; {nkn {rn |
  1
300/ {rn {rn {nko {nkl |
  1
,+->687+r<*-): {rn oqklhffffffffffffhm rmqjigkfffffffffffl mqlhffffffffffffff rn o o V V |
  1
9><: {rn {nho {nkn {m {rn {nhn 90-(>-; ,6183: |
  1
300/ {rn {rn {nhm {nog |
  1
/3>1:r,*-9><: {rn oqklhffffffffffffhm roqnimmjnoooooooonmi nqjoooooooooooogll o rn o o o rn 90-(>-;@) V V V V |
  1
9><: {rn {nhl {nhk {m {rn {nhj -:):-,:; ,6183: |
  1
300/ {rn {rn {nhi {nno |
  1
/3>1:r,*-9><: {rn roqkkjmohjooooooookm roqooioonoooooooonmjjl oqmj oqlkmomohlfojonggij roqflfifmkolfjfhonjj o o o n 90-(>-;@) V V V V |
  1
:;8: {rn {nnl {nnf {nmn {nhh 90-(>-; |
  1
/061+ {rn roqmkjgjoooooooooohf rmqnnjlkffffffffffk l |
  1
/061+ {rn oqmjknkffffffffffmn rmqnnjlkffffffffffk l |
  1
<0:;8: {rn {nhg {nmk {nhf {ngo 90-(>-; {nmi {rn |
  1
<0:;8: {rn {nmj {njj {ngn {ngm -:):-,:; {nmi {rn |
  1
:;8: {rn {nmh {ngl {nmj {ngk 90-(>-; |
  1
<0:;8: {rn {njl {nhg {ngj {ngi -:):-,:; {nmi {rn |
  1
9><: {rn {nij {nmi {m {rn {ngh -:):-,:; ,6183: |
  1
/061+ {rn roqghkjoooooooooonnh rmqjigkfffffffffffl mqlhffffffffffffff |
  1
<0:;8: {rn {ngg {nhf {nmf {njf -:):-,:; {nkk {rn |
  1
:;8: {rn {nih {nio {njg {ngf 90-(>-; |
  1
):-+:' {rn {njf {nfo |
  1
,+->687+r<*-): {rn roqghkjoooooooooonnh rnqlijlhjjooooooool lqooooooooooooniij o rn o V V |
  1
<0:;8: {rn {nfn {nlm {nfm {nfl 90-(>-; {nlk {rn |
  1
:;8: {rn {nfk {nlj {nlm {nfj 90-(>-; |
  1
<0:;8: {rn {nll {nfi {ngg {nfh -:):-,:; {nlk {rn |
  1
9><: {rn {rn {nlk {m {rn {nfg -:):-,:; ,6183: |
  1
/061+ {rn nqhjojoooooooooooi rmqjigkfffffffffffl mqlhffffffffffffff |
  1
):-+:' {rn {nlh {nff |
  1
,+->687+r<*-): {rn nqhjojoooooooooooi rnqlijlhjjooooooool lqooooooooooooniij o n o V V |
  1
<0:;8: {rn {nko {nlf {moo {mon 90-(>-; {nkn {rn |
  1
9><: {rn {mom {mol {m {rn {mok -:):-,:; ,6183: |
  1
/3>1:r,*-9><: {rn oqklhffffffffffffhm rmqgngjookffffffffk mqlhffffffffffffff o o n n o o 90-(>-;@) V V V V |
  1
<0:;8: {rn {nhf {ngg {moj {moi 90-(>-; {nkk {rn |
  1
9><: {rn {moh {mog {m {rn {mof -:):-,:; ,6183: |
  1
300/ {rn {rn {mno {nki |
  1
/3>1:r,*-9><: {rn oqklgooooooooooooin oqnjomkgffffffffghk oqmj o rn o o o rn 90-(>-;@) V V V V |
  1
<0:;8: {rn {mnn {mnm {mnl {mnk 90-(>-; {nkh {rn |
  1
,+->687+r<*-): {rn oqmmnohkfffffffffkh rmqnnjlkffffffffffk lqooooooooooooniij n o o V V |
  1
<0:;8: {rn {njj {njm {mnn {mnj 90-(>-; {nmi {rn |
  1
<0:;8: {rn {njg {nhm {njm {ngo -:):-,:; {nkk {rn |
  1
:;8: {rn {nio {mni {nhf {mnh 90-(>-; |
  1
<0:;8: {rn {mng {moo {njl {ngm 90-(>-; {mnf {rn |
  1
:;8: {rn {ngl {mmo {njl {mmn 90-(>-; |
  1
):-+:' {rn {njk {mmm |
  1
,+->687+r<*-): {rn roqghkjoooooooooonnh rmqgngjookffffffffk mqlhffffffffffffff o rn o V V |
  1
<0:;8: {rn {mnl {mml {njj {ngi 90-(>-; {mol {rn |
  1
:;8: {rn {mmo {mmk {njj {mmj 90-(>-; |
  1
/3>1:r,*-9><: {rn roqghkjoooooooooonnh rmqgngjookffffffffk nqngffffffffffffff n o o o o rn 90-(>-;@) V V V V |
  1
<0:;8: {rn {nhm {njg {nik {nfh 90-(>-; {nkk {rn |
  1
,+->687+r<*-): {rn oqklhffffffffffffhm roqnimmjnoooooooonmi lqooooooooooooniij rn o o V V |
  1
/061+ {rn roqghkjoooooooooonnh roqnimmjnoooooooonmi lqooooooooooooniij |
  1
<0:;8: {rn {nfi {nim {mmi {mmh -:):-,:; {nlk {rn |
  1
<0:;8: {rn {moo {mng {nim {nfl -:):-,:; {mnf {rn |
  1
:;8: {rn {nfk {mmg {nim {mmf 90-(>-; |
  1
):-+:' {rn {nil {mlo |
  1
,+->687+r<*-): {rn nqhjojoooooooooooi rmqgngjookffffffffk mqlhffffffffffffff o n o V V |
  1
<0:;8: {rn {nik {nfn {mln {mlm -:):-,:; {nlk {rn |
  1
:;8: {rn {nih {mll {nik {mlk 90-(>-; |
  1
/3>1:r,*-9><: {rn nqhjojoooooooooooi rmqgngjookffffffffk nqngffffffffffffff rn o o o o n 90-(>-;@) V V V V |
  1
/061+ {rn nqhjojoooooooooooi roqnimmjnoooooooonmi lqooooooooooooniij |
  1
<0:;8: {rn {ngn {nfm {nif {mon -:):-,:; {mnf {rn |
  1
:;8: {rn {ngl {nfk {moo {mlj 90-(>-; |
  1
9><: {rn {nji {mnf {m {rn {mli -:):-,:; ,6183: |
  1
300/ {rn {rn {mmi {nho |
  1
/3>1:r,*-9><: {rn oqklhffffffffffffhm rmqgngjookffffffffk o o o n n o o 90-(>-;@) V V V V |
  1
<0:;8: {rn {mlh {mlg {nhm {moi -:):-,:; {mlf {rn |
  1
:;8: {rn {mll {mni {nhm {mko 90-(>-; |
  1
9><: {rn {ho {mlf {m {rn {mkn 90-(>-; ,6183: |
  1
300/ {rn {rn {mkm {nhl |
  1
/3>1:r,*-9><: {rn nqlmnmohjoooooooog roqooioonoooooooonmjjl oqmj roqlkmomohlfojongflm roqflfifmkolfjfhonll o o o n 90-(>-;@) V V V V |
  1
<0:;8: {rn {mkl {mkk {mkj {mki 90-(>-; {nhk {rn |
  1
<0:;8: {rn {mkh {nhi {nhg {mnj -:):-,:; {nkh {rn |
  1
<0:;8: {rn {nhi {mkh {mkg {mkf 90-(>-; {nkh {rn |
  1
<0:;8: {rn {mjo {ngj {nhi {mnk -:):-,:; {mol {rn |
  1
:;8: {rn {mjn {mmk {mnl {mjm 90-(>-; |
  1
:;8: {rn {mni {mmk {nhg {mnh 90-(>-; |
  1
):-+:' {rn {mnj {mjl |
  1
,+->687+r<*-): {rn roqghkjoooooooooonnh roqnimmjnoooooooonmi nqjoooooooooooogll o o rn V V |
  1
<0:;8: {rn {nfm {ngn {mml {mjk -:):-,:; {mnf {rn |
  1
300/ {rn {rn {ngn {mom |
  1
):-+:' {rn {ngi {mjj |
  1
,+->687+r<*-): {rn roqghkjoooooooooonnh rlqoigjoofffffffffj nqngffffffffffffff o o rn V V |
  1
/061+ {rn roqghkjoooooooooonnh rlqoigjoofffffffffj mqlhffffffffffffff |
  1
<0:;8: {rn {ngj {mmi {mng {mjk 90-(>-; {mol {rn |
  1
):-+:' {rn {mnk {mji |
  1
,+->687+r<*-): {rn roqghkjoooooooooonnh rnqlijlhjjooooooool o o n o V V |
  1
<0:;8: {rn {mml {mjh {nfn {mmh 90-(>-; {mol {rn |
  1
:;8: {rn {mjg {mmg {nfn {mjf 90-(>-; |
  1
):-+:' {rn {nfl {mio |
  1
,+->687+r<*-): {rn nqhjojoooooooooooi rlqoigjoofffffffffj nqngffffffffffffff o o rn V V |
  1
/061+ {rn nqhjojoooooooooooi rlqoigjoofffffffffj mqlhffffffffffffff |
  1
<0:;8: {rn {mkm {min {nfi {mlm 90-(>-; {mog {rn |
  1
:;8: {rn {mll {mjg {nfi {mlk 90-(>-; |
  1
):-+:' {rn {mlm {mim |
  1
,+->687+r<*-): {rn nqhjojoooooooooooi roqnimmjnoooooooonmi nqjoooooooooooogll o o rn V V |
  1
,+->687+r<*-): {rn oqklhffffffffffffhm rlqoigjoofffffffffj mqlhffffffffffffff n o o V V |
  1
/3>1:r,*-9><: {rn oqklhffffffffffffhm rlqoigjoofffffffffj nqngffffffffffffff o n o o o n 90-(>-;@) V V V V |
  1
<0:;8: {rn {mil {moj {min {mik -:):-,:; {mlf {rn |
  1
<0:;8: {rn {moj {mil {mkh {mij -:):-,:; {mlf {rn |
  1
300/ {rn {rn {mlh {moh |
  1
,+->687+r<*-): {rn oqghfiolhjooooooomk roqnimmjnoooooooonmi oqjoooooooooooooonn rn o o V V |
  1
/3>1:r,*-9><: {rn nqlmnmohjoooooooog roqooioonoooooooonmjjl oqj o o n n o o 90-(>-;@) V V V V |
  1
<0:;8: {rn {mkj {mln {mjh {mii 90-(>-; {mog {rn |
  1
<0:;8: {rn {mkg {mno {mjo {mih -:):-,:; {nhk {rn |
  1
<0:;8: {rn {mno {mkg {mil {mig -:):-,:; {nhk {rn |
  1
<0:;8: {rn {min {mkm {mno {mki -:):-,:; {mog {rn |
  1
:;8: {rn {mif {mho {mkj {mhn 90-(>-; |
  1
<0:;8: {rn {mnm {mnn {mlg {mij 90-(>-; {nkh {rn |
  1
<0:;8: {rn {mkk {mkl {mnm {mkf -:):-,:; {nhk {rn |
  1
:;8: {rn {mhm {mjn {mkg {mhl 90-(>-; |
  1
<0:;8: {rn {mjh {mnl {mkl {mih 90-(>-; {mol {rn |
  1
):-+:' {rn {mih {mhk |
  1
,+->687+r<*-): {rn roqkkjmohjooooooookm roqooioonoooooooonmjjl o roqflfifmkolfjfhonjj roqlkmomohlfojonggij o V V |
  1
/061+ {rn roqghkjoooooooooonnh roqnimmjnoooooooonmi oqj |
  1
:;8: {rn {mmg {mmo {mng {mhj 90-(>-; |
  1
/061+ {rn roqghkjoooooooooonnh rlqoigjoofffffffffj o |
  1
/061+ {rn roqghkjoooooooooonnh roqnimmjnoooooooonmi o |
  1
<0:;8: {rn {mmi {mjo {mkm {mii -:):-,:; {mol {rn |
  1
):-+:' {rn {mmh {mhi |
  1
,+->687+r<*-): {rn nqhjojoooooooooooi rmqgngjookffffffffk o o rn o V V |
  1
/061+ {rn nqhjojoooooooooooi rlqoigjoofffffffffj o |
  1
<0:;8: {rn {mln {mkj {mlh {mik 90-(>-; {mog {rn |
  1
/061+ {rn nqhjojoooooooooooi roqnimmjnoooooooonmi oqj |
  1
<0:;8: {rn {mlg {mlh {mkk {mig 90-(>-; {mlf {rn |
  1
:;8: {rn {mif {mll {mlh {mhh 90-(>-; |
  1
:;8: {rn {mni {mhm {mlg {mhg 90-(>-; |
  1
:;8: {rn {mjg {mho {mjh {mhf 90-(>-; |
  1
:;8: {rn {mjn {mho {mkl {mgo 90-(>-; |
  1
:;8: {rn {mif {mhm {mkk {mgn 90-(>-; |
  1
):-+:' {rn {mik {mgm |
  1
):-+:' {rn {mii {mgl |
  1
,+->687+r<*-): {rn oqgfnfnjooooooooof oqnjomkgffffffffghk oqmj o o rn V V |
  1
):-+:' {rn {mig {mgk |
  1
,+->687+r<*-): {rn roqonjfnkfffffffffihf oqnjomkgffffffffghk oqmj o o rn V V |
  1
/061+ {rn roqonjfnkfffffffffihf oqnjomkgffffffffghk o |
  1
,+->687+r<*-): {rn oqklhffffffffffffhm rlqoigjoofffffffffj o rn o o V V |
  1
/061+ {rn nqhjojoooooooooooi roqnimmjnoooooooonmi o |
  1
,+->687+r<*-): {rn nqlmnmohjoooooooog roqooioonoooooooonmjjl oqj oqflfifmkolfjfhonll roqlkmomohlfojongflm o V V |
  1
,+->687+r<*-): {rn roqkkjmohjooooooookm roqooioonoooooooonmjjl oqj oqflfifmkolfjfhonjj oqlkmomohlfojonggij o V V |
  1
,+->687+r<*-): {rn nqlmnmohjoooooooog roqooioonoooooooonmjjl o roqflfifmkolfjfhonll oqlkmomohlfojongflm o V V |
  1
,+->687+r<*-): {rn oqklgooooooooooooin oqnjomkgffffffffghk o n o o V V |
  1
,+->687+r<*-): {rn oqklgooooooooooooin oqnjomkgffffffffghk oqj rn o o V V |
  1
/061+ {rn oqgfnfnjooooooooof oqnjomkgffffffffghk oqj |
  1
/061+ {rn oqgfnfnjooooooooof oqnjomkgffffffffghk o |
  1
/061+ {rn roqonjfnkfffffffffihf oqnjomkgffffffffghk oqj |
  0
LINE
  5
459DB
330
458D6
100
AcDbEntity
  8
0
100
AcDbLine
 10
1.433716999999999
 20
-2.321528999999999
 30
3.0
 11
1.235431999999999
 21
-2.46037
 31
3.0
  0
CIRCLE
  5
459DC
330
458D6
100
AcDbEntity
  8
0
100
AcDbCircle
 10
1.316649999999999
 20
-2.36535
 30
3.0
 40
0.125
  0
CIRCLE
  5
459DD
330
458D6
100
AcDbEntity
  8
0
100
AcDbCircle
 10
0.4380000000000006
 20
-2.756001
 30
0.0
 40
0.094
  0
POINT
  5
459DE
330
458D6
100
AcDbEntity
  8
DIMS-MTG-HOLES
100
AcDbPoint
 10
0.4380000000000006
 20
-2.756001
 30
0.0
  0
TEXT
  5
459DF
330
458D6
100
AcDbEntity
  8
0
100
AcDbText
 10
-0.1235747908166491
 20
-2.382702085410311
 30
3.3125
 40
0.0678828038556911
  1
RESET
 41
0.9
100
AcDbText
  0
LINE
  5
459E0
330
458D6
100
AcDbEntity
  8
0
100
AcDbLine
 10
-0.0619999999999994
 20
-0.1622510000000012
 30
3.0
 11
-0.0619999999999994
 21
-2.568501
 31
3.0
  0
CIRCLE
  5
459E1
330
458D6
100
AcDbEntity
  8
0
100
AcDbCircle
 10
-0.4333500000000008
 20
-2.36535
 30
3.0
 40
0.125
  0
LINE
  5
459E2
330
458D6
100
AcDbEntity
  8
0
100
AcDbLine
 10
0.9380000000000006
 20
-0.1622510000000012
 30
3.0
 11
0.9380000000000006
 21
-2.178499999999999
 31
3.0
  0
LINE
  5
459E3
330
458D6
100
AcDbEntity
  8
0
100
AcDbLine
 10
0.8130000000000006
 20
-0.1622510000000012
 30
3.0
 11
0.8130000000000006
 21
-2.178499999999999
 31
3.0
  0
LINE
  5
459E4
330
458D6
100
AcDbEntity
  8
0
100
AcDbLine
 10
0.0630000000000006
 20
-0.1622510000000012
 30
3.0
 11
0.0630000000000006
 21
-2.568501
 31
3.0
  0
LINE
  5
459E5
330
458D6
100
AcDbEntity
  8
0
100
AcDbLine
 10
1.036852162308807
 20
-2.858931598923744
 30
2.379999999999999
 11
1.170555646575353
 21
-2.858931598923744
 31
2.379999999999999
  0
LINE
  5
459E6
330
458D6
100
AcDbEntity
  8
0
100
AcDbLine
 10
0.9735135960596856
 20
-2.836250093546144
 30
2.379999999999999
 11
0.8277009138731674
 21
-2.938349488898584
 31
2.379999999999999
  0
CIRCLE
  5
459E7
330
458D6
100
AcDbEntity
  8
0
100
AcDbCircle
 10
0.8874268650772769
 20
-2.868474707339903
 30
2.379999999999999
 40
0.0919211502297941
  0
LINE
  5
459E8
330
458D6
100
AcDbEntity
  8
0
100
AcDbLine
 10
0.9471520809121827
 20
-2.798601396519626
 30
2.379999999999999
 11
0.8013393987256662
 21
-2.900700791872066
 31
2.379999999999999
  0
LINE
  5
459E9
330
458D6
100
AcDbEntity
  8
0
100
AcDbLine
 10
1.103703904442081
 20
-2.798186838677635
 30
2.379999999999999
 11
1.316414015722521
 21
-2.919676345974209
 31
2.379999999999999
  0
LINE
  5
459EA
330
458D6
100
AcDbEntity
  8
0
100
AcDbLine
 10
1.377188325008571
 20
-2.858931598923744
 30
2.379999999999999
 11
1.243484840742025
 21
-2.858931598923744
 31
2.379999999999999
  0
LINE
  5
459EB
330
458D6
100
AcDbEntity
  8
0
100
AcDbLine
 10
1.170555646575353
 20
-2.858931598923744
 30
2.379999999999999
 11
1.170555646575353
 21
-2.773888947774836
 31
2.379999999999999
  0
LINE
  5
459EC
330
458D6
100
AcDbEntity
  8
0
100
AcDbLine
 10
1.170555646575353
 20
-2.858931598923744
 30
2.379999999999999
 11
1.170555646575353
 21
-2.943974250072652
 31
2.379999999999999
  0
LINE
  5
459ED
330
458D6
100
AcDbEntity
  8
0
100
AcDbLine
 10
1.243484840742025
 20
-2.858931598923744
 30
2.379999999999999
 11
1.243484840742025
 21
-2.773888947774836
 31
2.379999999999999
  0
LINE
  5
459EE
330
458D6
100
AcDbEntity
  8
0
100
AcDbLine
 10
1.243484840742025
 20
-2.858931598923744
 30
2.379999999999999
 11
1.243484840742025
 21
-2.943974250072652
 31
2.379999999999999
  0
CIRCLE
  5
459EF
330
458D6
100
AcDbEntity
  8
0
100
AcDbCircle
 10
0.4416499999999992
 20
-2.36535
 30
3.0
 40
0.125
  0
LINE
  5
459F0
330
458D6
100
AcDbEntity
  8
0
100
AcDbLine
 10
0.522867999999999
 20
-2.270331999999999
 30
3.0
 11
0.3245830000000005
 21
-2.409173
 31
3.0
  0
LINE
  5
459F1
330
458D6
100
AcDbEntity
  8
0
100
AcDbLine
 10
0.5587160000000005
 20
-2.321528999999999
 30
3.0
 11
0.3604310000000002
 21
-2.46037
 31
3.0
  0
TEXT
  5
459F2
330
458D6
100
AcDbEntity
  8
0
100
AcDbText
 10
0.3865374115903997
 20
-2.204028325635605
 30
3.0
 40
0.0904771655947629
  1
T2
 41
0.9
100
AcDbText
  0
LWPOLYLINE
  5
459F3
330
458D6
100
AcDbEntity
  8
0
100
AcDbPolyline
 90
        2
 70
     0
 38
3.000000000000166
 10
0.8758472582520155
 20
-2.148863708902753
 40
0.0
 41
0.0672077019673577
 10
0.8758472582520155
 20
-2.081656006935396
 40
0.0672077019673577
 41
0.0672077019673577
  0
TEXT
  5
459F4
330
458D6
100
AcDbEntity
  8
0
100
AcDbText
 10
0.8596079745967735
 20
-2.034057561764949
 30
3.000000000000166
 40
0.0636074057721622
  1
D
 41
0.9
100
AcDbText
  0
LINE
  5
459F5
330
458D6
100
AcDbEntity
  8
0
100
AcDbLine
 10
0.8130000000000006
 20
-2.378499999999998
 30
3.000000000000166
 11
0.9380000000000006
 21
-2.378499999999998
 31
3.000000000000166
  0
LINE
  5
459F6
330
458D6
100
AcDbEntity
  8
0
100
AcDbLine
 10
0.8130000000000006
 20
-2.278499999999999
 30
3.000000000000166
 11
0.9380000000000006
 21
-2.278499999999999
 31
3.000000000000166
  0
LINE
  5
459F7
330
458D6
100
AcDbEntity
  8
0
100
AcDbLine
 10
0.713000000000001
 20
-2.178499999999999
 30
3.000000000000166
 11
1.038
 21
-2.178499999999999
 31
3.000000000000166
  0
LINE
  5
459F8
330
458D6
100
AcDbEntity
  8
0
100
AcDbLine
 10
0.8130000000000006
 20
-2.278499999999999
 30
3.0
 11
0.8130000000000006
 21
-2.378499999999998
 31
3.0
  0
LINE
  5
459F9
330
458D6
100
AcDbEntity
  8
0
100
AcDbLine
 10
0.713000000000001
 20
-2.178499999999999
 30
3.0
 11
0.713000000000001
 21
-2.568501
 31
3.0
  0
LINE
  5
459FA
330
458D6
100
AcDbEntity
  8
0
100
AcDbLine
 10
0.9380000000000006
 20
-2.278499999999999
 30
3.0
 11
0.9380000000000006
 21
-2.378499999999998
 31
3.0
  0
LINE
  5
459FB
330
458D6
100
AcDbEntity
  8
0
100
AcDbLine
 10
1.038
 20
-2.178499999999999
 30
3.0
 11
1.038
 21
-2.568501
 31
3.0
  0
TEXT
  5
459FC
330
458D6
100
AcDbEntity
  8
0
100
AcDbText
 10
0.8596079745967735
 20
-1.925016294726958
 30
3.000000000000166
 40
0.0636074057721622
  1
E
 41
0.9
100
AcDbText
  0
TEXT
  5
459FD
330
458D6
100
AcDbEntity
  8
0
100
AcDbText
 10
0.8596079745967735
 20
-1.815975027688965
 30
3.000000000000166
 40
0.0636074057721622
  1
P
 41
0.9
100
AcDbText
  0
TEXT
  5
459FE
330
458D6
100
AcDbEntity
  8
0
100
AcDbText
 10
0.8596079745967735
 20
-1.706933760650972
 30
3.000000000000166
 40
0.0636074057721622
  1
P
 41
0.9
100
AcDbText
  0
TEXT
  5
459FF
330
458D6
100
AcDbEntity
  8
0
100
AcDbText
 10
0.8596079745967735
 20
-1.488851226574988
 30
3.000000000000166
 40
0.0636074057721622
  1
R
 41
0.9
100
AcDbText
  0
TEXT
  5
45A00
330
458D6
100
AcDbEntity
  8
0
100
AcDbText
 10
0.8596079745967735
 20
-1.379809959536995
 30
3.000000000000166
 40
0.0636074057721622
  1
T
 41
0.9
100
AcDbText
  0
TEXT
  5
45A01
330
458D6
100
AcDbEntity
  8
0
100
AcDbText
 10
0.8596079745967735
 20
-1.597892493612981
 30
3.000000000000166
 40
0.0636074057721622
  1
I
 41
0.9
100
AcDbText
  0
LINE
  5
45A02
330
458D6
100
AcDbEntity
  8
0
100
AcDbLine
 10
1.397869
 20
-2.270331999999999
 30
3.0
 11
1.199583999999999
 21
-2.409173
 31
3.0
  0
TEXT
  5
45A03
330
458D6
100
AcDbEntity
  8
0
100
AcDbText
 10
1.253125746952575
 20
-2.205243623768581
 30
3.0
 40
0.0904771655947629
  1
T3
 41
0.9
100
AcDbText
  0
LINE
  5
45A04
330
458D6
100
AcDbEntity
  8
0
100
AcDbLine
 10
1.622291697323085
 20
-2.836250093546144
 30
2.379999999999999
 11
1.476479015136568
 21
-2.938349488898584
 31
2.379999999999999
  0
CIRCLE
  5
45A05
330
458D6
100
AcDbEntity
  8
0
100
AcDbCircle
 10
1.536204230971474
 20
-2.868474707339903
 30
2.379999999999999
 40
0.0919211502297941
  0
LINE
  5
45A06
330
458D6
100
AcDbEntity
  8
0
100
AcDbLine
 10
1.595930182175585
 20
-2.798601396519626
 30
2.379999999999999
 11
1.450117499989065
 21
-2.900700791872066
 31
2.379999999999999
  0
CIRCLE
  5
45A07
330
458D6
100
AcDbEntity
  8
0
100
AcDbCircle
 10
1.316649999999999
 20
-0.3653510000000004
 30
3.0
 40
0.125
  0
LINE
  5
45A08
330
458D6
100
AcDbEntity
  8
0
100
AcDbLine
 10
1.433716999999999
 20
-0.3215289999999999
 30
3.0
 11
1.235431999999999
 21
-0.4603700000000011
 31
3.0
  0
CIRCLE
  5
45A09
330
458D6
100
AcDbEntity
  8
0
100
AcDbCircle
 10
0.0
 20
0.0
 30
0.0
 40
0.094
  0
POINT
  5
45A0B
330
458D6
100
AcDbEntity
  8
DIMS-MTG-HOLES
100
AcDbPoint
 10
0.0
 20
0.0
 30
0.0
  0
CIRCLE
  5
45A0C
330
458D6
100
AcDbEntity
  8
0
100
AcDbCircle
 10
0.875
 20
0.0
 30
0.0
 40
0.094
  0
POINT
  5
45A0D
330
458D6
100
AcDbEntity
  8
DIMS-MTG-HOLES
100
AcDbPoint
 10
0.875
 20
0.0
 30
0.0
  0
LINE
  5
45A0F
330
458D6
100
AcDbEntity
  8
0
100
AcDbLine
 10
-0.3162839999999996
 20
-2.321528999999999
 30
3.0
 11
-0.5145689999999999
 21
-2.46037
 31
3.0
  0
LINE
  5
45A10
330
458D6
100
AcDbEntity
  8
0
100
AcDbLine
 10
-0.352132000000001
 20
-2.270331999999999
 30
3.0
 11
-0.5504169999999995
 21
-2.409173
 31
3.0
  0
TEXT
  5
45A11
330
458D6
100
AcDbEntity
  8
0
100
AcDbText
 10
-0.4818932263014748
 20
-2.205560995589495
 30
3.0
 40
0.0904771655947629
  1
T1
 41
0.9
100
AcDbText
  0
LINE
  5
45A12
330
458D6
100
AcDbEntity
  8
0
100
AcDbLine
 10
-0.3162839999999996
 20
-0.3215289999999999
 30
3.0
 11
-0.5145689999999999
 21
-0.4603700000000011
 31
3.0
  0
LINE
  5
45A13
330
458D6
100
AcDbEntity
  8
0
100
AcDbLine
 10
-0.352132000000001
 20
-0.2703319999999998
 30
3.0
 11
-0.5504169999999995
 21
-0.4091729999999992
 31
3.0
  0
CIRCLE
  5
45A14
330
458D6
100
AcDbEntity
  8
0
100
AcDbCircle
 10
-0.4333500000000008
 20
-0.3653510000000004
 30
3.0
 40
0.125
  0
LINE
  5
45A15
330
458D6
100
AcDbEntity
  8
0
100
AcDbLine
 10
0.522867999999999
 20
-0.2703319999999998
 30
3.0
 11
0.3245830000000005
 21
-0.4091729999999992
 31
3.0
  0
CIRCLE
  5
45A16
330
458D6
100
AcDbEntity
  8
0
100
AcDbCircle
 10
0.4416499999999992
 20
-0.3653510000000004
 30
3.0
 40
0.125
  0
LINE
  5
45A17
330
458D6
100
AcDbEntity
  8
0
100
AcDbLine
 10
0.5587160000000005
 20
-0.3215289999999999
 30
3.0
 11
0.3604310000000002
 21
-0.4603700000000011
 31
3.0
  0
LINE
  5
45A18
330
458D6
100
AcDbEntity
  8
0
100
AcDbLine
 10
1.397869
 20
-0.2703319999999998
 30
3.0
 11
1.199583999999999
 21
-0.4091729999999992
 31
3.0
  0
DIMENSION
  5
45A19
330
458D6
100
AcDbEntity
  8
AREA1
100
AcDbDimension
  2
*D1
 10
2.629722584309348
 20
0.1502489999999983
 30
0.0
 11
2.629722584309348
 21
-1.459126
 31
0.0
 70
    32
 71
     5
 42
-1.0
  3
ABECAD_3D
100
AcDbAlignedDimension
 13
1.7505
 23
-3.068500999999999
 33
0.0
 14
0.8919150000000009
 24
0.1502489999999987
 34
0.0
 50
90.0
100
AcDbRotatedDimension
  0
DIMENSION
  5
45A27
330
458D6
100
AcDbEntity
  8
AREA1
100
AcDbDimension
  2
*D2
 10
1.7505
 20
0.8375799989804733
 30
0.0
 11
0.4379999999999999
 21
0.8375799989804733
 31
0.0
 70
    32
 71
     5
 42
-1.0
  3
ABECAD_3D
100
AcDbAlignedDimension
 13
-0.8745000000000011
 23
-0.1622510000000012
 33
0.0
 14
1.7505
 24
-0.1622510000000012
 34
0.0
100
AcDbRotatedDimension
  0
ENDSEC
  0
SECTION
  2
OBJECTS
  0
DICTIONARY
  5
458CB
330
0
100
AcDbDictionary
281
     1
  3
ACAD_GROUP
350
458CC
  3
ACAD_LAYOUT
350
458FB
  3
ACAD_MLINESTYLE
350
458D9
  3
ACAD_PLOTSETTINGS
350
458FC
  3
ACAD_PLOTSTYLENAME
350
458F9
  3
ACDBVARIABLEDICTIONARY
350
458E1
  3
DWGPROPS
350
45901
  0
DICTIONARY
  5
4592C
330
458D6
100
AcDbDictionary
280
     1
281
     1
  3
ACAD_LAYOUTSELFREF
360
45AC8
  0
DICTIONARY
  5
4592A
330
458D3
100
AcDbDictionary
280
     1
281
     1
  3
ACAD_LAYOUTSELFREF
360
45AC7
  0
DICTIONARY
  5
458CC
102
{ACAD_REACTORS
330
458CB
102
}
330
458CB
100
AcDbDictionary
281
     1
  0
DICTIONARY
  5
458FB
102
{ACAD_REACTORS
330
458CB
102
}
330
458CB
100
AcDbDictionary
281
     1
  3
Layout1
350
458FE
  3
Model
350
458FD
  0
DICTIONARY
  5
458D9
102
{ACAD_REACTORS
330
458CB
102
}
330
458CB
100
AcDbDictionary
281
     1
  3
STANDARD
350
458DA
  0
DICTIONARY
  5
458FC
102
{ACAD_REACTORS
330
458CB
102
}
330
458CB
100
AcDbDictionary
281
     1
  0
ACDBDICTIONARYWDFLT
  5
458F9
102
{ACAD_REACTORS
330
458CB
102
}
330
458CB
100
AcDbDictionary
281
     1
  3
Normal
350
458FA
100
AcDbDictionaryWithDefault
340
458FA
  0
DICTIONARY
  5
458E1
102
{ACAD_REACTORS
330
458CB
102
}
330
458CB
100
AcDbDictionary
281
     1
  3
DIMADEC
350
458E2
  0
XRECORD
  5
45901
102
{ACAD_REACTORS
330
458CB
102
}
330
458CB
100
AcDbXrecord
280
     1
  1
DWGPROPS COOKIE
  2

  3

  4

  6

  7

  8
colin
  9

300
=
301
=
302
=
303
=
304
=
305
=
306
=
307
=
308
=
309
=
 40
0.0005988425925926
 41
2451670.444776967
 42
2451670.44537581
  1

 90
        0
  0
XRECORD
  5
45AC8
102
{ACAD_REACTORS
330
4592C
102
}
330
4592C
100
AcDbXrecord
280
     1
340
458D6
  0
XRECORD
  5
45AC7
102
{ACAD_REACTORS
330
4592A
102
}
330
4592A
100
AcDbXrecord
280
     1
340
458D3
  0
LAYOUT
  5
458FE
102
{ACAD_REACTORS
330
458FB
102
}
330
458FB
100
AcDbPlotSettings
  1

  2
HP LaserJet 5000 Series PCL 6
  4

  6

 40
0.0
 41
0.0
 42
0.0
 43
0.0
 44
0.0
 45
0.0
 46
0.0
 47
0.0
 48
0.0
 49
0.0
140
0.0
141
0.0
142
1.0
143
1.0
 70
   688
 72
     0
 73
     0
 74
     5
  7
Default R14 pen assignments.ctb
 75
    16
147
1.0
148
0.0
149
0.0
100
AcDbLayout
  1
Layout1
 70
     1
 71
     1
 10
0.0
 20
0.0
 11
12.0
 21
9.0
 12
0.0
 22
0.0
 32
0.0
 14
1.000000000000000E+20
 24
1.000000000000000E+20
 34
1.000000000000000E+20
 15
-1.000000000000000E+20
 25
-1.000000000000000E+20
 35
-1.000000000000000E+20
146
0.0
 13
0.0
 23
0.0
 33
0.0
 16
1.0
 26
0.0
 36
0.0
 17
0.0
 27
1.0
 37
0.0
 76
     0
330
458D3
  0
LAYOUT
  5
458FD
102
{ACAD_REACTORS
330
458FB
102
}
330
458FB
100
AcDbPlotSettings
  1

  2
HP LaserJet 5000 Series PCL 6
  4

  6

 40
0.0
 41
0.0
 42
0.0
 43
0.0
 44
0.0
 45
0.0
 46
0.0
 47
0.0
 48
0.0
 49
0.0
140
0.0
141
0.0
142
1.0
143
1.0
 70
  1712
 72
     0
 73
     0
 74
     0
  7
Default R14 pen assignments.ctb
 75
     0
147
1.0
148
0.0
149
0.0
100
AcDbLayout
  1
Model
 70
     1
 71
     0
 10
0.0
 20
0.0
 11
12.0
 21
9.0
 12
0.0
 22
0.0
 32
0.0
 14
0.0
 24
0.0
 34
0.0
 15
0.0
 25
0.0
 35
0.0
146
0.0
 13
0.0
 23
0.0
 33
0.0
 16
1.0
 26
0.0
 36
0.0
 17
0.0
 27
1.0
 37
0.0
 76
     0
330
458D6
  0
MLINESTYLE
  5
458DA
102
{ACAD_REACTORS
330
458D9
102
}
330
458D9
100
AcDbMlineStyle
  2
STANDARD
 70
     0
  3

 62
   256
 51
90.0
 52
90.0
 71
     2
 49
0.5
 62
   256
  6
BYLAYER
 49
-0.5
 62
   256
  6
BYLAYER
  0
ACDBPLACEHOLDER
  5
458FA
102
{ACAD_REACTORS
330
458F9
102
}
330
458F9
  0
DICTIONARYVAR
  5
458E2
102
{ACAD_REACTORS
330
458E1
102
}
330
458E1
100
DictionaryVariables
280
     0
  1
0
  0
ENDSEC
  0
EOF
