  0
SECTION
  2
HEADER
  9
$ACADVER
  1
AC1014
  9
$ACADMAINTVER
 70
     8
  9
$DWGCODEPAGE
  3
ANSI_1252
  9
$INSBASE
 10
0.0
 20
0.0
 30
0.0
  9
$EXTMIN
 10
-3.911086
 20
-13.792
 30
0.0
  9
$EXTMAX
 10
14.311001
 20
2.747823
 30
7.885
  9
$LIMMIN
 10
0.0
 20
0.0
  9
$LIMMAX
 10
12.0
 20
9.0
  9
$ORTHOMODE
 70
     0
  9
$REGENMODE
 70
     1
  9
$FILLMODE
 70
     1
  9
$QTEXTMODE
 70
     0
  9
$MIRRTEXT
 70
     1
  9
$DRAGMODE
 70
     2
  9
$LTSCALE
 40
1.0
  9
$OSMODE
 70
    37
  9
$ATTMODE
 70
     1
  9
$TEXTSIZE
 40
0.12
  9
$TRACEWID
 40
0.05
  9
$TEXTSTYLE
  7
STANDARD
  9
$CLAYER
  8
0
  9
$CELTYPE
  6
BYLAYER
  9
$CECOLOR
 62
   256
  9
$CELTSCALE
 40
1.0
  9
$DELOBJ
 70
     1
  9
$DISPSILH
 70
     0
  9
$DIMSCALE
 40
1.0
  9
$DIMASZ
 40
0.5
  9
$DIMEXO
 40
0.1
  9
$DIMDLI
 40
0.375
  9
$DIMRND
 40
0.0
  9
$DIMDLE
 40
0.0
  9
$DIMEXE
 40
0.1
  9
$DIMTP
 40
0.0
  9
$DIMTM
 40
0.0
  9
$DIMTXT
 40
0.5
  9
$DIMCEN
 40
0.09
  9
$DIMTSZ
 40
0.0
  9
$DIMTOL
 70
     0
  9
$DIMLIM
 70
     0
  9
$DIMTIH
 70
     0
  9
$DIMTOH
 70
     1
  9
$DIMSE1
 70
     0
  9
$DIMSE2
 70
     0
  9
$DIMTAD
 70
     0
  9
$DIMZIN
 70
     4
  9
$DIMBLK
  1

  9
$DIMASO
 70
     1
  9
$DIMSHO
 70
     1
  9
$DIMPOST
  1

  9
$DIMAPOST
  1

  9
$DIMALT
 70
     1
  9
$DIMALTD
 70
     2
  9
$DIMALTF
 40
25.4
  9
$DIMLFAC
 40
1.0
  9
$DIMTOFL
 70
     0
  9
$DIMTVP
 40
0.0
  9
$DIMTIX
 70
     0
  9
$DIMSOXD
 70
     0
  9
$DIMSAH
 70
     0
  9
$DIMBLK1
  1

  9
$DIMBLK2
  1

  9
$DIMSTYLE
  2
ABECAD_3D
  9
$DIMCLRD
 70
     0
  9
$DIMCLRE
 70
     0
  9
$DIMCLRT
 70
     0
  9
$DIMTFAC
 40
1.5
  9
$DIMGAP
 40
0.09
  9
$DIMJUST
 70
     0
  9
$DIMSD1
 70
     0
  9
$DIMSD2
 70
     0
  9
$DIMTOLJ
 70
     1
  9
$DIMTZIN
 70
     4
  9
$DIMALTZ
 70
     4
  9
$DIMALTTZ
 70
     4
  9
$DIMFIT
 70
     5
  9
$DIMUPT
 70
     1
  9
$DIMUNIT
 70
     7
  9
$DIMDEC
 70
     6
  9
$DIMTDEC
 70
     6
  9
$DIMALTU
 70
     2
  9
$DIMALTTD
 70
     2
  9
$DIMTXSTY
  7
STANDARD
  9
$DIMAUNIT
 70
     0
  9
$LUNITS
 70
     2
  9
$LUPREC
 70
     4
  9
$SKETCHINC
 40
0.1
  9
$FILLETRAD
 40
0.0
  9
$AUNITS
 70
     0
  9
$AUPREC
 70
     0
  9
$MENU
  1
ACAD
  9
$ELEVATION
 40
0.0
  9
$PELEVATION
 40
0.0
  9
$THICKNESS
 40
0.0
  9
$LIMCHECK
 70
     0
  9
$BLIPMODE
 70
     0
  9
$CHAMFERA
 40
0.0
  9
$CHAMFERB
 40
0.0
  9
$CHAMFERC
 40
0.0
  9
$CHAMFERD
 40
0.0
  9
$SKPOLY
 70
     0
  9
$TDCREATE
 40
2451726.438389120
  9
$TDUPDATE
 40
2452010.491182639
  9
$TDINDWG
 40
1.2361868056
  9
$TDUSRTIMER
 40
1.2361868056
  9
$USRTIMER
 70
     1
  9
$ANGBASE
 50
0.0
  9
$ANGDIR
 70
     0
  9
$PDMODE
 70
     3
  9
$PDSIZE
 40
0.09
  9
$PLINEWID
 40
0.0
  9
$COORDS
 70
     1
  9
$SPLFRAME
 70
     1
  9
$SPLINETYPE
 70
     6
  9
$SPLINESEGS
 70
     8
  9
$ATTDIA
 70
     0
  9
$ATTREQ
 70
     1
  9
$HANDLING
 70
     1
  9
$HANDSEED
  5
9DE9A
  9
$SURFTAB1
 70
     6
  9
$SURFTAB2
 70
     6
  9
$SURFTYPE
 70
     6
  9
$SURFU
 70
     6
  9
$SURFV
 70
     6
  9
$UCSNAME
  2

  9
$UCSORG
 10
0.0
 20
0.0
 30
0.0
  9
$UCSXDIR
 10
1.0
 20
0.0
 30
0.0
  9
$UCSYDIR
 10
0.0
 20
1.0
 30
0.0
  9
$PUCSNAME
  2

  9
$PUCSORG
 10
0.0
 20
0.0
 30
0.0
  9
$PUCSXDIR
 10
1.0
 20
0.0
 30
0.0
  9
$PUCSYDIR
 10
0.0
 20
1.0
 30
0.0
  9
$USERI1
 70
     0
  9
$USERI2
 70
     0
  9
$USERI3
 70
     0
  9
$USERI4
 70
     0
  9
$USERI5
 70
     0
  9
$USERR1
 40
0.0
  9
$USERR2
 40
0.0
  9
$USERR3
 40
0.0
  9
$USERR4
 40
0.0
  9
$USERR5
 40
0.0
  9
$WORLDVIEW
 70
     1
  9
$SHADEDGE
 70
     3
  9
$SHADEDIF
 70
    70
  9
$TILEMODE
 70
     1
  9
$MAXACTVP
 70
    16
  9
$PINSBASE
 10
0.0
 20
0.0
 30
0.0
  9
$PLIMCHECK
 70
     0
  9
$PEXTMIN
 10
1.05
 20
0.8
 30
0.0
  9
$PEXTMAX
 10
9.45
 20
7.2
 30
0.0
  9
$PLIMMIN
 10
-0.25
 20
-0.25
  9
$PLIMMAX
 10
10.75
 20
8.25
  9
$UNITMODE
 70
     0
  9
$VISRETAIN
 70
     0
  9
$PLINEGEN
 70
     0
  9
$PSLTSCALE
 70
     1
  9
$TREEDEPTH
 70
  3020
  9
$PICKSTYLE
 70
     1
  9
$CMLSTYLE
  2
STANDARD
  9
$CMLJUST
 70
     0
  9
$CMLSCALE
 40
1.0
  9
$PROXYGRAPHICS
 70
     1
  9
$MEASUREMENT
 70
     0
  0
ENDSEC
  0
SECTION
  2
CLASSES
  0
CLASS
  1
DICTIONARYVAR
  2
AcDbDictionaryVar
  3
"AutoCAD"
 90
        0
280
     0
281
     0
  0
CLASS
  1
ACDBDICTIONARYWDFLT
  2
AcDbDictionaryWithDefault
  3
AutoCAD 2000
 90
        0
280
     0
281
     0
  0
CLASS
  1
ACDBPLACEHOLDER
  2
AcDbPlaceHolder
  3
AutoCAD 2000
 90
        0
280
     0
281
     0
  0
CLASS
  1
LAYOUT
  2
AcDbLayout
  3
AutoCAD 2000
 90
        0
280
     0
281
     0
  0
CLASS
  1
LONG_TRANSACTION
  2
AcDbLongTransaction
  3
AutoCAD 2000
 90
        0
280
     0
281
     0
  0
CLASS
  1
LWPOLYLINE
  2
AcDbPolyline
  3
"AutoCAD"
 90
        0
280
     0
281
     1
  0
CLASS
  1
HATCH
  2
AcDbHatch
  3
"ACAD_SEDONA"
 90
        0
280
     0
281
     1
  0
CLASS
  1
XRECORD
  2
AcDbXrecord
  3
"<Built In>"
 90
        0
280
     0
281
     0
  0
CLASS
  1
LONG_TRANSACTION
  2
AcDbLongTransaction
  3
AutoCAD 2000
 90
        0
280
     0
281
     0
  0
CLASS
  1
LWPOLYLINE
  2
AcDbPolyline
  3
"AutoCAD"
 90
        0
280
     0
281
     1
  0
CLASS
  1
HATCH
  2
AcDbHatch
  3
"ACAD_SEDONA"
 90
        0
280
     0
281
     1
  0
CLASS
  1
XRECORD
  2
AcDbXrecord
  3
"<Built In>"
 90
        0
280
     0
281
     0
  0
CLASS
  1
LONG_TRANSACTION
  2
AcDbLongTransaction
  3
AutoCAD 2000
 90
        0
280
     0
281
     0
  0
CLASS
  1
LWPOLYLINE
  2
AcDbPolyline
  3
"AutoCAD"
 90
        0
280
     0
281
     1
  0
CLASS
  1
HATCH
  2
AcDbHatch
  3
"ACAD_SEDONA"
 90
        0
280
     0
281
     1
  0
CLASS
  1
XRECORD
  2
AcDbXrecord
  3
"<Built In>"
 90
        0
280
     0
281
     0
  0
CLASS
  1
LONG_TRANSACTION
  2
AcDbLongTransaction
  3
AutoCAD 2000
 90
        0
280
     0
281
     0
  0
CLASS
  1
LWPOLYLINE
  2
AcDbPolyline
  3
"AutoCAD"
 90
        0
280
     0
281
     1
  0
CLASS
  1
HATCH
  2
AcDbHatch
  3
"ACAD_SEDONA"
 90
        0
280
     0
281
     1
  0
CLASS
  1
XRECORD
  2
AcDbXrecord
  3
"<Built In>"
 90
        0
280
     0
281
     0
  0
CLASS
  1
LONG_TRANSACTION
  2
AcDbLongTransaction
  3
AutoCAD 2000
 90
        0
280
     0
281
     0
  0
CLASS
  1
LWPOLYLINE
  2
AcDbPolyline
  3
"AutoCAD"
 90
        0
280
     0
281
     1
  0
CLASS
  1
HATCH
  2
AcDbHatch
  3
"ACAD_SEDONA"
 90
        0
280
     0
281
     1
  0
CLASS
  1
XRECORD
  2
AcDbXrecord
  3
"<Built In>"
 90
        0
280
     0
281
     0
  0
CLASS
  1
LONG_TRANSACTION
  2
AcDbLongTransaction
  3
AutoCAD 2000
 90
        0
280
     0
281
     0
  0
CLASS
  1
LWPOLYLINE
  2
AcDbPolyline
  3
"AutoCAD"
 90
        0
280
     0
281
     1
  0
CLASS
  1
HATCH
  2
AcDbHatch
  3
"ACAD_SEDONA"
 90
        0
280
     0
281
     1
  0
CLASS
  1
XRECORD
  2
AcDbXrecord
  3
"<Built In>"
 90
        0
280
     0
281
     0
  0
CLASS
  1
LONG_TRANSACTION
  2
AcDbLongTransaction
  3
AutoCAD 2000
 90
        0
280
     0
281
     0
  0
CLASS
  1
LWPOLYLINE
  2
AcDbPolyline
  3
"AutoCAD"
 90
        0
280
     0
281
     1
  0
CLASS
  1
HATCH
  2
AcDbHatch
  3
"ACAD_SEDONA"
 90
        0
280
     0
281
     1
  0
CLASS
  1
XRECORD
  2
AcDbXrecord
  3
"<Built In>"
 90
        0
280
     0
281
     0
  0
CLASS
  1
LONG_TRANSACTION
  2
AcDbLongTransaction
  3
AutoCAD 2000
 90
        0
280
     0
281
     0
  0
CLASS
  1
LWPOLYLINE
  2
AcDbPolyline
  3
"AutoCAD"
 90
        0
280
     0
281
     1
  0
CLASS
  1
HATCH
  2
AcDbHatch
  3
"ACAD_SEDONA"
 90
        0
280
     0
281
     1
  0
CLASS
  1
XRECORD
  2
AcDbXrecord
  3
"<Built In>"
 90
        0
280
     0
281
     0
  0
CLASS
  1
LONG_TRANSACTION
  2
AcDbLongTransaction
  3
AutoCAD 2000
 90
        0
280
     0
281
     0
  0
CLASS
  1
LWPOLYLINE
  2
AcDbPolyline
  3
"AutoCAD"
 90
        0
280
     0
281
     1
  0
CLASS
  1
HATCH
  2
AcDbHatch
  3
"ACAD_SEDONA"
 90
        0
280
     0
281
     1
  0
CLASS
  1
XRECORD
  2
AcDbXrecord
  3
"<Built In>"
 90
        0
280
     0
281
     0
  0
CLASS
  1
LONG_TRANSACTION
  2
AcDbLongTransaction
  3
AutoCAD 2000
 90
        0
280
     0
281
     0
  0
CLASS
  1
LWPOLYLINE
  2
AcDbPolyline
  3
"AutoCAD"
 90
        0
280
     0
281
     1
  0
CLASS
  1
HATCH
  2
AcDbHatch
  3
"ACAD_SEDONA"
 90
        0
280
     0
281
     1
  0
CLASS
  1
XRECORD
  2
AcDbXrecord
  3
"<Built In>"
 90
        0
280
     0
281
     0
  0
CLASS
  1
LONG_TRANSACTION
  2
AcDbLongTransaction
  3
AutoCAD 2000
 90
        0
280
     0
281
     0
  0
CLASS
  1
LWPOLYLINE
  2
AcDbPolyline
  3
"AutoCAD"
 90
        0
280
     0
281
     1
  0
CLASS
  1
HATCH
  2
AcDbHatch
  3
"ACAD_SEDONA"
 90
        0
280
     0
281
     1
  0
CLASS
  1
XRECORD
  2
AcDbXrecord
  3
"<Built In>"
 90
        0
280
     0
281
     0
  0
CLASS
  1
LONG_TRANSACTION
  2
AcDbLongTransaction
  3
AutoCAD 2000
 90
        0
280
     0
281
     0
  0
CLASS
  1
LWPOLYLINE
  2
AcDbPolyline
  3
"AutoCAD"
 90
        0
280
     0
281
     1
  0
CLASS
  1
HATCH
  2
AcDbHatch
  3
"ACAD_SEDONA"
 90
        0
280
     0
281
     1
  0
CLASS
  1
XRECORD
  2
AcDbXrecord
  3
"<Built In>"
 90
        0
280
     0
281
     0
  0
CLASS
  1
LONG_TRANSACTION
  2
AcDbLongTransaction
  3
AutoCAD 2000
 90
        0
280
     0
281
     0
  0
CLASS
  1
LWPOLYLINE
  2
AcDbPolyline
  3
"AutoCAD"
 90
        0
280
     0
281
     1
  0
CLASS
  1
HATCH
  2
AcDbHatch
  3
"ACAD_SEDONA"
 90
        0
280
     0
281
     1
  0
CLASS
  1
XRECORD
  2
AcDbXrecord
  3
"<Built In>"
 90
        0
280
     0
281
     0
  0
CLASS
  1
LONG_TRANSACTION
  2
AcDbLongTransaction
  3
AutoCAD 2000
 90
        0
280
     0
281
     0
  0
CLASS
  1
LWPOLYLINE
  2
AcDbPolyline
  3
"AutoCAD"
 90
        0
280
     0
281
     1
  0
CLASS
  1
HATCH
  2
AcDbHatch
  3
"ACAD_SEDONA"
 90
        0
280
     0
281
     1
  0
CLASS
  1
XRECORD
  2
AcDbXrecord
  3
"<Built In>"
 90
        0
280
     0
281
     0
  0
CLASS
  1
LONG_TRANSACTION
  2
AcDbLongTransaction
  3
AutoCAD 2000
 90
        0
280
     0
281
     0
  0
CLASS
  1
LWPOLYLINE
  2
AcDbPolyline
  3
"AutoCAD"
 90
        0
280
     0
281
     1
  0
CLASS
  1
HATCH
  2
AcDbHatch
  3
"ACAD_SEDONA"
 90
        0
280
     0
281
     1
  0
CLASS
  1
XRECORD
  2
AcDbXrecord
  3
"<Built In>"
 90
        0
280
     0
281
     0
  0
CLASS
  1
LONG_TRANSACTION
  2
AcDbLongTransaction
  3
AutoCAD 2000
 90
        0
280
     0
281
     0
  0
CLASS
  1
LWPOLYLINE
  2
AcDbPolyline
  3
"AutoCAD"
 90
        0
280
     0
281
     1
  0
CLASS
  1
HATCH
  2
AcDbHatch
  3
"ACAD_SEDONA"
 90
        0
280
     0
281
     1
  0
CLASS
  1
XRECORD
  2
AcDbXrecord
  3
"<Built In>"
 90
        0
280
     0
281
     0
  0
CLASS
  1
LONG_TRANSACTION
  2
AcDbLongTransaction
  3
AutoCAD 2000
 90
        0
280
     0
281
     0
  0
CLASS
  1
LWPOLYLINE
  2
AcDbPolyline
  3
"AutoCAD"
 90
        0
280
     0
281
     1
  0
CLASS
  1
HATCH
  2
AcDbHatch
  3
"ACAD_SEDONA"
 90
        0
280
     0
281
     1
  0
CLASS
  1
XRECORD
  2
AcDbXrecord
  3
"<Built In>"
 90
        0
280
     0
281
     0
  0
CLASS
  1
LONG_TRANSACTION
  2
AcDbLongTransaction
  3
AutoCAD 2000
 90
        0
280
     0
281
     0
  0
CLASS
  1
LWPOLYLINE
  2
AcDbPolyline
  3
"AutoCAD"
 90
        0
280
     0
281
     1
  0
CLASS
  1
HATCH
  2
AcDbHatch
  3
"ACAD_SEDONA"
 90
        0
280
     0
281
     1
  0
CLASS
  1
XRECORD
  2
AcDbXrecord
  3
"<Built In>"
 90
        0
280
     0
281
     0
  0
CLASS
  1
LONG_TRANSACTION
  2
AcDbLongTransaction
  3
AutoCAD 2000
 90
        0
280
     0
281
     0
  0
CLASS
  1
LWPOLYLINE
  2
AcDbPolyline
  3
"AutoCAD"
 90
        0
280
     0
281
     1
  0
CLASS
  1
HATCH
  2
AcDbHatch
  3
"ACAD_SEDONA"
 90
        0
280
     0
281
     1
  0
CLASS
  1
XRECORD
  2
AcDbXrecord
  3
"<Built In>"
 90
        0
280
     0
281
     0
  0
CLASS
  1
LONG_TRANSACTION
  2
AcDbLongTransaction
  3
AutoCAD 2000
 90
        0
280
     0
281
     0
  0
CLASS
  1
LWPOLYLINE
  2
AcDbPolyline
  3
"AutoCAD"
 90
        0
280
     0
281
     1
  0
CLASS
  1
HATCH
  2
AcDbHatch
  3
"ACAD_SEDONA"
 90
        0
280
     0
281
     1
  0
CLASS
  1
XRECORD
  2
AcDbXrecord
  3
"<Built In>"
 90
        0
280
     0
281
     0
  0
CLASS
  1
LONG_TRANSACTION
  2
AcDbLongTransaction
  3
AutoCAD 2000
 90
        0
280
     0
281
     0
  0
CLASS
  1
LWPOLYLINE
  2
AcDbPolyline
  3
"AutoCAD"
 90
        0
280
     0
281
     1
  0
CLASS
  1
HATCH
  2
AcDbHatch
  3
"ACAD_SEDONA"
 90
        0
280
     0
281
     1
  0
CLASS
  1
XRECORD
  2
AcDbXrecord
  3
"<Built In>"
 90
        0
280
     0
281
     0
  0
CLASS
  1
LONG_TRANSACTION
  2
AcDbLongTransaction
  3
AutoCAD 2000
 90
        0
280
     0
281
     0
  0
CLASS
  1
LWPOLYLINE
  2
AcDbPolyline
  3
"AutoCAD"
 90
        0
280
     0
281
     1
  0
CLASS
  1
HATCH
  2
AcDbHatch
  3
"ACAD_SEDONA"
 90
        0
280
     0
281
     1
  0
CLASS
  1
XRECORD
  2
AcDbXrecord
  3
"<Built In>"
 90
        0
280
     0
281
     0
  0
CLASS
  1
LONG_TRANSACTION
  2
AcDbLongTransaction
  3
AutoCAD 2000
 90
        0
280
     0
281
     0
  0
CLASS
  1
LWPOLYLINE
  2
AcDbPolyline
  3
"AutoCAD"
 90
        0
280
     0
281
     1
  0
CLASS
  1
HATCH
  2
AcDbHatch
  3
"ACAD_SEDONA"
 90
        0
280
     0
281
     1
  0
CLASS
  1
XRECORD
  2
AcDbXrecord
  3
"<Built In>"
 90
        0
280
     0
281
     0
  0
CLASS
  1
LONG_TRANSACTION
  2
AcDbLongTransaction
  3
AutoCAD 2000
 90
        0
280
     0
281
     0
  0
CLASS
  1
LWPOLYLINE
  2
AcDbPolyline
  3
"AutoCAD"
 90
        0
280
     0
281
     1
  0
CLASS
  1
HATCH
  2
AcDbHatch
  3
"ACAD_SEDONA"
 90
        0
280
     0
281
     1
  0
CLASS
  1
XRECORD
  2
AcDbXrecord
  3
"<Built In>"
 90
        0
280
     0
281
     0
  0
CLASS
  1
LONG_TRANSACTION
  2
AcDbLongTransaction
  3
AutoCAD 2000
 90
        0
280
     0
281
     0
  0
CLASS
  1
LWPOLYLINE
  2
AcDbPolyline
  3
"AutoCAD"
 90
        0
280
     0
281
     1
  0
CLASS
  1
HATCH
  2
AcDbHatch
  3
"ACAD_SEDONA"
 90
        0
280
     0
281
     1
  0
CLASS
  1
XRECORD
  2
AcDbXrecord
  3
"<Built In>"
 90
        0
280
     0
281
     0
  0
CLASS
  1
LONG_TRANSACTION
  2
AcDbLongTransaction
  3
AutoCAD 2000
 90
        0
280
     0
281
     0
  0
CLASS
  1
LWPOLYLINE
  2
AcDbPolyline
  3
"AutoCAD"
 90
        0
280
     0
281
     1
  0
CLASS
  1
HATCH
  2
AcDbHatch
  3
"ACAD_SEDONA"
 90
        0
280
     0
281
     1
  0
CLASS
  1
XRECORD
  2
AcDbXrecord
  3
"<Built In>"
 90
        0
280
     0
281
     0
  0
CLASS
  1
LONG_TRANSACTION
  2
AcDbLongTransaction
  3
AutoCAD 2000
 90
        0
280
     0
281
     0
  0
CLASS
  1
LWPOLYLINE
  2
AcDbPolyline
  3
"AutoCAD"
 90
        0
280
     0
281
     1
  0
CLASS
  1
HATCH
  2
AcDbHatch
  3
"ACAD_SEDONA"
 90
        0
280
     0
281
     1
  0
CLASS
  1
XRECORD
  2
AcDbXrecord
  3
"<Built In>"
 90
        0
280
     0
281
     0
  0
CLASS
  1
LONG_TRANSACTION
  2
AcDbLongTransaction
  3
AutoCAD 2000
 90
        0
280
     0
281
     0
  0
CLASS
  1
LWPOLYLINE
  2
AcDbPolyline
  3
"AutoCAD"
 90
        0
280
     0
281
     1
  0
CLASS
  1
HATCH
  2
AcDbHatch
  3
"ACAD_SEDONA"
 90
        0
280
     0
281
     1
  0
CLASS
  1
XRECORD
  2
AcDbXrecord
  3
"<Built In>"
 90
        0
280
     0
281
     0
  0
CLASS
  1
LONG_TRANSACTION
  2
AcDbLongTransaction
  3
AutoCAD 2000
 90
        0
280
     0
281
     0
  0
CLASS
  1
LWPOLYLINE
  2
AcDbPolyline
  3
"AutoCAD"
 90
        0
280
     0
281
     1
  0
CLASS
  1
HATCH
  2
AcDbHatch
  3
"ACAD_SEDONA"
 90
        0
280
     0
281
     1
  0
CLASS
  1
XRECORD
  2
AcDbXrecord
  3
"<Built In>"
 90
        0
280
     0
281
     0
  0
CLASS
  1
LONG_TRANSACTION
  2
AcDbLongTransaction
  3
AutoCAD 2000
 90
        0
280
     0
281
     0
  0
CLASS
  1
LWPOLYLINE
  2
AcDbPolyline
  3
"AutoCAD"
 90
        0
280
     0
281
     1
  0
CLASS
  1
HATCH
  2
AcDbHatch
  3
"ACAD_SEDONA"
 90
        0
280
     0
281
     1
  0
CLASS
  1
XRECORD
  2
AcDbXrecord
  3
"<Built In>"
 90
        0
280
     0
281
     0
  0
CLASS
  1
LONG_TRANSACTION
  2
AcDbLongTransaction
  3
AutoCAD 2000
 90
        0
280
     0
281
     0
  0
CLASS
  1
LWPOLYLINE
  2
AcDbPolyline
  3
"AutoCAD"
 90
        0
280
     0
281
     1
  0
CLASS
  1
HATCH
  2
AcDbHatch
  3
"ACAD_SEDONA"
 90
        0
280
     0
281
     1
  0
CLASS
  1
XRECORD
  2
AcDbXrecord
  3
"<Built In>"
 90
        0
280
     0
281
     0
  0
CLASS
  1
LONG_TRANSACTION
  2
AcDbLongTransaction
  3
AutoCAD 2000
 90
        0
280
     0
281
     0
  0
CLASS
  1
LWPOLYLINE
  2
AcDbPolyline
  3
"AutoCAD"
 90
        0
280
     0
281
     1
  0
CLASS
  1
HATCH
  2
AcDbHatch
  3
"ACAD_SEDONA"
 90
        0
280
     0
281
     1
  0
CLASS
  1
XRECORD
  2
AcDbXrecord
  3
"<Built In>"
 90
        0
280
     0
281
     0
  0
CLASS
  1
LONG_TRANSACTION
  2
AcDbLongTransaction
  3
AutoCAD 2000
 90
        0
280
     0
281
     0
  0
CLASS
  1
LWPOLYLINE
  2
AcDbPolyline
  3
"AutoCAD"
 90
        0
280
     0
281
     1
  0
CLASS
  1
HATCH
  2
AcDbHatch
  3
"ACAD_SEDONA"
 90
        0
280
     0
281
     1
  0
CLASS
  1
XRECORD
  2
AcDbXrecord
  3
"<Built In>"
 90
        0
280
     0
281
     0
  0
CLASS
  1
LONG_TRANSACTION
  2
AcDbLongTransaction
  3
AutoCAD 2000
 90
        0
280
     0
281
     0
  0
CLASS
  1
LWPOLYLINE
  2
AcDbPolyline
  3
"AutoCAD"
 90
        0
280
     0
281
     1
  0
CLASS
  1
HATCH
  2
AcDbHatch
  3
"ACAD_SEDONA"
 90
        0
280
     0
281
     1
  0
CLASS
  1
XRECORD
  2
AcDbXrecord
  3
"<Built In>"
 90
        0
280
     0
281
     0
  0
ENDSEC
  0
SECTION
  2
TABLES
  0
TABLE
  2
VPORT
  5
458C7
100
AcDbSymbolTable
 70
     1
  0
VPORT
  5
9DE65
102
{ACAD_XDICTIONARY
360
9DE68
102
}
100
AcDbSymbolTableRecord
100
AcDbViewportTableRecord
  2
*ACTIVE
 70
     0
 10
0.0
 20
0.0
 11
1.0
 21
1.0
 12
4.43813
 22
-3.59847
 13
0.0
 23
0.0
 14
0.25
 24
0.25
 15
0.25
 25
0.25
 16
0.0
 26
0.0
 36
1.0
 17
0.761827
 27
-1.923188
 37
4.043999
 40
16.820094
 41
1.960674
 42
50.0
 43
0.0
 44
0.0
 50
0.0
 51
0.0
 71
     0
 72
 20000
 73
     1
 74
     1
 75
     0
 76
     0
 77
     0
 78
     0
  0
ENDTAB
  0
TABLE
  2
LTYPE
  5
458C4
100
AcDbSymbolTable
 70
     1
  0
LTYPE
  5
458D0
100
AcDbSymbolTableRecord
100
AcDbLinetypeTableRecord
  2
BYBLOCK
 70
     0
  3

 72
    65
 73
     0
 40
0.0
  0
LTYPE
  5
458D1
100
AcDbSymbolTableRecord
100
AcDbLinetypeTableRecord
  2
BYLAYER
 70
     0
  3

 72
    65
 73
     0
 40
0.0
  0
LTYPE
  5
458D2
100
AcDbSymbolTableRecord
100
AcDbLinetypeTableRecord
  2
CONTINUOUS
 70
     0
  3
Solid line
 72
    65
 73
     0
 40
0.0
  0
ENDTAB
  0
TABLE
  2
LAYER
  5
458C1
100
AcDbSymbolTable
 70
     7
  0
LAYER
  5
458CD
100
AcDbSymbolTableRecord
100
AcDbLayerTableRecord
  2
0
 70
     0
 62
     7
  6
CONTINUOUS
  0
LAYER
  5
458EA
100
AcDbSymbolTableRecord
100
AcDbLayerTableRecord
  2
DIMS-MTG-HOLES
 70
     0
 62
     1
  6
CONTINUOUS
  0
LAYER
  5
458EB
100
AcDbSymbolTableRecord
100
AcDbLayerTableRecord
  2
ATTRIBUTES
 70
     0
 62
     7
  6
CONTINUOUS
  0
LAYER
  5
4593B
102
{ACAD_XDICTIONARY
360
9DE91
102
}
100
AcDbSymbolTableRecord
100
AcDbLayerTableRecord
  2
AREA1
 70
     0
 62
    -7
  6
CONTINUOUS
  0
LAYER
  5
45940
102
{ACAD_XDICTIONARY
360
9DE66
102
}
100
AcDbSymbolTableRecord
100
AcDbLayerTableRecord
  2
DEFPOINTS
 70
     0
 62
    -7
  6
CONTINUOUS
  0
LAYER
  5
45954
100
AcDbSymbolTableRecord
100
AcDbLayerTableRecord
  2
SCALE
 70
     0
 62
    -7
  6
CONTINUOUS
  0
LAYER
  5
4D59A
100
AcDbSymbolTableRecord
100
AcDbLayerTableRecord
  2
SNAP_POINTS
 70
     0
 62
    -1
  6
CONTINUOUS
  0
ENDTAB
  0
TABLE
  2
STYLE
  5
458C2
100
AcDbSymbolTable
 70
     1
  0
STYLE
  5
458CE
100
AcDbSymbolTableRecord
100
AcDbTextStyleTableRecord
  2
STANDARD
 70
     0
 40
0.0
 41
1.0
 50
0.0
 71
     0
 42
0.12
  3
txt
  4

  0
ENDTAB
  0
TABLE
  2
VIEW
  5
458C5
100
AcDbSymbolTable
 70
     0
  0
ENDTAB
  0
TABLE
  2
UCS
  5
458C6
100
AcDbSymbolTable
 70
     0
  0
ENDTAB
  0
TABLE
  2
APPID
  5
458C8
100
AcDbSymbolTable
 70
     2
  0
APPID
  5
458CF
100
AcDbSymbolTableRecord
100
AcDbRegAppTableRecord
  2
ACAD
 70
     0
  0
APPID
  5
5FD5B
100
AcDbSymbolTableRecord
100
AcDbRegAppTableRecord
  2
AVE_RENDER
 70
     0
  0
ENDTAB
  0
TABLE
  2
DIMSTYLE
  5
458C9
100
AcDbSymbolTable
 70
     1
  0
DIMSTYLE
105
458F6
102
{ACAD_XDICTIONARY
360
9DE8D
102
}
102
{ACAD_REACTORS
330
9DDFA
330
9DE08
102
}
100
AcDbSymbolTableRecord
100
AcDbDimStyleTableRecord
  2
ABECAD_3D
 70
     0
  3

  4

  5

  6

  7

 40
1.0
 41
0.5
 42
0.1
 43
0.375
 44
0.1
 45
0.0
 46
0.0
 47
0.0
 48
0.0
140
0.5
141
0.09
142
0.0
143
25.4
144
1.0
145
0.0
146
1.5
147
0.09
 71
     0
 72
     0
 73
     0
 74
     1
 75
     0
 76
     0
 77
     0
 78
     4
170
     1
171
     2
172
     0
173
     0
174
     0
175
     0
176
     0
177
     0
178
     0
270
     7
271
     6
272
     6
273
     2
274
     2
340
458CE
275
     0
280
     0
281
     0
282
     0
283
     1
284
     4
285
     4
286
     4
287
     5
288
     1
  0
ENDTAB
  0
TABLE
  2
BLOCK_RECORD
  5
458C0
100
AcDbSymbolTable
 70
     2
  0
BLOCK_RECORD
  5
458D6
102
{ACAD_XDICTIONARY
360
4592C
102
}
100
AcDbSymbolTableRecord
100
AcDbBlockTableRecord
  2
*MODEL_SPACE
  0
BLOCK_RECORD
  5
458D3
102
{ACAD_XDICTIONARY
360
4592A
102
}
100
AcDbSymbolTableRecord
100
AcDbBlockTableRecord
  2
*PAPER_SPACE
  0
BLOCK_RECORD
  5
9DDFB
100
AcDbSymbolTableRecord
100
AcDbBlockTableRecord
  2
*D0
  0
BLOCK_RECORD
  5
9DE09
100
AcDbSymbolTableRecord
100
AcDbBlockTableRecord
  2
*D1
  0
ENDTAB
  0
ENDSEC
  0
SECTION
  2
BLOCKS
  0
BLOCK
  5
458DF
100
AcDbEntity
  8
0
100
AcDbBlockBegin
  2
*MODEL_SPACE
 70
     0
 10
0.0
 20
0.0
 30
0.0
  3
*MODEL_SPACE
  1

  0
ENDBLK
  5
458E0
100
AcDbEntity
  8
0
100
AcDbBlockEnd
  0
BLOCK
  5
458DD
100
AcDbEntity
 67
     1
  8
0
100
AcDbBlockBegin
  2
*PAPER_SPACE
 70
     0
 10
0.0
 20
0.0
 30
0.0
  3
*PAPER_SPACE
  1

  0
ENDBLK
  5
458DE
100
AcDbEntity
 67
     1
  8
0
100
AcDbBlockEnd
  0
BLOCK
  5
9DE06
100
AcDbEntity
  8
0
100
AcDbBlockBegin
  2
*D0
 70
     1
 10
0.0
 20
0.0
 30
0.0
  3
*D0
  1

  0
LINE
  5
9DDFC
100
AcDbEntity
  8
AREA1
 62
     0
100
AcDbLine
 10
0.551
 20
0.568
 30
0.0
 11
-3.761086
 21
0.568
 31
0.0
1001
ACAD
1000
RTLwPs
1070
   158
  0
LINE
  5
9DDFD
100
AcDbEntity
  8
AREA1
 62
     0
100
AcDbLine
 10
0.556
 20
-13.792
 30
0.0
 11
-3.761086
 21
-13.792
 31
0.0
1001
ACAD
1000
RTLwPs
1070
   158
  0
LINE
  5
9DDFE
100
AcDbEntity
  8
AREA1
 62
     0
100
AcDbLine
 10
-3.661086
 20
0.068
 30
0.0
 11
-3.661086
 21
-2.678725
 31
0.0
1001
ACAD
1000
RTLwPs
1070
   158
  0
LINE
  5
9DDFF
100
AcDbEntity
  8
AREA1
 62
     0
100
AcDbLine
 10
-3.661086
 20
-13.292
 30
0.0
 11
-3.661086
 21
-10.358725
 31
0.0
1001
ACAD
1000
RTLwPs
1070
   158
  0
MTEXT
  5
9DE00
100
AcDbEntity
  8
AREA1
 62
     0
100
AcDbMText
 10
-3.661086
 20
-6.518725
 30
0.0
 40
0.5
 41
0.0
 71
     5
 72
     1
  1
\A1;14 23/64 [364.74]
 11
0.0
 21
1.0
 31
0.0
1001
ACAD
1000
MTEXTBEGIN
1070
    73
1070
     1
1070
    44
1040
1.0
1070
    74
1070
     0
1000
MTEXTEND
1000
MTEXTBEGIN
1070
    73
1070
     1
1070
    44
1040
1.0
1070
    74
1070
     0
1000
MTEXTEND
  0
SOLID
  5
9DE01
100
AcDbEntity
  8
AREA1
 62
     0
100
AcDbTrace
 10
-3.744419
 20
0.068
 30
0.0
 11
-3.577752
 21
0.068
 31
0.0
 12
-3.661086
 22
0.568
 32
0.0
 13
-3.661086
 23
0.568
 33
0.0
  0
SOLID
  5
9DE02
100
AcDbEntity
  8
AREA1
 62
     0
100
AcDbTrace
 10
-3.744419
 20
-13.292
 30
0.0
 11
-3.577752
 21
-13.292
 31
0.0
 12
-3.661086
 22
-13.792
 32
0.0
 13
-3.661086
 23
-13.792
 33
0.0
  0
POINT
  5
9DE03
100
AcDbEntity
  8
DEFPOINTS
 62
     0
100
AcDbPoint
 10
0.651
 20
0.568
 30
0.265
  0
POINT
  5
9DE04
100
AcDbEntity
  8
DEFPOINTS
 62
     0
100
AcDbPoint
 10
0.656
 20
-13.792
 30
3.385
  0
POINT
  5
9DE05
100
AcDbEntity
  8
DEFPOINTS
 62
     0
100
AcDbPoint
 10
-3.661086
 20
-13.792
 30
0.0
  0
ENDBLK
  5
9DE07
100
AcDbEntity
  8
0
100
AcDbBlockEnd
  0
BLOCK
  5
9DE14
100
AcDbEntity
  8
0
100
AcDbBlockBegin
  2
*D1
 70
     1
 10
0.0
 20
0.0
 30
0.0
  3
*D1
  1

  0
LINE
  5
9DE0A
100
AcDbEntity
  8
AREA1
 62
     0
100
AcDbLine
 10
-1.40625
 20
0.114047
 30
0.0
 11
-1.40625
 21
2.597823
 31
0.0
1001
ACAD
1000
RTLwPs
1070
   158
  0
LINE
  5
9DE0B
100
AcDbEntity
  8
AREA1
 62
     0
100
AcDbLine
 10
14.311001
 20
0.6
 30
0.0
 11
14.311001
 21
2.597823
 31
0.0
1001
ACAD
1000
RTLwPs
1070
   158
  0
LINE
  5
9DE0C
100
AcDbEntity
  8
AREA1
 62
     0
100
AcDbLine
 10
-0.90625
 20
2.497823
 30
0.0
 11
2.767967
 21
2.497823
 31
0.0
1001
ACAD
1000
RTLwPs
1070
   158
  0
LINE
  5
9DE0D
100
AcDbEntity
  8
AREA1
 62
     0
100
AcDbLine
 10
13.811001
 20
2.497823
 30
0.0
 11
10.447967
 21
2.497823
 31
0.0
1001
ACAD
1000
RTLwPs
1070
   158
  0
MTEXT
  5
9DE0E
100
AcDbEntity
  8
AREA1
 62
     0
100
AcDbMText
 10
6.607967
 20
2.497823
 30
0.0
 40
0.5
 41
0.0
 71
     5
 72
     1
  1
\A1;15 23/32 [399.22]
1001
ACAD
1000
MTEXTBEGIN
1070
    73
1070
     1
1070
    44
1040
1.0
1070
    74
1070
     0
1000
MTEXTEND
1000
MTEXTBEGIN
1070
    73
1070
     1
1070
    44
1040
1.0
1070
    74
1070
     0
1000
MTEXTEND
  0
SOLID
  5
9DE0F
100
AcDbEntity
  8
AREA1
 62
     0
100
AcDbTrace
 10
-0.90625
 20
2.581156
 30
0.0
 11
-0.90625
 21
2.41449
 31
0.0
 12
-1.40625
 22
2.497823
 32
0.0
 13
-1.40625
 23
2.497823
 33
0.0
  0
SOLID
  5
9DE10
100
AcDbEntity
  8
AREA1
 62
     0
100
AcDbTrace
 10
13.811001
 20
2.581156
 30
0.0
 11
13.811001
 21
2.41449
 31
0.0
 12
14.311001
 22
2.497823
 32
0.0
 13
14.311001
 23
2.497823
 33
0.0
  0
POINT
  5
9DE11
100
AcDbEntity
  8
DEFPOINTS
 62
     0
100
AcDbPoint
 10
-1.40625
 20
0.014047
 30
6.385
  0
POINT
  5
9DE12
100
AcDbEntity
  8
DEFPOINTS
 62
     0
100
AcDbPoint
 10
14.311001
 20
0.5
 30
0.0
  0
POINT
  5
9DE13
100
AcDbEntity
  8
DEFPOINTS
 62
     0
100
AcDbPoint
 10
14.311001
 20
2.497823
 30
0.0
  0
ENDBLK
  5
9DE15
100
AcDbEntity
  8
0
100
AcDbBlockEnd
  0
ENDSEC
  0
SECTION
  2
ENTITIES
  0
CIRCLE
  5
9D884
100
AcDbEntity
  8
0
100
AcDbCircle
 10
6.45825
 20
-0.545953
 30
7.885
 40
0.3125
  0
CIRCLE
  5
9D885
100
AcDbEntity
  8
0
100
AcDbCircle
 10
6.45825
 20
-0.545953
 30
7.885
 40
0.375
  0
LINE
  5
9D886
100
AcDbEntity
  8
0
100
AcDbLine
 10
6.3601
 20
-0.715953
 30
7.885
 11
6.5564
 21
-0.715953
 31
7.885
  0
LINE
  5
9D887
100
AcDbEntity
  8
0
100
AcDbLine
 10
6.3601
 20
-0.715953
 30
7.885
 11
6.5564
 21
-0.715953
 31
7.885
  0
LINE
  5
9D888
100
AcDbEntity
  8
0
100
AcDbLine
 10
6.5564
 20
-0.375953
 30
7.885
 11
6.3601
 21
-0.375953
 31
7.885
  0
LINE
  5
9D889
100
AcDbEntity
  8
0
100
AcDbLine
 10
6.5564
 20
-0.375953
 30
7.885
 11
6.3601
 21
-0.375953
 31
7.885
  0
LINE
  5
9D88A
100
AcDbEntity
  8
0
100
AcDbLine
 10
-0.53
 20
-9.78
 30
0.0
 11
-0.53
 21
-9.78
 31
0.265
  0
ARC
  5
9D88B
100
AcDbEntity
  8
0
100
AcDbCircle
 10
0.0
 20
0.0
 30
0.265
 40
0.141
100
AcDbArc
 50
0.0
 51
179.999985
  0
ARC
  5
9D88C
100
AcDbEntity
  8
0
100
AcDbCircle
 10
0.0
 20
0.0
 30
0.0
 40
0.141
100
AcDbArc
 50
0.0
 51
179.999985
  0
LINE
  5
9D88D
100
AcDbEntity
  8
0
100
AcDbLine
 10
0.141
 20
0.0
 30
0.0
 11
0.141
 21
0.0
 31
0.265
  0
LINE
  5
9D88E
100
AcDbEntity
  8
0
100
AcDbLine
 10
0.141
 20
-0.198093
 30
0.0
 11
0.141
 21
-0.198093
 31
0.265
  0
ARC
  5
9D88F
100
AcDbEntity
  8
0
100
AcDbCircle
 10
0.0
 20
-0.44
 30
0.0
 40
0.28
100
AcDbArc
 50
120.236603
 51
59.763458
  0
LINE
  5
9D890
100
AcDbEntity
  8
0
100
AcDbLine
 10
-0.141
 20
0.0
 30
0.0
 11
-0.141
 21
-0.198093
 31
0.0
  0
LINE
  5
9D891
100
AcDbEntity
  8
0
100
AcDbLine
 10
0.141
 20
0.0
 30
0.0
 11
0.141
 21
-0.198093
 31
0.0
  0
ARC
  5
9D892
100
AcDbEntity
  8
0
100
AcDbCircle
 10
0.0
 20
-0.44
 30
0.265
 40
0.28
100
AcDbArc
 50
120.236603
 51
59.763458
  0
LINE
  5
9D893
100
AcDbEntity
  8
0
100
AcDbLine
 10
-0.141
 20
-0.198093
 30
0.265
 11
-0.141
 21
0.0
 31
0.265
  0
LINE
  5
9D894
100
AcDbEntity
  8
0
100
AcDbLine
 10
0.141
 20
0.0
 30
0.265
 11
0.141
 21
-0.198093
 31
0.265
  0
CIRCLE
  5
9D895
100
AcDbEntity
  8
0
100
AcDbCircle
 10
-0.90625
 20
-0.545953
 30
7.885
 40
0.375
  0
CIRCLE
  5
9D896
100
AcDbEntity
  8
0
100
AcDbCircle
 10
-0.90625
 20
-0.545953
 30
7.885
 40
0.3125
  0
LINE
  5
9D897
100
AcDbEntity
  8
0
100
AcDbLine
 10
6.3601
 20
-0.375953
 30
7.885
 11
6.261951
 21
-0.545953
 31
7.885
  0
LINE
  5
9D898
100
AcDbEntity
  8
0
100
AcDbLine
 10
6.3601
 20
-0.375953
 30
7.885
 11
6.261951
 21
-0.545953
 31
7.885
  0
LINE
  5
9D899
100
AcDbEntity
  8
0
100
AcDbLine
 10
6.261951
 20
-0.545953
 30
7.885
 11
6.3601
 21
-0.715953
 31
7.885
  0
LINE
  5
9D89A
100
AcDbEntity
  8
0
100
AcDbLine
 10
6.261951
 20
-0.545953
 30
7.885
 11
6.3601
 21
-0.715953
 31
7.885
  0
ARC
  5
9D89B
100
AcDbEntity
  8
0
100
AcDbCircle
 10
13.781
 20
0.0
 30
0.265
 40
0.141
100
AcDbArc
 50
0.0
 51
179.999985
  0
ARC
  5
9D89C
100
AcDbEntity
  8
0
100
AcDbCircle
 10
13.781
 20
0.0
 30
0.0
 40
0.141
100
AcDbArc
 50
0.0
 51
179.999985
  0
ARC
  5
9D89D
100
AcDbEntity
  8
0
100
AcDbCircle
 10
13.781
 20
-0.44
 30
0.0
 40
0.28
100
AcDbArc
 50
120.236549
 51
59.763489
  0
ARC
  5
9D89E
100
AcDbEntity
  8
0
100
AcDbCircle
 10
13.781
 20
-0.44
 30
0.265
 40
0.28
100
AcDbArc
 50
120.236549
 51
59.763489
  0
LINE
  5
9D89F
100
AcDbEntity
  8
0
100
AcDbLine
 10
13.64
 20
0.0
 30
0.0
 11
13.64
 21
0.0
 31
0.265
  0
LINE
  5
9D8A0
100
AcDbEntity
  8
0
100
AcDbLine
 10
13.64
 20
-0.198093
 30
0.0
 11
13.64
 21
-0.198093
 31
0.265
  0
LINE
  5
9D8A1
100
AcDbEntity
  8
0
100
AcDbLine
 10
13.64
 20
0.0
 30
0.0
 11
13.64
 21
-0.198093
 31
0.0
  0
LINE
  5
9D8A2
100
AcDbEntity
  8
0
100
AcDbLine
 10
13.64
 20
0.0
 30
0.265
 11
13.64
 21
-0.198093
 31
0.265
  0
LINE
  5
9D8A3
100
AcDbEntity
  8
0
100
AcDbLine
 10
13.922
 20
0.0
 30
0.0
 11
13.922
 21
0.0
 31
0.265
  0
LINE
  5
9D8A4
100
AcDbEntity
  8
0
100
AcDbLine
 10
13.922
 20
-0.198093
 30
0.0
 11
13.922
 21
-0.198093
 31
0.265
  0
LINE
  5
9D8A5
100
AcDbEntity
  8
0
100
AcDbLine
 10
13.922
 20
0.0
 30
0.0
 11
13.922
 21
-0.198093
 31
0.0
  0
LINE
  5
9D8A6
100
AcDbEntity
  8
0
100
AcDbLine
 10
13.922
 20
0.0
 30
0.265
 11
13.922
 21
-0.198093
 31
0.265
  0
LINE
  5
9D8A7
100
AcDbEntity
  8
0
100
AcDbLine
 10
6.654549
 20
-0.545953
 30
7.885
 11
6.5564
 21
-0.375953
 31
7.885
  0
LINE
  5
9D8A8
100
AcDbEntity
  8
0
100
AcDbLine
 10
6.654549
 20
-0.545953
 30
7.885
 11
6.5564
 21
-0.375953
 31
7.885
  0
LINE
  5
9D8A9
100
AcDbEntity
  8
0
100
AcDbLine
 10
6.5564
 20
-0.715953
 30
7.885
 11
6.654549
 21
-0.545953
 31
7.885
  0
LINE
  5
9D8AA
100
AcDbEntity
  8
0
100
AcDbLine
 10
6.5564
 20
-0.715953
 30
7.885
 11
6.654549
 21
-0.545953
 31
7.885
  0
POLYLINE
  5
9D8AB
100
AcDbEntity
  8
0
100
AcDbPolygonMesh
 66
     1
 10
0.0
 20
0.0
 30
0.0
 70
    16
 71
     6
 72
     3
  0
VERTEX
  5
9D8AC
100
AcDbEntity
  8
0
100
AcDbVertex
100
AcDbPolygonMeshVertex
 10
6.95825
 20
-5.562
 30
6.385
 70
    64
  0
VERTEX
  5
9D8AD
100
AcDbEntity
  8
0
100
AcDbVertex
100
AcDbPolygonMeshVertex
 10
6.95825
 20
-5.562
 30
1.325
 70
    64
  0
VERTEX
  5
9D8AE
100
AcDbEntity
  8
0
100
AcDbVertex
100
AcDbPolygonMeshVertex
 10
6.95825
 20
-5.562
 30
1.325
 70
    64
  0
VERTEX
  5
9D8AF
100
AcDbEntity
  8
0
100
AcDbVertex
100
AcDbPolygonMeshVertex
 10
5.776
 20
-5.562
 30
6.385
 70
    64
  0
VERTEX
  5
9D8B0
100
AcDbEntity
  8
0
100
AcDbVertex
100
AcDbPolygonMeshVertex
 10
5.776
 20
-5.562
 30
1.325
 70
    64
  0
VERTEX
  5
9D8B1
100
AcDbEntity
  8
0
100
AcDbVertex
100
AcDbPolygonMeshVertex
 10
5.776
 20
-5.562
 30
1.325
 70
    64
  0
VERTEX
  5
9D8B2
100
AcDbEntity
  8
0
100
AcDbVertex
100
AcDbPolygonMeshVertex
 10
5.776
 20
-1.132
 30
6.385
 70
    64
  0
VERTEX
  5
9D8B3
100
AcDbEntity
  8
0
100
AcDbVertex
100
AcDbPolygonMeshVertex
 10
5.776
 20
-1.132
 30
1.325
 70
    64
  0
VERTEX
  5
9D8B4
100
AcDbEntity
  8
0
100
AcDbVertex
100
AcDbPolygonMeshVertex
 10
5.776
 20
-5.562
 30
1.325
 70
    64
  0
VERTEX
  5
9D8B5
100
AcDbEntity
  8
0
100
AcDbVertex
100
AcDbPolygonMeshVertex
 10
6.95825
 20
-1.132
 30
6.385
 70
    64
  0
VERTEX
  5
9D8B6
100
AcDbEntity
  8
0
100
AcDbVertex
100
AcDbPolygonMeshVertex
 10
6.95825
 20
-1.132
 30
1.325
 70
    64
  0
VERTEX
  5
9D8B7
100
AcDbEntity
  8
0
100
AcDbVertex
100
AcDbPolygonMeshVertex
 10
6.95825
 20
-5.562
 30
1.325
 70
    64
  0
VERTEX
  5
9D8B8
100
AcDbEntity
  8
0
100
AcDbVertex
100
AcDbPolygonMeshVertex
 10
6.95825
 20
-1.132
 30
6.385
 70
    64
  0
VERTEX
  5
9D8B9
100
AcDbEntity
  8
0
100
AcDbVertex
100
AcDbPolygonMeshVertex
 10
6.95825
 20
-1.132
 30
6.385
 70
    64
  0
VERTEX
  5
9D8BA
100
AcDbEntity
  8
0
100
AcDbVertex
100
AcDbPolygonMeshVertex
 10
6.95825
 20
-5.562
 30
6.385
 70
    64
  0
VERTEX
  5
9D8BB
100
AcDbEntity
  8
0
100
AcDbVertex
100
AcDbPolygonMeshVertex
 10
5.776
 20
-1.132
 30
6.385
 70
    64
  0
VERTEX
  5
9D8BC
100
AcDbEntity
  8
0
100
AcDbVertex
100
AcDbPolygonMeshVertex
 10
5.776
 20
-1.132
 30
6.385
 70
    64
  0
VERTEX
  5
9D8BD
100
AcDbEntity
  8
0
100
AcDbVertex
100
AcDbPolygonMeshVertex
 10
5.776
 20
-5.562
 30
6.385
 70
    64
  0
SEQEND
  5
9D8BE
100
AcDbEntity
  8
0
  0
POLYLINE
  5
9D8BF
100
AcDbEntity
  8
0
100
AcDbPolygonMesh
 66
     1
 10
0.0
 20
0.0
 30
0.0
 70
    16
 71
     6
 72
     3
  0
VERTEX
  5
9D8C0
100
AcDbEntity
  8
0
100
AcDbVertex
100
AcDbPolygonMeshVertex
 10
-0.224
 20
-5.562
 30
6.385
 70
    64
  0
VERTEX
  5
9D8C1
100
AcDbEntity
  8
0
100
AcDbVertex
100
AcDbPolygonMeshVertex
 10
-0.224
 20
-5.562
 30
1.325
 70
    64
  0
VERTEX
  5
9D8C2
100
AcDbEntity
  8
0
100
AcDbVertex
100
AcDbPolygonMeshVertex
 10
-0.224
 20
-5.562
 30
1.325
 70
    64
  0
VERTEX
  5
9D8C3
100
AcDbEntity
  8
0
100
AcDbVertex
100
AcDbPolygonMeshVertex
 10
-1.40625
 20
-5.562
 30
6.385
 70
    64
  0
VERTEX
  5
9D8C4
100
AcDbEntity
  8
0
100
AcDbVertex
100
AcDbPolygonMeshVertex
 10
-1.40625
 20
-5.562
 30
1.325
 70
    64
  0
VERTEX
  5
9D8C5
100
AcDbEntity
  8
0
100
AcDbVertex
100
AcDbPolygonMeshVertex
 10
-1.40625
 20
-5.562
 30
1.325
 70
    64
  0
VERTEX
  5
9D8C6
100
AcDbEntity
  8
0
100
AcDbVertex
100
AcDbPolygonMeshVertex
 10
-1.40625
 20
-1.132
 30
6.385
 70
    64
  0
VERTEX
  5
9D8C7
100
AcDbEntity
  8
0
100
AcDbVertex
100
AcDbPolygonMeshVertex
 10
-1.40625
 20
-1.132
 30
1.325
 70
    64
  0
VERTEX
  5
9D8C8
100
AcDbEntity
  8
0
100
AcDbVertex
100
AcDbPolygonMeshVertex
 10
-1.40625
 20
-5.562
 30
1.325
 70
    64
  0
VERTEX
  5
9D8C9
100
AcDbEntity
  8
0
100
AcDbVertex
100
AcDbPolygonMeshVertex
 10
-0.224
 20
-1.132
 30
6.385
 70
    64
  0
VERTEX
  5
9D8CA
100
AcDbEntity
  8
0
100
AcDbVertex
100
AcDbPolygonMeshVertex
 10
-0.224
 20
-1.132
 30
1.325
 70
    64
  0
VERTEX
  5
9D8CB
100
AcDbEntity
  8
0
100
AcDbVertex
100
AcDbPolygonMeshVertex
 10
-0.224
 20
-5.562
 30
1.325
 70
    64
  0
VERTEX
  5
9D8CC
100
AcDbEntity
  8
0
100
AcDbVertex
100
AcDbPolygonMeshVertex
 10
-0.224
 20
-1.132
 30
6.385
 70
    64
  0
VERTEX
  5
9D8CD
100
AcDbEntity
  8
0
100
AcDbVertex
100
AcDbPolygonMeshVertex
 10
-0.224
 20
-1.132
 30
6.385
 70
    64
  0
VERTEX
  5
9D8CE
100
AcDbEntity
  8
0
100
AcDbVertex
100
AcDbPolygonMeshVertex
 10
-0.224
 20
-5.562
 30
6.385
 70
    64
  0
VERTEX
  5
9D8CF
100
AcDbEntity
  8
0
100
AcDbVertex
100
AcDbPolygonMeshVertex
 10
-1.40625
 20
-1.132
 30
6.385
 70
    64
  0
VERTEX
  5
9D8D0
100
AcDbEntity
  8
0
100
AcDbVertex
100
AcDbPolygonMeshVertex
 10
-1.40625
 20
-1.132
 30
6.385
 70
    64
  0
VERTEX
  5
9D8D1
100
AcDbEntity
  8
0
100
AcDbVertex
100
AcDbPolygonMeshVertex
 10
-1.40625
 20
-5.562
 30
6.385
 70
    64
  0
SEQEND
  5
9D8D2
100
AcDbEntity
  8
0
  0
POLYLINE
  5
9D8D3
100
AcDbEntity
  8
0
100
AcDbPolygonMesh
 66
     1
 10
0.0
 20
0.0
 30
0.0
 70
    16
 71
     6
 72
     3
  0
VERTEX
  5
9D8D4
100
AcDbEntity
  8
0
100
AcDbVertex
100
AcDbPolygonMeshVertex
 10
14.311001
 20
-10.16
 30
0.265
 70
    64
  0
VERTEX
  5
9D8D5
100
AcDbEntity
  8
0
100
AcDbVertex
100
AcDbPolygonMeshVertex
 10
14.311001
 20
-10.16
 30
0.0
 70
    64
  0
VERTEX
  5
9D8D6
100
AcDbEntity
  8
0
100
AcDbVertex
100
AcDbPolygonMeshVertex
 10
14.311001
 20
-10.16
 30
0.0
 70
    64
  0
VERTEX
  5
9D8D7
100
AcDbEntity
  8
0
100
AcDbVertex
100
AcDbPolygonMeshVertex
 10
-0.53
 20
-10.16
 30
0.265
 70
    64
  0
VERTEX
  5
9D8D8
100
AcDbEntity
  8
0
100
AcDbVertex
100
AcDbPolygonMeshVertex
 10
-0.53
 20
-10.16
 30
0.0
 70
    64
  0
VERTEX
  5
9D8D9
100
AcDbEntity
  8
0
100
AcDbVertex
100
AcDbPolygonMeshVertex
 10
-0.53
 20
-10.16
 30
0.0
 70
    64
  0
VERTEX
  5
9D8DA
100
AcDbEntity
  8
0
100
AcDbVertex
100
AcDbPolygonMeshVertex
 10
-0.53
 20
0.5
 30
0.265
 70
    64
  0
VERTEX
  5
9D8DB
100
AcDbEntity
  8
0
100
AcDbVertex
100
AcDbPolygonMeshVertex
 10
-0.53
 20
0.5
 30
0.0
 70
    64
  0
VERTEX
  5
9D8DC
100
AcDbEntity
  8
0
100
AcDbVertex
100
AcDbPolygonMeshVertex
 10
-0.53
 20
-10.16
 30
0.0
 70
    64
  0
VERTEX
  5
9D8DD
100
AcDbEntity
  8
0
100
AcDbVertex
100
AcDbPolygonMeshVertex
 10
14.311001
 20
0.5
 30
0.265
 70
    64
  0
VERTEX
  5
9D8DE
100
AcDbEntity
  8
0
100
AcDbVertex
100
AcDbPolygonMeshVertex
 10
14.311001
 20
0.5
 30
0.0
 70
    64
  0
VERTEX
  5
9D8DF
100
AcDbEntity
  8
0
100
AcDbVertex
100
AcDbPolygonMeshVertex
 10
14.311001
 20
-10.16
 30
0.0
 70
    64
  0
VERTEX
  5
9D8E0
100
AcDbEntity
  8
0
100
AcDbVertex
100
AcDbPolygonMeshVertex
 10
14.311001
 20
0.5
 30
0.265
 70
    64
  0
VERTEX
  5
9D8E1
100
AcDbEntity
  8
0
100
AcDbVertex
100
AcDbPolygonMeshVertex
 10
14.311001
 20
0.5
 30
0.265
 70
    64
  0
VERTEX
  5
9D8E2
100
AcDbEntity
  8
0
100
AcDbVertex
100
AcDbPolygonMeshVertex
 10
14.311001
 20
-10.16
 30
0.265
 70
    64
  0
VERTEX
  5
9D8E3
100
AcDbEntity
  8
0
100
AcDbVertex
100
AcDbPolygonMeshVertex
 10
-0.53
 20
0.5
 30
0.265
 70
    64
  0
VERTEX
  5
9D8E4
100
AcDbEntity
  8
0
100
AcDbVertex
100
AcDbPolygonMeshVertex
 10
-0.53
 20
0.5
 30
0.265
 70
    64
  0
VERTEX
  5
9D8E5
100
AcDbEntity
  8
0
100
AcDbVertex
100
AcDbPolygonMeshVertex
 10
-0.53
 20
-10.16
 30
0.265
 70
    64
  0
SEQEND
  5
9D8E6
100
AcDbEntity
  8
0
  0
POLYLINE
  5
9D8E7
100
AcDbEntity
  8
0
100
AcDbPolygonMesh
 66
     1
 10
0.0
 20
0.0
 30
0.0
 70
    16
 71
     6
 72
     3
  0
VERTEX
  5
9D8E8
100
AcDbEntity
  8
0
100
AcDbVertex
100
AcDbPolygonMeshVertex
 10
-0.40625
 20
-2.255953
 30
7.005
 70
    64
  0
VERTEX
  5
9D8E9
100
AcDbEntity
  8
0
100
AcDbVertex
100
AcDbPolygonMeshVertex
 10
-0.40625
 20
-2.255953
 30
6.385
 70
    64
  0
VERTEX
  5
9D8EA
100
AcDbEntity
  8
0
100
AcDbVertex
100
AcDbPolygonMeshVertex
 10
-0.40625
 20
-2.255953
 30
6.385
 70
    64
  0
VERTEX
  5
9D8EB
100
AcDbEntity
  8
0
100
AcDbVertex
100
AcDbPolygonMeshVertex
 10
-1.40625
 20
-2.255953
 30
7.005
 70
    64
  0
VERTEX
  5
9D8EC
100
AcDbEntity
  8
0
100
AcDbVertex
100
AcDbPolygonMeshVertex
 10
-1.40625
 20
-2.255953
 30
6.385
 70
    64
  0
VERTEX
  5
9D8ED
100
AcDbEntity
  8
0
100
AcDbVertex
100
AcDbPolygonMeshVertex
 10
-1.40625
 20
-2.255953
 30
6.385
 70
    64
  0
VERTEX
  5
9D8EE
100
AcDbEntity
  8
0
100
AcDbVertex
100
AcDbPolygonMeshVertex
 10
-1.40625
 20
0.014047
 30
7.005
 70
    64
  0
VERTEX
  5
9D8EF
100
AcDbEntity
  8
0
100
AcDbVertex
100
AcDbPolygonMeshVertex
 10
-1.40625
 20
0.014047
 30
6.385
 70
    64
  0
VERTEX
  5
9D8F0
100
AcDbEntity
  8
0
100
AcDbVertex
100
AcDbPolygonMeshVertex
 10
-1.40625
 20
-2.255953
 30
6.385
 70
    64
  0
VERTEX
  5
9D8F1
100
AcDbEntity
  8
0
100
AcDbVertex
100
AcDbPolygonMeshVertex
 10
-0.40625
 20
0.014047
 30
7.005
 70
    64
  0
VERTEX
  5
9D8F2
100
AcDbEntity
  8
0
100
AcDbVertex
100
AcDbPolygonMeshVertex
 10
-0.40625
 20
0.014047
 30
6.385
 70
    64
  0
VERTEX
  5
9D8F3
100
AcDbEntity
  8
0
100
AcDbVertex
100
AcDbPolygonMeshVertex
 10
-0.40625
 20
-2.255953
 30
6.385
 70
    64
  0
VERTEX
  5
9D8F4
100
AcDbEntity
  8
0
100
AcDbVertex
100
AcDbPolygonMeshVertex
 10
-0.40625
 20
0.014047
 30
7.005
 70
    64
  0
VERTEX
  5
9D8F5
100
AcDbEntity
  8
0
100
AcDbVertex
100
AcDbPolygonMeshVertex
 10
-0.40625
 20
0.014047
 30
7.005
 70
    64
  0
VERTEX
  5
9D8F6
100
AcDbEntity
  8
0
100
AcDbVertex
100
AcDbPolygonMeshVertex
 10
-0.40625
 20
-2.255953
 30
7.005
 70
    64
  0
VERTEX
  5
9D8F7
100
AcDbEntity
  8
0
100
AcDbVertex
100
AcDbPolygonMeshVertex
 10
-1.40625
 20
0.014047
 30
7.005
 70
    64
  0
VERTEX
  5
9D8F8
100
AcDbEntity
  8
0
100
AcDbVertex
100
AcDbPolygonMeshVertex
 10
-1.40625
 20
0.014047
 30
7.005
 70
    64
  0
VERTEX
  5
9D8F9
100
AcDbEntity
  8
0
100
AcDbVertex
100
AcDbPolygonMeshVertex
 10
-1.40625
 20
-2.255953
 30
7.005
 70
    64
  0
SEQEND
  5
9D8FA
100
AcDbEntity
  8
0
  0
POLYLINE
  5
9D8FB
100
AcDbEntity
  8
0
100
AcDbPolygonMesh
 66
     1
 10
0.0
 20
0.0
 30
0.0
 70
    16
 71
     6
 72
     3
  0
VERTEX
  5
9D8FC
100
AcDbEntity
  8
0
100
AcDbVertex
100
AcDbPolygonMeshVertex
 10
-0.40625
 20
-1.105953
 30
7.885
 70
    64
  0
VERTEX
  5
9D8FD
100
AcDbEntity
  8
0
100
AcDbVertex
100
AcDbPolygonMeshVertex
 10
-0.40625
 20
-1.105953
 30
7.005
 70
    64
  0
VERTEX
  5
9D8FE
100
AcDbEntity
  8
0
100
AcDbVertex
100
AcDbPolygonMeshVertex
 10
-0.40625
 20
-1.105953
 30
7.005
 70
    64
  0
VERTEX
  5
9D8FF
100
AcDbEntity
  8
0
100
AcDbVertex
100
AcDbPolygonMeshVertex
 10
-1.40625
 20
-1.105953
 30
7.885
 70
    64
  0
VERTEX
  5
9D900
100
AcDbEntity
  8
0
100
AcDbVertex
100
AcDbPolygonMeshVertex
 10
-1.40625
 20
-1.105953
 30
7.005
 70
    64
  0
VERTEX
  5
9D901
100
AcDbEntity
  8
0
100
AcDbVertex
100
AcDbPolygonMeshVertex
 10
-1.40625
 20
-1.105953
 30
7.005
 70
    64
  0
VERTEX
  5
9D902
100
AcDbEntity
  8
0
100
AcDbVertex
100
AcDbPolygonMeshVertex
 10
-1.40625
 20
0.014047
 30
7.885
 70
    64
  0
VERTEX
  5
9D903
100
AcDbEntity
  8
0
100
AcDbVertex
100
AcDbPolygonMeshVertex
 10
-1.40625
 20
0.014047
 30
7.005
 70
    64
  0
VERTEX
  5
9D904
100
AcDbEntity
  8
0
100
AcDbVertex
100
AcDbPolygonMeshVertex
 10
-1.40625
 20
-1.105953
 30
7.005
 70
    64
  0
VERTEX
  5
9D905
100
AcDbEntity
  8
0
100
AcDbVertex
100
AcDbPolygonMeshVertex
 10
-0.40625
 20
0.014047
 30
7.885
 70
    64
  0
VERTEX
  5
9D906
100
AcDbEntity
  8
0
100
AcDbVertex
100
AcDbPolygonMeshVertex
 10
-0.40625
 20
0.014047
 30
7.005
 70
    64
  0
VERTEX
  5
9D907
100
AcDbEntity
  8
0
100
AcDbVertex
100
AcDbPolygonMeshVertex
 10
-0.40625
 20
-1.105953
 30
7.005
 70
    64
  0
VERTEX
  5
9D908
100
AcDbEntity
  8
0
100
AcDbVertex
100
AcDbPolygonMeshVertex
 10
-0.40625
 20
0.014047
 30
7.885
 70
    64
  0
VERTEX
  5
9D909
100
AcDbEntity
  8
0
100
AcDbVertex
100
AcDbPolygonMeshVertex
 10
-0.40625
 20
0.014047
 30
7.885
 70
    64
  0
VERTEX
  5
9D90A
100
AcDbEntity
  8
0
100
AcDbVertex
100
AcDbPolygonMeshVertex
 10
-0.40625
 20
-1.105953
 30
7.885
 70
    64
  0
VERTEX
  5
9D90B
100
AcDbEntity
  8
0
100
AcDbVertex
100
AcDbPolygonMeshVertex
 10
-1.40625
 20
0.014047
 30
7.885
 70
    64
  0
VERTEX
  5
9D90C
100
AcDbEntity
  8
0
100
AcDbVertex
100
AcDbPolygonMeshVertex
 10
-1.40625
 20
0.014047
 30
7.885
 70
    64
  0
VERTEX
  5
9D90D
100
AcDbEntity
  8
0
100
AcDbVertex
100
AcDbPolygonMeshVertex
 10
-1.40625
 20
-1.105953
 30
7.885
 70
    64
  0
SEQEND
  5
9D90E
100
AcDbEntity
  8
0
  0
LWPOLYLINE
  5
9D90F
100
AcDbEntity
  8
0
100
AcDbPolyline
 90
        6
 70
     1
 43
0.0
 38
7.885
 10
-0.8081
 20
-0.715953
 10
-1.0044
 20
-0.715953
 10
-1.102549
 20
-0.545953
 10
-1.0044
 20
-0.375953
 10
-0.8081
 20
-0.375953
 10
-0.709951
 20
-0.545953
  0
LWPOLYLINE
  5
9D910
100
AcDbEntity
  8
0
100
AcDbPolyline
 90
        6
 70
     1
 43
0.0
 38
7.885
 10
6.5564
 20
-0.715953
 10
6.3601
 20
-0.715953
 10
6.261951
 20
-0.545953
 10
6.3601
 20
-0.375953
 10
6.5564
 20
-0.375953
 10
6.654549
 20
-0.545953
  0
POLYLINE
  5
9D911
100
AcDbEntity
  8
0
100
AcDbPolygonMesh
 66
     1
 10
0.0
 20
0.0
 30
0.0
 70
    16
 71
     6
 72
     3
  0
VERTEX
  5
9D912
100
AcDbEntity
  8
0
100
AcDbVertex
100
AcDbPolygonMeshVertex
 10
6.95825
 20
-1.105953
 30
7.885
 70
    64
  0
VERTEX
  5
9D913
100
AcDbEntity
  8
0
100
AcDbVertex
100
AcDbPolygonMeshVertex
 10
6.95825
 20
-1.105953
 30
7.005
 70
    64
  0
VERTEX
  5
9D914
100
AcDbEntity
  8
0
100
AcDbVertex
100
AcDbPolygonMeshVertex
 10
6.95825
 20
-1.105953
 30
7.005
 70
    64
  0
VERTEX
  5
9D915
100
AcDbEntity
  8
0
100
AcDbVertex
100
AcDbPolygonMeshVertex
 10
5.95825
 20
-1.105953
 30
7.885
 70
    64
  0
VERTEX
  5
9D916
100
AcDbEntity
  8
0
100
AcDbVertex
100
AcDbPolygonMeshVertex
 10
5.95825
 20
-1.105953
 30
7.005
 70
    64
  0
VERTEX
  5
9D917
100
AcDbEntity
  8
0
100
AcDbVertex
100
AcDbPolygonMeshVertex
 10
5.95825
 20
-1.105953
 30
7.005
 70
    64
  0
VERTEX
  5
9D918
100
AcDbEntity
  8
0
100
AcDbVertex
100
AcDbPolygonMeshVertex
 10
5.95825
 20
0.014047
 30
7.885
 70
    64
  0
VERTEX
  5
9D919
100
AcDbEntity
  8
0
100
AcDbVertex
100
AcDbPolygonMeshVertex
 10
5.95825
 20
0.014047
 30
7.005
 70
    64
  0
VERTEX
  5
9D91A
100
AcDbEntity
  8
0
100
AcDbVertex
100
AcDbPolygonMeshVertex
 10
5.95825
 20
-1.105953
 30
7.005
 70
    64
  0
VERTEX
  5
9D91B
100
AcDbEntity
  8
0
100
AcDbVertex
100
AcDbPolygonMeshVertex
 10
6.95825
 20
0.014047
 30
7.885
 70
    64
  0
VERTEX
  5
9D91C
100
AcDbEntity
  8
0
100
AcDbVertex
100
AcDbPolygonMeshVertex
 10
6.95825
 20
0.014047
 30
7.005
 70
    64
  0
VERTEX
  5
9D91D
100
AcDbEntity
  8
0
100
AcDbVertex
100
AcDbPolygonMeshVertex
 10
6.95825
 20
-1.105953
 30
7.005
 70
    64
  0
VERTEX
  5
9D91E
100
AcDbEntity
  8
0
100
AcDbVertex
100
AcDbPolygonMeshVertex
 10
6.95825
 20
0.014047
 30
7.885
 70
    64
  0
VERTEX
  5
9D91F
100
AcDbEntity
  8
0
100
AcDbVertex
100
AcDbPolygonMeshVertex
 10
6.95825
 20
0.014047
 30
7.885
 70
    64
  0
VERTEX
  5
9D920
100
AcDbEntity
  8
0
100
AcDbVertex
100
AcDbPolygonMeshVertex
 10
6.95825
 20
-1.105953
 30
7.885
 70
    64
  0
VERTEX
  5
9D921
100
AcDbEntity
  8
0
100
AcDbVertex
100
AcDbPolygonMeshVertex
 10
5.95825
 20
0.014047
 30
7.885
 70
    64
  0
VERTEX
  5
9D922
100
AcDbEntity
  8
0
100
AcDbVertex
100
AcDbPolygonMeshVertex
 10
5.95825
 20
0.014047
 30
7.885
 70
    64
  0
VERTEX
  5
9D923
100
AcDbEntity
  8
0
100
AcDbVertex
100
AcDbPolygonMeshVertex
 10
5.95825
 20
-1.105953
 30
7.885
 70
    64
  0
SEQEND
  5
9D924
100
AcDbEntity
  8
0
  0
POLYLINE
  5
9D925
100
AcDbEntity
  8
0
100
AcDbPolygonMesh
 66
     1
 10
0.0
 20
0.0
 30
0.0
 70
    16
 71
     6
 72
     3
  0
VERTEX
  5
9D926
100
AcDbEntity
  8
0
100
AcDbVertex
100
AcDbPolygonMeshVertex
 10
6.95825
 20
-2.255953
 30
7.005
 70
    64
  0
VERTEX
  5
9D927
100
AcDbEntity
  8
0
100
AcDbVertex
100
AcDbPolygonMeshVertex
 10
6.95825
 20
-2.255953
 30
6.385
 70
    64
  0
VERTEX
  5
9D928
100
AcDbEntity
  8
0
100
AcDbVertex
100
AcDbPolygonMeshVertex
 10
6.95825
 20
-2.255953
 30
6.385
 70
    64
  0
VERTEX
  5
9D929
100
AcDbEntity
  8
0
100
AcDbVertex
100
AcDbPolygonMeshVertex
 10
5.95825
 20
-2.255953
 30
7.005
 70
    64
  0
VERTEX
  5
9D92A
100
AcDbEntity
  8
0
100
AcDbVertex
100
AcDbPolygonMeshVertex
 10
5.95825
 20
-2.255953
 30
6.385
 70
    64
  0
VERTEX
  5
9D92B
100
AcDbEntity
  8
0
100
AcDbVertex
100
AcDbPolygonMeshVertex
 10
5.95825
 20
-2.255953
 30
6.385
 70
    64
  0
VERTEX
  5
9D92C
100
AcDbEntity
  8
0
100
AcDbVertex
100
AcDbPolygonMeshVertex
 10
5.95825
 20
0.014047
 30
7.005
 70
    64
  0
VERTEX
  5
9D92D
100
AcDbEntity
  8
0
100
AcDbVertex
100
AcDbPolygonMeshVertex
 10
5.95825
 20
0.014047
 30
6.385
 70
    64
  0
VERTEX
  5
9D92E
100
AcDbEntity
  8
0
100
AcDbVertex
100
AcDbPolygonMeshVertex
 10
5.95825
 20
-2.255953
 30
6.385
 70
    64
  0
VERTEX
  5
9D92F
100
AcDbEntity
  8
0
100
AcDbVertex
100
AcDbPolygonMeshVertex
 10
6.95825
 20
0.014047
 30
7.005
 70
    64
  0
VERTEX
  5
9D930
100
AcDbEntity
  8
0
100
AcDbVertex
100
AcDbPolygonMeshVertex
 10
6.95825
 20
0.014047
 30
6.385
 70
    64
  0
VERTEX
  5
9D931
100
AcDbEntity
  8
0
100
AcDbVertex
100
AcDbPolygonMeshVertex
 10
6.95825
 20
-2.255953
 30
6.385
 70
    64
  0
VERTEX
  5
9D932
100
AcDbEntity
  8
0
100
AcDbVertex
100
AcDbPolygonMeshVertex
 10
6.95825
 20
0.014047
 30
7.005
 70
    64
  0
VERTEX
  5
9D933
100
AcDbEntity
  8
0
100
AcDbVertex
100
AcDbPolygonMeshVertex
 10
6.95825
 20
0.014047
 30
7.005
 70
    64
  0
VERTEX
  5
9D934
100
AcDbEntity
  8
0
100
AcDbVertex
100
AcDbPolygonMeshVertex
 10
6.95825
 20
-2.255953
 30
7.005
 70
    64
  0
VERTEX
  5
9D935
100
AcDbEntity
  8
0
100
AcDbVertex
100
AcDbPolygonMeshVertex
 10
5.95825
 20
0.014047
 30
7.005
 70
    64
  0
VERTEX
  5
9D936
100
AcDbEntity
  8
0
100
AcDbVertex
100
AcDbPolygonMeshVertex
 10
5.95825
 20
0.014047
 30
7.005
 70
    64
  0
VERTEX
  5
9D937
100
AcDbEntity
  8
0
100
AcDbVertex
100
AcDbPolygonMeshVertex
 10
5.95825
 20
-2.255953
 30
7.005
 70
    64
  0
SEQEND
  5
9D938
100
AcDbEntity
  8
0
  0
POLYLINE
  5
9D939
100
AcDbEntity
  8
0
100
AcDbPolygonMesh
 66
     1
 10
0.0
 20
0.0
 30
0.0
 70
    16
 71
     6
 72
     3
  0
VERTEX
  5
9D93A
100
AcDbEntity
  8
0
100
AcDbVertex
100
AcDbPolygonMeshVertex
 10
4.896
 20
-13.792
 30
4.885
 70
    64
  0
VERTEX
  5
9D93B
100
AcDbEntity
  8
0
100
AcDbVertex
100
AcDbPolygonMeshVertex
 10
4.896
 20
-13.792
 30
4.005
 70
    64
  0
VERTEX
  5
9D93C
100
AcDbEntity
  8
0
100
AcDbVertex
100
AcDbPolygonMeshVertex
 10
4.896
 20
-13.792
 30
4.005
 70
    64
  0
VERTEX
  5
9D93D
100
AcDbEntity
  8
0
100
AcDbVertex
100
AcDbPolygonMeshVertex
 10
3.896
 20
-13.792
 30
4.885
 70
    64
  0
VERTEX
  5
9D93E
100
AcDbEntity
  8
0
100
AcDbVertex
100
AcDbPolygonMeshVertex
 10
3.896
 20
-13.792
 30
4.005
 70
    64
  0
VERTEX
  5
9D93F
100
AcDbEntity
  8
0
100
AcDbVertex
100
AcDbPolygonMeshVertex
 10
3.896
 20
-13.792
 30
4.005
 70
    64
  0
VERTEX
  5
9D940
100
AcDbEntity
  8
0
100
AcDbVertex
100
AcDbPolygonMeshVertex
 10
3.896
 20
-12.672
 30
4.885
 70
    64
  0
VERTEX
  5
9D941
100
AcDbEntity
  8
0
100
AcDbVertex
100
AcDbPolygonMeshVertex
 10
3.896
 20
-12.672
 30
4.005
 70
    64
  0
VERTEX
  5
9D942
100
AcDbEntity
  8
0
100
AcDbVertex
100
AcDbPolygonMeshVertex
 10
3.896
 20
-13.792
 30
4.005
 70
    64
  0
VERTEX
  5
9D943
100
AcDbEntity
  8
0
100
AcDbVertex
100
AcDbPolygonMeshVertex
 10
4.896
 20
-12.672
 30
4.885
 70
    64
  0
VERTEX
  5
9D944
100
AcDbEntity
  8
0
100
AcDbVertex
100
AcDbPolygonMeshVertex
 10
4.896
 20
-12.672
 30
4.005
 70
    64
  0
VERTEX
  5
9D945
100
AcDbEntity
  8
0
100
AcDbVertex
100
AcDbPolygonMeshVertex
 10
4.896
 20
-13.792
 30
4.005
 70
    64
  0
VERTEX
  5
9D946
100
AcDbEntity
  8
0
100
AcDbVertex
100
AcDbPolygonMeshVertex
 10
4.896
 20
-12.672
 30
4.885
 70
    64
  0
VERTEX
  5
9D947
100
AcDbEntity
  8
0
100
AcDbVertex
100
AcDbPolygonMeshVertex
 10
4.896
 20
-12.672
 30
4.885
 70
    64
  0
VERTEX
  5
9D948
100
AcDbEntity
  8
0
100
AcDbVertex
100
AcDbPolygonMeshVertex
 10
4.896
 20
-13.792
 30
4.885
 70
    64
  0
VERTEX
  5
9D949
100
AcDbEntity
  8
0
100
AcDbVertex
100
AcDbPolygonMeshVertex
 10
3.896
 20
-12.672
 30
4.885
 70
    64
  0
VERTEX
  5
9D94A
100
AcDbEntity
  8
0
100
AcDbVertex
100
AcDbPolygonMeshVertex
 10
3.896
 20
-12.672
 30
4.885
 70
    64
  0
VERTEX
  5
9D94B
100
AcDbEntity
  8
0
100
AcDbVertex
100
AcDbPolygonMeshVertex
 10
3.896
 20
-13.792
 30
4.885
 70
    64
  0
SEQEND
  5
9D94C
100
AcDbEntity
  8
0
  0
POLYLINE
  5
9D94D
100
AcDbEntity
  8
0
100
AcDbPolygonMesh
 66
     1
 10
0.0
 20
0.0
 30
0.0
 70
    16
 71
     6
 72
     3
  0
VERTEX
  5
9D94E
100
AcDbEntity
  8
0
100
AcDbVertex
100
AcDbPolygonMeshVertex
 10
3.276
 20
-13.792
 30
4.885
 70
    64
  0
VERTEX
  5
9D94F
100
AcDbEntity
  8
0
100
AcDbVertex
100
AcDbPolygonMeshVertex
 10
3.276
 20
-13.792
 30
4.005
 70
    64
  0
VERTEX
  5
9D950
100
AcDbEntity
  8
0
100
AcDbVertex
100
AcDbPolygonMeshVertex
 10
3.276
 20
-13.792
 30
4.005
 70
    64
  0
VERTEX
  5
9D951
100
AcDbEntity
  8
0
100
AcDbVertex
100
AcDbPolygonMeshVertex
 10
2.276
 20
-13.792
 30
4.885
 70
    64
  0
VERTEX
  5
9D952
100
AcDbEntity
  8
0
100
AcDbVertex
100
AcDbPolygonMeshVertex
 10
2.276
 20
-13.792
 30
4.005
 70
    64
  0
VERTEX
  5
9D953
100
AcDbEntity
  8
0
100
AcDbVertex
100
AcDbPolygonMeshVertex
 10
2.276
 20
-13.792
 30
4.005
 70
    64
  0
VERTEX
  5
9D954
100
AcDbEntity
  8
0
100
AcDbVertex
100
AcDbPolygonMeshVertex
 10
2.276
 20
-12.672
 30
4.885
 70
    64
  0
VERTEX
  5
9D955
100
AcDbEntity
  8
0
100
AcDbVertex
100
AcDbPolygonMeshVertex
 10
2.276
 20
-12.672
 30
4.005
 70
    64
  0
VERTEX
  5
9D956
100
AcDbEntity
  8
0
100
AcDbVertex
100
AcDbPolygonMeshVertex
 10
2.276
 20
-13.792
 30
4.005
 70
    64
  0
VERTEX
  5
9D957
100
AcDbEntity
  8
0
100
AcDbVertex
100
AcDbPolygonMeshVertex
 10
3.276
 20
-12.672
 30
4.885
 70
    64
  0
VERTEX
  5
9D958
100
AcDbEntity
  8
0
100
AcDbVertex
100
AcDbPolygonMeshVertex
 10
3.276
 20
-12.672
 30
4.005
 70
    64
  0
VERTEX
  5
9D959
100
AcDbEntity
  8
0
100
AcDbVertex
100
AcDbPolygonMeshVertex
 10
3.276
 20
-13.792
 30
4.005
 70
    64
  0
VERTEX
  5
9D95A
100
AcDbEntity
  8
0
100
AcDbVertex
100
AcDbPolygonMeshVertex
 10
3.276
 20
-12.672
 30
4.885
 70
    64
  0
VERTEX
  5
9D95B
100
AcDbEntity
  8
0
100
AcDbVertex
100
AcDbPolygonMeshVertex
 10
3.276
 20
-12.672
 30
4.885
 70
    64
  0
VERTEX
  5
9D95C
100
AcDbEntity
  8
0
100
AcDbVertex
100
AcDbPolygonMeshVertex
 10
3.276
 20
-13.792
 30
4.885
 70
    64
  0
VERTEX
  5
9D95D
100
AcDbEntity
  8
0
100
AcDbVertex
100
AcDbPolygonMeshVertex
 10
2.276
 20
-12.672
 30
4.885
 70
    64
  0
VERTEX
  5
9D95E
100
AcDbEntity
  8
0
100
AcDbVertex
100
AcDbPolygonMeshVertex
 10
2.276
 20
-12.672
 30
4.885
 70
    64
  0
VERTEX
  5
9D95F
100
AcDbEntity
  8
0
100
AcDbVertex
100
AcDbPolygonMeshVertex
 10
2.276
 20
-13.792
 30
4.885
 70
    64
  0
SEQEND
  5
9D960
100
AcDbEntity
  8
0
  0
POLYLINE
  5
9D961
100
AcDbEntity
  8
0
100
AcDbPolygonMesh
 66
     1
 10
0.0
 20
0.0
 30
0.0
 70
    16
 71
     6
 72
     3
  0
VERTEX
  5
9D962
100
AcDbEntity
  8
0
100
AcDbVertex
100
AcDbPolygonMeshVertex
 10
1.656
 20
-13.792
 30
4.885
 70
    64
  0
VERTEX
  5
9D963
100
AcDbEntity
  8
0
100
AcDbVertex
100
AcDbPolygonMeshVertex
 10
1.656
 20
-13.792
 30
4.005
 70
    64
  0
VERTEX
  5
9D964
100
AcDbEntity
  8
0
100
AcDbVertex
100
AcDbPolygonMeshVertex
 10
1.656
 20
-13.792
 30
4.005
 70
    64
  0
VERTEX
  5
9D965
100
AcDbEntity
  8
0
100
AcDbVertex
100
AcDbPolygonMeshVertex
 10
0.656
 20
-13.792
 30
4.885
 70
    64
  0
VERTEX
  5
9D966
100
AcDbEntity
  8
0
100
AcDbVertex
100
AcDbPolygonMeshVertex
 10
0.656
 20
-13.792
 30
4.005
 70
    64
  0
VERTEX
  5
9D967
100
AcDbEntity
  8
0
100
AcDbVertex
100
AcDbPolygonMeshVertex
 10
0.656
 20
-13.792
 30
4.005
 70
    64
  0
VERTEX
  5
9D968
100
AcDbEntity
  8
0
100
AcDbVertex
100
AcDbPolygonMeshVertex
 10
0.656
 20
-12.672
 30
4.885
 70
    64
  0
VERTEX
  5
9D969
100
AcDbEntity
  8
0
100
AcDbVertex
100
AcDbPolygonMeshVertex
 10
0.656
 20
-12.672
 30
4.005
 70
    64
  0
VERTEX
  5
9D96A
100
AcDbEntity
  8
0
100
AcDbVertex
100
AcDbPolygonMeshVertex
 10
0.656
 20
-13.792
 30
4.005
 70
    64
  0
VERTEX
  5
9D96B
100
AcDbEntity
  8
0
100
AcDbVertex
100
AcDbPolygonMeshVertex
 10
1.656
 20
-12.672
 30
4.885
 70
    64
  0
VERTEX
  5
9D96C
100
AcDbEntity
  8
0
100
AcDbVertex
100
AcDbPolygonMeshVertex
 10
1.656
 20
-12.672
 30
4.005
 70
    64
  0
VERTEX
  5
9D96D
100
AcDbEntity
  8
0
100
AcDbVertex
100
AcDbPolygonMeshVertex
 10
1.656
 20
-13.792
 30
4.005
 70
    64
  0
VERTEX
  5
9D96E
100
AcDbEntity
  8
0
100
AcDbVertex
100
AcDbPolygonMeshVertex
 10
1.656
 20
-12.672
 30
4.885
 70
    64
  0
VERTEX
  5
9D96F
100
AcDbEntity
  8
0
100
AcDbVertex
100
AcDbPolygonMeshVertex
 10
1.656
 20
-12.672
 30
4.885
 70
    64
  0
VERTEX
  5
9D970
100
AcDbEntity
  8
0
100
AcDbVertex
100
AcDbPolygonMeshVertex
 10
1.656
 20
-13.792
 30
4.885
 70
    64
  0
VERTEX
  5
9D971
100
AcDbEntity
  8
0
100
AcDbVertex
100
AcDbPolygonMeshVertex
 10
0.656
 20
-12.672
 30
4.885
 70
    64
  0
VERTEX
  5
9D972
100
AcDbEntity
  8
0
100
AcDbVertex
100
AcDbPolygonMeshVertex
 10
0.656
 20
-12.672
 30
4.885
 70
    64
  0
VERTEX
  5
9D973
100
AcDbEntity
  8
0
100
AcDbVertex
100
AcDbPolygonMeshVertex
 10
0.656
 20
-13.792
 30
4.885
 70
    64
  0
SEQEND
  5
9D974
100
AcDbEntity
  8
0
  0
POLYLINE
  5
9D975
100
AcDbEntity
  8
0
100
AcDbPolygonMesh
 66
     1
 10
0.0
 20
0.0
 30
0.0
 70
    16
 71
     6
 72
     3
  0
VERTEX
  5
9D976
100
AcDbEntity
  8
0
100
AcDbVertex
100
AcDbPolygonMeshVertex
 10
5.336
 20
-11.562
 30
5.075
 70
    64
  0
VERTEX
  5
9D977
100
AcDbEntity
  8
0
100
AcDbVertex
100
AcDbPolygonMeshVertex
 10
5.336
 20
-11.562
 30
2.205
 70
    64
  0
VERTEX
  5
9D978
100
AcDbEntity
  8
0
100
AcDbVertex
100
AcDbPolygonMeshVertex
 10
5.336
 20
-11.562
 30
2.205
 70
    64
  0
VERTEX
  5
9D979
100
AcDbEntity
  8
0
100
AcDbVertex
100
AcDbPolygonMeshVertex
 10
0.216
 20
-11.562
 30
5.075
 70
    64
  0
VERTEX
  5
9D97A
100
AcDbEntity
  8
0
100
AcDbVertex
100
AcDbPolygonMeshVertex
 10
0.216
 20
-11.562
 30
2.205
 70
    64
  0
VERTEX
  5
9D97B
100
AcDbEntity
  8
0
100
AcDbVertex
100
AcDbPolygonMeshVertex
 10
0.216
 20
-11.562
 30
2.205
 70
    64
  0
VERTEX
  5
9D97C
100
AcDbEntity
  8
0
100
AcDbVertex
100
AcDbPolygonMeshVertex
 10
0.216
 20
-10.252
 30
5.075
 70
    64
  0
VERTEX
  5
9D97D
100
AcDbEntity
  8
0
100
AcDbVertex
100
AcDbPolygonMeshVertex
 10
0.216
 20
-10.252
 30
2.205
 70
    64
  0
VERTEX
  5
9D97E
100
AcDbEntity
  8
0
100
AcDbVertex
100
AcDbPolygonMeshVertex
 10
0.216
 20
-11.562
 30
2.205
 70
    64
  0
VERTEX
  5
9D97F
100
AcDbEntity
  8
0
100
AcDbVertex
100
AcDbPolygonMeshVertex
 10
5.336
 20
-10.252
 30
5.075
 70
    64
  0
VERTEX
  5
9D980
100
AcDbEntity
  8
0
100
AcDbVertex
100
AcDbPolygonMeshVertex
 10
5.336
 20
-10.252
 30
2.205
 70
    64
  0
VERTEX
  5
9D981
100
AcDbEntity
  8
0
100
AcDbVertex
100
AcDbPolygonMeshVertex
 10
5.336
 20
-11.562
 30
2.205
 70
    64
  0
VERTEX
  5
9D982
100
AcDbEntity
  8
0
100
AcDbVertex
100
AcDbPolygonMeshVertex
 10
5.336
 20
-10.252
 30
5.075
 70
    64
  0
VERTEX
  5
9D983
100
AcDbEntity
  8
0
100
AcDbVertex
100
AcDbPolygonMeshVertex
 10
5.336
 20
-10.252
 30
5.075
 70
    64
  0
VERTEX
  5
9D984
100
AcDbEntity
  8
0
100
AcDbVertex
100
AcDbPolygonMeshVertex
 10
5.336
 20
-11.562
 30
5.075
 70
    64
  0
VERTEX
  5
9D985
100
AcDbEntity
  8
0
100
AcDbVertex
100
AcDbPolygonMeshVertex
 10
0.216
 20
-10.252
 30
5.075
 70
    64
  0
VERTEX
  5
9D986
100
AcDbEntity
  8
0
100
AcDbVertex
100
AcDbPolygonMeshVertex
 10
0.216
 20
-10.252
 30
5.075
 70
    64
  0
VERTEX
  5
9D987
100
AcDbEntity
  8
0
100
AcDbVertex
100
AcDbPolygonMeshVertex
 10
0.216
 20
-11.562
 30
5.075
 70
    64
  0
SEQEND
  5
9D988
100
AcDbEntity
  8
0
  0
POLYLINE
  5
9D989
100
AcDbEntity
  8
0
100
AcDbPolygonMesh
 66
     1
 10
0.0
 20
0.0
 30
0.0
 70
    16
 71
     6
 72
     3
  0
VERTEX
  5
9D98A
100
AcDbEntity
  8
0
100
AcDbVertex
100
AcDbPolygonMeshVertex
 10
5.776
 20
-10.192
 30
4.325
 70
    64
  0
VERTEX
  5
9D98B
100
AcDbEntity
  8
0
100
AcDbVertex
100
AcDbPolygonMeshVertex
 10
5.776
 20
-10.192
 30
1.395
 70
    64
  0
VERTEX
  5
9D98C
100
AcDbEntity
  8
0
100
AcDbVertex
100
AcDbPolygonMeshVertex
 10
5.776
 20
-10.192
 30
1.395
 70
    64
  0
VERTEX
  5
9D98D
100
AcDbEntity
  8
0
100
AcDbVertex
100
AcDbPolygonMeshVertex
 10
-0.224
 20
-10.192
 30
4.325
 70
    64
  0
VERTEX
  5
9D98E
100
AcDbEntity
  8
0
100
AcDbVertex
100
AcDbPolygonMeshVertex
 10
-0.224
 20
-10.192
 30
1.395
 70
    64
  0
VERTEX
  5
9D98F
100
AcDbEntity
  8
0
100
AcDbVertex
100
AcDbPolygonMeshVertex
 10
-0.224
 20
-10.192
 30
1.395
 70
    64
  0
VERTEX
  5
9D990
100
AcDbEntity
  8
0
100
AcDbVertex
100
AcDbPolygonMeshVertex
 10
-0.224
 20
-1.062
 30
4.325
 70
    64
  0
VERTEX
  5
9D991
100
AcDbEntity
  8
0
100
AcDbVertex
100
AcDbPolygonMeshVertex
 10
-0.224
 20
-1.062
 30
1.395
 70
    64
  0
VERTEX
  5
9D992
100
AcDbEntity
  8
0
100
AcDbVertex
100
AcDbPolygonMeshVertex
 10
-0.224
 20
-10.192
 30
1.395
 70
    64
  0
VERTEX
  5
9D993
100
AcDbEntity
  8
0
100
AcDbVertex
100
AcDbPolygonMeshVertex
 10
5.776
 20
-1.062
 30
4.325
 70
    64
  0
VERTEX
  5
9D994
100
AcDbEntity
  8
0
100
AcDbVertex
100
AcDbPolygonMeshVertex
 10
5.776
 20
-1.062
 30
1.395
 70
    64
  0
VERTEX
  5
9D995
100
AcDbEntity
  8
0
100
AcDbVertex
100
AcDbPolygonMeshVertex
 10
5.776
 20
-10.192
 30
1.395
 70
    64
  0
VERTEX
  5
9D996
100
AcDbEntity
  8
0
100
AcDbVertex
100
AcDbPolygonMeshVertex
 10
5.776
 20
-1.062
 30
4.325
 70
    64
  0
VERTEX
  5
9D997
100
AcDbEntity
  8
0
100
AcDbVertex
100
AcDbPolygonMeshVertex
 10
5.776
 20
-1.062
 30
4.325
 70
    64
  0
VERTEX
  5
9D998
100
AcDbEntity
  8
0
100
AcDbVertex
100
AcDbPolygonMeshVertex
 10
5.776
 20
-10.192
 30
4.325
 70
    64
  0
VERTEX
  5
9D999
100
AcDbEntity
  8
0
100
AcDbVertex
100
AcDbPolygonMeshVertex
 10
-0.224
 20
-1.062
 30
4.325
 70
    64
  0
VERTEX
  5
9D99A
100
AcDbEntity
  8
0
100
AcDbVertex
100
AcDbPolygonMeshVertex
 10
-0.224
 20
-1.062
 30
4.325
 70
    64
  0
VERTEX
  5
9D99B
100
AcDbEntity
  8
0
100
AcDbVertex
100
AcDbPolygonMeshVertex
 10
-0.224
 20
-10.192
 30
4.325
 70
    64
  0
SEQEND
  5
9D99C
100
AcDbEntity
  8
0
  0
POLYLINE
  5
9D99D
100
AcDbEntity
  8
0
100
AcDbPolygonMesh
 66
     1
 10
0.0
 20
0.0
 30
0.0
 70
    16
 71
     6
 72
     3
  0
VERTEX
  5
9D99E
100
AcDbEntity
  8
0
100
AcDbVertex
100
AcDbPolygonMeshVertex
 10
4.896
 20
-13.792
 30
4.005
 70
    64
  0
VERTEX
  5
9D99F
100
AcDbEntity
  8
0
100
AcDbVertex
100
AcDbPolygonMeshVertex
 10
4.896
 20
-13.792
 30
3.385
 70
    64
  0
VERTEX
  5
9D9A0
100
AcDbEntity
  8
0
100
AcDbVertex
100
AcDbPolygonMeshVertex
 10
4.896
 20
-13.792
 30
3.385
 70
    64
  0
VERTEX
  5
9D9A1
100
AcDbEntity
  8
0
100
AcDbVertex
100
AcDbPolygonMeshVertex
 10
3.896
 20
-13.792
 30
4.005
 70
    64
  0
VERTEX
  5
9D9A2
100
AcDbEntity
  8
0
100
AcDbVertex
100
AcDbPolygonMeshVertex
 10
3.896
 20
-13.792
 30
3.385
 70
    64
  0
VERTEX
  5
9D9A3
100
AcDbEntity
  8
0
100
AcDbVertex
100
AcDbPolygonMeshVertex
 10
3.896
 20
-13.792
 30
3.385
 70
    64
  0
VERTEX
  5
9D9A4
100
AcDbEntity
  8
0
100
AcDbVertex
100
AcDbPolygonMeshVertex
 10
3.896
 20
-11.562
 30
4.005
 70
    64
  0
VERTEX
  5
9D9A5
100
AcDbEntity
  8
0
100
AcDbVertex
100
AcDbPolygonMeshVertex
 10
3.896
 20
-11.562
 30
3.385
 70
    64
  0
VERTEX
  5
9D9A6
100
AcDbEntity
  8
0
100
AcDbVertex
100
AcDbPolygonMeshVertex
 10
3.896
 20
-13.792
 30
3.385
 70
    64
  0
VERTEX
  5
9D9A7
100
AcDbEntity
  8
0
100
AcDbVertex
100
AcDbPolygonMeshVertex
 10
4.896
 20
-11.562
 30
4.005
 70
    64
  0
VERTEX
  5
9D9A8
100
AcDbEntity
  8
0
100
AcDbVertex
100
AcDbPolygonMeshVertex
 10
4.896
 20
-11.562
 30
3.385
 70
    64
  0
VERTEX
  5
9D9A9
100
AcDbEntity
  8
0
100
AcDbVertex
100
AcDbPolygonMeshVertex
 10
4.896
 20
-13.792
 30
3.385
 70
    64
  0
VERTEX
  5
9D9AA
100
AcDbEntity
  8
0
100
AcDbVertex
100
AcDbPolygonMeshVertex
 10
4.896
 20
-11.562
 30
4.005
 70
    64
  0
VERTEX
  5
9D9AB
100
AcDbEntity
  8
0
100
AcDbVertex
100
AcDbPolygonMeshVertex
 10
4.896
 20
-11.562
 30
4.005
 70
    64
  0
VERTEX
  5
9D9AC
100
AcDbEntity
  8
0
100
AcDbVertex
100
AcDbPolygonMeshVertex
 10
4.896
 20
-13.792
 30
4.005
 70
    64
  0
VERTEX
  5
9D9AD
100
AcDbEntity
  8
0
100
AcDbVertex
100
AcDbPolygonMeshVertex
 10
3.896
 20
-11.562
 30
4.005
 70
    64
  0
VERTEX
  5
9D9AE
100
AcDbEntity
  8
0
100
AcDbVertex
100
AcDbPolygonMeshVertex
 10
3.896
 20
-11.562
 30
4.005
 70
    64
  0
VERTEX
  5
9D9AF
100
AcDbEntity
  8
0
100
AcDbVertex
100
AcDbPolygonMeshVertex
 10
3.896
 20
-13.792
 30
4.005
 70
    64
  0
SEQEND
  5
9D9B0
100
AcDbEntity
  8
0
  0
POLYLINE
  5
9D9B1
100
AcDbEntity
  8
0
100
AcDbPolygonMesh
 66
     1
 10
0.0
 20
0.0
 30
0.0
 70
    16
 71
     6
 72
     3
  0
VERTEX
  5
9D9B2
100
AcDbEntity
  8
0
100
AcDbVertex
100
AcDbPolygonMeshVertex
 10
5.336
 20
-12.712
 30
3.385
 70
    64
  0
VERTEX
  5
9D9B3
100
AcDbEntity
  8
0
100
AcDbVertex
100
AcDbPolygonMeshVertex
 10
5.336
 20
-12.712
 30
2.205
 70
    64
  0
VERTEX
  5
9D9B4
100
AcDbEntity
  8
0
100
AcDbVertex
100
AcDbPolygonMeshVertex
 10
5.336
 20
-12.712
 30
2.205
 70
    64
  0
VERTEX
  5
9D9B5
100
AcDbEntity
  8
0
100
AcDbVertex
100
AcDbPolygonMeshVertex
 10
0.216
 20
-12.712
 30
3.385
 70
    64
  0
VERTEX
  5
9D9B6
100
AcDbEntity
  8
0
100
AcDbVertex
100
AcDbPolygonMeshVertex
 10
0.216
 20
-12.712
 30
2.205
 70
    64
  0
VERTEX
  5
9D9B7
100
AcDbEntity
  8
0
100
AcDbVertex
100
AcDbPolygonMeshVertex
 10
0.216
 20
-12.712
 30
2.205
 70
    64
  0
VERTEX
  5
9D9B8
100
AcDbEntity
  8
0
100
AcDbVertex
100
AcDbPolygonMeshVertex
 10
0.216
 20
-11.562
 30
3.385
 70
    64
  0
VERTEX
  5
9D9B9
100
AcDbEntity
  8
0
100
AcDbVertex
100
AcDbPolygonMeshVertex
 10
0.216
 20
-11.562
 30
2.205
 70
    64
  0
VERTEX
  5
9D9BA
100
AcDbEntity
  8
0
100
AcDbVertex
100
AcDbPolygonMeshVertex
 10
0.216
 20
-12.712
 30
2.205
 70
    64
  0
VERTEX
  5
9D9BB
100
AcDbEntity
  8
0
100
AcDbVertex
100
AcDbPolygonMeshVertex
 10
5.336
 20
-11.562
 30
3.385
 70
    64
  0
VERTEX
  5
9D9BC
100
AcDbEntity
  8
0
100
AcDbVertex
100
AcDbPolygonMeshVertex
 10
5.336
 20
-11.562
 30
2.205
 70
    64
  0
VERTEX
  5
9D9BD
100
AcDbEntity
  8
0
100
AcDbVertex
100
AcDbPolygonMeshVertex
 10
5.336
 20
-12.712
 30
2.205
 70
    64
  0
VERTEX
  5
9D9BE
100
AcDbEntity
  8
0
100
AcDbVertex
100
AcDbPolygonMeshVertex
 10
5.336
 20
-11.562
 30
3.385
 70
    64
  0
VERTEX
  5
9D9BF
100
AcDbEntity
  8
0
100
AcDbVertex
100
AcDbPolygonMeshVertex
 10
5.336
 20
-11.562
 30
3.385
 70
    64
  0
VERTEX
  5
9D9C0
100
AcDbEntity
  8
0
100
AcDbVertex
100
AcDbPolygonMeshVertex
 10
5.336
 20
-12.712
 30
3.385
 70
    64
  0
VERTEX
  5
9D9C1
100
AcDbEntity
  8
0
100
AcDbVertex
100
AcDbPolygonMeshVertex
 10
0.216
 20
-11.562
 30
3.385
 70
    64
  0
VERTEX
  5
9D9C2
100
AcDbEntity
  8
0
100
AcDbVertex
100
AcDbPolygonMeshVertex
 10
0.216
 20
-11.562
 30
3.385
 70
    64
  0
VERTEX
  5
9D9C3
100
AcDbEntity
  8
0
100
AcDbVertex
100
AcDbPolygonMeshVertex
 10
0.216
 20
-12.712
 30
3.385
 70
    64
  0
SEQEND
  5
9D9C4
100
AcDbEntity
  8
0
  0
POLYLINE
  5
9D9C5
100
AcDbEntity
  8
0
100
AcDbPolygonMesh
 66
     1
 10
0.0
 20
0.0
 30
0.0
 70
    16
 71
     6
 72
     3
  0
VERTEX
  5
9D9C6
100
AcDbEntity
  8
0
100
AcDbVertex
100
AcDbPolygonMeshVertex
 10
5.336
 20
-13.212
 30
2.515
 70
    64
  0
VERTEX
  5
9D9C7
100
AcDbEntity
  8
0
100
AcDbVertex
100
AcDbPolygonMeshVertex
 10
5.336
 20
-13.212
 30
2.205
 70
    64
  0
VERTEX
  5
9D9C8
100
AcDbEntity
  8
0
100
AcDbVertex
100
AcDbPolygonMeshVertex
 10
5.336
 20
-13.212
 30
2.205
 70
    64
  0
VERTEX
  5
9D9C9
100
AcDbEntity
  8
0
100
AcDbVertex
100
AcDbPolygonMeshVertex
 10
0.216
 20
-13.212
 30
2.515
 70
    64
  0
VERTEX
  5
9D9CA
100
AcDbEntity
  8
0
100
AcDbVertex
100
AcDbPolygonMeshVertex
 10
0.216
 20
-13.212
 30
2.205
 70
    64
  0
VERTEX
  5
9D9CB
100
AcDbEntity
  8
0
100
AcDbVertex
100
AcDbPolygonMeshVertex
 10
0.216
 20
-13.212
 30
2.205
 70
    64
  0
VERTEX
  5
9D9CC
100
AcDbEntity
  8
0
100
AcDbVertex
100
AcDbPolygonMeshVertex
 10
0.216
 20
-12.712
 30
2.515
 70
    64
  0
VERTEX
  5
9D9CD
100
AcDbEntity
  8
0
100
AcDbVertex
100
AcDbPolygonMeshVertex
 10
0.216
 20
-12.712
 30
2.205
 70
    64
  0
VERTEX
  5
9D9CE
100
AcDbEntity
  8
0
100
AcDbVertex
100
AcDbPolygonMeshVertex
 10
0.216
 20
-13.212
 30
2.205
 70
    64
  0
VERTEX
  5
9D9CF
100
AcDbEntity
  8
0
100
AcDbVertex
100
AcDbPolygonMeshVertex
 10
5.336
 20
-12.712
 30
2.515
 70
    64
  0
VERTEX
  5
9D9D0
100
AcDbEntity
  8
0
100
AcDbVertex
100
AcDbPolygonMeshVertex
 10
5.336
 20
-12.712
 30
2.205
 70
    64
  0
VERTEX
  5
9D9D1
100
AcDbEntity
  8
0
100
AcDbVertex
100
AcDbPolygonMeshVertex
 10
5.336
 20
-13.212
 30
2.205
 70
    64
  0
VERTEX
  5
9D9D2
100
AcDbEntity
  8
0
100
AcDbVertex
100
AcDbPolygonMeshVertex
 10
5.336
 20
-12.712
 30
2.515
 70
    64
  0
VERTEX
  5
9D9D3
100
AcDbEntity
  8
0
100
AcDbVertex
100
AcDbPolygonMeshVertex
 10
5.336
 20
-12.712
 30
2.515
 70
    64
  0
VERTEX
  5
9D9D4
100
AcDbEntity
  8
0
100
AcDbVertex
100
AcDbPolygonMeshVertex
 10
5.336
 20
-13.212
 30
2.515
 70
    64
  0
VERTEX
  5
9D9D5
100
AcDbEntity
  8
0
100
AcDbVertex
100
AcDbPolygonMeshVertex
 10
0.216
 20
-12.712
 30
2.515
 70
    64
  0
VERTEX
  5
9D9D6
100
AcDbEntity
  8
0
100
AcDbVertex
100
AcDbPolygonMeshVertex
 10
0.216
 20
-12.712
 30
2.515
 70
    64
  0
VERTEX
  5
9D9D7
100
AcDbEntity
  8
0
100
AcDbVertex
100
AcDbPolygonMeshVertex
 10
0.216
 20
-13.212
 30
2.515
 70
    64
  0
SEQEND
  5
9D9D8
100
AcDbEntity
  8
0
  0
POLYLINE
  5
9D9D9
100
AcDbEntity
  8
0
100
AcDbPolygonMesh
 66
     1
 10
0.0
 20
0.0
 30
0.0
 70
    16
 71
     6
 72
     3
  0
VERTEX
  5
9D9DA
100
AcDbEntity
  8
0
100
AcDbVertex
100
AcDbPolygonMeshVertex
 10
5.336
 20
-12.762
 30
2.205
 70
    64
  0
VERTEX
  5
9D9DB
100
AcDbEntity
  8
0
100
AcDbVertex
100
AcDbPolygonMeshVertex
 10
5.336
 20
-12.762
 30
2.105
 70
    64
  0
VERTEX
  5
9D9DC
100
AcDbEntity
  8
0
100
AcDbVertex
100
AcDbPolygonMeshVertex
 10
5.336
 20
-12.762
 30
2.105
 70
    64
  0
VERTEX
  5
9D9DD
100
AcDbEntity
  8
0
100
AcDbVertex
100
AcDbPolygonMeshVertex
 10
0.216
 20
-12.762
 30
2.205
 70
    64
  0
VERTEX
  5
9D9DE
100
AcDbEntity
  8
0
100
AcDbVertex
100
AcDbPolygonMeshVertex
 10
0.216
 20
-12.762
 30
2.105
 70
    64
  0
VERTEX
  5
9D9DF
100
AcDbEntity
  8
0
100
AcDbVertex
100
AcDbPolygonMeshVertex
 10
0.216
 20
-12.762
 30
2.105
 70
    64
  0
VERTEX
  5
9D9E0
100
AcDbEntity
  8
0
100
AcDbVertex
100
AcDbPolygonMeshVertex
 10
0.216
 20
-10.562
 30
2.205
 70
    64
  0
VERTEX
  5
9D9E1
100
AcDbEntity
  8
0
100
AcDbVertex
100
AcDbPolygonMeshVertex
 10
0.216
 20
-10.562
 30
2.105
 70
    64
  0
VERTEX
  5
9D9E2
100
AcDbEntity
  8
0
100
AcDbVertex
100
AcDbPolygonMeshVertex
 10
0.216
 20
-12.762
 30
2.105
 70
    64
  0
VERTEX
  5
9D9E3
100
AcDbEntity
  8
0
100
AcDbVertex
100
AcDbPolygonMeshVertex
 10
5.336
 20
-10.562
 30
2.205
 70
    64
  0
VERTEX
  5
9D9E4
100
AcDbEntity
  8
0
100
AcDbVertex
100
AcDbPolygonMeshVertex
 10
5.336
 20
-10.562
 30
2.105
 70
    64
  0
VERTEX
  5
9D9E5
100
AcDbEntity
  8
0
100
AcDbVertex
100
AcDbPolygonMeshVertex
 10
5.336
 20
-12.762
 30
2.105
 70
    64
  0
VERTEX
  5
9D9E6
100
AcDbEntity
  8
0
100
AcDbVertex
100
AcDbPolygonMeshVertex
 10
5.336
 20
-10.562
 30
2.205
 70
    64
  0
VERTEX
  5
9D9E7
100
AcDbEntity
  8
0
100
AcDbVertex
100
AcDbPolygonMeshVertex
 10
5.336
 20
-10.562
 30
2.205
 70
    64
  0
VERTEX
  5
9D9E8
100
AcDbEntity
  8
0
100
AcDbVertex
100
AcDbPolygonMeshVertex
 10
5.336
 20
-12.762
 30
2.205
 70
    64
  0
VERTEX
  5
9D9E9
100
AcDbEntity
  8
0
100
AcDbVertex
100
AcDbPolygonMeshVertex
 10
0.216
 20
-10.562
 30
2.205
 70
    64
  0
VERTEX
  5
9D9EA
100
AcDbEntity
  8
0
100
AcDbVertex
100
AcDbPolygonMeshVertex
 10
0.216
 20
-10.562
 30
2.205
 70
    64
  0
VERTEX
  5
9D9EB
100
AcDbEntity
  8
0
100
AcDbVertex
100
AcDbPolygonMeshVertex
 10
0.216
 20
-12.762
 30
2.205
 70
    64
  0
SEQEND
  5
9D9EC
100
AcDbEntity
  8
0
  0
POLYLINE
  5
9D9ED
100
AcDbEntity
  8
0
100
AcDbPolygonMesh
 66
     1
 10
0.0
 20
0.0
 30
0.0
 70
    16
 71
     6
 72
     3
  0
VERTEX
  5
9D9EE
100
AcDbEntity
  8
0
100
AcDbVertex
100
AcDbPolygonMeshVertex
 10
5.336
 20
-12.762
 30
2.105
 70
    64
  0
VERTEX
  5
9D9EF
100
AcDbEntity
  8
0
100
AcDbVertex
100
AcDbPolygonMeshVertex
 10
5.336
 20
-12.762
 30
0.665
 70
    64
  0
VERTEX
  5
9D9F0
100
AcDbEntity
  8
0
100
AcDbVertex
100
AcDbPolygonMeshVertex
 10
5.336
 20
-12.762
 30
0.665
 70
    64
  0
VERTEX
  5
9D9F1
100
AcDbEntity
  8
0
100
AcDbVertex
100
AcDbPolygonMeshVertex
 10
0.216
 20
-12.762
 30
2.105
 70
    64
  0
VERTEX
  5
9D9F2
100
AcDbEntity
  8
0
100
AcDbVertex
100
AcDbPolygonMeshVertex
 10
0.216
 20
-12.762
 30
0.665
 70
    64
  0
VERTEX
  5
9D9F3
100
AcDbEntity
  8
0
100
AcDbVertex
100
AcDbPolygonMeshVertex
 10
0.216
 20
-12.762
 30
0.665
 70
    64
  0
VERTEX
  5
9D9F4
100
AcDbEntity
  8
0
100
AcDbVertex
100
AcDbPolygonMeshVertex
 10
0.216
 20
-12.662
 30
2.105
 70
    64
  0
VERTEX
  5
9D9F5
100
AcDbEntity
  8
0
100
AcDbVertex
100
AcDbPolygonMeshVertex
 10
0.216
 20
-12.662
 30
0.665
 70
    64
  0
VERTEX
  5
9D9F6
100
AcDbEntity
  8
0
100
AcDbVertex
100
AcDbPolygonMeshVertex
 10
0.216
 20
-12.762
 30
0.665
 70
    64
  0
VERTEX
  5
9D9F7
100
AcDbEntity
  8
0
100
AcDbVertex
100
AcDbPolygonMeshVertex
 10
5.336
 20
-12.662
 30
2.105
 70
    64
  0
VERTEX
  5
9D9F8
100
AcDbEntity
  8
0
100
AcDbVertex
100
AcDbPolygonMeshVertex
 10
5.336
 20
-12.662
 30
0.665
 70
    64
  0
VERTEX
  5
9D9F9
100
AcDbEntity
  8
0
100
AcDbVertex
100
AcDbPolygonMeshVertex
 10
5.336
 20
-12.762
 30
0.665
 70
    64
  0
VERTEX
  5
9D9FA
100
AcDbEntity
  8
0
100
AcDbVertex
100
AcDbPolygonMeshVertex
 10
5.336
 20
-12.662
 30
2.105
 70
    64
  0
VERTEX
  5
9D9FB
100
AcDbEntity
  8
0
100
AcDbVertex
100
AcDbPolygonMeshVertex
 10
5.336
 20
-12.662
 30
2.105
 70
    64
  0
VERTEX
  5
9D9FC
100
AcDbEntity
  8
0
100
AcDbVertex
100
AcDbPolygonMeshVertex
 10
5.336
 20
-12.762
 30
2.105
 70
    64
  0
VERTEX
  5
9D9FD
100
AcDbEntity
  8
0
100
AcDbVertex
100
AcDbPolygonMeshVertex
 10
0.216
 20
-12.662
 30
2.105
 70
    64
  0
VERTEX
  5
9D9FE
100
AcDbEntity
  8
0
100
AcDbVertex
100
AcDbPolygonMeshVertex
 10
0.216
 20
-12.662
 30
2.105
 70
    64
  0
VERTEX
  5
9D9FF
100
AcDbEntity
  8
0
100
AcDbVertex
100
AcDbPolygonMeshVertex
 10
0.216
 20
-12.762
 30
2.105
 70
    64
  0
SEQEND
  5
9DA00
100
AcDbEntity
  8
0
  0
POLYLINE
  5
9DA01
100
AcDbEntity
  8
0
100
AcDbPolygonMesh
 66
     1
 10
0.0
 20
0.0
 30
0.0
 70
    16
 71
     6
 72
     3
  0
VERTEX
  5
9DA02
100
AcDbEntity
  8
0
100
AcDbVertex
100
AcDbPolygonMeshVertex
 10
5.336
 20
-12.762
 30
0.665
 70
    64
  0
VERTEX
  5
9DA03
100
AcDbEntity
  8
0
100
AcDbVertex
100
AcDbPolygonMeshVertex
 10
5.336
 20
-12.762
 30
0.565
 70
    64
  0
VERTEX
  5
9DA04
100
AcDbEntity
  8
0
100
AcDbVertex
100
AcDbPolygonMeshVertex
 10
5.336
 20
-12.762
 30
0.565
 70
    64
  0
VERTEX
  5
9DA05
100
AcDbEntity
  8
0
100
AcDbVertex
100
AcDbPolygonMeshVertex
 10
0.216
 20
-12.762
 30
0.665
 70
    64
  0
VERTEX
  5
9DA06
100
AcDbEntity
  8
0
100
AcDbVertex
100
AcDbPolygonMeshVertex
 10
0.216
 20
-12.762
 30
0.565
 70
    64
  0
VERTEX
  5
9DA07
100
AcDbEntity
  8
0
100
AcDbVertex
100
AcDbPolygonMeshVertex
 10
0.216
 20
-12.762
 30
0.565
 70
    64
  0
VERTEX
  5
9DA08
100
AcDbEntity
  8
0
100
AcDbVertex
100
AcDbPolygonMeshVertex
 10
0.216
 20
-9.562
 30
0.665
 70
    64
  0
VERTEX
  5
9DA09
100
AcDbEntity
  8
0
100
AcDbVertex
100
AcDbPolygonMeshVertex
 10
0.216
 20
-9.562
 30
0.565
 70
    64
  0
VERTEX
  5
9DA0A
100
AcDbEntity
  8
0
100
AcDbVertex
100
AcDbPolygonMeshVertex
 10
0.216
 20
-12.762
 30
0.565
 70
    64
  0
VERTEX
  5
9DA0B
100
AcDbEntity
  8
0
100
AcDbVertex
100
AcDbPolygonMeshVertex
 10
5.336
 20
-9.562
 30
0.665
 70
    64
  0
VERTEX
  5
9DA0C
100
AcDbEntity
  8
0
100
AcDbVertex
100
AcDbPolygonMeshVertex
 10
5.336
 20
-9.562
 30
0.565
 70
    64
  0
VERTEX
  5
9DA0D
100
AcDbEntity
  8
0
100
AcDbVertex
100
AcDbPolygonMeshVertex
 10
5.336
 20
-12.762
 30
0.565
 70
    64
  0
VERTEX
  5
9DA0E
100
AcDbEntity
  8
0
100
AcDbVertex
100
AcDbPolygonMeshVertex
 10
5.336
 20
-9.562
 30
0.665
 70
    64
  0
VERTEX
  5
9DA0F
100
AcDbEntity
  8
0
100
AcDbVertex
100
AcDbPolygonMeshVertex
 10
5.336
 20
-9.562
 30
0.665
 70
    64
  0
VERTEX
  5
9DA10
100
AcDbEntity
  8
0
100
AcDbVertex
100
AcDbPolygonMeshVertex
 10
5.336
 20
-12.762
 30
0.665
 70
    64
  0
VERTEX
  5
9DA11
100
AcDbEntity
  8
0
100
AcDbVertex
100
AcDbPolygonMeshVertex
 10
0.216
 20
-9.562
 30
0.665
 70
    64
  0
VERTEX
  5
9DA12
100
AcDbEntity
  8
0
100
AcDbVertex
100
AcDbPolygonMeshVertex
 10
0.216
 20
-9.562
 30
0.665
 70
    64
  0
VERTEX
  5
9DA13
100
AcDbEntity
  8
0
100
AcDbVertex
100
AcDbPolygonMeshVertex
 10
0.216
 20
-12.762
 30
0.665
 70
    64
  0
SEQEND
  5
9DA14
100
AcDbEntity
  8
0
  0
LWPOLYLINE
  5
9DA15
100
AcDbEntity
  8
0
100
AcDbPolyline
 90
       13
 70
     0
 43
0.0
 38
0.265
 39
0.3
 10
-0.224
 20
-10.842
 10
5.776
 20
-10.842
 10
6.276
 20
-9.972
 10
6.276
 20
-8.402
 10
6.026
 20
-7.972
 10
6.026
 20
-1.042
 10
4.901
 20
0.568
 10
0.651
 20
0.568
 10
-0.474
 20
-1.042
 10
-0.474
 20
-7.972
 10
-0.724
 20
-8.402
 10
-0.724
 20
-9.972
 10
-0.224
 20
-10.842
  0
POLYLINE
  5
9DA16
100
AcDbEntity
  8
0
100
AcDbPolygonMesh
 66
     1
 10
0.0
 20
0.0
 30
0.0
 70
    16
 71
     6
 72
     3
  0
VERTEX
  5
9DA17
100
AcDbEntity
  8
0
100
AcDbVertex
100
AcDbPolygonMeshVertex
 10
5.776
 20
-10.912
 30
1.395
 70
    64
  0
VERTEX
  5
9DA18
100
AcDbEntity
  8
0
100
AcDbVertex
100
AcDbPolygonMeshVertex
 10
5.776
 20
-10.912
 30
0.565
 70
    64
  0
VERTEX
  5
9DA19
100
AcDbEntity
  8
0
100
AcDbVertex
100
AcDbPolygonMeshVertex
 10
5.776
 20
-10.912
 30
0.565
 70
    64
  0
VERTEX
  5
9DA1A
100
AcDbEntity
  8
0
100
AcDbVertex
100
AcDbPolygonMeshVertex
 10
-0.224
 20
-10.912
 30
1.395
 70
    64
  0
VERTEX
  5
9DA1B
100
AcDbEntity
  8
0
100
AcDbVertex
100
AcDbPolygonMeshVertex
 10
-0.224
 20
-10.912
 30
0.565
 70
    64
  0
VERTEX
  5
9DA1C
100
AcDbEntity
  8
0
100
AcDbVertex
100
AcDbPolygonMeshVertex
 10
-0.224
 20
-10.912
 30
0.565
 70
    64
  0
VERTEX
  5
9DA1D
100
AcDbEntity
  8
0
100
AcDbVertex
100
AcDbPolygonMeshVertex
 10
-0.224
 20
-0.692
 30
1.395
 70
    64
  0
VERTEX
  5
9DA1E
100
AcDbEntity
  8
0
100
AcDbVertex
100
AcDbPolygonMeshVertex
 10
-0.224
 20
-0.692
 30
0.565
 70
    64
  0
VERTEX
  5
9DA1F
100
AcDbEntity
  8
0
100
AcDbVertex
100
AcDbPolygonMeshVertex
 10
-0.224
 20
-10.912
 30
0.565
 70
    64
  0
VERTEX
  5
9DA20
100
AcDbEntity
  8
0
100
AcDbVertex
100
AcDbPolygonMeshVertex
 10
5.776
 20
-0.692
 30
1.395
 70
    64
  0
VERTEX
  5
9DA21
100
AcDbEntity
  8
0
100
AcDbVertex
100
AcDbPolygonMeshVertex
 10
5.776
 20
-0.692
 30
0.565
 70
    64
  0
VERTEX
  5
9DA22
100
AcDbEntity
  8
0
100
AcDbVertex
100
AcDbPolygonMeshVertex
 10
5.776
 20
-10.912
 30
0.565
 70
    64
  0
VERTEX
  5
9DA23
100
AcDbEntity
  8
0
100
AcDbVertex
100
AcDbPolygonMeshVertex
 10
5.776
 20
-0.692
 30
1.395
 70
    64
  0
VERTEX
  5
9DA24
100
AcDbEntity
  8
0
100
AcDbVertex
100
AcDbPolygonMeshVertex
 10
5.776
 20
-0.692
 30
1.395
 70
    64
  0
VERTEX
  5
9DA25
100
AcDbEntity
  8
0
100
AcDbVertex
100
AcDbPolygonMeshVertex
 10
5.776
 20
-10.912
 30
1.395
 70
    64
  0
VERTEX
  5
9DA26
100
AcDbEntity
  8
0
100
AcDbVertex
100
AcDbPolygonMeshVertex
 10
-0.224
 20
-0.692
 30
1.395
 70
    64
  0
VERTEX
  5
9DA27
100
AcDbEntity
  8
0
100
AcDbVertex
100
AcDbPolygonMeshVertex
 10
-0.224
 20
-0.692
 30
1.395
 70
    64
  0
VERTEX
  5
9DA28
100
AcDbEntity
  8
0
100
AcDbVertex
100
AcDbPolygonMeshVertex
 10
-0.224
 20
-10.912
 30
1.395
 70
    64
  0
SEQEND
  5
9DA29
100
AcDbEntity
  8
0
  0
CIRCLE
  5
9DA2A
100
AcDbEntity
  8
0
  6
BYBLOCK
100
AcDbCircle
 10
0.0
 20
-9.825
 30
0.0
 40
0.1715
  0
POLYLINE
  5
9DA2B
100
AcDbEntity
  8
0
100
AcDbPolygonMesh
 66
     1
 10
0.0
 20
0.0
 30
0.0
 70
    16
 71
     6
 72
     3
  0
VERTEX
  5
9DA2C
100
AcDbEntity
  8
0
100
AcDbVertex
100
AcDbPolygonMeshVertex
 10
1.656
 20
-13.792
 30
4.005
 70
    64
  0
VERTEX
  5
9DA2D
100
AcDbEntity
  8
0
100
AcDbVertex
100
AcDbPolygonMeshVertex
 10
1.656
 20
-13.792
 30
3.385
 70
    64
  0
VERTEX
  5
9DA2E
100
AcDbEntity
  8
0
100
AcDbVertex
100
AcDbPolygonMeshVertex
 10
1.656
 20
-13.792
 30
3.385
 70
    64
  0
VERTEX
  5
9DA2F
100
AcDbEntity
  8
0
100
AcDbVertex
100
AcDbPolygonMeshVertex
 10
0.656
 20
-13.792
 30
4.005
 70
    64
  0
VERTEX
  5
9DA30
100
AcDbEntity
  8
0
100
AcDbVertex
100
AcDbPolygonMeshVertex
 10
0.656
 20
-13.792
 30
3.385
 70
    64
  0
VERTEX
  5
9DA31
100
AcDbEntity
  8
0
100
AcDbVertex
100
AcDbPolygonMeshVertex
 10
0.656
 20
-13.792
 30
3.385
 70
    64
  0
VERTEX
  5
9DA32
100
AcDbEntity
  8
0
100
AcDbVertex
100
AcDbPolygonMeshVertex
 10
0.656
 20
-11.562
 30
4.005
 70
    64
  0
VERTEX
  5
9DA33
100
AcDbEntity
  8
0
100
AcDbVertex
100
AcDbPolygonMeshVertex
 10
0.656
 20
-11.562
 30
3.385
 70
    64
  0
VERTEX
  5
9DA34
100
AcDbEntity
  8
0
100
AcDbVertex
100
AcDbPolygonMeshVertex
 10
0.656
 20
-13.792
 30
3.385
 70
    64
  0
VERTEX
  5
9DA35
100
AcDbEntity
  8
0
100
AcDbVertex
100
AcDbPolygonMeshVertex
 10
1.656
 20
-11.562
 30
4.005
 70
    64
  0
VERTEX
  5
9DA36
100
AcDbEntity
  8
0
100
AcDbVertex
100
AcDbPolygonMeshVertex
 10
1.656
 20
-11.562
 30
3.385
 70
    64
  0
VERTEX
  5
9DA37
100
AcDbEntity
  8
0
100
AcDbVertex
100
AcDbPolygonMeshVertex
 10
1.656
 20
-13.792
 30
3.385
 70
    64
  0
VERTEX
  5
9DA38
100
AcDbEntity
  8
0
100
AcDbVertex
100
AcDbPolygonMeshVertex
 10
1.656
 20
-11.562
 30
4.005
 70
    64
  0
VERTEX
  5
9DA39
100
AcDbEntity
  8
0
100
AcDbVertex
100
AcDbPolygonMeshVertex
 10
1.656
 20
-11.562
 30
4.005
 70
    64
  0
VERTEX
  5
9DA3A
100
AcDbEntity
  8
0
100
AcDbVertex
100
AcDbPolygonMeshVertex
 10
1.656
 20
-13.792
 30
4.005
 70
    64
  0
VERTEX
  5
9DA3B
100
AcDbEntity
  8
0
100
AcDbVertex
100
AcDbPolygonMeshVertex
 10
0.656
 20
-11.562
 30
4.005
 70
    64
  0
VERTEX
  5
9DA3C
100
AcDbEntity
  8
0
100
AcDbVertex
100
AcDbPolygonMeshVertex
 10
0.656
 20
-11.562
 30
4.005
 70
    64
  0
VERTEX
  5
9DA3D
100
AcDbEntity
  8
0
100
AcDbVertex
100
AcDbPolygonMeshVertex
 10
0.656
 20
-13.792
 30
4.005
 70
    64
  0
SEQEND
  5
9DA3E
100
AcDbEntity
  8
0
  0
POLYLINE
  5
9DA3F
100
AcDbEntity
  8
0
100
AcDbPolygonMesh
 66
     1
 10
0.0
 20
0.0
 30
0.0
 70
    16
 71
     6
 72
     3
  0
VERTEX
  5
9DA40
100
AcDbEntity
  8
0
100
AcDbVertex
100
AcDbPolygonMeshVertex
 10
3.276
 20
-13.792
 30
4.005
 70
    64
  0
VERTEX
  5
9DA41
100
AcDbEntity
  8
0
100
AcDbVertex
100
AcDbPolygonMeshVertex
 10
3.276
 20
-13.792
 30
3.385
 70
    64
  0
VERTEX
  5
9DA42
100
AcDbEntity
  8
0
100
AcDbVertex
100
AcDbPolygonMeshVertex
 10
3.276
 20
-13.792
 30
3.385
 70
    64
  0
VERTEX
  5
9DA43
100
AcDbEntity
  8
0
100
AcDbVertex
100
AcDbPolygonMeshVertex
 10
2.276
 20
-13.792
 30
4.005
 70
    64
  0
VERTEX
  5
9DA44
100
AcDbEntity
  8
0
100
AcDbVertex
100
AcDbPolygonMeshVertex
 10
2.276
 20
-13.792
 30
3.385
 70
    64
  0
VERTEX
  5
9DA45
100
AcDbEntity
  8
0
100
AcDbVertex
100
AcDbPolygonMeshVertex
 10
2.276
 20
-13.792
 30
3.385
 70
    64
  0
VERTEX
  5
9DA46
100
AcDbEntity
  8
0
100
AcDbVertex
100
AcDbPolygonMeshVertex
 10
2.276
 20
-11.562
 30
4.005
 70
    64
  0
VERTEX
  5
9DA47
100
AcDbEntity
  8
0
100
AcDbVertex
100
AcDbPolygonMeshVertex
 10
2.276
 20
-11.562
 30
3.385
 70
    64
  0
VERTEX
  5
9DA48
100
AcDbEntity
  8
0
100
AcDbVertex
100
AcDbPolygonMeshVertex
 10
2.276
 20
-13.792
 30
3.385
 70
    64
  0
VERTEX
  5
9DA49
100
AcDbEntity
  8
0
100
AcDbVertex
100
AcDbPolygonMeshVertex
 10
3.276
 20
-11.562
 30
4.005
 70
    64
  0
VERTEX
  5
9DA4A
100
AcDbEntity
  8
0
100
AcDbVertex
100
AcDbPolygonMeshVertex
 10
3.276
 20
-11.562
 30
3.385
 70
    64
  0
VERTEX
  5
9DA4B
100
AcDbEntity
  8
0
100
AcDbVertex
100
AcDbPolygonMeshVertex
 10
3.276
 20
-13.792
 30
3.385
 70
    64
  0
VERTEX
  5
9DA4C
100
AcDbEntity
  8
0
100
AcDbVertex
100
AcDbPolygonMeshVertex
 10
3.276
 20
-11.562
 30
4.005
 70
    64
  0
VERTEX
  5
9DA4D
100
AcDbEntity
  8
0
100
AcDbVertex
100
AcDbPolygonMeshVertex
 10
3.276
 20
-11.562
 30
4.005
 70
    64
  0
VERTEX
  5
9DA4E
100
AcDbEntity
  8
0
100
AcDbVertex
100
AcDbPolygonMeshVertex
 10
3.276
 20
-13.792
 30
4.005
 70
    64
  0
VERTEX
  5
9DA4F
100
AcDbEntity
  8
0
100
AcDbVertex
100
AcDbPolygonMeshVertex
 10
2.276
 20
-11.562
 30
4.005
 70
    64
  0
VERTEX
  5
9DA50
100
AcDbEntity
  8
0
100
AcDbVertex
100
AcDbPolygonMeshVertex
 10
2.276
 20
-11.562
 30
4.005
 70
    64
  0
VERTEX
  5
9DA51
100
AcDbEntity
  8
0
100
AcDbVertex
100
AcDbPolygonMeshVertex
 10
2.276
 20
-13.792
 30
4.005
 70
    64
  0
SEQEND
  5
9DA52
100
AcDbEntity
  8
0
  0
LWPOLYLINE
  5
9DA53
100
AcDbEntity
  8
0
100
AcDbPolyline
 90
        6
 70
     1
 43
0.0
 38
4.885
 10
4.494149
 20
-13.062001
 10
4.592299
 20
-13.232001
 10
4.494149
 20
-13.402
 10
4.29785
 20
-13.402
 10
4.199701
 20
-13.232001
 10
4.29785
 20
-13.062001
  0
CIRCLE
  5
9DA54
100
AcDbEntity
  8
0
100
AcDbCircle
 10
4.396
 20
-13.232001
 30
4.885
 40
0.3125
  0
CIRCLE
  5
9DA55
100
AcDbEntity
  8
0
100
AcDbCircle
 10
4.396
 20
-13.232001
 30
4.885
 40
0.375
  0
POLYLINE
  5
9DA56
100
AcDbEntity
  8
0
100
AcDbPolygonMesh
 66
     1
 10
0.0
 20
0.0
 30
0.0
 70
    16
 71
     6
 72
     3
  0
VERTEX
  5
9DA57
100
AcDbEntity
  8
0
100
AcDbVertex
100
AcDbPolygonMeshVertex
 10
5.306
 20
-1.102
 30
7.885
 70
    64
  0
VERTEX
  5
9DA58
100
AcDbEntity
  8
0
100
AcDbVertex
100
AcDbPolygonMeshVertex
 10
5.306
 20
-1.102
 30
7.005
 70
    64
  0
VERTEX
  5
9DA59
100
AcDbEntity
  8
0
100
AcDbVertex
100
AcDbPolygonMeshVertex
 10
5.306
 20
-1.102
 30
7.005
 70
    64
  0
VERTEX
  5
9DA5A
100
AcDbEntity
  8
0
100
AcDbVertex
100
AcDbPolygonMeshVertex
 10
4.306
 20
-1.102
 30
7.885
 70
    64
  0
VERTEX
  5
9DA5B
100
AcDbEntity
  8
0
100
AcDbVertex
100
AcDbPolygonMeshVertex
 10
4.306
 20
-1.102
 30
7.005
 70
    64
  0
VERTEX
  5
9DA5C
100
AcDbEntity
  8
0
100
AcDbVertex
100
AcDbPolygonMeshVertex
 10
4.306
 20
-1.102
 30
7.005
 70
    64
  0
VERTEX
  5
9DA5D
100
AcDbEntity
  8
0
100
AcDbVertex
100
AcDbPolygonMeshVertex
 10
4.306
 20
0.018
 30
7.885
 70
    64
  0
VERTEX
  5
9DA5E
100
AcDbEntity
  8
0
100
AcDbVertex
100
AcDbPolygonMeshVertex
 10
4.306
 20
0.018
 30
7.005
 70
    64
  0
VERTEX
  5
9DA5F
100
AcDbEntity
  8
0
100
AcDbVertex
100
AcDbPolygonMeshVertex
 10
4.306
 20
-1.102
 30
7.005
 70
    64
  0
VERTEX
  5
9DA60
100
AcDbEntity
  8
0
100
AcDbVertex
100
AcDbPolygonMeshVertex
 10
5.306
 20
0.018
 30
7.885
 70
    64
  0
VERTEX
  5
9DA61
100
AcDbEntity
  8
0
100
AcDbVertex
100
AcDbPolygonMeshVertex
 10
5.306
 20
0.018
 30
7.005
 70
    64
  0
VERTEX
  5
9DA62
100
AcDbEntity
  8
0
100
AcDbVertex
100
AcDbPolygonMeshVertex
 10
5.306
 20
-1.102
 30
7.005
 70
    64
  0
VERTEX
  5
9DA63
100
AcDbEntity
  8
0
100
AcDbVertex
100
AcDbPolygonMeshVertex
 10
5.306
 20
0.018
 30
7.885
 70
    64
  0
VERTEX
  5
9DA64
100
AcDbEntity
  8
0
100
AcDbVertex
100
AcDbPolygonMeshVertex
 10
5.306
 20
0.018
 30
7.885
 70
    64
  0
VERTEX
  5
9DA65
100
AcDbEntity
  8
0
100
AcDbVertex
100
AcDbPolygonMeshVertex
 10
5.306
 20
-1.102
 30
7.885
 70
    64
  0
VERTEX
  5
9DA66
100
AcDbEntity
  8
0
100
AcDbVertex
100
AcDbPolygonMeshVertex
 10
4.306
 20
0.018
 30
7.885
 70
    64
  0
VERTEX
  5
9DA67
100
AcDbEntity
  8
0
100
AcDbVertex
100
AcDbPolygonMeshVertex
 10
4.306
 20
0.018
 30
7.885
 70
    64
  0
VERTEX
  5
9DA68
100
AcDbEntity
  8
0
100
AcDbVertex
100
AcDbPolygonMeshVertex
 10
4.306
 20
-1.102
 30
7.885
 70
    64
  0
SEQEND
  5
9DA69
100
AcDbEntity
  8
0
  0
POLYLINE
  5
9DA6A
100
AcDbEntity
  8
0
100
AcDbPolygonMesh
 66
     1
 10
0.0
 20
0.0
 30
0.0
 70
    16
 71
     6
 72
     3
  0
VERTEX
  5
9DA6B
100
AcDbEntity
  8
0
100
AcDbVertex
100
AcDbPolygonMeshVertex
 10
5.306
 20
-2.252
 30
7.005
 70
    64
  0
VERTEX
  5
9DA6C
100
AcDbEntity
  8
0
100
AcDbVertex
100
AcDbPolygonMeshVertex
 10
5.306
 20
-2.252
 30
6.385
 70
    64
  0
VERTEX
  5
9DA6D
100
AcDbEntity
  8
0
100
AcDbVertex
100
AcDbPolygonMeshVertex
 10
5.306
 20
-2.252
 30
6.385
 70
    64
  0
VERTEX
  5
9DA6E
100
AcDbEntity
  8
0
100
AcDbVertex
100
AcDbPolygonMeshVertex
 10
4.306
 20
-2.252
 30
7.005
 70
    64
  0
VERTEX
  5
9DA6F
100
AcDbEntity
  8
0
100
AcDbVertex
100
AcDbPolygonMeshVertex
 10
4.306
 20
-2.252
 30
6.385
 70
    64
  0
VERTEX
  5
9DA70
100
AcDbEntity
  8
0
100
AcDbVertex
100
AcDbPolygonMeshVertex
 10
4.306
 20
-2.252
 30
6.385
 70
    64
  0
VERTEX
  5
9DA71
100
AcDbEntity
  8
0
100
AcDbVertex
100
AcDbPolygonMeshVertex
 10
4.306
 20
0.018
 30
7.005
 70
    64
  0
VERTEX
  5
9DA72
100
AcDbEntity
  8
0
100
AcDbVertex
100
AcDbPolygonMeshVertex
 10
4.306
 20
0.018
 30
6.385
 70
    64
  0
VERTEX
  5
9DA73
100
AcDbEntity
  8
0
100
AcDbVertex
100
AcDbPolygonMeshVertex
 10
4.306
 20
-2.252
 30
6.385
 70
    64
  0
VERTEX
  5
9DA74
100
AcDbEntity
  8
0
100
AcDbVertex
100
AcDbPolygonMeshVertex
 10
5.306
 20
0.018
 30
7.005
 70
    64
  0
VERTEX
  5
9DA75
100
AcDbEntity
  8
0
100
AcDbVertex
100
AcDbPolygonMeshVertex
 10
5.306
 20
0.018
 30
6.385
 70
    64
  0
VERTEX
  5
9DA76
100
AcDbEntity
  8
0
100
AcDbVertex
100
AcDbPolygonMeshVertex
 10
5.306
 20
-2.252
 30
6.385
 70
    64
  0
VERTEX
  5
9DA77
100
AcDbEntity
  8
0
100
AcDbVertex
100
AcDbPolygonMeshVertex
 10
5.306
 20
0.018
 30
7.005
 70
    64
  0
VERTEX
  5
9DA78
100
AcDbEntity
  8
0
100
AcDbVertex
100
AcDbPolygonMeshVertex
 10
5.306
 20
0.018
 30
7.005
 70
    64
  0
VERTEX
  5
9DA79
100
AcDbEntity
  8
0
100
AcDbVertex
100
AcDbPolygonMeshVertex
 10
5.306
 20
-2.252
 30
7.005
 70
    64
  0
VERTEX
  5
9DA7A
100
AcDbEntity
  8
0
100
AcDbVertex
100
AcDbPolygonMeshVertex
 10
4.306
 20
0.018
 30
7.005
 70
    64
  0
VERTEX
  5
9DA7B
100
AcDbEntity
  8
0
100
AcDbVertex
100
AcDbPolygonMeshVertex
 10
4.306
 20
0.018
 30
7.005
 70
    64
  0
VERTEX
  5
9DA7C
100
AcDbEntity
  8
0
100
AcDbVertex
100
AcDbPolygonMeshVertex
 10
4.306
 20
-2.252
 30
7.005
 70
    64
  0
SEQEND
  5
9DA7D
100
AcDbEntity
  8
0
  0
POLYLINE
  5
9DA7E
100
AcDbEntity
  8
0
100
AcDbPolygonMesh
 66
     1
 10
0.0
 20
0.0
 30
0.0
 70
    16
 71
     6
 72
     3
  0
VERTEX
  5
9DA7F
100
AcDbEntity
  8
0
100
AcDbVertex
100
AcDbPolygonMeshVertex
 10
5.776
 20
-2.252
 30
6.385
 70
    64
  0
VERTEX
  5
9DA80
100
AcDbEntity
  8
0
100
AcDbVertex
100
AcDbPolygonMeshVertex
 10
5.776
 20
-2.252
 30
5.765
 70
    64
  0
VERTEX
  5
9DA81
100
AcDbEntity
  8
0
100
AcDbVertex
100
AcDbPolygonMeshVertex
 10
5.776
 20
-2.252
 30
5.765
 70
    64
  0
VERTEX
  5
9DA82
100
AcDbEntity
  8
0
100
AcDbVertex
100
AcDbPolygonMeshVertex
 10
-0.224
 20
-2.252
 30
6.385
 70
    64
  0
VERTEX
  5
9DA83
100
AcDbEntity
  8
0
100
AcDbVertex
100
AcDbPolygonMeshVertex
 10
-0.224
 20
-2.252
 30
5.765
 70
    64
  0
VERTEX
  5
9DA84
100
AcDbEntity
  8
0
100
AcDbVertex
100
AcDbPolygonMeshVertex
 10
-0.224
 20
-2.252
 30
5.765
 70
    64
  0
VERTEX
  5
9DA85
100
AcDbEntity
  8
0
100
AcDbVertex
100
AcDbPolygonMeshVertex
 10
-0.224
 20
-1.062
 30
6.385
 70
    64
  0
VERTEX
  5
9DA86
100
AcDbEntity
  8
0
100
AcDbVertex
100
AcDbPolygonMeshVertex
 10
-0.224
 20
-1.062
 30
5.765
 70
    64
  0
VERTEX
  5
9DA87
100
AcDbEntity
  8
0
100
AcDbVertex
100
AcDbPolygonMeshVertex
 10
-0.224
 20
-2.252
 30
5.765
 70
    64
  0
VERTEX
  5
9DA88
100
AcDbEntity
  8
0
100
AcDbVertex
100
AcDbPolygonMeshVertex
 10
5.776
 20
-1.062
 30
6.385
 70
    64
  0
VERTEX
  5
9DA89
100
AcDbEntity
  8
0
100
AcDbVertex
100
AcDbPolygonMeshVertex
 10
5.776
 20
-1.062
 30
5.765
 70
    64
  0
VERTEX
  5
9DA8A
100
AcDbEntity
  8
0
100
AcDbVertex
100
AcDbPolygonMeshVertex
 10
5.776
 20
-2.252
 30
5.765
 70
    64
  0
VERTEX
  5
9DA8B
100
AcDbEntity
  8
0
100
AcDbVertex
100
AcDbPolygonMeshVertex
 10
5.776
 20
-1.062
 30
6.385
 70
    64
  0
VERTEX
  5
9DA8C
100
AcDbEntity
  8
0
100
AcDbVertex
100
AcDbPolygonMeshVertex
 10
5.776
 20
-1.062
 30
6.385
 70
    64
  0
VERTEX
  5
9DA8D
100
AcDbEntity
  8
0
100
AcDbVertex
100
AcDbPolygonMeshVertex
 10
5.776
 20
-2.252
 30
6.385
 70
    64
  0
VERTEX
  5
9DA8E
100
AcDbEntity
  8
0
100
AcDbVertex
100
AcDbPolygonMeshVertex
 10
-0.224
 20
-1.062
 30
6.385
 70
    64
  0
VERTEX
  5
9DA8F
100
AcDbEntity
  8
0
100
AcDbVertex
100
AcDbPolygonMeshVertex
 10
-0.224
 20
-1.062
 30
6.385
 70
    64
  0
VERTEX
  5
9DA90
100
AcDbEntity
  8
0
100
AcDbVertex
100
AcDbPolygonMeshVertex
 10
-0.224
 20
-2.252
 30
6.385
 70
    64
  0
SEQEND
  5
9DA91
100
AcDbEntity
  8
0
  0
POLYLINE
  5
9DA92
100
AcDbEntity
  8
0
100
AcDbPolygonMesh
 66
     1
 10
0.0
 20
0.0
 30
0.0
 70
    16
 71
     6
 72
     3
  0
VERTEX
  5
9DA93
100
AcDbEntity
  8
0
100
AcDbVertex
100
AcDbPolygonMeshVertex
 10
5.776
 20
-5.062
 30
5.765
 70
    64
  0
VERTEX
  5
9DA94
100
AcDbEntity
  8
0
100
AcDbVertex
100
AcDbPolygonMeshVertex
 10
5.776
 20
-5.062
 30
4.325
 70
    64
  0
VERTEX
  5
9DA95
100
AcDbEntity
  8
0
100
AcDbVertex
100
AcDbPolygonMeshVertex
 10
5.776
 20
-5.062
 30
4.325
 70
    64
  0
VERTEX
  5
9DA96
100
AcDbEntity
  8
0
100
AcDbVertex
100
AcDbPolygonMeshVertex
 10
-0.224
 20
-5.062
 30
5.765
 70
    64
  0
VERTEX
  5
9DA97
100
AcDbEntity
  8
0
100
AcDbVertex
100
AcDbPolygonMeshVertex
 10
-0.224
 20
-5.062
 30
4.325
 70
    64
  0
VERTEX
  5
9DA98
100
AcDbEntity
  8
0
100
AcDbVertex
100
AcDbPolygonMeshVertex
 10
-0.224
 20
-5.062
 30
4.325
 70
    64
  0
VERTEX
  5
9DA99
100
AcDbEntity
  8
0
100
AcDbVertex
100
AcDbPolygonMeshVertex
 10
-0.224
 20
-1.062
 30
5.765
 70
    64
  0
VERTEX
  5
9DA9A
100
AcDbEntity
  8
0
100
AcDbVertex
100
AcDbPolygonMeshVertex
 10
-0.224
 20
-1.062
 30
4.325
 70
    64
  0
VERTEX
  5
9DA9B
100
AcDbEntity
  8
0
100
AcDbVertex
100
AcDbPolygonMeshVertex
 10
-0.224
 20
-5.062
 30
4.325
 70
    64
  0
VERTEX
  5
9DA9C
100
AcDbEntity
  8
0
100
AcDbVertex
100
AcDbPolygonMeshVertex
 10
5.776
 20
-1.062
 30
5.765
 70
    64
  0
VERTEX
  5
9DA9D
100
AcDbEntity
  8
0
100
AcDbVertex
100
AcDbPolygonMeshVertex
 10
5.776
 20
-1.062
 30
4.325
 70
    64
  0
VERTEX
  5
9DA9E
100
AcDbEntity
  8
0
100
AcDbVertex
100
AcDbPolygonMeshVertex
 10
5.776
 20
-5.062
 30
4.325
 70
    64
  0
VERTEX
  5
9DA9F
100
AcDbEntity
  8
0
100
AcDbVertex
100
AcDbPolygonMeshVertex
 10
5.776
 20
-1.062
 30
5.765
 70
    64
  0
VERTEX
  5
9DAA0
100
AcDbEntity
  8
0
100
AcDbVertex
100
AcDbPolygonMeshVertex
 10
5.776
 20
-1.062
 30
5.765
 70
    64
  0
VERTEX
  5
9DAA1
100
AcDbEntity
  8
0
100
AcDbVertex
100
AcDbPolygonMeshVertex
 10
5.776
 20
-5.062
 30
5.765
 70
    64
  0
VERTEX
  5
9DAA2
100
AcDbEntity
  8
0
100
AcDbVertex
100
AcDbPolygonMeshVertex
 10
-0.224
 20
-1.062
 30
5.765
 70
    64
  0
VERTEX
  5
9DAA3
100
AcDbEntity
  8
0
100
AcDbVertex
100
AcDbPolygonMeshVertex
 10
-0.224
 20
-1.062
 30
5.765
 70
    64
  0
VERTEX
  5
9DAA4
100
AcDbEntity
  8
0
100
AcDbVertex
100
AcDbPolygonMeshVertex
 10
-0.224
 20
-5.062
 30
5.765
 70
    64
  0
SEQEND
  5
9DAA5
100
AcDbEntity
  8
0
  0
POLYLINE
  5
9DAA6
100
AcDbEntity
  8
0
100
AcDbPolygonMesh
 66
     1
 10
0.0
 20
0.0
 30
0.0
 70
    16
 71
     6
 72
     3
  0
VERTEX
  5
9DAA7
100
AcDbEntity
  8
0
100
AcDbVertex
100
AcDbPolygonMeshVertex
 10
5.966
 20
-9.192
 30
6.065
 70
    64
  0
VERTEX
  5
9DAA8
100
AcDbEntity
  8
0
100
AcDbVertex
100
AcDbPolygonMeshVertex
 10
5.966
 20
-9.192
 30
4.325
 70
    64
  0
VERTEX
  5
9DAA9
100
AcDbEntity
  8
0
100
AcDbVertex
100
AcDbPolygonMeshVertex
 10
5.966
 20
-9.192
 30
4.325
 70
    64
  0
VERTEX
  5
9DAAA
100
AcDbEntity
  8
0
100
AcDbVertex
100
AcDbPolygonMeshVertex
 10
-0.414001
 20
-9.192
 30
6.065
 70
    64
  0
VERTEX
  5
9DAAB
100
AcDbEntity
  8
0
100
AcDbVertex
100
AcDbPolygonMeshVertex
 10
-0.414001
 20
-9.192
 30
4.325
 70
    64
  0
VERTEX
  5
9DAAC
100
AcDbEntity
  8
0
100
AcDbVertex
100
AcDbPolygonMeshVertex
 10
-0.414001
 20
-9.192
 30
4.325
 70
    64
  0
VERTEX
  5
9DAAD
100
AcDbEntity
  8
0
100
AcDbVertex
100
AcDbPolygonMeshVertex
 10
-0.414001
 20
-5.122
 30
6.065
 70
    64
  0
VERTEX
  5
9DAAE
100
AcDbEntity
  8
0
100
AcDbVertex
100
AcDbPolygonMeshVertex
 10
-0.414001
 20
-5.122
 30
4.325
 70
    64
  0
VERTEX
  5
9DAAF
100
AcDbEntity
  8
0
100
AcDbVertex
100
AcDbPolygonMeshVertex
 10
-0.414001
 20
-9.192
 30
4.325
 70
    64
  0
VERTEX
  5
9DAB0
100
AcDbEntity
  8
0
100
AcDbVertex
100
AcDbPolygonMeshVertex
 10
5.966
 20
-5.122
 30
6.065
 70
    64
  0
VERTEX
  5
9DAB1
100
AcDbEntity
  8
0
100
AcDbVertex
100
AcDbPolygonMeshVertex
 10
5.966
 20
-5.122
 30
4.325
 70
    64
  0
VERTEX
  5
9DAB2
100
AcDbEntity
  8
0
100
AcDbVertex
100
AcDbPolygonMeshVertex
 10
5.966
 20
-9.192
 30
4.325
 70
    64
  0
VERTEX
  5
9DAB3
100
AcDbEntity
  8
0
100
AcDbVertex
100
AcDbPolygonMeshVertex
 10
5.966
 20
-5.122
 30
6.065
 70
    64
  0
VERTEX
  5
9DAB4
100
AcDbEntity
  8
0
100
AcDbVertex
100
AcDbPolygonMeshVertex
 10
5.966
 20
-5.122
 30
6.065
 70
    64
  0
VERTEX
  5
9DAB5
100
AcDbEntity
  8
0
100
AcDbVertex
100
AcDbPolygonMeshVertex
 10
5.966
 20
-9.192
 30
6.065
 70
    64
  0
VERTEX
  5
9DAB6
100
AcDbEntity
  8
0
100
AcDbVertex
100
AcDbPolygonMeshVertex
 10
-0.414001
 20
-5.122
 30
6.065
 70
    64
  0
VERTEX
  5
9DAB7
100
AcDbEntity
  8
0
100
AcDbVertex
100
AcDbPolygonMeshVertex
 10
-0.414001
 20
-5.122
 30
6.065
 70
    64
  0
VERTEX
  5
9DAB8
100
AcDbEntity
  8
0
100
AcDbVertex
100
AcDbPolygonMeshVertex
 10
-0.414001
 20
-9.192
 30
6.065
 70
    64
  0
SEQEND
  5
9DAB9
100
AcDbEntity
  8
0
  0
POLYLINE
  5
9DABA
100
AcDbEntity
  8
0
100
AcDbPolygonMesh
 66
     1
 10
0.0
 20
0.0
 30
0.0
 70
    16
 71
     6
 72
     3
  0
VERTEX
  5
9DABB
100
AcDbEntity
  8
0
100
AcDbVertex
100
AcDbPolygonMeshVertex
 10
3.466
 20
-6.482
 30
6.825
 70
    64
  0
VERTEX
  5
9DABC
100
AcDbEntity
  8
0
100
AcDbVertex
100
AcDbPolygonMeshVertex
 10
3.466
 20
-6.482
 30
6.445
 70
    64
  0
VERTEX
  5
9DABD
100
AcDbEntity
  8
0
100
AcDbVertex
100
AcDbPolygonMeshVertex
 10
3.466
 20
-6.482
 30
6.445
 70
    64
  0
VERTEX
  5
9DABE
100
AcDbEntity
  8
0
100
AcDbVertex
100
AcDbPolygonMeshVertex
 10
3.086
 20
-6.482
 30
6.825
 70
    64
  0
VERTEX
  5
9DABF
100
AcDbEntity
  8
0
100
AcDbVertex
100
AcDbPolygonMeshVertex
 10
3.086
 20
-6.482
 30
6.445
 70
    64
  0
VERTEX
  5
9DAC0
100
AcDbEntity
  8
0
100
AcDbVertex
100
AcDbPolygonMeshVertex
 10
3.086
 20
-6.482
 30
6.445
 70
    64
  0
VERTEX
  5
9DAC1
100
AcDbEntity
  8
0
100
AcDbVertex
100
AcDbPolygonMeshVertex
 10
3.086
 20
-6.042
 30
6.825
 70
    64
  0
VERTEX
  5
9DAC2
100
AcDbEntity
  8
0
100
AcDbVertex
100
AcDbPolygonMeshVertex
 10
3.086
 20
-6.042
 30
6.445
 70
    64
  0
VERTEX
  5
9DAC3
100
AcDbEntity
  8
0
100
AcDbVertex
100
AcDbPolygonMeshVertex
 10
3.086
 20
-6.482
 30
6.445
 70
    64
  0
VERTEX
  5
9DAC4
100
AcDbEntity
  8
0
100
AcDbVertex
100
AcDbPolygonMeshVertex
 10
3.466
 20
-6.042
 30
6.825
 70
    64
  0
VERTEX
  5
9DAC5
100
AcDbEntity
  8
0
100
AcDbVertex
100
AcDbPolygonMeshVertex
 10
3.466
 20
-6.042
 30
6.445
 70
    64
  0
VERTEX
  5
9DAC6
100
AcDbEntity
  8
0
100
AcDbVertex
100
AcDbPolygonMeshVertex
 10
3.466
 20
-6.482
 30
6.445
 70
    64
  0
VERTEX
  5
9DAC7
100
AcDbEntity
  8
0
100
AcDbVertex
100
AcDbPolygonMeshVertex
 10
3.466
 20
-6.042
 30
6.825
 70
    64
  0
VERTEX
  5
9DAC8
100
AcDbEntity
  8
0
100
AcDbVertex
100
AcDbPolygonMeshVertex
 10
3.466
 20
-6.042
 30
6.825
 70
    64
  0
VERTEX
  5
9DAC9
100
AcDbEntity
  8
0
100
AcDbVertex
100
AcDbPolygonMeshVertex
 10
3.466
 20
-6.482
 30
6.825
 70
    64
  0
VERTEX
  5
9DACA
100
AcDbEntity
  8
0
100
AcDbVertex
100
AcDbPolygonMeshVertex
 10
3.086
 20
-6.042
 30
6.825
 70
    64
  0
VERTEX
  5
9DACB
100
AcDbEntity
  8
0
100
AcDbVertex
100
AcDbPolygonMeshVertex
 10
3.086
 20
-6.042
 30
6.825
 70
    64
  0
VERTEX
  5
9DACC
100
AcDbEntity
  8
0
100
AcDbVertex
100
AcDbPolygonMeshVertex
 10
3.086
 20
-6.482
 30
6.825
 70
    64
  0
SEQEND
  5
9DACD
100
AcDbEntity
  8
0
  0
POLYLINE
  5
9DACE
100
AcDbEntity
  8
0
100
AcDbPolygonMesh
 66
     1
 10
0.0
 20
0.0
 30
0.0
 70
    16
 71
     6
 72
     3
  0
VERTEX
  5
9DACF
100
AcDbEntity
  8
0
100
AcDbVertex
100
AcDbPolygonMeshVertex
 10
2.466
 20
-6.482
 30
6.825
 70
    64
  0
VERTEX
  5
9DAD0
100
AcDbEntity
  8
0
100
AcDbVertex
100
AcDbPolygonMeshVertex
 10
2.466
 20
-6.482
 30
6.445
 70
    64
  0
VERTEX
  5
9DAD1
100
AcDbEntity
  8
0
100
AcDbVertex
100
AcDbPolygonMeshVertex
 10
2.466
 20
-6.482
 30
6.445
 70
    64
  0
VERTEX
  5
9DAD2
100
AcDbEntity
  8
0
100
AcDbVertex
100
AcDbPolygonMeshVertex
 10
2.086
 20
-6.482
 30
6.825
 70
    64
  0
VERTEX
  5
9DAD3
100
AcDbEntity
  8
0
100
AcDbVertex
100
AcDbPolygonMeshVertex
 10
2.086
 20
-6.482
 30
6.445
 70
    64
  0
VERTEX
  5
9DAD4
100
AcDbEntity
  8
0
100
AcDbVertex
100
AcDbPolygonMeshVertex
 10
2.086
 20
-6.482
 30
6.445
 70
    64
  0
VERTEX
  5
9DAD5
100
AcDbEntity
  8
0
100
AcDbVertex
100
AcDbPolygonMeshVertex
 10
2.086
 20
-6.042
 30
6.825
 70
    64
  0
VERTEX
  5
9DAD6
100
AcDbEntity
  8
0
100
AcDbVertex
100
AcDbPolygonMeshVertex
 10
2.086
 20
-6.042
 30
6.445
 70
    64
  0
VERTEX
  5
9DAD7
100
AcDbEntity
  8
0
100
AcDbVertex
100
AcDbPolygonMeshVertex
 10
2.086
 20
-6.482
 30
6.445
 70
    64
  0
VERTEX
  5
9DAD8
100
AcDbEntity
  8
0
100
AcDbVertex
100
AcDbPolygonMeshVertex
 10
2.466
 20
-6.042
 30
6.825
 70
    64
  0
VERTEX
  5
9DAD9
100
AcDbEntity
  8
0
100
AcDbVertex
100
AcDbPolygonMeshVertex
 10
2.466
 20
-6.042
 30
6.445
 70
    64
  0
VERTEX
  5
9DADA
100
AcDbEntity
  8
0
100
AcDbVertex
100
AcDbPolygonMeshVertex
 10
2.466
 20
-6.482
 30
6.445
 70
    64
  0
VERTEX
  5
9DADB
100
AcDbEntity
  8
0
100
AcDbVertex
100
AcDbPolygonMeshVertex
 10
2.466
 20
-6.042
 30
6.825
 70
    64
  0
VERTEX
  5
9DADC
100
AcDbEntity
  8
0
100
AcDbVertex
100
AcDbPolygonMeshVertex
 10
2.466
 20
-6.042
 30
6.825
 70
    64
  0
VERTEX
  5
9DADD
100
AcDbEntity
  8
0
100
AcDbVertex
100
AcDbPolygonMeshVertex
 10
2.466
 20
-6.482
 30
6.825
 70
    64
  0
VERTEX
  5
9DADE
100
AcDbEntity
  8
0
100
AcDbVertex
100
AcDbPolygonMeshVertex
 10
2.086
 20
-6.042
 30
6.825
 70
    64
  0
VERTEX
  5
9DADF
100
AcDbEntity
  8
0
100
AcDbVertex
100
AcDbPolygonMeshVertex
 10
2.086
 20
-6.042
 30
6.825
 70
    64
  0
VERTEX
  5
9DAE0
100
AcDbEntity
  8
0
100
AcDbVertex
100
AcDbPolygonMeshVertex
 10
2.086
 20
-6.482
 30
6.825
 70
    64
  0
SEQEND
  5
9DAE1
100
AcDbEntity
  8
0
  0
LINE
  5
9DAE2
100
AcDbEntity
  8
0
100
AcDbLine
 10
2.286
 20
-9.947
 30
6.715
 11
2.286
 21
-9.947
 31
6.595
  0
LINE
  5
9DAE3
100
AcDbEntity
  8
0
100
AcDbLine
 10
2.286
 20
-10.697
 30
6.715
 11
2.286
 21
-10.697
 31
6.595
  0
3DFACE
  5
9DAE4
100
AcDbEntity
  8
0
100
AcDbFace
 10
2.286
 20
-9.947
 30
6.715
 11
2.286
 21
-9.947
 31
6.595
 12
2.286
 22
-10.697
 32
6.595
 13
2.286
 23
-10.697
 33
6.715
 70
    14
  0
LINE
  5
9DAE5
100
AcDbEntity
  8
0
100
AcDbLine
 10
1.666
 20
-9.947
 30
6.715
 11
1.666
 21
-9.947
 31
6.595
  0
LINE
  5
9DAE6
100
AcDbEntity
  8
0
100
AcDbLine
 10
1.666
 20
-10.697
 30
6.715
 11
1.666
 21
-10.697
 31
6.595
  0
3DFACE
  5
9DAE7
100
AcDbEntity
  8
0
100
AcDbFace
 10
1.666
 20
-10.697
 30
6.715
 11
1.666
 21
-9.947
 31
6.715
 12
1.666
 22
-9.947
 32
6.595
 13
1.666
 23
-10.697
 33
6.595
 70
    14
  0
3DFACE
  5
9DAE8
100
AcDbEntity
  8
0
100
AcDbFace
 10
2.286
 20
-9.947
 30
6.715
 11
2.286
 21
-9.947
 31
6.595
 12
1.666
 22
-9.947
 32
6.595
 13
1.666
 23
-9.947
 33
6.715
 70
    14
  0
3DFACE
  5
9DAE9
100
AcDbEntity
  8
0
100
AcDbFace
 10
2.286
 20
-10.697
 30
6.715
 11
2.286
 21
-10.697
 31
6.595
 12
1.666
 22
-10.697
 32
6.595
 13
1.666
 23
-10.697
 33
6.715
 70
    14
  0
CIRCLE
  5
9DAEA
100
AcDbEntity
  8
0
100
AcDbCircle
 10
1.156
 20
-13.232001
 30
4.885
 40
0.375
  0
CIRCLE
  5
9DAEB
100
AcDbEntity
  8
0
100
AcDbCircle
 10
2.776
 20
-13.232001
 30
4.885
 40
0.3125
  0
CIRCLE
  5
9DAEC
100
AcDbEntity
  8
0
100
AcDbCircle
 10
2.776
 20
-13.232001
 30
4.885
 40
0.375
  0
LWPOLYLINE
  5
9DAED
100
AcDbEntity
  8
0
100
AcDbPolyline
 90
        6
 70
     1
 43
0.0
 38
4.885
 10
1.254149
 20
-13.062001
 10
1.352299
 20
-13.232001
 10
1.254149
 20
-13.402
 10
1.05785
 20
-13.402
 10
0.959701
 20
-13.232001
 10
1.05785
 20
-13.062001
  0
CIRCLE
  5
9DAEE
100
AcDbEntity
  8
0
100
AcDbCircle
 10
1.156
 20
-13.232001
 30
4.885
 40
0.3125
  0
LWPOLYLINE
  5
9DAEF
100
AcDbEntity
  8
0
100
AcDbPolyline
 90
        6
 70
     1
 43
0.0
 38
4.885
 10
2.874149
 20
-13.062001
 10
2.972299
 20
-13.232001
 10
2.874149
 20
-13.402
 10
2.67785
 20
-13.402
 10
2.579701
 20
-13.232001
 10
2.67785
 20
-13.062001
  0
LINE
  5
9DAF0
100
AcDbEntity
  8
0
100
AcDbLine
 10
2.066
 20
-10.232
 30
5.875
 11
2.066
 21
-10.232
 31
5.075
  0
LINE
  5
9DAF1
100
AcDbEntity
  8
0
100
AcDbLine
 10
1.886
 20
-10.232
 30
5.875
 11
1.886
 21
-10.232
 31
5.075
  0
LINE
  5
9DAF2
100
AcDbEntity
  8
0
100
AcDbLine
 10
1.886
 20
-10.412
 30
5.875
 11
1.886
 21
-10.412
 31
5.075
  0
LINE
  5
9DAF3
100
AcDbEntity
  8
0
100
AcDbLine
 10
2.066
 20
-10.412
 30
5.875
 11
2.066
 21
-10.412
 31
5.075
  0
3DFACE
  5
9DAF4
100
AcDbEntity
  8
0
100
AcDbFace
 10
2.066
 20
-10.412
 30
5.875
 11
2.066
 21
-10.412
 31
5.075
 12
1.886
 22
-10.412
 32
5.075
 13
1.886
 23
-10.412
 33
5.875
 70
    14
  0
3DFACE
  5
9DAF5
100
AcDbEntity
  8
0
100
AcDbFace
 10
1.886
 20
-10.232
 30
5.875
 11
1.886
 21
-10.232
 31
5.075
 12
1.886
 22
-10.412
 32
5.075
 13
1.886
 23
-10.412
 33
5.875
 70
    14
  0
3DFACE
  5
9DAF6
100
AcDbEntity
  8
0
100
AcDbFace
 10
1.886
 20
-10.232
 30
5.875
 11
1.886
 21
-10.232
 31
5.075
 12
2.066
 22
-10.232
 32
5.075
 13
2.066
 23
-10.232
 33
5.875
 70
    14
  0
3DFACE
  5
9DAF7
100
AcDbEntity
  8
0
100
AcDbFace
 10
2.066
 20
-10.232
 30
5.875
 11
2.066
 21
-10.232
 31
5.075
 12
2.066
 22
-10.412
 32
5.075
 13
2.066
 23
-10.412
 33
5.875
 70
    14
  0
LINE
  5
9DAF8
100
AcDbEntity
  8
0
100
AcDbLine
 10
1.886
 20
-10.412
 30
5.075
 11
2.066
 21
-10.412
 31
5.075
  0
LINE
  5
9DAF9
100
AcDbEntity
  8
0
100
AcDbLine
 10
2.066
 20
-10.232
 30
5.075
 11
1.886
 21
-10.232
 31
5.075
  0
LINE
  5
9DAFA
100
AcDbEntity
  8
0
100
AcDbLine
 10
1.886
 20
-10.232
 30
5.075
 11
1.886
 21
-10.412
 31
5.075
  0
LINE
  5
9DAFB
100
AcDbEntity
  8
0
100
AcDbLine
 10
2.066
 20
-10.412
 30
5.075
 11
2.066
 21
-10.232
 31
5.075
  0
POLYLINE
  5
9DAFC
100
AcDbEntity
  8
0
100
AcDbPolygonMesh
 66
     1
 10
0.0
 20
0.0
 30
0.0
 70
    16
 71
     6
 72
     3
  0
VERTEX
  5
9DAFD
100
AcDbEntity
  8
0
100
AcDbVertex
100
AcDbPolygonMeshVertex
 10
3.776
 20
-6.942
 30
6.445
 70
    64
  0
VERTEX
  5
9DAFE
100
AcDbEntity
  8
0
100
AcDbVertex
100
AcDbPolygonMeshVertex
 10
3.776
 20
-6.942
 30
6.065
 70
    64
  0
VERTEX
  5
9DAFF
100
AcDbEntity
  8
0
100
AcDbVertex
100
AcDbPolygonMeshVertex
 10
3.776
 20
-6.942
 30
6.065
 70
    64
  0
VERTEX
  5
9DB00
100
AcDbEntity
  8
0
100
AcDbVertex
100
AcDbPolygonMeshVertex
 10
1.776
 20
-6.942
 30
6.445
 70
    64
  0
VERTEX
  5
9DB01
100
AcDbEntity
  8
0
100
AcDbVertex
100
AcDbPolygonMeshVertex
 10
1.776
 20
-6.942
 30
6.065
 70
    64
  0
VERTEX
  5
9DB02
100
AcDbEntity
  8
0
100
AcDbVertex
100
AcDbPolygonMeshVertex
 10
1.776
 20
-6.942
 30
6.065
 70
    64
  0
VERTEX
  5
9DB03
100
AcDbEntity
  8
0
100
AcDbVertex
100
AcDbPolygonMeshVertex
 10
1.776
 20
-5.942
 30
6.445
 70
    64
  0
VERTEX
  5
9DB04
100
AcDbEntity
  8
0
100
AcDbVertex
100
AcDbPolygonMeshVertex
 10
1.776
 20
-5.942
 30
6.065
 70
    64
  0
VERTEX
  5
9DB05
100
AcDbEntity
  8
0
100
AcDbVertex
100
AcDbPolygonMeshVertex
 10
1.776
 20
-6.942
 30
6.065
 70
    64
  0
VERTEX
  5
9DB06
100
AcDbEntity
  8
0
100
AcDbVertex
100
AcDbPolygonMeshVertex
 10
3.776
 20
-5.942
 30
6.445
 70
    64
  0
VERTEX
  5
9DB07
100
AcDbEntity
  8
0
100
AcDbVertex
100
AcDbPolygonMeshVertex
 10
3.776
 20
-5.942
 30
6.065
 70
    64
  0
VERTEX
  5
9DB08
100
AcDbEntity
  8
0
100
AcDbVertex
100
AcDbPolygonMeshVertex
 10
3.776
 20
-6.942
 30
6.065
 70
    64
  0
VERTEX
  5
9DB09
100
AcDbEntity
  8
0
100
AcDbVertex
100
AcDbPolygonMeshVertex
 10
3.776
 20
-5.942
 30
6.445
 70
    64
  0
VERTEX
  5
9DB0A
100
AcDbEntity
  8
0
100
AcDbVertex
100
AcDbPolygonMeshVertex
 10
3.776
 20
-5.942
 30
6.445
 70
    64
  0
VERTEX
  5
9DB0B
100
AcDbEntity
  8
0
100
AcDbVertex
100
AcDbPolygonMeshVertex
 10
3.776
 20
-6.942
 30
6.445
 70
    64
  0
VERTEX
  5
9DB0C
100
AcDbEntity
  8
0
100
AcDbVertex
100
AcDbPolygonMeshVertex
 10
1.776
 20
-5.942
 30
6.445
 70
    64
  0
VERTEX
  5
9DB0D
100
AcDbEntity
  8
0
100
AcDbVertex
100
AcDbPolygonMeshVertex
 10
1.776
 20
-5.942
 30
6.445
 70
    64
  0
VERTEX
  5
9DB0E
100
AcDbEntity
  8
0
100
AcDbVertex
100
AcDbPolygonMeshVertex
 10
1.776
 20
-6.942
 30
6.445
 70
    64
  0
SEQEND
  5
9DB0F
100
AcDbEntity
  8
0
  0
LINE
  5
9DB10
100
AcDbEntity
  8
0
100
AcDbLine
 10
2.226
 20
-10.072
 30
6.185
 11
2.226
 21
-10.072
 31
5.875
  0
LINE
  5
9DB11
100
AcDbEntity
  8
0
100
AcDbLine
 10
2.226
 20
-10.572
 30
6.185
 11
2.226
 21
-10.572
 31
5.875
  0
3DFACE
  5
9DB12
100
AcDbEntity
  8
0
100
AcDbFace
 10
2.226
 20
-10.072
 30
6.185
 11
2.226
 21
-10.572
 31
6.185
 12
2.226
 22
-10.572
 32
5.875
 13
2.226
 23
-10.072
 33
5.875
 70
    14
  0
LINE
  5
9DB13
100
AcDbEntity
  8
0
100
AcDbLine
 10
1.726
 20
-10.072
 30
6.185
 11
1.726
 21
-10.072
 31
5.875
  0
LINE
  5
9DB14
100
AcDbEntity
  8
0
100
AcDbLine
 10
1.726
 20
-10.572
 30
6.185
 11
1.726
 21
-10.572
 31
5.875
  0
3DFACE
  5
9DB15
100
AcDbEntity
  8
0
100
AcDbFace
 10
1.726
 20
-10.572
 30
6.185
 11
1.726
 21
-10.572
 31
5.875
 12
1.726
 22
-10.072
 32
5.875
 13
1.726
 23
-10.072
 33
6.185
 70
    14
  0
3DFACE
  5
9DB16
100
AcDbEntity
  8
0
100
AcDbFace
 10
2.226
 20
-10.072
 30
6.185
 11
2.226
 21
-10.072
 31
5.875
 12
1.726
 22
-10.072
 32
5.875
 13
1.726
 23
-10.072
 33
6.185
 70
    14
  0
3DFACE
  5
9DB17
100
AcDbEntity
  8
0
100
AcDbFace
 10
1.726
 20
-10.572
 30
6.185
 11
2.226
 21
-10.572
 31
6.185
 12
2.226
 22
-10.572
 32
5.875
 13
1.726
 23
-10.572
 33
5.875
 70
    14
  0
LINE
  5
9DB18
100
AcDbEntity
  8
0
100
AcDbLine
 10
2.226
 20
-10.572
 30
5.875
 11
2.226
 21
-10.072
 31
5.875
  0
LINE
  5
9DB19
100
AcDbEntity
  8
0
100
AcDbLine
 10
1.726
 20
-10.072
 30
5.875
 11
1.726
 21
-10.572
 31
5.875
  0
LINE
  5
9DB1A
100
AcDbEntity
  8
0
100
AcDbLine
 10
1.726
 20
-10.572
 30
5.875
 11
2.226
 21
-10.572
 31
5.875
  0
LINE
  5
9DB1B
100
AcDbEntity
  8
0
100
AcDbLine
 10
2.226
 20
-10.072
 30
5.875
 11
1.726
 21
-10.072
 31
5.875
  0
LINE
  5
9DB1C
100
AcDbEntity
  8
0
100
AcDbLine
 10
1.886
 20
-10.412
 30
5.875
 11
2.066
 21
-10.412
 31
5.875
  0
LINE
  5
9DB1D
100
AcDbEntity
  8
0
100
AcDbLine
 10
2.066
 20
-10.232
 30
5.875
 11
1.886
 21
-10.232
 31
5.875
  0
3DFACE
  5
9DB1E
100
AcDbEntity
  8
0
100
AcDbFace
 10
2.066
 20
-10.232
 30
5.875
 11
1.886
 21
-10.232
 31
5.875
 12
1.886
 22
-10.412
 32
5.875
 13
2.066
 23
-10.412
 33
5.875
 70
    14
  0
LINE
  5
9DB1F
100
AcDbEntity
  8
0
100
AcDbLine
 10
1.886
 20
-10.232
 30
5.875
 11
1.886
 21
-10.412
 31
5.875
  0
LINE
  5
9DB20
100
AcDbEntity
  8
0
100
AcDbLine
 10
2.066
 20
-10.412
 30
5.875
 11
2.066
 21
-10.232
 31
5.875
  0
LINE
  5
9DB21
100
AcDbEntity
  8
0
100
AcDbLine
 10
1.666
 20
-10.697
 30
6.595
 11
2.286
 21
-10.697
 31
6.595
  0
LINE
  5
9DB22
100
AcDbEntity
  8
0
100
AcDbLine
 10
2.286
 20
-9.947
 30
6.595
 11
1.666
 21
-9.947
 31
6.595
  0
LINE
  5
9DB23
100
AcDbEntity
  8
0
100
AcDbLine
 10
1.666
 20
-10.697
 30
6.595
 11
1.726
 21
-10.572
 31
6.185
  0
LINE
  5
9DB24
100
AcDbEntity
  8
0
100
AcDbLine
 10
1.666
 20
-9.947
 30
6.595
 11
1.726
 21
-10.072
 31
6.185001
  0
3DFACE
  5
9DB25
100
AcDbEntity
  8
0
100
AcDbFace
 10
1.666
 20
-10.697
 30
6.595
 11
1.666
 21
-9.947
 31
6.595
 12
1.726
 22
-10.072
 32
6.185
 13
1.726
 23
-10.572
 33
6.185
 70
    14
  0
3DFACE
  5
9DB26
100
AcDbEntity
  8
0
100
AcDbFace
 10
2.286
 20
-9.947
 30
6.595
 11
2.226
 21
-10.072
 31
6.185
 12
1.726
 22
-10.072
 32
6.185
 13
1.666
 23
-9.947
 33
6.595
 70
    14
  0
3DFACE
  5
9DB27
100
AcDbEntity
  8
0
100
AcDbFace
 10
2.286
 20
-10.697
 30
6.595
 11
1.666
 21
-10.697
 31
6.595
 12
1.726
 22
-10.572
 32
6.185
 13
2.226
 23
-10.572
 33
6.185
 70
    14
  0
LINE
  5
9DB28
100
AcDbEntity
  8
0
100
AcDbLine
 10
1.666
 20
-9.947
 30
6.595
 11
1.666
 21
-10.697
 31
6.595
  0
LINE
  5
9DB29
100
AcDbEntity
  8
0
100
AcDbLine
 10
2.286
 20
-10.697
 30
6.595
 11
2.286
 21
-9.947
 31
6.595
  0
LINE
  5
9DB2A
100
AcDbEntity
  8
0
100
AcDbLine
 10
2.226
 20
-10.572
 30
6.185
 11
2.226
 21
-10.072
 31
6.185
  0
LINE
  5
9DB2B
100
AcDbEntity
  8
0
100
AcDbLine
 10
1.726
 20
-10.072
 30
6.185
 11
1.726
 21
-10.572
 31
6.185
  0
3DFACE
  5
9DB2C
100
AcDbEntity
  8
0
100
AcDbFace
 10
2.286
 20
-9.947
 30
6.595
 11
2.226
 21
-10.072
 31
6.185
 12
2.226
 22
-10.572
 32
6.185
 13
2.286
 23
-10.697
 33
6.595
 70
    14
  0
LINE
  5
9DB2D
100
AcDbEntity
  8
0
100
AcDbLine
 10
2.286
 20
-10.697
 30
6.595
 11
2.226
 21
-10.572
 31
6.185
  0
LINE
  5
9DB2E
100
AcDbEntity
  8
0
100
AcDbLine
 10
1.726
 20
-10.572
 30
6.185
 11
2.226
 21
-10.572
 31
6.185
  0
LINE
  5
9DB2F
100
AcDbEntity
  8
0
100
AcDbLine
 10
2.286
 20
-9.947
 30
6.595
 11
2.226
 21
-10.072
 31
6.185001
  0
LINE
  5
9DB30
100
AcDbEntity
  8
0
100
AcDbLine
 10
2.226
 20
-10.072
 30
6.185
 11
1.726
 21
-10.072
 31
6.185
  0
LINE
  5
9DB31
100
AcDbEntity
  8
0
100
AcDbLine
 10
1.666
 20
-10.697
 30
6.715
 11
2.286
 21
-10.697
 31
6.715
  0
LINE
  5
9DB32
100
AcDbEntity
  8
0
100
AcDbLine
 10
2.286
 20
-9.947
 30
6.715
 11
1.666
 21
-9.947
 31
6.715
  0
3DFACE
  5
9DB33
100
AcDbEntity
  8
0
100
AcDbFace
 10
2.286
 20
-9.947
 30
6.715
 11
1.666
 21
-9.947
 31
6.715
 12
1.666
 22
-10.697
 32
6.715
 13
2.286
 23
-10.697
 33
6.715
 70
    14
  0
LINE
  5
9DB34
100
AcDbEntity
  8
0
100
AcDbLine
 10
1.666
 20
-9.947
 30
6.715
 11
1.666
 21
-10.697
 31
6.715
  0
LINE
  5
9DB35
100
AcDbEntity
  8
0
100
AcDbLine
 10
2.286
 20
-10.697
 30
6.715
 11
2.286
 21
-9.947
 31
6.715
  0
CIRCLE
  5
9DB36
100
AcDbEntity
  8
0
  6
BYBLOCK
100
AcDbCircle
 10
2.276
 20
-6.322
 30
6.825
 40
0.125
  0
LINE
  5
9DB37
100
AcDbEntity
  8
0
  6
BYBLOCK
100
AcDbLine
 10
2.227786
 20
-6.206672
 30
6.825
 11
2.308648
 21
-6.442661
 31
6.825
  0
LINE
  5
9DB38
100
AcDbEntity
  8
0
  6
BYBLOCK
100
AcDbLine
 10
2.244239
 20
-6.20054
 30
6.825
 11
2.325102
 21
-6.436528
 31
6.825
  0
CIRCLE
  5
9DB39
100
AcDbEntity
  8
0
  6
BYBLOCK
100
AcDbCircle
 10
3.276
 20
-6.322
 30
6.825
 40
0.125
  0
LINE
  5
9DB3A
100
AcDbEntity
  8
0
  6
BYBLOCK
100
AcDbLine
 10
3.227786
 20
-6.206672
 30
6.825
 11
3.308648
 21
-6.442661
 31
6.825
  0
LINE
  5
9DB3B
100
AcDbEntity
  8
0
  6
BYBLOCK
100
AcDbLine
 10
3.244239
 20
-6.20054
 30
6.825
 11
3.325102
 21
-6.436528
 31
6.825
  0
POLYLINE
  5
9DB3C
100
AcDbEntity
  8
0
100
AcDbPolygonMesh
 66
     1
 10
0.0
 20
0.0
 30
0.0
 70
    16
 71
     6
 72
     3
  0
VERTEX
  5
9DB3D
100
AcDbEntity
  8
0
100
AcDbVertex
100
AcDbPolygonMeshVertex
 10
1.246
 20
-2.252
 30
7.005
 70
    64
  0
VERTEX
  5
9DB3E
100
AcDbEntity
  8
0
100
AcDbVertex
100
AcDbPolygonMeshVertex
 10
1.246
 20
-2.252
 30
6.385
 70
    64
  0
VERTEX
  5
9DB3F
100
AcDbEntity
  8
0
100
AcDbVertex
100
AcDbPolygonMeshVertex
 10
1.246
 20
-2.252
 30
6.385
 70
    64
  0
VERTEX
  5
9DB40
100
AcDbEntity
  8
0
100
AcDbVertex
100
AcDbPolygonMeshVertex
 10
0.246
 20
-2.252
 30
7.005
 70
    64
  0
VERTEX
  5
9DB41
100
AcDbEntity
  8
0
100
AcDbVertex
100
AcDbPolygonMeshVertex
 10
0.246
 20
-2.252
 30
6.385
 70
    64
  0
VERTEX
  5
9DB42
100
AcDbEntity
  8
0
100
AcDbVertex
100
AcDbPolygonMeshVertex
 10
0.246
 20
-2.252
 30
6.385
 70
    64
  0
VERTEX
  5
9DB43
100
AcDbEntity
  8
0
100
AcDbVertex
100
AcDbPolygonMeshVertex
 10
0.246
 20
0.018
 30
7.005
 70
    64
  0
VERTEX
  5
9DB44
100
AcDbEntity
  8
0
100
AcDbVertex
100
AcDbPolygonMeshVertex
 10
0.246
 20
0.018
 30
6.385
 70
    64
  0
VERTEX
  5
9DB45
100
AcDbEntity
  8
0
100
AcDbVertex
100
AcDbPolygonMeshVertex
 10
0.246
 20
-2.252
 30
6.385
 70
    64
  0
VERTEX
  5
9DB46
100
AcDbEntity
  8
0
100
AcDbVertex
100
AcDbPolygonMeshVertex
 10
1.246
 20
0.018
 30
7.005
 70
    64
  0
VERTEX
  5
9DB47
100
AcDbEntity
  8
0
100
AcDbVertex
100
AcDbPolygonMeshVertex
 10
1.246
 20
0.018
 30
6.385
 70
    64
  0
VERTEX
  5
9DB48
100
AcDbEntity
  8
0
100
AcDbVertex
100
AcDbPolygonMeshVertex
 10
1.246
 20
-2.252
 30
6.385
 70
    64
  0
VERTEX
  5
9DB49
100
AcDbEntity
  8
0
100
AcDbVertex
100
AcDbPolygonMeshVertex
 10
1.246
 20
0.018
 30
7.005
 70
    64
  0
VERTEX
  5
9DB4A
100
AcDbEntity
  8
0
100
AcDbVertex
100
AcDbPolygonMeshVertex
 10
1.246
 20
0.018
 30
7.005
 70
    64
  0
VERTEX
  5
9DB4B
100
AcDbEntity
  8
0
100
AcDbVertex
100
AcDbPolygonMeshVertex
 10
1.246
 20
-2.252
 30
7.005
 70
    64
  0
VERTEX
  5
9DB4C
100
AcDbEntity
  8
0
100
AcDbVertex
100
AcDbPolygonMeshVertex
 10
0.246
 20
0.018
 30
7.005
 70
    64
  0
VERTEX
  5
9DB4D
100
AcDbEntity
  8
0
100
AcDbVertex
100
AcDbPolygonMeshVertex
 10
0.246
 20
0.018
 30
7.005
 70
    64
  0
VERTEX
  5
9DB4E
100
AcDbEntity
  8
0
100
AcDbVertex
100
AcDbPolygonMeshVertex
 10
0.246
 20
-2.252
 30
7.005
 70
    64
  0
SEQEND
  5
9DB4F
100
AcDbEntity
  8
0
  0
POLYLINE
  5
9DB50
100
AcDbEntity
  8
0
100
AcDbPolygonMesh
 66
     1
 10
0.0
 20
0.0
 30
0.0
 70
    16
 71
     6
 72
     3
  0
VERTEX
  5
9DB51
100
AcDbEntity
  8
0
100
AcDbVertex
100
AcDbPolygonMeshVertex
 10
3.276
 20
-2.252
 30
7.005
 70
    64
  0
VERTEX
  5
9DB52
100
AcDbEntity
  8
0
100
AcDbVertex
100
AcDbPolygonMeshVertex
 10
3.276
 20
-2.252
 30
6.385
 70
    64
  0
VERTEX
  5
9DB53
100
AcDbEntity
  8
0
100
AcDbVertex
100
AcDbPolygonMeshVertex
 10
3.276
 20
-2.252
 30
6.385
 70
    64
  0
VERTEX
  5
9DB54
100
AcDbEntity
  8
0
100
AcDbVertex
100
AcDbPolygonMeshVertex
 10
2.276
 20
-2.252
 30
7.005
 70
    64
  0
VERTEX
  5
9DB55
100
AcDbEntity
  8
0
100
AcDbVertex
100
AcDbPolygonMeshVertex
 10
2.276
 20
-2.252
 30
6.385
 70
    64
  0
VERTEX
  5
9DB56
100
AcDbEntity
  8
0
100
AcDbVertex
100
AcDbPolygonMeshVertex
 10
2.276
 20
-2.252
 30
6.385
 70
    64
  0
VERTEX
  5
9DB57
100
AcDbEntity
  8
0
100
AcDbVertex
100
AcDbPolygonMeshVertex
 10
2.276
 20
0.018
 30
7.005
 70
    64
  0
VERTEX
  5
9DB58
100
AcDbEntity
  8
0
100
AcDbVertex
100
AcDbPolygonMeshVertex
 10
2.276
 20
0.018
 30
6.385
 70
    64
  0
VERTEX
  5
9DB59
100
AcDbEntity
  8
0
100
AcDbVertex
100
AcDbPolygonMeshVertex
 10
2.276
 20
-2.252
 30
6.385
 70
    64
  0
VERTEX
  5
9DB5A
100
AcDbEntity
  8
0
100
AcDbVertex
100
AcDbPolygonMeshVertex
 10
3.276
 20
0.018
 30
7.005
 70
    64
  0
VERTEX
  5
9DB5B
100
AcDbEntity
  8
0
100
AcDbVertex
100
AcDbPolygonMeshVertex
 10
3.276
 20
0.018
 30
6.385
 70
    64
  0
VERTEX
  5
9DB5C
100
AcDbEntity
  8
0
100
AcDbVertex
100
AcDbPolygonMeshVertex
 10
3.276
 20
-2.252
 30
6.385
 70
    64
  0
VERTEX
  5
9DB5D
100
AcDbEntity
  8
0
100
AcDbVertex
100
AcDbPolygonMeshVertex
 10
3.276
 20
0.018
 30
7.005
 70
    64
  0
VERTEX
  5
9DB5E
100
AcDbEntity
  8
0
100
AcDbVertex
100
AcDbPolygonMeshVertex
 10
3.276
 20
0.018
 30
7.005
 70
    64
  0
VERTEX
  5
9DB5F
100
AcDbEntity
  8
0
100
AcDbVertex
100
AcDbPolygonMeshVertex
 10
3.276
 20
-2.252
 30
7.005
 70
    64
  0
VERTEX
  5
9DB60
100
AcDbEntity
  8
0
100
AcDbVertex
100
AcDbPolygonMeshVertex
 10
2.276
 20
0.018
 30
7.005
 70
    64
  0
VERTEX
  5
9DB61
100
AcDbEntity
  8
0
100
AcDbVertex
100
AcDbPolygonMeshVertex
 10
2.276
 20
0.018
 30
7.005
 70
    64
  0
VERTEX
  5
9DB62
100
AcDbEntity
  8
0
100
AcDbVertex
100
AcDbPolygonMeshVertex
 10
2.276
 20
-2.252
 30
7.005
 70
    64
  0
SEQEND
  5
9DB63
100
AcDbEntity
  8
0
  0
POLYLINE
  5
9DB64
100
AcDbEntity
  8
0
100
AcDbPolygonMesh
 66
     1
 10
0.0
 20
0.0
 30
0.0
 70
    16
 71
     6
 72
     3
  0
VERTEX
  5
9DB65
100
AcDbEntity
  8
0
100
AcDbVertex
100
AcDbPolygonMeshVertex
 10
1.246
 20
-1.102
 30
7.885
 70
    64
  0
VERTEX
  5
9DB66
100
AcDbEntity
  8
0
100
AcDbVertex
100
AcDbPolygonMeshVertex
 10
1.246
 20
-1.102
 30
7.005
 70
    64
  0
VERTEX
  5
9DB67
100
AcDbEntity
  8
0
100
AcDbVertex
100
AcDbPolygonMeshVertex
 10
1.246
 20
-1.102
 30
7.005
 70
    64
  0
VERTEX
  5
9DB68
100
AcDbEntity
  8
0
100
AcDbVertex
100
AcDbPolygonMeshVertex
 10
0.246
 20
-1.102
 30
7.885
 70
    64
  0
VERTEX
  5
9DB69
100
AcDbEntity
  8
0
100
AcDbVertex
100
AcDbPolygonMeshVertex
 10
0.246
 20
-1.102
 30
7.005
 70
    64
  0
VERTEX
  5
9DB6A
100
AcDbEntity
  8
0
100
AcDbVertex
100
AcDbPolygonMeshVertex
 10
0.246
 20
-1.102
 30
7.005
 70
    64
  0
VERTEX
  5
9DB6B
100
AcDbEntity
  8
0
100
AcDbVertex
100
AcDbPolygonMeshVertex
 10
0.246
 20
0.018
 30
7.885
 70
    64
  0
VERTEX
  5
9DB6C
100
AcDbEntity
  8
0
100
AcDbVertex
100
AcDbPolygonMeshVertex
 10
0.246
 20
0.018
 30
7.005
 70
    64
  0
VERTEX
  5
9DB6D
100
AcDbEntity
  8
0
100
AcDbVertex
100
AcDbPolygonMeshVertex
 10
0.246
 20
-1.102
 30
7.005
 70
    64
  0
VERTEX
  5
9DB6E
100
AcDbEntity
  8
0
100
AcDbVertex
100
AcDbPolygonMeshVertex
 10
1.246
 20
0.018
 30
7.885
 70
    64
  0
VERTEX
  5
9DB6F
100
AcDbEntity
  8
0
100
AcDbVertex
100
AcDbPolygonMeshVertex
 10
1.246
 20
0.018
 30
7.005
 70
    64
  0
VERTEX
  5
9DB70
100
AcDbEntity
  8
0
100
AcDbVertex
100
AcDbPolygonMeshVertex
 10
1.246
 20
-1.102
 30
7.005
 70
    64
  0
VERTEX
  5
9DB71
100
AcDbEntity
  8
0
100
AcDbVertex
100
AcDbPolygonMeshVertex
 10
1.246
 20
0.018
 30
7.885
 70
    64
  0
VERTEX
  5
9DB72
100
AcDbEntity
  8
0
100
AcDbVertex
100
AcDbPolygonMeshVertex
 10
1.246
 20
0.018
 30
7.885
 70
    64
  0
VERTEX
  5
9DB73
100
AcDbEntity
  8
0
100
AcDbVertex
100
AcDbPolygonMeshVertex
 10
1.246
 20
-1.102
 30
7.885
 70
    64
  0
VERTEX
  5
9DB74
100
AcDbEntity
  8
0
100
AcDbVertex
100
AcDbPolygonMeshVertex
 10
0.246
 20
0.018
 30
7.885
 70
    64
  0
VERTEX
  5
9DB75
100
AcDbEntity
  8
0
100
AcDbVertex
100
AcDbPolygonMeshVertex
 10
0.246
 20
0.018
 30
7.885
 70
    64
  0
VERTEX
  5
9DB76
100
AcDbEntity
  8
0
100
AcDbVertex
100
AcDbPolygonMeshVertex
 10
0.246
 20
-1.102
 30
7.885
 70
    64
  0
SEQEND
  5
9DB77
100
AcDbEntity
  8
0
  0
LWPOLYLINE
  5
9DB78
100
AcDbEntity
  8
0
  6
BYBLOCK
100
AcDbPolyline
 90
        6
 70
     1
 43
0.0
 38
7.885
 10
0.84415
 20
-0.712
 10
0.64785
 20
-0.712
 10
0.549701
 20
-0.542
 10
0.64785
 20
-0.372
 10
0.84415
 20
-0.372
 10
0.942299
 20
-0.542
  0
CIRCLE
  5
9DB79
100
AcDbEntity
  8
0
  6
BYBLOCK
100
AcDbCircle
 10
0.746
 20
-0.542
 30
7.885
 40
0.3125
  0
CIRCLE
  5
9DB7A
100
AcDbEntity
  8
0
  6
BYBLOCK
100
AcDbCircle
 10
0.746
 20
-0.542
 30
7.885
 40
0.375
  0
POLYLINE
  5
9DB7B
100
AcDbEntity
  8
0
100
AcDbPolygonMesh
 66
     1
 10
0.0
 20
0.0
 30
0.0
 70
    16
 71
     6
 72
     3
  0
VERTEX
  5
9DB7C
100
AcDbEntity
  8
0
100
AcDbVertex
100
AcDbPolygonMeshVertex
 10
3.276
 20
-1.102
 30
7.885
 70
    64
  0
VERTEX
  5
9DB7D
100
AcDbEntity
  8
0
100
AcDbVertex
100
AcDbPolygonMeshVertex
 10
3.276
 20
-1.102
 30
7.005
 70
    64
  0
VERTEX
  5
9DB7E
100
AcDbEntity
  8
0
100
AcDbVertex
100
AcDbPolygonMeshVertex
 10
3.276
 20
-1.102
 30
7.005
 70
    64
  0
VERTEX
  5
9DB7F
100
AcDbEntity
  8
0
100
AcDbVertex
100
AcDbPolygonMeshVertex
 10
2.276
 20
-1.102
 30
7.885
 70
    64
  0
VERTEX
  5
9DB80
100
AcDbEntity
  8
0
100
AcDbVertex
100
AcDbPolygonMeshVertex
 10
2.276
 20
-1.102
 30
7.005
 70
    64
  0
VERTEX
  5
9DB81
100
AcDbEntity
  8
0
100
AcDbVertex
100
AcDbPolygonMeshVertex
 10
2.276
 20
-1.102
 30
7.005
 70
    64
  0
VERTEX
  5
9DB82
100
AcDbEntity
  8
0
100
AcDbVertex
100
AcDbPolygonMeshVertex
 10
2.276
 20
0.018
 30
7.885
 70
    64
  0
VERTEX
  5
9DB83
100
AcDbEntity
  8
0
100
AcDbVertex
100
AcDbPolygonMeshVertex
 10
2.276
 20
0.018
 30
7.005
 70
    64
  0
VERTEX
  5
9DB84
100
AcDbEntity
  8
0
100
AcDbVertex
100
AcDbPolygonMeshVertex
 10
2.276
 20
-1.102
 30
7.005
 70
    64
  0
VERTEX
  5
9DB85
100
AcDbEntity
  8
0
100
AcDbVertex
100
AcDbPolygonMeshVertex
 10
3.276
 20
0.018
 30
7.885
 70
    64
  0
VERTEX
  5
9DB86
100
AcDbEntity
  8
0
100
AcDbVertex
100
AcDbPolygonMeshVertex
 10
3.276
 20
0.018
 30
7.005
 70
    64
  0
VERTEX
  5
9DB87
100
AcDbEntity
  8
0
100
AcDbVertex
100
AcDbPolygonMeshVertex
 10
3.276
 20
-1.102
 30
7.005
 70
    64
  0
VERTEX
  5
9DB88
100
AcDbEntity
  8
0
100
AcDbVertex
100
AcDbPolygonMeshVertex
 10
3.276
 20
0.018
 30
7.885
 70
    64
  0
VERTEX
  5
9DB89
100
AcDbEntity
  8
0
100
AcDbVertex
100
AcDbPolygonMeshVertex
 10
3.276
 20
0.018
 30
7.885
 70
    64
  0
VERTEX
  5
9DB8A
100
AcDbEntity
  8
0
100
AcDbVertex
100
AcDbPolygonMeshVertex
 10
3.276
 20
-1.102
 30
7.885
 70
    64
  0
VERTEX
  5
9DB8B
100
AcDbEntity
  8
0
100
AcDbVertex
100
AcDbPolygonMeshVertex
 10
2.276
 20
0.018
 30
7.885
 70
    64
  0
VERTEX
  5
9DB8C
100
AcDbEntity
  8
0
100
AcDbVertex
100
AcDbPolygonMeshVertex
 10
2.276
 20
0.018
 30
7.885
 70
    64
  0
VERTEX
  5
9DB8D
100
AcDbEntity
  8
0
100
AcDbVertex
100
AcDbPolygonMeshVertex
 10
2.276
 20
-1.102
 30
7.885
 70
    64
  0
SEQEND
  5
9DB8E
100
AcDbEntity
  8
0
  0
CIRCLE
  5
9DB8F
100
AcDbEntity
  8
0
  6
BYBLOCK
100
AcDbCircle
 10
2.776
 20
-0.542
 30
7.885
 40
0.3125
  0
CIRCLE
  5
9DB90
100
AcDbEntity
  8
0
  6
BYBLOCK
100
AcDbCircle
 10
2.776
 20
-0.542
 30
7.885
 40
0.375
  0
LWPOLYLINE
  5
9DB91
100
AcDbEntity
  8
0
  6
BYBLOCK
100
AcDbPolyline
 90
        6
 70
     1
 43
0.0
 38
7.885
 10
2.87415
 20
-0.712
 10
2.67785
 20
-0.712
 10
2.579701
 20
-0.542
 10
2.67785
 20
-0.372
 10
2.87415
 20
-0.372
 10
2.972299
 20
-0.542
  0
LWPOLYLINE
  5
9DB92
100
AcDbEntity
  8
0
  6
BYBLOCK
100
AcDbPolyline
 90
        6
 70
     1
 43
0.0
 38
7.885
 10
4.90415
 20
-0.712
 10
4.70785
 20
-0.712
 10
4.609701
 20
-0.542
 10
4.70785
 20
-0.372
 10
4.90415
 20
-0.372
 10
5.002299
 20
-0.542
  0
CIRCLE
  5
9DB93
100
AcDbEntity
  8
0
  6
BYBLOCK
100
AcDbCircle
 10
4.806
 20
-0.542
 30
7.885
 40
0.375
  0
CIRCLE
  5
9DB94
100
AcDbEntity
  8
0
  6
BYBLOCK
100
AcDbCircle
 10
4.806
 20
-0.542
 30
7.885
 40
0.3125
  0
POLYLINE
  5
9DB95
100
AcDbEntity
  8
0
100
AcDbPolygonMesh
 66
     1
 10
0.0
 20
0.0
 30
0.0
 70
    16
 71
     6
 72
     3
  0
VERTEX
  5
9DB96
100
AcDbEntity
  8
0
100
AcDbVertex
100
AcDbPolygonMeshVertex
 10
12.771001
 20
-13.792
 30
4.885
 70
    64
  0
VERTEX
  5
9DB97
100
AcDbEntity
  8
0
100
AcDbVertex
100
AcDbPolygonMeshVertex
 10
12.771001
 20
-13.792
 30
4.005
 70
    64
  0
VERTEX
  5
9DB98
100
AcDbEntity
  8
0
100
AcDbVertex
100
AcDbPolygonMeshVertex
 10
12.771001
 20
-13.792
 30
4.005
 70
    64
  0
VERTEX
  5
9DB99
100
AcDbEntity
  8
0
100
AcDbVertex
100
AcDbPolygonMeshVertex
 10
11.771001
 20
-13.792
 30
4.885
 70
    64
  0
VERTEX
  5
9DB9A
100
AcDbEntity
  8
0
100
AcDbVertex
100
AcDbPolygonMeshVertex
 10
11.771001
 20
-13.792
 30
4.005
 70
    64
  0
VERTEX
  5
9DB9B
100
AcDbEntity
  8
0
100
AcDbVertex
100
AcDbPolygonMeshVertex
 10
11.771001
 20
-13.792
 30
4.005
 70
    64
  0
VERTEX
  5
9DB9C
100
AcDbEntity
  8
0
100
AcDbVertex
100
AcDbPolygonMeshVertex
 10
11.771001
 20
-12.672
 30
4.885
 70
    64
  0
VERTEX
  5
9DB9D
100
AcDbEntity
  8
0
100
AcDbVertex
100
AcDbPolygonMeshVertex
 10
11.771001
 20
-12.672
 30
4.005
 70
    64
  0
VERTEX
  5
9DB9E
100
AcDbEntity
  8
0
100
AcDbVertex
100
AcDbPolygonMeshVertex
 10
11.771001
 20
-13.792
 30
4.005
 70
    64
  0
VERTEX
  5
9DB9F
100
AcDbEntity
  8
0
100
AcDbVertex
100
AcDbPolygonMeshVertex
 10
12.771001
 20
-12.672
 30
4.885
 70
    64
  0
VERTEX
  5
9DBA0
100
AcDbEntity
  8
0
100
AcDbVertex
100
AcDbPolygonMeshVertex
 10
12.771001
 20
-12.672
 30
4.005
 70
    64
  0
VERTEX
  5
9DBA1
100
AcDbEntity
  8
0
100
AcDbVertex
100
AcDbPolygonMeshVertex
 10
12.771001
 20
-13.792
 30
4.005
 70
    64
  0
VERTEX
  5
9DBA2
100
AcDbEntity
  8
0
100
AcDbVertex
100
AcDbPolygonMeshVertex
 10
12.771001
 20
-12.672
 30
4.885
 70
    64
  0
VERTEX
  5
9DBA3
100
AcDbEntity
  8
0
100
AcDbVertex
100
AcDbPolygonMeshVertex
 10
12.771001
 20
-12.672
 30
4.885
 70
    64
  0
VERTEX
  5
9DBA4
100
AcDbEntity
  8
0
100
AcDbVertex
100
AcDbPolygonMeshVertex
 10
12.771001
 20
-13.792
 30
4.885
 70
    64
  0
VERTEX
  5
9DBA5
100
AcDbEntity
  8
0
100
AcDbVertex
100
AcDbPolygonMeshVertex
 10
11.771001
 20
-12.672
 30
4.885
 70
    64
  0
VERTEX
  5
9DBA6
100
AcDbEntity
  8
0
100
AcDbVertex
100
AcDbPolygonMeshVertex
 10
11.771001
 20
-12.672
 30
4.885
 70
    64
  0
VERTEX
  5
9DBA7
100
AcDbEntity
  8
0
100
AcDbVertex
100
AcDbPolygonMeshVertex
 10
11.771001
 20
-13.792
 30
4.885
 70
    64
  0
SEQEND
  5
9DBA8
100
AcDbEntity
  8
0
  0
POLYLINE
  5
9DBA9
100
AcDbEntity
  8
0
100
AcDbPolygonMesh
 66
     1
 10
0.0
 20
0.0
 30
0.0
 70
    16
 71
     6
 72
     3
  0
VERTEX
  5
9DBAA
100
AcDbEntity
  8
0
100
AcDbVertex
100
AcDbPolygonMeshVertex
 10
11.151001
 20
-13.792
 30
4.885
 70
    64
  0
VERTEX
  5
9DBAB
100
AcDbEntity
  8
0
100
AcDbVertex
100
AcDbPolygonMeshVertex
 10
11.151001
 20
-13.792
 30
4.005
 70
    64
  0
VERTEX
  5
9DBAC
100
AcDbEntity
  8
0
100
AcDbVertex
100
AcDbPolygonMeshVertex
 10
11.151001
 20
-13.792
 30
4.005
 70
    64
  0
VERTEX
  5
9DBAD
100
AcDbEntity
  8
0
100
AcDbVertex
100
AcDbPolygonMeshVertex
 10
10.151001
 20
-13.792
 30
4.885
 70
    64
  0
VERTEX
  5
9DBAE
100
AcDbEntity
  8
0
100
AcDbVertex
100
AcDbPolygonMeshVertex
 10
10.151001
 20
-13.792
 30
4.005
 70
    64
  0
VERTEX
  5
9DBAF
100
AcDbEntity
  8
0
100
AcDbVertex
100
AcDbPolygonMeshVertex
 10
10.151001
 20
-13.792
 30
4.005
 70
    64
  0
VERTEX
  5
9DBB0
100
AcDbEntity
  8
0
100
AcDbVertex
100
AcDbPolygonMeshVertex
 10
10.151001
 20
-12.672
 30
4.885
 70
    64
  0
VERTEX
  5
9DBB1
100
AcDbEntity
  8
0
100
AcDbVertex
100
AcDbPolygonMeshVertex
 10
10.151001
 20
-12.672
 30
4.005
 70
    64
  0
VERTEX
  5
9DBB2
100
AcDbEntity
  8
0
100
AcDbVertex
100
AcDbPolygonMeshVertex
 10
10.151001
 20
-13.792
 30
4.005
 70
    64
  0
VERTEX
  5
9DBB3
100
AcDbEntity
  8
0
100
AcDbVertex
100
AcDbPolygonMeshVertex
 10
11.151001
 20
-12.672
 30
4.885
 70
    64
  0
VERTEX
  5
9DBB4
100
AcDbEntity
  8
0
100
AcDbVertex
100
AcDbPolygonMeshVertex
 10
11.151001
 20
-12.672
 30
4.005
 70
    64
  0
VERTEX
  5
9DBB5
100
AcDbEntity
  8
0
100
AcDbVertex
100
AcDbPolygonMeshVertex
 10
11.151001
 20
-13.792
 30
4.005
 70
    64
  0
VERTEX
  5
9DBB6
100
AcDbEntity
  8
0
100
AcDbVertex
100
AcDbPolygonMeshVertex
 10
11.151001
 20
-12.672
 30
4.885
 70
    64
  0
VERTEX
  5
9DBB7
100
AcDbEntity
  8
0
100
AcDbVertex
100
AcDbPolygonMeshVertex
 10
11.151001
 20
-12.672
 30
4.885
 70
    64
  0
VERTEX
  5
9DBB8
100
AcDbEntity
  8
0
100
AcDbVertex
100
AcDbPolygonMeshVertex
 10
11.151001
 20
-13.792
 30
4.885
 70
    64
  0
VERTEX
  5
9DBB9
100
AcDbEntity
  8
0
100
AcDbVertex
100
AcDbPolygonMeshVertex
 10
10.151001
 20
-12.672
 30
4.885
 70
    64
  0
VERTEX
  5
9DBBA
100
AcDbEntity
  8
0
100
AcDbVertex
100
AcDbPolygonMeshVertex
 10
10.151001
 20
-12.672
 30
4.885
 70
    64
  0
VERTEX
  5
9DBBB
100
AcDbEntity
  8
0
100
AcDbVertex
100
AcDbPolygonMeshVertex
 10
10.151001
 20
-13.792
 30
4.885
 70
    64
  0
SEQEND
  5
9DBBC
100
AcDbEntity
  8
0
  0
POLYLINE
  5
9DBBD
100
AcDbEntity
  8
0
100
AcDbPolygonMesh
 66
     1
 10
0.0
 20
0.0
 30
0.0
 70
    16
 71
     6
 72
     3
  0
VERTEX
  5
9DBBE
100
AcDbEntity
  8
0
100
AcDbVertex
100
AcDbPolygonMeshVertex
 10
9.531001
 20
-13.792
 30
4.885
 70
    64
  0
VERTEX
  5
9DBBF
100
AcDbEntity
  8
0
100
AcDbVertex
100
AcDbPolygonMeshVertex
 10
9.531001
 20
-13.792
 30
4.005
 70
    64
  0
VERTEX
  5
9DBC0
100
AcDbEntity
  8
0
100
AcDbVertex
100
AcDbPolygonMeshVertex
 10
9.531001
 20
-13.792
 30
4.005
 70
    64
  0
VERTEX
  5
9DBC1
100
AcDbEntity
  8
0
100
AcDbVertex
100
AcDbPolygonMeshVertex
 10
8.531001
 20
-13.792
 30
4.885
 70
    64
  0
VERTEX
  5
9DBC2
100
AcDbEntity
  8
0
100
AcDbVertex
100
AcDbPolygonMeshVertex
 10
8.531001
 20
-13.792
 30
4.005
 70
    64
  0
VERTEX
  5
9DBC3
100
AcDbEntity
  8
0
100
AcDbVertex
100
AcDbPolygonMeshVertex
 10
8.531001
 20
-13.792
 30
4.005
 70
    64
  0
VERTEX
  5
9DBC4
100
AcDbEntity
  8
0
100
AcDbVertex
100
AcDbPolygonMeshVertex
 10
8.531001
 20
-12.672
 30
4.885
 70
    64
  0
VERTEX
  5
9DBC5
100
AcDbEntity
  8
0
100
AcDbVertex
100
AcDbPolygonMeshVertex
 10
8.531001
 20
-12.672
 30
4.005
 70
    64
  0
VERTEX
  5
9DBC6
100
AcDbEntity
  8
0
100
AcDbVertex
100
AcDbPolygonMeshVertex
 10
8.531001
 20
-13.792
 30
4.005
 70
    64
  0
VERTEX
  5
9DBC7
100
AcDbEntity
  8
0
100
AcDbVertex
100
AcDbPolygonMeshVertex
 10
9.531001
 20
-12.672
 30
4.885
 70
    64
  0
VERTEX
  5
9DBC8
100
AcDbEntity
  8
0
100
AcDbVertex
100
AcDbPolygonMeshVertex
 10
9.531001
 20
-12.672
 30
4.005
 70
    64
  0
VERTEX
  5
9DBC9
100
AcDbEntity
  8
0
100
AcDbVertex
100
AcDbPolygonMeshVertex
 10
9.531001
 20
-13.792
 30
4.005
 70
    64
  0
VERTEX
  5
9DBCA
100
AcDbEntity
  8
0
100
AcDbVertex
100
AcDbPolygonMeshVertex
 10
9.531001
 20
-12.672
 30
4.885
 70
    64
  0
VERTEX
  5
9DBCB
100
AcDbEntity
  8
0
100
AcDbVertex
100
AcDbPolygonMeshVertex
 10
9.531001
 20
-12.672
 30
4.885
 70
    64
  0
VERTEX
  5
9DBCC
100
AcDbEntity
  8
0
100
AcDbVertex
100
AcDbPolygonMeshVertex
 10
9.531001
 20
-13.792
 30
4.885
 70
    64
  0
VERTEX
  5
9DBCD
100
AcDbEntity
  8
0
100
AcDbVertex
100
AcDbPolygonMeshVertex
 10
8.531001
 20
-12.672
 30
4.885
 70
    64
  0
VERTEX
  5
9DBCE
100
AcDbEntity
  8
0
100
AcDbVertex
100
AcDbPolygonMeshVertex
 10
8.531001
 20
-12.672
 30
4.885
 70
    64
  0
VERTEX
  5
9DBCF
100
AcDbEntity
  8
0
100
AcDbVertex
100
AcDbPolygonMeshVertex
 10
8.531001
 20
-13.792
 30
4.885
 70
    64
  0
SEQEND
  5
9DBD0
100
AcDbEntity
  8
0
  0
POLYLINE
  5
9DBD1
100
AcDbEntity
  8
0
100
AcDbPolygonMesh
 66
     1
 10
0.0
 20
0.0
 30
0.0
 70
    16
 71
     6
 72
     3
  0
VERTEX
  5
9DBD2
100
AcDbEntity
  8
0
100
AcDbVertex
100
AcDbPolygonMeshVertex
 10
13.211001
 20
-11.562
 30
5.075
 70
    64
  0
VERTEX
  5
9DBD3
100
AcDbEntity
  8
0
100
AcDbVertex
100
AcDbPolygonMeshVertex
 10
13.211001
 20
-11.562
 30
2.205
 70
    64
  0
VERTEX
  5
9DBD4
100
AcDbEntity
  8
0
100
AcDbVertex
100
AcDbPolygonMeshVertex
 10
13.211001
 20
-11.562
 30
2.205
 70
    64
  0
VERTEX
  5
9DBD5
100
AcDbEntity
  8
0
100
AcDbVertex
100
AcDbPolygonMeshVertex
 10
8.091001
 20
-11.562
 30
5.075
 70
    64
  0
VERTEX
  5
9DBD6
100
AcDbEntity
  8
0
100
AcDbVertex
100
AcDbPolygonMeshVertex
 10
8.091001
 20
-11.562
 30
2.205
 70
    64
  0
VERTEX
  5
9DBD7
100
AcDbEntity
  8
0
100
AcDbVertex
100
AcDbPolygonMeshVertex
 10
8.091001
 20
-11.562
 30
2.205
 70
    64
  0
VERTEX
  5
9DBD8
100
AcDbEntity
  8
0
100
AcDbVertex
100
AcDbPolygonMeshVertex
 10
8.091001
 20
-10.252
 30
5.075
 70
    64
  0
VERTEX
  5
9DBD9
100
AcDbEntity
  8
0
100
AcDbVertex
100
AcDbPolygonMeshVertex
 10
8.091001
 20
-10.252
 30
2.205
 70
    64
  0
VERTEX
  5
9DBDA
100
AcDbEntity
  8
0
100
AcDbVertex
100
AcDbPolygonMeshVertex
 10
8.091001
 20
-11.562
 30
2.205
 70
    64
  0
VERTEX
  5
9DBDB
100
AcDbEntity
  8
0
100
AcDbVertex
100
AcDbPolygonMeshVertex
 10
13.211001
 20
-10.252
 30
5.075
 70
    64
  0
VERTEX
  5
9DBDC
100
AcDbEntity
  8
0
100
AcDbVertex
100
AcDbPolygonMeshVertex
 10
13.211001
 20
-10.252
 30
2.205
 70
    64
  0
VERTEX
  5
9DBDD
100
AcDbEntity
  8
0
100
AcDbVertex
100
AcDbPolygonMeshVertex
 10
13.211001
 20
-11.562
 30
2.205
 70
    64
  0
VERTEX
  5
9DBDE
100
AcDbEntity
  8
0
100
AcDbVertex
100
AcDbPolygonMeshVertex
 10
13.211001
 20
-10.252
 30
5.075
 70
    64
  0
VERTEX
  5
9DBDF
100
AcDbEntity
  8
0
100
AcDbVertex
100
AcDbPolygonMeshVertex
 10
13.211001
 20
-10.252
 30
5.075
 70
    64
  0
VERTEX
  5
9DBE0
100
AcDbEntity
  8
0
100
AcDbVertex
100
AcDbPolygonMeshVertex
 10
13.211001
 20
-11.562
 30
5.075
 70
    64
  0
VERTEX
  5
9DBE1
100
AcDbEntity
  8
0
100
AcDbVertex
100
AcDbPolygonMeshVertex
 10
8.091001
 20
-10.252
 30
5.075
 70
    64
  0
VERTEX
  5
9DBE2
100
AcDbEntity
  8
0
100
AcDbVertex
100
AcDbPolygonMeshVertex
 10
8.091001
 20
-10.252
 30
5.075
 70
    64
  0
VERTEX
  5
9DBE3
100
AcDbEntity
  8
0
100
AcDbVertex
100
AcDbPolygonMeshVertex
 10
8.091001
 20
-11.562
 30
5.075
 70
    64
  0
SEQEND
  5
9DBE4
100
AcDbEntity
  8
0
  0
POLYLINE
  5
9DBE5
100
AcDbEntity
  8
0
100
AcDbPolygonMesh
 66
     1
 10
0.0
 20
0.0
 30
0.0
 70
    16
 71
     6
 72
     3
  0
VERTEX
  5
9DBE6
100
AcDbEntity
  8
0
100
AcDbVertex
100
AcDbPolygonMeshVertex
 10
13.651001
 20
-10.192
 30
4.325
 70
    64
  0
VERTEX
  5
9DBE7
100
AcDbEntity
  8
0
100
AcDbVertex
100
AcDbPolygonMeshVertex
 10
13.651001
 20
-10.192
 30
1.395
 70
    64
  0
VERTEX
  5
9DBE8
100
AcDbEntity
  8
0
100
AcDbVertex
100
AcDbPolygonMeshVertex
 10
13.651001
 20
-10.192
 30
1.395
 70
    64
  0
VERTEX
  5
9DBE9
100
AcDbEntity
  8
0
100
AcDbVertex
100
AcDbPolygonMeshVertex
 10
7.651001
 20
-10.192
 30
4.325
 70
    64
  0
VERTEX
  5
9DBEA
100
AcDbEntity
  8
0
100
AcDbVertex
100
AcDbPolygonMeshVertex
 10
7.651001
 20
-10.192
 30
1.395
 70
    64
  0
VERTEX
  5
9DBEB
100
AcDbEntity
  8
0
100
AcDbVertex
100
AcDbPolygonMeshVertex
 10
7.651001
 20
-10.192
 30
1.395
 70
    64
  0
VERTEX
  5
9DBEC
100
AcDbEntity
  8
0
100
AcDbVertex
100
AcDbPolygonMeshVertex
 10
7.651001
 20
-1.062
 30
4.325
 70
    64
  0
VERTEX
  5
9DBED
100
AcDbEntity
  8
0
100
AcDbVertex
100
AcDbPolygonMeshVertex
 10
7.651001
 20
-1.062
 30
1.395
 70
    64
  0
VERTEX
  5
9DBEE
100
AcDbEntity
  8
0
100
AcDbVertex
100
AcDbPolygonMeshVertex
 10
7.651001
 20
-10.192
 30
1.395
 70
    64
  0
VERTEX
  5
9DBEF
100
AcDbEntity
  8
0
100
AcDbVertex
100
AcDbPolygonMeshVertex
 10
13.651001
 20
-1.062
 30
4.325
 70
    64
  0
VERTEX
  5
9DBF0
100
AcDbEntity
  8
0
100
AcDbVertex
100
AcDbPolygonMeshVertex
 10
13.651001
 20
-1.062
 30
1.395
 70
    64
  0
VERTEX
  5
9DBF1
100
AcDbEntity
  8
0
100
AcDbVertex
100
AcDbPolygonMeshVertex
 10
13.651001
 20
-10.192
 30
1.395
 70
    64
  0
VERTEX
  5
9DBF2
100
AcDbEntity
  8
0
100
AcDbVertex
100
AcDbPolygonMeshVertex
 10
13.651001
 20
-1.062
 30
4.325
 70
    64
  0
VERTEX
  5
9DBF3
100
AcDbEntity
  8
0
100
AcDbVertex
100
AcDbPolygonMeshVertex
 10
13.651001
 20
-1.062
 30
4.325
 70
    64
  0
VERTEX
  5
9DBF4
100
AcDbEntity
  8
0
100
AcDbVertex
100
AcDbPolygonMeshVertex
 10
13.651001
 20
-10.192
 30
4.325
 70
    64
  0
VERTEX
  5
9DBF5
100
AcDbEntity
  8
0
100
AcDbVertex
100
AcDbPolygonMeshVertex
 10
7.651001
 20
-1.062
 30
4.325
 70
    64
  0
VERTEX
  5
9DBF6
100
AcDbEntity
  8
0
100
AcDbVertex
100
AcDbPolygonMeshVertex
 10
7.651001
 20
-1.062
 30
4.325
 70
    64
  0
VERTEX
  5
9DBF7
100
AcDbEntity
  8
0
100
AcDbVertex
100
AcDbPolygonMeshVertex
 10
7.651001
 20
-10.192
 30
4.325
 70
    64
  0
SEQEND
  5
9DBF8
100
AcDbEntity
  8
0
  0
POLYLINE
  5
9DBF9
100
AcDbEntity
  8
0
100
AcDbPolygonMesh
 66
     1
 10
0.0
 20
0.0
 30
0.0
 70
    16
 71
     6
 72
     3
  0
VERTEX
  5
9DBFA
100
AcDbEntity
  8
0
100
AcDbVertex
100
AcDbPolygonMeshVertex
 10
12.771001
 20
-13.792
 30
4.005
 70
    64
  0
VERTEX
  5
9DBFB
100
AcDbEntity
  8
0
100
AcDbVertex
100
AcDbPolygonMeshVertex
 10
12.771001
 20
-13.792
 30
3.385
 70
    64
  0
VERTEX
  5
9DBFC
100
AcDbEntity
  8
0
100
AcDbVertex
100
AcDbPolygonMeshVertex
 10
12.771001
 20
-13.792
 30
3.385
 70
    64
  0
VERTEX
  5
9DBFD
100
AcDbEntity
  8
0
100
AcDbVertex
100
AcDbPolygonMeshVertex
 10
11.771001
 20
-13.792
 30
4.005
 70
    64
  0
VERTEX
  5
9DBFE
100
AcDbEntity
  8
0
100
AcDbVertex
100
AcDbPolygonMeshVertex
 10
11.771001
 20
-13.792
 30
3.385
 70
    64
  0
VERTEX
  5
9DBFF
100
AcDbEntity
  8
0
100
AcDbVertex
100
AcDbPolygonMeshVertex
 10
11.771001
 20
-13.792
 30
3.385
 70
    64
  0
VERTEX
  5
9DC00
100
AcDbEntity
  8
0
100
AcDbVertex
100
AcDbPolygonMeshVertex
 10
11.771001
 20
-11.562
 30
4.005
 70
    64
  0
VERTEX
  5
9DC01
100
AcDbEntity
  8
0
100
AcDbVertex
100
AcDbPolygonMeshVertex
 10
11.771001
 20
-11.562
 30
3.385
 70
    64
  0
VERTEX
  5
9DC02
100
AcDbEntity
  8
0
100
AcDbVertex
100
AcDbPolygonMeshVertex
 10
11.771001
 20
-13.792
 30
3.385
 70
    64
  0
VERTEX
  5
9DC03
100
AcDbEntity
  8
0
100
AcDbVertex
100
AcDbPolygonMeshVertex
 10
12.771001
 20
-11.562
 30
4.005
 70
    64
  0
VERTEX
  5
9DC04
100
AcDbEntity
  8
0
100
AcDbVertex
100
AcDbPolygonMeshVertex
 10
12.771001
 20
-11.562
 30
3.385
 70
    64
  0
VERTEX
  5
9DC05
100
AcDbEntity
  8
0
100
AcDbVertex
100
AcDbPolygonMeshVertex
 10
12.771001
 20
-13.792
 30
3.385
 70
    64
  0
VERTEX
  5
9DC06
100
AcDbEntity
  8
0
100
AcDbVertex
100
AcDbPolygonMeshVertex
 10
12.771001
 20
-11.562
 30
4.005
 70
    64
  0
VERTEX
  5
9DC07
100
AcDbEntity
  8
0
100
AcDbVertex
100
AcDbPolygonMeshVertex
 10
12.771001
 20
-11.562
 30
4.005
 70
    64
  0
VERTEX
  5
9DC08
100
AcDbEntity
  8
0
100
AcDbVertex
100
AcDbPolygonMeshVertex
 10
12.771001
 20
-13.792
 30
4.005
 70
    64
  0
VERTEX
  5
9DC09
100
AcDbEntity
  8
0
100
AcDbVertex
100
AcDbPolygonMeshVertex
 10
11.771001
 20
-11.562
 30
4.005
 70
    64
  0
VERTEX
  5
9DC0A
100
AcDbEntity
  8
0
100
AcDbVertex
100
AcDbPolygonMeshVertex
 10
11.771001
 20
-11.562
 30
4.005
 70
    64
  0
VERTEX
  5
9DC0B
100
AcDbEntity
  8
0
100
AcDbVertex
100
AcDbPolygonMeshVertex
 10
11.771001
 20
-13.792
 30
4.005
 70
    64
  0
SEQEND
  5
9DC0C
100
AcDbEntity
  8
0
  0
POLYLINE
  5
9DC0D
100
AcDbEntity
  8
0
100
AcDbPolygonMesh
 66
     1
 10
0.0
 20
0.0
 30
0.0
 70
    16
 71
     6
 72
     3
  0
VERTEX
  5
9DC0E
100
AcDbEntity
  8
0
100
AcDbVertex
100
AcDbPolygonMeshVertex
 10
13.211001
 20
-12.712
 30
3.385
 70
    64
  0
VERTEX
  5
9DC0F
100
AcDbEntity
  8
0
100
AcDbVertex
100
AcDbPolygonMeshVertex
 10
13.211001
 20
-12.712
 30
2.205
 70
    64
  0
VERTEX
  5
9DC10
100
AcDbEntity
  8
0
100
AcDbVertex
100
AcDbPolygonMeshVertex
 10
13.211001
 20
-12.712
 30
2.205
 70
    64
  0
VERTEX
  5
9DC11
100
AcDbEntity
  8
0
100
AcDbVertex
100
AcDbPolygonMeshVertex
 10
8.091001
 20
-12.712
 30
3.385
 70
    64
  0
VERTEX
  5
9DC12
100
AcDbEntity
  8
0
100
AcDbVertex
100
AcDbPolygonMeshVertex
 10
8.091001
 20
-12.712
 30
2.205
 70
    64
  0
VERTEX
  5
9DC13
100
AcDbEntity
  8
0
100
AcDbVertex
100
AcDbPolygonMeshVertex
 10
8.091001
 20
-12.712
 30
2.205
 70
    64
  0
VERTEX
  5
9DC14
100
AcDbEntity
  8
0
100
AcDbVertex
100
AcDbPolygonMeshVertex
 10
8.091001
 20
-11.562
 30
3.385
 70
    64
  0
VERTEX
  5
9DC15
100
AcDbEntity
  8
0
100
AcDbVertex
100
AcDbPolygonMeshVertex
 10
8.091001
 20
-11.562
 30
2.205
 70
    64
  0
VERTEX
  5
9DC16
100
AcDbEntity
  8
0
100
AcDbVertex
100
AcDbPolygonMeshVertex
 10
8.091001
 20
-12.712
 30
2.205
 70
    64
  0
VERTEX
  5
9DC17
100
AcDbEntity
  8
0
100
AcDbVertex
100
AcDbPolygonMeshVertex
 10
13.211001
 20
-11.562
 30
3.385
 70
    64
  0
VERTEX
  5
9DC18
100
AcDbEntity
  8
0
100
AcDbVertex
100
AcDbPolygonMeshVertex
 10
13.211001
 20
-11.562
 30
2.205
 70
    64
  0
VERTEX
  5
9DC19
100
AcDbEntity
  8
0
100
AcDbVertex
100
AcDbPolygonMeshVertex
 10
13.211001
 20
-12.712
 30
2.205
 70
    64
  0
VERTEX
  5
9DC1A
100
AcDbEntity
  8
0
100
AcDbVertex
100
AcDbPolygonMeshVertex
 10
13.211001
 20
-11.562
 30
3.385
 70
    64
  0
VERTEX
  5
9DC1B
100
AcDbEntity
  8
0
100
AcDbVertex
100
AcDbPolygonMeshVertex
 10
13.211001
 20
-11.562
 30
3.385
 70
    64
  0
VERTEX
  5
9DC1C
100
AcDbEntity
  8
0
100
AcDbVertex
100
AcDbPolygonMeshVertex
 10
13.211001
 20
-12.712
 30
3.385
 70
    64
  0
VERTEX
  5
9DC1D
100
AcDbEntity
  8
0
100
AcDbVertex
100
AcDbPolygonMeshVertex
 10
8.091001
 20
-11.562
 30
3.385
 70
    64
  0
VERTEX
  5
9DC1E
100
AcDbEntity
  8
0
100
AcDbVertex
100
AcDbPolygonMeshVertex
 10
8.091001
 20
-11.562
 30
3.385
 70
    64
  0
VERTEX
  5
9DC1F
100
AcDbEntity
  8
0
100
AcDbVertex
100
AcDbPolygonMeshVertex
 10
8.091001
 20
-12.712
 30
3.385
 70
    64
  0
SEQEND
  5
9DC20
100
AcDbEntity
  8
0
  0
POLYLINE
  5
9DC21
100
AcDbEntity
  8
0
100
AcDbPolygonMesh
 66
     1
 10
0.0
 20
0.0
 30
0.0
 70
    16
 71
     6
 72
     3
  0
VERTEX
  5
9DC22
100
AcDbEntity
  8
0
100
AcDbVertex
100
AcDbPolygonMeshVertex
 10
13.211001
 20
-13.212
 30
2.515
 70
    64
  0
VERTEX
  5
9DC23
100
AcDbEntity
  8
0
100
AcDbVertex
100
AcDbPolygonMeshVertex
 10
13.211001
 20
-13.212
 30
2.205
 70
    64
  0
VERTEX
  5
9DC24
100
AcDbEntity
  8
0
100
AcDbVertex
100
AcDbPolygonMeshVertex
 10
13.211001
 20
-13.212
 30
2.205
 70
    64
  0
VERTEX
  5
9DC25
100
AcDbEntity
  8
0
100
AcDbVertex
100
AcDbPolygonMeshVertex
 10
8.091001
 20
-13.212
 30
2.515
 70
    64
  0
VERTEX
  5
9DC26
100
AcDbEntity
  8
0
100
AcDbVertex
100
AcDbPolygonMeshVertex
 10
8.091001
 20
-13.212
 30
2.205
 70
    64
  0
VERTEX
  5
9DC27
100
AcDbEntity
  8
0
100
AcDbVertex
100
AcDbPolygonMeshVertex
 10
8.091001
 20
-13.212
 30
2.205
 70
    64
  0
VERTEX
  5
9DC28
100
AcDbEntity
  8
0
100
AcDbVertex
100
AcDbPolygonMeshVertex
 10
8.091001
 20
-12.712
 30
2.515
 70
    64
  0
VERTEX
  5
9DC29
100
AcDbEntity
  8
0
100
AcDbVertex
100
AcDbPolygonMeshVertex
 10
8.091001
 20
-12.712
 30
2.205
 70
    64
  0
VERTEX
  5
9DC2A
100
AcDbEntity
  8
0
100
AcDbVertex
100
AcDbPolygonMeshVertex
 10
8.091001
 20
-13.212
 30
2.205
 70
    64
  0
VERTEX
  5
9DC2B
100
AcDbEntity
  8
0
100
AcDbVertex
100
AcDbPolygonMeshVertex
 10
13.211001
 20
-12.712
 30
2.515
 70
    64
  0
VERTEX
  5
9DC2C
100
AcDbEntity
  8
0
100
AcDbVertex
100
AcDbPolygonMeshVertex
 10
13.211001
 20
-12.712
 30
2.205
 70
    64
  0
VERTEX
  5
9DC2D
100
AcDbEntity
  8
0
100
AcDbVertex
100
AcDbPolygonMeshVertex
 10
13.211001
 20
-13.212
 30
2.205
 70
    64
  0
VERTEX
  5
9DC2E
100
AcDbEntity
  8
0
100
AcDbVertex
100
AcDbPolygonMeshVertex
 10
13.211001
 20
-12.712
 30
2.515
 70
    64
  0
VERTEX
  5
9DC2F
100
AcDbEntity
  8
0
100
AcDbVertex
100
AcDbPolygonMeshVertex
 10
13.211001
 20
-12.712
 30
2.515
 70
    64
  0
VERTEX
  5
9DC30
100
AcDbEntity
  8
0
100
AcDbVertex
100
AcDbPolygonMeshVertex
 10
13.211001
 20
-13.212
 30
2.515
 70
    64
  0
VERTEX
  5
9DC31
100
AcDbEntity
  8
0
100
AcDbVertex
100
AcDbPolygonMeshVertex
 10
8.091001
 20
-12.712
 30
2.515
 70
    64
  0
VERTEX
  5
9DC32
100
AcDbEntity
  8
0
100
AcDbVertex
100
AcDbPolygonMeshVertex
 10
8.091001
 20
-12.712
 30
2.515
 70
    64
  0
VERTEX
  5
9DC33
100
AcDbEntity
  8
0
100
AcDbVertex
100
AcDbPolygonMeshVertex
 10
8.091001
 20
-13.212
 30
2.515
 70
    64
  0
SEQEND
  5
9DC34
100
AcDbEntity
  8
0
  0
POLYLINE
  5
9DC35
100
AcDbEntity
  8
0
100
AcDbPolygonMesh
 66
     1
 10
0.0
 20
0.0
 30
0.0
 70
    16
 71
     6
 72
     3
  0
VERTEX
  5
9DC36
100
AcDbEntity
  8
0
100
AcDbVertex
100
AcDbPolygonMeshVertex
 10
13.211001
 20
-12.762
 30
2.205
 70
    64
  0
VERTEX
  5
9DC37
100
AcDbEntity
  8
0
100
AcDbVertex
100
AcDbPolygonMeshVertex
 10
13.211001
 20
-12.762
 30
2.105
 70
    64
  0
VERTEX
  5
9DC38
100
AcDbEntity
  8
0
100
AcDbVertex
100
AcDbPolygonMeshVertex
 10
13.211001
 20
-12.762
 30
2.105
 70
    64
  0
VERTEX
  5
9DC39
100
AcDbEntity
  8
0
100
AcDbVertex
100
AcDbPolygonMeshVertex
 10
8.091001
 20
-12.762
 30
2.205
 70
    64
  0
VERTEX
  5
9DC3A
100
AcDbEntity
  8
0
100
AcDbVertex
100
AcDbPolygonMeshVertex
 10
8.091001
 20
-12.762
 30
2.105
 70
    64
  0
VERTEX
  5
9DC3B
100
AcDbEntity
  8
0
100
AcDbVertex
100
AcDbPolygonMeshVertex
 10
8.091001
 20
-12.762
 30
2.105
 70
    64
  0
VERTEX
  5
9DC3C
100
AcDbEntity
  8
0
100
AcDbVertex
100
AcDbPolygonMeshVertex
 10
8.091001
 20
-10.562
 30
2.205
 70
    64
  0
VERTEX
  5
9DC3D
100
AcDbEntity
  8
0
100
AcDbVertex
100
AcDbPolygonMeshVertex
 10
8.091001
 20
-10.562
 30
2.105
 70
    64
  0
VERTEX
  5
9DC3E
100
AcDbEntity
  8
0
100
AcDbVertex
100
AcDbPolygonMeshVertex
 10
8.091001
 20
-12.762
 30
2.105
 70
    64
  0
VERTEX
  5
9DC3F
100
AcDbEntity
  8
0
100
AcDbVertex
100
AcDbPolygonMeshVertex
 10
13.211001
 20
-10.562
 30
2.205
 70
    64
  0
VERTEX
  5
9DC40
100
AcDbEntity
  8
0
100
AcDbVertex
100
AcDbPolygonMeshVertex
 10
13.211001
 20
-10.562
 30
2.105
 70
    64
  0
VERTEX
  5
9DC41
100
AcDbEntity
  8
0
100
AcDbVertex
100
AcDbPolygonMeshVertex
 10
13.211001
 20
-12.762
 30
2.105
 70
    64
  0
VERTEX
  5
9DC42
100
AcDbEntity
  8
0
100
AcDbVertex
100
AcDbPolygonMeshVertex
 10
13.211001
 20
-10.562
 30
2.205
 70
    64
  0
VERTEX
  5
9DC43
100
AcDbEntity
  8
0
100
AcDbVertex
100
AcDbPolygonMeshVertex
 10
13.211001
 20
-10.562
 30
2.205
 70
    64
  0
VERTEX
  5
9DC44
100
AcDbEntity
  8
0
100
AcDbVertex
100
AcDbPolygonMeshVertex
 10
13.211001
 20
-12.762
 30
2.205
 70
    64
  0
VERTEX
  5
9DC45
100
AcDbEntity
  8
0
100
AcDbVertex
100
AcDbPolygonMeshVertex
 10
8.091001
 20
-10.562
 30
2.205
 70
    64
  0
VERTEX
  5
9DC46
100
AcDbEntity
  8
0
100
AcDbVertex
100
AcDbPolygonMeshVertex
 10
8.091001
 20
-10.562
 30
2.205
 70
    64
  0
VERTEX
  5
9DC47
100
AcDbEntity
  8
0
100
AcDbVertex
100
AcDbPolygonMeshVertex
 10
8.091001
 20
-12.762
 30
2.205
 70
    64
  0
SEQEND
  5
9DC48
100
AcDbEntity
  8
0
  0
POLYLINE
  5
9DC49
100
AcDbEntity
  8
0
100
AcDbPolygonMesh
 66
     1
 10
0.0
 20
0.0
 30
0.0
 70
    16
 71
     6
 72
     3
  0
VERTEX
  5
9DC4A
100
AcDbEntity
  8
0
100
AcDbVertex
100
AcDbPolygonMeshVertex
 10
13.211001
 20
-12.762
 30
2.105
 70
    64
  0
VERTEX
  5
9DC4B
100
AcDbEntity
  8
0
100
AcDbVertex
100
AcDbPolygonMeshVertex
 10
13.211001
 20
-12.762
 30
0.665
 70
    64
  0
VERTEX
  5
9DC4C
100
AcDbEntity
  8
0
100
AcDbVertex
100
AcDbPolygonMeshVertex
 10
13.211001
 20
-12.762
 30
0.665
 70
    64
  0
VERTEX
  5
9DC4D
100
AcDbEntity
  8
0
100
AcDbVertex
100
AcDbPolygonMeshVertex
 10
8.091001
 20
-12.762
 30
2.105
 70
    64
  0
VERTEX
  5
9DC4E
100
AcDbEntity
  8
0
100
AcDbVertex
100
AcDbPolygonMeshVertex
 10
8.091001
 20
-12.762
 30
0.665
 70
    64
  0
VERTEX
  5
9DC4F
100
AcDbEntity
  8
0
100
AcDbVertex
100
AcDbPolygonMeshVertex
 10
8.091001
 20
-12.762
 30
0.665
 70
    64
  0
VERTEX
  5
9DC50
100
AcDbEntity
  8
0
100
AcDbVertex
100
AcDbPolygonMeshVertex
 10
8.091001
 20
-12.662
 30
2.105
 70
    64
  0
VERTEX
  5
9DC51
100
AcDbEntity
  8
0
100
AcDbVertex
100
AcDbPolygonMeshVertex
 10
8.091001
 20
-12.662
 30
0.665
 70
    64
  0
VERTEX
  5
9DC52
100
AcDbEntity
  8
0
100
AcDbVertex
100
AcDbPolygonMeshVertex
 10
8.091001
 20
-12.762
 30
0.665
 70
    64
  0
VERTEX
  5
9DC53
100
AcDbEntity
  8
0
100
AcDbVertex
100
AcDbPolygonMeshVertex
 10
13.211001
 20
-12.662
 30
2.105
 70
    64
  0
VERTEX
  5
9DC54
100
AcDbEntity
  8
0
100
AcDbVertex
100
AcDbPolygonMeshVertex
 10
13.211001
 20
-12.662
 30
0.665
 70
    64
  0
VERTEX
  5
9DC55
100
AcDbEntity
  8
0
100
AcDbVertex
100
AcDbPolygonMeshVertex
 10
13.211001
 20
-12.762
 30
0.665
 70
    64
  0
VERTEX
  5
9DC56
100
AcDbEntity
  8
0
100
AcDbVertex
100
AcDbPolygonMeshVertex
 10
13.211001
 20
-12.662
 30
2.105
 70
    64
  0
VERTEX
  5
9DC57
100
AcDbEntity
  8
0
100
AcDbVertex
100
AcDbPolygonMeshVertex
 10
13.211001
 20
-12.662
 30
2.105
 70
    64
  0
VERTEX
  5
9DC58
100
AcDbEntity
  8
0
100
AcDbVertex
100
AcDbPolygonMeshVertex
 10
13.211001
 20
-12.762
 30
2.105
 70
    64
  0
VERTEX
  5
9DC59
100
AcDbEntity
  8
0
100
AcDbVertex
100
AcDbPolygonMeshVertex
 10
8.091001
 20
-12.662
 30
2.105
 70
    64
  0
VERTEX
  5
9DC5A
100
AcDbEntity
  8
0
100
AcDbVertex
100
AcDbPolygonMeshVertex
 10
8.091001
 20
-12.662
 30
2.105
 70
    64
  0
VERTEX
  5
9DC5B
100
AcDbEntity
  8
0
100
AcDbVertex
100
AcDbPolygonMeshVertex
 10
8.091001
 20
-12.762
 30
2.105
 70
    64
  0
SEQEND
  5
9DC5C
100
AcDbEntity
  8
0
  0
POLYLINE
  5
9DC5D
100
AcDbEntity
  8
0
100
AcDbPolygonMesh
 66
     1
 10
0.0
 20
0.0
 30
0.0
 70
    16
 71
     6
 72
     3
  0
VERTEX
  5
9DC5E
100
AcDbEntity
  8
0
100
AcDbVertex
100
AcDbPolygonMeshVertex
 10
13.211001
 20
-12.762
 30
0.665
 70
    64
  0
VERTEX
  5
9DC5F
100
AcDbEntity
  8
0
100
AcDbVertex
100
AcDbPolygonMeshVertex
 10
13.211001
 20
-12.762
 30
0.565
 70
    64
  0
VERTEX
  5
9DC60
100
AcDbEntity
  8
0
100
AcDbVertex
100
AcDbPolygonMeshVertex
 10
13.211001
 20
-12.762
 30
0.565
 70
    64
  0
VERTEX
  5
9DC61
100
AcDbEntity
  8
0
100
AcDbVertex
100
AcDbPolygonMeshVertex
 10
8.091001
 20
-12.762
 30
0.665
 70
    64
  0
VERTEX
  5
9DC62
100
AcDbEntity
  8
0
100
AcDbVertex
100
AcDbPolygonMeshVertex
 10
8.091001
 20
-12.762
 30
0.565
 70
    64
  0
VERTEX
  5
9DC63
100
AcDbEntity
  8
0
100
AcDbVertex
100
AcDbPolygonMeshVertex
 10
8.091001
 20
-12.762
 30
0.565
 70
    64
  0
VERTEX
  5
9DC64
100
AcDbEntity
  8
0
100
AcDbVertex
100
AcDbPolygonMeshVertex
 10
8.091001
 20
-9.562
 30
0.665
 70
    64
  0
VERTEX
  5
9DC65
100
AcDbEntity
  8
0
100
AcDbVertex
100
AcDbPolygonMeshVertex
 10
8.091001
 20
-9.562
 30
0.565
 70
    64
  0
VERTEX
  5
9DC66
100
AcDbEntity
  8
0
100
AcDbVertex
100
AcDbPolygonMeshVertex
 10
8.091001
 20
-12.762
 30
0.565
 70
    64
  0
VERTEX
  5
9DC67
100
AcDbEntity
  8
0
100
AcDbVertex
100
AcDbPolygonMeshVertex
 10
13.211001
 20
-9.562
 30
0.665
 70
    64
  0
VERTEX
  5
9DC68
100
AcDbEntity
  8
0
100
AcDbVertex
100
AcDbPolygonMeshVertex
 10
13.211001
 20
-9.562
 30
0.565
 70
    64
  0
VERTEX
  5
9DC69
100
AcDbEntity
  8
0
100
AcDbVertex
100
AcDbPolygonMeshVertex
 10
13.211001
 20
-12.762
 30
0.565
 70
    64
  0
VERTEX
  5
9DC6A
100
AcDbEntity
  8
0
100
AcDbVertex
100
AcDbPolygonMeshVertex
 10
13.211001
 20
-9.562
 30
0.665
 70
    64
  0
VERTEX
  5
9DC6B
100
AcDbEntity
  8
0
100
AcDbVertex
100
AcDbPolygonMeshVertex
 10
13.211001
 20
-9.562
 30
0.665
 70
    64
  0
VERTEX
  5
9DC6C
100
AcDbEntity
  8
0
100
AcDbVertex
100
AcDbPolygonMeshVertex
 10
13.211001
 20
-12.762
 30
0.665
 70
    64
  0
VERTEX
  5
9DC6D
100
AcDbEntity
  8
0
100
AcDbVertex
100
AcDbPolygonMeshVertex
 10
8.091001
 20
-9.562
 30
0.665
 70
    64
  0
VERTEX
  5
9DC6E
100
AcDbEntity
  8
0
100
AcDbVertex
100
AcDbPolygonMeshVertex
 10
8.091001
 20
-9.562
 30
0.665
 70
    64
  0
VERTEX
  5
9DC6F
100
AcDbEntity
  8
0
100
AcDbVertex
100
AcDbPolygonMeshVertex
 10
8.091001
 20
-12.762
 30
0.665
 70
    64
  0
SEQEND
  5
9DC70
100
AcDbEntity
  8
0
  0
LWPOLYLINE
  5
9DC71
100
AcDbEntity
  8
0
100
AcDbPolyline
 90
       13
 70
     0
 43
0.0
 38
0.265
 39
0.3
 10
7.651001
 20
-10.842
 10
13.651001
 20
-10.842
 10
14.151001
 20
-9.972
 10
14.151001
 20
-8.402
 10
13.901001
 20
-7.972
 10
13.901001
 20
-1.042
 10
12.776001
 20
0.568
 10
8.526001
 20
0.568
 10
7.401001
 20
-1.042
 10
7.401001
 20
-7.972
 10
7.151001
 20
-8.402
 10
7.151001
 20
-9.972
 10
7.651001
 20
-10.842
  0
POLYLINE
  5
9DC72
100
AcDbEntity
  8
0
100
AcDbPolygonMesh
 66
     1
 10
0.0
 20
0.0
 30
0.0
 70
    16
 71
     6
 72
     3
  0
VERTEX
  5
9DC73
100
AcDbEntity
  8
0
100
AcDbVertex
100
AcDbPolygonMeshVertex
 10
13.651001
 20
-10.912
 30
1.395
 70
    64
  0
VERTEX
  5
9DC74
100
AcDbEntity
  8
0
100
AcDbVertex
100
AcDbPolygonMeshVertex
 10
13.651001
 20
-10.912
 30
0.565
 70
    64
  0
VERTEX
  5
9DC75
100
AcDbEntity
  8
0
100
AcDbVertex
100
AcDbPolygonMeshVertex
 10
13.651001
 20
-10.912
 30
0.565
 70
    64
  0
VERTEX
  5
9DC76
100
AcDbEntity
  8
0
100
AcDbVertex
100
AcDbPolygonMeshVertex
 10
7.651001
 20
-10.912
 30
1.395
 70
    64
  0
VERTEX
  5
9DC77
100
AcDbEntity
  8
0
100
AcDbVertex
100
AcDbPolygonMeshVertex
 10
7.651001
 20
-10.912
 30
0.565
 70
    64
  0
VERTEX
  5
9DC78
100
AcDbEntity
  8
0
100
AcDbVertex
100
AcDbPolygonMeshVertex
 10
7.651001
 20
-10.912
 30
0.565
 70
    64
  0
VERTEX
  5
9DC79
100
AcDbEntity
  8
0
100
AcDbVertex
100
AcDbPolygonMeshVertex
 10
7.651001
 20
-0.692
 30
1.395
 70
    64
  0
VERTEX
  5
9DC7A
100
AcDbEntity
  8
0
100
AcDbVertex
100
AcDbPolygonMeshVertex
 10
7.651001
 20
-0.692
 30
0.565
 70
    64
  0
VERTEX
  5
9DC7B
100
AcDbEntity
  8
0
100
AcDbVertex
100
AcDbPolygonMeshVertex
 10
7.651001
 20
-10.912
 30
0.565
 70
    64
  0
VERTEX
  5
9DC7C
100
AcDbEntity
  8
0
100
AcDbVertex
100
AcDbPolygonMeshVertex
 10
13.651001
 20
-0.692
 30
1.395
 70
    64
  0
VERTEX
  5
9DC7D
100
AcDbEntity
  8
0
100
AcDbVertex
100
AcDbPolygonMeshVertex
 10
13.651001
 20
-0.692
 30
0.565
 70
    64
  0
VERTEX
  5
9DC7E
100
AcDbEntity
  8
0
100
AcDbVertex
100
AcDbPolygonMeshVertex
 10
13.651001
 20
-10.912
 30
0.565
 70
    64
  0
VERTEX
  5
9DC7F
100
AcDbEntity
  8
0
100
AcDbVertex
100
AcDbPolygonMeshVertex
 10
13.651001
 20
-0.692
 30
1.395
 70
    64
  0
VERTEX
  5
9DC80
100
AcDbEntity
  8
0
100
AcDbVertex
100
AcDbPolygonMeshVertex
 10
13.651001
 20
-0.692
 30
1.395
 70
    64
  0
VERTEX
  5
9DC81
100
AcDbEntity
  8
0
100
AcDbVertex
100
AcDbPolygonMeshVertex
 10
13.651001
 20
-10.912
 30
1.395
 70
    64
  0
VERTEX
  5
9DC82
100
AcDbEntity
  8
0
100
AcDbVertex
100
AcDbPolygonMeshVertex
 10
7.651001
 20
-0.692
 30
1.395
 70
    64
  0
VERTEX
  5
9DC83
100
AcDbEntity
  8
0
100
AcDbVertex
100
AcDbPolygonMeshVertex
 10
7.651001
 20
-0.692
 30
1.395
 70
    64
  0
VERTEX
  5
9DC84
100
AcDbEntity
  8
0
100
AcDbVertex
100
AcDbPolygonMeshVertex
 10
7.651001
 20
-10.912
 30
1.395
 70
    64
  0
SEQEND
  5
9DC85
100
AcDbEntity
  8
0
  0
POLYLINE
  5
9DC86
100
AcDbEntity
  8
0
100
AcDbPolygonMesh
 66
     1
 10
0.0
 20
0.0
 30
0.0
 70
    16
 71
     6
 72
     3
  0
VERTEX
  5
9DC87
100
AcDbEntity
  8
0
100
AcDbVertex
100
AcDbPolygonMeshVertex
 10
9.531001
 20
-13.792
 30
4.005
 70
    64
  0
VERTEX
  5
9DC88
100
AcDbEntity
  8
0
100
AcDbVertex
100
AcDbPolygonMeshVertex
 10
9.531001
 20
-13.792
 30
3.385
 70
    64
  0
VERTEX
  5
9DC89
100
AcDbEntity
  8
0
100
AcDbVertex
100
AcDbPolygonMeshVertex
 10
9.531001
 20
-13.792
 30
3.385
 70
    64
  0
VERTEX
  5
9DC8A
100
AcDbEntity
  8
0
100
AcDbVertex
100
AcDbPolygonMeshVertex
 10
8.531001
 20
-13.792
 30
4.005
 70
    64
  0
VERTEX
  5
9DC8B
100
AcDbEntity
  8
0
100
AcDbVertex
100
AcDbPolygonMeshVertex
 10
8.531001
 20
-13.792
 30
3.385
 70
    64
  0
VERTEX
  5
9DC8C
100
AcDbEntity
  8
0
100
AcDbVertex
100
AcDbPolygonMeshVertex
 10
8.531001
 20
-13.792
 30
3.385
 70
    64
  0
VERTEX
  5
9DC8D
100
AcDbEntity
  8
0
100
AcDbVertex
100
AcDbPolygonMeshVertex
 10
8.531001
 20
-11.562
 30
4.005
 70
    64
  0
VERTEX
  5
9DC8E
100
AcDbEntity
  8
0
100
AcDbVertex
100
AcDbPolygonMeshVertex
 10
8.531001
 20
-11.562
 30
3.385
 70
    64
  0
VERTEX
  5
9DC8F
100
AcDbEntity
  8
0
100
AcDbVertex
100
AcDbPolygonMeshVertex
 10
8.531001
 20
-13.792
 30
3.385
 70
    64
  0
VERTEX
  5
9DC90
100
AcDbEntity
  8
0
100
AcDbVertex
100
AcDbPolygonMeshVertex
 10
9.531001
 20
-11.562
 30
4.005
 70
    64
  0
VERTEX
  5
9DC91
100
AcDbEntity
  8
0
100
AcDbVertex
100
AcDbPolygonMeshVertex
 10
9.531001
 20
-11.562
 30
3.385
 70
    64
  0
VERTEX
  5
9DC92
100
AcDbEntity
  8
0
100
AcDbVertex
100
AcDbPolygonMeshVertex
 10
9.531001
 20
-13.792
 30
3.385
 70
    64
  0
VERTEX
  5
9DC93
100
AcDbEntity
  8
0
100
AcDbVertex
100
AcDbPolygonMeshVertex
 10
9.531001
 20
-11.562
 30
4.005
 70
    64
  0
VERTEX
  5
9DC94
100
AcDbEntity
  8
0
100
AcDbVertex
100
AcDbPolygonMeshVertex
 10
9.531001
 20
-11.562
 30
4.005
 70
    64
  0
VERTEX
  5
9DC95
100
AcDbEntity
  8
0
100
AcDbVertex
100
AcDbPolygonMeshVertex
 10
9.531001
 20
-13.792
 30
4.005
 70
    64
  0
VERTEX
  5
9DC96
100
AcDbEntity
  8
0
100
AcDbVertex
100
AcDbPolygonMeshVertex
 10
8.531001
 20
-11.562
 30
4.005
 70
    64
  0
VERTEX
  5
9DC97
100
AcDbEntity
  8
0
100
AcDbVertex
100
AcDbPolygonMeshVertex
 10
8.531001
 20
-11.562
 30
4.005
 70
    64
  0
VERTEX
  5
9DC98
100
AcDbEntity
  8
0
100
AcDbVertex
100
AcDbPolygonMeshVertex
 10
8.531001
 20
-13.792
 30
4.005
 70
    64
  0
SEQEND
  5
9DC99
100
AcDbEntity
  8
0
  0
POLYLINE
  5
9DC9A
100
AcDbEntity
  8
0
100
AcDbPolygonMesh
 66
     1
 10
0.0
 20
0.0
 30
0.0
 70
    16
 71
     6
 72
     3
  0
VERTEX
  5
9DC9B
100
AcDbEntity
  8
0
100
AcDbVertex
100
AcDbPolygonMeshVertex
 10
11.151001
 20
-13.792
 30
4.005
 70
    64
  0
VERTEX
  5
9DC9C
100
AcDbEntity
  8
0
100
AcDbVertex
100
AcDbPolygonMeshVertex
 10
11.151001
 20
-13.792
 30
3.385
 70
    64
  0
VERTEX
  5
9DC9D
100
AcDbEntity
  8
0
100
AcDbVertex
100
AcDbPolygonMeshVertex
 10
11.151001
 20
-13.792
 30
3.385
 70
    64
  0
VERTEX
  5
9DC9E
100
AcDbEntity
  8
0
100
AcDbVertex
100
AcDbPolygonMeshVertex
 10
10.151001
 20
-13.792
 30
4.005
 70
    64
  0
VERTEX
  5
9DC9F
100
AcDbEntity
  8
0
100
AcDbVertex
100
AcDbPolygonMeshVertex
 10
10.151001
 20
-13.792
 30
3.385
 70
    64
  0
VERTEX
  5
9DCA0
100
AcDbEntity
  8
0
100
AcDbVertex
100
AcDbPolygonMeshVertex
 10
10.151001
 20
-13.792
 30
3.385
 70
    64
  0
VERTEX
  5
9DCA1
100
AcDbEntity
  8
0
100
AcDbVertex
100
AcDbPolygonMeshVertex
 10
10.151001
 20
-11.562
 30
4.005
 70
    64
  0
VERTEX
  5
9DCA2
100
AcDbEntity
  8
0
100
AcDbVertex
100
AcDbPolygonMeshVertex
 10
10.151001
 20
-11.562
 30
3.385
 70
    64
  0
VERTEX
  5
9DCA3
100
AcDbEntity
  8
0
100
AcDbVertex
100
AcDbPolygonMeshVertex
 10
10.151001
 20
-13.792
 30
3.385
 70
    64
  0
VERTEX
  5
9DCA4
100
AcDbEntity
  8
0
100
AcDbVertex
100
AcDbPolygonMeshVertex
 10
11.151001
 20
-11.562
 30
4.005
 70
    64
  0
VERTEX
  5
9DCA5
100
AcDbEntity
  8
0
100
AcDbVertex
100
AcDbPolygonMeshVertex
 10
11.151001
 20
-11.562
 30
3.385
 70
    64
  0
VERTEX
  5
9DCA6
100
AcDbEntity
  8
0
100
AcDbVertex
100
AcDbPolygonMeshVertex
 10
11.151001
 20
-13.792
 30
3.385
 70
    64
  0
VERTEX
  5
9DCA7
100
AcDbEntity
  8
0
100
AcDbVertex
100
AcDbPolygonMeshVertex
 10
11.151001
 20
-11.562
 30
4.005
 70
    64
  0
VERTEX
  5
9DCA8
100
AcDbEntity
  8
0
100
AcDbVertex
100
AcDbPolygonMeshVertex
 10
11.151001
 20
-11.562
 30
4.005
 70
    64
  0
VERTEX
  5
9DCA9
100
AcDbEntity
  8
0
100
AcDbVertex
100
AcDbPolygonMeshVertex
 10
11.151001
 20
-13.792
 30
4.005
 70
    64
  0
VERTEX
  5
9DCAA
100
AcDbEntity
  8
0
100
AcDbVertex
100
AcDbPolygonMeshVertex
 10
10.151001
 20
-11.562
 30
4.005
 70
    64
  0
VERTEX
  5
9DCAB
100
AcDbEntity
  8
0
100
AcDbVertex
100
AcDbPolygonMeshVertex
 10
10.151001
 20
-11.562
 30
4.005
 70
    64
  0
VERTEX
  5
9DCAC
100
AcDbEntity
  8
0
100
AcDbVertex
100
AcDbPolygonMeshVertex
 10
10.151001
 20
-13.792
 30
4.005
 70
    64
  0
SEQEND
  5
9DCAD
100
AcDbEntity
  8
0
  0
CIRCLE
  5
9DCAE
100
AcDbEntity
  8
0
100
AcDbCircle
 10
12.271001
 20
-13.232001
 30
4.885
 40
0.375
  0
POLYLINE
  5
9DCAF
100
AcDbEntity
  8
0
100
AcDbPolygonMesh
 66
     1
 10
0.0
 20
0.0
 30
0.0
 70
    16
 71
     6
 72
     3
  0
VERTEX
  5
9DCB0
100
AcDbEntity
  8
0
100
AcDbVertex
100
AcDbPolygonMeshVertex
 10
13.181001
 20
-1.102
 30
7.885
 70
    64
  0
VERTEX
  5
9DCB1
100
AcDbEntity
  8
0
100
AcDbVertex
100
AcDbPolygonMeshVertex
 10
13.181001
 20
-1.102
 30
7.005
 70
    64
  0
VERTEX
  5
9DCB2
100
AcDbEntity
  8
0
100
AcDbVertex
100
AcDbPolygonMeshVertex
 10
13.181001
 20
-1.102
 30
7.005
 70
    64
  0
VERTEX
  5
9DCB3
100
AcDbEntity
  8
0
100
AcDbVertex
100
AcDbPolygonMeshVertex
 10
12.181001
 20
-1.102
 30
7.885
 70
    64
  0
VERTEX
  5
9DCB4
100
AcDbEntity
  8
0
100
AcDbVertex
100
AcDbPolygonMeshVertex
 10
12.181001
 20
-1.102
 30
7.005
 70
    64
  0
VERTEX
  5
9DCB5
100
AcDbEntity
  8
0
100
AcDbVertex
100
AcDbPolygonMeshVertex
 10
12.181001
 20
-1.102
 30
7.005
 70
    64
  0
VERTEX
  5
9DCB6
100
AcDbEntity
  8
0
100
AcDbVertex
100
AcDbPolygonMeshVertex
 10
12.181001
 20
0.018
 30
7.885
 70
    64
  0
VERTEX
  5
9DCB7
100
AcDbEntity
  8
0
100
AcDbVertex
100
AcDbPolygonMeshVertex
 10
12.181001
 20
0.018
 30
7.005
 70
    64
  0
VERTEX
  5
9DCB8
100
AcDbEntity
  8
0
100
AcDbVertex
100
AcDbPolygonMeshVertex
 10
12.181001
 20
-1.102
 30
7.005
 70
    64
  0
VERTEX
  5
9DCB9
100
AcDbEntity
  8
0
100
AcDbVertex
100
AcDbPolygonMeshVertex
 10
13.181001
 20
0.018
 30
7.885
 70
    64
  0
VERTEX
  5
9DCBA
100
AcDbEntity
  8
0
100
AcDbVertex
100
AcDbPolygonMeshVertex
 10
13.181001
 20
0.018
 30
7.005
 70
    64
  0
VERTEX
  5
9DCBB
100
AcDbEntity
  8
0
100
AcDbVertex
100
AcDbPolygonMeshVertex
 10
13.181001
 20
-1.102
 30
7.005
 70
    64
  0
VERTEX
  5
9DCBC
100
AcDbEntity
  8
0
100
AcDbVertex
100
AcDbPolygonMeshVertex
 10
13.181001
 20
0.018
 30
7.885
 70
    64
  0
VERTEX
  5
9DCBD
100
AcDbEntity
  8
0
100
AcDbVertex
100
AcDbPolygonMeshVertex
 10
13.181001
 20
0.018
 30
7.885
 70
    64
  0
VERTEX
  5
9DCBE
100
AcDbEntity
  8
0
100
AcDbVertex
100
AcDbPolygonMeshVertex
 10
13.181001
 20
-1.102
 30
7.885
 70
    64
  0
VERTEX
  5
9DCBF
100
AcDbEntity
  8
0
100
AcDbVertex
100
AcDbPolygonMeshVertex
 10
12.181001
 20
0.018
 30
7.885
 70
    64
  0
VERTEX
  5
9DCC0
100
AcDbEntity
  8
0
100
AcDbVertex
100
AcDbPolygonMeshVertex
 10
12.181001
 20
0.018
 30
7.885
 70
    64
  0
VERTEX
  5
9DCC1
100
AcDbEntity
  8
0
100
AcDbVertex
100
AcDbPolygonMeshVertex
 10
12.181001
 20
-1.102
 30
7.885
 70
    64
  0
SEQEND
  5
9DCC2
100
AcDbEntity
  8
0
  0
POLYLINE
  5
9DCC3
100
AcDbEntity
  8
0
100
AcDbPolygonMesh
 66
     1
 10
0.0
 20
0.0
 30
0.0
 70
    16
 71
     6
 72
     3
  0
VERTEX
  5
9DCC4
100
AcDbEntity
  8
0
100
AcDbVertex
100
AcDbPolygonMeshVertex
 10
13.181001
 20
-2.252
 30
7.005
 70
    64
  0
VERTEX
  5
9DCC5
100
AcDbEntity
  8
0
100
AcDbVertex
100
AcDbPolygonMeshVertex
 10
13.181001
 20
-2.252
 30
6.385
 70
    64
  0
VERTEX
  5
9DCC6
100
AcDbEntity
  8
0
100
AcDbVertex
100
AcDbPolygonMeshVertex
 10
13.181001
 20
-2.252
 30
6.385
 70
    64
  0
VERTEX
  5
9DCC7
100
AcDbEntity
  8
0
100
AcDbVertex
100
AcDbPolygonMeshVertex
 10
12.181001
 20
-2.252
 30
7.005
 70
    64
  0
VERTEX
  5
9DCC8
100
AcDbEntity
  8
0
100
AcDbVertex
100
AcDbPolygonMeshVertex
 10
12.181001
 20
-2.252
 30
6.385
 70
    64
  0
VERTEX
  5
9DCC9
100
AcDbEntity
  8
0
100
AcDbVertex
100
AcDbPolygonMeshVertex
 10
12.181001
 20
-2.252
 30
6.385
 70
    64
  0
VERTEX
  5
9DCCA
100
AcDbEntity
  8
0
100
AcDbVertex
100
AcDbPolygonMeshVertex
 10
12.181001
 20
0.018
 30
7.005
 70
    64
  0
VERTEX
  5
9DCCB
100
AcDbEntity
  8
0
100
AcDbVertex
100
AcDbPolygonMeshVertex
 10
12.181001
 20
0.018
 30
6.385
 70
    64
  0
VERTEX
  5
9DCCC
100
AcDbEntity
  8
0
100
AcDbVertex
100
AcDbPolygonMeshVertex
 10
12.181001
 20
-2.252
 30
6.385
 70
    64
  0
VERTEX
  5
9DCCD
100
AcDbEntity
  8
0
100
AcDbVertex
100
AcDbPolygonMeshVertex
 10
13.181001
 20
0.018
 30
7.005
 70
    64
  0
VERTEX
  5
9DCCE
100
AcDbEntity
  8
0
100
AcDbVertex
100
AcDbPolygonMeshVertex
 10
13.181001
 20
0.018
 30
6.385
 70
    64
  0
VERTEX
  5
9DCCF
100
AcDbEntity
  8
0
100
AcDbVertex
100
AcDbPolygonMeshVertex
 10
13.181001
 20
-2.252
 30
6.385
 70
    64
  0
VERTEX
  5
9DCD0
100
AcDbEntity
  8
0
100
AcDbVertex
100
AcDbPolygonMeshVertex
 10
13.181001
 20
0.018
 30
7.005
 70
    64
  0
VERTEX
  5
9DCD1
100
AcDbEntity
  8
0
100
AcDbVertex
100
AcDbPolygonMeshVertex
 10
13.181001
 20
0.018
 30
7.005
 70
    64
  0
VERTEX
  5
9DCD2
100
AcDbEntity
  8
0
100
AcDbVertex
100
AcDbPolygonMeshVertex
 10
13.181001
 20
-2.252
 30
7.005
 70
    64
  0
VERTEX
  5
9DCD3
100
AcDbEntity
  8
0
100
AcDbVertex
100
AcDbPolygonMeshVertex
 10
12.181001
 20
0.018
 30
7.005
 70
    64
  0
VERTEX
  5
9DCD4
100
AcDbEntity
  8
0
100
AcDbVertex
100
AcDbPolygonMeshVertex
 10
12.181001
 20
0.018
 30
7.005
 70
    64
  0
VERTEX
  5
9DCD5
100
AcDbEntity
  8
0
100
AcDbVertex
100
AcDbPolygonMeshVertex
 10
12.181001
 20
-2.252
 30
7.005
 70
    64
  0
SEQEND
  5
9DCD6
100
AcDbEntity
  8
0
  0
POLYLINE
  5
9DCD7
100
AcDbEntity
  8
0
100
AcDbPolygonMesh
 66
     1
 10
0.0
 20
0.0
 30
0.0
 70
    16
 71
     6
 72
     3
  0
VERTEX
  5
9DCD8
100
AcDbEntity
  8
0
100
AcDbVertex
100
AcDbPolygonMeshVertex
 10
13.651001
 20
-2.252
 30
6.385
 70
    64
  0
VERTEX
  5
9DCD9
100
AcDbEntity
  8
0
100
AcDbVertex
100
AcDbPolygonMeshVertex
 10
13.651001
 20
-2.252
 30
5.765
 70
    64
  0
VERTEX
  5
9DCDA
100
AcDbEntity
  8
0
100
AcDbVertex
100
AcDbPolygonMeshVertex
 10
13.651001
 20
-2.252
 30
5.765
 70
    64
  0
VERTEX
  5
9DCDB
100
AcDbEntity
  8
0
100
AcDbVertex
100
AcDbPolygonMeshVertex
 10
7.651001
 20
-2.252
 30
6.385
 70
    64
  0
VERTEX
  5
9DCDC
100
AcDbEntity
  8
0
100
AcDbVertex
100
AcDbPolygonMeshVertex
 10
7.651001
 20
-2.252
 30
5.765
 70
    64
  0
VERTEX
  5
9DCDD
100
AcDbEntity
  8
0
100
AcDbVertex
100
AcDbPolygonMeshVertex
 10
7.651001
 20
-2.252
 30
5.765
 70
    64
  0
VERTEX
  5
9DCDE
100
AcDbEntity
  8
0
100
AcDbVertex
100
AcDbPolygonMeshVertex
 10
7.651001
 20
-1.062
 30
6.385
 70
    64
  0
VERTEX
  5
9DCDF
100
AcDbEntity
  8
0
100
AcDbVertex
100
AcDbPolygonMeshVertex
 10
7.651001
 20
-1.062
 30
5.765
 70
    64
  0
VERTEX
  5
9DCE0
100
AcDbEntity
  8
0
100
AcDbVertex
100
AcDbPolygonMeshVertex
 10
7.651001
 20
-2.252
 30
5.765
 70
    64
  0
VERTEX
  5
9DCE1
100
AcDbEntity
  8
0
100
AcDbVertex
100
AcDbPolygonMeshVertex
 10
13.651001
 20
-1.062
 30
6.385
 70
    64
  0
VERTEX
  5
9DCE2
100
AcDbEntity
  8
0
100
AcDbVertex
100
AcDbPolygonMeshVertex
 10
13.651001
 20
-1.062
 30
5.765
 70
    64
  0
VERTEX
  5
9DCE3
100
AcDbEntity
  8
0
100
AcDbVertex
100
AcDbPolygonMeshVertex
 10
13.651001
 20
-2.252
 30
5.765
 70
    64
  0
VERTEX
  5
9DCE4
100
AcDbEntity
  8
0
100
AcDbVertex
100
AcDbPolygonMeshVertex
 10
13.651001
 20
-1.062
 30
6.385
 70
    64
  0
VERTEX
  5
9DCE5
100
AcDbEntity
  8
0
100
AcDbVertex
100
AcDbPolygonMeshVertex
 10
13.651001
 20
-1.062
 30
6.385
 70
    64
  0
VERTEX
  5
9DCE6
100
AcDbEntity
  8
0
100
AcDbVertex
100
AcDbPolygonMeshVertex
 10
13.651001
 20
-2.252
 30
6.385
 70
    64
  0
VERTEX
  5
9DCE7
100
AcDbEntity
  8
0
100
AcDbVertex
100
AcDbPolygonMeshVertex
 10
7.651001
 20
-1.062
 30
6.385
 70
    64
  0
VERTEX
  5
9DCE8
100
AcDbEntity
  8
0
100
AcDbVertex
100
AcDbPolygonMeshVertex
 10
7.651001
 20
-1.062
 30
6.385
 70
    64
  0
VERTEX
  5
9DCE9
100
AcDbEntity
  8
0
100
AcDbVertex
100
AcDbPolygonMeshVertex
 10
7.651001
 20
-2.252
 30
6.385
 70
    64
  0
SEQEND
  5
9DCEA
100
AcDbEntity
  8
0
  0
POLYLINE
  5
9DCEB
100
AcDbEntity
  8
0
100
AcDbPolygonMesh
 66
     1
 10
0.0
 20
0.0
 30
0.0
 70
    16
 71
     6
 72
     3
  0
VERTEX
  5
9DCEC
100
AcDbEntity
  8
0
100
AcDbVertex
100
AcDbPolygonMeshVertex
 10
13.651001
 20
-5.062
 30
5.765
 70
    64
  0
VERTEX
  5
9DCED
100
AcDbEntity
  8
0
100
AcDbVertex
100
AcDbPolygonMeshVertex
 10
13.651001
 20
-5.062
 30
4.325
 70
    64
  0
VERTEX
  5
9DCEE
100
AcDbEntity
  8
0
100
AcDbVertex
100
AcDbPolygonMeshVertex
 10
13.651001
 20
-5.062
 30
4.325
 70
    64
  0
VERTEX
  5
9DCEF
100
AcDbEntity
  8
0
100
AcDbVertex
100
AcDbPolygonMeshVertex
 10
7.651001
 20
-5.062
 30
5.765
 70
    64
  0
VERTEX
  5
9DCF0
100
AcDbEntity
  8
0
100
AcDbVertex
100
AcDbPolygonMeshVertex
 10
7.651001
 20
-5.062
 30
4.325
 70
    64
  0
VERTEX
  5
9DCF1
100
AcDbEntity
  8
0
100
AcDbVertex
100
AcDbPolygonMeshVertex
 10
7.651001
 20
-5.062
 30
4.325
 70
    64
  0
VERTEX
  5
9DCF2
100
AcDbEntity
  8
0
100
AcDbVertex
100
AcDbPolygonMeshVertex
 10
7.651001
 20
-1.062
 30
5.765
 70
    64
  0
VERTEX
  5
9DCF3
100
AcDbEntity
  8
0
100
AcDbVertex
100
AcDbPolygonMeshVertex
 10
7.651001
 20
-1.062
 30
4.325
 70
    64
  0
VERTEX
  5
9DCF4
100
AcDbEntity
  8
0
100
AcDbVertex
100
AcDbPolygonMeshVertex
 10
7.651001
 20
-5.062
 30
4.325
 70
    64
  0
VERTEX
  5
9DCF5
100
AcDbEntity
  8
0
100
AcDbVertex
100
AcDbPolygonMeshVertex
 10
13.651001
 20
-1.062
 30
5.765
 70
    64
  0
VERTEX
  5
9DCF6
100
AcDbEntity
  8
0
100
AcDbVertex
100
AcDbPolygonMeshVertex
 10
13.651001
 20
-1.062
 30
4.325
 70
    64
  0
VERTEX
  5
9DCF7
100
AcDbEntity
  8
0
100
AcDbVertex
100
AcDbPolygonMeshVertex
 10
13.651001
 20
-5.062
 30
4.325
 70
    64
  0
VERTEX
  5
9DCF8
100
AcDbEntity
  8
0
100
AcDbVertex
100
AcDbPolygonMeshVertex
 10
13.651001
 20
-1.062
 30
5.765
 70
    64
  0
VERTEX
  5
9DCF9
100
AcDbEntity
  8
0
100
AcDbVertex
100
AcDbPolygonMeshVertex
 10
13.651001
 20
-1.062
 30
5.765
 70
    64
  0
VERTEX
  5
9DCFA
100
AcDbEntity
  8
0
100
AcDbVertex
100
AcDbPolygonMeshVertex
 10
13.651001
 20
-5.062
 30
5.765
 70
    64
  0
VERTEX
  5
9DCFB
100
AcDbEntity
  8
0
100
AcDbVertex
100
AcDbPolygonMeshVertex
 10
7.651001
 20
-1.062
 30
5.765
 70
    64
  0
VERTEX
  5
9DCFC
100
AcDbEntity
  8
0
100
AcDbVertex
100
AcDbPolygonMeshVertex
 10
7.651001
 20
-1.062
 30
5.765
 70
    64
  0
VERTEX
  5
9DCFD
100
AcDbEntity
  8
0
100
AcDbVertex
100
AcDbPolygonMeshVertex
 10
7.651001
 20
-5.062
 30
5.765
 70
    64
  0
SEQEND
  5
9DCFE
100
AcDbEntity
  8
0
  0
POLYLINE
  5
9DCFF
100
AcDbEntity
  8
0
100
AcDbPolygonMesh
 66
     1
 10
0.0
 20
0.0
 30
0.0
 70
    16
 71
     6
 72
     3
  0
VERTEX
  5
9DD00
100
AcDbEntity
  8
0
100
AcDbVertex
100
AcDbPolygonMeshVertex
 10
13.841001
 20
-9.192
 30
6.065
 70
    64
  0
VERTEX
  5
9DD01
100
AcDbEntity
  8
0
100
AcDbVertex
100
AcDbPolygonMeshVertex
 10
13.841001
 20
-9.192
 30
4.325
 70
    64
  0
VERTEX
  5
9DD02
100
AcDbEntity
  8
0
100
AcDbVertex
100
AcDbPolygonMeshVertex
 10
13.841001
 20
-9.192
 30
4.325
 70
    64
  0
VERTEX
  5
9DD03
100
AcDbEntity
  8
0
100
AcDbVertex
100
AcDbPolygonMeshVertex
 10
7.461
 20
-9.192
 30
6.065
 70
    64
  0
VERTEX
  5
9DD04
100
AcDbEntity
  8
0
100
AcDbVertex
100
AcDbPolygonMeshVertex
 10
7.461
 20
-9.192
 30
4.325
 70
    64
  0
VERTEX
  5
9DD05
100
AcDbEntity
  8
0
100
AcDbVertex
100
AcDbPolygonMeshVertex
 10
7.461
 20
-9.192
 30
4.325
 70
    64
  0
VERTEX
  5
9DD06
100
AcDbEntity
  8
0
100
AcDbVertex
100
AcDbPolygonMeshVertex
 10
7.461
 20
-5.122
 30
6.065
 70
    64
  0
VERTEX
  5
9DD07
100
AcDbEntity
  8
0
100
AcDbVertex
100
AcDbPolygonMeshVertex
 10
7.461
 20
-5.122
 30
4.325
 70
    64
  0
VERTEX
  5
9DD08
100
AcDbEntity
  8
0
100
AcDbVertex
100
AcDbPolygonMeshVertex
 10
7.461
 20
-9.192
 30
4.325
 70
    64
  0
VERTEX
  5
9DD09
100
AcDbEntity
  8
0
100
AcDbVertex
100
AcDbPolygonMeshVertex
 10
13.841001
 20
-5.122
 30
6.065
 70
    64
  0
VERTEX
  5
9DD0A
100
AcDbEntity
  8
0
100
AcDbVertex
100
AcDbPolygonMeshVertex
 10
13.841001
 20
-5.122
 30
4.325
 70
    64
  0
VERTEX
  5
9DD0B
100
AcDbEntity
  8
0
100
AcDbVertex
100
AcDbPolygonMeshVertex
 10
13.841001
 20
-9.192
 30
4.325
 70
    64
  0
VERTEX
  5
9DD0C
100
AcDbEntity
  8
0
100
AcDbVertex
100
AcDbPolygonMeshVertex
 10
13.841001
 20
-5.122
 30
6.065
 70
    64
  0
VERTEX
  5
9DD0D
100
AcDbEntity
  8
0
100
AcDbVertex
100
AcDbPolygonMeshVertex
 10
13.841001
 20
-5.122
 30
6.065
 70
    64
  0
VERTEX
  5
9DD0E
100
AcDbEntity
  8
0
100
AcDbVertex
100
AcDbPolygonMeshVertex
 10
13.841001
 20
-9.192
 30
6.065
 70
    64
  0
VERTEX
  5
9DD0F
100
AcDbEntity
  8
0
100
AcDbVertex
100
AcDbPolygonMeshVertex
 10
7.461
 20
-5.122
 30
6.065
 70
    64
  0
VERTEX
  5
9DD10
100
AcDbEntity
  8
0
100
AcDbVertex
100
AcDbPolygonMeshVertex
 10
7.461
 20
-5.122
 30
6.065
 70
    64
  0
VERTEX
  5
9DD11
100
AcDbEntity
  8
0
100
AcDbVertex
100
AcDbPolygonMeshVertex
 10
7.461
 20
-9.192
 30
6.065
 70
    64
  0
SEQEND
  5
9DD12
100
AcDbEntity
  8
0
  0
POLYLINE
  5
9DD13
100
AcDbEntity
  8
0
100
AcDbPolygonMesh
 66
     1
 10
0.0
 20
0.0
 30
0.0
 70
    16
 71
     6
 72
     3
  0
VERTEX
  5
9DD14
100
AcDbEntity
  8
0
100
AcDbVertex
100
AcDbPolygonMeshVertex
 10
11.341001
 20
-6.482
 30
6.825
 70
    64
  0
VERTEX
  5
9DD15
100
AcDbEntity
  8
0
100
AcDbVertex
100
AcDbPolygonMeshVertex
 10
11.341001
 20
-6.482
 30
6.445
 70
    64
  0
VERTEX
  5
9DD16
100
AcDbEntity
  8
0
100
AcDbVertex
100
AcDbPolygonMeshVertex
 10
11.341001
 20
-6.482
 30
6.445
 70
    64
  0
VERTEX
  5
9DD17
100
AcDbEntity
  8
0
100
AcDbVertex
100
AcDbPolygonMeshVertex
 10
10.961001
 20
-6.482
 30
6.825
 70
    64
  0
VERTEX
  5
9DD18
100
AcDbEntity
  8
0
100
AcDbVertex
100
AcDbPolygonMeshVertex
 10
10.961001
 20
-6.482
 30
6.445
 70
    64
  0
VERTEX
  5
9DD19
100
AcDbEntity
  8
0
100
AcDbVertex
100
AcDbPolygonMeshVertex
 10
10.961001
 20
-6.482
 30
6.445
 70
    64
  0
VERTEX
  5
9DD1A
100
AcDbEntity
  8
0
100
AcDbVertex
100
AcDbPolygonMeshVertex
 10
10.961001
 20
-6.042
 30
6.825
 70
    64
  0
VERTEX
  5
9DD1B
100
AcDbEntity
  8
0
100
AcDbVertex
100
AcDbPolygonMeshVertex
 10
10.961001
 20
-6.042
 30
6.445
 70
    64
  0
VERTEX
  5
9DD1C
100
AcDbEntity
  8
0
100
AcDbVertex
100
AcDbPolygonMeshVertex
 10
10.961001
 20
-6.482
 30
6.445
 70
    64
  0
VERTEX
  5
9DD1D
100
AcDbEntity
  8
0
100
AcDbVertex
100
AcDbPolygonMeshVertex
 10
11.341001
 20
-6.042
 30
6.825
 70
    64
  0
VERTEX
  5
9DD1E
100
AcDbEntity
  8
0
100
AcDbVertex
100
AcDbPolygonMeshVertex
 10
11.341001
 20
-6.042
 30
6.445
 70
    64
  0
VERTEX
  5
9DD1F
100
AcDbEntity
  8
0
100
AcDbVertex
100
AcDbPolygonMeshVertex
 10
11.341001
 20
-6.482
 30
6.445
 70
    64
  0
VERTEX
  5
9DD20
100
AcDbEntity
  8
0
100
AcDbVertex
100
AcDbPolygonMeshVertex
 10
11.341001
 20
-6.042
 30
6.825
 70
    64
  0
VERTEX
  5
9DD21
100
AcDbEntity
  8
0
100
AcDbVertex
100
AcDbPolygonMeshVertex
 10
11.341001
 20
-6.042
 30
6.825
 70
    64
  0
VERTEX
  5
9DD22
100
AcDbEntity
  8
0
100
AcDbVertex
100
AcDbPolygonMeshVertex
 10
11.341001
 20
-6.482
 30
6.825
 70
    64
  0
VERTEX
  5
9DD23
100
AcDbEntity
  8
0
100
AcDbVertex
100
AcDbPolygonMeshVertex
 10
10.961001
 20
-6.042
 30
6.825
 70
    64
  0
VERTEX
  5
9DD24
100
AcDbEntity
  8
0
100
AcDbVertex
100
AcDbPolygonMeshVertex
 10
10.961001
 20
-6.042
 30
6.825
 70
    64
  0
VERTEX
  5
9DD25
100
AcDbEntity
  8
0
100
AcDbVertex
100
AcDbPolygonMeshVertex
 10
10.961001
 20
-6.482
 30
6.825
 70
    64
  0
SEQEND
  5
9DD26
100
AcDbEntity
  8
0
  0
POLYLINE
  5
9DD27
100
AcDbEntity
  8
0
100
AcDbPolygonMesh
 66
     1
 10
0.0
 20
0.0
 30
0.0
 70
    16
 71
     6
 72
     3
  0
VERTEX
  5
9DD28
100
AcDbEntity
  8
0
100
AcDbVertex
100
AcDbPolygonMeshVertex
 10
10.341001
 20
-6.482
 30
6.825
 70
    64
  0
VERTEX
  5
9DD29
100
AcDbEntity
  8
0
100
AcDbVertex
100
AcDbPolygonMeshVertex
 10
10.341001
 20
-6.482
 30
6.445
 70
    64
  0
VERTEX
  5
9DD2A
100
AcDbEntity
  8
0
100
AcDbVertex
100
AcDbPolygonMeshVertex
 10
10.341001
 20
-6.482
 30
6.445
 70
    64
  0
VERTEX
  5
9DD2B
100
AcDbEntity
  8
0
100
AcDbVertex
100
AcDbPolygonMeshVertex
 10
9.961001
 20
-6.482
 30
6.825
 70
    64
  0
VERTEX
  5
9DD2C
100
AcDbEntity
  8
0
100
AcDbVertex
100
AcDbPolygonMeshVertex
 10
9.961001
 20
-6.482
 30
6.445
 70
    64
  0
VERTEX
  5
9DD2D
100
AcDbEntity
  8
0
100
AcDbVertex
100
AcDbPolygonMeshVertex
 10
9.961001
 20
-6.482
 30
6.445
 70
    64
  0
VERTEX
  5
9DD2E
100
AcDbEntity
  8
0
100
AcDbVertex
100
AcDbPolygonMeshVertex
 10
9.961001
 20
-6.042
 30
6.825
 70
    64
  0
VERTEX
  5
9DD2F
100
AcDbEntity
  8
0
100
AcDbVertex
100
AcDbPolygonMeshVertex
 10
9.961001
 20
-6.042
 30
6.445
 70
    64
  0
VERTEX
  5
9DD30
100
AcDbEntity
  8
0
100
AcDbVertex
100
AcDbPolygonMeshVertex
 10
9.961001
 20
-6.482
 30
6.445
 70
    64
  0
VERTEX
  5
9DD31
100
AcDbEntity
  8
0
100
AcDbVertex
100
AcDbPolygonMeshVertex
 10
10.341001
 20
-6.042
 30
6.825
 70
    64
  0
VERTEX
  5
9DD32
100
AcDbEntity
  8
0
100
AcDbVertex
100
AcDbPolygonMeshVertex
 10
10.341001
 20
-6.042
 30
6.445
 70
    64
  0
VERTEX
  5
9DD33
100
AcDbEntity
  8
0
100
AcDbVertex
100
AcDbPolygonMeshVertex
 10
10.341001
 20
-6.482
 30
6.445
 70
    64
  0
VERTEX
  5
9DD34
100
AcDbEntity
  8
0
100
AcDbVertex
100
AcDbPolygonMeshVertex
 10
10.341001
 20
-6.042
 30
6.825
 70
    64
  0
VERTEX
  5
9DD35
100
AcDbEntity
  8
0
100
AcDbVertex
100
AcDbPolygonMeshVertex
 10
10.341001
 20
-6.042
 30
6.825
 70
    64
  0
VERTEX
  5
9DD36
100
AcDbEntity
  8
0
100
AcDbVertex
100
AcDbPolygonMeshVertex
 10
10.341001
 20
-6.482
 30
6.825
 70
    64
  0
VERTEX
  5
9DD37
100
AcDbEntity
  8
0
100
AcDbVertex
100
AcDbPolygonMeshVertex
 10
9.961001
 20
-6.042
 30
6.825
 70
    64
  0
VERTEX
  5
9DD38
100
AcDbEntity
  8
0
100
AcDbVertex
100
AcDbPolygonMeshVertex
 10
9.961001
 20
-6.042
 30
6.825
 70
    64
  0
VERTEX
  5
9DD39
100
AcDbEntity
  8
0
100
AcDbVertex
100
AcDbPolygonMeshVertex
 10
9.961001
 20
-6.482
 30
6.825
 70
    64
  0
SEQEND
  5
9DD3A
100
AcDbEntity
  8
0
  0
LINE
  5
9DD3B
100
AcDbEntity
  8
0
100
AcDbLine
 10
10.161001
 20
-9.947
 30
6.715
 11
10.161001
 21
-9.947
 31
6.595
  0
LINE
  5
9DD3C
100
AcDbEntity
  8
0
100
AcDbLine
 10
10.161001
 20
-10.697
 30
6.715
 11
10.161001
 21
-10.697
 31
6.595
  0
3DFACE
  5
9DD3D
100
AcDbEntity
  8
0
100
AcDbFace
 10
10.161001
 20
-9.947
 30
6.715
 11
10.161001
 21
-9.947
 31
6.595
 12
10.161001
 22
-10.697
 32
6.595
 13
10.161001
 23
-10.697
 33
6.715
 70
    14
  0
LINE
  5
9DD3E
100
AcDbEntity
  8
0
100
AcDbLine
 10
9.541001
 20
-9.947
 30
6.715
 11
9.541001
 21
-9.947
 31
6.595
  0
LINE
  5
9DD3F
100
AcDbEntity
  8
0
100
AcDbLine
 10
9.541001
 20
-10.697
 30
6.715
 11
9.541001
 21
-10.697
 31
6.595
  0
3DFACE
  5
9DD40
100
AcDbEntity
  8
0
100
AcDbFace
 10
9.541001
 20
-10.697
 30
6.715
 11
9.541001
 21
-9.947
 31
6.715
 12
9.541001
 22
-9.947
 32
6.595
 13
9.541001
 23
-10.697
 33
6.595
 70
    14
  0
3DFACE
  5
9DD41
100
AcDbEntity
  8
0
100
AcDbFace
 10
10.161001
 20
-9.947
 30
6.715
 11
10.161001
 21
-9.947
 31
6.595
 12
9.541001
 22
-9.947
 32
6.595
 13
9.541001
 23
-9.947
 33
6.715
 70
    14
  0
3DFACE
  5
9DD42
100
AcDbEntity
  8
0
100
AcDbFace
 10
10.161001
 20
-10.697
 30
6.715
 11
10.161001
 21
-10.697
 31
6.595
 12
9.541001
 22
-10.697
 32
6.595
 13
9.541001
 23
-10.697
 33
6.715
 70
    14
  0
CIRCLE
  5
9DD43
100
AcDbEntity
  8
0
100
AcDbCircle
 10
9.031001
 20
-13.232001
 30
4.885
 40
0.375
  0
CIRCLE
  5
9DD44
100
AcDbEntity
  8
0
100
AcDbCircle
 10
10.651001
 20
-13.232001
 30
4.885
 40
0.375
  0
LINE
  5
9DD45
100
AcDbEntity
  8
0
100
AcDbLine
 10
9.941001
 20
-10.232
 30
5.875
 11
9.941001
 21
-10.232
 31
5.075
  0
LINE
  5
9DD46
100
AcDbEntity
  8
0
100
AcDbLine
 10
9.761001
 20
-10.232
 30
5.875
 11
9.761001
 21
-10.232
 31
5.075
  0
LINE
  5
9DD47
100
AcDbEntity
  8
0
100
AcDbLine
 10
9.761001
 20
-10.412
 30
5.875
 11
9.761001
 21
-10.412
 31
5.075
  0
LINE
  5
9DD48
100
AcDbEntity
  8
0
100
AcDbLine
 10
9.941001
 20
-10.412
 30
5.875
 11
9.941001
 21
-10.412
 31
5.075
  0
3DFACE
  5
9DD49
100
AcDbEntity
  8
0
100
AcDbFace
 10
9.941001
 20
-10.412
 30
5.875
 11
9.941001
 21
-10.412
 31
5.075
 12
9.761001
 22
-10.412
 32
5.075
 13
9.761001
 23
-10.412
 33
5.875
 70
    14
  0
3DFACE
  5
9DD4A
100
AcDbEntity
  8
0
100
AcDbFace
 10
9.761001
 20
-10.232
 30
5.875
 11
9.761001
 21
-10.232
 31
5.075
 12
9.761001
 22
-10.412
 32
5.075
 13
9.761001
 23
-10.412
 33
5.875
 70
    14
  0
3DFACE
  5
9DD4B
100
AcDbEntity
  8
0
100
AcDbFace
 10
9.761001
 20
-10.232
 30
5.875
 11
9.761001
 21
-10.232
 31
5.075
 12
9.941001
 22
-10.232
 32
5.075
 13
9.941001
 23
-10.232
 33
5.875
 70
    14
  0
3DFACE
  5
9DD4C
100
AcDbEntity
  8
0
100
AcDbFace
 10
9.941001
 20
-10.232
 30
5.875
 11
9.941001
 21
-10.232
 31
5.075
 12
9.941001
 22
-10.412
 32
5.075
 13
9.941001
 23
-10.412
 33
5.875
 70
    14
  0
LINE
  5
9DD4D
100
AcDbEntity
  8
0
100
AcDbLine
 10
9.761001
 20
-10.412
 30
5.075
 11
9.941001
 21
-10.412
 31
5.075
  0
LINE
  5
9DD4E
100
AcDbEntity
  8
0
100
AcDbLine
 10
9.941001
 20
-10.232
 30
5.075
 11
9.761001
 21
-10.232
 31
5.075
  0
LINE
  5
9DD4F
100
AcDbEntity
  8
0
100
AcDbLine
 10
9.761001
 20
-10.232
 30
5.075
 11
9.761001
 21
-10.412
 31
5.075
  0
LINE
  5
9DD50
100
AcDbEntity
  8
0
100
AcDbLine
 10
9.941001
 20
-10.412
 30
5.075
 11
9.941001
 21
-10.232
 31
5.075
  0
POLYLINE
  5
9DD51
100
AcDbEntity
  8
0
100
AcDbPolygonMesh
 66
     1
 10
0.0
 20
0.0
 30
0.0
 70
    16
 71
     6
 72
     3
  0
VERTEX
  5
9DD52
100
AcDbEntity
  8
0
100
AcDbVertex
100
AcDbPolygonMeshVertex
 10
11.651001
 20
-6.942
 30
6.445
 70
    64
  0
VERTEX
  5
9DD53
100
AcDbEntity
  8
0
100
AcDbVertex
100
AcDbPolygonMeshVertex
 10
11.651001
 20
-6.942
 30
6.065
 70
    64
  0
VERTEX
  5
9DD54
100
AcDbEntity
  8
0
100
AcDbVertex
100
AcDbPolygonMeshVertex
 10
11.651001
 20
-6.942
 30
6.065
 70
    64
  0
VERTEX
  5
9DD55
100
AcDbEntity
  8
0
100
AcDbVertex
100
AcDbPolygonMeshVertex
 10
9.651001
 20
-6.942
 30
6.445
 70
    64
  0
VERTEX
  5
9DD56
100
AcDbEntity
  8
0
100
AcDbVertex
100
AcDbPolygonMeshVertex
 10
9.651001
 20
-6.942
 30
6.065
 70
    64
  0
VERTEX
  5
9DD57
100
AcDbEntity
  8
0
100
AcDbVertex
100
AcDbPolygonMeshVertex
 10
9.651001
 20
-6.942
 30
6.065
 70
    64
  0
VERTEX
  5
9DD58
100
AcDbEntity
  8
0
100
AcDbVertex
100
AcDbPolygonMeshVertex
 10
9.651001
 20
-5.942
 30
6.445
 70
    64
  0
VERTEX
  5
9DD59
100
AcDbEntity
  8
0
100
AcDbVertex
100
AcDbPolygonMeshVertex
 10
9.651001
 20
-5.942
 30
6.065
 70
    64
  0
VERTEX
  5
9DD5A
100
AcDbEntity
  8
0
100
AcDbVertex
100
AcDbPolygonMeshVertex
 10
9.651001
 20
-6.942
 30
6.065
 70
    64
  0
VERTEX
  5
9DD5B
100
AcDbEntity
  8
0
100
AcDbVertex
100
AcDbPolygonMeshVertex
 10
11.651001
 20
-5.942
 30
6.445
 70
    64
  0
VERTEX
  5
9DD5C
100
AcDbEntity
  8
0
100
AcDbVertex
100
AcDbPolygonMeshVertex
 10
11.651001
 20
-5.942
 30
6.065
 70
    64
  0
VERTEX
  5
9DD5D
100
AcDbEntity
  8
0
100
AcDbVertex
100
AcDbPolygonMeshVertex
 10
11.651001
 20
-6.942
 30
6.065
 70
    64
  0
VERTEX
  5
9DD5E
100
AcDbEntity
  8
0
100
AcDbVertex
100
AcDbPolygonMeshVertex
 10
11.651001
 20
-5.942
 30
6.445
 70
    64
  0
VERTEX
  5
9DD5F
100
AcDbEntity
  8
0
100
AcDbVertex
100
AcDbPolygonMeshVertex
 10
11.651001
 20
-5.942
 30
6.445
 70
    64
  0
VERTEX
  5
9DD60
100
AcDbEntity
  8
0
100
AcDbVertex
100
AcDbPolygonMeshVertex
 10
11.651001
 20
-6.942
 30
6.445
 70
    64
  0
VERTEX
  5
9DD61
100
AcDbEntity
  8
0
100
AcDbVertex
100
AcDbPolygonMeshVertex
 10
9.651001
 20
-5.942
 30
6.445
 70
    64
  0
VERTEX
  5
9DD62
100
AcDbEntity
  8
0
100
AcDbVertex
100
AcDbPolygonMeshVertex
 10
9.651001
 20
-5.942
 30
6.445
 70
    64
  0
VERTEX
  5
9DD63
100
AcDbEntity
  8
0
100
AcDbVertex
100
AcDbPolygonMeshVertex
 10
9.651001
 20
-6.942
 30
6.445
 70
    64
  0
SEQEND
  5
9DD64
100
AcDbEntity
  8
0
  0
LINE
  5
9DD65
100
AcDbEntity
  8
0
100
AcDbLine
 10
10.101001
 20
-10.072
 30
6.185
 11
10.101001
 21
-10.072
 31
5.875
  0
LINE
  5
9DD66
100
AcDbEntity
  8
0
100
AcDbLine
 10
10.101001
 20
-10.572
 30
6.185
 11
10.101001
 21
-10.572
 31
5.875
  0
3DFACE
  5
9DD67
100
AcDbEntity
  8
0
100
AcDbFace
 10
10.101001
 20
-10.072
 30
6.185
 11
10.101001
 21
-10.572
 31
6.185
 12
10.101001
 22
-10.572
 32
5.875
 13
10.101001
 23
-10.072
 33
5.875
 70
    14
  0
LINE
  5
9DD68
100
AcDbEntity
  8
0
100
AcDbLine
 10
9.601001
 20
-10.072
 30
6.185
 11
9.601001
 21
-10.072
 31
5.875
  0
LINE
  5
9DD69
100
AcDbEntity
  8
0
100
AcDbLine
 10
9.601001
 20
-10.572
 30
6.185
 11
9.601001
 21
-10.572
 31
5.875
  0
3DFACE
  5
9DD6A
100
AcDbEntity
  8
0
100
AcDbFace
 10
9.601001
 20
-10.572
 30
6.185
 11
9.601001
 21
-10.572
 31
5.875
 12
9.601001
 22
-10.072
 32
5.875
 13
9.601001
 23
-10.072
 33
6.185
 70
    14
  0
3DFACE
  5
9DD6B
100
AcDbEntity
  8
0
100
AcDbFace
 10
10.101001
 20
-10.072
 30
6.185
 11
10.101001
 21
-10.072
 31
5.875
 12
9.601001
 22
-10.072
 32
5.875
 13
9.601001
 23
-10.072
 33
6.185
 70
    14
  0
3DFACE
  5
9DD6C
100
AcDbEntity
  8
0
100
AcDbFace
 10
9.601001
 20
-10.572
 30
6.185
 11
10.101001
 21
-10.572
 31
6.185
 12
10.101001
 22
-10.572
 32
5.875
 13
9.601001
 23
-10.572
 33
5.875
 70
    14
  0
LINE
  5
9DD6D
100
AcDbEntity
  8
0
100
AcDbLine
 10
10.101001
 20
-10.572
 30
5.875
 11
10.101001
 21
-10.072
 31
5.875
  0
LINE
  5
9DD6E
100
AcDbEntity
  8
0
100
AcDbLine
 10
9.601001
 20
-10.072
 30
5.875
 11
9.601001
 21
-10.572
 31
5.875
  0
LINE
  5
9DD6F
100
AcDbEntity
  8
0
100
AcDbLine
 10
9.601001
 20
-10.572
 30
5.875
 11
10.101001
 21
-10.572
 31
5.875
  0
LINE
  5
9DD70
100
AcDbEntity
  8
0
100
AcDbLine
 10
10.101001
 20
-10.072
 30
5.875
 11
9.601001
 21
-10.072
 31
5.875
  0
LINE
  5
9DD71
100
AcDbEntity
  8
0
100
AcDbLine
 10
9.761001
 20
-10.412
 30
5.875
 11
9.941001
 21
-10.412
 31
5.875
  0
LINE
  5
9DD72
100
AcDbEntity
  8
0
100
AcDbLine
 10
9.941001
 20
-10.232
 30
5.875
 11
9.761001
 21
-10.232
 31
5.875
  0
3DFACE
  5
9DD73
100
AcDbEntity
  8
0
100
AcDbFace
 10
9.941001
 20
-10.232
 30
5.875
 11
9.761001
 21
-10.232
 31
5.875
 12
9.761001
 22
-10.412
 32
5.875
 13
9.941001
 23
-10.412
 33
5.875
 70
    14
  0
LINE
  5
9DD74
100
AcDbEntity
  8
0
100
AcDbLine
 10
9.761001
 20
-10.232
 30
5.875
 11
9.761001
 21
-10.412
 31
5.875
  0
LINE
  5
9DD75
100
AcDbEntity
  8
0
100
AcDbLine
 10
9.941001
 20
-10.412
 30
5.875
 11
9.941001
 21
-10.232
 31
5.875
  0
LINE
  5
9DD76
100
AcDbEntity
  8
0
100
AcDbLine
 10
9.541001
 20
-10.697
 30
6.595
 11
10.161001
 21
-10.697
 31
6.595
  0
LINE
  5
9DD77
100
AcDbEntity
  8
0
100
AcDbLine
 10
10.161001
 20
-9.947
 30
6.595
 11
9.541001
 21
-9.947
 31
6.595
  0
LINE
  5
9DD78
100
AcDbEntity
  8
0
100
AcDbLine
 10
9.541001
 20
-10.697
 30
6.595
 11
9.601001
 21
-10.572
 31
6.185
  0
LINE
  5
9DD79
100
AcDbEntity
  8
0
100
AcDbLine
 10
9.541001
 20
-9.947
 30
6.595
 11
9.601001
 21
-10.072
 31
6.185001
  0
3DFACE
  5
9DD7A
100
AcDbEntity
  8
0
100
AcDbFace
 10
9.541001
 20
-10.697
 30
6.595
 11
9.541001
 21
-9.947
 31
6.595
 12
9.601001
 22
-10.072
 32
6.185
 13
9.601001
 23
-10.572
 33
6.185
 70
    14
  0
3DFACE
  5
9DD7B
100
AcDbEntity
  8
0
100
AcDbFace
 10
10.161001
 20
-9.947
 30
6.595
 11
10.101001
 21
-10.072
 31
6.185
 12
9.601001
 22
-10.072
 32
6.185
 13
9.541001
 23
-9.947
 33
6.595
 70
    14
  0
3DFACE
  5
9DD7C
100
AcDbEntity
  8
0
100
AcDbFace
 10
10.161001
 20
-10.697
 30
6.595
 11
9.541001
 21
-10.697
 31
6.595
 12
9.601001
 22
-10.572
 32
6.185
 13
10.101001
 23
-10.572
 33
6.185
 70
    14
  0
LINE
  5
9DD7D
100
AcDbEntity
  8
0
100
AcDbLine
 10
9.541001
 20
-9.947
 30
6.595
 11
9.541001
 21
-10.697
 31
6.595
  0
LINE
  5
9DD7E
100
AcDbEntity
  8
0
100
AcDbLine
 10
10.161001
 20
-10.697
 30
6.595
 11
10.161001
 21
-9.947
 31
6.595
  0
LINE
  5
9DD7F
100
AcDbEntity
  8
0
100
AcDbLine
 10
10.101001
 20
-10.572
 30
6.185
 11
10.101001
 21
-10.072
 31
6.185
  0
LINE
  5
9DD80
100
AcDbEntity
  8
0
100
AcDbLine
 10
9.601001
 20
-10.072
 30
6.185
 11
9.601001
 21
-10.572
 31
6.185
  0
3DFACE
  5
9DD81
100
AcDbEntity
  8
0
100
AcDbFace
 10
10.161001
 20
-9.947
 30
6.595
 11
10.101001
 21
-10.072
 31
6.185
 12
10.101001
 22
-10.572
 32
6.185
 13
10.161001
 23
-10.697
 33
6.595
 70
    14
  0
LINE
  5
9DD82
100
AcDbEntity
  8
0
100
AcDbLine
 10
10.161001
 20
-10.697
 30
6.595
 11
10.101001
 21
-10.572
 31
6.185
  0
LINE
  5
9DD83
100
AcDbEntity
  8
0
100
AcDbLine
 10
9.601001
 20
-10.572
 30
6.185
 11
10.101001
 21
-10.572
 31
6.185
  0
LINE
  5
9DD84
100
AcDbEntity
  8
0
100
AcDbLine
 10
10.161001
 20
-9.947
 30
6.595
 11
10.101001
 21
-10.072
 31
6.185001
  0
LINE
  5
9DD85
100
AcDbEntity
  8
0
100
AcDbLine
 10
10.101001
 20
-10.072
 30
6.185
 11
9.601001
 21
-10.072
 31
6.185
  0
LINE
  5
9DD86
100
AcDbEntity
  8
0
100
AcDbLine
 10
9.541001
 20
-10.697
 30
6.715
 11
10.161001
 21
-10.697
 31
6.715
  0
LINE
  5
9DD87
100
AcDbEntity
  8
0
100
AcDbLine
 10
10.161001
 20
-9.947
 30
6.715
 11
9.541001
 21
-9.947
 31
6.715
  0
3DFACE
  5
9DD88
100
AcDbEntity
  8
0
100
AcDbFace
 10
10.161001
 20
-9.947
 30
6.715
 11
9.541001
 21
-9.947
 31
6.715
 12
9.541001
 22
-10.697
 32
6.715
 13
10.161001
 23
-10.697
 33
6.715
 70
    14
  0
LINE
  5
9DD89
100
AcDbEntity
  8
0
100
AcDbLine
 10
9.541001
 20
-9.947
 30
6.715
 11
9.541001
 21
-10.697
 31
6.715
  0
LINE
  5
9DD8A
100
AcDbEntity
  8
0
100
AcDbLine
 10
10.161001
 20
-10.697
 30
6.715
 11
10.161001
 21
-9.947
 31
6.715
  0
CIRCLE
  5
9DD8B
100
AcDbEntity
  8
0
  6
BYBLOCK
100
AcDbCircle
 10
10.151001
 20
-6.322
 30
6.825
 40
0.125
  0
LINE
  5
9DD8C
100
AcDbEntity
  8
0
  6
BYBLOCK
100
AcDbLine
 10
10.102787
 20
-6.206672
 30
6.825
 11
10.183649
 21
-6.442661
 31
6.825
  0
LINE
  5
9DD8D
100
AcDbEntity
  8
0
  6
BYBLOCK
100
AcDbLine
 10
10.11924
 20
-6.20054
 30
6.825
 11
10.200103
 21
-6.436528
 31
6.825
  0
CIRCLE
  5
9DD8E
100
AcDbEntity
  8
0
  6
BYBLOCK
100
AcDbCircle
 10
11.151001
 20
-6.322
 30
6.825
 40
0.125
  0
LINE
  5
9DD8F
100
AcDbEntity
  8
0
  6
BYBLOCK
100
AcDbLine
 10
11.102787
 20
-6.206672
 30
6.825
 11
11.183649
 21
-6.442661
 31
6.825
  0
LINE
  5
9DD90
100
AcDbEntity
  8
0
  6
BYBLOCK
100
AcDbLine
 10
11.11924
 20
-6.20054
 30
6.825
 11
11.200103
 21
-6.436528
 31
6.825
  0
POLYLINE
  5
9DD91
100
AcDbEntity
  8
0
100
AcDbPolygonMesh
 66
     1
 10
0.0
 20
0.0
 30
0.0
 70
    16
 71
     6
 72
     3
  0
VERTEX
  5
9DD92
100
AcDbEntity
  8
0
100
AcDbVertex
100
AcDbPolygonMeshVertex
 10
9.121001
 20
-2.252
 30
7.005
 70
    64
  0
VERTEX
  5
9DD93
100
AcDbEntity
  8
0
100
AcDbVertex
100
AcDbPolygonMeshVertex
 10
9.121001
 20
-2.252
 30
6.385
 70
    64
  0
VERTEX
  5
9DD94
100
AcDbEntity
  8
0
100
AcDbVertex
100
AcDbPolygonMeshVertex
 10
9.121001
 20
-2.252
 30
6.385
 70
    64
  0
VERTEX
  5
9DD95
100
AcDbEntity
  8
0
100
AcDbVertex
100
AcDbPolygonMeshVertex
 10
8.121001
 20
-2.252
 30
7.005
 70
    64
  0
VERTEX
  5
9DD96
100
AcDbEntity
  8
0
100
AcDbVertex
100
AcDbPolygonMeshVertex
 10
8.121001
 20
-2.252
 30
6.385
 70
    64
  0
VERTEX
  5
9DD97
100
AcDbEntity
  8
0
100
AcDbVertex
100
AcDbPolygonMeshVertex
 10
8.121001
 20
-2.252
 30
6.385
 70
    64
  0
VERTEX
  5
9DD98
100
AcDbEntity
  8
0
100
AcDbVertex
100
AcDbPolygonMeshVertex
 10
8.121001
 20
0.018
 30
7.005
 70
    64
  0
VERTEX
  5
9DD99
100
AcDbEntity
  8
0
100
AcDbVertex
100
AcDbPolygonMeshVertex
 10
8.121001
 20
0.018
 30
6.385
 70
    64
  0
VERTEX
  5
9DD9A
100
AcDbEntity
  8
0
100
AcDbVertex
100
AcDbPolygonMeshVertex
 10
8.121001
 20
-2.252
 30
6.385
 70
    64
  0
VERTEX
  5
9DD9B
100
AcDbEntity
  8
0
100
AcDbVertex
100
AcDbPolygonMeshVertex
 10
9.121001
 20
0.018
 30
7.005
 70
    64
  0
VERTEX
  5
9DD9C
100
AcDbEntity
  8
0
100
AcDbVertex
100
AcDbPolygonMeshVertex
 10
9.121001
 20
0.018
 30
6.385
 70
    64
  0
VERTEX
  5
9DD9D
100
AcDbEntity
  8
0
100
AcDbVertex
100
AcDbPolygonMeshVertex
 10
9.121001
 20
-2.252
 30
6.385
 70
    64
  0
VERTEX
  5
9DD9E
100
AcDbEntity
  8
0
100
AcDbVertex
100
AcDbPolygonMeshVertex
 10
9.121001
 20
0.018
 30
7.005
 70
    64
  0
VERTEX
  5
9DD9F
100
AcDbEntity
  8
0
100
AcDbVertex
100
AcDbPolygonMeshVertex
 10
9.121001
 20
0.018
 30
7.005
 70
    64
  0
VERTEX
  5
9DDA0
100
AcDbEntity
  8
0
100
AcDbVertex
100
AcDbPolygonMeshVertex
 10
9.121001
 20
-2.252
 30
7.005
 70
    64
  0
VERTEX
  5
9DDA1
100
AcDbEntity
  8
0
100
AcDbVertex
100
AcDbPolygonMeshVertex
 10
8.121001
 20
0.018
 30
7.005
 70
    64
  0
VERTEX
  5
9DDA2
100
AcDbEntity
  8
0
100
AcDbVertex
100
AcDbPolygonMeshVertex
 10
8.121001
 20
0.018
 30
7.005
 70
    64
  0
VERTEX
  5
9DDA3
100
AcDbEntity
  8
0
100
AcDbVertex
100
AcDbPolygonMeshVertex
 10
8.121001
 20
-2.252
 30
7.005
 70
    64
  0
SEQEND
  5
9DDA4
100
AcDbEntity
  8
0
  0
POLYLINE
  5
9DDA5
100
AcDbEntity
  8
0
100
AcDbPolygonMesh
 66
     1
 10
0.0
 20
0.0
 30
0.0
 70
    16
 71
     6
 72
     3
  0
VERTEX
  5
9DDA6
100
AcDbEntity
  8
0
100
AcDbVertex
100
AcDbPolygonMeshVertex
 10
11.151001
 20
-2.252
 30
7.005
 70
    64
  0
VERTEX
  5
9DDA7
100
AcDbEntity
  8
0
100
AcDbVertex
100
AcDbPolygonMeshVertex
 10
11.151001
 20
-2.252
 30
6.385
 70
    64
  0
VERTEX
  5
9DDA8
100
AcDbEntity
  8
0
100
AcDbVertex
100
AcDbPolygonMeshVertex
 10
11.151001
 20
-2.252
 30
6.385
 70
    64
  0
VERTEX
  5
9DDA9
100
AcDbEntity
  8
0
100
AcDbVertex
100
AcDbPolygonMeshVertex
 10
10.151001
 20
-2.252
 30
7.005
 70
    64
  0
VERTEX
  5
9DDAA
100
AcDbEntity
  8
0
100
AcDbVertex
100
AcDbPolygonMeshVertex
 10
10.151001
 20
-2.252
 30
6.385
 70
    64
  0
VERTEX
  5
9DDAB
100
AcDbEntity
  8
0
100
AcDbVertex
100
AcDbPolygonMeshVertex
 10
10.151001
 20
-2.252
 30
6.385
 70
    64
  0
VERTEX
  5
9DDAC
100
AcDbEntity
  8
0
100
AcDbVertex
100
AcDbPolygonMeshVertex
 10
10.151001
 20
0.018
 30
7.005
 70
    64
  0
VERTEX
  5
9DDAD
100
AcDbEntity
  8
0
100
AcDbVertex
100
AcDbPolygonMeshVertex
 10
10.151001
 20
0.018
 30
6.385
 70
    64
  0
VERTEX
  5
9DDAE
100
AcDbEntity
  8
0
100
AcDbVertex
100
AcDbPolygonMeshVertex
 10
10.151001
 20
-2.252
 30
6.385
 70
    64
  0
VERTEX
  5
9DDAF
100
AcDbEntity
  8
0
100
AcDbVertex
100
AcDbPolygonMeshVertex
 10
11.151001
 20
0.018
 30
7.005
 70
    64
  0
VERTEX
  5
9DDB0
100
AcDbEntity
  8
0
100
AcDbVertex
100
AcDbPolygonMeshVertex
 10
11.151001
 20
0.018
 30
6.385
 70
    64
  0
VERTEX
  5
9DDB1
100
AcDbEntity
  8
0
100
AcDbVertex
100
AcDbPolygonMeshVertex
 10
11.151001
 20
-2.252
 30
6.385
 70
    64
  0
VERTEX
  5
9DDB2
100
AcDbEntity
  8
0
100
AcDbVertex
100
AcDbPolygonMeshVertex
 10
11.151001
 20
0.018
 30
7.005
 70
    64
  0
VERTEX
  5
9DDB3
100
AcDbEntity
  8
0
100
AcDbVertex
100
AcDbPolygonMeshVertex
 10
11.151001
 20
0.018
 30
7.005
 70
    64
  0
VERTEX
  5
9DDB4
100
AcDbEntity
  8
0
100
AcDbVertex
100
AcDbPolygonMeshVertex
 10
11.151001
 20
-2.252
 30
7.005
 70
    64
  0
VERTEX
  5
9DDB5
100
AcDbEntity
  8
0
100
AcDbVertex
100
AcDbPolygonMeshVertex
 10
10.151001
 20
0.018
 30
7.005
 70
    64
  0
VERTEX
  5
9DDB6
100
AcDbEntity
  8
0
100
AcDbVertex
100
AcDbPolygonMeshVertex
 10
10.151001
 20
0.018
 30
7.005
 70
    64
  0
VERTEX
  5
9DDB7
100
AcDbEntity
  8
0
100
AcDbVertex
100
AcDbPolygonMeshVertex
 10
10.151001
 20
-2.252
 30
7.005
 70
    64
  0
SEQEND
  5
9DDB8
100
AcDbEntity
  8
0
  0
POLYLINE
  5
9DDB9
100
AcDbEntity
  8
0
100
AcDbPolygonMesh
 66
     1
 10
0.0
 20
0.0
 30
0.0
 70
    16
 71
     6
 72
     3
  0
VERTEX
  5
9DDBA
100
AcDbEntity
  8
0
100
AcDbVertex
100
AcDbPolygonMeshVertex
 10
9.121001
 20
-1.102
 30
7.885
 70
    64
  0
VERTEX
  5
9DDBB
100
AcDbEntity
  8
0
100
AcDbVertex
100
AcDbPolygonMeshVertex
 10
9.121001
 20
-1.102
 30
7.005
 70
    64
  0
VERTEX
  5
9DDBC
100
AcDbEntity
  8
0
100
AcDbVertex
100
AcDbPolygonMeshVertex
 10
9.121001
 20
-1.102
 30
7.005
 70
    64
  0
VERTEX
  5
9DDBD
100
AcDbEntity
  8
0
100
AcDbVertex
100
AcDbPolygonMeshVertex
 10
8.121001
 20
-1.102
 30
7.885
 70
    64
  0
VERTEX
  5
9DDBE
100
AcDbEntity
  8
0
100
AcDbVertex
100
AcDbPolygonMeshVertex
 10
8.121001
 20
-1.102
 30
7.005
 70
    64
  0
VERTEX
  5
9DDBF
100
AcDbEntity
  8
0
100
AcDbVertex
100
AcDbPolygonMeshVertex
 10
8.121001
 20
-1.102
 30
7.005
 70
    64
  0
VERTEX
  5
9DDC0
100
AcDbEntity
  8
0
100
AcDbVertex
100
AcDbPolygonMeshVertex
 10
8.121001
 20
0.018
 30
7.885
 70
    64
  0
VERTEX
  5
9DDC1
100
AcDbEntity
  8
0
100
AcDbVertex
100
AcDbPolygonMeshVertex
 10
8.121001
 20
0.018
 30
7.005
 70
    64
  0
VERTEX
  5
9DDC2
100
AcDbEntity
  8
0
100
AcDbVertex
100
AcDbPolygonMeshVertex
 10
8.121001
 20
-1.102
 30
7.005
 70
    64
  0
VERTEX
  5
9DDC3
100
AcDbEntity
  8
0
100
AcDbVertex
100
AcDbPolygonMeshVertex
 10
9.121001
 20
0.018
 30
7.885
 70
    64
  0
VERTEX
  5
9DDC4
100
AcDbEntity
  8
0
100
AcDbVertex
100
AcDbPolygonMeshVertex
 10
9.121001
 20
0.018
 30
7.005
 70
    64
  0
VERTEX
  5
9DDC5
100
AcDbEntity
  8
0
100
AcDbVertex
100
AcDbPolygonMeshVertex
 10
9.121001
 20
-1.102
 30
7.005
 70
    64
  0
VERTEX
  5
9DDC6
100
AcDbEntity
  8
0
100
AcDbVertex
100
AcDbPolygonMeshVertex
 10
9.121001
 20
0.018
 30
7.885
 70
    64
  0
VERTEX
  5
9DDC7
100
AcDbEntity
  8
0
100
AcDbVertex
100
AcDbPolygonMeshVertex
 10
9.121001
 20
0.018
 30
7.885
 70
    64
  0
VERTEX
  5
9DDC8
100
AcDbEntity
  8
0
100
AcDbVertex
100
AcDbPolygonMeshVertex
 10
9.121001
 20
-1.102
 30
7.885
 70
    64
  0
VERTEX
  5
9DDC9
100
AcDbEntity
  8
0
100
AcDbVertex
100
AcDbPolygonMeshVertex
 10
8.121001
 20
0.018
 30
7.885
 70
    64
  0
VERTEX
  5
9DDCA
100
AcDbEntity
  8
0
100
AcDbVertex
100
AcDbPolygonMeshVertex
 10
8.121001
 20
0.018
 30
7.885
 70
    64
  0
VERTEX
  5
9DDCB
100
AcDbEntity
  8
0
100
AcDbVertex
100
AcDbPolygonMeshVertex
 10
8.121001
 20
-1.102
 30
7.885
 70
    64
  0
SEQEND
  5
9DDCC
100
AcDbEntity
  8
0
  0
CIRCLE
  5
9DDCD
100
AcDbEntity
  8
0
  6
BYBLOCK
100
AcDbCircle
 10
8.621001
 20
-0.542
 30
7.885
 40
0.375
  0
POLYLINE
  5
9DDCE
100
AcDbEntity
  8
0
100
AcDbPolygonMesh
 66
     1
 10
0.0
 20
0.0
 30
0.0
 70
    16
 71
     6
 72
     3
  0
VERTEX
  5
9DDCF
100
AcDbEntity
  8
0
100
AcDbVertex
100
AcDbPolygonMeshVertex
 10
11.151001
 20
-1.102
 30
7.885
 70
    64
  0
VERTEX
  5
9DDD0
100
AcDbEntity
  8
0
100
AcDbVertex
100
AcDbPolygonMeshVertex
 10
11.151001
 20
-1.102
 30
7.005
 70
    64
  0
VERTEX
  5
9DDD1
100
AcDbEntity
  8
0
100
AcDbVertex
100
AcDbPolygonMeshVertex
 10
11.151001
 20
-1.102
 30
7.005
 70
    64
  0
VERTEX
  5
9DDD2
100
AcDbEntity
  8
0
100
AcDbVertex
100
AcDbPolygonMeshVertex
 10
10.151001
 20
-1.102
 30
7.885
 70
    64
  0
VERTEX
  5
9DDD3
100
AcDbEntity
  8
0
100
AcDbVertex
100
AcDbPolygonMeshVertex
 10
10.151001
 20
-1.102
 30
7.005
 70
    64
  0
VERTEX
  5
9DDD4
100
AcDbEntity
  8
0
100
AcDbVertex
100
AcDbPolygonMeshVertex
 10
10.151001
 20
-1.102
 30
7.005
 70
    64
  0
VERTEX
  5
9DDD5
100
AcDbEntity
  8
0
100
AcDbVertex
100
AcDbPolygonMeshVertex
 10
10.151001
 20
0.018
 30
7.885
 70
    64
  0
VERTEX
  5
9DDD6
100
AcDbEntity
  8
0
100
AcDbVertex
100
AcDbPolygonMeshVertex
 10
10.151001
 20
0.018
 30
7.005
 70
    64
  0
VERTEX
  5
9DDD7
100
AcDbEntity
  8
0
100
AcDbVertex
100
AcDbPolygonMeshVertex
 10
10.151001
 20
-1.102
 30
7.005
 70
    64
  0
VERTEX
  5
9DDD8
100
AcDbEntity
  8
0
100
AcDbVertex
100
AcDbPolygonMeshVertex
 10
11.151001
 20
0.018
 30
7.885
 70
    64
  0
VERTEX
  5
9DDD9
100
AcDbEntity
  8
0
100
AcDbVertex
100
AcDbPolygonMeshVertex
 10
11.151001
 20
0.018
 30
7.005
 70
    64
  0
VERTEX
  5
9DDDA
100
AcDbEntity
  8
0
100
AcDbVertex
100
AcDbPolygonMeshVertex
 10
11.151001
 20
-1.102
 30
7.005
 70
    64
  0
VERTEX
  5
9DDDB
100
AcDbEntity
  8
0
100
AcDbVertex
100
AcDbPolygonMeshVertex
 10
11.151001
 20
0.018
 30
7.885
 70
    64
  0
VERTEX
  5
9DDDC
100
AcDbEntity
  8
0
100
AcDbVertex
100
AcDbPolygonMeshVertex
 10
11.151001
 20
0.018
 30
7.885
 70
    64
  0
VERTEX
  5
9DDDD
100
AcDbEntity
  8
0
100
AcDbVertex
100
AcDbPolygonMeshVertex
 10
11.151001
 20
-1.102
 30
7.885
 70
    64
  0
VERTEX
  5
9DDDE
100
AcDbEntity
  8
0
100
AcDbVertex
100
AcDbPolygonMeshVertex
 10
10.151001
 20
0.018
 30
7.885
 70
    64
  0
VERTEX
  5
9DDDF
100
AcDbEntity
  8
0
100
AcDbVertex
100
AcDbPolygonMeshVertex
 10
10.151001
 20
0.018
 30
7.885
 70
    64
  0
VERTEX
  5
9DDE0
100
AcDbEntity
  8
0
100
AcDbVertex
100
AcDbPolygonMeshVertex
 10
10.151001
 20
-1.102
 30
7.885
 70
    64
  0
SEQEND
  5
9DDE1
100
AcDbEntity
  8
0
  0
CIRCLE
  5
9DDE2
100
AcDbEntity
  8
0
  6
BYBLOCK
100
AcDbCircle
 10
10.651001
 20
-0.542
 30
7.885
 40
0.375
  0
CIRCLE
  5
9DDE3
100
AcDbEntity
  8
0
  6
BYBLOCK
100
AcDbCircle
 10
12.681001
 20
-0.542
 30
7.885
 40
0.375
  0
CIRCLE
  5
9DDE4
100
AcDbEntity
  8
0
  6
BYBLOCK
100
AcDbCircle
 10
0.0
 20
-9.825
 30
0.265
 40
0.1715
  0
CIRCLE
  5
9DDE5
100
AcDbEntity
  8
0
  6
BYBLOCK
100
AcDbCircle
 10
13.781001
 20
-9.825
 30
0.0
 40
0.1715
  0
CIRCLE
  5
9DDE6
100
AcDbEntity
  8
0
  6
BYBLOCK
100
AcDbCircle
 10
13.781001
 20
-9.825
 30
0.265
 40
0.1715
  0
TEXT
  5
9DDE7
100
AcDbEntity
  8
0
100
AcDbText
 10
8.42614
 20
-0.716454
 30
7.885
 40
0.301876
  1
L1
100
AcDbText
  0
TEXT
  5
9DDE8
100
AcDbEntity
  8
0
100
AcDbText
 10
10.422613
 20
-0.70052
 30
7.885
 40
0.301876
  1
L2
100
AcDbText
  0
TEXT
  5
9DDE9
100
AcDbEntity
  8
0
100
AcDbText
 10
12.442167
 20
-0.719191
 30
7.885
 40
0.301876
  1
L3
100
AcDbText
  0
TEXT
  5
9DDEA
100
AcDbEntity
  8
0
100
AcDbText
 10
8.795397
 20
-13.40414
 30
4.885
 40
0.301876
  1
T1
100
AcDbText
  0
TEXT
  5
9DDEB
100
AcDbEntity
  8
0
100
AcDbText
 10
10.370499
 20
-13.42622
 30
4.885
 40
0.301876
  1
T2
100
AcDbText
  0
TEXT
  5
9DDEC
100
AcDbEntity
  8
0
100
AcDbText
 10
12.000291
 20
-13.382703
 30
4.885
 40
0.301876
  1
T3
100
AcDbText
  0
ATTDEF
  5
9DDED
100
AcDbEntity
  8
ATTRIBUTES
100
AcDbText
 10
-0.258425
 20
-4.381661
 30
0.0
 40
0.281295
  1
ALLEN-BRADLEY
100
AcDbAttributeDefinition
  3
MANUFACTURER NAME?
  2
AC_VND_LABEL
 70
     1
  0
ATTDEF
  5
9DDEE
100
AcDbEntity
  8
ATTRIBUTES
100
AcDbText
 10
-0.258425
 20
-4.967691
 30
0.0
 40
0.281295
  1
520G-D
100
AcDbAttributeDefinition
  3
CATALOG NUMBER?
  2
AC_PART_NO
 70
     1
  0
ATTDEF
  5
9DDEF
100
AcDbEntity
  8
ATTRIBUTES
100
AcDbText
 10
-0.258425
 20
-5.553722
 30
0.0
 40
0.281295
  1
2 SPEED CONSTANT HP STARTER w/ EUTECTIC ALLOY OLR; NEMA SIZE 3
100
AcDbAttributeDefinition
  3
PART DESCRIPTION?
  2
AC_DESCRIPTION
 70
     1
  0
ATTDEF
  5
9DDF0
100
AcDbEntity
  8
ATTRIBUTES
100
AcDbText
 10
-0.258425
 20
-6.139752
 30
0.0
 40
0.281295
  1

100
AcDbAttributeDefinition
  3
DEVICE ID?
  2
DEVICE_ID
 70
     1
  0
ATTDEF
  5
9DDF1
100
AcDbEntity
  8
ATTRIBUTES
100
AcDbText
 10
-0.258425
 20
-6.725783
 30
0.0
 40
0.281295
  1

100
AcDbAttributeDefinition
  3
CUSTOMER PART NUMBER?
  2
AC_CPART_NO
 70
     1
  0
ATTDEF
  5
9DDF2
100
AcDbEntity
  8
ATTRIBUTES
100
AcDbText
 10
-0.258425
 20
-7.311813
 30
0.0
 40
0.281295
  1

100
AcDbAttributeDefinition
  3
CUSTOMER NOTE?
  2
AC_NOTE
 70
     1
  0
ATTDEF
  5
9DDF3
100
AcDbEntity
  8
ATTRIBUTES
100
AcDbText
 10
-0.258425
 20
-7.897843
 30
0.0
 40
0.281295
  1

100
AcDbAttributeDefinition
  3
FASTENER DATA?
  2
FASTENER
 70
     1
  0
ATTDEF
  5
9DDF4
100
AcDbEntity
  8
ATTRIBUTES
100
AcDbText
 10
-0.258425
 20
-8.483874
 30
0.0
 40
0.281295
  1
INCH
100
AcDbAttributeDefinition
  3
UNIT OF SCALE?
  2
AC_SCALE_UNIT
 70
     1
  0
ATTDEF
  5
9DDF5
100
AcDbEntity
  8
ATTRIBUTES
100
AcDbText
 10
-0.258425
 20
-9.069904
 30
0.0
 40
0.281295
  1
0
100
AcDbAttributeDefinition
  3
VIEW CODE?
  2
AC_VIEW_CODE
 70
     1
  0
POINT
  5
9DDF6
100
AcDbEntity
  8
DIMS-MTG-HOLES
100
AcDbPoint
 10
0.0
 20
-9.825
 30
0.0
  0
POINT
  5
9DDF7
100
AcDbEntity
  8
DIMS-MTG-HOLES
100
AcDbPoint
 10
13.781001
 20
-9.825
 30
0.0
  0
POINT
  5
9DDF8
100
AcDbEntity
  8
DIMS-MTG-HOLES
100
AcDbPoint
 10
13.781
 20
0.0
 30
0.0
  0
POINT
  5
9DDF9
100
AcDbEntity
  8
DIMS-MTG-HOLES
100
AcDbPoint
 10
0.0
 20
0.0
 30
0.0
  0
DIMENSION
  5
9DDFA
100
AcDbEntity
  8
AREA1
100
AcDbDimension
  2
*D0
 10
-3.661086
 20
-13.792
 30
0.0
 11
-3.661086
 21
-6.518725
 31
0.0
 70
   160
  3
ABECAD_3D
100
AcDbAlignedDimension
 13
0.651
 23
0.568
 33
0.265
 14
0.656
 24
-13.792
 34
3.385
 50
90.0
100
AcDbRotatedDimension
  0
DIMENSION
  5
9DE08
100
AcDbEntity
  8
AREA1
100
AcDbDimension
  2
*D1
 10
14.311001
 20
2.497823
 30
0.0
 11
6.607967
 21
2.497823
 31
0.0
 70
   160
  3
ABECAD_3D
100
AcDbAlignedDimension
 13
-1.40625
 23
0.014047
 33
6.385
 14
14.311001
 24
0.5
 34
0.0
100
AcDbRotatedDimension
  0
LWPOLYLINE
  5
9DE25
100
AcDbEntity
  8
SCALE
100
AcDbPolyline
 90
        4
 70
     1
 43
0.0
 10
6.052075
 20
-12.170407
 10
7.187704
 20
-12.170407
 10
7.187704
 20
-13.012017
 10
6.052075
 20
-13.012017
  0
LINE
  5
9DE26
100
AcDbEntity
  8
SCALE
100
AcDbLine
 10
6.110074
 20
-12.550485
 30
0.0
 11
7.110074
 21
-12.550485
 31
0.0
  0
LINE
  5
9DE27
100
AcDbEntity
  8
SCALE
100
AcDbLine
 10
6.110074
 20
-12.850485
 30
0.0
 11
6.503774
 21
-12.850485
 31
0.0
  0
LINE
  5
9DE28
100
AcDbEntity
  8
SCALE
100
AcDbLine
 10
6.110074
 20
-12.650485
 30
0.0
 11
6.110074
 21
-12.450485
 31
0.0
  0
TEXT
  5
9DE29
100
AcDbEntity
  8
SCALE
100
AcDbText
 10
6.16605
 20
-12.8028
 30
0.0
 40
0.0625
  1
[10mm]
100
AcDbText
  0
LINE
  5
9DE2A
100
AcDbEntity
  8
SCALE
100
AcDbLine
 10
6.110074
 20
-12.950485
 30
0.0
 11
6.110074
 21
-12.750485
 31
0.0
  0
TEXT
  5
9DE2B
100
AcDbEntity
  8
SCALE
100
AcDbText
 10
6.111604
 20
-12.275608
 30
0.0
 40
0.0625
  1
SCALE:
100
AcDbText
  0
LINE
  5
9DE2C
100
AcDbEntity
  8
SCALE
100
AcDbLine
 10
6.503774
 20
-12.950485
 30
0.0
 11
6.503774
 21
-12.750485
 31
0.0
  0
TEXT
  5
9DE2D
100
AcDbEntity
  8
SCALE
100
AcDbText
 10
6.473357
 20
-12.481437
 30
0.0
 40
0.0625
  1
1 Inch
100
AcDbText
  0
LINE
  5
9DE2E
100
AcDbEntity
  8
SCALE
100
AcDbLine
 10
7.110074
 20
-12.550485
 30
0.0
 11
7.110074
 21
-12.650485
 31
0.0
  0
LINE
  5
9DE2F
100
AcDbEntity
  8
SCALE
100
AcDbLine
 10
7.110074
 20
-12.650485
 30
0.0
 11
7.110074
 21
-12.450485
 31
0.0
  0
VIEWPORT
  5
5677D
102
{ACAD_XDICTIONARY
360
9DE93
102
}
100
AcDbEntity
 67
     1
  8
0
100
AcDbViewport
 10
5.25
 20
4.0
 30
0.0
 40
16.386862
 41
8.993
 68
    -1
 69
     1
1001
ACAD
1000
MVIEW
1002
{
1070
    16
1010
0.0
1020
0.0
1030
0.0
1010
0.0
1020
0.0
1030
1.0
1040
0.0
1040
8.993
1040
5.25
1040
4.0
1040
50.0
1040
0.0
1040
0.0
1070
     0
1070
 20000
1070
     1
1070
     1
1070
     0
1070
     0
1070
     0
1070
     0
1040
0.0
1040
0.0
1040
0.0
1040
0.5
1040
0.5
1040
0.5
1040
0.5
1070
     0
1002
{
1002
}
1002
}
  0
VIEWPORT
  5
5677F
102
{ACAD_XDICTIONARY
360
9DE95
102
}
100
AcDbEntity
 67
     1
  8
AREA1
100
AcDbViewport
 10
5.25
 20
4.0
 30
0.0
 40
8.4
 41
6.4
 68
     1
 69
     2
1001
ACAD
1000
MVIEW
1002
{
1070
    16
1010
0.563444
1020
-0.880137
1030
1.686493
1010
0.0
1020
0.0
1030
1.0
1040
0.0
1040
4.582914
1040
-1.017175
1040
0.747813
1040
50.0
1040
0.0
1040
0.0
1070
     0
1070
 20000
1070
     1
1070
     1
1070
     0
1070
     0
1070
     0
1070
     0
1040
0.0
1040
0.0
1040
0.0
1040
0.25
1040
0.25
1040
0.25
1040
0.25
1070
     0
1002
{
1002
}
1002
}
  0
ENDSEC
  0
SECTION
  2
OBJECTS
  0
DICTIONARY
  5
458CB
100
AcDbDictionary
  3
ACAD_GROUP
350
458CC
  3
ACAD_LAYOUT
350
458FB
  3
ACAD_MLINESTYLE
350
458D9
  3
ACAD_PLOTSETTINGS
350
458FC
  3
ACAD_PLOTSTYLENAME
350
458F9
  3
ACDBHEADERROUNDTRIPXREC
350
9DE6A
  3
ACDBVARIABLEDICTIONARY
350
458E1
  3
DWGPROPS
350
45901
  0
DICTIONARY
  5
9DE68
100
AcDbDictionary
280
     1
  3
ACAD_XREC_ROUNDTRIP
360
9DE69
  0
DICTIONARY
  5
9DE91
100
AcDbDictionary
280
     1
  3
ACAD_XREC_ROUNDTRIP
360
9DE92
  0
DICTIONARY
  5
9DE66
100
AcDbDictionary
280
     1
  3
ACAD_XREC_ROUNDTRIP
360
9DE67
  0
DICTIONARY
  5
9DE8D
100
AcDbDictionary
280
     1
  3
ACAD_XREC_ROUNDTRIP
360
9DE8E
  0
DICTIONARY
  5
4592C
100
AcDbDictionary
280
     1
  3
ACAD_LAYOUTSELFREF
360
9DE8C
  0
DICTIONARY
  5
4592A
100
AcDbDictionary
280
     1
  3
ACAD_LAYOUTSELFREF
360
9DE8B
  0
DICTIONARY
  5
9DE93
100
AcDbDictionary
280
     1
  3
ACAD_XREC_ROUNDTRIP
360
9DE94
  0
DICTIONARY
  5
9DE95
100
AcDbDictionary
280
     1
  3
ACAD_XREC_ROUNDTRIP
360
9DE96
  0
DICTIONARY
  5
458CC
102
{ACAD_REACTORS
330
458CB
102
}
100
AcDbDictionary
  0
DICTIONARY
  5
458FB
102
{ACAD_XDICTIONARY
360
9DE8F
102
}
102
{ACAD_REACTORS
330
458CB
102
}
100
AcDbDictionary
  3
LAYOUT1
350
458FE
  3
MODEL
350
458FD
  0
DICTIONARY
  5
458D9
102
{ACAD_REACTORS
330
458CB
102
}
100
AcDbDictionary
  3
STANDARD
350
458DA
  0
DICTIONARY
  5
458FC
102
{ACAD_REACTORS
330
458CB
102
}
100
AcDbDictionary
  0
ACAD_PROXY_OBJECT
  5
458F9
102
{ACAD_REACTORS
330
458CB
102
}
100
AcDbProxyObject
 90
      499
 91
      501
 93
       86
310
405010041939BDC9B585B2
350
458FA
340
458FA
 94
        0
  0
DICTIONARY
  5
9DE6A
102
{ACAD_REACTORS
330
458CB
102
}
100
AcDbDictionary
  3
CEPSNTYPE
350
9DE74
  3
DIMSTYLEDATA
350
9DE78
  3
FINGERPRINTGUID
350
9DE75
  3
HYPERLINKBASE
350
9DE6D
  3
INSUNITS
350
9DE73
  3
LAYOUTDICT
350
9DE6F
  3
LWETCUNION
350
9DE72
  3
PLOTSETDICT
350
9DE70
  3
PLOTSTYLNAMDICT
350
9DE71
  3
PSVPSCALE
350
9DE77
  3
PUCSBASE
350
9DE7B
  3
PUCSORGBACK
350
9DE81
  3
PUCSORGBOTTOM
350
9DE7D
  3
PUCSORGFRONT
350
9DE80
  3
PUCSORGLEFT
350
9DE7E
  3
PUCSORGRIGHT
350
9DE7F
  3
PUCSORGTOP
350
9DE7C
  3
PUCSORTHOREF
350
9DE79
  3
PUCSORTHOVIEW
350
9DE7A
  3
STYLESHEET
350
9DE6E
  3
TSTACKALIGN
350
9DE6B
  3
TSTACKSIZE
350
9DE6C
  3
UCSBASE
350
9DE84
  3
UCSORGBACK
350
9DE8A
  3
UCSORGBOTTOM
350
9DE86
  3
UCSORGFRONT
350
9DE89
  3
UCSORGLEFT
350
9DE87
  3
UCSORGRIGHT
350
9DE88
  3
UCSORGTOP
350
9DE85
  3
UCSORTHOREF
350
9DE82
  3
UCSORTHOVIEW
350
9DE83
  3
VERSIONGUID
350
9DE76
  0
DICTIONARY
  5
458E1
102
{ACAD_REACTORS
330
458CB
102
}
100
AcDbDictionary
  3
DIMADEC
350
458E2
  0
XRECORD
  5
45901
102
{ACAD_REACTORS
330
458CB
102
}
100
AcDbXrecord
  1
DWGPROPS COOKIE
  2

  3

  4

  6

  7

  8
colin
  9

300
=
301
=
302
=
303
=
304
=
305
=
306
=
307
=
308
=
309
=
 40
0.000599
 41
2451670.444777
 42
2451670.445376
  1

 90
        0
  0
XRECORD
  5
9DE69
102
{ACAD_REACTORS
330
9DE68
102
}
100
AcDbXrecord
102
EXTNAMES
  1
*ACTIVE
  2
*Active
102
UCS
 74
     0
 71
     1
 10
0.0
 20
0.0
 30
0.0
 10
1.0
 20
0.0
 30
0.0
 10
0.0
 20
1.0
 30
0.0
146
0.0
 79
     1
102
VIEW
281
     1
  0
XRECORD
  5
9DE92
102
{ACAD_REACTORS
330
9DE91
102
}
100
AcDbXrecord
102
PLOTBIT
280
     0
  0
XRECORD
  5
9DE67
102
{ACAD_REACTORS
330
9DE66
102
}
100
AcDbXrecord
102
EXTNAMES
  1
DEFPOINTS
  2
Defpoints
102
PLOTBIT
280
     0
  0
XRECORD
  5
9DE8E
102
{ACAD_REACTORS
330
9DE8D
102
}
100
AcDbXrecord
102
ACADR14ROUNDTRIP
1000
DSTYLE
1002
{
1070
   276
 70
     2
1070
   277
 70
     5
1070
   279
 70
     2
1070
   289
 70
     2
1002
}
  0
XRECORD
  5
9DE8C
102
{ACAD_REACTORS
330
4592C
102
}
100
AcDbXrecord
340
458D6
  0
XRECORD
  5
9DE8B
102
{ACAD_REACTORS
330
4592A
102
}
100
AcDbXrecord
340
458D3
  0
XRECORD
  5
9DE94
102
{ACAD_REACTORS
330
9DE93
102
}
100
AcDbXrecord
102
UCS
 74
     0
 71
     1
 10
0.0
 20
0.0
 30
0.0
 10
1.0
 20
0.0
 30
0.0
 10
0.0
 20
1.0
 30
0.0
146
0.0
 79
     0
102
VIEW
281
     0
102
NEWVIEWCONTROL
280
     4
  0
XRECORD
  5
9DE96
102
{ACAD_REACTORS
330
9DE95
102
}
100
AcDbXrecord
102
UCS
 74
     0
 71
     1
 10
0.0
 20
0.0
 30
0.0
 10
1.0
 20
0.0
 30
0.0
 10
0.0
 20
1.0
 30
0.0
146
0.0
 79
     1
102
VIEW
281
     1
102
NEWVIEWCONTROL
280
     4
  0
DICTIONARY
  5
9DE8F
100
AcDbDictionary
280
     1
  3
ACAD_XREC_ROUNDTRIP
360
9DE90
  0
ACAD_PROXY_OBJECT
  5
458FE
102
{ACAD_REACTORS
330
458FB
102
}
100
AcDbProxyObject
 90
      499
 91
      503
 93
     1700
310
90B6E6F6E655F6465766963652C0080000006066661940000000181999865000000000068661940000000001A1986500000000C0CCFC6A4000000018199D9C5011C4C65747465725F28382E35305F785F31312E30305F496E6368657329A901416AA547D11959985D5B1D08148C4D081C195B88185CDCDA59DB9B595B9D1CC
310
B98DD1891069074C61796F75743140501A840201008040342FEFF7FBFDFFFFF3EFDFAFF7FBFFDFC9501008043E3FDFC8102A6A6A0000003033333C0FC000000809999E93F8FFFFFF5766E622403FFFFFEBF333071020
330
458D3
330
5677D
340
0
340
0
 94
        0
  0
ACAD_PROXY_OBJECT
  5
458FD
102
{ACAD_REACTORS
330
458FB
102
}
100
AcDbProxyObject
 90
      499
 91
      503
 93
      924
310
91D4850204C617365724A65742035303030205365726965732050434C20362C01AAAAAAAAA547D11959985D5B1D08148C4D081C195B88185CDCDA59DB9B595B9D1CCB98DD18A69054D6F64656C901A800000000000000000000000000000000000000000000A1000000000000008902A6A6AAAA0
330
458D6
330
0
340
0
340
0
 94
        0
  0
MLINESTYLE
  5
458DA
102
{ACAD_REACTORS
330
458D9
102
}
100
AcDbMlineStyle
  2
STANDARD
 70
     0
  3

 62
   256
 51
90.0
 52
90.0
 71
     2
 49
0.5
 62
   256
  6
BYLAYER
 49
-0.5
 62
   256
  6
BYLAYER
  0
ACAD_PROXY_OBJECT
  5
458FA
102
{ACAD_REACTORS
330
458F9
102
}
100
AcDbProxyObject
 90
      499
 91
      502
 93
        0
 94
        0
  0
XRECORD
  5
9DE74
102
{ACAD_REACTORS
330
9DE6A
102
}
100
AcDbXrecord
 90
        0
  0
XRECORD
  5
9DE78
102
{ACAD_REACTORS
330
9DE6A
102
}
100
AcDbXrecord
1000
DSTYLE
1002
{
1070
   276
 70
     2
1070
   277
 70
     5
1070
   279
 70
     2
1070
   289
 70
     2
1002
}
  0
XRECORD
  5
9DE75
102
{ACAD_REACTORS
330
9DE6A
102
}
100
AcDbXrecord
  1
{6E0CF4B8-225E-11D4-A150-00A0CC3303EC}
  0
XRECORD
  5
9DE6D
102
{ACAD_REACTORS
330
9DE6A
102
}
100
AcDbXrecord
  1

  0
XRECORD
  5
9DE73
102
{ACAD_REACTORS
330
9DE6A
102
}
100
AcDbXrecord
 90
        0
  0
XRECORD
  5
9DE6F
102
{ACAD_REACTORS
330
9DE6A
102
}
100
AcDbXrecord
340
458FB
  0
XRECORD
  5
9DE72
102
{ACAD_REACTORS
330
9DE6A
102
}
100
AcDbXrecord
 90
    14877
  0
XRECORD
  5
9DE70
102
{ACAD_REACTORS
330
9DE6A
102
}
100
AcDbXrecord
340
458FC
  0
XRECORD
  5
9DE71
102
{ACAD_REACTORS
330
9DE6A
102
}
100
AcDbXrecord
340
458F9
  0
XRECORD
  5
9DE77
102
{ACAD_REACTORS
330
9DE6A
102
}
100
AcDbXrecord
 40
0.0
  0
XRECORD
  5
9DE7B
102
{ACAD_REACTORS
330
9DE6A
102
}
100
AcDbXrecord
340
0
  0
XRECORD
  5
9DE81
102
{ACAD_REACTORS
330
9DE6A
102
}
100
AcDbXrecord
 10
0.0
 20
0.0
 30
0.0
  0
XRECORD
  5
9DE7D
102
{ACAD_REACTORS
330
9DE6A
102
}
100
AcDbXrecord
 10
0.0
 20
0.0
 30
0.0
  0
XRECORD
  5
9DE80
102
{ACAD_REACTORS
330
9DE6A
102
}
100
AcDbXrecord
 10
0.0
 20
0.0
 30
0.0
  0
XRECORD
  5
9DE7E
102
{ACAD_REACTORS
330
9DE6A
102
}
100
AcDbXrecord
 10
0.0
 20
0.0
 30
0.0
  0
XRECORD
  5
9DE7F
102
{ACAD_REACTORS
330
9DE6A
102
}
100
AcDbXrecord
 10
0.0
 20
0.0
 30
0.0
  0
XRECORD
  5
9DE7C
102
{ACAD_REACTORS
330
9DE6A
102
}
100
AcDbXrecord
 10
0.0
 20
0.0
 30
0.0
  0
XRECORD
  5
9DE79
102
{ACAD_REACTORS
330
9DE6A
102
}
100
AcDbXrecord
340
0
  0
XRECORD
  5
9DE7A
102
{ACAD_REACTORS
330
9DE6A
102
}
100
AcDbXrecord
 70
     0
  0
XRECORD
  5
9DE6E
102
{ACAD_REACTORS
330
9DE6A
102
}
100
AcDbXrecord
  1

  0
XRECORD
  5
9DE6B
102
{ACAD_REACTORS
330
9DE6A
102
}
100
AcDbXrecord
 90
        1
  0
XRECORD
  5
9DE6C
102
{ACAD_REACTORS
330
9DE6A
102
}
100
AcDbXrecord
 90
       70
  0
XRECORD
  5
9DE84
102
{ACAD_REACTORS
330
9DE6A
102
}
100
AcDbXrecord
340
0
  0
XRECORD
  5
9DE8A
102
{ACAD_REACTORS
330
9DE6A
102
}
100
AcDbXrecord
 10
0.0
 20
0.0
 30
0.0
  0
XRECORD
  5
9DE86
102
{ACAD_REACTORS
330
9DE6A
102
}
100
AcDbXrecord
 10
0.0
 20
0.0
 30
0.0
  0
XRECORD
  5
9DE89
102
{ACAD_REACTORS
330
9DE6A
102
}
100
AcDbXrecord
 10
0.0
 20
0.0
 30
0.0
  0
XRECORD
  5
9DE87
102
{ACAD_REACTORS
330
9DE6A
102
}
100
AcDbXrecord
 10
0.0
 20
0.0
 30
0.0
  0
XRECORD
  5
9DE88
102
{ACAD_REACTORS
330
9DE6A
102
}
100
AcDbXrecord
 10
0.0
 20
0.0
 30
0.0
  0
XRECORD
  5
9DE85
102
{ACAD_REACTORS
330
9DE6A
102
}
100
AcDbXrecord
 10
0.0
 20
0.0
 30
0.0
  0
XRECORD
  5
9DE82
102
{ACAD_REACTORS
330
9DE6A
102
}
100
AcDbXrecord
340
0
  0
XRECORD
  5
9DE83
102
{ACAD_REACTORS
330
9DE6A
102
}
100
AcDbXrecord
 70
     1
  0
XRECORD
  5
9DE76
102
{ACAD_REACTORS
330
9DE6A
102
}
100
AcDbXrecord
  1
{9300FAB1-E19C-4B62-AC12-113E511E04D1}
  0
DICTIONARYVAR
  5
458E2
102
{ACAD_REACTORS
330
458E1
102
}
100
DictionaryVariables
280
     0
  1
0
  0
XRECORD
  5
9DE90
102
{ACAD_REACTORS
330
9DE8F
102
}
100
AcDbXrecord
102
EXTNAMES
  1
LAYOUT1
  2
Layout1
  1
MODEL
  2
Model
  0
ENDSEC
  0
EOF
