  0
SECTION
  2
HEADER
  9
$ACADVER
  1
AC1014
  9
$ACADMAINTVER
 70
     8
  9
$DWGCODEPAGE
  3
ANSI_1252
  9
$INSBASE
 10
0.0
 20
0.0
 30
0.0
  9
$EXTMIN
 10
-7.246024
 20
-11.145953
 30
-0.762788
  9
$EXTMAX
 10
4.75
 20
2.141321
 30
5.469973
  9
$LIMMIN
 10
0.0
 20
0.0
  9
$LIMMAX
 10
12.0
 20
9.0
  9
$ORTHOMODE
 70
     0
  9
$REGENMODE
 70
     1
  9
$FILLMODE
 70
     1
  9
$QTEXTMODE
 70
     0
  9
$MIRRTEXT
 70
     1
  9
$DRAGMODE
 70
     2
  9
$LTSCALE
 40
1.0
  9
$OSMODE
 70
    37
  9
$ATTMODE
 70
     0
  9
$TEXTSIZE
 40
0.2
  9
$TRACEWID
 40
0.05
  9
$TEXTSTYLE
  7
STANDARD
  9
$CLAYER
  8
0
  9
$CELTYPE
  6
BYLAYER
  9
$CECOLOR
 62
   256
  9
$CELTSCALE
 40
1.0
  9
$DELOBJ
 70
     1
  9
$DISPSILH
 70
     0
  9
$DIMSCALE
 40
0.0
  9
$DIMASZ
 40
0.125
  9
$DIMEXO
 40
0.0625
  9
$DIMDLI
 40
0.375
  9
$DIMRND
 40
0.0
  9
$DIMDLE
 40
0.0
  9
$DIMEXE
 40
0.0625
  9
$DIMTP
 40
0.0
  9
$DIMTM
 40
0.0
  9
$DIMTXT
 40
0.125
  9
$DIMCEN
 40
0.09
  9
$DIMTSZ
 40
0.0
  9
$DIMTOL
 70
     0
  9
$DIMLIM
 70
     0
  9
$DIMTIH
 70
     0
  9
$DIMTOH
 70
     1
  9
$DIMSE1
 70
     0
  9
$DIMSE2
 70
     0
  9
$DIMTAD
 70
     0
  9
$DIMZIN
 70
     4
  9
$DIMBLK
  1

  9
$DIMASO
 70
     1
  9
$DIMSHO
 70
     1
  9
$DIMPOST
  1

  9
$DIMAPOST
  1

  9
$DIMALT
 70
     1
  9
$DIMALTD
 70
     2
  9
$DIMALTF
 40
25.4
  9
$DIMLFAC
 40
1.0
  9
$DIMTOFL
 70
     0
  9
$DIMTVP
 40
0.0
  9
$DIMTIX
 70
     0
  9
$DIMSOXD
 70
     0
  9
$DIMSAH
 70
     0
  9
$DIMBLK1
  1

  9
$DIMBLK2
  1

  9
$DIMSTYLE
  2
ABECAD_3V
  9
$DIMCLRD
 70
     0
  9
$DIMCLRE
 70
     0
  9
$DIMCLRT
 70
     0
  9
$DIMTFAC
 40
1.5
  9
$DIMGAP
 40
0.09
  9
$DIMJUST
 70
     0
  9
$DIMSD1
 70
     0
  9
$DIMSD2
 70
     0
  9
$DIMTOLJ
 70
     1
  9
$DIMTZIN
 70
     4
  9
$DIMALTZ
 70
     4
  9
$DIMALTTZ
 70
     4
  9
$DIMFIT
 70
     5
  9
$DIMUPT
 70
     1
  9
$DIMUNIT
 70
     7
  9
$DIMDEC
 70
     6
  9
$DIMTDEC
 70
     6
  9
$DIMALTU
 70
     2
  9
$DIMALTTD
 70
     2
  9
$DIMTXSTY
  7
STANDARD
  9
$DIMAUNIT
 70
     0
  9
$LUNITS
 70
     2
  9
$LUPREC
 70
     6
  9
$SKETCHINC
 40
0.1
  9
$FILLETRAD
 40
0.0
  9
$AUNITS
 70
     0
  9
$AUPREC
 70
     0
  9
$MENU
  1
acad
  9
$ELEVATION
 40
0.0
  9
$PELEVATION
 40
0.0
  9
$THICKNESS
 40
0.0
  9
$LIMCHECK
 70
     0
  9
$BLIPMODE
 70
     0
  9
$CHAMFERA
 40
0.0
  9
$CHAMFERB
 40
0.0
  9
$CHAMFERC
 40
0.0
  9
$CHAMFERD
 40
0.0
  9
$SKPOLY
 70
     0
  9
$TDCREATE
 40
2451726.438362384
  9
$TDUPDATE
 40
2452010.724872800
  9
$TDINDWG
 40
1.2674416667
  9
$TDUSRTIMER
 40
1.2674416667
  9
$USRTIMER
 70
     1
  9
$ANGBASE
 50
0.0
  9
$ANGDIR
 70
     0
  9
$PDMODE
 70
     3
  9
$PDSIZE
 40
0.18
  9
$PLINEWID
 40
0.0
  9
$COORDS
 70
     1
  9
$SPLFRAME
 70
     0
  9
$SPLINETYPE
 70
     6
  9
$SPLINESEGS
 70
     8
  9
$ATTDIA
 70
     0
  9
$ATTREQ
 70
     1
  9
$HANDLING
 70
     1
  9
$HANDSEED
  5
60321
  9
$SURFTAB1
 70
     6
  9
$SURFTAB2
 70
     6
  9
$SURFTYPE
 70
     6
  9
$SURFU
 70
     6
  9
$SURFV
 70
     6
  9
$UCSNAME
  2

  9
$UCSORG
 10
0.0
 20
0.0
 30
0.0
  9
$UCSXDIR
 10
1.0
 20
0.0
 30
0.0
  9
$UCSYDIR
 10
0.0
 20
0.0
 30
1.0
  9
$PUCSNAME
  2

  9
$PUCSORG
 10
0.0
 20
0.0
 30
0.0
  9
$PUCSXDIR
 10
1.0
 20
0.0
 30
0.0
  9
$PUCSYDIR
 10
0.0
 20
1.0
 30
0.0
  9
$USERI1
 70
     0
  9
$USERI2
 70
     0
  9
$USERI3
 70
     0
  9
$USERI4
 70
     0
  9
$USERI5
 70
     0
  9
$USERR1
 40
0.0
  9
$USERR2
 40
0.0
  9
$USERR3
 40
0.0
  9
$USERR4
 40
0.0
  9
$USERR5
 40
0.0
  9
$WORLDVIEW
 70
     1
  9
$SHADEDGE
 70
     3
  9
$SHADEDIF
 70
    70
  9
$TILEMODE
 70
     0
  9
$MAXACTVP
 70
    16
  9
$PINSBASE
 10
0.0
 20
0.0
 30
0.0
  9
$PLIMCHECK
 70
     0
  9
$PEXTMIN
 10
0.0
 20
0.0
 30
0.0
  9
$PEXTMAX
 10
10.0
 20
7.5
 30
0.0
  9
$PLIMMIN
 10
-0.187029
 20
-0.186938
  9
$PLIMMAX
 10
10.187518
 20
7.829757
  9
$UNITMODE
 70
     0
  9
$VISRETAIN
 70
     0
  9
$PLINEGEN
 70
     0
  9
$PSLTSCALE
 70
     1
  9
$TREEDEPTH
 70
  3020
  9
$PICKSTYLE
 70
     1
  9
$CMLSTYLE
  2
STANDARD
  9
$CMLJUST
 70
     0
  9
$CMLSCALE
 40
1.0
  9
$PROXYGRAPHICS
 70
     1
  9
$MEASUREMENT
 70
     0
  0
ENDSEC
  0
SECTION
  2
CLASSES
  0
CLASS
  1
DICTIONARYVAR
  2
AcDbDictionaryVar
  3
"AutoCAD"
 90
        0
280
     0
281
     0
  0
CLASS
  1
ACDBDICTIONARYWDFLT
  2
AcDbDictionaryWithDefault
  3
AutoCAD 2000
 90
        0
280
     0
281
     0
  0
CLASS
  1
ACDBPLACEHOLDER
  2
AcDbPlaceHolder
  3
AutoCAD 2000
 90
        0
280
     0
281
     0
  0
CLASS
  1
LAYOUT
  2
AcDbLayout
  3
AutoCAD 2000
 90
        0
280
     0
281
     0
  0
CLASS
  1
LONG_TRANSACTION
  2
AcDbLongTransaction
  3
AutoCAD 2000
 90
        0
280
     0
281
     0
  0
CLASS
  1
LWPOLYLINE
  2
AcDbPolyline
  3
"AutoCAD"
 90
        0
280
     0
281
     1
  0
CLASS
  1
HATCH
  2
AcDbHatch
  3
"ACAD_SEDONA"
 90
        0
280
     0
281
     1
  0
CLASS
  1
XRECORD
  2
AcDbXrecord
  3
"<Built In>"
 90
        0
280
     0
281
     0
  0
CLASS
  1
LONG_TRANSACTION
  2
AcDbLongTransaction
  3
AutoCAD 2000
 90
        0
280
     0
281
     0
  0
CLASS
  1
LWPOLYLINE
  2
AcDbPolyline
  3
"AutoCAD"
 90
        0
280
     0
281
     1
  0
CLASS
  1
HATCH
  2
AcDbHatch
  3
"ACAD_SEDONA"
 90
        0
280
     0
281
     1
  0
CLASS
  1
XRECORD
  2
AcDbXrecord
  3
"<Built In>"
 90
        0
280
     0
281
     0
  0
CLASS
  1
LONG_TRANSACTION
  2
AcDbLongTransaction
  3
AutoCAD 2000
 90
        0
280
     0
281
     0
  0
CLASS
  1
LWPOLYLINE
  2
AcDbPolyline
  3
"AutoCAD"
 90
        0
280
     0
281
     1
  0
CLASS
  1
HATCH
  2
AcDbHatch
  3
"ACAD_SEDONA"
 90
        0
280
     0
281
     1
  0
CLASS
  1
XRECORD
  2
AcDbXrecord
  3
"<Built In>"
 90
        0
280
     0
281
     0
  0
CLASS
  1
LONG_TRANSACTION
  2
AcDbLongTransaction
  3
AutoCAD 2000
 90
        0
280
     0
281
     0
  0
CLASS
  1
LWPOLYLINE
  2
AcDbPolyline
  3
"AutoCAD"
 90
        0
280
     0
281
     1
  0
CLASS
  1
HATCH
  2
AcDbHatch
  3
"ACAD_SEDONA"
 90
        0
280
     0
281
     1
  0
CLASS
  1
XRECORD
  2
AcDbXrecord
  3
"<Built In>"
 90
        0
280
     0
281
     0
  0
CLASS
  1
LONG_TRANSACTION
  2
AcDbLongTransaction
  3
AutoCAD 2000
 90
        0
280
     0
281
     0
  0
CLASS
  1
LWPOLYLINE
  2
AcDbPolyline
  3
"AutoCAD"
 90
        0
280
     0
281
     1
  0
CLASS
  1
HATCH
  2
AcDbHatch
  3
"ACAD_SEDONA"
 90
        0
280
     0
281
     1
  0
CLASS
  1
XRECORD
  2
AcDbXrecord
  3
"<Built In>"
 90
        0
280
     0
281
     0
  0
CLASS
  1
LONG_TRANSACTION
  2
AcDbLongTransaction
  3
AutoCAD 2000
 90
        0
280
     0
281
     0
  0
CLASS
  1
LWPOLYLINE
  2
AcDbPolyline
  3
"AutoCAD"
 90
        0
280
     0
281
     1
  0
CLASS
  1
HATCH
  2
AcDbHatch
  3
"ACAD_SEDONA"
 90
        0
280
     0
281
     1
  0
CLASS
  1
XRECORD
  2
AcDbXrecord
  3
"<Built In>"
 90
        0
280
     0
281
     0
  0
CLASS
  1
LONG_TRANSACTION
  2
AcDbLongTransaction
  3
AutoCAD 2000
 90
        0
280
     0
281
     0
  0
CLASS
  1
LWPOLYLINE
  2
AcDbPolyline
  3
"AutoCAD"
 90
        0
280
     0
281
     1
  0
CLASS
  1
HATCH
  2
AcDbHatch
  3
"ACAD_SEDONA"
 90
        0
280
     0
281
     1
  0
CLASS
  1
XRECORD
  2
AcDbXrecord
  3
"<Built In>"
 90
        0
280
     0
281
     0
  0
CLASS
  1
LONG_TRANSACTION
  2
AcDbLongTransaction
  3
AutoCAD 2000
 90
        0
280
     0
281
     0
  0
CLASS
  1
LWPOLYLINE
  2
AcDbPolyline
  3
"AutoCAD"
 90
        0
280
     0
281
     1
  0
CLASS
  1
HATCH
  2
AcDbHatch
  3
"ACAD_SEDONA"
 90
        0
280
     0
281
     1
  0
CLASS
  1
XRECORD
  2
AcDbXrecord
  3
"<Built In>"
 90
        0
280
     0
281
     0
  0
CLASS
  1
LONG_TRANSACTION
  2
AcDbLongTransaction
  3
AutoCAD 2000
 90
        0
280
     0
281
     0
  0
CLASS
  1
LWPOLYLINE
  2
AcDbPolyline
  3
"AutoCAD"
 90
        0
280
     0
281
     1
  0
CLASS
  1
HATCH
  2
AcDbHatch
  3
"ACAD_SEDONA"
 90
        0
280
     0
281
     1
  0
CLASS
  1
XRECORD
  2
AcDbXrecord
  3
"<Built In>"
 90
        0
280
     0
281
     0
  0
CLASS
  1
LONG_TRANSACTION
  2
AcDbLongTransaction
  3
AutoCAD 2000
 90
        0
280
     0
281
     0
  0
CLASS
  1
LWPOLYLINE
  2
AcDbPolyline
  3
"AutoCAD"
 90
        0
280
     0
281
     1
  0
CLASS
  1
HATCH
  2
AcDbHatch
  3
"ACAD_SEDONA"
 90
        0
280
     0
281
     1
  0
CLASS
  1
XRECORD
  2
AcDbXrecord
  3
"<Built In>"
 90
        0
280
     0
281
     0
  0
CLASS
  1
LONG_TRANSACTION
  2
AcDbLongTransaction
  3
AutoCAD 2000
 90
        0
280
     0
281
     0
  0
CLASS
  1
LWPOLYLINE
  2
AcDbPolyline
  3
"AutoCAD"
 90
        0
280
     0
281
     1
  0
CLASS
  1
HATCH
  2
AcDbHatch
  3
"ACAD_SEDONA"
 90
        0
280
     0
281
     1
  0
CLASS
  1
XRECORD
  2
AcDbXrecord
  3
"<Built In>"
 90
        0
280
     0
281
     0
  0
CLASS
  1
LONG_TRANSACTION
  2
AcDbLongTransaction
  3
AutoCAD 2000
 90
        0
280
     0
281
     0
  0
CLASS
  1
LWPOLYLINE
  2
AcDbPolyline
  3
"AutoCAD"
 90
        0
280
     0
281
     1
  0
CLASS
  1
HATCH
  2
AcDbHatch
  3
"ACAD_SEDONA"
 90
        0
280
     0
281
     1
  0
CLASS
  1
XRECORD
  2
AcDbXrecord
  3
"<Built In>"
 90
        0
280
     0
281
     0
  0
CLASS
  1
LONG_TRANSACTION
  2
AcDbLongTransaction
  3
AutoCAD 2000
 90
        0
280
     0
281
     0
  0
CLASS
  1
LWPOLYLINE
  2
AcDbPolyline
  3
"AutoCAD"
 90
        0
280
     0
281
     1
  0
CLASS
  1
HATCH
  2
AcDbHatch
  3
"ACAD_SEDONA"
 90
        0
280
     0
281
     1
  0
CLASS
  1
XRECORD
  2
AcDbXrecord
  3
"<Built In>"
 90
        0
280
     0
281
     0
  0
CLASS
  1
LONG_TRANSACTION
  2
AcDbLongTransaction
  3
AutoCAD 2000
 90
        0
280
     0
281
     0
  0
CLASS
  1
LWPOLYLINE
  2
AcDbPolyline
  3
"AutoCAD"
 90
        0
280
     0
281
     1
  0
CLASS
  1
HATCH
  2
AcDbHatch
  3
"ACAD_SEDONA"
 90
        0
280
     0
281
     1
  0
CLASS
  1
XRECORD
  2
AcDbXrecord
  3
"<Built In>"
 90
        0
280
     0
281
     0
  0
CLASS
  1
LONG_TRANSACTION
  2
AcDbLongTransaction
  3
AutoCAD 2000
 90
        0
280
     0
281
     0
  0
CLASS
  1
LWPOLYLINE
  2
AcDbPolyline
  3
"AutoCAD"
 90
        0
280
     0
281
     1
  0
CLASS
  1
HATCH
  2
AcDbHatch
  3
"ACAD_SEDONA"
 90
        0
280
     0
281
     1
  0
CLASS
  1
XRECORD
  2
AcDbXrecord
  3
"<Built In>"
 90
        0
280
     0
281
     0
  0
CLASS
  1
LONG_TRANSACTION
  2
AcDbLongTransaction
  3
AutoCAD 2000
 90
        0
280
     0
281
     0
  0
CLASS
  1
LWPOLYLINE
  2
AcDbPolyline
  3
"AutoCAD"
 90
        0
280
     0
281
     1
  0
CLASS
  1
HATCH
  2
AcDbHatch
  3
"ACAD_SEDONA"
 90
        0
280
     0
281
     1
  0
CLASS
  1
XRECORD
  2
AcDbXrecord
  3
"<Built In>"
 90
        0
280
     0
281
     0
  0
CLASS
  1
LONG_TRANSACTION
  2
AcDbLongTransaction
  3
AutoCAD 2000
 90
        0
280
     0
281
     0
  0
CLASS
  1
LWPOLYLINE
  2
AcDbPolyline
  3
"AutoCAD"
 90
        0
280
     0
281
     1
  0
CLASS
  1
HATCH
  2
AcDbHatch
  3
"ACAD_SEDONA"
 90
        0
280
     0
281
     1
  0
CLASS
  1
XRECORD
  2
AcDbXrecord
  3
"<Built In>"
 90
        0
280
     0
281
     0
  0
CLASS
  1
LONG_TRANSACTION
  2
AcDbLongTransaction
  3
AutoCAD 2000
 90
        0
280
     0
281
     0
  0
CLASS
  1
LWPOLYLINE
  2
AcDbPolyline
  3
"AutoCAD"
 90
        0
280
     0
281
     1
  0
CLASS
  1
HATCH
  2
AcDbHatch
  3
"ACAD_SEDONA"
 90
        0
280
     0
281
     1
  0
CLASS
  1
XRECORD
  2
AcDbXrecord
  3
"<Built In>"
 90
        0
280
     0
281
     0
  0
CLASS
  1
LONG_TRANSACTION
  2
AcDbLongTransaction
  3
AutoCAD 2000
 90
        0
280
     0
281
     0
  0
CLASS
  1
LWPOLYLINE
  2
AcDbPolyline
  3
"AutoCAD"
 90
        0
280
     0
281
     1
  0
CLASS
  1
HATCH
  2
AcDbHatch
  3
"ACAD_SEDONA"
 90
        0
280
     0
281
     1
  0
CLASS
  1
XRECORD
  2
AcDbXrecord
  3
"<Built In>"
 90
        0
280
     0
281
     0
  0
CLASS
  1
LONG_TRANSACTION
  2
AcDbLongTransaction
  3
AutoCAD 2000
 90
        0
280
     0
281
     0
  0
CLASS
  1
LWPOLYLINE
  2
AcDbPolyline
  3
"AutoCAD"
 90
        0
280
     0
281
     1
  0
CLASS
  1
HATCH
  2
AcDbHatch
  3
"ACAD_SEDONA"
 90
        0
280
     0
281
     1
  0
CLASS
  1
XRECORD
  2
AcDbXrecord
  3
"<Built In>"
 90
        0
280
     0
281
     0
  0
CLASS
  1
LONG_TRANSACTION
  2
AcDbLongTransaction
  3
AutoCAD 2000
 90
        0
280
     0
281
     0
  0
CLASS
  1
LWPOLYLINE
  2
AcDbPolyline
  3
"AutoCAD"
 90
        0
280
     0
281
     1
  0
CLASS
  1
HATCH
  2
AcDbHatch
  3
"ACAD_SEDONA"
 90
        0
280
     0
281
     1
  0
CLASS
  1
XRECORD
  2
AcDbXrecord
  3
"<Built In>"
 90
        0
280
     0
281
     0
  0
CLASS
  1
LONG_TRANSACTION
  2
AcDbLongTransaction
  3
AutoCAD 2000
 90
        0
280
     0
281
     0
  0
CLASS
  1
LWPOLYLINE
  2
AcDbPolyline
  3
"AutoCAD"
 90
        0
280
     0
281
     1
  0
CLASS
  1
HATCH
  2
AcDbHatch
  3
"ACAD_SEDONA"
 90
        0
280
     0
281
     1
  0
CLASS
  1
XRECORD
  2
AcDbXrecord
  3
"<Built In>"
 90
        0
280
     0
281
     0
  0
CLASS
  1
LONG_TRANSACTION
  2
AcDbLongTransaction
  3
AutoCAD 2000
 90
        0
280
     0
281
     0
  0
CLASS
  1
LWPOLYLINE
  2
AcDbPolyline
  3
"AutoCAD"
 90
        0
280
     0
281
     1
  0
CLASS
  1
HATCH
  2
AcDbHatch
  3
"ACAD_SEDONA"
 90
        0
280
     0
281
     1
  0
CLASS
  1
XRECORD
  2
AcDbXrecord
  3
"<Built In>"
 90
        0
280
     0
281
     0
  0
CLASS
  1
LONG_TRANSACTION
  2
AcDbLongTransaction
  3
AutoCAD 2000
 90
        0
280
     0
281
     0
  0
CLASS
  1
LWPOLYLINE
  2
AcDbPolyline
  3
"AutoCAD"
 90
        0
280
     0
281
     1
  0
CLASS
  1
HATCH
  2
AcDbHatch
  3
"ACAD_SEDONA"
 90
        0
280
     0
281
     1
  0
CLASS
  1
XRECORD
  2
AcDbXrecord
  3
"<Built In>"
 90
        0
280
     0
281
     0
  0
CLASS
  1
LONG_TRANSACTION
  2
AcDbLongTransaction
  3
AutoCAD 2000
 90
        0
280
     0
281
     0
  0
CLASS
  1
LWPOLYLINE
  2
AcDbPolyline
  3
"AutoCAD"
 90
        0
280
     0
281
     1
  0
CLASS
  1
HATCH
  2
AcDbHatch
  3
"ACAD_SEDONA"
 90
        0
280
     0
281
     1
  0
CLASS
  1
XRECORD
  2
AcDbXrecord
  3
"<Built In>"
 90
        0
280
     0
281
     0
  0
CLASS
  1
LONG_TRANSACTION
  2
AcDbLongTransaction
  3
AutoCAD 2000
 90
        0
280
     0
281
     0
  0
CLASS
  1
LWPOLYLINE
  2
AcDbPolyline
  3
"AutoCAD"
 90
        0
280
     0
281
     1
  0
CLASS
  1
HATCH
  2
AcDbHatch
  3
"ACAD_SEDONA"
 90
        0
280
     0
281
     1
  0
CLASS
  1
XRECORD
  2
AcDbXrecord
  3
"<Built In>"
 90
        0
280
     0
281
     0
  0
CLASS
  1
LONG_TRANSACTION
  2
AcDbLongTransaction
  3
AutoCAD 2000
 90
        0
280
     0
281
     0
  0
CLASS
  1
LWPOLYLINE
  2
AcDbPolyline
  3
"AutoCAD"
 90
        0
280
     0
281
     1
  0
CLASS
  1
HATCH
  2
AcDbHatch
  3
"ACAD_SEDONA"
 90
        0
280
     0
281
     1
  0
CLASS
  1
XRECORD
  2
AcDbXrecord
  3
"<Built In>"
 90
        0
280
     0
281
     0
  0
CLASS
  1
LONG_TRANSACTION
  2
AcDbLongTransaction
  3
AutoCAD 2000
 90
        0
280
     0
281
     0
  0
CLASS
  1
LWPOLYLINE
  2
AcDbPolyline
  3
"AutoCAD"
 90
        0
280
     0
281
     1
  0
CLASS
  1
HATCH
  2
AcDbHatch
  3
"ACAD_SEDONA"
 90
        0
280
     0
281
     1
  0
CLASS
  1
XRECORD
  2
AcDbXrecord
  3
"<Built In>"
 90
        0
280
     0
281
     0
  0
CLASS
  1
LONG_TRANSACTION
  2
AcDbLongTransaction
  3
AutoCAD 2000
 90
        0
280
     0
281
     0
  0
CLASS
  1
LWPOLYLINE
  2
AcDbPolyline
  3
"AutoCAD"
 90
        0
280
     0
281
     1
  0
CLASS
  1
HATCH
  2
AcDbHatch
  3
"ACAD_SEDONA"
 90
        0
280
     0
281
     1
  0
CLASS
  1
XRECORD
  2
AcDbXrecord
  3
"<Built In>"
 90
        0
280
     0
281
     0
  0
CLASS
  1
LONG_TRANSACTION
  2
AcDbLongTransaction
  3
AutoCAD 2000
 90
        0
280
     0
281
     0
  0
CLASS
  1
LWPOLYLINE
  2
AcDbPolyline
  3
"AutoCAD"
 90
        0
280
     0
281
     1
  0
CLASS
  1
HATCH
  2
AcDbHatch
  3
"ACAD_SEDONA"
 90
        0
280
     0
281
     1
  0
CLASS
  1
XRECORD
  2
AcDbXrecord
  3
"<Built In>"
 90
        0
280
     0
281
     0
  0
CLASS
  1
LONG_TRANSACTION
  2
AcDbLongTransaction
  3
AutoCAD 2000
 90
        0
280
     0
281
     0
  0
CLASS
  1
LWPOLYLINE
  2
AcDbPolyline
  3
"AutoCAD"
 90
        0
280
     0
281
     1
  0
CLASS
  1
HATCH
  2
AcDbHatch
  3
"ACAD_SEDONA"
 90
        0
280
     0
281
     1
  0
CLASS
  1
XRECORD
  2
AcDbXrecord
  3
"<Built In>"
 90
        0
280
     0
281
     0
  0
CLASS
  1
LONG_TRANSACTION
  2
AcDbLongTransaction
  3
AutoCAD 2000
 90
        0
280
     0
281
     0
  0
CLASS
  1
LWPOLYLINE
  2
AcDbPolyline
  3
"AutoCAD"
 90
        0
280
     0
281
     1
  0
CLASS
  1
HATCH
  2
AcDbHatch
  3
"ACAD_SEDONA"
 90
        0
280
     0
281
     1
  0
CLASS
  1
XRECORD
  2
AcDbXrecord
  3
"<Built In>"
 90
        0
280
     0
281
     0
  0
CLASS
  1
LONG_TRANSACTION
  2
AcDbLongTransaction
  3
AutoCAD 2000
 90
        0
280
     0
281
     0
  0
CLASS
  1
LWPOLYLINE
  2
AcDbPolyline
  3
"AutoCAD"
 90
        0
280
     0
281
     1
  0
CLASS
  1
HATCH
  2
AcDbHatch
  3
"ACAD_SEDONA"
 90
        0
280
     0
281
     1
  0
CLASS
  1
XRECORD
  2
AcDbXrecord
  3
"<Built In>"
 90
        0
280
     0
281
     0
  0
CLASS
  1
LONG_TRANSACTION
  2
AcDbLongTransaction
  3
AutoCAD 2000
 90
        0
280
     0
281
     0
  0
CLASS
  1
LWPOLYLINE
  2
AcDbPolyline
  3
"AutoCAD"
 90
        0
280
     0
281
     1
  0
CLASS
  1
HATCH
  2
AcDbHatch
  3
"ACAD_SEDONA"
 90
        0
280
     0
281
     1
  0
CLASS
  1
XRECORD
  2
AcDbXrecord
  3
"<Built In>"
 90
        0
280
     0
281
     0
  0
CLASS
  1
LONG_TRANSACTION
  2
AcDbLongTransaction
  3
AutoCAD 2000
 90
        0
280
     0
281
     0
  0
CLASS
  1
LWPOLYLINE
  2
AcDbPolyline
  3
"AutoCAD"
 90
        0
280
     0
281
     1
  0
CLASS
  1
HATCH
  2
AcDbHatch
  3
"ACAD_SEDONA"
 90
        0
280
     0
281
     1
  0
CLASS
  1
XRECORD
  2
AcDbXrecord
  3
"<Built In>"
 90
        0
280
     0
281
     0
  0
CLASS
  1
LONG_TRANSACTION
  2
AcDbLongTransaction
  3
AutoCAD 2000
 90
        0
280
     0
281
     0
  0
CLASS
  1
LWPOLYLINE
  2
AcDbPolyline
  3
"AutoCAD"
 90
        0
280
     0
281
     1
  0
CLASS
  1
HATCH
  2
AcDbHatch
  3
"ACAD_SEDONA"
 90
        0
280
     0
281
     1
  0
CLASS
  1
XRECORD
  2
AcDbXrecord
  3
"<Built In>"
 90
        0
280
     0
281
     0
  0
CLASS
  1
LONG_TRANSACTION
  2
AcDbLongTransaction
  3
AutoCAD 2000
 90
        0
280
     0
281
     0
  0
CLASS
  1
LWPOLYLINE
  2
AcDbPolyline
  3
"AutoCAD"
 90
        0
280
     0
281
     1
  0
CLASS
  1
HATCH
  2
AcDbHatch
  3
"ACAD_SEDONA"
 90
        0
280
     0
281
     1
  0
CLASS
  1
XRECORD
  2
AcDbXrecord
  3
"<Built In>"
 90
        0
280
     0
281
     0
  0
CLASS
  1
LONG_TRANSACTION
  2
AcDbLongTransaction
  3
AutoCAD 2000
 90
        0
280
     0
281
     0
  0
CLASS
  1
LWPOLYLINE
  2
AcDbPolyline
  3
"AutoCAD"
 90
        0
280
     0
281
     1
  0
CLASS
  1
HATCH
  2
AcDbHatch
  3
"ACAD_SEDONA"
 90
        0
280
     0
281
     1
  0
CLASS
  1
XRECORD
  2
AcDbXrecord
  3
"<Built In>"
 90
        0
280
     0
281
     0
  0
CLASS
  1
LONG_TRANSACTION
  2
AcDbLongTransaction
  3
AutoCAD 2000
 90
        0
280
     0
281
     0
  0
CLASS
  1
LWPOLYLINE
  2
AcDbPolyline
  3
"AutoCAD"
 90
        0
280
     0
281
     1
  0
CLASS
  1
HATCH
  2
AcDbHatch
  3
"ACAD_SEDONA"
 90
        0
280
     0
281
     1
  0
CLASS
  1
XRECORD
  2
AcDbXrecord
  3
"<Built In>"
 90
        0
280
     0
281
     0
  0
CLASS
  1
LONG_TRANSACTION
  2
AcDbLongTransaction
  3
AutoCAD 2000
 90
        0
280
     0
281
     0
  0
CLASS
  1
LWPOLYLINE
  2
AcDbPolyline
  3
"AutoCAD"
 90
        0
280
     0
281
     1
  0
CLASS
  1
HATCH
  2
AcDbHatch
  3
"ACAD_SEDONA"
 90
        0
280
     0
281
     1
  0
CLASS
  1
XRECORD
  2
AcDbXrecord
  3
"<Built In>"
 90
        0
280
     0
281
     0
  0
CLASS
  1
LONG_TRANSACTION
  2
AcDbLongTransaction
  3
AutoCAD 2000
 90
        0
280
     0
281
     0
  0
CLASS
  1
LWPOLYLINE
  2
AcDbPolyline
  3
"AutoCAD"
 90
        0
280
     0
281
     1
  0
CLASS
  1
HATCH
  2
AcDbHatch
  3
"ACAD_SEDONA"
 90
        0
280
     0
281
     1
  0
CLASS
  1
XRECORD
  2
AcDbXrecord
  3
"<Built In>"
 90
        0
280
     0
281
     0
  0
ENDSEC
  0
SECTION
  2
TABLES
  0
TABLE
  2
VPORT
  5
469
100
AcDbSymbolTable
 70
     1
  0
VPORT
  5
60211
102
{ACAD_XDICTIONARY
360
602E9
102
}
100
AcDbSymbolTableRecord
100
AcDbViewportTableRecord
  2
*ACTIVE
 70
     0
 10
0.0
 20
0.0
 11
1.0
 21
1.0
 12
-1.754215
 22
1.608568
 13
0.0
 23
0.0
 14
1.0
 24
1.0
 15
0.0
 25
0.0
 16
0.0
 26
0.0
 36
1.0
 17
0.648805
 27
-6.132183
 37
2.586733
 40
13.396332
 41
1.82218
 42
50.0
 43
0.0
 44
0.0
 50
0.0
 51
0.0
 71
     0
 72
   100
 73
     1
 74
     1
 75
     0
 76
     0
 77
     0
 78
     0
  0
ENDTAB
  0
TABLE
  2
LTYPE
  5
466
100
AcDbSymbolTable
 70
     1
  0
LTYPE
  5
472
100
AcDbSymbolTableRecord
100
AcDbLinetypeTableRecord
  2
BYBLOCK
 70
     0
  3

 72
    65
 73
     0
 40
0.0
  0
LTYPE
  5
473
100
AcDbSymbolTableRecord
100
AcDbLinetypeTableRecord
  2
BYLAYER
 70
     0
  3

 72
    65
 73
     0
 40
0.0
  0
LTYPE
  5
474
100
AcDbSymbolTableRecord
100
AcDbLinetypeTableRecord
  2
CONTINUOUS
 70
     0
  3
Solid line
 72
    65
 73
     0
 40
0.0
  0
ENDTAB
  0
TABLE
  2
LAYER
  5
463
100
AcDbSymbolTable
 70
     8
  0
LAYER
  5
46F
100
AcDbSymbolTableRecord
100
AcDbLayerTableRecord
  2
0
 70
     0
 62
     7
  6
CONTINUOUS
  0
LAYER
  5
485
100
AcDbSymbolTableRecord
100
AcDbLayerTableRecord
  2
AREA1
 70
     0
 62
     7
  6
CONTINUOUS
  0
LAYER
  5
486
100
AcDbSymbolTableRecord
100
AcDbLayerTableRecord
  2
AREA2
 70
     0
 62
     7
  6
CONTINUOUS
  0
LAYER
  5
494
102
{ACAD_XDICTIONARY
360
60316
102
}
100
AcDbSymbolTableRecord
100
AcDbLayerTableRecord
  2
DEFPOINTS
 70
     0
 62
    -7
  6
CONTINUOUS
  0
LAYER
  5
495
100
AcDbSymbolTableRecord
100
AcDbLayerTableRecord
  2
DIMS-MTG-HOLES
 70
     0
 62
    -1
  6
CONTINUOUS
  0
LAYER
  5
4E6
100
AcDbSymbolTableRecord
100
AcDbLayerTableRecord
  2
SCALE
 70
     0
 62
    -7
  6
CONTINUOUS
  0
LAYER
  5
4ED
100
AcDbSymbolTableRecord
100
AcDbLayerTableRecord
  2
SNAP_POINTS
 70
     0
 62
    -1
  6
CONTINUOUS
  0
LAYER
  5
4F1
100
AcDbSymbolTableRecord
100
AcDbLayerTableRecord
  2
ATTRIBUTES
 70
     0
 62
    -7
  6
CONTINUOUS
  0
ENDTAB
  0
TABLE
  2
STYLE
  5
464
100
AcDbSymbolTable
 70
     1
  0
STYLE
  5
470
100
AcDbSymbolTableRecord
100
AcDbTextStyleTableRecord
  2
STANDARD
 70
     0
 40
0.0
 41
1.0
 50
0.0
 71
     0
 42
0.2
  3
txt
  4

  0
ENDTAB
  0
TABLE
  2
VIEW
  5
467
100
AcDbSymbolTable
 70
     0
  0
ENDTAB
  0
TABLE
  2
UCS
  5
468
100
AcDbSymbolTable
 70
     0
  0
ENDTAB
  0
TABLE
  2
APPID
  5
46A
100
AcDbSymbolTable
 70
     2
  0
APPID
  5
471
100
AcDbSymbolTableRecord
100
AcDbRegAppTableRecord
  2
ACAD
 70
     0
  0
APPID
  5
47E
100
AcDbSymbolTableRecord
100
AcDbRegAppTableRecord
  2
AVE_RENDER
 70
     0
  0
ENDTAB
  0
TABLE
  2
DIMSTYLE
  5
46B
100
AcDbSymbolTable
 70
     2
  0
DIMSTYLE
105
49A
102
{ACAD_XDICTIONARY
360
60318
102
}
102
{ACAD_REACTORS
330
60203
330
601C9
330
601C8
102
}
100
AcDbSymbolTableRecord
100
AcDbDimStyleTableRecord
  2
ABECAD_3V
 70
     0
  3

  4

  5

  6

  7

 40
0.0
 41
0.125
 42
0.0625
 43
0.375
 44
0.0625
 45
0.0
 46
0.0
 47
0.0
 48
0.0
140
0.125
141
0.09
142
0.0
143
25.4
144
1.0
145
0.0
146
1.5
147
0.09
 71
     0
 72
     0
 73
     0
 74
     1
 75
     0
 76
     0
 77
     0
 78
     4
170
     1
171
     2
172
     0
173
     0
174
     0
175
     0
176
     0
177
     0
178
     0
270
     7
271
     6
272
     6
273
     2
274
     2
340
470
275
     0
280
     0
281
     0
282
     0
283
     1
284
     4
285
     4
286
     4
287
     5
288
     1
  0
DIMSTYLE
105
512
102
{ACAD_XDICTIONARY
360
6031C
102
}
100
AcDbSymbolTableRecord
100
AcDbDimStyleTableRecord
  2
ABECAD_3D
 70
     0
  3

  4

  5

  6

  7

 40
1.0
 41
0.18
 42
0.0625
 43
0.375
 44
0.18
 45
0.0
 46
0.0
 47
0.0
 48
0.0
140
0.18
141
0.09
142
0.0
143
25.4
144
1.0
145
0.0
146
1.5
147
0.09
 71
     0
 72
     0
 73
     0
 74
     1
 75
     0
 76
     0
 77
     0
 78
     4
170
     1
171
     2
172
     0
173
     0
174
     0
175
     0
176
     0
177
     0
178
     0
270
     7
271
     6
272
     6
273
     2
274
     2
340
470
275
     0
280
     0
281
     0
282
     0
283
     1
284
     4
285
     4
286
     4
287
     5
288
     1
  0
ENDTAB
  0
TABLE
  2
BLOCK_RECORD
  5
462
100
AcDbSymbolTable
 70
     3
  0
BLOCK_RECORD
  5
478
102
{ACAD_XDICTIONARY
360
4D2
102
}
100
AcDbSymbolTableRecord
100
AcDbBlockTableRecord
  2
*MODEL_SPACE
  0
BLOCK_RECORD
  5
475
102
{ACAD_XDICTIONARY
360
4D0
102
}
100
AcDbSymbolTableRecord
100
AcDbBlockTableRecord
  2
*PAPER_SPACE
  0
BLOCK_RECORD
  5
601D5
100
AcDbSymbolTableRecord
100
AcDbBlockTableRecord
  2
*D0
  0
BLOCK_RECORD
  5
601E2
100
AcDbSymbolTableRecord
100
AcDbBlockTableRecord
  2
*D1
  0
BLOCK_RECORD
  5
60204
100
AcDbSymbolTableRecord
100
AcDbBlockTableRecord
  2
*D2
  0
ENDTAB
  0
ENDSEC
  0
SECTION
  2
BLOCKS
  0
BLOCK
  5
48B
100
AcDbEntity
  8
0
100
AcDbBlockBegin
  2
*MODEL_SPACE
 70
     0
 10
0.0
 20
0.0
 30
0.0
  3
*MODEL_SPACE
  1

  0
ENDBLK
  5
48C
100
AcDbEntity
  8
0
100
AcDbBlockEnd
  0
BLOCK
  5
489
100
AcDbEntity
 67
     1
  8
0
100
AcDbBlockBegin
  2
*PAPER_SPACE
 70
     0
 10
0.0
 20
0.0
 30
0.0
  3
*PAPER_SPACE
  1

  0
ENDBLK
  5
48A
100
AcDbEntity
 67
     1
  8
0
100
AcDbBlockEnd
  0
BLOCK
  5
601E0
100
AcDbEntity
  8
0
100
AcDbBlockBegin
  2
*D0
 70
     1
 10
0.0
 20
0.0
 30
0.0
  3
*D0
  1

  0
LINE
  5
60225
100
AcDbEntity
  8
AREA1
 62
     0
100
AcDbLine
 10
-1.222599
 20
0.281
 30
0.0
 11
-7.003419
 21
0.281
 31
0.0
1001
ACAD
1000
RTLwPs
1070
   158
  0
LINE
  5
60226
100
AcDbEntity
  8
AREA1
 62
     0
100
AcDbLine
 10
-4.972599
 20
-10.059
 30
0.0
 11
-7.003419
 21
-10.059
 31
0.0
1001
ACAD
1000
RTLwPs
1070
   158
  0
LINE
  5
60227
100
AcDbEntity
  8
AREA1
 62
     0
100
AcDbLine
 10
-6.78082
 20
-0.164197
 30
0.0
 11
-6.78082
 21
-1.541516
 31
0.0
1001
ACAD
1000
RTLwPs
1070
   158
  0
LINE
  5
60228
100
AcDbEntity
  8
AREA1
 62
     0
100
AcDbLine
 10
-6.78082
 20
-9.613803
 30
0.0
 11
-6.78082
 21
-8.489559
 31
0.0
1001
ACAD
1000
RTLwPs
1070
   158
  0
MTEXT
  5
60229
100
AcDbEntity
  8
AREA1
 62
     0
100
AcDbMText
 10
-6.78082
 20
-5.015538
 30
0.0
 40
0.445197
 41
0.0
 71
     5
 72
     1
  1
\A1;10 11/32 [262.64]
 11
0.0
 21
1.0
 31
0.0
1001
ACAD
1000
MTEXTBEGIN
1070
    73
1070
     1
1070
    44
1040
1.0
1070
    74
1070
     0
1000
MTEXTEND
1000
MTEXTBEGIN
1070
    73
1070
     1
1070
    44
1040
1.0
1070
    74
1070
     0
1000
MTEXTEND
1000
MTEXTBEGIN
1070
    73
1070
     1
1070
    44
1040
1.0
1070
    74
1070
     0
1000
MTEXTEND
1000
MTEXTBEGIN
1070
    73
1070
     1
1070
    44
1040
1.0
1070
    74
1070
     0
1000
MTEXTEND
  0
SOLID
  5
6022A
100
AcDbEntity
  8
AREA1
 62
     0
100
AcDbTrace
 10
-6.85502
 20
-0.164197
 30
0.0
 11
-6.706621
 21
-0.164197
 31
0.0
 12
-6.78082
 22
0.281
 32
0.0
 13
-6.78082
 23
0.281
 33
0.0
  0
SOLID
  5
6022B
100
AcDbEntity
  8
AREA1
 62
     0
100
AcDbTrace
 10
-6.85502
 20
-9.613803
 30
0.0
 11
-6.706621
 21
-9.613803
 31
0.0
 12
-6.78082
 22
-10.059
 32
0.0
 13
-6.78082
 23
-10.059
 33
0.0
  0
POINT
  5
6022C
100
AcDbEntity
  8
DEFPOINTS
 62
     0
100
AcDbPoint
 10
-1.0
 20
0.281
 30
0.0
  0
POINT
  5
6022D
100
AcDbEntity
  8
DEFPOINTS
 62
     0
100
AcDbPoint
 10
-4.75
 20
-10.059
 30
0.0
  0
POINT
  5
6022E
100
AcDbEntity
  8
DEFPOINTS
 62
     0
100
AcDbPoint
 10
-6.78082
 20
-10.059
 30
0.0
  0
ENDBLK
  5
601E1
100
AcDbEntity
  8
0
100
AcDbBlockEnd
  0
BLOCK
  5
601ED
100
AcDbEntity
  8
0
100
AcDbBlockBegin
  2
*D1
 70
     1
 10
0.0
 20
0.0
 30
0.0
  3
*D1
  1

  0
LINE
  5
6021B
100
AcDbEntity
  8
AREA1
 62
     0
100
AcDbLine
 10
-5.495
 20
-1.207401
 30
0.0
 11
-5.495
 21
2.141321
 31
0.0
1001
ACAD
1000
RTLwPs
1070
   158
  0
LINE
  5
6021C
100
AcDbEntity
  8
AREA1
 62
     0
100
AcDbLine
 10
4.75
 20
-0.026401
 30
0.0
 11
4.75
 21
2.141321
 31
0.0
1001
ACAD
1000
RTLwPs
1070
   158
  0
LINE
  5
6021D
100
AcDbEntity
  8
AREA1
 62
     0
100
AcDbLine
 10
-5.049803
 20
1.918722
 30
0.0
 11
-3.565071
 21
1.918722
 31
0.0
1001
ACAD
1000
RTLwPs
1070
   158
  0
LINE
  5
6021E
100
AcDbEntity
  8
AREA1
 62
     0
100
AcDbLine
 10
4.304803
 20
1.918722
 30
0.0
 11
2.566778
 21
1.918722
 31
0.0
1001
ACAD
1000
RTLwPs
1070
   158
  0
MTEXT
  5
6021F
100
AcDbEntity
  8
AREA1
 62
     0
100
AcDbMText
 10
-0.499147
 20
1.918722
 30
0.0
 40
0.445197
 41
0.0
 71
     5
 72
     1
  1
\A1;10 1/4 [260.22]
1001
ACAD
1000
MTEXTBEGIN
1070
    73
1070
     1
1070
    44
1040
1.0
1070
    74
1070
     0
1000
MTEXTEND
1000
MTEXTBEGIN
1070
    73
1070
     1
1070
    44
1040
1.0
1070
    74
1070
     0
1000
MTEXTEND
1000
MTEXTBEGIN
1070
    73
1070
     1
1070
    44
1040
1.0
1070
    74
1070
     0
1000
MTEXTEND
1000
MTEXTBEGIN
1070
    73
1070
     1
1070
    44
1040
1.0
1070
    74
1070
     0
1000
MTEXTEND
  0
SOLID
  5
60220
100
AcDbEntity
  8
AREA1
 62
     0
100
AcDbTrace
 10
-5.049803
 20
1.992922
 30
0.0
 11
-5.049803
 21
1.844523
 31
0.0
 12
-5.495
 22
1.918722
 32
0.0
 13
-5.495
 23
1.918722
 33
0.0
  0
SOLID
  5
60221
100
AcDbEntity
  8
AREA1
 62
     0
100
AcDbTrace
 10
4.304803
 20
1.992922
 30
0.0
 11
4.304803
 21
1.844523
 31
0.0
 12
4.75
 22
1.918722
 32
0.0
 13
4.75
 23
1.918722
 33
0.0
  0
POINT
  5
60222
100
AcDbEntity
  8
DEFPOINTS
 62
     0
100
AcDbPoint
 10
-5.495
 20
-1.43
 30
0.387
  0
POINT
  5
60223
100
AcDbEntity
  8
DEFPOINTS
 62
     0
100
AcDbPoint
 10
4.75
 20
-0.249
 30
0.0
  0
POINT
  5
60224
100
AcDbEntity
  8
DEFPOINTS
 62
     0
100
AcDbPoint
 10
4.75
 20
1.918722
 30
0.0
  0
ENDBLK
  5
601EE
100
AcDbEntity
  8
0
100
AcDbBlockEnd
  0
BLOCK
  5
6020F
100
AcDbEntity
  8
0
100
AcDbBlockBegin
  2
*D2
 70
     1
 10
0.0
 20
0.0
 30
0.0
  3
*D2
  1

  0
LINE
  5
60238
100
AcDbEntity
  8
AREA2
 62
     0
100
AcDbLine
 10
-3.627599
 20
4.917
 30
0.0
 11
-6.658198
 21
4.917
 31
0.0
1001
ACAD
1000
RTLwPs
1070
   158
  0
LINE
  5
60239
100
AcDbEntity
  8
AREA2
 62
     0
100
AcDbLine
 10
-4.972599
 20
0.0
 30
0.0
 11
-6.658198
 21
0.0
 31
0.0
1001
ACAD
1000
RTLwPs
1070
   158
  0
LINE
  5
6023A
100
AcDbEntity
  8
AREA2
 62
     0
100
AcDbLine
 10
-6.435599
 20
4.471803
 30
0.0
 11
-6.435599
 21
0.445197
 31
0.0
1001
ACAD
1000
RTLwPs
1070
   158
  0
MTEXT
  5
6023B
100
AcDbEntity
  8
AREA2
 62
     0
100
AcDbMText
 10
-7.023425
 20
2.353592
 30
0.0
 40
0.445197
 41
0.0
 71
     5
 72
     1
  1
\A1;4 59/64 [124.89]
 11
0.0
 21
1.0
 31
0.0
1001
ACAD
1000
MTEXTBEGIN
1070
    73
1070
     1
1070
    44
1040
1.0
1070
    74
1070
     0
1000
MTEXTEND
1000
MTEXTBEGIN
1070
    73
1070
     1
1070
    44
1040
1.0
1070
    74
1070
     0
1000
MTEXTEND
1000
MTEXTBEGIN
1070
    73
1070
     1
1070
    44
1040
1.0
1070
    74
1070
     0
1000
MTEXTEND
1000
MTEXTBEGIN
1070
    73
1070
     1
1070
    44
1040
1.0
1070
    74
1070
     0
1000
MTEXTEND
  0
SOLID
  5
6023C
100
AcDbEntity
  8
AREA2
 62
     0
100
AcDbTrace
 10
-6.509798
 20
4.471803
 30
0.0
 11
-6.361399
 21
4.471803
 31
0.0
 12
-6.435599
 22
4.917
 32
0.0
 13
-6.435599
 23
4.917
 33
0.0
  0
SOLID
  5
6023D
100
AcDbEntity
  8
AREA2
 62
     0
100
AcDbTrace
 10
-6.509798
 20
0.445197
 30
0.0
 11
-6.361399
 21
0.445197
 31
0.0
 12
-6.435599
 22
0.0
 32
0.0
 13
-6.435599
 23
0.0
 33
0.0
  0
POINT
  5
6023E
100
AcDbEntity
  8
DEFPOINTS
 62
     0
100
AcDbPoint
 10
-3.405
 20
4.917
 30
1.22
  0
POINT
  5
6023F
100
AcDbEntity
  8
DEFPOINTS
 62
     0
100
AcDbPoint
 10
-4.75
 20
0.0
 30
0.249
  0
POINT
  5
60240
100
AcDbEntity
  8
DEFPOINTS
 62
     0
100
AcDbPoint
 10
-6.435599
 20
0.0
 30
0.0
  0
ENDBLK
  5
60210
100
AcDbEntity
  8
0
100
AcDbBlockEnd
  0
ENDSEC
  0
SECTION
  2
ENTITIES
  0
ARC
  5
5FBA1
100
AcDbEntity
  8
0
100
AcDbCircle
 10
-3.937
 20
-9.844
 30
0.0
 40
0.1
100
AcDbArc
 50
0.0
 51
179.999985
  0
LINE
  5
5FBA2
100
AcDbEntity
  8
0
100
AcDbLine
 10
-4.037
 20
-9.844
 30
0.0
 11
-4.037
 21
-10.059
 31
0.0
  0
LINE
  5
5FBA3
100
AcDbEntity
  8
0
100
AcDbLine
 10
-3.837
 20
-10.059
 30
0.0
 11
-3.837
 21
-9.844
 31
0.0
  0
ARC
  5
5FBA4
100
AcDbEntity
  8
0
100
AcDbCircle
 10
-3.937
 20
-9.844
 30
0.197
 40
0.1
100
AcDbArc
 50
0.0
 51
179.999985
  0
LINE
  5
5FBA5
100
AcDbEntity
  8
0
100
AcDbLine
 10
-4.037
 20
-9.844
 30
0.197
 11
-4.037
 21
-10.059
 31
0.197
  0
LINE
  5
5FBA6
100
AcDbEntity
  8
0
100
AcDbLine
 10
-3.837
 20
-10.059
 30
0.197
 11
-3.837
 21
-9.844
 31
0.197
  0
ARC
  5
5FBA7
100
AcDbEntity
  8
0
100
AcDbCircle
 10
3.937
 20
-9.844
 30
0.0
 40
0.1
100
AcDbArc
 50
0.0
 51
179.999985
  0
LINE
  5
5FBA8
100
AcDbEntity
  8
0
100
AcDbLine
 10
3.837
 20
-9.844
 30
0.0
 11
3.837
 21
-10.059
 31
0.0
  0
LINE
  5
5FBA9
100
AcDbEntity
  8
0
100
AcDbLine
 10
4.037
 20
-10.059
 30
0.0
 11
4.037
 21
-9.844
 31
0.0
  0
ARC
  5
5FBAA
100
AcDbEntity
  8
0
100
AcDbCircle
 10
3.937
 20
-9.844
 30
0.197
 40
0.1
100
AcDbArc
 50
0.0
 51
179.999985
  0
LINE
  5
5FBAB
100
AcDbEntity
  8
0
100
AcDbLine
 10
3.837
 20
-9.844
 30
0.197
 11
3.837
 21
-10.059
 31
0.197
  0
LINE
  5
5FBAC
100
AcDbEntity
  8
0
100
AcDbLine
 10
4.037
 20
-10.059
 30
0.197
 11
4.037
 21
-9.844
 31
0.197
  0
POLYLINE
  5
5FBAD
100
AcDbEntity
  8
0
100
AcDbPolygonMesh
 66
     1
 10
0.0
 20
0.0
 30
0.0
 70
    16
 71
     6
 72
     3
  0
VERTEX
  5
5FBAE
100
AcDbEntity
  8
0
100
AcDbVertex
100
AcDbPolygonMeshVertex
 10
-4.655
 20
-3.09
 30
4.197
 70
    64
  0
VERTEX
  5
5FBAF
100
AcDbEntity
  8
0
100
AcDbVertex
100
AcDbPolygonMeshVertex
 10
-4.655
 20
-3.09
 30
0.387
 70
    64
  0
VERTEX
  5
5FBB0
100
AcDbEntity
  8
0
100
AcDbVertex
100
AcDbPolygonMeshVertex
 10
-4.655
 20
-3.09
 30
0.387
 70
    64
  0
VERTEX
  5
5FBB1
100
AcDbEntity
  8
0
100
AcDbVertex
100
AcDbPolygonMeshVertex
 10
-5.495
 20
-3.09
 30
4.197
 70
    64
  0
VERTEX
  5
5FBB2
100
AcDbEntity
  8
0
100
AcDbVertex
100
AcDbPolygonMeshVertex
 10
-5.495
 20
-3.09
 30
0.387
 70
    64
  0
VERTEX
  5
5FBB3
100
AcDbEntity
  8
0
100
AcDbVertex
100
AcDbPolygonMeshVertex
 10
-5.495
 20
-3.09
 30
0.387
 70
    64
  0
VERTEX
  5
5FBB4
100
AcDbEntity
  8
0
100
AcDbVertex
100
AcDbPolygonMeshVertex
 10
-5.495
 20
-1.43
 30
4.197
 70
    64
  0
VERTEX
  5
5FBB5
100
AcDbEntity
  8
0
100
AcDbVertex
100
AcDbPolygonMeshVertex
 10
-5.495
 20
-1.43
 30
0.387
 70
    64
  0
VERTEX
  5
5FBB6
100
AcDbEntity
  8
0
100
AcDbVertex
100
AcDbPolygonMeshVertex
 10
-5.495
 20
-3.09
 30
0.387
 70
    64
  0
VERTEX
  5
5FBB7
100
AcDbEntity
  8
0
100
AcDbVertex
100
AcDbPolygonMeshVertex
 10
-4.655
 20
-1.43
 30
4.197
 70
    64
  0
VERTEX
  5
5FBB8
100
AcDbEntity
  8
0
100
AcDbVertex
100
AcDbPolygonMeshVertex
 10
-4.655
 20
-1.43
 30
0.387
 70
    64
  0
VERTEX
  5
5FBB9
100
AcDbEntity
  8
0
100
AcDbVertex
100
AcDbPolygonMeshVertex
 10
-4.655
 20
-3.09
 30
0.387
 70
    64
  0
VERTEX
  5
5FBBA
100
AcDbEntity
  8
0
100
AcDbVertex
100
AcDbPolygonMeshVertex
 10
-4.655
 20
-1.43
 30
4.197
 70
    64
  0
VERTEX
  5
5FBBB
100
AcDbEntity
  8
0
100
AcDbVertex
100
AcDbPolygonMeshVertex
 10
-4.655
 20
-1.43
 30
4.197
 70
    64
  0
VERTEX
  5
5FBBC
100
AcDbEntity
  8
0
100
AcDbVertex
100
AcDbPolygonMeshVertex
 10
-4.655
 20
-3.09
 30
4.197
 70
    64
  0
VERTEX
  5
5FBBD
100
AcDbEntity
  8
0
100
AcDbVertex
100
AcDbPolygonMeshVertex
 10
-5.495
 20
-1.43
 30
4.197
 70
    64
  0
VERTEX
  5
5FBBE
100
AcDbEntity
  8
0
100
AcDbVertex
100
AcDbPolygonMeshVertex
 10
-5.495
 20
-1.43
 30
4.197
 70
    64
  0
VERTEX
  5
5FBBF
100
AcDbEntity
  8
0
100
AcDbVertex
100
AcDbPolygonMeshVertex
 10
-5.495
 20
-3.09
 30
4.197
 70
    64
  0
SEQEND
  5
5FBC0
100
AcDbEntity
  8
0
  0
POLYLINE
  5
5FBC1
100
AcDbEntity
  8
0
100
AcDbPolygonMesh
 66
     1
 10
0.0
 20
0.0
 30
0.0
 70
    16
 71
     6
 72
     3
  0
VERTEX
  5
5FBC2
100
AcDbEntity
  8
0
100
AcDbVertex
100
AcDbPolygonMeshVertex
 10
0.005
 20
-3.09
 30
4.197
 70
    64
  0
VERTEX
  5
5FBC3
100
AcDbEntity
  8
0
100
AcDbVertex
100
AcDbPolygonMeshVertex
 10
0.005
 20
-3.09
 30
0.387
 70
    64
  0
VERTEX
  5
5FBC4
100
AcDbEntity
  8
0
100
AcDbVertex
100
AcDbPolygonMeshVertex
 10
0.005
 20
-3.09
 30
0.387
 70
    64
  0
VERTEX
  5
5FBC5
100
AcDbEntity
  8
0
100
AcDbVertex
100
AcDbPolygonMeshVertex
 10
-0.835
 20
-3.09
 30
4.197
 70
    64
  0
VERTEX
  5
5FBC6
100
AcDbEntity
  8
0
100
AcDbVertex
100
AcDbPolygonMeshVertex
 10
-0.835
 20
-3.09
 30
0.387
 70
    64
  0
VERTEX
  5
5FBC7
100
AcDbEntity
  8
0
100
AcDbVertex
100
AcDbPolygonMeshVertex
 10
-0.835
 20
-3.09
 30
0.387
 70
    64
  0
VERTEX
  5
5FBC8
100
AcDbEntity
  8
0
100
AcDbVertex
100
AcDbPolygonMeshVertex
 10
-0.835
 20
-1.43
 30
4.197
 70
    64
  0
VERTEX
  5
5FBC9
100
AcDbEntity
  8
0
100
AcDbVertex
100
AcDbPolygonMeshVertex
 10
-0.835
 20
-1.43
 30
0.387
 70
    64
  0
VERTEX
  5
5FBCA
100
AcDbEntity
  8
0
100
AcDbVertex
100
AcDbPolygonMeshVertex
 10
-0.835
 20
-3.09
 30
0.387
 70
    64
  0
VERTEX
  5
5FBCB
100
AcDbEntity
  8
0
100
AcDbVertex
100
AcDbPolygonMeshVertex
 10
0.005
 20
-1.43
 30
4.197
 70
    64
  0
VERTEX
  5
5FBCC
100
AcDbEntity
  8
0
100
AcDbVertex
100
AcDbPolygonMeshVertex
 10
0.005
 20
-1.43
 30
0.387
 70
    64
  0
VERTEX
  5
5FBCD
100
AcDbEntity
  8
0
100
AcDbVertex
100
AcDbPolygonMeshVertex
 10
0.005
 20
-3.09
 30
0.387
 70
    64
  0
VERTEX
  5
5FBCE
100
AcDbEntity
  8
0
100
AcDbVertex
100
AcDbPolygonMeshVertex
 10
0.005
 20
-1.43
 30
4.197
 70
    64
  0
VERTEX
  5
5FBCF
100
AcDbEntity
  8
0
100
AcDbVertex
100
AcDbPolygonMeshVertex
 10
0.005
 20
-1.43
 30
4.197
 70
    64
  0
VERTEX
  5
5FBD0
100
AcDbEntity
  8
0
100
AcDbVertex
100
AcDbPolygonMeshVertex
 10
0.005
 20
-3.09
 30
4.197
 70
    64
  0
VERTEX
  5
5FBD1
100
AcDbEntity
  8
0
100
AcDbVertex
100
AcDbPolygonMeshVertex
 10
-0.835
 20
-1.43
 30
4.197
 70
    64
  0
VERTEX
  5
5FBD2
100
AcDbEntity
  8
0
100
AcDbVertex
100
AcDbPolygonMeshVertex
 10
-0.835
 20
-1.43
 30
4.197
 70
    64
  0
VERTEX
  5
5FBD3
100
AcDbEntity
  8
0
100
AcDbVertex
100
AcDbPolygonMeshVertex
 10
-0.835
 20
-3.09
 30
4.197
 70
    64
  0
SEQEND
  5
5FBD4
100
AcDbEntity
  8
0
  0
CIRCLE
  5
5FBD5
100
AcDbEntity
  8
0
100
AcDbCircle
 10
1.695
 20
-9.22
 30
2.727
 40
0.155
  0
3DFACE
  5
5FBD6
100
AcDbEntity
  8
0
100
AcDbFace
 10
2.095
 20
-6.87
 30
3.757
 11
2.355
 21
-6.87
 31
3.757
 12
2.355
 22
-6.87
 32
4.077
 13
2.095
 23
-6.87
 33
4.077
 70
    14
  0
3DFACE
  5
5FBD7
100
AcDbEntity
  8
0
100
AcDbFace
 10
2.355
 20
-7.13
 30
3.757
 11
2.355
 21
-7.13
 31
4.077
 12
2.095
 22
-7.13
 32
4.077
 13
2.095
 23
-7.13
 33
3.757
 70
    14
  0
LINE
  5
5FBD8
100
AcDbEntity
  8
0
100
AcDbLine
 10
2.095
 20
-6.87
 30
4.077
 11
2.095
 21
-6.87
 31
3.757
  0
LINE
  5
5FBD9
100
AcDbEntity
  8
0
100
AcDbLine
 10
2.095
 20
-7.13
 30
4.077
 11
2.095
 21
-7.13
 31
3.757
  0
3DFACE
  5
5FBDA
100
AcDbEntity
  8
0
100
AcDbFace
 10
2.095
 20
-7.13
 30
3.757
 11
2.095
 21
-6.87
 31
3.757
 12
2.095
 22
-6.87
 32
4.077
 13
2.095
 23
-7.13
 33
4.077
 70
    14
  0
LINE
  5
5FBDB
100
AcDbEntity
  8
0
100
AcDbLine
 10
2.355
 20
-6.87
 30
4.077
 11
2.355
 21
-6.87
 31
3.757
  0
LINE
  5
5FBDC
100
AcDbEntity
  8
0
100
AcDbLine
 10
2.355
 20
-7.13
 30
4.077
 11
2.355
 21
-7.13
 31
3.757
  0
3DFACE
  5
5FBDD
100
AcDbEntity
  8
0
100
AcDbFace
 10
2.355
 20
-6.87
 30
3.757
 11
2.355
 21
-7.13
 31
3.757
 12
2.355
 22
-7.13
 32
4.077
 13
2.355
 23
-6.87
 33
4.077
 70
    14
  0
3DFACE
  5
5FBDE
100
AcDbEntity
  8
0
100
AcDbFace
 10
2.355
 20
-6.87
 30
3.757
 11
2.355
 21
-7.13
 31
3.757
 12
2.355
 22
-7.13
 32
4.077
 13
2.355
 23
-6.87
 33
4.077
 70
    14
  0
LINE
  5
5FBDF
100
AcDbEntity
  8
0
100
AcDbLine
 10
2.355
 20
-6.87
 30
3.757
 11
2.095
 21
-6.87
 31
3.757
  0
LINE
  5
5FBE0
100
AcDbEntity
  8
0
100
AcDbLine
 10
2.095
 20
-7.13
 30
3.757
 11
2.355
 21
-7.13
 31
3.757
  0
LINE
  5
5FBE1
100
AcDbEntity
  8
0
100
AcDbLine
 10
2.095
 20
-6.87
 30
3.757
 11
2.095
 21
-7.13
 31
3.757
  0
LINE
  5
5FBE2
100
AcDbEntity
  8
0
100
AcDbLine
 10
2.355
 20
-7.13
 30
3.757
 11
2.355
 21
-6.87
 31
3.757
  0
LINE
  5
5FBE3
100
AcDbEntity
  8
0
100
AcDbLine
 10
2.535
 20
-6.625
 30
4.577
 11
1.915
 21
-6.625
 31
4.577
  0
LINE
  5
5FBE4
100
AcDbEntity
  8
0
100
AcDbLine
 10
2.535
 20
-6.625
 30
4.697
 11
1.915
 21
-6.625
 31
4.697
  0
3DFACE
  5
5FBE5
100
AcDbEntity
  8
0
100
AcDbFace
 10
2.535
 20
-6.625
 30
4.697
 11
2.535
 21
-6.625
 31
4.577
 12
1.915
 22
-6.625
 32
4.577
 13
1.915
 23
-6.625
 33
4.697
 70
    14
  0
LINE
  5
5FBE6
100
AcDbEntity
  8
0
100
AcDbLine
 10
2.475
 20
-6.75
 30
4.077
 11
1.975
 21
-6.75
 31
4.077
  0
LINE
  5
5FBE7
100
AcDbEntity
  8
0
100
AcDbLine
 10
2.355
 20
-6.87
 30
4.077
 11
2.095
 21
-6.87
 31
4.077
  0
3DFACE
  5
5FBE8
100
AcDbEntity
  8
0
100
AcDbFace
 10
2.535
 20
-6.625
 30
4.577
 11
1.915
 21
-6.625
 31
4.577
 12
1.975
 22
-6.75
 32
4.077
 13
2.475
 23
-6.75
 33
4.077
 70
    14
  0
LINE
  5
5FBE9
100
AcDbEntity
  8
0
100
AcDbLine
 10
1.915
 20
-7.375
 30
4.577
 11
2.535
 21
-7.375
 31
4.577
  0
LINE
  5
5FBEA
100
AcDbEntity
  8
0
100
AcDbLine
 10
1.915
 20
-7.375
 30
4.697
 11
2.535
 21
-7.375
 31
4.697
  0
3DFACE
  5
5FBEB
100
AcDbEntity
  8
0
100
AcDbFace
 10
1.915
 20
-7.375
 30
4.577
 11
2.535
 21
-7.375
 31
4.577
 12
2.535
 22
-7.375
 32
4.697
 13
1.915
 23
-7.375
 33
4.697
 70
    14
  0
LINE
  5
5FBEC
100
AcDbEntity
  8
0
100
AcDbLine
 10
1.975
 20
-7.25
 30
4.077
 11
2.475
 21
-7.25
 31
4.077
  0
LINE
  5
5FBED
100
AcDbEntity
  8
0
100
AcDbLine
 10
2.095
 20
-7.13
 30
4.077
 11
2.355
 21
-7.13
 31
4.077
  0
3DFACE
  5
5FBEE
100
AcDbEntity
  8
0
100
AcDbFace
 10
1.975
 20
-7.25
 30
4.077
 11
2.475
 21
-7.25
 31
4.077
 12
2.535
 22
-7.375
 32
4.577
 13
1.915
 23
-7.375
 33
4.577
 70
    14
  0
3DFACE
  5
5FBEF
100
AcDbEntity
  8
0
100
AcDbFace
 10
2.535
 20
-7.375
 30
4.697
 11
2.535
 21
-6.625
 31
4.697
 12
1.915
 22
-6.625
 32
4.697
 13
1.915
 23
-7.375
 33
4.697
 70
    14
  0
3DFACE
  5
5FBF0
100
AcDbEntity
  8
0
100
AcDbFace
 10
1.975
 20
-7.25
 30
4.077
 11
1.975
 21
-6.75
 31
4.077
 12
1.915
 22
-6.625
 32
4.577
 13
1.915
 23
-7.375
 33
4.577
 70
    14
  0
LINE
  5
5FBF1
100
AcDbEntity
  8
0
100
AcDbLine
 10
1.975
 20
-6.75
 30
4.077
 11
1.975
 21
-7.25
 31
4.077
  0
LINE
  5
5FBF2
100
AcDbEntity
  8
0
100
AcDbLine
 10
1.915
 20
-6.625
 30
4.577
 11
1.915
 21
-7.375
 31
4.577
  0
LINE
  5
5FBF3
100
AcDbEntity
  8
0
100
AcDbLine
 10
1.915
 20
-6.625
 30
4.697
 11
1.915
 21
-7.375
 31
4.697
  0
3DFACE
  5
5FBF4
100
AcDbEntity
  8
0
100
AcDbFace
 10
1.915
 20
-7.375
 30
4.577
 11
1.915
 21
-7.375
 31
4.697
 12
1.915
 22
-6.625
 32
4.697
 13
1.915
 23
-6.625
 33
4.577
 70
    14
  0
LINE
  5
5FBF5
100
AcDbEntity
  8
0
100
AcDbLine
 10
2.095
 20
-6.87
 30
4.077
 11
2.095
 21
-7.13
 31
4.077
  0
LINE
  5
5FBF6
100
AcDbEntity
  8
0
100
AcDbLine
 10
1.915
 20
-7.375
 30
4.577
 11
1.975
 21
-7.25
 31
4.077
  0
LINE
  5
5FBF7
100
AcDbEntity
  8
0
100
AcDbLine
 10
1.915
 20
-7.375
 30
4.697
 11
1.915
 21
-7.375
 31
4.577
  0
LINE
  5
5FBF8
100
AcDbEntity
  8
0
100
AcDbLine
 10
1.915
 20
-6.625
 30
4.577
 11
1.975
 21
-6.75
 31
4.077
  0
LINE
  5
5FBF9
100
AcDbEntity
  8
0
100
AcDbLine
 10
1.915
 20
-6.625
 30
4.697
 11
1.915
 21
-6.625
 31
4.577
  0
LINE
  5
5FBFA
100
AcDbEntity
  8
0
100
AcDbLine
 10
2.355
 20
-7.13
 30
4.077
 11
2.355
 21
-6.87
 31
4.077
  0
3DFACE
  5
5FBFB
100
AcDbEntity
  8
0
100
AcDbFace
 10
2.535
 20
-6.625
 30
4.577
 11
2.475
 21
-6.75
 31
4.077
 12
2.475
 22
-7.25
 32
4.077
 13
2.535
 23
-7.375
 33
4.577
 70
    14
  0
LINE
  5
5FBFC
100
AcDbEntity
  8
0
100
AcDbLine
 10
2.475
 20
-7.25
 30
4.077
 11
2.475
 21
-6.75
 31
4.077
  0
LINE
  5
5FBFD
100
AcDbEntity
  8
0
100
AcDbLine
 10
2.535
 20
-7.375
 30
4.577
 11
2.535
 21
-6.625
 31
4.577
  0
LINE
  5
5FBFE
100
AcDbEntity
  8
0
100
AcDbLine
 10
2.535
 20
-7.375
 30
4.697
 11
2.535
 21
-6.625
 31
4.697
  0
3DFACE
  5
5FBFF
100
AcDbEntity
  8
0
100
AcDbFace
 10
2.535
 20
-7.375
 30
4.697
 11
2.535
 21
-6.625
 31
4.697
 12
2.535
 22
-6.625
 32
4.577
 13
2.535
 23
-7.375
 33
4.577
 70
    14
  0
LINE
  5
5FC00
100
AcDbEntity
  8
0
100
AcDbLine
 10
2.535
 20
-7.375
 30
4.577
 11
2.475
 21
-7.25
 31
4.077
  0
LINE
  5
5FC01
100
AcDbEntity
  8
0
100
AcDbLine
 10
2.535
 20
-7.375
 30
4.697
 11
2.535
 21
-7.375
 31
4.577
  0
LINE
  5
5FC02
100
AcDbEntity
  8
0
100
AcDbLine
 10
2.535
 20
-6.625
 30
4.577
 11
2.475
 21
-6.75
 31
4.077
  0
LINE
  5
5FC03
100
AcDbEntity
  8
0
100
AcDbLine
 10
2.535
 20
-6.625
 30
4.697
 11
2.535
 21
-6.625
 31
4.577
  0
CIRCLE
  5
5FC04
100
AcDbEntity
  8
0
100
AcDbCircle
 10
2.285
 20
-4.63
 30
4.517
 40
0.095
  0
LINE
  5
5FC05
100
AcDbEntity
  8
0
100
AcDbLine
 10
2.264287
 20
-4.537285
 30
4.517
 11
2.316174
 21
-4.71974
 31
4.517
  0
LINE
  5
5FC06
100
AcDbEntity
  8
0
100
AcDbLine
 10
2.252773
 20
-4.540356
 30
4.517
 11
2.304661
 21
-4.72281
 31
4.517
  0
CIRCLE
  5
5FC07
100
AcDbEntity
  8
0
100
AcDbCircle
 10
3.225
 20
-4.63
 30
4.517
 40
0.095
  0
LINE
  5
5FC08
100
AcDbEntity
  8
0
100
AcDbLine
 10
3.204287
 20
-4.537285
 30
4.517
 11
3.256174
 21
-4.71974
 31
4.517
  0
LINE
  5
5FC09
100
AcDbEntity
  8
0
100
AcDbLine
 10
3.192773
 20
-4.540356
 30
4.517
 11
3.244661
 21
-4.72281
 31
4.517
  0
CIRCLE
  5
5FC0A
100
AcDbEntity
  8
0
100
AcDbCircle
 10
3.815
 20
-1.13
 30
4.667
 40
0.155
  0
LINE
  5
5FC0B
100
AcDbEntity
  8
0
100
AcDbLine
 10
-4.655
 20
-3.28
 30
3.887
 11
-4.655
 21
-1.5
 31
3.887
  0
LINE
  5
5FC0C
100
AcDbEntity
  8
0
100
AcDbLine
 10
-4.655
 20
-2.19
 30
4.027
 11
-4.655
 21
-2.19
 31
3.887
  0
POLYLINE
  5
5FC0D
100
AcDbEntity
  8
0
100
AcDbPolygonMesh
 66
     1
 10
0.0
 20
0.0
 30
0.0
 70
    16
 71
     6
 72
     3
  0
VERTEX
  5
5FC0E
100
AcDbEntity
  8
0
100
AcDbVertex
100
AcDbPolygonMeshVertex
 10
4.665
 20
-6.66
 30
3.087
 70
    64
  0
VERTEX
  5
5FC0F
100
AcDbEntity
  8
0
100
AcDbVertex
100
AcDbPolygonMeshVertex
 10
4.665
 20
-6.66
 30
1.917
 70
    64
  0
VERTEX
  5
5FC10
100
AcDbEntity
  8
0
100
AcDbVertex
100
AcDbPolygonMeshVertex
 10
4.665
 20
-6.66
 30
1.917
 70
    64
  0
VERTEX
  5
5FC11
100
AcDbEntity
  8
0
100
AcDbVertex
100
AcDbPolygonMeshVertex
 10
0.845
 20
-6.66
 30
3.087
 70
    64
  0
VERTEX
  5
5FC12
100
AcDbEntity
  8
0
100
AcDbVertex
100
AcDbPolygonMeshVertex
 10
0.845
 20
-6.66
 30
1.917
 70
    64
  0
VERTEX
  5
5FC13
100
AcDbEntity
  8
0
100
AcDbVertex
100
AcDbPolygonMeshVertex
 10
0.845
 20
-6.66
 30
1.917
 70
    64
  0
VERTEX
  5
5FC14
100
AcDbEntity
  8
0
100
AcDbVertex
100
AcDbPolygonMeshVertex
 10
0.845
 20
-6.18
 30
3.087
 70
    64
  0
VERTEX
  5
5FC15
100
AcDbEntity
  8
0
100
AcDbVertex
100
AcDbPolygonMeshVertex
 10
0.845
 20
-6.18
 30
1.917
 70
    64
  0
VERTEX
  5
5FC16
100
AcDbEntity
  8
0
100
AcDbVertex
100
AcDbPolygonMeshVertex
 10
0.845
 20
-6.66
 30
1.917
 70
    64
  0
VERTEX
  5
5FC17
100
AcDbEntity
  8
0
100
AcDbVertex
100
AcDbPolygonMeshVertex
 10
4.665
 20
-6.18
 30
3.087
 70
    64
  0
VERTEX
  5
5FC18
100
AcDbEntity
  8
0
100
AcDbVertex
100
AcDbPolygonMeshVertex
 10
4.665
 20
-6.18
 30
1.917
 70
    64
  0
VERTEX
  5
5FC19
100
AcDbEntity
  8
0
100
AcDbVertex
100
AcDbPolygonMeshVertex
 10
4.665
 20
-6.66
 30
1.917
 70
    64
  0
VERTEX
  5
5FC1A
100
AcDbEntity
  8
0
100
AcDbVertex
100
AcDbPolygonMeshVertex
 10
4.665
 20
-6.18
 30
3.087
 70
    64
  0
VERTEX
  5
5FC1B
100
AcDbEntity
  8
0
100
AcDbVertex
100
AcDbPolygonMeshVertex
 10
4.665
 20
-6.18
 30
3.087
 70
    64
  0
VERTEX
  5
5FC1C
100
AcDbEntity
  8
0
100
AcDbVertex
100
AcDbPolygonMeshVertex
 10
4.665
 20
-6.66
 30
3.087
 70
    64
  0
VERTEX
  5
5FC1D
100
AcDbEntity
  8
0
100
AcDbVertex
100
AcDbPolygonMeshVertex
 10
0.845
 20
-6.18
 30
3.087
 70
    64
  0
VERTEX
  5
5FC1E
100
AcDbEntity
  8
0
100
AcDbVertex
100
AcDbPolygonMeshVertex
 10
0.845
 20
-6.18
 30
3.087
 70
    64
  0
VERTEX
  5
5FC1F
100
AcDbEntity
  8
0
100
AcDbVertex
100
AcDbPolygonMeshVertex
 10
0.845
 20
-6.66
 30
3.087
 70
    64
  0
SEQEND
  5
5FC20
100
AcDbEntity
  8
0
  0
POLYLINE
  5
5FC21
100
AcDbEntity
  8
0
100
AcDbPolygonMesh
 66
     1
 10
0.0
 20
0.0
 30
0.0
 70
    16
 71
     6
 72
     3
  0
VERTEX
  5
5FC22
100
AcDbEntity
  8
0
100
AcDbVertex
100
AcDbPolygonMeshVertex
 10
0.845
 20
-6.18
 30
0.387
 70
    64
  0
VERTEX
  5
5FC23
100
AcDbEntity
  8
0
100
AcDbVertex
100
AcDbPolygonMeshVertex
 10
0.845
 20
-6.18
 30
0.387
 70
    64
  0
VERTEX
  5
5FC24
100
AcDbEntity
  8
0
100
AcDbVertex
100
AcDbPolygonMeshVertex
 10
0.845
 20
-6.18
 30
0.387
 70
    64
  0
VERTEX
  5
5FC25
100
AcDbEntity
  8
0
100
AcDbVertex
100
AcDbPolygonMeshVertex
 10
0.845
 20
-6.66
 30
1.917
 70
    64
  0
VERTEX
  5
5FC26
100
AcDbEntity
  8
0
100
AcDbVertex
100
AcDbPolygonMeshVertex
 10
0.845
 20
-6.18
 30
1.917
 70
    64
  0
VERTEX
  5
5FC27
100
AcDbEntity
  8
0
100
AcDbVertex
100
AcDbPolygonMeshVertex
 10
0.845
 20
-6.18
 30
1.917
 70
    64
  0
VERTEX
  5
5FC28
100
AcDbEntity
  8
0
100
AcDbVertex
100
AcDbPolygonMeshVertex
 10
4.665
 20
-6.66
 30
1.917
 70
    64
  0
VERTEX
  5
5FC29
100
AcDbEntity
  8
0
100
AcDbVertex
100
AcDbPolygonMeshVertex
 10
4.665
 20
-6.18
 30
1.917
 70
    64
  0
VERTEX
  5
5FC2A
100
AcDbEntity
  8
0
100
AcDbVertex
100
AcDbPolygonMeshVertex
 10
0.845
 20
-6.18
 30
1.917
 70
    64
  0
VERTEX
  5
5FC2B
100
AcDbEntity
  8
0
100
AcDbVertex
100
AcDbPolygonMeshVertex
 10
4.665
 20
-6.18
 30
0.387
 70
    64
  0
VERTEX
  5
5FC2C
100
AcDbEntity
  8
0
100
AcDbVertex
100
AcDbPolygonMeshVertex
 10
4.665
 20
-6.18
 30
0.387
 70
    64
  0
VERTEX
  5
5FC2D
100
AcDbEntity
  8
0
100
AcDbVertex
100
AcDbPolygonMeshVertex
 10
0.845
 20
-6.18
 30
0.387
 70
    64
  0
VERTEX
  5
5FC2E
100
AcDbEntity
  8
0
100
AcDbVertex
100
AcDbPolygonMeshVertex
 10
4.665
 20
-6.18
 30
0.387
 70
    64
  0
VERTEX
  5
5FC2F
100
AcDbEntity
  8
0
100
AcDbVertex
100
AcDbPolygonMeshVertex
 10
4.665
 20
-6.18
 30
0.387
 70
    64
  0
VERTEX
  5
5FC30
100
AcDbEntity
  8
0
100
AcDbVertex
100
AcDbPolygonMeshVertex
 10
0.845
 20
-6.18
 30
0.387
 70
    64
  0
VERTEX
  5
5FC31
100
AcDbEntity
  8
0
100
AcDbVertex
100
AcDbPolygonMeshVertex
 10
4.665
 20
-6.66
 30
1.917
 70
    64
  0
VERTEX
  5
5FC32
100
AcDbEntity
  8
0
100
AcDbVertex
100
AcDbPolygonMeshVertex
 10
4.665
 20
-6.66
 30
1.917
 70
    64
  0
VERTEX
  5
5FC33
100
AcDbEntity
  8
0
100
AcDbVertex
100
AcDbPolygonMeshVertex
 10
0.845
 20
-6.66
 30
1.917
 70
    64
  0
SEQEND
  5
5FC34
100
AcDbEntity
  8
0
  0
POLYLINE
  5
5FC35
100
AcDbEntity
  8
0
100
AcDbPolygonMesh
 66
     1
 10
0.0
 20
0.0
 30
0.0
 70
    16
 71
     6
 72
     3
  0
VERTEX
  5
5FC36
100
AcDbEntity
  8
0
100
AcDbVertex
100
AcDbPolygonMeshVertex
 10
4.665
 20
-6.18
 30
3.887
 70
    64
  0
VERTEX
  5
5FC37
100
AcDbEntity
  8
0
100
AcDbVertex
100
AcDbPolygonMeshVertex
 10
4.665
 20
-6.18
 30
0.387
 70
    64
  0
VERTEX
  5
5FC38
100
AcDbEntity
  8
0
100
AcDbVertex
100
AcDbPolygonMeshVertex
 10
4.665
 20
-6.18
 30
0.387
 70
    64
  0
VERTEX
  5
5FC39
100
AcDbEntity
  8
0
100
AcDbVertex
100
AcDbPolygonMeshVertex
 10
0.845
 20
-6.18
 30
3.887
 70
    64
  0
VERTEX
  5
5FC3A
100
AcDbEntity
  8
0
100
AcDbVertex
100
AcDbPolygonMeshVertex
 10
0.845
 20
-6.18
 30
0.387
 70
    64
  0
VERTEX
  5
5FC3B
100
AcDbEntity
  8
0
100
AcDbVertex
100
AcDbPolygonMeshVertex
 10
0.845
 20
-6.18
 30
0.387
 70
    64
  0
VERTEX
  5
5FC3C
100
AcDbEntity
  8
0
100
AcDbVertex
100
AcDbPolygonMeshVertex
 10
0.845
 20
-1.5
 30
3.887
 70
    64
  0
VERTEX
  5
5FC3D
100
AcDbEntity
  8
0
100
AcDbVertex
100
AcDbPolygonMeshVertex
 10
0.845
 20
-1.5
 30
0.387
 70
    64
  0
VERTEX
  5
5FC3E
100
AcDbEntity
  8
0
100
AcDbVertex
100
AcDbPolygonMeshVertex
 10
0.845
 20
-6.18
 30
0.387
 70
    64
  0
VERTEX
  5
5FC3F
100
AcDbEntity
  8
0
100
AcDbVertex
100
AcDbPolygonMeshVertex
 10
4.665
 20
-1.5
 30
3.887
 70
    64
  0
VERTEX
  5
5FC40
100
AcDbEntity
  8
0
100
AcDbVertex
100
AcDbPolygonMeshVertex
 10
4.665
 20
-1.5
 30
0.387
 70
    64
  0
VERTEX
  5
5FC41
100
AcDbEntity
  8
0
100
AcDbVertex
100
AcDbPolygonMeshVertex
 10
4.665
 20
-6.18
 30
0.387
 70
    64
  0
VERTEX
  5
5FC42
100
AcDbEntity
  8
0
100
AcDbVertex
100
AcDbPolygonMeshVertex
 10
4.665
 20
-1.5
 30
3.887
 70
    64
  0
VERTEX
  5
5FC43
100
AcDbEntity
  8
0
100
AcDbVertex
100
AcDbPolygonMeshVertex
 10
4.665
 20
-1.5
 30
3.887
 70
    64
  0
VERTEX
  5
5FC44
100
AcDbEntity
  8
0
100
AcDbVertex
100
AcDbPolygonMeshVertex
 10
4.665
 20
-6.18
 30
3.887
 70
    64
  0
VERTEX
  5
5FC45
100
AcDbEntity
  8
0
100
AcDbVertex
100
AcDbPolygonMeshVertex
 10
0.845
 20
-1.5
 30
3.887
 70
    64
  0
VERTEX
  5
5FC46
100
AcDbEntity
  8
0
100
AcDbVertex
100
AcDbPolygonMeshVertex
 10
0.845
 20
-1.5
 30
3.887
 70
    64
  0
VERTEX
  5
5FC47
100
AcDbEntity
  8
0
100
AcDbVertex
100
AcDbPolygonMeshVertex
 10
0.845
 20
-6.18
 30
3.887
 70
    64
  0
SEQEND
  5
5FC48
100
AcDbEntity
  8
0
  0
POLYLINE
  5
5FC49
100
AcDbEntity
  8
0
100
AcDbPolygonMesh
 66
     1
 10
0.0
 20
0.0
 30
0.0
 70
    16
 71
     6
 72
     3
  0
VERTEX
  5
5FC4A
100
AcDbEntity
  8
0
100
AcDbVertex
100
AcDbPolygonMeshVertex
 10
4.665
 20
-3.28
 30
4.027
 70
    64
  0
VERTEX
  5
5FC4B
100
AcDbEntity
  8
0
100
AcDbVertex
100
AcDbPolygonMeshVertex
 10
4.665
 20
-3.28
 30
3.887
 70
    64
  0
VERTEX
  5
5FC4C
100
AcDbEntity
  8
0
100
AcDbVertex
100
AcDbPolygonMeshVertex
 10
4.665
 20
-3.28
 30
3.887
 70
    64
  0
VERTEX
  5
5FC4D
100
AcDbEntity
  8
0
100
AcDbVertex
100
AcDbPolygonMeshVertex
 10
0.845
 20
-3.28
 30
4.027
 70
    64
  0
VERTEX
  5
5FC4E
100
AcDbEntity
  8
0
100
AcDbVertex
100
AcDbPolygonMeshVertex
 10
0.845
 20
-3.28
 30
3.887
 70
    64
  0
VERTEX
  5
5FC4F
100
AcDbEntity
  8
0
100
AcDbVertex
100
AcDbPolygonMeshVertex
 10
0.845
 20
-3.28
 30
3.887
 70
    64
  0
VERTEX
  5
5FC50
100
AcDbEntity
  8
0
100
AcDbVertex
100
AcDbPolygonMeshVertex
 10
0.845
 20
-2.19
 30
4.027
 70
    64
  0
VERTEX
  5
5FC51
100
AcDbEntity
  8
0
100
AcDbVertex
100
AcDbPolygonMeshVertex
 10
0.845
 20
-2.19
 30
3.887
 70
    64
  0
VERTEX
  5
5FC52
100
AcDbEntity
  8
0
100
AcDbVertex
100
AcDbPolygonMeshVertex
 10
0.845
 20
-3.28
 30
3.887
 70
    64
  0
VERTEX
  5
5FC53
100
AcDbEntity
  8
0
100
AcDbVertex
100
AcDbPolygonMeshVertex
 10
4.665
 20
-2.19
 30
4.027
 70
    64
  0
VERTEX
  5
5FC54
100
AcDbEntity
  8
0
100
AcDbVertex
100
AcDbPolygonMeshVertex
 10
4.665
 20
-2.19
 30
3.887
 70
    64
  0
VERTEX
  5
5FC55
100
AcDbEntity
  8
0
100
AcDbVertex
100
AcDbPolygonMeshVertex
 10
4.665
 20
-3.28
 30
3.887
 70
    64
  0
VERTEX
  5
5FC56
100
AcDbEntity
  8
0
100
AcDbVertex
100
AcDbPolygonMeshVertex
 10
4.665
 20
-2.19
 30
4.027
 70
    64
  0
VERTEX
  5
5FC57
100
AcDbEntity
  8
0
100
AcDbVertex
100
AcDbPolygonMeshVertex
 10
4.665
 20
-2.19
 30
4.027
 70
    64
  0
VERTEX
  5
5FC58
100
AcDbEntity
  8
0
100
AcDbVertex
100
AcDbPolygonMeshVertex
 10
4.665
 20
-3.28
 30
4.027
 70
    64
  0
VERTEX
  5
5FC59
100
AcDbEntity
  8
0
100
AcDbVertex
100
AcDbPolygonMeshVertex
 10
0.845
 20
-2.19
 30
4.027
 70
    64
  0
VERTEX
  5
5FC5A
100
AcDbEntity
  8
0
100
AcDbVertex
100
AcDbPolygonMeshVertex
 10
0.845
 20
-2.19
 30
4.027
 70
    64
  0
VERTEX
  5
5FC5B
100
AcDbEntity
  8
0
100
AcDbVertex
100
AcDbPolygonMeshVertex
 10
0.845
 20
-3.28
 30
4.027
 70
    64
  0
SEQEND
  5
5FC5C
100
AcDbEntity
  8
0
  0
POLYLINE
  5
5FC5D
100
AcDbEntity
  8
0
100
AcDbPolygonMesh
 66
     1
 10
0.0
 20
0.0
 30
0.0
 70
    16
 71
     6
 72
     3
  0
VERTEX
  5
5FC5E
100
AcDbEntity
  8
0
100
AcDbVertex
100
AcDbPolygonMeshVertex
 10
4.665
 20
-2.19
 30
4.197
 70
    64
  0
VERTEX
  5
5FC5F
100
AcDbEntity
  8
0
100
AcDbVertex
100
AcDbPolygonMeshVertex
 10
4.665
 20
-2.19
 30
3.887
 70
    64
  0
VERTEX
  5
5FC60
100
AcDbEntity
  8
0
100
AcDbVertex
100
AcDbPolygonMeshVertex
 10
4.665
 20
-2.19
 30
3.887
 70
    64
  0
VERTEX
  5
5FC61
100
AcDbEntity
  8
0
100
AcDbVertex
100
AcDbPolygonMeshVertex
 10
0.845
 20
-2.19
 30
4.197
 70
    64
  0
VERTEX
  5
5FC62
100
AcDbEntity
  8
0
100
AcDbVertex
100
AcDbPolygonMeshVertex
 10
0.845
 20
-2.19
 30
3.887
 70
    64
  0
VERTEX
  5
5FC63
100
AcDbEntity
  8
0
100
AcDbVertex
100
AcDbPolygonMeshVertex
 10
0.845
 20
-2.19
 30
3.887
 70
    64
  0
VERTEX
  5
5FC64
100
AcDbEntity
  8
0
100
AcDbVertex
100
AcDbPolygonMeshVertex
 10
0.845
 20
-1.5
 30
4.197
 70
    64
  0
VERTEX
  5
5FC65
100
AcDbEntity
  8
0
100
AcDbVertex
100
AcDbPolygonMeshVertex
 10
0.845
 20
-1.5
 30
3.887
 70
    64
  0
VERTEX
  5
5FC66
100
AcDbEntity
  8
0
100
AcDbVertex
100
AcDbPolygonMeshVertex
 10
0.845
 20
-2.19
 30
3.887
 70
    64
  0
VERTEX
  5
5FC67
100
AcDbEntity
  8
0
100
AcDbVertex
100
AcDbPolygonMeshVertex
 10
4.665
 20
-1.5
 30
4.197
 70
    64
  0
VERTEX
  5
5FC68
100
AcDbEntity
  8
0
100
AcDbVertex
100
AcDbPolygonMeshVertex
 10
4.665
 20
-1.5
 30
3.887
 70
    64
  0
VERTEX
  5
5FC69
100
AcDbEntity
  8
0
100
AcDbVertex
100
AcDbPolygonMeshVertex
 10
4.665
 20
-2.19
 30
3.887
 70
    64
  0
VERTEX
  5
5FC6A
100
AcDbEntity
  8
0
100
AcDbVertex
100
AcDbPolygonMeshVertex
 10
4.665
 20
-1.5
 30
4.197
 70
    64
  0
VERTEX
  5
5FC6B
100
AcDbEntity
  8
0
100
AcDbVertex
100
AcDbPolygonMeshVertex
 10
4.665
 20
-1.5
 30
4.197
 70
    64
  0
VERTEX
  5
5FC6C
100
AcDbEntity
  8
0
100
AcDbVertex
100
AcDbPolygonMeshVertex
 10
4.665
 20
-2.19
 30
4.197
 70
    64
  0
VERTEX
  5
5FC6D
100
AcDbEntity
  8
0
100
AcDbVertex
100
AcDbPolygonMeshVertex
 10
0.845
 20
-1.5
 30
4.197
 70
    64
  0
VERTEX
  5
5FC6E
100
AcDbEntity
  8
0
100
AcDbVertex
100
AcDbPolygonMeshVertex
 10
0.845
 20
-1.5
 30
4.197
 70
    64
  0
VERTEX
  5
5FC6F
100
AcDbEntity
  8
0
100
AcDbVertex
100
AcDbPolygonMeshVertex
 10
0.845
 20
-2.19
 30
4.197
 70
    64
  0
SEQEND
  5
5FC70
100
AcDbEntity
  8
0
  0
POLYLINE
  5
5FC71
100
AcDbEntity
  8
0
100
AcDbPolygonMesh
 66
     1
 10
0.0
 20
0.0
 30
0.0
 70
    16
 71
     6
 72
     3
  0
VERTEX
  5
5FC72
100
AcDbEntity
  8
0
100
AcDbVertex
100
AcDbPolygonMeshVertex
 10
3.695
 20
-5.12
 30
4.197
 70
    64
  0
VERTEX
  5
5FC73
100
AcDbEntity
  8
0
100
AcDbVertex
100
AcDbPolygonMeshVertex
 10
3.695
 20
-5.12
 30
3.887
 70
    64
  0
VERTEX
  5
5FC74
100
AcDbEntity
  8
0
100
AcDbVertex
100
AcDbPolygonMeshVertex
 10
3.695
 20
-5.12
 30
3.887
 70
    64
  0
VERTEX
  5
5FC75
100
AcDbEntity
  8
0
100
AcDbVertex
100
AcDbPolygonMeshVertex
 10
1.815
 20
-5.12
 30
4.197
 70
    64
  0
VERTEX
  5
5FC76
100
AcDbEntity
  8
0
100
AcDbVertex
100
AcDbPolygonMeshVertex
 10
1.815
 20
-5.12
 30
3.887
 70
    64
  0
VERTEX
  5
5FC77
100
AcDbEntity
  8
0
100
AcDbVertex
100
AcDbPolygonMeshVertex
 10
1.815
 20
-5.12
 30
3.887
 70
    64
  0
VERTEX
  5
5FC78
100
AcDbEntity
  8
0
100
AcDbVertex
100
AcDbPolygonMeshVertex
 10
1.815
 20
-4.29
 30
4.197
 70
    64
  0
VERTEX
  5
5FC79
100
AcDbEntity
  8
0
100
AcDbVertex
100
AcDbPolygonMeshVertex
 10
1.815
 20
-4.29
 30
3.887
 70
    64
  0
VERTEX
  5
5FC7A
100
AcDbEntity
  8
0
100
AcDbVertex
100
AcDbPolygonMeshVertex
 10
1.815
 20
-5.12
 30
3.887
 70
    64
  0
VERTEX
  5
5FC7B
100
AcDbEntity
  8
0
100
AcDbVertex
100
AcDbPolygonMeshVertex
 10
3.695
 20
-4.29
 30
4.197
 70
    64
  0
VERTEX
  5
5FC7C
100
AcDbEntity
  8
0
100
AcDbVertex
100
AcDbPolygonMeshVertex
 10
3.695
 20
-4.29
 30
3.887
 70
    64
  0
VERTEX
  5
5FC7D
100
AcDbEntity
  8
0
100
AcDbVertex
100
AcDbPolygonMeshVertex
 10
3.695
 20
-5.12
 30
3.887
 70
    64
  0
VERTEX
  5
5FC7E
100
AcDbEntity
  8
0
100
AcDbVertex
100
AcDbPolygonMeshVertex
 10
3.695
 20
-4.29
 30
4.197
 70
    64
  0
VERTEX
  5
5FC7F
100
AcDbEntity
  8
0
100
AcDbVertex
100
AcDbPolygonMeshVertex
 10
3.695
 20
-4.29
 30
4.197
 70
    64
  0
VERTEX
  5
5FC80
100
AcDbEntity
  8
0
100
AcDbVertex
100
AcDbPolygonMeshVertex
 10
3.695
 20
-5.12
 30
4.197
 70
    64
  0
VERTEX
  5
5FC81
100
AcDbEntity
  8
0
100
AcDbVertex
100
AcDbPolygonMeshVertex
 10
1.815
 20
-4.29
 30
4.197
 70
    64
  0
VERTEX
  5
5FC82
100
AcDbEntity
  8
0
100
AcDbVertex
100
AcDbPolygonMeshVertex
 10
1.815
 20
-4.29
 30
4.197
 70
    64
  0
VERTEX
  5
5FC83
100
AcDbEntity
  8
0
100
AcDbVertex
100
AcDbPolygonMeshVertex
 10
1.815
 20
-5.12
 30
4.197
 70
    64
  0
SEQEND
  5
5FC84
100
AcDbEntity
  8
0
  0
POLYLINE
  5
5FC85
100
AcDbEntity
  8
0
100
AcDbPolygonMesh
 66
     1
 10
0.0
 20
0.0
 30
0.0
 70
    16
 71
     6
 72
     3
  0
VERTEX
  5
5FC86
100
AcDbEntity
  8
0
100
AcDbVertex
100
AcDbPolygonMeshVertex
 10
2.475
 20
-4.82
 30
4.517
 70
    64
  0
VERTEX
  5
5FC87
100
AcDbEntity
  8
0
100
AcDbVertex
100
AcDbPolygonMeshVertex
 10
2.475
 20
-4.82
 30
4.197
 70
    64
  0
VERTEX
  5
5FC88
100
AcDbEntity
  8
0
100
AcDbVertex
100
AcDbPolygonMeshVertex
 10
2.475
 20
-4.82
 30
4.197
 70
    64
  0
VERTEX
  5
5FC89
100
AcDbEntity
  8
0
100
AcDbVertex
100
AcDbPolygonMeshVertex
 10
2.095
 20
-4.82
 30
4.517
 70
    64
  0
VERTEX
  5
5FC8A
100
AcDbEntity
  8
0
100
AcDbVertex
100
AcDbPolygonMeshVertex
 10
2.095
 20
-4.82
 30
4.197
 70
    64
  0
VERTEX
  5
5FC8B
100
AcDbEntity
  8
0
100
AcDbVertex
100
AcDbPolygonMeshVertex
 10
2.095
 20
-4.82
 30
4.197
 70
    64
  0
VERTEX
  5
5FC8C
100
AcDbEntity
  8
0
100
AcDbVertex
100
AcDbPolygonMeshVertex
 10
2.095
 20
-4.38
 30
4.517
 70
    64
  0
VERTEX
  5
5FC8D
100
AcDbEntity
  8
0
100
AcDbVertex
100
AcDbPolygonMeshVertex
 10
2.095
 20
-4.38
 30
4.197
 70
    64
  0
VERTEX
  5
5FC8E
100
AcDbEntity
  8
0
100
AcDbVertex
100
AcDbPolygonMeshVertex
 10
2.095
 20
-4.82
 30
4.197
 70
    64
  0
VERTEX
  5
5FC8F
100
AcDbEntity
  8
0
100
AcDbVertex
100
AcDbPolygonMeshVertex
 10
2.475
 20
-4.38
 30
4.517
 70
    64
  0
VERTEX
  5
5FC90
100
AcDbEntity
  8
0
100
AcDbVertex
100
AcDbPolygonMeshVertex
 10
2.475
 20
-4.38
 30
4.197
 70
    64
  0
VERTEX
  5
5FC91
100
AcDbEntity
  8
0
100
AcDbVertex
100
AcDbPolygonMeshVertex
 10
2.475
 20
-4.82
 30
4.197
 70
    64
  0
VERTEX
  5
5FC92
100
AcDbEntity
  8
0
100
AcDbVertex
100
AcDbPolygonMeshVertex
 10
2.475
 20
-4.38
 30
4.517
 70
    64
  0
VERTEX
  5
5FC93
100
AcDbEntity
  8
0
100
AcDbVertex
100
AcDbPolygonMeshVertex
 10
2.475
 20
-4.38
 30
4.517
 70
    64
  0
VERTEX
  5
5FC94
100
AcDbEntity
  8
0
100
AcDbVertex
100
AcDbPolygonMeshVertex
 10
2.475
 20
-4.82
 30
4.517
 70
    64
  0
VERTEX
  5
5FC95
100
AcDbEntity
  8
0
100
AcDbVertex
100
AcDbPolygonMeshVertex
 10
2.095
 20
-4.38
 30
4.517
 70
    64
  0
VERTEX
  5
5FC96
100
AcDbEntity
  8
0
100
AcDbVertex
100
AcDbPolygonMeshVertex
 10
2.095
 20
-4.38
 30
4.517
 70
    64
  0
VERTEX
  5
5FC97
100
AcDbEntity
  8
0
100
AcDbVertex
100
AcDbPolygonMeshVertex
 10
2.095
 20
-4.82
 30
4.517
 70
    64
  0
SEQEND
  5
5FC98
100
AcDbEntity
  8
0
  0
POLYLINE
  5
5FC99
100
AcDbEntity
  8
0
100
AcDbPolygonMesh
 66
     1
 10
0.0
 20
0.0
 30
0.0
 70
    16
 71
     6
 72
     3
  0
VERTEX
  5
5FC9A
100
AcDbEntity
  8
0
100
AcDbVertex
100
AcDbPolygonMeshVertex
 10
3.415
 20
-4.82
 30
4.517
 70
    64
  0
VERTEX
  5
5FC9B
100
AcDbEntity
  8
0
100
AcDbVertex
100
AcDbPolygonMeshVertex
 10
3.415
 20
-4.82
 30
4.197
 70
    64
  0
VERTEX
  5
5FC9C
100
AcDbEntity
  8
0
100
AcDbVertex
100
AcDbPolygonMeshVertex
 10
3.415
 20
-4.82
 30
4.197
 70
    64
  0
VERTEX
  5
5FC9D
100
AcDbEntity
  8
0
100
AcDbVertex
100
AcDbPolygonMeshVertex
 10
3.035
 20
-4.82
 30
4.517
 70
    64
  0
VERTEX
  5
5FC9E
100
AcDbEntity
  8
0
100
AcDbVertex
100
AcDbPolygonMeshVertex
 10
3.035
 20
-4.82
 30
4.197
 70
    64
  0
VERTEX
  5
5FC9F
100
AcDbEntity
  8
0
100
AcDbVertex
100
AcDbPolygonMeshVertex
 10
3.035
 20
-4.82
 30
4.197
 70
    64
  0
VERTEX
  5
5FCA0
100
AcDbEntity
  8
0
100
AcDbVertex
100
AcDbPolygonMeshVertex
 10
3.035
 20
-4.38
 30
4.517
 70
    64
  0
VERTEX
  5
5FCA1
100
AcDbEntity
  8
0
100
AcDbVertex
100
AcDbPolygonMeshVertex
 10
3.035
 20
-4.38
 30
4.197
 70
    64
  0
VERTEX
  5
5FCA2
100
AcDbEntity
  8
0
100
AcDbVertex
100
AcDbPolygonMeshVertex
 10
3.035
 20
-4.82
 30
4.197
 70
    64
  0
VERTEX
  5
5FCA3
100
AcDbEntity
  8
0
100
AcDbVertex
100
AcDbPolygonMeshVertex
 10
3.415
 20
-4.38
 30
4.517
 70
    64
  0
VERTEX
  5
5FCA4
100
AcDbEntity
  8
0
100
AcDbVertex
100
AcDbPolygonMeshVertex
 10
3.415
 20
-4.38
 30
4.197
 70
    64
  0
VERTEX
  5
5FCA5
100
AcDbEntity
  8
0
100
AcDbVertex
100
AcDbPolygonMeshVertex
 10
3.415
 20
-4.82
 30
4.197
 70
    64
  0
VERTEX
  5
5FCA6
100
AcDbEntity
  8
0
100
AcDbVertex
100
AcDbPolygonMeshVertex
 10
3.415
 20
-4.38
 30
4.517
 70
    64
  0
VERTEX
  5
5FCA7
100
AcDbEntity
  8
0
100
AcDbVertex
100
AcDbPolygonMeshVertex
 10
3.415
 20
-4.38
 30
4.517
 70
    64
  0
VERTEX
  5
5FCA8
100
AcDbEntity
  8
0
100
AcDbVertex
100
AcDbPolygonMeshVertex
 10
3.415
 20
-4.82
 30
4.517
 70
    64
  0
VERTEX
  5
5FCA9
100
AcDbEntity
  8
0
100
AcDbVertex
100
AcDbPolygonMeshVertex
 10
3.035
 20
-4.38
 30
4.517
 70
    64
  0
VERTEX
  5
5FCAA
100
AcDbEntity
  8
0
100
AcDbVertex
100
AcDbPolygonMeshVertex
 10
3.035
 20
-4.38
 30
4.517
 70
    64
  0
VERTEX
  5
5FCAB
100
AcDbEntity
  8
0
100
AcDbVertex
100
AcDbPolygonMeshVertex
 10
3.035
 20
-4.82
 30
4.517
 70
    64
  0
SEQEND
  5
5FCAC
100
AcDbEntity
  8
0
  0
LINE
  5
5FCAD
100
AcDbEntity
  8
0
100
AcDbLine
 10
4.065
 20
-1.38
 30
4.537
 11
4.065
 21
-0.88
 31
4.537
  0
POLYLINE
  5
5FCAE
100
AcDbEntity
  8
0
100
AcDbPolygonMesh
 66
     1
 10
0.0
 20
0.0
 30
0.0
 70
    16
 71
     6
 72
     3
  0
VERTEX
  5
5FCAF
100
AcDbEntity
  8
0
100
AcDbVertex
100
AcDbPolygonMeshVertex
 10
3.565
 20
-0.88
 30
4.537
 70
    64
  0
VERTEX
  5
5FCB0
100
AcDbEntity
  8
0
100
AcDbVertex
100
AcDbPolygonMeshVertex
 10
3.565
 20
-0.88
 30
4.197
 70
    64
  0
VERTEX
  5
5FCB1
100
AcDbEntity
  8
0
100
AcDbVertex
100
AcDbPolygonMeshVertex
 10
3.565
 20
-0.88
 30
4.197
 70
    64
  0
VERTEX
  5
5FCB2
100
AcDbEntity
  8
0
100
AcDbVertex
100
AcDbPolygonMeshVertex
 10
4.065
 20
-0.88
 30
4.537
 70
    64
  0
VERTEX
  5
5FCB3
100
AcDbEntity
  8
0
100
AcDbVertex
100
AcDbPolygonMeshVertex
 10
4.065
 20
-0.88
 30
4.197
 70
    64
  0
VERTEX
  5
5FCB4
100
AcDbEntity
  8
0
100
AcDbVertex
100
AcDbPolygonMeshVertex
 10
4.065
 20
-0.88
 30
4.197
 70
    64
  0
VERTEX
  5
5FCB5
100
AcDbEntity
  8
0
100
AcDbVertex
100
AcDbPolygonMeshVertex
 10
4.065
 20
-2.0
 30
4.537
 70
    64
  0
VERTEX
  5
5FCB6
100
AcDbEntity
  8
0
100
AcDbVertex
100
AcDbPolygonMeshVertex
 10
4.065
 20
-2.0
 30
4.197
 70
    64
  0
VERTEX
  5
5FCB7
100
AcDbEntity
  8
0
100
AcDbVertex
100
AcDbPolygonMeshVertex
 10
4.065
 20
-0.88
 30
4.197
 70
    64
  0
VERTEX
  5
5FCB8
100
AcDbEntity
  8
0
100
AcDbVertex
100
AcDbPolygonMeshVertex
 10
3.565
 20
-2.0
 30
4.537
 70
    64
  0
VERTEX
  5
5FCB9
100
AcDbEntity
  8
0
100
AcDbVertex
100
AcDbPolygonMeshVertex
 10
3.565
 20
-2.0
 30
4.197
 70
    64
  0
VERTEX
  5
5FCBA
100
AcDbEntity
  8
0
100
AcDbVertex
100
AcDbPolygonMeshVertex
 10
3.565
 20
-0.88
 30
4.197
 70
    64
  0
VERTEX
  5
5FCBB
100
AcDbEntity
  8
0
100
AcDbVertex
100
AcDbPolygonMeshVertex
 10
3.565
 20
-2.0
 30
4.537
 70
    64
  0
VERTEX
  5
5FCBC
100
AcDbEntity
  8
0
100
AcDbVertex
100
AcDbPolygonMeshVertex
 10
3.565
 20
-2.0
 30
4.537
 70
    64
  0
VERTEX
  5
5FCBD
100
AcDbEntity
  8
0
100
AcDbVertex
100
AcDbPolygonMeshVertex
 10
3.565
 20
-0.88
 30
4.537
 70
    64
  0
VERTEX
  5
5FCBE
100
AcDbEntity
  8
0
100
AcDbVertex
100
AcDbPolygonMeshVertex
 10
4.065
 20
-2.0
 30
4.537
 70
    64
  0
VERTEX
  5
5FCBF
100
AcDbEntity
  8
0
100
AcDbVertex
100
AcDbPolygonMeshVertex
 10
4.065
 20
-2.0
 30
4.537
 70
    64
  0
VERTEX
  5
5FCC0
100
AcDbEntity
  8
0
100
AcDbVertex
100
AcDbPolygonMeshVertex
 10
4.065
 20
-0.88
 30
4.537
 70
    64
  0
SEQEND
  5
5FCC1
100
AcDbEntity
  8
0
  0
POLYLINE
  5
5FCC2
100
AcDbEntity
  8
0
100
AcDbPolygonMesh
 66
     1
 10
0.0
 20
0.0
 30
0.0
 70
    16
 71
     6
 72
     3
  0
VERTEX
  5
5FCC3
100
AcDbEntity
  8
0
100
AcDbVertex
100
AcDbPolygonMeshVertex
 10
3.565
 20
-0.88
 30
4.667
 70
    64
  0
VERTEX
  5
5FCC4
100
AcDbEntity
  8
0
100
AcDbVertex
100
AcDbPolygonMeshVertex
 10
3.565
 20
-0.88
 30
4.537
 70
    64
  0
VERTEX
  5
5FCC5
100
AcDbEntity
  8
0
100
AcDbVertex
100
AcDbPolygonMeshVertex
 10
3.565
 20
-0.88
 30
4.537
 70
    64
  0
VERTEX
  5
5FCC6
100
AcDbEntity
  8
0
100
AcDbVertex
100
AcDbPolygonMeshVertex
 10
4.065
 20
-0.88
 30
4.667
 70
    64
  0
VERTEX
  5
5FCC7
100
AcDbEntity
  8
0
100
AcDbVertex
100
AcDbPolygonMeshVertex
 10
4.065
 20
-0.88
 30
4.537
 70
    64
  0
VERTEX
  5
5FCC8
100
AcDbEntity
  8
0
100
AcDbVertex
100
AcDbPolygonMeshVertex
 10
4.065
 20
-0.88
 30
4.537
 70
    64
  0
VERTEX
  5
5FCC9
100
AcDbEntity
  8
0
100
AcDbVertex
100
AcDbPolygonMeshVertex
 10
4.065
 20
-1.38
 30
4.667
 70
    64
  0
VERTEX
  5
5FCCA
100
AcDbEntity
  8
0
100
AcDbVertex
100
AcDbPolygonMeshVertex
 10
4.065
 20
-1.38
 30
4.537
 70
    64
  0
VERTEX
  5
5FCCB
100
AcDbEntity
  8
0
100
AcDbVertex
100
AcDbPolygonMeshVertex
 10
4.065
 20
-0.88
 30
4.537
 70
    64
  0
VERTEX
  5
5FCCC
100
AcDbEntity
  8
0
100
AcDbVertex
100
AcDbPolygonMeshVertex
 10
3.565
 20
-1.38
 30
4.667
 70
    64
  0
VERTEX
  5
5FCCD
100
AcDbEntity
  8
0
100
AcDbVertex
100
AcDbPolygonMeshVertex
 10
3.565
 20
-1.38
 30
4.537
 70
    64
  0
VERTEX
  5
5FCCE
100
AcDbEntity
  8
0
100
AcDbVertex
100
AcDbPolygonMeshVertex
 10
3.565
 20
-0.88
 30
4.537
 70
    64
  0
VERTEX
  5
5FCCF
100
AcDbEntity
  8
0
100
AcDbVertex
100
AcDbPolygonMeshVertex
 10
3.565
 20
-1.38
 30
4.667
 70
    64
  0
VERTEX
  5
5FCD0
100
AcDbEntity
  8
0
100
AcDbVertex
100
AcDbPolygonMeshVertex
 10
3.565
 20
-1.38
 30
4.667
 70
    64
  0
VERTEX
  5
5FCD1
100
AcDbEntity
  8
0
100
AcDbVertex
100
AcDbPolygonMeshVertex
 10
3.565
 20
-0.88
 30
4.667
 70
    64
  0
VERTEX
  5
5FCD2
100
AcDbEntity
  8
0
100
AcDbVertex
100
AcDbPolygonMeshVertex
 10
4.065
 20
-1.38
 30
4.667
 70
    64
  0
VERTEX
  5
5FCD3
100
AcDbEntity
  8
0
100
AcDbVertex
100
AcDbPolygonMeshVertex
 10
4.065
 20
-1.38
 30
4.667
 70
    64
  0
VERTEX
  5
5FCD4
100
AcDbEntity
  8
0
100
AcDbVertex
100
AcDbPolygonMeshVertex
 10
4.065
 20
-0.88
 30
4.667
 70
    64
  0
SEQEND
  5
5FCD5
100
AcDbEntity
  8
0
  0
POLYLINE
  5
5FCD6
100
AcDbEntity
  8
0
100
AcDbPolygonMesh
 66
     1
 10
0.0
 20
0.0
 30
0.0
 70
    16
 71
     6
 72
     3
  0
VERTEX
  5
5FCD7
100
AcDbEntity
  8
0
100
AcDbVertex
100
AcDbPolygonMeshVertex
 10
2.505
 20
-0.88
 30
4.537
 70
    64
  0
VERTEX
  5
5FCD8
100
AcDbEntity
  8
0
100
AcDbVertex
100
AcDbPolygonMeshVertex
 10
2.505
 20
-0.88
 30
4.197
 70
    64
  0
VERTEX
  5
5FCD9
100
AcDbEntity
  8
0
100
AcDbVertex
100
AcDbPolygonMeshVertex
 10
2.505
 20
-0.88
 30
4.197
 70
    64
  0
VERTEX
  5
5FCDA
100
AcDbEntity
  8
0
100
AcDbVertex
100
AcDbPolygonMeshVertex
 10
3.005
 20
-0.88
 30
4.537
 70
    64
  0
VERTEX
  5
5FCDB
100
AcDbEntity
  8
0
100
AcDbVertex
100
AcDbPolygonMeshVertex
 10
3.005
 20
-0.88
 30
4.197
 70
    64
  0
VERTEX
  5
5FCDC
100
AcDbEntity
  8
0
100
AcDbVertex
100
AcDbPolygonMeshVertex
 10
3.005
 20
-0.88
 30
4.197
 70
    64
  0
VERTEX
  5
5FCDD
100
AcDbEntity
  8
0
100
AcDbVertex
100
AcDbPolygonMeshVertex
 10
3.005
 20
-2.0
 30
4.537
 70
    64
  0
VERTEX
  5
5FCDE
100
AcDbEntity
  8
0
100
AcDbVertex
100
AcDbPolygonMeshVertex
 10
3.005
 20
-2.0
 30
4.197
 70
    64
  0
VERTEX
  5
5FCDF
100
AcDbEntity
  8
0
100
AcDbVertex
100
AcDbPolygonMeshVertex
 10
3.005
 20
-0.88
 30
4.197
 70
    64
  0
VERTEX
  5
5FCE0
100
AcDbEntity
  8
0
100
AcDbVertex
100
AcDbPolygonMeshVertex
 10
2.505
 20
-2.0
 30
4.537
 70
    64
  0
VERTEX
  5
5FCE1
100
AcDbEntity
  8
0
100
AcDbVertex
100
AcDbPolygonMeshVertex
 10
2.505
 20
-2.0
 30
4.197
 70
    64
  0
VERTEX
  5
5FCE2
100
AcDbEntity
  8
0
100
AcDbVertex
100
AcDbPolygonMeshVertex
 10
2.505
 20
-0.88
 30
4.197
 70
    64
  0
VERTEX
  5
5FCE3
100
AcDbEntity
  8
0
100
AcDbVertex
100
AcDbPolygonMeshVertex
 10
2.505
 20
-2.0
 30
4.537
 70
    64
  0
VERTEX
  5
5FCE4
100
AcDbEntity
  8
0
100
AcDbVertex
100
AcDbPolygonMeshVertex
 10
2.505
 20
-2.0
 30
4.537
 70
    64
  0
VERTEX
  5
5FCE5
100
AcDbEntity
  8
0
100
AcDbVertex
100
AcDbPolygonMeshVertex
 10
2.505
 20
-0.88
 30
4.537
 70
    64
  0
VERTEX
  5
5FCE6
100
AcDbEntity
  8
0
100
AcDbVertex
100
AcDbPolygonMeshVertex
 10
3.005
 20
-2.0
 30
4.537
 70
    64
  0
VERTEX
  5
5FCE7
100
AcDbEntity
  8
0
100
AcDbVertex
100
AcDbPolygonMeshVertex
 10
3.005
 20
-2.0
 30
4.537
 70
    64
  0
VERTEX
  5
5FCE8
100
AcDbEntity
  8
0
100
AcDbVertex
100
AcDbPolygonMeshVertex
 10
3.005
 20
-0.88
 30
4.537
 70
    64
  0
SEQEND
  5
5FCE9
100
AcDbEntity
  8
0
  0
POLYLINE
  5
5FCEA
100
AcDbEntity
  8
0
100
AcDbPolygonMesh
 66
     1
 10
0.0
 20
0.0
 30
0.0
 70
    16
 71
     6
 72
     3
  0
VERTEX
  5
5FCEB
100
AcDbEntity
  8
0
100
AcDbVertex
100
AcDbPolygonMeshVertex
 10
2.505
 20
-0.88
 30
4.667
 70
    64
  0
VERTEX
  5
5FCEC
100
AcDbEntity
  8
0
100
AcDbVertex
100
AcDbPolygonMeshVertex
 10
2.505
 20
-0.88
 30
4.537
 70
    64
  0
VERTEX
  5
5FCED
100
AcDbEntity
  8
0
100
AcDbVertex
100
AcDbPolygonMeshVertex
 10
2.505
 20
-0.88
 30
4.537
 70
    64
  0
VERTEX
  5
5FCEE
100
AcDbEntity
  8
0
100
AcDbVertex
100
AcDbPolygonMeshVertex
 10
3.005
 20
-0.88
 30
4.667
 70
    64
  0
VERTEX
  5
5FCEF
100
AcDbEntity
  8
0
100
AcDbVertex
100
AcDbPolygonMeshVertex
 10
3.005
 20
-0.88
 30
4.537
 70
    64
  0
VERTEX
  5
5FCF0
100
AcDbEntity
  8
0
100
AcDbVertex
100
AcDbPolygonMeshVertex
 10
3.005
 20
-0.88
 30
4.537
 70
    64
  0
VERTEX
  5
5FCF1
100
AcDbEntity
  8
0
100
AcDbVertex
100
AcDbPolygonMeshVertex
 10
3.005
 20
-1.38
 30
4.667
 70
    64
  0
VERTEX
  5
5FCF2
100
AcDbEntity
  8
0
100
AcDbVertex
100
AcDbPolygonMeshVertex
 10
3.005
 20
-1.38
 30
4.537
 70
    64
  0
VERTEX
  5
5FCF3
100
AcDbEntity
  8
0
100
AcDbVertex
100
AcDbPolygonMeshVertex
 10
3.005
 20
-0.88
 30
4.537
 70
    64
  0
VERTEX
  5
5FCF4
100
AcDbEntity
  8
0
100
AcDbVertex
100
AcDbPolygonMeshVertex
 10
2.505
 20
-1.38
 30
4.667
 70
    64
  0
VERTEX
  5
5FCF5
100
AcDbEntity
  8
0
100
AcDbVertex
100
AcDbPolygonMeshVertex
 10
2.505
 20
-1.38
 30
4.537
 70
    64
  0
VERTEX
  5
5FCF6
100
AcDbEntity
  8
0
100
AcDbVertex
100
AcDbPolygonMeshVertex
 10
2.505
 20
-0.88
 30
4.537
 70
    64
  0
VERTEX
  5
5FCF7
100
AcDbEntity
  8
0
100
AcDbVertex
100
AcDbPolygonMeshVertex
 10
2.505
 20
-1.38
 30
4.667
 70
    64
  0
VERTEX
  5
5FCF8
100
AcDbEntity
  8
0
100
AcDbVertex
100
AcDbPolygonMeshVertex
 10
2.505
 20
-1.38
 30
4.667
 70
    64
  0
VERTEX
  5
5FCF9
100
AcDbEntity
  8
0
100
AcDbVertex
100
AcDbPolygonMeshVertex
 10
2.505
 20
-0.88
 30
4.667
 70
    64
  0
VERTEX
  5
5FCFA
100
AcDbEntity
  8
0
100
AcDbVertex
100
AcDbPolygonMeshVertex
 10
3.005
 20
-1.38
 30
4.667
 70
    64
  0
VERTEX
  5
5FCFB
100
AcDbEntity
  8
0
100
AcDbVertex
100
AcDbPolygonMeshVertex
 10
3.005
 20
-1.38
 30
4.667
 70
    64
  0
VERTEX
  5
5FCFC
100
AcDbEntity
  8
0
100
AcDbVertex
100
AcDbPolygonMeshVertex
 10
3.005
 20
-0.88
 30
4.667
 70
    64
  0
SEQEND
  5
5FCFD
100
AcDbEntity
  8
0
  0
CIRCLE
  5
5FCFE
100
AcDbEntity
  8
0
100
AcDbCircle
 10
2.755
 20
-1.13
 30
4.667
 40
0.155
  0
POLYLINE
  5
5FCFF
100
AcDbEntity
  8
0
100
AcDbPolygonMesh
 66
     1
 10
0.0
 20
0.0
 30
0.0
 70
    16
 71
     6
 72
     3
  0
VERTEX
  5
5FD00
100
AcDbEntity
  8
0
100
AcDbVertex
100
AcDbPolygonMeshVertex
 10
1.445
 20
-0.88
 30
4.537
 70
    64
  0
VERTEX
  5
5FD01
100
AcDbEntity
  8
0
100
AcDbVertex
100
AcDbPolygonMeshVertex
 10
1.445
 20
-0.88
 30
4.197
 70
    64
  0
VERTEX
  5
5FD02
100
AcDbEntity
  8
0
100
AcDbVertex
100
AcDbPolygonMeshVertex
 10
1.445
 20
-0.88
 30
4.197
 70
    64
  0
VERTEX
  5
5FD03
100
AcDbEntity
  8
0
100
AcDbVertex
100
AcDbPolygonMeshVertex
 10
1.945
 20
-0.88
 30
4.537
 70
    64
  0
VERTEX
  5
5FD04
100
AcDbEntity
  8
0
100
AcDbVertex
100
AcDbPolygonMeshVertex
 10
1.945
 20
-0.88
 30
4.197
 70
    64
  0
VERTEX
  5
5FD05
100
AcDbEntity
  8
0
100
AcDbVertex
100
AcDbPolygonMeshVertex
 10
1.945
 20
-0.88
 30
4.197
 70
    64
  0
VERTEX
  5
5FD06
100
AcDbEntity
  8
0
100
AcDbVertex
100
AcDbPolygonMeshVertex
 10
1.945
 20
-2.0
 30
4.537
 70
    64
  0
VERTEX
  5
5FD07
100
AcDbEntity
  8
0
100
AcDbVertex
100
AcDbPolygonMeshVertex
 10
1.945
 20
-2.0
 30
4.197
 70
    64
  0
VERTEX
  5
5FD08
100
AcDbEntity
  8
0
100
AcDbVertex
100
AcDbPolygonMeshVertex
 10
1.945
 20
-0.88
 30
4.197
 70
    64
  0
VERTEX
  5
5FD09
100
AcDbEntity
  8
0
100
AcDbVertex
100
AcDbPolygonMeshVertex
 10
1.445
 20
-2.0
 30
4.537
 70
    64
  0
VERTEX
  5
5FD0A
100
AcDbEntity
  8
0
100
AcDbVertex
100
AcDbPolygonMeshVertex
 10
1.445
 20
-2.0
 30
4.197
 70
    64
  0
VERTEX
  5
5FD0B
100
AcDbEntity
  8
0
100
AcDbVertex
100
AcDbPolygonMeshVertex
 10
1.445
 20
-0.88
 30
4.197
 70
    64
  0
VERTEX
  5
5FD0C
100
AcDbEntity
  8
0
100
AcDbVertex
100
AcDbPolygonMeshVertex
 10
1.445
 20
-2.0
 30
4.537
 70
    64
  0
VERTEX
  5
5FD0D
100
AcDbEntity
  8
0
100
AcDbVertex
100
AcDbPolygonMeshVertex
 10
1.445
 20
-2.0
 30
4.537
 70
    64
  0
VERTEX
  5
5FD0E
100
AcDbEntity
  8
0
100
AcDbVertex
100
AcDbPolygonMeshVertex
 10
1.445
 20
-0.88
 30
4.537
 70
    64
  0
VERTEX
  5
5FD0F
100
AcDbEntity
  8
0
100
AcDbVertex
100
AcDbPolygonMeshVertex
 10
1.945
 20
-2.0
 30
4.537
 70
    64
  0
VERTEX
  5
5FD10
100
AcDbEntity
  8
0
100
AcDbVertex
100
AcDbPolygonMeshVertex
 10
1.945
 20
-2.0
 30
4.537
 70
    64
  0
VERTEX
  5
5FD11
100
AcDbEntity
  8
0
100
AcDbVertex
100
AcDbPolygonMeshVertex
 10
1.945
 20
-0.88
 30
4.537
 70
    64
  0
SEQEND
  5
5FD12
100
AcDbEntity
  8
0
  0
POLYLINE
  5
5FD13
100
AcDbEntity
  8
0
100
AcDbPolygonMesh
 66
     1
 10
0.0
 20
0.0
 30
0.0
 70
    16
 71
     6
 72
     3
  0
VERTEX
  5
5FD14
100
AcDbEntity
  8
0
100
AcDbVertex
100
AcDbPolygonMeshVertex
 10
1.445
 20
-0.88
 30
4.667
 70
    64
  0
VERTEX
  5
5FD15
100
AcDbEntity
  8
0
100
AcDbVertex
100
AcDbPolygonMeshVertex
 10
1.445
 20
-0.88
 30
4.537
 70
    64
  0
VERTEX
  5
5FD16
100
AcDbEntity
  8
0
100
AcDbVertex
100
AcDbPolygonMeshVertex
 10
1.445
 20
-0.88
 30
4.537
 70
    64
  0
VERTEX
  5
5FD17
100
AcDbEntity
  8
0
100
AcDbVertex
100
AcDbPolygonMeshVertex
 10
1.945
 20
-0.88
 30
4.667
 70
    64
  0
VERTEX
  5
5FD18
100
AcDbEntity
  8
0
100
AcDbVertex
100
AcDbPolygonMeshVertex
 10
1.945
 20
-0.88
 30
4.537
 70
    64
  0
VERTEX
  5
5FD19
100
AcDbEntity
  8
0
100
AcDbVertex
100
AcDbPolygonMeshVertex
 10
1.945
 20
-0.88
 30
4.537
 70
    64
  0
VERTEX
  5
5FD1A
100
AcDbEntity
  8
0
100
AcDbVertex
100
AcDbPolygonMeshVertex
 10
1.945
 20
-1.38
 30
4.667
 70
    64
  0
VERTEX
  5
5FD1B
100
AcDbEntity
  8
0
100
AcDbVertex
100
AcDbPolygonMeshVertex
 10
1.945
 20
-1.38
 30
4.537
 70
    64
  0
VERTEX
  5
5FD1C
100
AcDbEntity
  8
0
100
AcDbVertex
100
AcDbPolygonMeshVertex
 10
1.945
 20
-0.88
 30
4.537
 70
    64
  0
VERTEX
  5
5FD1D
100
AcDbEntity
  8
0
100
AcDbVertex
100
AcDbPolygonMeshVertex
 10
1.445
 20
-1.38
 30
4.667
 70
    64
  0
VERTEX
  5
5FD1E
100
AcDbEntity
  8
0
100
AcDbVertex
100
AcDbPolygonMeshVertex
 10
1.445
 20
-1.38
 30
4.537
 70
    64
  0
VERTEX
  5
5FD1F
100
AcDbEntity
  8
0
100
AcDbVertex
100
AcDbPolygonMeshVertex
 10
1.445
 20
-0.88
 30
4.537
 70
    64
  0
VERTEX
  5
5FD20
100
AcDbEntity
  8
0
100
AcDbVertex
100
AcDbPolygonMeshVertex
 10
1.445
 20
-1.38
 30
4.667
 70
    64
  0
VERTEX
  5
5FD21
100
AcDbEntity
  8
0
100
AcDbVertex
100
AcDbPolygonMeshVertex
 10
1.445
 20
-1.38
 30
4.667
 70
    64
  0
VERTEX
  5
5FD22
100
AcDbEntity
  8
0
100
AcDbVertex
100
AcDbPolygonMeshVertex
 10
1.445
 20
-0.88
 30
4.667
 70
    64
  0
VERTEX
  5
5FD23
100
AcDbEntity
  8
0
100
AcDbVertex
100
AcDbPolygonMeshVertex
 10
1.945
 20
-1.38
 30
4.667
 70
    64
  0
VERTEX
  5
5FD24
100
AcDbEntity
  8
0
100
AcDbVertex
100
AcDbPolygonMeshVertex
 10
1.945
 20
-1.38
 30
4.667
 70
    64
  0
VERTEX
  5
5FD25
100
AcDbEntity
  8
0
100
AcDbVertex
100
AcDbPolygonMeshVertex
 10
1.945
 20
-0.88
 30
4.667
 70
    64
  0
SEQEND
  5
5FD26
100
AcDbEntity
  8
0
  0
CIRCLE
  5
5FD27
100
AcDbEntity
  8
0
100
AcDbCircle
 10
1.695
 20
-1.13
 30
4.667
 40
0.155
  0
POLYLINE
  5
5FD28
100
AcDbEntity
  8
0
100
AcDbPolygonMesh
 66
     1
 10
0.0
 20
0.0
 30
0.0
 70
    16
 71
     6
 72
     3
  0
VERTEX
  5
5FD29
100
AcDbEntity
  8
0
100
AcDbVertex
100
AcDbPolygonMeshVertex
 10
3.255
 20
-1.22
 30
4.917
 70
    64
  0
VERTEX
  5
5FD2A
100
AcDbEntity
  8
0
100
AcDbVertex
100
AcDbPolygonMeshVertex
 10
3.255
 20
-1.22
 30
4.027
 70
    64
  0
VERTEX
  5
5FD2B
100
AcDbEntity
  8
0
100
AcDbVertex
100
AcDbPolygonMeshVertex
 10
3.255
 20
-1.22
 30
4.027
 70
    64
  0
VERTEX
  5
5FD2C
100
AcDbEntity
  8
0
100
AcDbVertex
100
AcDbPolygonMeshVertex
 10
3.415
 20
-1.22
 30
4.917
 70
    64
  0
VERTEX
  5
5FD2D
100
AcDbEntity
  8
0
100
AcDbVertex
100
AcDbPolygonMeshVertex
 10
3.415
 20
-1.22
 30
4.027
 70
    64
  0
VERTEX
  5
5FD2E
100
AcDbEntity
  8
0
100
AcDbVertex
100
AcDbPolygonMeshVertex
 10
3.415
 20
-1.22
 30
4.027
 70
    64
  0
VERTEX
  5
5FD2F
100
AcDbEntity
  8
0
100
AcDbVertex
100
AcDbPolygonMeshVertex
 10
3.415
 20
-2.19
 30
4.917
 70
    64
  0
VERTEX
  5
5FD30
100
AcDbEntity
  8
0
100
AcDbVertex
100
AcDbPolygonMeshVertex
 10
3.415
 20
-2.19
 30
4.027
 70
    64
  0
VERTEX
  5
5FD31
100
AcDbEntity
  8
0
100
AcDbVertex
100
AcDbPolygonMeshVertex
 10
3.415
 20
-1.22
 30
4.027
 70
    64
  0
VERTEX
  5
5FD32
100
AcDbEntity
  8
0
100
AcDbVertex
100
AcDbPolygonMeshVertex
 10
3.255
 20
-2.19
 30
4.917
 70
    64
  0
VERTEX
  5
5FD33
100
AcDbEntity
  8
0
100
AcDbVertex
100
AcDbPolygonMeshVertex
 10
3.255
 20
-2.19
 30
4.027
 70
    64
  0
VERTEX
  5
5FD34
100
AcDbEntity
  8
0
100
AcDbVertex
100
AcDbPolygonMeshVertex
 10
3.255
 20
-1.22
 30
4.027
 70
    64
  0
VERTEX
  5
5FD35
100
AcDbEntity
  8
0
100
AcDbVertex
100
AcDbPolygonMeshVertex
 10
3.255
 20
-2.19
 30
4.917
 70
    64
  0
VERTEX
  5
5FD36
100
AcDbEntity
  8
0
100
AcDbVertex
100
AcDbPolygonMeshVertex
 10
3.255
 20
-2.19
 30
4.917
 70
    64
  0
VERTEX
  5
5FD37
100
AcDbEntity
  8
0
100
AcDbVertex
100
AcDbPolygonMeshVertex
 10
3.255
 20
-1.22
 30
4.917
 70
    64
  0
VERTEX
  5
5FD38
100
AcDbEntity
  8
0
100
AcDbVertex
100
AcDbPolygonMeshVertex
 10
3.415
 20
-2.19
 30
4.917
 70
    64
  0
VERTEX
  5
5FD39
100
AcDbEntity
  8
0
100
AcDbVertex
100
AcDbPolygonMeshVertex
 10
3.415
 20
-2.19
 30
4.917
 70
    64
  0
VERTEX
  5
5FD3A
100
AcDbEntity
  8
0
100
AcDbVertex
100
AcDbPolygonMeshVertex
 10
3.415
 20
-1.22
 30
4.917
 70
    64
  0
SEQEND
  5
5FD3B
100
AcDbEntity
  8
0
  0
POLYLINE
  5
5FD3C
100
AcDbEntity
  8
0
100
AcDbPolygonMesh
 66
     1
 10
0.0
 20
0.0
 30
0.0
 70
    16
 71
     6
 72
     3
  0
VERTEX
  5
5FD3D
100
AcDbEntity
  8
0
100
AcDbVertex
100
AcDbPolygonMeshVertex
 10
3.255
 20
-1.22
 30
4.027
 70
    64
  0
VERTEX
  5
5FD3E
100
AcDbEntity
  8
0
100
AcDbVertex
100
AcDbPolygonMeshVertex
 10
3.255
 20
-1.22
 30
2.757
 70
    64
  0
VERTEX
  5
5FD3F
100
AcDbEntity
  8
0
100
AcDbVertex
100
AcDbPolygonMeshVertex
 10
3.255
 20
-1.22
 30
2.757
 70
    64
  0
VERTEX
  5
5FD40
100
AcDbEntity
  8
0
100
AcDbVertex
100
AcDbPolygonMeshVertex
 10
3.415
 20
-1.22
 30
4.027
 70
    64
  0
VERTEX
  5
5FD41
100
AcDbEntity
  8
0
100
AcDbVertex
100
AcDbPolygonMeshVertex
 10
3.415
 20
-1.22
 30
2.757
 70
    64
  0
VERTEX
  5
5FD42
100
AcDbEntity
  8
0
100
AcDbVertex
100
AcDbPolygonMeshVertex
 10
3.415
 20
-1.22
 30
2.757
 70
    64
  0
VERTEX
  5
5FD43
100
AcDbEntity
  8
0
100
AcDbVertex
100
AcDbPolygonMeshVertex
 10
3.415
 20
-1.5
 30
4.027
 70
    64
  0
VERTEX
  5
5FD44
100
AcDbEntity
  8
0
100
AcDbVertex
100
AcDbPolygonMeshVertex
 10
3.415
 20
-1.5
 30
2.757
 70
    64
  0
VERTEX
  5
5FD45
100
AcDbEntity
  8
0
100
AcDbVertex
100
AcDbPolygonMeshVertex
 10
3.415
 20
-1.22
 30
2.757
 70
    64
  0
VERTEX
  5
5FD46
100
AcDbEntity
  8
0
100
AcDbVertex
100
AcDbPolygonMeshVertex
 10
3.255
 20
-1.5
 30
4.027
 70
    64
  0
VERTEX
  5
5FD47
100
AcDbEntity
  8
0
100
AcDbVertex
100
AcDbPolygonMeshVertex
 10
3.255
 20
-1.5
 30
2.757
 70
    64
  0
VERTEX
  5
5FD48
100
AcDbEntity
  8
0
100
AcDbVertex
100
AcDbPolygonMeshVertex
 10
3.255
 20
-1.22
 30
2.757
 70
    64
  0
VERTEX
  5
5FD49
100
AcDbEntity
  8
0
100
AcDbVertex
100
AcDbPolygonMeshVertex
 10
3.255
 20
-1.5
 30
4.027
 70
    64
  0
VERTEX
  5
5FD4A
100
AcDbEntity
  8
0
100
AcDbVertex
100
AcDbPolygonMeshVertex
 10
3.255
 20
-1.5
 30
4.027
 70
    64
  0
VERTEX
  5
5FD4B
100
AcDbEntity
  8
0
100
AcDbVertex
100
AcDbPolygonMeshVertex
 10
3.255
 20
-1.22
 30
4.027
 70
    64
  0
VERTEX
  5
5FD4C
100
AcDbEntity
  8
0
100
AcDbVertex
100
AcDbPolygonMeshVertex
 10
3.415
 20
-1.5
 30
4.027
 70
    64
  0
VERTEX
  5
5FD4D
100
AcDbEntity
  8
0
100
AcDbVertex
100
AcDbPolygonMeshVertex
 10
3.415
 20
-1.5
 30
4.027
 70
    64
  0
VERTEX
  5
5FD4E
100
AcDbEntity
  8
0
100
AcDbVertex
100
AcDbPolygonMeshVertex
 10
3.415
 20
-1.22
 30
4.027
 70
    64
  0
SEQEND
  5
5FD4F
100
AcDbEntity
  8
0
  0
POLYLINE
  5
5FD50
100
AcDbEntity
  8
0
100
AcDbPolygonMesh
 66
     1
 10
0.0
 20
0.0
 30
0.0
 70
    16
 71
     6
 72
     3
  0
VERTEX
  5
5FD51
100
AcDbEntity
  8
0
100
AcDbVertex
100
AcDbPolygonMeshVertex
 10
2.095
 20
-1.22
 30
4.027
 70
    64
  0
VERTEX
  5
5FD52
100
AcDbEntity
  8
0
100
AcDbVertex
100
AcDbPolygonMeshVertex
 10
2.095
 20
-1.22
 30
2.757
 70
    64
  0
VERTEX
  5
5FD53
100
AcDbEntity
  8
0
100
AcDbVertex
100
AcDbPolygonMeshVertex
 10
2.095
 20
-1.22
 30
2.757
 70
    64
  0
VERTEX
  5
5FD54
100
AcDbEntity
  8
0
100
AcDbVertex
100
AcDbPolygonMeshVertex
 10
2.255
 20
-1.22
 30
4.027
 70
    64
  0
VERTEX
  5
5FD55
100
AcDbEntity
  8
0
100
AcDbVertex
100
AcDbPolygonMeshVertex
 10
2.255
 20
-1.22
 30
2.757
 70
    64
  0
VERTEX
  5
5FD56
100
AcDbEntity
  8
0
100
AcDbVertex
100
AcDbPolygonMeshVertex
 10
2.255
 20
-1.22
 30
2.757
 70
    64
  0
VERTEX
  5
5FD57
100
AcDbEntity
  8
0
100
AcDbVertex
100
AcDbPolygonMeshVertex
 10
2.255
 20
-1.5
 30
4.027
 70
    64
  0
VERTEX
  5
5FD58
100
AcDbEntity
  8
0
100
AcDbVertex
100
AcDbPolygonMeshVertex
 10
2.255
 20
-1.5
 30
2.757
 70
    64
  0
VERTEX
  5
5FD59
100
AcDbEntity
  8
0
100
AcDbVertex
100
AcDbPolygonMeshVertex
 10
2.255
 20
-1.22
 30
2.757
 70
    64
  0
VERTEX
  5
5FD5A
100
AcDbEntity
  8
0
100
AcDbVertex
100
AcDbPolygonMeshVertex
 10
2.095
 20
-1.5
 30
4.027
 70
    64
  0
VERTEX
  5
5FD5B
100
AcDbEntity
  8
0
100
AcDbVertex
100
AcDbPolygonMeshVertex
 10
2.095
 20
-1.5
 30
2.757
 70
    64
  0
VERTEX
  5
5FD5C
100
AcDbEntity
  8
0
100
AcDbVertex
100
AcDbPolygonMeshVertex
 10
2.095
 20
-1.22
 30
2.757
 70
    64
  0
VERTEX
  5
5FD5D
100
AcDbEntity
  8
0
100
AcDbVertex
100
AcDbPolygonMeshVertex
 10
2.095
 20
-1.5
 30
4.027
 70
    64
  0
VERTEX
  5
5FD5E
100
AcDbEntity
  8
0
100
AcDbVertex
100
AcDbPolygonMeshVertex
 10
2.095
 20
-1.5
 30
4.027
 70
    64
  0
VERTEX
  5
5FD5F
100
AcDbEntity
  8
0
100
AcDbVertex
100
AcDbPolygonMeshVertex
 10
2.095
 20
-1.22
 30
4.027
 70
    64
  0
VERTEX
  5
5FD60
100
AcDbEntity
  8
0
100
AcDbVertex
100
AcDbPolygonMeshVertex
 10
2.255
 20
-1.5
 30
4.027
 70
    64
  0
VERTEX
  5
5FD61
100
AcDbEntity
  8
0
100
AcDbVertex
100
AcDbPolygonMeshVertex
 10
2.255
 20
-1.5
 30
4.027
 70
    64
  0
VERTEX
  5
5FD62
100
AcDbEntity
  8
0
100
AcDbVertex
100
AcDbPolygonMeshVertex
 10
2.255
 20
-1.22
 30
4.027
 70
    64
  0
SEQEND
  5
5FD63
100
AcDbEntity
  8
0
  0
POLYLINE
  5
5FD64
100
AcDbEntity
  8
0
100
AcDbPolygonMesh
 66
     1
 10
0.0
 20
0.0
 30
0.0
 70
    16
 71
     6
 72
     3
  0
VERTEX
  5
5FD65
100
AcDbEntity
  8
0
100
AcDbVertex
100
AcDbPolygonMeshVertex
 10
2.095
 20
-1.22
 30
4.917
 70
    64
  0
VERTEX
  5
5FD66
100
AcDbEntity
  8
0
100
AcDbVertex
100
AcDbPolygonMeshVertex
 10
2.095
 20
-1.22
 30
4.027
 70
    64
  0
VERTEX
  5
5FD67
100
AcDbEntity
  8
0
100
AcDbVertex
100
AcDbPolygonMeshVertex
 10
2.095
 20
-1.22
 30
4.027
 70
    64
  0
VERTEX
  5
5FD68
100
AcDbEntity
  8
0
100
AcDbVertex
100
AcDbPolygonMeshVertex
 10
2.255
 20
-1.22
 30
4.917
 70
    64
  0
VERTEX
  5
5FD69
100
AcDbEntity
  8
0
100
AcDbVertex
100
AcDbPolygonMeshVertex
 10
2.255
 20
-1.22
 30
4.027
 70
    64
  0
VERTEX
  5
5FD6A
100
AcDbEntity
  8
0
100
AcDbVertex
100
AcDbPolygonMeshVertex
 10
2.255
 20
-1.22
 30
4.027
 70
    64
  0
VERTEX
  5
5FD6B
100
AcDbEntity
  8
0
100
AcDbVertex
100
AcDbPolygonMeshVertex
 10
2.255
 20
-2.19
 30
4.917
 70
    64
  0
VERTEX
  5
5FD6C
100
AcDbEntity
  8
0
100
AcDbVertex
100
AcDbPolygonMeshVertex
 10
2.255
 20
-2.19
 30
4.027
 70
    64
  0
VERTEX
  5
5FD6D
100
AcDbEntity
  8
0
100
AcDbVertex
100
AcDbPolygonMeshVertex
 10
2.255
 20
-1.22
 30
4.027
 70
    64
  0
VERTEX
  5
5FD6E
100
AcDbEntity
  8
0
100
AcDbVertex
100
AcDbPolygonMeshVertex
 10
2.095
 20
-2.19
 30
4.917
 70
    64
  0
VERTEX
  5
5FD6F
100
AcDbEntity
  8
0
100
AcDbVertex
100
AcDbPolygonMeshVertex
 10
2.095
 20
-2.19
 30
4.027
 70
    64
  0
VERTEX
  5
5FD70
100
AcDbEntity
  8
0
100
AcDbVertex
100
AcDbPolygonMeshVertex
 10
2.095
 20
-1.22
 30
4.027
 70
    64
  0
VERTEX
  5
5FD71
100
AcDbEntity
  8
0
100
AcDbVertex
100
AcDbPolygonMeshVertex
 10
2.095
 20
-2.19
 30
4.917
 70
    64
  0
VERTEX
  5
5FD72
100
AcDbEntity
  8
0
100
AcDbVertex
100
AcDbPolygonMeshVertex
 10
2.095
 20
-2.19
 30
4.917
 70
    64
  0
VERTEX
  5
5FD73
100
AcDbEntity
  8
0
100
AcDbVertex
100
AcDbPolygonMeshVertex
 10
2.095
 20
-1.22
 30
4.917
 70
    64
  0
VERTEX
  5
5FD74
100
AcDbEntity
  8
0
100
AcDbVertex
100
AcDbPolygonMeshVertex
 10
2.255
 20
-2.19
 30
4.917
 70
    64
  0
VERTEX
  5
5FD75
100
AcDbEntity
  8
0
100
AcDbVertex
100
AcDbPolygonMeshVertex
 10
2.255
 20
-2.19
 30
4.917
 70
    64
  0
VERTEX
  5
5FD76
100
AcDbEntity
  8
0
100
AcDbVertex
100
AcDbPolygonMeshVertex
 10
2.255
 20
-1.22
 30
4.917
 70
    64
  0
SEQEND
  5
5FD77
100
AcDbEntity
  8
0
  0
POLYLINE
  5
5FD78
100
AcDbEntity
  8
0
100
AcDbPolygonMesh
 66
     1
 10
0.0
 20
0.0
 30
0.0
 70
    16
 71
     6
 72
     3
  0
VERTEX
  5
5FD79
100
AcDbEntity
  8
0
100
AcDbVertex
100
AcDbPolygonMeshVertex
 10
4.565
 20
-8.53
 30
3.757
 70
    64
  0
VERTEX
  5
5FD7A
100
AcDbEntity
  8
0
100
AcDbVertex
100
AcDbPolygonMeshVertex
 10
4.565
 20
-8.53
 30
0.387
 70
    64
  0
VERTEX
  5
5FD7B
100
AcDbEntity
  8
0
100
AcDbVertex
100
AcDbPolygonMeshVertex
 10
4.565
 20
-8.53
 30
0.387
 70
    64
  0
VERTEX
  5
5FD7C
100
AcDbEntity
  8
0
100
AcDbVertex
100
AcDbPolygonMeshVertex
 10
0.945
 20
-8.53
 30
3.757
 70
    64
  0
VERTEX
  5
5FD7D
100
AcDbEntity
  8
0
100
AcDbVertex
100
AcDbPolygonMeshVertex
 10
0.945
 20
-8.53
 30
0.387
 70
    64
  0
VERTEX
  5
5FD7E
100
AcDbEntity
  8
0
100
AcDbVertex
100
AcDbPolygonMeshVertex
 10
0.945
 20
-8.53
 30
0.387
 70
    64
  0
VERTEX
  5
5FD7F
100
AcDbEntity
  8
0
100
AcDbVertex
100
AcDbPolygonMeshVertex
 10
0.945
 20
-6.71
 30
3.757
 70
    64
  0
VERTEX
  5
5FD80
100
AcDbEntity
  8
0
100
AcDbVertex
100
AcDbPolygonMeshVertex
 10
0.945
 20
-6.71
 30
0.387
 70
    64
  0
VERTEX
  5
5FD81
100
AcDbEntity
  8
0
100
AcDbVertex
100
AcDbPolygonMeshVertex
 10
0.945
 20
-8.53
 30
0.387
 70
    64
  0
VERTEX
  5
5FD82
100
AcDbEntity
  8
0
100
AcDbVertex
100
AcDbPolygonMeshVertex
 10
4.565
 20
-6.71
 30
3.757
 70
    64
  0
VERTEX
  5
5FD83
100
AcDbEntity
  8
0
100
AcDbVertex
100
AcDbPolygonMeshVertex
 10
4.565
 20
-6.71
 30
0.387
 70
    64
  0
VERTEX
  5
5FD84
100
AcDbEntity
  8
0
100
AcDbVertex
100
AcDbPolygonMeshVertex
 10
4.565
 20
-8.53
 30
0.387
 70
    64
  0
VERTEX
  5
5FD85
100
AcDbEntity
  8
0
100
AcDbVertex
100
AcDbPolygonMeshVertex
 10
4.565
 20
-6.71
 30
3.757
 70
    64
  0
VERTEX
  5
5FD86
100
AcDbEntity
  8
0
100
AcDbVertex
100
AcDbPolygonMeshVertex
 10
4.565
 20
-6.71
 30
3.757
 70
    64
  0
VERTEX
  5
5FD87
100
AcDbEntity
  8
0
100
AcDbVertex
100
AcDbPolygonMeshVertex
 10
4.565
 20
-8.53
 30
3.757
 70
    64
  0
VERTEX
  5
5FD88
100
AcDbEntity
  8
0
100
AcDbVertex
100
AcDbPolygonMeshVertex
 10
0.945
 20
-6.71
 30
3.757
 70
    64
  0
VERTEX
  5
5FD89
100
AcDbEntity
  8
0
100
AcDbVertex
100
AcDbPolygonMeshVertex
 10
0.945
 20
-6.71
 30
3.757
 70
    64
  0
VERTEX
  5
5FD8A
100
AcDbEntity
  8
0
100
AcDbVertex
100
AcDbPolygonMeshVertex
 10
0.945
 20
-8.53
 30
3.757
 70
    64
  0
SEQEND
  5
5FD8B
100
AcDbEntity
  8
0
  0
LINE
  5
5FD8C
100
AcDbEntity
  8
0
100
AcDbLine
 10
0.945
 20
-8.99
 30
1.877
 11
0.945
 21
-8.53
 31
1.877
  0
POLYLINE
  5
5FD8D
100
AcDbEntity
  8
0
100
AcDbPolygonMesh
 66
     1
 10
0.0
 20
0.0
 30
0.0
 70
    16
 71
     6
 72
     3
  0
VERTEX
  5
5FD8E
100
AcDbEntity
  8
0
100
AcDbVertex
100
AcDbPolygonMeshVertex
 10
0.945
 20
-8.53
 30
0.387
 70
    64
  0
VERTEX
  5
5FD8F
100
AcDbEntity
  8
0
100
AcDbVertex
100
AcDbPolygonMeshVertex
 10
0.945
 20
-8.53
 30
0.387
 70
    64
  0
VERTEX
  5
5FD90
100
AcDbEntity
  8
0
100
AcDbVertex
100
AcDbPolygonMeshVertex
 10
0.945
 20
-8.53
 30
0.387
 70
    64
  0
VERTEX
  5
5FD91
100
AcDbEntity
  8
0
100
AcDbVertex
100
AcDbPolygonMeshVertex
 10
0.945
 20
-8.99
 30
1.877
 70
    64
  0
VERTEX
  5
5FD92
100
AcDbEntity
  8
0
100
AcDbVertex
100
AcDbPolygonMeshVertex
 10
0.945
 20
-8.53
 30
1.877
 70
    64
  0
VERTEX
  5
5FD93
100
AcDbEntity
  8
0
100
AcDbVertex
100
AcDbPolygonMeshVertex
 10
0.945
 20
-8.53
 30
1.877
 70
    64
  0
VERTEX
  5
5FD94
100
AcDbEntity
  8
0
100
AcDbVertex
100
AcDbPolygonMeshVertex
 10
4.565
 20
-8.99
 30
1.877
 70
    64
  0
VERTEX
  5
5FD95
100
AcDbEntity
  8
0
100
AcDbVertex
100
AcDbPolygonMeshVertex
 10
4.565
 20
-8.53
 30
1.877
 70
    64
  0
VERTEX
  5
5FD96
100
AcDbEntity
  8
0
100
AcDbVertex
100
AcDbPolygonMeshVertex
 10
0.945
 20
-8.53
 30
1.877
 70
    64
  0
VERTEX
  5
5FD97
100
AcDbEntity
  8
0
100
AcDbVertex
100
AcDbPolygonMeshVertex
 10
4.565
 20
-8.53
 30
0.387
 70
    64
  0
VERTEX
  5
5FD98
100
AcDbEntity
  8
0
100
AcDbVertex
100
AcDbPolygonMeshVertex
 10
4.565
 20
-8.53
 30
0.387
 70
    64
  0
VERTEX
  5
5FD99
100
AcDbEntity
  8
0
100
AcDbVertex
100
AcDbPolygonMeshVertex
 10
0.945
 20
-8.53
 30
0.387
 70
    64
  0
VERTEX
  5
5FD9A
100
AcDbEntity
  8
0
100
AcDbVertex
100
AcDbPolygonMeshVertex
 10
4.565
 20
-8.53
 30
0.387
 70
    64
  0
VERTEX
  5
5FD9B
100
AcDbEntity
  8
0
100
AcDbVertex
100
AcDbPolygonMeshVertex
 10
4.565
 20
-8.53
 30
0.387
 70
    64
  0
VERTEX
  5
5FD9C
100
AcDbEntity
  8
0
100
AcDbVertex
100
AcDbPolygonMeshVertex
 10
0.945
 20
-8.53
 30
0.387
 70
    64
  0
VERTEX
  5
5FD9D
100
AcDbEntity
  8
0
100
AcDbVertex
100
AcDbPolygonMeshVertex
 10
4.565
 20
-8.99
 30
1.877
 70
    64
  0
VERTEX
  5
5FD9E
100
AcDbEntity
  8
0
100
AcDbVertex
100
AcDbPolygonMeshVertex
 10
4.565
 20
-8.99
 30
1.877
 70
    64
  0
VERTEX
  5
5FD9F
100
AcDbEntity
  8
0
100
AcDbVertex
100
AcDbPolygonMeshVertex
 10
0.945
 20
-8.99
 30
1.877
 70
    64
  0
SEQEND
  5
5FDA0
100
AcDbEntity
  8
0
  0
POLYLINE
  5
5FDA1
100
AcDbEntity
  8
0
100
AcDbPolygonMesh
 66
     1
 10
0.0
 20
0.0
 30
0.0
 70
    16
 71
     6
 72
     3
  0
VERTEX
  5
5FDA2
100
AcDbEntity
  8
0
100
AcDbVertex
100
AcDbPolygonMeshVertex
 10
4.565
 20
-8.99
 30
2.257
 70
    64
  0
VERTEX
  5
5FDA3
100
AcDbEntity
  8
0
100
AcDbVertex
100
AcDbPolygonMeshVertex
 10
4.565
 20
-8.99
 30
1.877
 70
    64
  0
VERTEX
  5
5FDA4
100
AcDbEntity
  8
0
100
AcDbVertex
100
AcDbPolygonMeshVertex
 10
4.565
 20
-8.99
 30
1.877
 70
    64
  0
VERTEX
  5
5FDA5
100
AcDbEntity
  8
0
100
AcDbVertex
100
AcDbPolygonMeshVertex
 10
0.945
 20
-8.99
 30
2.257
 70
    64
  0
VERTEX
  5
5FDA6
100
AcDbEntity
  8
0
100
AcDbVertex
100
AcDbPolygonMeshVertex
 10
0.945
 20
-8.99
 30
1.877
 70
    64
  0
VERTEX
  5
5FDA7
100
AcDbEntity
  8
0
100
AcDbVertex
100
AcDbPolygonMeshVertex
 10
0.945
 20
-8.99
 30
1.877
 70
    64
  0
VERTEX
  5
5FDA8
100
AcDbEntity
  8
0
100
AcDbVertex
100
AcDbPolygonMeshVertex
 10
0.945
 20
-8.53
 30
2.257
 70
    64
  0
VERTEX
  5
5FDA9
100
AcDbEntity
  8
0
100
AcDbVertex
100
AcDbPolygonMeshVertex
 10
0.945
 20
-8.53
 30
1.877
 70
    64
  0
VERTEX
  5
5FDAA
100
AcDbEntity
  8
0
100
AcDbVertex
100
AcDbPolygonMeshVertex
 10
0.945
 20
-8.99
 30
1.877
 70
    64
  0
VERTEX
  5
5FDAB
100
AcDbEntity
  8
0
100
AcDbVertex
100
AcDbPolygonMeshVertex
 10
4.565
 20
-8.53
 30
2.257
 70
    64
  0
VERTEX
  5
5FDAC
100
AcDbEntity
  8
0
100
AcDbVertex
100
AcDbPolygonMeshVertex
 10
4.565
 20
-8.53
 30
1.877
 70
    64
  0
VERTEX
  5
5FDAD
100
AcDbEntity
  8
0
100
AcDbVertex
100
AcDbPolygonMeshVertex
 10
4.565
 20
-8.99
 30
1.877
 70
    64
  0
VERTEX
  5
5FDAE
100
AcDbEntity
  8
0
100
AcDbVertex
100
AcDbPolygonMeshVertex
 10
4.565
 20
-8.53
 30
2.257
 70
    64
  0
VERTEX
  5
5FDAF
100
AcDbEntity
  8
0
100
AcDbVertex
100
AcDbPolygonMeshVertex
 10
4.565
 20
-8.53
 30
2.257
 70
    64
  0
VERTEX
  5
5FDB0
100
AcDbEntity
  8
0
100
AcDbVertex
100
AcDbPolygonMeshVertex
 10
4.565
 20
-8.99
 30
2.257
 70
    64
  0
VERTEX
  5
5FDB1
100
AcDbEntity
  8
0
100
AcDbVertex
100
AcDbPolygonMeshVertex
 10
0.945
 20
-8.53
 30
2.257
 70
    64
  0
VERTEX
  5
5FDB2
100
AcDbEntity
  8
0
100
AcDbVertex
100
AcDbPolygonMeshVertex
 10
0.945
 20
-8.53
 30
2.257
 70
    64
  0
VERTEX
  5
5FDB3
100
AcDbEntity
  8
0
100
AcDbVertex
100
AcDbPolygonMeshVertex
 10
0.945
 20
-8.99
 30
2.257
 70
    64
  0
SEQEND
  5
5FDB4
100
AcDbEntity
  8
0
  0
POLYLINE
  5
5FDB5
100
AcDbEntity
  8
0
100
AcDbPolygonMesh
 66
     1
 10
0.0
 20
0.0
 30
0.0
 70
    16
 71
     6
 72
     3
  0
VERTEX
  5
5FDB6
100
AcDbEntity
  8
0
100
AcDbVertex
100
AcDbPolygonMeshVertex
 10
1.445
 20
-8.53
 30
2.597
 70
    64
  0
VERTEX
  5
5FDB7
100
AcDbEntity
  8
0
100
AcDbVertex
100
AcDbPolygonMeshVertex
 10
1.445
 20
-8.53
 30
2.257
 70
    64
  0
VERTEX
  5
5FDB8
100
AcDbEntity
  8
0
100
AcDbVertex
100
AcDbPolygonMeshVertex
 10
1.445
 20
-8.53
 30
2.257
 70
    64
  0
VERTEX
  5
5FDB9
100
AcDbEntity
  8
0
100
AcDbVertex
100
AcDbPolygonMeshVertex
 10
1.945
 20
-8.53
 30
2.597
 70
    64
  0
VERTEX
  5
5FDBA
100
AcDbEntity
  8
0
100
AcDbVertex
100
AcDbPolygonMeshVertex
 10
1.945
 20
-8.53
 30
2.257
 70
    64
  0
VERTEX
  5
5FDBB
100
AcDbEntity
  8
0
100
AcDbVertex
100
AcDbPolygonMeshVertex
 10
1.945
 20
-8.53
 30
2.257
 70
    64
  0
VERTEX
  5
5FDBC
100
AcDbEntity
  8
0
100
AcDbVertex
100
AcDbPolygonMeshVertex
 10
1.945
 20
-9.47
 30
2.597
 70
    64
  0
VERTEX
  5
5FDBD
100
AcDbEntity
  8
0
100
AcDbVertex
100
AcDbPolygonMeshVertex
 10
1.945
 20
-9.47
 30
2.257
 70
    64
  0
VERTEX
  5
5FDBE
100
AcDbEntity
  8
0
100
AcDbVertex
100
AcDbPolygonMeshVertex
 10
1.945
 20
-8.53
 30
2.257
 70
    64
  0
VERTEX
  5
5FDBF
100
AcDbEntity
  8
0
100
AcDbVertex
100
AcDbPolygonMeshVertex
 10
1.445
 20
-9.47
 30
2.597
 70
    64
  0
VERTEX
  5
5FDC0
100
AcDbEntity
  8
0
100
AcDbVertex
100
AcDbPolygonMeshVertex
 10
1.445
 20
-9.47
 30
2.257
 70
    64
  0
VERTEX
  5
5FDC1
100
AcDbEntity
  8
0
100
AcDbVertex
100
AcDbPolygonMeshVertex
 10
1.445
 20
-8.53
 30
2.257
 70
    64
  0
VERTEX
  5
5FDC2
100
AcDbEntity
  8
0
100
AcDbVertex
100
AcDbPolygonMeshVertex
 10
1.445
 20
-9.47
 30
2.597
 70
    64
  0
VERTEX
  5
5FDC3
100
AcDbEntity
  8
0
100
AcDbVertex
100
AcDbPolygonMeshVertex
 10
1.445
 20
-9.47
 30
2.597
 70
    64
  0
VERTEX
  5
5FDC4
100
AcDbEntity
  8
0
100
AcDbVertex
100
AcDbPolygonMeshVertex
 10
1.445
 20
-8.53
 30
2.597
 70
    64
  0
VERTEX
  5
5FDC5
100
AcDbEntity
  8
0
100
AcDbVertex
100
AcDbPolygonMeshVertex
 10
1.945
 20
-9.47
 30
2.597
 70
    64
  0
VERTEX
  5
5FDC6
100
AcDbEntity
  8
0
100
AcDbVertex
100
AcDbPolygonMeshVertex
 10
1.945
 20
-9.47
 30
2.597
 70
    64
  0
VERTEX
  5
5FDC7
100
AcDbEntity
  8
0
100
AcDbVertex
100
AcDbPolygonMeshVertex
 10
1.945
 20
-8.53
 30
2.597
 70
    64
  0
SEQEND
  5
5FDC8
100
AcDbEntity
  8
0
  0
POLYLINE
  5
5FDC9
100
AcDbEntity
  8
0
100
AcDbPolygonMesh
 66
     1
 10
0.0
 20
0.0
 30
0.0
 70
    16
 71
     6
 72
     3
  0
VERTEX
  5
5FDCA
100
AcDbEntity
  8
0
100
AcDbVertex
100
AcDbPolygonMeshVertex
 10
1.945
 20
-9.47
 30
2.727
 70
    64
  0
VERTEX
  5
5FDCB
100
AcDbEntity
  8
0
100
AcDbVertex
100
AcDbPolygonMeshVertex
 10
1.945
 20
-9.47
 30
2.597
 70
    64
  0
VERTEX
  5
5FDCC
100
AcDbEntity
  8
0
100
AcDbVertex
100
AcDbPolygonMeshVertex
 10
1.945
 20
-9.47
 30
2.597
 70
    64
  0
VERTEX
  5
5FDCD
100
AcDbEntity
  8
0
100
AcDbVertex
100
AcDbPolygonMeshVertex
 10
1.445
 20
-9.47
 30
2.727
 70
    64
  0
VERTEX
  5
5FDCE
100
AcDbEntity
  8
0
100
AcDbVertex
100
AcDbPolygonMeshVertex
 10
1.445
 20
-9.47
 30
2.597
 70
    64
  0
VERTEX
  5
5FDCF
100
AcDbEntity
  8
0
100
AcDbVertex
100
AcDbPolygonMeshVertex
 10
1.445
 20
-9.47
 30
2.597
 70
    64
  0
VERTEX
  5
5FDD0
100
AcDbEntity
  8
0
100
AcDbVertex
100
AcDbPolygonMeshVertex
 10
1.445
 20
-8.97
 30
2.727
 70
    64
  0
VERTEX
  5
5FDD1
100
AcDbEntity
  8
0
100
AcDbVertex
100
AcDbPolygonMeshVertex
 10
1.445
 20
-8.97
 30
2.597
 70
    64
  0
VERTEX
  5
5FDD2
100
AcDbEntity
  8
0
100
AcDbVertex
100
AcDbPolygonMeshVertex
 10
1.445
 20
-9.47
 30
2.597
 70
    64
  0
VERTEX
  5
5FDD3
100
AcDbEntity
  8
0
100
AcDbVertex
100
AcDbPolygonMeshVertex
 10
1.945
 20
-8.97
 30
2.727
 70
    64
  0
VERTEX
  5
5FDD4
100
AcDbEntity
  8
0
100
AcDbVertex
100
AcDbPolygonMeshVertex
 10
1.945
 20
-8.97
 30
2.597
 70
    64
  0
VERTEX
  5
5FDD5
100
AcDbEntity
  8
0
100
AcDbVertex
100
AcDbPolygonMeshVertex
 10
1.945
 20
-9.47
 30
2.597
 70
    64
  0
VERTEX
  5
5FDD6
100
AcDbEntity
  8
0
100
AcDbVertex
100
AcDbPolygonMeshVertex
 10
1.945
 20
-8.97
 30
2.727
 70
    64
  0
VERTEX
  5
5FDD7
100
AcDbEntity
  8
0
100
AcDbVertex
100
AcDbPolygonMeshVertex
 10
1.945
 20
-8.97
 30
2.727
 70
    64
  0
VERTEX
  5
5FDD8
100
AcDbEntity
  8
0
100
AcDbVertex
100
AcDbPolygonMeshVertex
 10
1.945
 20
-9.47
 30
2.727
 70
    64
  0
VERTEX
  5
5FDD9
100
AcDbEntity
  8
0
100
AcDbVertex
100
AcDbPolygonMeshVertex
 10
1.445
 20
-8.97
 30
2.727
 70
    64
  0
VERTEX
  5
5FDDA
100
AcDbEntity
  8
0
100
AcDbVertex
100
AcDbPolygonMeshVertex
 10
1.445
 20
-8.97
 30
2.727
 70
    64
  0
VERTEX
  5
5FDDB
100
AcDbEntity
  8
0
100
AcDbVertex
100
AcDbPolygonMeshVertex
 10
1.445
 20
-9.47
 30
2.727
 70
    64
  0
SEQEND
  5
5FDDC
100
AcDbEntity
  8
0
  0
POLYLINE
  5
5FDDD
100
AcDbEntity
  8
0
100
AcDbPolygonMesh
 66
     1
 10
0.0
 20
0.0
 30
0.0
 70
    16
 71
     6
 72
     3
  0
VERTEX
  5
5FDDE
100
AcDbEntity
  8
0
100
AcDbVertex
100
AcDbPolygonMeshVertex
 10
2.375
 20
-8.99
 30
2.847
 70
    64
  0
VERTEX
  5
5FDDF
100
AcDbEntity
  8
0
100
AcDbVertex
100
AcDbPolygonMeshVertex
 10
2.375
 20
-8.99
 30
2.257
 70
    64
  0
VERTEX
  5
5FDE0
100
AcDbEntity
  8
0
100
AcDbVertex
100
AcDbPolygonMeshVertex
 10
2.375
 20
-8.99
 30
2.257
 70
    64
  0
VERTEX
  5
5FDE1
100
AcDbEntity
  8
0
100
AcDbVertex
100
AcDbPolygonMeshVertex
 10
2.065
 20
-8.99
 30
2.847
 70
    64
  0
VERTEX
  5
5FDE2
100
AcDbEntity
  8
0
100
AcDbVertex
100
AcDbPolygonMeshVertex
 10
2.065
 20
-8.99
 30
2.257
 70
    64
  0
VERTEX
  5
5FDE3
100
AcDbEntity
  8
0
100
AcDbVertex
100
AcDbPolygonMeshVertex
 10
2.065
 20
-8.99
 30
2.257
 70
    64
  0
VERTEX
  5
5FDE4
100
AcDbEntity
  8
0
100
AcDbVertex
100
AcDbPolygonMeshVertex
 10
2.065
 20
-8.53
 30
2.847
 70
    64
  0
VERTEX
  5
5FDE5
100
AcDbEntity
  8
0
100
AcDbVertex
100
AcDbPolygonMeshVertex
 10
2.065
 20
-8.53
 30
2.257
 70
    64
  0
VERTEX
  5
5FDE6
100
AcDbEntity
  8
0
100
AcDbVertex
100
AcDbPolygonMeshVertex
 10
2.065
 20
-8.99
 30
2.257
 70
    64
  0
VERTEX
  5
5FDE7
100
AcDbEntity
  8
0
100
AcDbVertex
100
AcDbPolygonMeshVertex
 10
2.375
 20
-8.53
 30
2.847
 70
    64
  0
VERTEX
  5
5FDE8
100
AcDbEntity
  8
0
100
AcDbVertex
100
AcDbPolygonMeshVertex
 10
2.375
 20
-8.53
 30
2.257
 70
    64
  0
VERTEX
  5
5FDE9
100
AcDbEntity
  8
0
100
AcDbVertex
100
AcDbPolygonMeshVertex
 10
2.375
 20
-8.99
 30
2.257
 70
    64
  0
VERTEX
  5
5FDEA
100
AcDbEntity
  8
0
100
AcDbVertex
100
AcDbPolygonMeshVertex
 10
2.375
 20
-8.53
 30
2.847
 70
    64
  0
VERTEX
  5
5FDEB
100
AcDbEntity
  8
0
100
AcDbVertex
100
AcDbPolygonMeshVertex
 10
2.375
 20
-8.53
 30
2.847
 70
    64
  0
VERTEX
  5
5FDEC
100
AcDbEntity
  8
0
100
AcDbVertex
100
AcDbPolygonMeshVertex
 10
2.375
 20
-8.99
 30
2.847
 70
    64
  0
VERTEX
  5
5FDED
100
AcDbEntity
  8
0
100
AcDbVertex
100
AcDbPolygonMeshVertex
 10
2.065
 20
-8.53
 30
2.847
 70
    64
  0
VERTEX
  5
5FDEE
100
AcDbEntity
  8
0
100
AcDbVertex
100
AcDbPolygonMeshVertex
 10
2.065
 20
-8.53
 30
2.847
 70
    64
  0
VERTEX
  5
5FDEF
100
AcDbEntity
  8
0
100
AcDbVertex
100
AcDbPolygonMeshVertex
 10
2.065
 20
-8.99
 30
2.847
 70
    64
  0
SEQEND
  5
5FDF0
100
AcDbEntity
  8
0
  0
POLYLINE
  5
5FDF1
100
AcDbEntity
  8
0
100
AcDbPolygonMesh
 66
     1
 10
0.0
 20
0.0
 30
0.0
 70
    16
 71
     6
 72
     3
  0
VERTEX
  5
5FDF2
100
AcDbEntity
  8
0
100
AcDbVertex
100
AcDbPolygonMeshVertex
 10
2.505
 20
-8.53
 30
2.597
 70
    64
  0
VERTEX
  5
5FDF3
100
AcDbEntity
  8
0
100
AcDbVertex
100
AcDbPolygonMeshVertex
 10
2.505
 20
-8.53
 30
2.257
 70
    64
  0
VERTEX
  5
5FDF4
100
AcDbEntity
  8
0
100
AcDbVertex
100
AcDbPolygonMeshVertex
 10
2.505
 20
-8.53
 30
2.257
 70
    64
  0
VERTEX
  5
5FDF5
100
AcDbEntity
  8
0
100
AcDbVertex
100
AcDbPolygonMeshVertex
 10
3.005
 20
-8.53
 30
2.597
 70
    64
  0
VERTEX
  5
5FDF6
100
AcDbEntity
  8
0
100
AcDbVertex
100
AcDbPolygonMeshVertex
 10
3.005
 20
-8.53
 30
2.257
 70
    64
  0
VERTEX
  5
5FDF7
100
AcDbEntity
  8
0
100
AcDbVertex
100
AcDbPolygonMeshVertex
 10
3.005
 20
-8.53
 30
2.257
 70
    64
  0
VERTEX
  5
5FDF8
100
AcDbEntity
  8
0
100
AcDbVertex
100
AcDbPolygonMeshVertex
 10
3.005
 20
-9.47
 30
2.597
 70
    64
  0
VERTEX
  5
5FDF9
100
AcDbEntity
  8
0
100
AcDbVertex
100
AcDbPolygonMeshVertex
 10
3.005
 20
-9.47
 30
2.257
 70
    64
  0
VERTEX
  5
5FDFA
100
AcDbEntity
  8
0
100
AcDbVertex
100
AcDbPolygonMeshVertex
 10
3.005
 20
-8.53
 30
2.257
 70
    64
  0
VERTEX
  5
5FDFB
100
AcDbEntity
  8
0
100
AcDbVertex
100
AcDbPolygonMeshVertex
 10
2.505
 20
-9.47
 30
2.597
 70
    64
  0
VERTEX
  5
5FDFC
100
AcDbEntity
  8
0
100
AcDbVertex
100
AcDbPolygonMeshVertex
 10
2.505
 20
-9.47
 30
2.257
 70
    64
  0
VERTEX
  5
5FDFD
100
AcDbEntity
  8
0
100
AcDbVertex
100
AcDbPolygonMeshVertex
 10
2.505
 20
-8.53
 30
2.257
 70
    64
  0
VERTEX
  5
5FDFE
100
AcDbEntity
  8
0
100
AcDbVertex
100
AcDbPolygonMeshVertex
 10
2.505
 20
-9.47
 30
2.597
 70
    64
  0
VERTEX
  5
5FDFF
100
AcDbEntity
  8
0
100
AcDbVertex
100
AcDbPolygonMeshVertex
 10
2.505
 20
-9.47
 30
2.597
 70
    64
  0
VERTEX
  5
5FE00
100
AcDbEntity
  8
0
100
AcDbVertex
100
AcDbPolygonMeshVertex
 10
2.505
 20
-8.53
 30
2.597
 70
    64
  0
VERTEX
  5
5FE01
100
AcDbEntity
  8
0
100
AcDbVertex
100
AcDbPolygonMeshVertex
 10
3.005
 20
-9.47
 30
2.597
 70
    64
  0
VERTEX
  5
5FE02
100
AcDbEntity
  8
0
100
AcDbVertex
100
AcDbPolygonMeshVertex
 10
3.005
 20
-9.47
 30
2.597
 70
    64
  0
VERTEX
  5
5FE03
100
AcDbEntity
  8
0
100
AcDbVertex
100
AcDbPolygonMeshVertex
 10
3.005
 20
-8.53
 30
2.597
 70
    64
  0
SEQEND
  5
5FE04
100
AcDbEntity
  8
0
  0
POLYLINE
  5
5FE05
100
AcDbEntity
  8
0
100
AcDbPolygonMesh
 66
     1
 10
0.0
 20
0.0
 30
0.0
 70
    16
 71
     6
 72
     3
  0
VERTEX
  5
5FE06
100
AcDbEntity
  8
0
100
AcDbVertex
100
AcDbPolygonMeshVertex
 10
3.005
 20
-9.47
 30
2.727
 70
    64
  0
VERTEX
  5
5FE07
100
AcDbEntity
  8
0
100
AcDbVertex
100
AcDbPolygonMeshVertex
 10
3.005
 20
-9.47
 30
2.597
 70
    64
  0
VERTEX
  5
5FE08
100
AcDbEntity
  8
0
100
AcDbVertex
100
AcDbPolygonMeshVertex
 10
3.005
 20
-9.47
 30
2.597
 70
    64
  0
VERTEX
  5
5FE09
100
AcDbEntity
  8
0
100
AcDbVertex
100
AcDbPolygonMeshVertex
 10
2.505
 20
-9.47
 30
2.727
 70
    64
  0
VERTEX
  5
5FE0A
100
AcDbEntity
  8
0
100
AcDbVertex
100
AcDbPolygonMeshVertex
 10
2.505
 20
-9.47
 30
2.597
 70
    64
  0
VERTEX
  5
5FE0B
100
AcDbEntity
  8
0
100
AcDbVertex
100
AcDbPolygonMeshVertex
 10
2.505
 20
-9.47
 30
2.597
 70
    64
  0
VERTEX
  5
5FE0C
100
AcDbEntity
  8
0
100
AcDbVertex
100
AcDbPolygonMeshVertex
 10
2.505
 20
-8.97
 30
2.727
 70
    64
  0
VERTEX
  5
5FE0D
100
AcDbEntity
  8
0
100
AcDbVertex
100
AcDbPolygonMeshVertex
 10
2.505
 20
-8.97
 30
2.597
 70
    64
  0
VERTEX
  5
5FE0E
100
AcDbEntity
  8
0
100
AcDbVertex
100
AcDbPolygonMeshVertex
 10
2.505
 20
-9.47
 30
2.597
 70
    64
  0
VERTEX
  5
5FE0F
100
AcDbEntity
  8
0
100
AcDbVertex
100
AcDbPolygonMeshVertex
 10
3.005
 20
-8.97
 30
2.727
 70
    64
  0
VERTEX
  5
5FE10
100
AcDbEntity
  8
0
100
AcDbVertex
100
AcDbPolygonMeshVertex
 10
3.005
 20
-8.97
 30
2.597
 70
    64
  0
VERTEX
  5
5FE11
100
AcDbEntity
  8
0
100
AcDbVertex
100
AcDbPolygonMeshVertex
 10
3.005
 20
-9.47
 30
2.597
 70
    64
  0
VERTEX
  5
5FE12
100
AcDbEntity
  8
0
100
AcDbVertex
100
AcDbPolygonMeshVertex
 10
3.005
 20
-8.97
 30
2.727
 70
    64
  0
VERTEX
  5
5FE13
100
AcDbEntity
  8
0
100
AcDbVertex
100
AcDbPolygonMeshVertex
 10
3.005
 20
-8.97
 30
2.727
 70
    64
  0
VERTEX
  5
5FE14
100
AcDbEntity
  8
0
100
AcDbVertex
100
AcDbPolygonMeshVertex
 10
3.005
 20
-9.47
 30
2.727
 70
    64
  0
VERTEX
  5
5FE15
100
AcDbEntity
  8
0
100
AcDbVertex
100
AcDbPolygonMeshVertex
 10
2.505
 20
-8.97
 30
2.727
 70
    64
  0
VERTEX
  5
5FE16
100
AcDbEntity
  8
0
100
AcDbVertex
100
AcDbPolygonMeshVertex
 10
2.505
 20
-8.97
 30
2.727
 70
    64
  0
VERTEX
  5
5FE17
100
AcDbEntity
  8
0
100
AcDbVertex
100
AcDbPolygonMeshVertex
 10
2.505
 20
-9.47
 30
2.727
 70
    64
  0
SEQEND
  5
5FE18
100
AcDbEntity
  8
0
  0
CIRCLE
  5
5FE19
100
AcDbEntity
  8
0
100
AcDbCircle
 10
2.755
 20
-9.22
 30
2.727
 40
0.155
  0
POLYLINE
  5
5FE1A
100
AcDbEntity
  8
0
100
AcDbPolygonMesh
 66
     1
 10
0.0
 20
0.0
 30
0.0
 70
    16
 71
     6
 72
     3
  0
VERTEX
  5
5FE1B
100
AcDbEntity
  8
0
100
AcDbVertex
100
AcDbPolygonMeshVertex
 10
3.565
 20
-8.53
 30
2.597
 70
    64
  0
VERTEX
  5
5FE1C
100
AcDbEntity
  8
0
100
AcDbVertex
100
AcDbPolygonMeshVertex
 10
3.565
 20
-8.53
 30
2.257
 70
    64
  0
VERTEX
  5
5FE1D
100
AcDbEntity
  8
0
100
AcDbVertex
100
AcDbPolygonMeshVertex
 10
3.565
 20
-8.53
 30
2.257
 70
    64
  0
VERTEX
  5
5FE1E
100
AcDbEntity
  8
0
100
AcDbVertex
100
AcDbPolygonMeshVertex
 10
4.065
 20
-8.53
 30
2.597
 70
    64
  0
VERTEX
  5
5FE1F
100
AcDbEntity
  8
0
100
AcDbVertex
100
AcDbPolygonMeshVertex
 10
4.065
 20
-8.53
 30
2.257
 70
    64
  0
VERTEX
  5
5FE20
100
AcDbEntity
  8
0
100
AcDbVertex
100
AcDbPolygonMeshVertex
 10
4.065
 20
-8.53
 30
2.257
 70
    64
  0
VERTEX
  5
5FE21
100
AcDbEntity
  8
0
100
AcDbVertex
100
AcDbPolygonMeshVertex
 10
4.065
 20
-9.47
 30
2.597
 70
    64
  0
VERTEX
  5
5FE22
100
AcDbEntity
  8
0
100
AcDbVertex
100
AcDbPolygonMeshVertex
 10
4.065
 20
-9.47
 30
2.257
 70
    64
  0
VERTEX
  5
5FE23
100
AcDbEntity
  8
0
100
AcDbVertex
100
AcDbPolygonMeshVertex
 10
4.065
 20
-8.53
 30
2.257
 70
    64
  0
VERTEX
  5
5FE24
100
AcDbEntity
  8
0
100
AcDbVertex
100
AcDbPolygonMeshVertex
 10
3.565
 20
-9.47
 30
2.597
 70
    64
  0
VERTEX
  5
5FE25
100
AcDbEntity
  8
0
100
AcDbVertex
100
AcDbPolygonMeshVertex
 10
3.565
 20
-9.47
 30
2.257
 70
    64
  0
VERTEX
  5
5FE26
100
AcDbEntity
  8
0
100
AcDbVertex
100
AcDbPolygonMeshVertex
 10
3.565
 20
-8.53
 30
2.257
 70
    64
  0
VERTEX
  5
5FE27
100
AcDbEntity
  8
0
100
AcDbVertex
100
AcDbPolygonMeshVertex
 10
3.565
 20
-9.47
 30
2.597
 70
    64
  0
VERTEX
  5
5FE28
100
AcDbEntity
  8
0
100
AcDbVertex
100
AcDbPolygonMeshVertex
 10
3.565
 20
-9.47
 30
2.597
 70
    64
  0
VERTEX
  5
5FE29
100
AcDbEntity
  8
0
100
AcDbVertex
100
AcDbPolygonMeshVertex
 10
3.565
 20
-8.53
 30
2.597
 70
    64
  0
VERTEX
  5
5FE2A
100
AcDbEntity
  8
0
100
AcDbVertex
100
AcDbPolygonMeshVertex
 10
4.065
 20
-9.47
 30
2.597
 70
    64
  0
VERTEX
  5
5FE2B
100
AcDbEntity
  8
0
100
AcDbVertex
100
AcDbPolygonMeshVertex
 10
4.065
 20
-9.47
 30
2.597
 70
    64
  0
VERTEX
  5
5FE2C
100
AcDbEntity
  8
0
100
AcDbVertex
100
AcDbPolygonMeshVertex
 10
4.065
 20
-8.53
 30
2.597
 70
    64
  0
SEQEND
  5
5FE2D
100
AcDbEntity
  8
0
  0
POLYLINE
  5
5FE2E
100
AcDbEntity
  8
0
100
AcDbPolygonMesh
 66
     1
 10
0.0
 20
0.0
 30
0.0
 70
    16
 71
     6
 72
     3
  0
VERTEX
  5
5FE2F
100
AcDbEntity
  8
0
100
AcDbVertex
100
AcDbPolygonMeshVertex
 10
4.065
 20
-9.47
 30
2.727
 70
    64
  0
VERTEX
  5
5FE30
100
AcDbEntity
  8
0
100
AcDbVertex
100
AcDbPolygonMeshVertex
 10
4.065
 20
-9.47
 30
2.597
 70
    64
  0
VERTEX
  5
5FE31
100
AcDbEntity
  8
0
100
AcDbVertex
100
AcDbPolygonMeshVertex
 10
4.065
 20
-9.47
 30
2.597
 70
    64
  0
VERTEX
  5
5FE32
100
AcDbEntity
  8
0
100
AcDbVertex
100
AcDbPolygonMeshVertex
 10
3.565
 20
-9.47
 30
2.727
 70
    64
  0
VERTEX
  5
5FE33
100
AcDbEntity
  8
0
100
AcDbVertex
100
AcDbPolygonMeshVertex
 10
3.565
 20
-9.47
 30
2.597
 70
    64
  0
VERTEX
  5
5FE34
100
AcDbEntity
  8
0
100
AcDbVertex
100
AcDbPolygonMeshVertex
 10
3.565
 20
-9.47
 30
2.597
 70
    64
  0
VERTEX
  5
5FE35
100
AcDbEntity
  8
0
100
AcDbVertex
100
AcDbPolygonMeshVertex
 10
3.565
 20
-8.97
 30
2.727
 70
    64
  0
VERTEX
  5
5FE36
100
AcDbEntity
  8
0
100
AcDbVertex
100
AcDbPolygonMeshVertex
 10
3.565
 20
-8.97
 30
2.597
 70
    64
  0
VERTEX
  5
5FE37
100
AcDbEntity
  8
0
100
AcDbVertex
100
AcDbPolygonMeshVertex
 10
3.565
 20
-9.47
 30
2.597
 70
    64
  0
VERTEX
  5
5FE38
100
AcDbEntity
  8
0
100
AcDbVertex
100
AcDbPolygonMeshVertex
 10
4.065
 20
-8.97
 30
2.727
 70
    64
  0
VERTEX
  5
5FE39
100
AcDbEntity
  8
0
100
AcDbVertex
100
AcDbPolygonMeshVertex
 10
4.065
 20
-8.97
 30
2.597
 70
    64
  0
VERTEX
  5
5FE3A
100
AcDbEntity
  8
0
100
AcDbVertex
100
AcDbPolygonMeshVertex
 10
4.065
 20
-9.47
 30
2.597
 70
    64
  0
VERTEX
  5
5FE3B
100
AcDbEntity
  8
0
100
AcDbVertex
100
AcDbPolygonMeshVertex
 10
4.065
 20
-8.97
 30
2.727
 70
    64
  0
VERTEX
  5
5FE3C
100
AcDbEntity
  8
0
100
AcDbVertex
100
AcDbPolygonMeshVertex
 10
4.065
 20
-8.97
 30
2.727
 70
    64
  0
VERTEX
  5
5FE3D
100
AcDbEntity
  8
0
100
AcDbVertex
100
AcDbPolygonMeshVertex
 10
4.065
 20
-9.47
 30
2.727
 70
    64
  0
VERTEX
  5
5FE3E
100
AcDbEntity
  8
0
100
AcDbVertex
100
AcDbPolygonMeshVertex
 10
3.565
 20
-8.97
 30
2.727
 70
    64
  0
VERTEX
  5
5FE3F
100
AcDbEntity
  8
0
100
AcDbVertex
100
AcDbPolygonMeshVertex
 10
3.565
 20
-8.97
 30
2.727
 70
    64
  0
VERTEX
  5
5FE40
100
AcDbEntity
  8
0
100
AcDbVertex
100
AcDbPolygonMeshVertex
 10
3.565
 20
-9.47
 30
2.727
 70
    64
  0
SEQEND
  5
5FE41
100
AcDbEntity
  8
0
  0
CIRCLE
  5
5FE42
100
AcDbEntity
  8
0
100
AcDbCircle
 10
3.815
 20
-9.22
 30
2.727
 40
0.155
  0
POLYLINE
  5
5FE43
100
AcDbEntity
  8
0
100
AcDbPolygonMesh
 66
     1
 10
0.0
 20
0.0
 30
0.0
 70
    16
 71
     6
 72
     3
  0
VERTEX
  5
5FE44
100
AcDbEntity
  8
0
100
AcDbVertex
100
AcDbPolygonMeshVertex
 10
3.445
 20
-8.99
 30
2.847
 70
    64
  0
VERTEX
  5
5FE45
100
AcDbEntity
  8
0
100
AcDbVertex
100
AcDbPolygonMeshVertex
 10
3.445
 20
-8.99
 30
2.257
 70
    64
  0
VERTEX
  5
5FE46
100
AcDbEntity
  8
0
100
AcDbVertex
100
AcDbPolygonMeshVertex
 10
3.445
 20
-8.99
 30
2.257
 70
    64
  0
VERTEX
  5
5FE47
100
AcDbEntity
  8
0
100
AcDbVertex
100
AcDbPolygonMeshVertex
 10
3.135
 20
-8.99
 30
2.847
 70
    64
  0
VERTEX
  5
5FE48
100
AcDbEntity
  8
0
100
AcDbVertex
100
AcDbPolygonMeshVertex
 10
3.135
 20
-8.99
 30
2.257
 70
    64
  0
VERTEX
  5
5FE49
100
AcDbEntity
  8
0
100
AcDbVertex
100
AcDbPolygonMeshVertex
 10
3.135
 20
-8.99
 30
2.257
 70
    64
  0
VERTEX
  5
5FE4A
100
AcDbEntity
  8
0
100
AcDbVertex
100
AcDbPolygonMeshVertex
 10
3.135
 20
-8.53
 30
2.847
 70
    64
  0
VERTEX
  5
5FE4B
100
AcDbEntity
  8
0
100
AcDbVertex
100
AcDbPolygonMeshVertex
 10
3.135
 20
-8.53
 30
2.257
 70
    64
  0
VERTEX
  5
5FE4C
100
AcDbEntity
  8
0
100
AcDbVertex
100
AcDbPolygonMeshVertex
 10
3.135
 20
-8.99
 30
2.257
 70
    64
  0
VERTEX
  5
5FE4D
100
AcDbEntity
  8
0
100
AcDbVertex
100
AcDbPolygonMeshVertex
 10
3.445
 20
-8.53
 30
2.847
 70
    64
  0
VERTEX
  5
5FE4E
100
AcDbEntity
  8
0
100
AcDbVertex
100
AcDbPolygonMeshVertex
 10
3.445
 20
-8.53
 30
2.257
 70
    64
  0
VERTEX
  5
5FE4F
100
AcDbEntity
  8
0
100
AcDbVertex
100
AcDbPolygonMeshVertex
 10
3.445
 20
-8.99
 30
2.257
 70
    64
  0
VERTEX
  5
5FE50
100
AcDbEntity
  8
0
100
AcDbVertex
100
AcDbPolygonMeshVertex
 10
3.445
 20
-8.53
 30
2.847
 70
    64
  0
VERTEX
  5
5FE51
100
AcDbEntity
  8
0
100
AcDbVertex
100
AcDbPolygonMeshVertex
 10
3.445
 20
-8.53
 30
2.847
 70
    64
  0
VERTEX
  5
5FE52
100
AcDbEntity
  8
0
100
AcDbVertex
100
AcDbPolygonMeshVertex
 10
3.445
 20
-8.99
 30
2.847
 70
    64
  0
VERTEX
  5
5FE53
100
AcDbEntity
  8
0
100
AcDbVertex
100
AcDbPolygonMeshVertex
 10
3.135
 20
-8.53
 30
2.847
 70
    64
  0
VERTEX
  5
5FE54
100
AcDbEntity
  8
0
100
AcDbVertex
100
AcDbPolygonMeshVertex
 10
3.135
 20
-8.53
 30
2.847
 70
    64
  0
VERTEX
  5
5FE55
100
AcDbEntity
  8
0
100
AcDbVertex
100
AcDbPolygonMeshVertex
 10
3.135
 20
-8.99
 30
2.847
 70
    64
  0
SEQEND
  5
5FE56
100
AcDbEntity
  8
0
  0
POLYLINE
  5
5FE57
100
AcDbEntity
  8
0
100
AcDbPolygonMesh
 66
     1
 10
0.0
 20
0.0
 30
0.0
 70
    16
 71
     6
 72
     3
  0
VERTEX
  5
5FE58
100
AcDbEntity
  8
0
100
AcDbVertex
100
AcDbPolygonMeshVertex
 10
-5.055
 20
-0.31
 30
1.807
 70
    64
  0
VERTEX
  5
5FE59
100
AcDbEntity
  8
0
100
AcDbVertex
100
AcDbPolygonMeshVertex
 10
-5.055
 20
-0.31
 30
1.467
 70
    64
  0
VERTEX
  5
5FE5A
100
AcDbEntity
  8
0
100
AcDbVertex
100
AcDbPolygonMeshVertex
 10
-5.055
 20
-0.31
 30
1.467
 70
    64
  0
VERTEX
  5
5FE5B
100
AcDbEntity
  8
0
100
AcDbVertex
100
AcDbPolygonMeshVertex
 10
-4.555
 20
-0.31
 30
1.807
 70
    64
  0
VERTEX
  5
5FE5C
100
AcDbEntity
  8
0
100
AcDbVertex
100
AcDbPolygonMeshVertex
 10
-4.555
 20
-0.31
 30
1.467
 70
    64
  0
VERTEX
  5
5FE5D
100
AcDbEntity
  8
0
100
AcDbVertex
100
AcDbPolygonMeshVertex
 10
-4.555
 20
-0.31
 30
1.467
 70
    64
  0
VERTEX
  5
5FE5E
100
AcDbEntity
  8
0
100
AcDbVertex
100
AcDbPolygonMeshVertex
 10
-4.555
 20
-1.43
 30
1.807
 70
    64
  0
VERTEX
  5
5FE5F
100
AcDbEntity
  8
0
100
AcDbVertex
100
AcDbPolygonMeshVertex
 10
-4.555
 20
-1.43
 30
1.467
 70
    64
  0
VERTEX
  5
5FE60
100
AcDbEntity
  8
0
100
AcDbVertex
100
AcDbPolygonMeshVertex
 10
-4.555
 20
-0.31
 30
1.467
 70
    64
  0
VERTEX
  5
5FE61
100
AcDbEntity
  8
0
100
AcDbVertex
100
AcDbPolygonMeshVertex
 10
-5.055
 20
-1.43
 30
1.807
 70
    64
  0
VERTEX
  5
5FE62
100
AcDbEntity
  8
0
100
AcDbVertex
100
AcDbPolygonMeshVertex
 10
-5.055
 20
-1.43
 30
1.467
 70
    64
  0
VERTEX
  5
5FE63
100
AcDbEntity
  8
0
100
AcDbVertex
100
AcDbPolygonMeshVertex
 10
-5.055
 20
-0.31
 30
1.467
 70
    64
  0
VERTEX
  5
5FE64
100
AcDbEntity
  8
0
100
AcDbVertex
100
AcDbPolygonMeshVertex
 10
-5.055
 20
-1.43
 30
1.807
 70
    64
  0
VERTEX
  5
5FE65
100
AcDbEntity
  8
0
100
AcDbVertex
100
AcDbPolygonMeshVertex
 10
-5.055
 20
-1.43
 30
1.807
 70
    64
  0
VERTEX
  5
5FE66
100
AcDbEntity
  8
0
100
AcDbVertex
100
AcDbPolygonMeshVertex
 10
-5.055
 20
-0.31
 30
1.807
 70
    64
  0
VERTEX
  5
5FE67
100
AcDbEntity
  8
0
100
AcDbVertex
100
AcDbPolygonMeshVertex
 10
-4.555
 20
-1.43
 30
1.807
 70
    64
  0
VERTEX
  5
5FE68
100
AcDbEntity
  8
0
100
AcDbVertex
100
AcDbPolygonMeshVertex
 10
-4.555
 20
-1.43
 30
1.807
 70
    64
  0
VERTEX
  5
5FE69
100
AcDbEntity
  8
0
100
AcDbVertex
100
AcDbPolygonMeshVertex
 10
-4.555
 20
-0.31
 30
1.807
 70
    64
  0
SEQEND
  5
5FE6A
100
AcDbEntity
  8
0
  0
POLYLINE
  5
5FE6B
100
AcDbEntity
  8
0
100
AcDbPolygonMesh
 66
     1
 10
0.0
 20
0.0
 30
0.0
 70
    16
 71
     6
 72
     3
  0
VERTEX
  5
5FE6C
100
AcDbEntity
  8
0
100
AcDbVertex
100
AcDbPolygonMeshVertex
 10
-5.055
 20
-0.31
 30
1.937
 70
    64
  0
VERTEX
  5
5FE6D
100
AcDbEntity
  8
0
100
AcDbVertex
100
AcDbPolygonMeshVertex
 10
-5.055
 20
-0.31
 30
1.807
 70
    64
  0
VERTEX
  5
5FE6E
100
AcDbEntity
  8
0
100
AcDbVertex
100
AcDbPolygonMeshVertex
 10
-5.055
 20
-0.31
 30
1.807
 70
    64
  0
VERTEX
  5
5FE6F
100
AcDbEntity
  8
0
100
AcDbVertex
100
AcDbPolygonMeshVertex
 10
-4.555
 20
-0.31
 30
1.937
 70
    64
  0
VERTEX
  5
5FE70
100
AcDbEntity
  8
0
100
AcDbVertex
100
AcDbPolygonMeshVertex
 10
-4.555
 20
-0.31
 30
1.807
 70
    64
  0
VERTEX
  5
5FE71
100
AcDbEntity
  8
0
100
AcDbVertex
100
AcDbPolygonMeshVertex
 10
-4.555
 20
-0.31
 30
1.807
 70
    64
  0
VERTEX
  5
5FE72
100
AcDbEntity
  8
0
100
AcDbVertex
100
AcDbPolygonMeshVertex
 10
-4.555
 20
-0.81
 30
1.937
 70
    64
  0
VERTEX
  5
5FE73
100
AcDbEntity
  8
0
100
AcDbVertex
100
AcDbPolygonMeshVertex
 10
-4.555
 20
-0.81
 30
1.807
 70
    64
  0
VERTEX
  5
5FE74
100
AcDbEntity
  8
0
100
AcDbVertex
100
AcDbPolygonMeshVertex
 10
-4.555
 20
-0.31
 30
1.807
 70
    64
  0
VERTEX
  5
5FE75
100
AcDbEntity
  8
0
100
AcDbVertex
100
AcDbPolygonMeshVertex
 10
-5.055
 20
-0.81
 30
1.937
 70
    64
  0
VERTEX
  5
5FE76
100
AcDbEntity
  8
0
100
AcDbVertex
100
AcDbPolygonMeshVertex
 10
-5.055
 20
-0.81
 30
1.807
 70
    64
  0
VERTEX
  5
5FE77
100
AcDbEntity
  8
0
100
AcDbVertex
100
AcDbPolygonMeshVertex
 10
-5.055
 20
-0.31
 30
1.807
 70
    64
  0
VERTEX
  5
5FE78
100
AcDbEntity
  8
0
100
AcDbVertex
100
AcDbPolygonMeshVertex
 10
-5.055
 20
-0.81
 30
1.937
 70
    64
  0
VERTEX
  5
5FE79
100
AcDbEntity
  8
0
100
AcDbVertex
100
AcDbPolygonMeshVertex
 10
-5.055
 20
-0.81
 30
1.937
 70
    64
  0
VERTEX
  5
5FE7A
100
AcDbEntity
  8
0
100
AcDbVertex
100
AcDbPolygonMeshVertex
 10
-5.055
 20
-0.31
 30
1.937
 70
    64
  0
VERTEX
  5
5FE7B
100
AcDbEntity
  8
0
100
AcDbVertex
100
AcDbPolygonMeshVertex
 10
-4.555
 20
-0.81
 30
1.937
 70
    64
  0
VERTEX
  5
5FE7C
100
AcDbEntity
  8
0
100
AcDbVertex
100
AcDbPolygonMeshVertex
 10
-4.555
 20
-0.81
 30
1.937
 70
    64
  0
VERTEX
  5
5FE7D
100
AcDbEntity
  8
0
100
AcDbVertex
100
AcDbPolygonMeshVertex
 10
-4.555
 20
-0.31
 30
1.937
 70
    64
  0
SEQEND
  5
5FE7E
100
AcDbEntity
  8
0
  0
CIRCLE
  5
5FE7F
100
AcDbEntity
  8
0
100
AcDbCircle
 10
-4.805
 20
-0.56
 30
1.937
 40
0.125
  0
CIRCLE
  5
5FE80
100
AcDbEntity
  8
0
100
AcDbCircle
 10
-4.805
 20
-0.56
 30
1.937
 40
0.155
  0
LINE
  5
5FE81
100
AcDbEntity
  8
0
100
AcDbLine
 10
-4.785
 20
-0.68339
 30
1.937
 11
-4.785
 21
-0.43661
 31
1.937
  0
LINE
  5
5FE82
100
AcDbEntity
  8
0
100
AcDbLine
 10
-4.825
 20
-0.68339
 30
1.937
 11
-4.825
 21
-0.43661
 31
1.937
  0
POLYLINE
  5
5FE83
100
AcDbEntity
  8
0
100
AcDbPolygonMesh
 66
     1
 10
0.0
 20
0.0
 30
0.0
 70
    16
 71
     6
 72
     3
  0
VERTEX
  5
5FE84
100
AcDbEntity
  8
0
100
AcDbVertex
100
AcDbPolygonMeshVertex
 10
-0.935
 20
-0.31
 30
1.807
 70
    64
  0
VERTEX
  5
5FE85
100
AcDbEntity
  8
0
100
AcDbVertex
100
AcDbPolygonMeshVertex
 10
-0.935
 20
-0.31
 30
1.467
 70
    64
  0
VERTEX
  5
5FE86
100
AcDbEntity
  8
0
100
AcDbVertex
100
AcDbPolygonMeshVertex
 10
-0.935
 20
-0.31
 30
1.467
 70
    64
  0
VERTEX
  5
5FE87
100
AcDbEntity
  8
0
100
AcDbVertex
100
AcDbPolygonMeshVertex
 10
-0.435
 20
-0.31
 30
1.807
 70
    64
  0
VERTEX
  5
5FE88
100
AcDbEntity
  8
0
100
AcDbVertex
100
AcDbPolygonMeshVertex
 10
-0.435
 20
-0.31
 30
1.467
 70
    64
  0
VERTEX
  5
5FE89
100
AcDbEntity
  8
0
100
AcDbVertex
100
AcDbPolygonMeshVertex
 10
-0.435
 20
-0.31
 30
1.467
 70
    64
  0
VERTEX
  5
5FE8A
100
AcDbEntity
  8
0
100
AcDbVertex
100
AcDbPolygonMeshVertex
 10
-0.435
 20
-1.43
 30
1.807
 70
    64
  0
VERTEX
  5
5FE8B
100
AcDbEntity
  8
0
100
AcDbVertex
100
AcDbPolygonMeshVertex
 10
-0.435
 20
-1.43
 30
1.467
 70
    64
  0
VERTEX
  5
5FE8C
100
AcDbEntity
  8
0
100
AcDbVertex
100
AcDbPolygonMeshVertex
 10
-0.435
 20
-0.31
 30
1.467
 70
    64
  0
VERTEX
  5
5FE8D
100
AcDbEntity
  8
0
100
AcDbVertex
100
AcDbPolygonMeshVertex
 10
-0.935
 20
-1.43
 30
1.807
 70
    64
  0
VERTEX
  5
5FE8E
100
AcDbEntity
  8
0
100
AcDbVertex
100
AcDbPolygonMeshVertex
 10
-0.935
 20
-1.43
 30
1.467
 70
    64
  0
VERTEX
  5
5FE8F
100
AcDbEntity
  8
0
100
AcDbVertex
100
AcDbPolygonMeshVertex
 10
-0.935
 20
-0.31
 30
1.467
 70
    64
  0
VERTEX
  5
5FE90
100
AcDbEntity
  8
0
100
AcDbVertex
100
AcDbPolygonMeshVertex
 10
-0.935
 20
-1.43
 30
1.807
 70
    64
  0
VERTEX
  5
5FE91
100
AcDbEntity
  8
0
100
AcDbVertex
100
AcDbPolygonMeshVertex
 10
-0.935
 20
-1.43
 30
1.807
 70
    64
  0
VERTEX
  5
5FE92
100
AcDbEntity
  8
0
100
AcDbVertex
100
AcDbPolygonMeshVertex
 10
-0.935
 20
-0.31
 30
1.807
 70
    64
  0
VERTEX
  5
5FE93
100
AcDbEntity
  8
0
100
AcDbVertex
100
AcDbPolygonMeshVertex
 10
-0.435
 20
-1.43
 30
1.807
 70
    64
  0
VERTEX
  5
5FE94
100
AcDbEntity
  8
0
100
AcDbVertex
100
AcDbPolygonMeshVertex
 10
-0.435
 20
-1.43
 30
1.807
 70
    64
  0
VERTEX
  5
5FE95
100
AcDbEntity
  8
0
100
AcDbVertex
100
AcDbPolygonMeshVertex
 10
-0.435
 20
-0.31
 30
1.807
 70
    64
  0
SEQEND
  5
5FE96
100
AcDbEntity
  8
0
  0
POLYLINE
  5
5FE97
100
AcDbEntity
  8
0
100
AcDbPolygonMesh
 66
     1
 10
0.0
 20
0.0
 30
0.0
 70
    16
 71
     6
 72
     3
  0
VERTEX
  5
5FE98
100
AcDbEntity
  8
0
100
AcDbVertex
100
AcDbPolygonMeshVertex
 10
-0.935
 20
-0.31
 30
1.937
 70
    64
  0
VERTEX
  5
5FE99
100
AcDbEntity
  8
0
100
AcDbVertex
100
AcDbPolygonMeshVertex
 10
-0.935
 20
-0.31
 30
1.807
 70
    64
  0
VERTEX
  5
5FE9A
100
AcDbEntity
  8
0
100
AcDbVertex
100
AcDbPolygonMeshVertex
 10
-0.935
 20
-0.31
 30
1.807
 70
    64
  0
VERTEX
  5
5FE9B
100
AcDbEntity
  8
0
100
AcDbVertex
100
AcDbPolygonMeshVertex
 10
-0.435
 20
-0.31
 30
1.937
 70
    64
  0
VERTEX
  5
5FE9C
100
AcDbEntity
  8
0
100
AcDbVertex
100
AcDbPolygonMeshVertex
 10
-0.435
 20
-0.31
 30
1.807
 70
    64
  0
VERTEX
  5
5FE9D
100
AcDbEntity
  8
0
100
AcDbVertex
100
AcDbPolygonMeshVertex
 10
-0.435
 20
-0.31
 30
1.807
 70
    64
  0
VERTEX
  5
5FE9E
100
AcDbEntity
  8
0
100
AcDbVertex
100
AcDbPolygonMeshVertex
 10
-0.435
 20
-0.81
 30
1.937
 70
    64
  0
VERTEX
  5
5FE9F
100
AcDbEntity
  8
0
100
AcDbVertex
100
AcDbPolygonMeshVertex
 10
-0.435
 20
-0.81
 30
1.807
 70
    64
  0
VERTEX
  5
5FEA0
100
AcDbEntity
  8
0
100
AcDbVertex
100
AcDbPolygonMeshVertex
 10
-0.435
 20
-0.31
 30
1.807
 70
    64
  0
VERTEX
  5
5FEA1
100
AcDbEntity
  8
0
100
AcDbVertex
100
AcDbPolygonMeshVertex
 10
-0.935
 20
-0.81
 30
1.937
 70
    64
  0
VERTEX
  5
5FEA2
100
AcDbEntity
  8
0
100
AcDbVertex
100
AcDbPolygonMeshVertex
 10
-0.935
 20
-0.81
 30
1.807
 70
    64
  0
VERTEX
  5
5FEA3
100
AcDbEntity
  8
0
100
AcDbVertex
100
AcDbPolygonMeshVertex
 10
-0.935
 20
-0.31
 30
1.807
 70
    64
  0
VERTEX
  5
5FEA4
100
AcDbEntity
  8
0
100
AcDbVertex
100
AcDbPolygonMeshVertex
 10
-0.935
 20
-0.81
 30
1.937
 70
    64
  0
VERTEX
  5
5FEA5
100
AcDbEntity
  8
0
100
AcDbVertex
100
AcDbPolygonMeshVertex
 10
-0.935
 20
-0.81
 30
1.937
 70
    64
  0
VERTEX
  5
5FEA6
100
AcDbEntity
  8
0
100
AcDbVertex
100
AcDbPolygonMeshVertex
 10
-0.935
 20
-0.31
 30
1.937
 70
    64
  0
VERTEX
  5
5FEA7
100
AcDbEntity
  8
0
100
AcDbVertex
100
AcDbPolygonMeshVertex
 10
-0.435
 20
-0.81
 30
1.937
 70
    64
  0
VERTEX
  5
5FEA8
100
AcDbEntity
  8
0
100
AcDbVertex
100
AcDbPolygonMeshVertex
 10
-0.435
 20
-0.81
 30
1.937
 70
    64
  0
VERTEX
  5
5FEA9
100
AcDbEntity
  8
0
100
AcDbVertex
100
AcDbPolygonMeshVertex
 10
-0.435
 20
-0.31
 30
1.937
 70
    64
  0
SEQEND
  5
5FEAA
100
AcDbEntity
  8
0
  0
CIRCLE
  5
5FEAB
100
AcDbEntity
  8
0
100
AcDbCircle
 10
-0.685
 20
-0.56
 30
1.937
 40
0.125
  0
CIRCLE
  5
5FEAC
100
AcDbEntity
  8
0
100
AcDbCircle
 10
-0.685
 20
-0.56
 30
1.937
 40
0.155
  0
LINE
  5
5FEAD
100
AcDbEntity
  8
0
100
AcDbLine
 10
-0.665
 20
-0.68339
 30
1.937
 11
-0.665
 21
-0.43661
 31
1.937
  0
LINE
  5
5FEAE
100
AcDbEntity
  8
0
100
AcDbLine
 10
-0.705
 20
-0.68339
 30
1.937
 11
-0.705
 21
-0.43661
 31
1.937
  0
POLYLINE
  5
5FEAF
100
AcDbEntity
  8
0
100
AcDbPolygonMesh
 66
     1
 10
0.0
 20
0.0
 30
0.0
 70
    16
 71
     6
 72
     3
  0
VERTEX
  5
5FEB0
100
AcDbEntity
  8
0
100
AcDbVertex
100
AcDbPolygonMeshVertex
 10
-5.055
 20
-0.81
 30
4.537
 70
    64
  0
VERTEX
  5
5FEB1
100
AcDbEntity
  8
0
100
AcDbVertex
100
AcDbPolygonMeshVertex
 10
-5.055
 20
-0.81
 30
4.197
 70
    64
  0
VERTEX
  5
5FEB2
100
AcDbEntity
  8
0
100
AcDbVertex
100
AcDbPolygonMeshVertex
 10
-5.055
 20
-0.81
 30
4.197
 70
    64
  0
VERTEX
  5
5FEB3
100
AcDbEntity
  8
0
100
AcDbVertex
100
AcDbPolygonMeshVertex
 10
-4.555
 20
-0.81
 30
4.537
 70
    64
  0
VERTEX
  5
5FEB4
100
AcDbEntity
  8
0
100
AcDbVertex
100
AcDbPolygonMeshVertex
 10
-4.555
 20
-0.81
 30
4.197
 70
    64
  0
VERTEX
  5
5FEB5
100
AcDbEntity
  8
0
100
AcDbVertex
100
AcDbPolygonMeshVertex
 10
-4.555
 20
-0.81
 30
4.197
 70
    64
  0
VERTEX
  5
5FEB6
100
AcDbEntity
  8
0
100
AcDbVertex
100
AcDbPolygonMeshVertex
 10
-4.555
 20
-1.93
 30
4.537
 70
    64
  0
VERTEX
  5
5FEB7
100
AcDbEntity
  8
0
100
AcDbVertex
100
AcDbPolygonMeshVertex
 10
-4.555
 20
-1.93
 30
4.197
 70
    64
  0
VERTEX
  5
5FEB8
100
AcDbEntity
  8
0
100
AcDbVertex
100
AcDbPolygonMeshVertex
 10
-4.555
 20
-0.81
 30
4.197
 70
    64
  0
VERTEX
  5
5FEB9
100
AcDbEntity
  8
0
100
AcDbVertex
100
AcDbPolygonMeshVertex
 10
-5.055
 20
-1.93
 30
4.537
 70
    64
  0
VERTEX
  5
5FEBA
100
AcDbEntity
  8
0
100
AcDbVertex
100
AcDbPolygonMeshVertex
 10
-5.055
 20
-1.93
 30
4.197
 70
    64
  0
VERTEX
  5
5FEBB
100
AcDbEntity
  8
0
100
AcDbVertex
100
AcDbPolygonMeshVertex
 10
-5.055
 20
-0.81
 30
4.197
 70
    64
  0
VERTEX
  5
5FEBC
100
AcDbEntity
  8
0
100
AcDbVertex
100
AcDbPolygonMeshVertex
 10
-5.055
 20
-1.93
 30
4.537
 70
    64
  0
VERTEX
  5
5FEBD
100
AcDbEntity
  8
0
100
AcDbVertex
100
AcDbPolygonMeshVertex
 10
-5.055
 20
-1.93
 30
4.537
 70
    64
  0
VERTEX
  5
5FEBE
100
AcDbEntity
  8
0
100
AcDbVertex
100
AcDbPolygonMeshVertex
 10
-5.055
 20
-0.81
 30
4.537
 70
    64
  0
VERTEX
  5
5FEBF
100
AcDbEntity
  8
0
100
AcDbVertex
100
AcDbPolygonMeshVertex
 10
-4.555
 20
-1.93
 30
4.537
 70
    64
  0
VERTEX
  5
5FEC0
100
AcDbEntity
  8
0
100
AcDbVertex
100
AcDbPolygonMeshVertex
 10
-4.555
 20
-1.93
 30
4.537
 70
    64
  0
VERTEX
  5
5FEC1
100
AcDbEntity
  8
0
100
AcDbVertex
100
AcDbPolygonMeshVertex
 10
-4.555
 20
-0.81
 30
4.537
 70
    64
  0
SEQEND
  5
5FEC2
100
AcDbEntity
  8
0
  0
POLYLINE
  5
5FEC3
100
AcDbEntity
  8
0
100
AcDbPolygonMesh
 66
     1
 10
0.0
 20
0.0
 30
0.0
 70
    16
 71
     6
 72
     3
  0
VERTEX
  5
5FEC4
100
AcDbEntity
  8
0
100
AcDbVertex
100
AcDbPolygonMeshVertex
 10
-5.055
 20
-0.81
 30
4.667
 70
    64
  0
VERTEX
  5
5FEC5
100
AcDbEntity
  8
0
100
AcDbVertex
100
AcDbPolygonMeshVertex
 10
-5.055
 20
-0.81
 30
4.537
 70
    64
  0
VERTEX
  5
5FEC6
100
AcDbEntity
  8
0
100
AcDbVertex
100
AcDbPolygonMeshVertex
 10
-5.055
 20
-0.81
 30
4.537
 70
    64
  0
VERTEX
  5
5FEC7
100
AcDbEntity
  8
0
100
AcDbVertex
100
AcDbPolygonMeshVertex
 10
-4.555
 20
-0.81
 30
4.667
 70
    64
  0
VERTEX
  5
5FEC8
100
AcDbEntity
  8
0
100
AcDbVertex
100
AcDbPolygonMeshVertex
 10
-4.555
 20
-0.81
 30
4.537
 70
    64
  0
VERTEX
  5
5FEC9
100
AcDbEntity
  8
0
100
AcDbVertex
100
AcDbPolygonMeshVertex
 10
-4.555
 20
-0.81
 30
4.537
 70
    64
  0
VERTEX
  5
5FECA
100
AcDbEntity
  8
0
100
AcDbVertex
100
AcDbPolygonMeshVertex
 10
-4.555
 20
-1.31
 30
4.667
 70
    64
  0
VERTEX
  5
5FECB
100
AcDbEntity
  8
0
100
AcDbVertex
100
AcDbPolygonMeshVertex
 10
-4.555
 20
-1.31
 30
4.537
 70
    64
  0
VERTEX
  5
5FECC
100
AcDbEntity
  8
0
100
AcDbVertex
100
AcDbPolygonMeshVertex
 10
-4.555
 20
-0.81
 30
4.537
 70
    64
  0
VERTEX
  5
5FECD
100
AcDbEntity
  8
0
100
AcDbVertex
100
AcDbPolygonMeshVertex
 10
-5.055
 20
-1.31
 30
4.667
 70
    64
  0
VERTEX
  5
5FECE
100
AcDbEntity
  8
0
100
AcDbVertex
100
AcDbPolygonMeshVertex
 10
-5.055
 20
-1.31
 30
4.537
 70
    64
  0
VERTEX
  5
5FECF
100
AcDbEntity
  8
0
100
AcDbVertex
100
AcDbPolygonMeshVertex
 10
-5.055
 20
-0.81
 30
4.537
 70
    64
  0
VERTEX
  5
5FED0
100
AcDbEntity
  8
0
100
AcDbVertex
100
AcDbPolygonMeshVertex
 10
-5.055
 20
-1.31
 30
4.667
 70
    64
  0
VERTEX
  5
5FED1
100
AcDbEntity
  8
0
100
AcDbVertex
100
AcDbPolygonMeshVertex
 10
-5.055
 20
-1.31
 30
4.667
 70
    64
  0
VERTEX
  5
5FED2
100
AcDbEntity
  8
0
100
AcDbVertex
100
AcDbPolygonMeshVertex
 10
-5.055
 20
-0.81
 30
4.667
 70
    64
  0
VERTEX
  5
5FED3
100
AcDbEntity
  8
0
100
AcDbVertex
100
AcDbPolygonMeshVertex
 10
-4.555
 20
-1.31
 30
4.667
 70
    64
  0
VERTEX
  5
5FED4
100
AcDbEntity
  8
0
100
AcDbVertex
100
AcDbPolygonMeshVertex
 10
-4.555
 20
-1.31
 30
4.667
 70
    64
  0
VERTEX
  5
5FED5
100
AcDbEntity
  8
0
100
AcDbVertex
100
AcDbPolygonMeshVertex
 10
-4.555
 20
-0.81
 30
4.667
 70
    64
  0
SEQEND
  5
5FED6
100
AcDbEntity
  8
0
  0
CIRCLE
  5
5FED7
100
AcDbEntity
  8
0
100
AcDbCircle
 10
-4.805
 20
-1.06
 30
4.667
 40
0.125
  0
CIRCLE
  5
5FED8
100
AcDbEntity
  8
0
100
AcDbCircle
 10
-4.805
 20
-1.06
 30
4.667
 40
0.155
  0
LINE
  5
5FED9
100
AcDbEntity
  8
0
100
AcDbLine
 10
-4.785
 20
-1.18339
 30
4.667
 11
-4.785
 21
-0.93661
 31
4.667
  0
LINE
  5
5FEDA
100
AcDbEntity
  8
0
100
AcDbLine
 10
-4.825
 20
-1.18339
 30
4.667
 11
-4.825
 21
-0.93661
 31
4.667
  0
POLYLINE
  5
5FEDB
100
AcDbEntity
  8
0
100
AcDbPolygonMesh
 66
     1
 10
0.0
 20
0.0
 30
0.0
 70
    16
 71
     6
 72
     3
  0
VERTEX
  5
5FEDC
100
AcDbEntity
  8
0
100
AcDbVertex
100
AcDbPolygonMeshVertex
 10
-0.935
 20
-0.81
 30
4.537
 70
    64
  0
VERTEX
  5
5FEDD
100
AcDbEntity
  8
0
100
AcDbVertex
100
AcDbPolygonMeshVertex
 10
-0.935
 20
-0.81
 30
4.197
 70
    64
  0
VERTEX
  5
5FEDE
100
AcDbEntity
  8
0
100
AcDbVertex
100
AcDbPolygonMeshVertex
 10
-0.935
 20
-0.81
 30
4.197
 70
    64
  0
VERTEX
  5
5FEDF
100
AcDbEntity
  8
0
100
AcDbVertex
100
AcDbPolygonMeshVertex
 10
-0.435
 20
-0.81
 30
4.537
 70
    64
  0
VERTEX
  5
5FEE0
100
AcDbEntity
  8
0
100
AcDbVertex
100
AcDbPolygonMeshVertex
 10
-0.435
 20
-0.81
 30
4.197
 70
    64
  0
VERTEX
  5
5FEE1
100
AcDbEntity
  8
0
100
AcDbVertex
100
AcDbPolygonMeshVertex
 10
-0.435
 20
-0.81
 30
4.197
 70
    64
  0
VERTEX
  5
5FEE2
100
AcDbEntity
  8
0
100
AcDbVertex
100
AcDbPolygonMeshVertex
 10
-0.435
 20
-1.93
 30
4.537
 70
    64
  0
VERTEX
  5
5FEE3
100
AcDbEntity
  8
0
100
AcDbVertex
100
AcDbPolygonMeshVertex
 10
-0.435
 20
-1.93
 30
4.197
 70
    64
  0
VERTEX
  5
5FEE4
100
AcDbEntity
  8
0
100
AcDbVertex
100
AcDbPolygonMeshVertex
 10
-0.435
 20
-0.81
 30
4.197
 70
    64
  0
VERTEX
  5
5FEE5
100
AcDbEntity
  8
0
100
AcDbVertex
100
AcDbPolygonMeshVertex
 10
-0.935
 20
-1.93
 30
4.537
 70
    64
  0
VERTEX
  5
5FEE6
100
AcDbEntity
  8
0
100
AcDbVertex
100
AcDbPolygonMeshVertex
 10
-0.935
 20
-1.93
 30
4.197
 70
    64
  0
VERTEX
  5
5FEE7
100
AcDbEntity
  8
0
100
AcDbVertex
100
AcDbPolygonMeshVertex
 10
-0.935
 20
-0.81
 30
4.197
 70
    64
  0
VERTEX
  5
5FEE8
100
AcDbEntity
  8
0
100
AcDbVertex
100
AcDbPolygonMeshVertex
 10
-0.935
 20
-1.93
 30
4.537
 70
    64
  0
VERTEX
  5
5FEE9
100
AcDbEntity
  8
0
100
AcDbVertex
100
AcDbPolygonMeshVertex
 10
-0.935
 20
-1.93
 30
4.537
 70
    64
  0
VERTEX
  5
5FEEA
100
AcDbEntity
  8
0
100
AcDbVertex
100
AcDbPolygonMeshVertex
 10
-0.935
 20
-0.81
 30
4.537
 70
    64
  0
VERTEX
  5
5FEEB
100
AcDbEntity
  8
0
100
AcDbVertex
100
AcDbPolygonMeshVertex
 10
-0.435
 20
-1.93
 30
4.537
 70
    64
  0
VERTEX
  5
5FEEC
100
AcDbEntity
  8
0
100
AcDbVertex
100
AcDbPolygonMeshVertex
 10
-0.435
 20
-1.93
 30
4.537
 70
    64
  0
VERTEX
  5
5FEED
100
AcDbEntity
  8
0
100
AcDbVertex
100
AcDbPolygonMeshVertex
 10
-0.435
 20
-0.81
 30
4.537
 70
    64
  0
SEQEND
  5
5FEEE
100
AcDbEntity
  8
0
  0
POLYLINE
  5
5FEEF
100
AcDbEntity
  8
0
100
AcDbPolygonMesh
 66
     1
 10
0.0
 20
0.0
 30
0.0
 70
    16
 71
     6
 72
     3
  0
VERTEX
  5
5FEF0
100
AcDbEntity
  8
0
100
AcDbVertex
100
AcDbPolygonMeshVertex
 10
-0.935
 20
-0.81
 30
4.667
 70
    64
  0
VERTEX
  5
5FEF1
100
AcDbEntity
  8
0
100
AcDbVertex
100
AcDbPolygonMeshVertex
 10
-0.935
 20
-0.81
 30
4.537
 70
    64
  0
VERTEX
  5
5FEF2
100
AcDbEntity
  8
0
100
AcDbVertex
100
AcDbPolygonMeshVertex
 10
-0.935
 20
-0.81
 30
4.537
 70
    64
  0
VERTEX
  5
5FEF3
100
AcDbEntity
  8
0
100
AcDbVertex
100
AcDbPolygonMeshVertex
 10
-0.435
 20
-0.81
 30
4.667
 70
    64
  0
VERTEX
  5
5FEF4
100
AcDbEntity
  8
0
100
AcDbVertex
100
AcDbPolygonMeshVertex
 10
-0.435
 20
-0.81
 30
4.537
 70
    64
  0
VERTEX
  5
5FEF5
100
AcDbEntity
  8
0
100
AcDbVertex
100
AcDbPolygonMeshVertex
 10
-0.435
 20
-0.81
 30
4.537
 70
    64
  0
VERTEX
  5
5FEF6
100
AcDbEntity
  8
0
100
AcDbVertex
100
AcDbPolygonMeshVertex
 10
-0.435
 20
-1.31
 30
4.667
 70
    64
  0
VERTEX
  5
5FEF7
100
AcDbEntity
  8
0
100
AcDbVertex
100
AcDbPolygonMeshVertex
 10
-0.435
 20
-1.31
 30
4.537
 70
    64
  0
VERTEX
  5
5FEF8
100
AcDbEntity
  8
0
100
AcDbVertex
100
AcDbPolygonMeshVertex
 10
-0.435
 20
-0.81
 30
4.537
 70
    64
  0
VERTEX
  5
5FEF9
100
AcDbEntity
  8
0
100
AcDbVertex
100
AcDbPolygonMeshVertex
 10
-0.935
 20
-1.31
 30
4.667
 70
    64
  0
VERTEX
  5
5FEFA
100
AcDbEntity
  8
0
100
AcDbVertex
100
AcDbPolygonMeshVertex
 10
-0.935
 20
-1.31
 30
4.537
 70
    64
  0
VERTEX
  5
5FEFB
100
AcDbEntity
  8
0
100
AcDbVertex
100
AcDbPolygonMeshVertex
 10
-0.935
 20
-0.81
 30
4.537
 70
    64
  0
VERTEX
  5
5FEFC
100
AcDbEntity
  8
0
100
AcDbVertex
100
AcDbPolygonMeshVertex
 10
-0.935
 20
-1.31
 30
4.667
 70
    64
  0
VERTEX
  5
5FEFD
100
AcDbEntity
  8
0
100
AcDbVertex
100
AcDbPolygonMeshVertex
 10
-0.935
 20
-1.31
 30
4.667
 70
    64
  0
VERTEX
  5
5FEFE
100
AcDbEntity
  8
0
100
AcDbVertex
100
AcDbPolygonMeshVertex
 10
-0.935
 20
-0.81
 30
4.667
 70
    64
  0
VERTEX
  5
5FEFF
100
AcDbEntity
  8
0
100
AcDbVertex
100
AcDbPolygonMeshVertex
 10
-0.435
 20
-1.31
 30
4.667
 70
    64
  0
VERTEX
  5
5FF00
100
AcDbEntity
  8
0
100
AcDbVertex
100
AcDbPolygonMeshVertex
 10
-0.435
 20
-1.31
 30
4.667
 70
    64
  0
VERTEX
  5
5FF01
100
AcDbEntity
  8
0
100
AcDbVertex
100
AcDbPolygonMeshVertex
 10
-0.435
 20
-0.81
 30
4.667
 70
    64
  0
SEQEND
  5
5FF02
100
AcDbEntity
  8
0
  0
CIRCLE
  5
5FF03
100
AcDbEntity
  8
0
100
AcDbCircle
 10
-0.685
 20
-1.06
 30
4.667
 40
0.125
  0
CIRCLE
  5
5FF04
100
AcDbEntity
  8
0
100
AcDbCircle
 10
-0.685
 20
-1.06
 30
4.667
 40
0.155
  0
LINE
  5
5FF05
100
AcDbEntity
  8
0
100
AcDbLine
 10
-0.665
 20
-1.18339
 30
4.667
 11
-0.665
 21
-0.93661
 31
4.667
  0
LINE
  5
5FF06
100
AcDbEntity
  8
0
100
AcDbLine
 10
-0.705
 20
-1.18339
 30
4.667
 11
-0.705
 21
-0.93661
 31
4.667
  0
POLYLINE
  5
5FF07
100
AcDbEntity
  8
0
100
AcDbPolygonMesh
 66
     1
 10
0.0
 20
0.0
 30
0.0
 70
    16
 71
     6
 72
     3
  0
VERTEX
  5
5FF08
100
AcDbEntity
  8
0
100
AcDbVertex
100
AcDbPolygonMeshVertex
 10
4.75
 20
-10.059
 30
0.197
 70
    64
  0
VERTEX
  5
5FF09
100
AcDbEntity
  8
0
100
AcDbVertex
100
AcDbPolygonMeshVertex
 10
4.75
 20
-10.059
 30
0.0
 70
    64
  0
VERTEX
  5
5FF0A
100
AcDbEntity
  8
0
100
AcDbVertex
100
AcDbPolygonMeshVertex
 10
4.75
 20
-10.059
 30
0.0
 70
    64
  0
VERTEX
  5
5FF0B
100
AcDbEntity
  8
0
100
AcDbVertex
100
AcDbPolygonMeshVertex
 10
-4.75
 20
-10.059
 30
0.197
 70
    64
  0
VERTEX
  5
5FF0C
100
AcDbEntity
  8
0
100
AcDbVertex
100
AcDbPolygonMeshVertex
 10
-4.75
 20
-10.059
 30
0.0
 70
    64
  0
VERTEX
  5
5FF0D
100
AcDbEntity
  8
0
100
AcDbVertex
100
AcDbPolygonMeshVertex
 10
-4.75
 20
-10.059
 30
0.0
 70
    64
  0
VERTEX
  5
5FF0E
100
AcDbEntity
  8
0
100
AcDbVertex
100
AcDbPolygonMeshVertex
 10
-4.75
 20
-0.249
 30
0.197
 70
    64
  0
VERTEX
  5
5FF0F
100
AcDbEntity
  8
0
100
AcDbVertex
100
AcDbPolygonMeshVertex
 10
-4.75
 20
-0.249
 30
0.0
 70
    64
  0
VERTEX
  5
5FF10
100
AcDbEntity
  8
0
100
AcDbVertex
100
AcDbPolygonMeshVertex
 10
-4.75
 20
-10.059
 30
0.0
 70
    64
  0
VERTEX
  5
5FF11
100
AcDbEntity
  8
0
100
AcDbVertex
100
AcDbPolygonMeshVertex
 10
4.75
 20
-0.249
 30
0.197
 70
    64
  0
VERTEX
  5
5FF12
100
AcDbEntity
  8
0
100
AcDbVertex
100
AcDbPolygonMeshVertex
 10
4.75
 20
-0.249
 30
0.0
 70
    64
  0
VERTEX
  5
5FF13
100
AcDbEntity
  8
0
100
AcDbVertex
100
AcDbPolygonMeshVertex
 10
4.75
 20
-10.059
 30
0.0
 70
    64
  0
VERTEX
  5
5FF14
100
AcDbEntity
  8
0
100
AcDbVertex
100
AcDbPolygonMeshVertex
 10
4.75
 20
-0.249
 30
0.197
 70
    64
  0
VERTEX
  5
5FF15
100
AcDbEntity
  8
0
100
AcDbVertex
100
AcDbPolygonMeshVertex
 10
4.75
 20
-0.249
 30
0.197
 70
    64
  0
VERTEX
  5
5FF16
100
AcDbEntity
  8
0
100
AcDbVertex
100
AcDbPolygonMeshVertex
 10
4.75
 20
-10.059
 30
0.197
 70
    64
  0
VERTEX
  5
5FF17
100
AcDbEntity
  8
0
100
AcDbVertex
100
AcDbPolygonMeshVertex
 10
-4.75
 20
-0.249
 30
0.197
 70
    64
  0
VERTEX
  5
5FF18
100
AcDbEntity
  8
0
100
AcDbVertex
100
AcDbPolygonMeshVertex
 10
-4.75
 20
-0.249
 30
0.197
 70
    64
  0
VERTEX
  5
5FF19
100
AcDbEntity
  8
0
100
AcDbVertex
100
AcDbPolygonMeshVertex
 10
-4.75
 20
-10.059
 30
0.197
 70
    64
  0
SEQEND
  5
5FF1A
100
AcDbEntity
  8
0
  0
3DFACE
  5
5FF1B
100
AcDbEntity
  8
0
100
AcDbFace
 10
1.53
 20
-0.249
 30
0.197
 11
1.0
 21
0.281
 31
0.197
 12
-1.0
 22
0.281
 32
0.197
 13
-1.53
 23
-0.249
 33
0.197
  0
3DFACE
  5
5FF1C
100
AcDbEntity
  8
0
100
AcDbFace
 10
1.53
 20
-0.249
 30
0.0
 11
1.0
 21
0.281
 31
0.0
 12
-1.0
 22
0.281
 32
0.0
 13
-1.53
 23
-0.249
 33
0.0
  0
POLYLINE
  5
5FF1D
100
AcDbEntity
  8
0
100
AcDbPolygonMesh
 66
     1
 10
0.0
 20
0.0
 30
0.0
 70
    16
 71
     6
 72
     3
  0
VERTEX
  5
5FF1E
100
AcDbEntity
  8
0
100
AcDbVertex
100
AcDbPolygonMeshVertex
 10
-0.835
 20
-2.19
 30
4.197
 70
    64
  0
VERTEX
  5
5FF1F
100
AcDbEntity
  8
0
100
AcDbVertex
100
AcDbPolygonMeshVertex
 10
-0.835
 20
-2.19
 30
3.887
 70
    64
  0
VERTEX
  5
5FF20
100
AcDbEntity
  8
0
100
AcDbVertex
100
AcDbPolygonMeshVertex
 10
-0.835
 20
-2.19
 30
3.887
 70
    64
  0
VERTEX
  5
5FF21
100
AcDbEntity
  8
0
100
AcDbVertex
100
AcDbPolygonMeshVertex
 10
-4.655
 20
-2.19
 30
4.197
 70
    64
  0
VERTEX
  5
5FF22
100
AcDbEntity
  8
0
100
AcDbVertex
100
AcDbPolygonMeshVertex
 10
-4.655
 20
-2.19
 30
3.887
 70
    64
  0
VERTEX
  5
5FF23
100
AcDbEntity
  8
0
100
AcDbVertex
100
AcDbPolygonMeshVertex
 10
-4.655
 20
-2.19
 30
3.887
 70
    64
  0
VERTEX
  5
5FF24
100
AcDbEntity
  8
0
100
AcDbVertex
100
AcDbPolygonMeshVertex
 10
-4.655
 20
-1.5
 30
4.197
 70
    64
  0
VERTEX
  5
5FF25
100
AcDbEntity
  8
0
100
AcDbVertex
100
AcDbPolygonMeshVertex
 10
-4.655
 20
-1.5
 30
3.887
 70
    64
  0
VERTEX
  5
5FF26
100
AcDbEntity
  8
0
100
AcDbVertex
100
AcDbPolygonMeshVertex
 10
-4.655
 20
-2.19
 30
3.887
 70
    64
  0
VERTEX
  5
5FF27
100
AcDbEntity
  8
0
100
AcDbVertex
100
AcDbPolygonMeshVertex
 10
-0.835
 20
-1.5
 30
4.197
 70
    64
  0
VERTEX
  5
5FF28
100
AcDbEntity
  8
0
100
AcDbVertex
100
AcDbPolygonMeshVertex
 10
-0.835
 20
-1.5
 30
3.887
 70
    64
  0
VERTEX
  5
5FF29
100
AcDbEntity
  8
0
100
AcDbVertex
100
AcDbPolygonMeshVertex
 10
-0.835
 20
-2.19
 30
3.887
 70
    64
  0
VERTEX
  5
5FF2A
100
AcDbEntity
  8
0
100
AcDbVertex
100
AcDbPolygonMeshVertex
 10
-0.835
 20
-1.5
 30
4.197
 70
    64
  0
VERTEX
  5
5FF2B
100
AcDbEntity
  8
0
100
AcDbVertex
100
AcDbPolygonMeshVertex
 10
-0.835
 20
-1.5
 30
4.197
 70
    64
  0
VERTEX
  5
5FF2C
100
AcDbEntity
  8
0
100
AcDbVertex
100
AcDbPolygonMeshVertex
 10
-0.835
 20
-2.19
 30
4.197
 70
    64
  0
VERTEX
  5
5FF2D
100
AcDbEntity
  8
0
100
AcDbVertex
100
AcDbPolygonMeshVertex
 10
-4.655
 20
-1.5
 30
4.197
 70
    64
  0
VERTEX
  5
5FF2E
100
AcDbEntity
  8
0
100
AcDbVertex
100
AcDbPolygonMeshVertex
 10
-4.655
 20
-1.5
 30
4.197
 70
    64
  0
VERTEX
  5
5FF2F
100
AcDbEntity
  8
0
100
AcDbVertex
100
AcDbPolygonMeshVertex
 10
-4.655
 20
-2.19
 30
4.197
 70
    64
  0
SEQEND
  5
5FF30
100
AcDbEntity
  8
0
  0
POLYLINE
  5
5FF31
100
AcDbEntity
  8
0
100
AcDbPolygonMesh
 66
     1
 10
0.0
 20
0.0
 30
0.0
 70
    16
 71
     6
 72
     3
  0
VERTEX
  5
5FF32
100
AcDbEntity
  8
0
100
AcDbVertex
100
AcDbPolygonMeshVertex
 10
-0.835
 20
-3.28
 30
4.027
 70
    64
  0
VERTEX
  5
5FF33
100
AcDbEntity
  8
0
100
AcDbVertex
100
AcDbPolygonMeshVertex
 10
-0.835
 20
-3.28
 30
3.887
 70
    64
  0
VERTEX
  5
5FF34
100
AcDbEntity
  8
0
100
AcDbVertex
100
AcDbPolygonMeshVertex
 10
-0.835
 20
-3.28
 30
3.887
 70
    64
  0
VERTEX
  5
5FF35
100
AcDbEntity
  8
0
100
AcDbVertex
100
AcDbPolygonMeshVertex
 10
-4.655
 20
-3.28
 30
4.027
 70
    64
  0
VERTEX
  5
5FF36
100
AcDbEntity
  8
0
100
AcDbVertex
100
AcDbPolygonMeshVertex
 10
-4.655
 20
-3.28
 30
3.887
 70
    64
  0
VERTEX
  5
5FF37
100
AcDbEntity
  8
0
100
AcDbVertex
100
AcDbPolygonMeshVertex
 10
-4.655
 20
-3.28
 30
3.887
 70
    64
  0
VERTEX
  5
5FF38
100
AcDbEntity
  8
0
100
AcDbVertex
100
AcDbPolygonMeshVertex
 10
-4.655
 20
-2.19
 30
4.027
 70
    64
  0
VERTEX
  5
5FF39
100
AcDbEntity
  8
0
100
AcDbVertex
100
AcDbPolygonMeshVertex
 10
-4.655
 20
-2.19
 30
3.887
 70
    64
  0
VERTEX
  5
5FF3A
100
AcDbEntity
  8
0
100
AcDbVertex
100
AcDbPolygonMeshVertex
 10
-4.655
 20
-3.28
 30
3.887
 70
    64
  0
VERTEX
  5
5FF3B
100
AcDbEntity
  8
0
100
AcDbVertex
100
AcDbPolygonMeshVertex
 10
-0.835
 20
-2.19
 30
4.027
 70
    64
  0
VERTEX
  5
5FF3C
100
AcDbEntity
  8
0
100
AcDbVertex
100
AcDbPolygonMeshVertex
 10
-0.835
 20
-2.19
 30
3.887
 70
    64
  0
VERTEX
  5
5FF3D
100
AcDbEntity
  8
0
100
AcDbVertex
100
AcDbPolygonMeshVertex
 10
-0.835
 20
-3.28
 30
3.887
 70
    64
  0
VERTEX
  5
5FF3E
100
AcDbEntity
  8
0
100
AcDbVertex
100
AcDbPolygonMeshVertex
 10
-0.835
 20
-2.19
 30
4.027
 70
    64
  0
VERTEX
  5
5FF3F
100
AcDbEntity
  8
0
100
AcDbVertex
100
AcDbPolygonMeshVertex
 10
-0.835
 20
-2.19
 30
4.027
 70
    64
  0
VERTEX
  5
5FF40
100
AcDbEntity
  8
0
100
AcDbVertex
100
AcDbPolygonMeshVertex
 10
-0.835
 20
-3.28
 30
4.027
 70
    64
  0
VERTEX
  5
5FF41
100
AcDbEntity
  8
0
100
AcDbVertex
100
AcDbPolygonMeshVertex
 10
-4.655
 20
-2.19
 30
4.027
 70
    64
  0
VERTEX
  5
5FF42
100
AcDbEntity
  8
0
100
AcDbVertex
100
AcDbPolygonMeshVertex
 10
-4.655
 20
-2.19
 30
4.027
 70
    64
  0
VERTEX
  5
5FF43
100
AcDbEntity
  8
0
100
AcDbVertex
100
AcDbPolygonMeshVertex
 10
-4.655
 20
-3.28
 30
4.027
 70
    64
  0
SEQEND
  5
5FF44
100
AcDbEntity
  8
0
  0
POLYLINE
  5
5FF45
100
AcDbEntity
  8
0
100
AcDbPolygonMesh
 66
     1
 10
0.0
 20
0.0
 30
0.0
 70
    16
 71
     6
 72
     3
  0
VERTEX
  5
5FF46
100
AcDbEntity
  8
0
100
AcDbVertex
100
AcDbPolygonMeshVertex
 10
-4.655
 20
-6.18
 30
0.387
 70
    64
  0
VERTEX
  5
5FF47
100
AcDbEntity
  8
0
100
AcDbVertex
100
AcDbPolygonMeshVertex
 10
-4.655
 20
-6.18
 30
0.387
 70
    64
  0
VERTEX
  5
5FF48
100
AcDbEntity
  8
0
100
AcDbVertex
100
AcDbPolygonMeshVertex
 10
-4.655
 20
-6.18
 30
0.387
 70
    64
  0
VERTEX
  5
5FF49
100
AcDbEntity
  8
0
100
AcDbVertex
100
AcDbPolygonMeshVertex
 10
-4.655
 20
-6.66
 30
1.917
 70
    64
  0
VERTEX
  5
5FF4A
100
AcDbEntity
  8
0
100
AcDbVertex
100
AcDbPolygonMeshVertex
 10
-4.655
 20
-6.18
 30
1.917
 70
    64
  0
VERTEX
  5
5FF4B
100
AcDbEntity
  8
0
100
AcDbVertex
100
AcDbPolygonMeshVertex
 10
-4.655
 20
-6.18
 30
1.917
 70
    64
  0
VERTEX
  5
5FF4C
100
AcDbEntity
  8
0
100
AcDbVertex
100
AcDbPolygonMeshVertex
 10
-0.835
 20
-6.66
 30
1.917
 70
    64
  0
VERTEX
  5
5FF4D
100
AcDbEntity
  8
0
100
AcDbVertex
100
AcDbPolygonMeshVertex
 10
-0.835
 20
-6.18
 30
1.917
 70
    64
  0
VERTEX
  5
5FF4E
100
AcDbEntity
  8
0
100
AcDbVertex
100
AcDbPolygonMeshVertex
 10
-4.655
 20
-6.18
 30
1.917
 70
    64
  0
VERTEX
  5
5FF4F
100
AcDbEntity
  8
0
100
AcDbVertex
100
AcDbPolygonMeshVertex
 10
-0.835
 20
-6.18
 30
0.387
 70
    64
  0
VERTEX
  5
5FF50
100
AcDbEntity
  8
0
100
AcDbVertex
100
AcDbPolygonMeshVertex
 10
-0.835
 20
-6.18
 30
0.387
 70
    64
  0
VERTEX
  5
5FF51
100
AcDbEntity
  8
0
100
AcDbVertex
100
AcDbPolygonMeshVertex
 10
-4.655
 20
-6.18
 30
0.387
 70
    64
  0
VERTEX
  5
5FF52
100
AcDbEntity
  8
0
100
AcDbVertex
100
AcDbPolygonMeshVertex
 10
-0.835
 20
-6.18
 30
0.387
 70
    64
  0
VERTEX
  5
5FF53
100
AcDbEntity
  8
0
100
AcDbVertex
100
AcDbPolygonMeshVertex
 10
-0.835
 20
-6.18
 30
0.387
 70
    64
  0
VERTEX
  5
5FF54
100
AcDbEntity
  8
0
100
AcDbVertex
100
AcDbPolygonMeshVertex
 10
-4.655
 20
-6.18
 30
0.387
 70
    64
  0
VERTEX
  5
5FF55
100
AcDbEntity
  8
0
100
AcDbVertex
100
AcDbPolygonMeshVertex
 10
-0.835
 20
-6.66
 30
1.917
 70
    64
  0
VERTEX
  5
5FF56
100
AcDbEntity
  8
0
100
AcDbVertex
100
AcDbPolygonMeshVertex
 10
-0.835
 20
-6.66
 30
1.917
 70
    64
  0
VERTEX
  5
5FF57
100
AcDbEntity
  8
0
100
AcDbVertex
100
AcDbPolygonMeshVertex
 10
-4.655
 20
-6.66
 30
1.917
 70
    64
  0
SEQEND
  5
5FF58
100
AcDbEntity
  8
0
  0
POLYLINE
  5
5FF59
100
AcDbEntity
  8
0
100
AcDbPolygonMesh
 66
     1
 10
0.0
 20
0.0
 30
0.0
 70
    16
 71
     6
 72
     3
  0
VERTEX
  5
5FF5A
100
AcDbEntity
  8
0
100
AcDbVertex
100
AcDbPolygonMeshVertex
 10
-0.835
 20
-6.18
 30
3.887
 70
    64
  0
VERTEX
  5
5FF5B
100
AcDbEntity
  8
0
100
AcDbVertex
100
AcDbPolygonMeshVertex
 10
-0.835
 20
-6.18
 30
0.387
 70
    64
  0
VERTEX
  5
5FF5C
100
AcDbEntity
  8
0
100
AcDbVertex
100
AcDbPolygonMeshVertex
 10
-0.835
 20
-6.18
 30
0.387
 70
    64
  0
VERTEX
  5
5FF5D
100
AcDbEntity
  8
0
100
AcDbVertex
100
AcDbPolygonMeshVertex
 10
-4.655
 20
-6.18
 30
3.887
 70
    64
  0
VERTEX
  5
5FF5E
100
AcDbEntity
  8
0
100
AcDbVertex
100
AcDbPolygonMeshVertex
 10
-4.655
 20
-6.18
 30
0.387
 70
    64
  0
VERTEX
  5
5FF5F
100
AcDbEntity
  8
0
100
AcDbVertex
100
AcDbPolygonMeshVertex
 10
-4.655
 20
-6.18
 30
0.387
 70
    64
  0
VERTEX
  5
5FF60
100
AcDbEntity
  8
0
100
AcDbVertex
100
AcDbPolygonMeshVertex
 10
-4.655
 20
-1.5
 30
3.887
 70
    64
  0
VERTEX
  5
5FF61
100
AcDbEntity
  8
0
100
AcDbVertex
100
AcDbPolygonMeshVertex
 10
-4.655
 20
-1.5
 30
0.387
 70
    64
  0
VERTEX
  5
5FF62
100
AcDbEntity
  8
0
100
AcDbVertex
100
AcDbPolygonMeshVertex
 10
-4.655
 20
-6.18
 30
0.387
 70
    64
  0
VERTEX
  5
5FF63
100
AcDbEntity
  8
0
100
AcDbVertex
100
AcDbPolygonMeshVertex
 10
-0.835
 20
-1.5
 30
3.887
 70
    64
  0
VERTEX
  5
5FF64
100
AcDbEntity
  8
0
100
AcDbVertex
100
AcDbPolygonMeshVertex
 10
-0.835
 20
-1.5
 30
0.387
 70
    64
  0
VERTEX
  5
5FF65
100
AcDbEntity
  8
0
100
AcDbVertex
100
AcDbPolygonMeshVertex
 10
-0.835
 20
-6.18
 30
0.387
 70
    64
  0
VERTEX
  5
5FF66
100
AcDbEntity
  8
0
100
AcDbVertex
100
AcDbPolygonMeshVertex
 10
-0.835
 20
-1.5
 30
3.887
 70
    64
  0
VERTEX
  5
5FF67
100
AcDbEntity
  8
0
100
AcDbVertex
100
AcDbPolygonMeshVertex
 10
-0.835
 20
-1.5
 30
3.887
 70
    64
  0
VERTEX
  5
5FF68
100
AcDbEntity
  8
0
100
AcDbVertex
100
AcDbPolygonMeshVertex
 10
-0.835
 20
-6.18
 30
3.887
 70
    64
  0
VERTEX
  5
5FF69
100
AcDbEntity
  8
0
100
AcDbVertex
100
AcDbPolygonMeshVertex
 10
-4.655
 20
-1.5
 30
3.887
 70
    64
  0
VERTEX
  5
5FF6A
100
AcDbEntity
  8
0
100
AcDbVertex
100
AcDbPolygonMeshVertex
 10
-4.655
 20
-1.5
 30
3.887
 70
    64
  0
VERTEX
  5
5FF6B
100
AcDbEntity
  8
0
100
AcDbVertex
100
AcDbPolygonMeshVertex
 10
-4.655
 20
-6.18
 30
3.887
 70
    64
  0
SEQEND
  5
5FF6C
100
AcDbEntity
  8
0
  0
POLYLINE
  5
5FF6D
100
AcDbEntity
  8
0
100
AcDbPolygonMesh
 66
     1
 10
0.0
 20
0.0
 30
0.0
 70
    16
 71
     6
 72
     3
  0
VERTEX
  5
5FF6E
100
AcDbEntity
  8
0
100
AcDbVertex
100
AcDbPolygonMeshVertex
 10
-0.835
 20
-6.66
 30
3.087
 70
    64
  0
VERTEX
  5
5FF6F
100
AcDbEntity
  8
0
100
AcDbVertex
100
AcDbPolygonMeshVertex
 10
-0.835
 20
-6.66
 30
1.917
 70
    64
  0
VERTEX
  5
5FF70
100
AcDbEntity
  8
0
100
AcDbVertex
100
AcDbPolygonMeshVertex
 10
-0.835
 20
-6.66
 30
1.917
 70
    64
  0
VERTEX
  5
5FF71
100
AcDbEntity
  8
0
100
AcDbVertex
100
AcDbPolygonMeshVertex
 10
-4.655
 20
-6.66
 30
3.087
 70
    64
  0
VERTEX
  5
5FF72
100
AcDbEntity
  8
0
100
AcDbVertex
100
AcDbPolygonMeshVertex
 10
-4.655
 20
-6.66
 30
1.917
 70
    64
  0
VERTEX
  5
5FF73
100
AcDbEntity
  8
0
100
AcDbVertex
100
AcDbPolygonMeshVertex
 10
-4.655
 20
-6.66
 30
1.917
 70
    64
  0
VERTEX
  5
5FF74
100
AcDbEntity
  8
0
100
AcDbVertex
100
AcDbPolygonMeshVertex
 10
-4.655
 20
-6.18
 30
3.087
 70
    64
  0
VERTEX
  5
5FF75
100
AcDbEntity
  8
0
100
AcDbVertex
100
AcDbPolygonMeshVertex
 10
-4.655
 20
-6.18
 30
1.917
 70
    64
  0
VERTEX
  5
5FF76
100
AcDbEntity
  8
0
100
AcDbVertex
100
AcDbPolygonMeshVertex
 10
-4.655
 20
-6.66
 30
1.917
 70
    64
  0
VERTEX
  5
5FF77
100
AcDbEntity
  8
0
100
AcDbVertex
100
AcDbPolygonMeshVertex
 10
-0.835
 20
-6.18
 30
3.087
 70
    64
  0
VERTEX
  5
5FF78
100
AcDbEntity
  8
0
100
AcDbVertex
100
AcDbPolygonMeshVertex
 10
-0.835
 20
-6.18
 30
1.917
 70
    64
  0
VERTEX
  5
5FF79
100
AcDbEntity
  8
0
100
AcDbVertex
100
AcDbPolygonMeshVertex
 10
-0.835
 20
-6.66
 30
1.917
 70
    64
  0
VERTEX
  5
5FF7A
100
AcDbEntity
  8
0
100
AcDbVertex
100
AcDbPolygonMeshVertex
 10
-0.835
 20
-6.18
 30
3.087
 70
    64
  0
VERTEX
  5
5FF7B
100
AcDbEntity
  8
0
100
AcDbVertex
100
AcDbPolygonMeshVertex
 10
-0.835
 20
-6.18
 30
3.087
 70
    64
  0
VERTEX
  5
5FF7C
100
AcDbEntity
  8
0
100
AcDbVertex
100
AcDbPolygonMeshVertex
 10
-0.835
 20
-6.66
 30
3.087
 70
    64
  0
VERTEX
  5
5FF7D
100
AcDbEntity
  8
0
100
AcDbVertex
100
AcDbPolygonMeshVertex
 10
-4.655
 20
-6.18
 30
3.087
 70
    64
  0
VERTEX
  5
5FF7E
100
AcDbEntity
  8
0
100
AcDbVertex
100
AcDbPolygonMeshVertex
 10
-4.655
 20
-6.18
 30
3.087
 70
    64
  0
VERTEX
  5
5FF7F
100
AcDbEntity
  8
0
100
AcDbVertex
100
AcDbPolygonMeshVertex
 10
-4.655
 20
-6.66
 30
3.087
 70
    64
  0
SEQEND
  5
5FF80
100
AcDbEntity
  8
0
  0
LINE
  5
5FF81
100
AcDbEntity
  8
0
100
AcDbLine
 10
-4.655
 20
-2.19
 30
4.027
 11
-4.655
 21
-2.19
 31
3.887
  0
LINE
  5
5FF82
100
AcDbEntity
  8
0
100
AcDbLine
 10
-4.655
 20
-3.28
 30
3.887
 11
-4.655
 21
-1.5
 31
3.887
  0
POLYLINE
  5
5FF83
100
AcDbEntity
  8
0
100
AcDbPolygonMesh
 66
     1
 10
0.0
 20
0.0
 30
0.0
 70
    16
 71
     6
 72
     3
  0
VERTEX
  5
5FF84
100
AcDbEntity
  8
0
100
AcDbVertex
100
AcDbPolygonMeshVertex
 10
-2.055
 20
-8.99
 30
2.847
 70
    64
  0
VERTEX
  5
5FF85
100
AcDbEntity
  8
0
100
AcDbVertex
100
AcDbPolygonMeshVertex
 10
-2.055
 20
-8.99
 30
2.257
 70
    64
  0
VERTEX
  5
5FF86
100
AcDbEntity
  8
0
100
AcDbVertex
100
AcDbPolygonMeshVertex
 10
-2.055
 20
-8.99
 30
2.257
 70
    64
  0
VERTEX
  5
5FF87
100
AcDbEntity
  8
0
100
AcDbVertex
100
AcDbPolygonMeshVertex
 10
-2.365
 20
-8.99
 30
2.847
 70
    64
  0
VERTEX
  5
5FF88
100
AcDbEntity
  8
0
100
AcDbVertex
100
AcDbPolygonMeshVertex
 10
-2.365
 20
-8.99
 30
2.257
 70
    64
  0
VERTEX
  5
5FF89
100
AcDbEntity
  8
0
100
AcDbVertex
100
AcDbPolygonMeshVertex
 10
-2.365
 20
-8.99
 30
2.257
 70
    64
  0
VERTEX
  5
5FF8A
100
AcDbEntity
  8
0
100
AcDbVertex
100
AcDbPolygonMeshVertex
 10
-2.365
 20
-8.53
 30
2.847
 70
    64
  0
VERTEX
  5
5FF8B
100
AcDbEntity
  8
0
100
AcDbVertex
100
AcDbPolygonMeshVertex
 10
-2.365
 20
-8.53
 30
2.257
 70
    64
  0
VERTEX
  5
5FF8C
100
AcDbEntity
  8
0
100
AcDbVertex
100
AcDbPolygonMeshVertex
 10
-2.365
 20
-8.99
 30
2.257
 70
    64
  0
VERTEX
  5
5FF8D
100
AcDbEntity
  8
0
100
AcDbVertex
100
AcDbPolygonMeshVertex
 10
-2.055
 20
-8.53
 30
2.847
 70
    64
  0
VERTEX
  5
5FF8E
100
AcDbEntity
  8
0
100
AcDbVertex
100
AcDbPolygonMeshVertex
 10
-2.055
 20
-8.53
 30
2.257
 70
    64
  0
VERTEX
  5
5FF8F
100
AcDbEntity
  8
0
100
AcDbVertex
100
AcDbPolygonMeshVertex
 10
-2.055
 20
-8.99
 30
2.257
 70
    64
  0
VERTEX
  5
5FF90
100
AcDbEntity
  8
0
100
AcDbVertex
100
AcDbPolygonMeshVertex
 10
-2.055
 20
-8.53
 30
2.847
 70
    64
  0
VERTEX
  5
5FF91
100
AcDbEntity
  8
0
100
AcDbVertex
100
AcDbPolygonMeshVertex
 10
-2.055
 20
-8.53
 30
2.847
 70
    64
  0
VERTEX
  5
5FF92
100
AcDbEntity
  8
0
100
AcDbVertex
100
AcDbPolygonMeshVertex
 10
-2.055
 20
-8.99
 30
2.847
 70
    64
  0
VERTEX
  5
5FF93
100
AcDbEntity
  8
0
100
AcDbVertex
100
AcDbPolygonMeshVertex
 10
-2.365
 20
-8.53
 30
2.847
 70
    64
  0
VERTEX
  5
5FF94
100
AcDbEntity
  8
0
100
AcDbVertex
100
AcDbPolygonMeshVertex
 10
-2.365
 20
-8.53
 30
2.847
 70
    64
  0
VERTEX
  5
5FF95
100
AcDbEntity
  8
0
100
AcDbVertex
100
AcDbPolygonMeshVertex
 10
-2.365
 20
-8.99
 30
2.847
 70
    64
  0
SEQEND
  5
5FF96
100
AcDbEntity
  8
0
  0
POLYLINE
  5
5FF97
100
AcDbEntity
  8
0
100
AcDbPolygonMesh
 66
     1
 10
0.0
 20
0.0
 30
0.0
 70
    16
 71
     6
 72
     3
  0
VERTEX
  5
5FF98
100
AcDbEntity
  8
0
100
AcDbVertex
100
AcDbPolygonMeshVertex
 10
-1.935
 20
-8.53
 30
2.597
 70
    64
  0
VERTEX
  5
5FF99
100
AcDbEntity
  8
0
100
AcDbVertex
100
AcDbPolygonMeshVertex
 10
-1.935
 20
-8.53
 30
2.257
 70
    64
  0
VERTEX
  5
5FF9A
100
AcDbEntity
  8
0
100
AcDbVertex
100
AcDbPolygonMeshVertex
 10
-1.935
 20
-8.53
 30
2.257
 70
    64
  0
VERTEX
  5
5FF9B
100
AcDbEntity
  8
0
100
AcDbVertex
100
AcDbPolygonMeshVertex
 10
-1.435
 20
-8.53
 30
2.597
 70
    64
  0
VERTEX
  5
5FF9C
100
AcDbEntity
  8
0
100
AcDbVertex
100
AcDbPolygonMeshVertex
 10
-1.435
 20
-8.53
 30
2.257
 70
    64
  0
VERTEX
  5
5FF9D
100
AcDbEntity
  8
0
100
AcDbVertex
100
AcDbPolygonMeshVertex
 10
-1.435
 20
-8.53
 30
2.257
 70
    64
  0
VERTEX
  5
5FF9E
100
AcDbEntity
  8
0
100
AcDbVertex
100
AcDbPolygonMeshVertex
 10
-1.435
 20
-9.47
 30
2.597
 70
    64
  0
VERTEX
  5
5FF9F
100
AcDbEntity
  8
0
100
AcDbVertex
100
AcDbPolygonMeshVertex
 10
-1.435
 20
-9.47
 30
2.257
 70
    64
  0
VERTEX
  5
5FFA0
100
AcDbEntity
  8
0
100
AcDbVertex
100
AcDbPolygonMeshVertex
 10
-1.435
 20
-8.53
 30
2.257
 70
    64
  0
VERTEX
  5
5FFA1
100
AcDbEntity
  8
0
100
AcDbVertex
100
AcDbPolygonMeshVertex
 10
-1.935
 20
-9.47
 30
2.597
 70
    64
  0
VERTEX
  5
5FFA2
100
AcDbEntity
  8
0
100
AcDbVertex
100
AcDbPolygonMeshVertex
 10
-1.935
 20
-9.47
 30
2.257
 70
    64
  0
VERTEX
  5
5FFA3
100
AcDbEntity
  8
0
100
AcDbVertex
100
AcDbPolygonMeshVertex
 10
-1.935
 20
-8.53
 30
2.257
 70
    64
  0
VERTEX
  5
5FFA4
100
AcDbEntity
  8
0
100
AcDbVertex
100
AcDbPolygonMeshVertex
 10
-1.935
 20
-9.47
 30
2.597
 70
    64
  0
VERTEX
  5
5FFA5
100
AcDbEntity
  8
0
100
AcDbVertex
100
AcDbPolygonMeshVertex
 10
-1.935
 20
-9.47
 30
2.597
 70
    64
  0
VERTEX
  5
5FFA6
100
AcDbEntity
  8
0
100
AcDbVertex
100
AcDbPolygonMeshVertex
 10
-1.935
 20
-8.53
 30
2.597
 70
    64
  0
VERTEX
  5
5FFA7
100
AcDbEntity
  8
0
100
AcDbVertex
100
AcDbPolygonMeshVertex
 10
-1.435
 20
-9.47
 30
2.597
 70
    64
  0
VERTEX
  5
5FFA8
100
AcDbEntity
  8
0
100
AcDbVertex
100
AcDbPolygonMeshVertex
 10
-1.435
 20
-9.47
 30
2.597
 70
    64
  0
VERTEX
  5
5FFA9
100
AcDbEntity
  8
0
100
AcDbVertex
100
AcDbPolygonMeshVertex
 10
-1.435
 20
-8.53
 30
2.597
 70
    64
  0
SEQEND
  5
5FFAA
100
AcDbEntity
  8
0
  0
POLYLINE
  5
5FFAB
100
AcDbEntity
  8
0
100
AcDbPolygonMesh
 66
     1
 10
0.0
 20
0.0
 30
0.0
 70
    16
 71
     6
 72
     3
  0
VERTEX
  5
5FFAC
100
AcDbEntity
  8
0
100
AcDbVertex
100
AcDbPolygonMeshVertex
 10
-2.995
 20
-8.53
 30
2.597
 70
    64
  0
VERTEX
  5
5FFAD
100
AcDbEntity
  8
0
100
AcDbVertex
100
AcDbPolygonMeshVertex
 10
-2.995
 20
-8.53
 30
2.257
 70
    64
  0
VERTEX
  5
5FFAE
100
AcDbEntity
  8
0
100
AcDbVertex
100
AcDbPolygonMeshVertex
 10
-2.995
 20
-8.53
 30
2.257
 70
    64
  0
VERTEX
  5
5FFAF
100
AcDbEntity
  8
0
100
AcDbVertex
100
AcDbPolygonMeshVertex
 10
-2.495
 20
-8.53
 30
2.597
 70
    64
  0
VERTEX
  5
5FFB0
100
AcDbEntity
  8
0
100
AcDbVertex
100
AcDbPolygonMeshVertex
 10
-2.495
 20
-8.53
 30
2.257
 70
    64
  0
VERTEX
  5
5FFB1
100
AcDbEntity
  8
0
100
AcDbVertex
100
AcDbPolygonMeshVertex
 10
-2.495
 20
-8.53
 30
2.257
 70
    64
  0
VERTEX
  5
5FFB2
100
AcDbEntity
  8
0
100
AcDbVertex
100
AcDbPolygonMeshVertex
 10
-2.495
 20
-9.47
 30
2.597
 70
    64
  0
VERTEX
  5
5FFB3
100
AcDbEntity
  8
0
100
AcDbVertex
100
AcDbPolygonMeshVertex
 10
-2.495
 20
-9.47
 30
2.257
 70
    64
  0
VERTEX
  5
5FFB4
100
AcDbEntity
  8
0
100
AcDbVertex
100
AcDbPolygonMeshVertex
 10
-2.495
 20
-8.53
 30
2.257
 70
    64
  0
VERTEX
  5
5FFB5
100
AcDbEntity
  8
0
100
AcDbVertex
100
AcDbPolygonMeshVertex
 10
-2.995
 20
-9.47
 30
2.597
 70
    64
  0
VERTEX
  5
5FFB6
100
AcDbEntity
  8
0
100
AcDbVertex
100
AcDbPolygonMeshVertex
 10
-2.995
 20
-9.47
 30
2.257
 70
    64
  0
VERTEX
  5
5FFB7
100
AcDbEntity
  8
0
100
AcDbVertex
100
AcDbPolygonMeshVertex
 10
-2.995
 20
-8.53
 30
2.257
 70
    64
  0
VERTEX
  5
5FFB8
100
AcDbEntity
  8
0
100
AcDbVertex
100
AcDbPolygonMeshVertex
 10
-2.995
 20
-9.47
 30
2.597
 70
    64
  0
VERTEX
  5
5FFB9
100
AcDbEntity
  8
0
100
AcDbVertex
100
AcDbPolygonMeshVertex
 10
-2.995
 20
-9.47
 30
2.597
 70
    64
  0
VERTEX
  5
5FFBA
100
AcDbEntity
  8
0
100
AcDbVertex
100
AcDbPolygonMeshVertex
 10
-2.995
 20
-8.53
 30
2.597
 70
    64
  0
VERTEX
  5
5FFBB
100
AcDbEntity
  8
0
100
AcDbVertex
100
AcDbPolygonMeshVertex
 10
-2.495
 20
-9.47
 30
2.597
 70
    64
  0
VERTEX
  5
5FFBC
100
AcDbEntity
  8
0
100
AcDbVertex
100
AcDbPolygonMeshVertex
 10
-2.495
 20
-9.47
 30
2.597
 70
    64
  0
VERTEX
  5
5FFBD
100
AcDbEntity
  8
0
100
AcDbVertex
100
AcDbPolygonMeshVertex
 10
-2.495
 20
-8.53
 30
2.597
 70
    64
  0
SEQEND
  5
5FFBE
100
AcDbEntity
  8
0
  0
POLYLINE
  5
5FFBF
100
AcDbEntity
  8
0
100
AcDbPolygonMesh
 66
     1
 10
0.0
 20
0.0
 30
0.0
 70
    16
 71
     6
 72
     3
  0
VERTEX
  5
5FFC0
100
AcDbEntity
  8
0
100
AcDbVertex
100
AcDbPolygonMeshVertex
 10
-3.125
 20
-8.99
 30
2.847
 70
    64
  0
VERTEX
  5
5FFC1
100
AcDbEntity
  8
0
100
AcDbVertex
100
AcDbPolygonMeshVertex
 10
-3.125
 20
-8.99
 30
2.257
 70
    64
  0
VERTEX
  5
5FFC2
100
AcDbEntity
  8
0
100
AcDbVertex
100
AcDbPolygonMeshVertex
 10
-3.125
 20
-8.99
 30
2.257
 70
    64
  0
VERTEX
  5
5FFC3
100
AcDbEntity
  8
0
100
AcDbVertex
100
AcDbPolygonMeshVertex
 10
-3.435
 20
-8.99
 30
2.847
 70
    64
  0
VERTEX
  5
5FFC4
100
AcDbEntity
  8
0
100
AcDbVertex
100
AcDbPolygonMeshVertex
 10
-3.435
 20
-8.99
 30
2.257
 70
    64
  0
VERTEX
  5
5FFC5
100
AcDbEntity
  8
0
100
AcDbVertex
100
AcDbPolygonMeshVertex
 10
-3.435
 20
-8.99
 30
2.257
 70
    64
  0
VERTEX
  5
5FFC6
100
AcDbEntity
  8
0
100
AcDbVertex
100
AcDbPolygonMeshVertex
 10
-3.435
 20
-8.53
 30
2.847
 70
    64
  0
VERTEX
  5
5FFC7
100
AcDbEntity
  8
0
100
AcDbVertex
100
AcDbPolygonMeshVertex
 10
-3.435
 20
-8.53
 30
2.257
 70
    64
  0
VERTEX
  5
5FFC8
100
AcDbEntity
  8
0
100
AcDbVertex
100
AcDbPolygonMeshVertex
 10
-3.435
 20
-8.99
 30
2.257
 70
    64
  0
VERTEX
  5
5FFC9
100
AcDbEntity
  8
0
100
AcDbVertex
100
AcDbPolygonMeshVertex
 10
-3.125
 20
-8.53
 30
2.847
 70
    64
  0
VERTEX
  5
5FFCA
100
AcDbEntity
  8
0
100
AcDbVertex
100
AcDbPolygonMeshVertex
 10
-3.125
 20
-8.53
 30
2.257
 70
    64
  0
VERTEX
  5
5FFCB
100
AcDbEntity
  8
0
100
AcDbVertex
100
AcDbPolygonMeshVertex
 10
-3.125
 20
-8.99
 30
2.257
 70
    64
  0
VERTEX
  5
5FFCC
100
AcDbEntity
  8
0
100
AcDbVertex
100
AcDbPolygonMeshVertex
 10
-3.125
 20
-8.53
 30
2.847
 70
    64
  0
VERTEX
  5
5FFCD
100
AcDbEntity
  8
0
100
AcDbVertex
100
AcDbPolygonMeshVertex
 10
-3.125
 20
-8.53
 30
2.847
 70
    64
  0
VERTEX
  5
5FFCE
100
AcDbEntity
  8
0
100
AcDbVertex
100
AcDbPolygonMeshVertex
 10
-3.125
 20
-8.99
 30
2.847
 70
    64
  0
VERTEX
  5
5FFCF
100
AcDbEntity
  8
0
100
AcDbVertex
100
AcDbPolygonMeshVertex
 10
-3.435
 20
-8.53
 30
2.847
 70
    64
  0
VERTEX
  5
5FFD0
100
AcDbEntity
  8
0
100
AcDbVertex
100
AcDbPolygonMeshVertex
 10
-3.435
 20
-8.53
 30
2.847
 70
    64
  0
VERTEX
  5
5FFD1
100
AcDbEntity
  8
0
100
AcDbVertex
100
AcDbPolygonMeshVertex
 10
-3.435
 20
-8.99
 30
2.847
 70
    64
  0
SEQEND
  5
5FFD2
100
AcDbEntity
  8
0
  0
POLYLINE
  5
5FFD3
100
AcDbEntity
  8
0
100
AcDbPolygonMesh
 66
     1
 10
0.0
 20
0.0
 30
0.0
 70
    16
 71
     6
 72
     3
  0
VERTEX
  5
5FFD4
100
AcDbEntity
  8
0
100
AcDbVertex
100
AcDbPolygonMeshVertex
 10
-4.055
 20
-8.53
 30
2.597
 70
    64
  0
VERTEX
  5
5FFD5
100
AcDbEntity
  8
0
100
AcDbVertex
100
AcDbPolygonMeshVertex
 10
-4.055
 20
-8.53
 30
2.257
 70
    64
  0
VERTEX
  5
5FFD6
100
AcDbEntity
  8
0
100
AcDbVertex
100
AcDbPolygonMeshVertex
 10
-4.055
 20
-8.53
 30
2.257
 70
    64
  0
VERTEX
  5
5FFD7
100
AcDbEntity
  8
0
100
AcDbVertex
100
AcDbPolygonMeshVertex
 10
-3.555
 20
-8.53
 30
2.597
 70
    64
  0
VERTEX
  5
5FFD8
100
AcDbEntity
  8
0
100
AcDbVertex
100
AcDbPolygonMeshVertex
 10
-3.555
 20
-8.53
 30
2.257
 70
    64
  0
VERTEX
  5
5FFD9
100
AcDbEntity
  8
0
100
AcDbVertex
100
AcDbPolygonMeshVertex
 10
-3.555
 20
-8.53
 30
2.257
 70
    64
  0
VERTEX
  5
5FFDA
100
AcDbEntity
  8
0
100
AcDbVertex
100
AcDbPolygonMeshVertex
 10
-3.555
 20
-9.47
 30
2.597
 70
    64
  0
VERTEX
  5
5FFDB
100
AcDbEntity
  8
0
100
AcDbVertex
100
AcDbPolygonMeshVertex
 10
-3.555
 20
-9.47
 30
2.257
 70
    64
  0
VERTEX
  5
5FFDC
100
AcDbEntity
  8
0
100
AcDbVertex
100
AcDbPolygonMeshVertex
 10
-3.555
 20
-8.53
 30
2.257
 70
    64
  0
VERTEX
  5
5FFDD
100
AcDbEntity
  8
0
100
AcDbVertex
100
AcDbPolygonMeshVertex
 10
-4.055
 20
-9.47
 30
2.597
 70
    64
  0
VERTEX
  5
5FFDE
100
AcDbEntity
  8
0
100
AcDbVertex
100
AcDbPolygonMeshVertex
 10
-4.055
 20
-9.47
 30
2.257
 70
    64
  0
VERTEX
  5
5FFDF
100
AcDbEntity
  8
0
100
AcDbVertex
100
AcDbPolygonMeshVertex
 10
-4.055
 20
-8.53
 30
2.257
 70
    64
  0
VERTEX
  5
5FFE0
100
AcDbEntity
  8
0
100
AcDbVertex
100
AcDbPolygonMeshVertex
 10
-4.055
 20
-9.47
 30
2.597
 70
    64
  0
VERTEX
  5
5FFE1
100
AcDbEntity
  8
0
100
AcDbVertex
100
AcDbPolygonMeshVertex
 10
-4.055
 20
-9.47
 30
2.597
 70
    64
  0
VERTEX
  5
5FFE2
100
AcDbEntity
  8
0
100
AcDbVertex
100
AcDbPolygonMeshVertex
 10
-4.055
 20
-8.53
 30
2.597
 70
    64
  0
VERTEX
  5
5FFE3
100
AcDbEntity
  8
0
100
AcDbVertex
100
AcDbPolygonMeshVertex
 10
-3.555
 20
-9.47
 30
2.597
 70
    64
  0
VERTEX
  5
5FFE4
100
AcDbEntity
  8
0
100
AcDbVertex
100
AcDbPolygonMeshVertex
 10
-3.555
 20
-9.47
 30
2.597
 70
    64
  0
VERTEX
  5
5FFE5
100
AcDbEntity
  8
0
100
AcDbVertex
100
AcDbPolygonMeshVertex
 10
-3.555
 20
-8.53
 30
2.597
 70
    64
  0
SEQEND
  5
5FFE6
100
AcDbEntity
  8
0
  0
POLYLINE
  5
5FFE7
100
AcDbEntity
  8
0
100
AcDbPolygonMesh
 66
     1
 10
0.0
 20
0.0
 30
0.0
 70
    16
 71
     6
 72
     3
  0
VERTEX
  5
5FFE8
100
AcDbEntity
  8
0
100
AcDbVertex
100
AcDbPolygonMeshVertex
 10
-0.935
 20
-8.53
 30
3.757
 70
    64
  0
VERTEX
  5
5FFE9
100
AcDbEntity
  8
0
100
AcDbVertex
100
AcDbPolygonMeshVertex
 10
-0.935
 20
-8.53
 30
0.387
 70
    64
  0
VERTEX
  5
5FFEA
100
AcDbEntity
  8
0
100
AcDbVertex
100
AcDbPolygonMeshVertex
 10
-0.935
 20
-8.53
 30
0.387
 70
    64
  0
VERTEX
  5
5FFEB
100
AcDbEntity
  8
0
100
AcDbVertex
100
AcDbPolygonMeshVertex
 10
-4.555
 20
-8.53
 30
3.757
 70
    64
  0
VERTEX
  5
5FFEC
100
AcDbEntity
  8
0
100
AcDbVertex
100
AcDbPolygonMeshVertex
 10
-4.555
 20
-8.53
 30
0.387
 70
    64
  0
VERTEX
  5
5FFED
100
AcDbEntity
  8
0
100
AcDbVertex
100
AcDbPolygonMeshVertex
 10
-4.555
 20
-8.53
 30
0.387
 70
    64
  0
VERTEX
  5
5FFEE
100
AcDbEntity
  8
0
100
AcDbVertex
100
AcDbPolygonMeshVertex
 10
-4.555
 20
-6.71
 30
3.757
 70
    64
  0
VERTEX
  5
5FFEF
100
AcDbEntity
  8
0
100
AcDbVertex
100
AcDbPolygonMeshVertex
 10
-4.555
 20
-6.71
 30
0.387
 70
    64
  0
VERTEX
  5
5FFF0
100
AcDbEntity
  8
0
100
AcDbVertex
100
AcDbPolygonMeshVertex
 10
-4.555
 20
-8.53
 30
0.387
 70
    64
  0
VERTEX
  5
5FFF1
100
AcDbEntity
  8
0
100
AcDbVertex
100
AcDbPolygonMeshVertex
 10
-0.935
 20
-6.71
 30
3.757
 70
    64
  0
VERTEX
  5
5FFF2
100
AcDbEntity
  8
0
100
AcDbVertex
100
AcDbPolygonMeshVertex
 10
-0.935
 20
-6.71
 30
0.387
 70
    64
  0
VERTEX
  5
5FFF3
100
AcDbEntity
  8
0
100
AcDbVertex
100
AcDbPolygonMeshVertex
 10
-0.935
 20
-8.53
 30
0.387
 70
    64
  0
VERTEX
  5
5FFF4
100
AcDbEntity
  8
0
100
AcDbVertex
100
AcDbPolygonMeshVertex
 10
-0.935
 20
-6.71
 30
3.757
 70
    64
  0
VERTEX
  5
5FFF5
100
AcDbEntity
  8
0
100
AcDbVertex
100
AcDbPolygonMeshVertex
 10
-0.935
 20
-6.71
 30
3.757
 70
    64
  0
VERTEX
  5
5FFF6
100
AcDbEntity
  8
0
100
AcDbVertex
100
AcDbPolygonMeshVertex
 10
-0.935
 20
-8.53
 30
3.757
 70
    64
  0
VERTEX
  5
5FFF7
100
AcDbEntity
  8
0
100
AcDbVertex
100
AcDbPolygonMeshVertex
 10
-4.555
 20
-6.71
 30
3.757
 70
    64
  0
VERTEX
  5
5FFF8
100
AcDbEntity
  8
0
100
AcDbVertex
100
AcDbPolygonMeshVertex
 10
-4.555
 20
-6.71
 30
3.757
 70
    64
  0
VERTEX
  5
5FFF9
100
AcDbEntity
  8
0
100
AcDbVertex
100
AcDbPolygonMeshVertex
 10
-4.555
 20
-8.53
 30
3.757
 70
    64
  0
SEQEND
  5
5FFFA
100
AcDbEntity
  8
0
  0
POLYLINE
  5
5FFFB
100
AcDbEntity
  8
0
100
AcDbPolygonMesh
 66
     1
 10
0.0
 20
0.0
 30
0.0
 70
    16
 71
     6
 72
     3
  0
VERTEX
  5
5FFFC
100
AcDbEntity
  8
0
100
AcDbVertex
100
AcDbPolygonMeshVertex
 10
-4.555
 20
-8.53
 30
0.387
 70
    64
  0
VERTEX
  5
5FFFD
100
AcDbEntity
  8
0
100
AcDbVertex
100
AcDbPolygonMeshVertex
 10
-4.555
 20
-8.53
 30
0.387
 70
    64
  0
VERTEX
  5
5FFFE
100
AcDbEntity
  8
0
100
AcDbVertex
100
AcDbPolygonMeshVertex
 10
-4.555
 20
-8.53
 30
0.387
 70
    64
  0
VERTEX
  5
5FFFF
100
AcDbEntity
  8
0
100
AcDbVertex
100
AcDbPolygonMeshVertex
 10
-4.555
 20
-8.99
 30
1.877
 70
    64
  0
VERTEX
  5
60000
100
AcDbEntity
  8
0
100
AcDbVertex
100
AcDbPolygonMeshVertex
 10
-4.555
 20
-8.53
 30
1.877
 70
    64
  0
VERTEX
  5
60001
100
AcDbEntity
  8
0
100
AcDbVertex
100
AcDbPolygonMeshVertex
 10
-4.555
 20
-8.53
 30
1.877
 70
    64
  0
VERTEX
  5
60002
100
AcDbEntity
  8
0
100
AcDbVertex
100
AcDbPolygonMeshVertex
 10
-0.935
 20
-8.99
 30
1.877
 70
    64
  0
VERTEX
  5
60003
100
AcDbEntity
  8
0
100
AcDbVertex
100
AcDbPolygonMeshVertex
 10
-0.935
 20
-8.53
 30
1.877
 70
    64
  0
VERTEX
  5
60004
100
AcDbEntity
  8
0
100
AcDbVertex
100
AcDbPolygonMeshVertex
 10
-4.555
 20
-8.53
 30
1.877
 70
    64
  0
VERTEX
  5
60005
100
AcDbEntity
  8
0
100
AcDbVertex
100
AcDbPolygonMeshVertex
 10
-0.935
 20
-8.53
 30
0.387
 70
    64
  0
VERTEX
  5
60006
100
AcDbEntity
  8
0
100
AcDbVertex
100
AcDbPolygonMeshVertex
 10
-0.935
 20
-8.53
 30
0.387
 70
    64
  0
VERTEX
  5
60007
100
AcDbEntity
  8
0
100
AcDbVertex
100
AcDbPolygonMeshVertex
 10
-4.555
 20
-8.53
 30
0.387
 70
    64
  0
VERTEX
  5
60008
100
AcDbEntity
  8
0
100
AcDbVertex
100
AcDbPolygonMeshVertex
 10
-0.935
 20
-8.53
 30
0.387
 70
    64
  0
VERTEX
  5
60009
100
AcDbEntity
  8
0
100
AcDbVertex
100
AcDbPolygonMeshVertex
 10
-0.935
 20
-8.53
 30
0.387
 70
    64
  0
VERTEX
  5
6000A
100
AcDbEntity
  8
0
100
AcDbVertex
100
AcDbPolygonMeshVertex
 10
-4.555
 20
-8.53
 30
0.387
 70
    64
  0
VERTEX
  5
6000B
100
AcDbEntity
  8
0
100
AcDbVertex
100
AcDbPolygonMeshVertex
 10
-0.935
 20
-8.99
 30
1.877
 70
    64
  0
VERTEX
  5
6000C
100
AcDbEntity
  8
0
100
AcDbVertex
100
AcDbPolygonMeshVertex
 10
-0.935
 20
-8.99
 30
1.877
 70
    64
  0
VERTEX
  5
6000D
100
AcDbEntity
  8
0
100
AcDbVertex
100
AcDbPolygonMeshVertex
 10
-4.555
 20
-8.99
 30
1.877
 70
    64
  0
SEQEND
  5
6000E
100
AcDbEntity
  8
0
  0
POLYLINE
  5
6000F
100
AcDbEntity
  8
0
100
AcDbPolygonMesh
 66
     1
 10
0.0
 20
0.0
 30
0.0
 70
    16
 71
     6
 72
     3
  0
VERTEX
  5
60010
100
AcDbEntity
  8
0
100
AcDbVertex
100
AcDbPolygonMeshVertex
 10
-0.935
 20
-8.99
 30
2.257
 70
    64
  0
VERTEX
  5
60011
100
AcDbEntity
  8
0
100
AcDbVertex
100
AcDbPolygonMeshVertex
 10
-0.935
 20
-8.99
 30
1.877
 70
    64
  0
VERTEX
  5
60012
100
AcDbEntity
  8
0
100
AcDbVertex
100
AcDbPolygonMeshVertex
 10
-0.935
 20
-8.99
 30
1.877
 70
    64
  0
VERTEX
  5
60013
100
AcDbEntity
  8
0
100
AcDbVertex
100
AcDbPolygonMeshVertex
 10
-4.555
 20
-8.99
 30
2.257
 70
    64
  0
VERTEX
  5
60014
100
AcDbEntity
  8
0
100
AcDbVertex
100
AcDbPolygonMeshVertex
 10
-4.555
 20
-8.99
 30
1.877
 70
    64
  0
VERTEX
  5
60015
100
AcDbEntity
  8
0
100
AcDbVertex
100
AcDbPolygonMeshVertex
 10
-4.555
 20
-8.99
 30
1.877
 70
    64
  0
VERTEX
  5
60016
100
AcDbEntity
  8
0
100
AcDbVertex
100
AcDbPolygonMeshVertex
 10
-4.555
 20
-8.53
 30
2.257
 70
    64
  0
VERTEX
  5
60017
100
AcDbEntity
  8
0
100
AcDbVertex
100
AcDbPolygonMeshVertex
 10
-4.555
 20
-8.53
 30
1.877
 70
    64
  0
VERTEX
  5
60018
100
AcDbEntity
  8
0
100
AcDbVertex
100
AcDbPolygonMeshVertex
 10
-4.555
 20
-8.99
 30
1.877
 70
    64
  0
VERTEX
  5
60019
100
AcDbEntity
  8
0
100
AcDbVertex
100
AcDbPolygonMeshVertex
 10
-0.935
 20
-8.53
 30
2.257
 70
    64
  0
VERTEX
  5
6001A
100
AcDbEntity
  8
0
100
AcDbVertex
100
AcDbPolygonMeshVertex
 10
-0.935
 20
-8.53
 30
1.877
 70
    64
  0
VERTEX
  5
6001B
100
AcDbEntity
  8
0
100
AcDbVertex
100
AcDbPolygonMeshVertex
 10
-0.935
 20
-8.99
 30
1.877
 70
    64
  0
VERTEX
  5
6001C
100
AcDbEntity
  8
0
100
AcDbVertex
100
AcDbPolygonMeshVertex
 10
-0.935
 20
-8.53
 30
2.257
 70
    64
  0
VERTEX
  5
6001D
100
AcDbEntity
  8
0
100
AcDbVertex
100
AcDbPolygonMeshVertex
 10
-0.935
 20
-8.53
 30
2.257
 70
    64
  0
VERTEX
  5
6001E
100
AcDbEntity
  8
0
100
AcDbVertex
100
AcDbPolygonMeshVertex
 10
-0.935
 20
-8.99
 30
2.257
 70
    64
  0
VERTEX
  5
6001F
100
AcDbEntity
  8
0
100
AcDbVertex
100
AcDbPolygonMeshVertex
 10
-4.555
 20
-8.53
 30
2.257
 70
    64
  0
VERTEX
  5
60020
100
AcDbEntity
  8
0
100
AcDbVertex
100
AcDbPolygonMeshVertex
 10
-4.555
 20
-8.53
 30
2.257
 70
    64
  0
VERTEX
  5
60021
100
AcDbEntity
  8
0
100
AcDbVertex
100
AcDbPolygonMeshVertex
 10
-4.555
 20
-8.99
 30
2.257
 70
    64
  0
SEQEND
  5
60022
100
AcDbEntity
  8
0
  0
LINE
  5
60023
100
AcDbEntity
  8
0
100
AcDbLine
 10
-4.555
 20
-8.99
 30
1.877
 11
-4.555
 21
-8.53
 31
1.877
  0
3DFACE
  5
60024
100
AcDbEntity
  8
0
100
AcDbFace
 10
-3.145
 20
-6.87
 30
3.757
 11
-3.145
 21
-7.13
 31
3.757
 12
-3.145
 22
-7.13
 32
4.077
 13
-3.145
 23
-6.87
 33
4.077
 70
    14
  0
3DFACE
  5
60025
100
AcDbEntity
  8
0
100
AcDbFace
 10
-3.145
 20
-6.87
 30
3.757
 11
-3.145
 21
-7.13
 31
3.757
 12
-3.145
 22
-7.13
 32
4.077
 13
-3.145
 23
-6.87
 33
4.077
 70
    14
  0
LINE
  5
60026
100
AcDbEntity
  8
0
100
AcDbLine
 10
-3.145
 20
-7.13
 30
4.077
 11
-3.145
 21
-7.13
 31
3.757
  0
LINE
  5
60027
100
AcDbEntity
  8
0
100
AcDbLine
 10
-3.145
 20
-6.87
 30
4.077
 11
-3.145
 21
-6.87
 31
3.757
  0
3DFACE
  5
60028
100
AcDbEntity
  8
0
100
AcDbFace
 10
-3.405
 20
-7.13
 30
3.757
 11
-3.405
 21
-6.87
 31
3.757
 12
-3.405
 22
-6.87
 32
4.077
 13
-3.405
 23
-7.13
 33
4.077
 70
    14
  0
LINE
  5
60029
100
AcDbEntity
  8
0
100
AcDbLine
 10
-3.405
 20
-7.13
 30
4.077
 11
-3.405
 21
-7.13
 31
3.757
  0
LINE
  5
6002A
100
AcDbEntity
  8
0
100
AcDbLine
 10
-3.405
 20
-6.87
 30
4.077
 11
-3.405
 21
-6.87
 31
3.757
  0
3DFACE
  5
6002B
100
AcDbEntity
  8
0
100
AcDbFace
 10
-3.145
 20
-7.13
 30
3.757
 11
-3.145
 21
-7.13
 31
4.077
 12
-3.405
 22
-7.13
 32
4.077
 13
-3.405
 23
-7.13
 33
3.757
 70
    14
  0
3DFACE
  5
6002C
100
AcDbEntity
  8
0
100
AcDbFace
 10
-3.405
 20
-6.87
 30
3.757
 11
-3.145
 21
-6.87
 31
3.757
 12
-3.145
 22
-6.87
 32
4.077
 13
-3.405
 23
-6.87
 33
4.077
 70
    14
  0
LINE
  5
6002D
100
AcDbEntity
  8
0
100
AcDbLine
 10
-1.748015
 20
-9.111791
 30
2.727
 11
-1.614583
 21
-9.322738
 31
2.727
  0
LINE
  5
6002E
100
AcDbEntity
  8
0
100
AcDbLine
 10
-1.757652
 20
-9.118281
 30
2.727
 11
-1.62422
 21
-9.329228
 31
2.727
  0
LINE
  5
6002F
100
AcDbEntity
  8
0
100
AcDbLine
 10
-2.808015
 20
-9.111791
 30
2.727
 11
-2.674583
 21
-9.322738
 31
2.727
  0
LINE
  5
60030
100
AcDbEntity
  8
0
100
AcDbLine
 10
-2.817652
 20
-9.118281
 30
2.727
 11
-2.68422
 21
-9.329228
 31
2.727
  0
CIRCLE
  5
60031
100
AcDbEntity
  8
0
100
AcDbCircle
 10
-1.685
 20
-9.22
 30
2.727
 40
0.125
  0
CIRCLE
  5
60032
100
AcDbEntity
  8
0
100
AcDbCircle
 10
-1.685
 20
-9.22
 30
2.727
 40
0.155
  0
POLYLINE
  5
60033
100
AcDbEntity
  8
0
100
AcDbPolygonMesh
 66
     1
 10
0.0
 20
0.0
 30
0.0
 70
    16
 71
     6
 72
     3
  0
VERTEX
  5
60034
100
AcDbEntity
  8
0
100
AcDbVertex
100
AcDbPolygonMeshVertex
 10
-1.435
 20
-9.47
 30
2.727
 70
    64
  0
VERTEX
  5
60035
100
AcDbEntity
  8
0
100
AcDbVertex
100
AcDbPolygonMeshVertex
 10
-1.435
 20
-9.47
 30
2.597
 70
    64
  0
VERTEX
  5
60036
100
AcDbEntity
  8
0
100
AcDbVertex
100
AcDbPolygonMeshVertex
 10
-1.435
 20
-9.47
 30
2.597
 70
    64
  0
VERTEX
  5
60037
100
AcDbEntity
  8
0
100
AcDbVertex
100
AcDbPolygonMeshVertex
 10
-1.935
 20
-9.47
 30
2.727
 70
    64
  0
VERTEX
  5
60038
100
AcDbEntity
  8
0
100
AcDbVertex
100
AcDbPolygonMeshVertex
 10
-1.935
 20
-9.47
 30
2.597
 70
    64
  0
VERTEX
  5
60039
100
AcDbEntity
  8
0
100
AcDbVertex
100
AcDbPolygonMeshVertex
 10
-1.935
 20
-9.47
 30
2.597
 70
    64
  0
VERTEX
  5
6003A
100
AcDbEntity
  8
0
100
AcDbVertex
100
AcDbPolygonMeshVertex
 10
-1.935
 20
-8.97
 30
2.727
 70
    64
  0
VERTEX
  5
6003B
100
AcDbEntity
  8
0
100
AcDbVertex
100
AcDbPolygonMeshVertex
 10
-1.935
 20
-8.97
 30
2.597
 70
    64
  0
VERTEX
  5
6003C
100
AcDbEntity
  8
0
100
AcDbVertex
100
AcDbPolygonMeshVertex
 10
-1.935
 20
-9.47
 30
2.597
 70
    64
  0
VERTEX
  5
6003D
100
AcDbEntity
  8
0
100
AcDbVertex
100
AcDbPolygonMeshVertex
 10
-1.435
 20
-8.97
 30
2.727
 70
    64
  0
VERTEX
  5
6003E
100
AcDbEntity
  8
0
100
AcDbVertex
100
AcDbPolygonMeshVertex
 10
-1.435
 20
-8.97
 30
2.597
 70
    64
  0
VERTEX
  5
6003F
100
AcDbEntity
  8
0
100
AcDbVertex
100
AcDbPolygonMeshVertex
 10
-1.435
 20
-9.47
 30
2.597
 70
    64
  0
VERTEX
  5
60040
100
AcDbEntity
  8
0
100
AcDbVertex
100
AcDbPolygonMeshVertex
 10
-1.435
 20
-8.97
 30
2.727
 70
    64
  0
VERTEX
  5
60041
100
AcDbEntity
  8
0
100
AcDbVertex
100
AcDbPolygonMeshVertex
 10
-1.435
 20
-8.97
 30
2.727
 70
    64
  0
VERTEX
  5
60042
100
AcDbEntity
  8
0
100
AcDbVertex
100
AcDbPolygonMeshVertex
 10
-1.435
 20
-9.47
 30
2.727
 70
    64
  0
VERTEX
  5
60043
100
AcDbEntity
  8
0
100
AcDbVertex
100
AcDbPolygonMeshVertex
 10
-1.935
 20
-8.97
 30
2.727
 70
    64
  0
VERTEX
  5
60044
100
AcDbEntity
  8
0
100
AcDbVertex
100
AcDbPolygonMeshVertex
 10
-1.935
 20
-8.97
 30
2.727
 70
    64
  0
VERTEX
  5
60045
100
AcDbEntity
  8
0
100
AcDbVertex
100
AcDbPolygonMeshVertex
 10
-1.935
 20
-9.47
 30
2.727
 70
    64
  0
SEQEND
  5
60046
100
AcDbEntity
  8
0
  0
CIRCLE
  5
60047
100
AcDbEntity
  8
0
100
AcDbCircle
 10
-2.745
 20
-9.22
 30
2.727
 40
0.125
  0
CIRCLE
  5
60048
100
AcDbEntity
  8
0
100
AcDbCircle
 10
-2.745
 20
-9.22
 30
2.727
 40
0.155
  0
POLYLINE
  5
60049
100
AcDbEntity
  8
0
100
AcDbPolygonMesh
 66
     1
 10
0.0
 20
0.0
 30
0.0
 70
    16
 71
     6
 72
     3
  0
VERTEX
  5
6004A
100
AcDbEntity
  8
0
100
AcDbVertex
100
AcDbPolygonMeshVertex
 10
-2.495
 20
-9.47
 30
2.727
 70
    64
  0
VERTEX
  5
6004B
100
AcDbEntity
  8
0
100
AcDbVertex
100
AcDbPolygonMeshVertex
 10
-2.495
 20
-9.47
 30
2.597
 70
    64
  0
VERTEX
  5
6004C
100
AcDbEntity
  8
0
100
AcDbVertex
100
AcDbPolygonMeshVertex
 10
-2.495
 20
-9.47
 30
2.597
 70
    64
  0
VERTEX
  5
6004D
100
AcDbEntity
  8
0
100
AcDbVertex
100
AcDbPolygonMeshVertex
 10
-2.995
 20
-9.47
 30
2.727
 70
    64
  0
VERTEX
  5
6004E
100
AcDbEntity
  8
0
100
AcDbVertex
100
AcDbPolygonMeshVertex
 10
-2.995
 20
-9.47
 30
2.597
 70
    64
  0
VERTEX
  5
6004F
100
AcDbEntity
  8
0
100
AcDbVertex
100
AcDbPolygonMeshVertex
 10
-2.995
 20
-9.47
 30
2.597
 70
    64
  0
VERTEX
  5
60050
100
AcDbEntity
  8
0
100
AcDbVertex
100
AcDbPolygonMeshVertex
 10
-2.995
 20
-8.97
 30
2.727
 70
    64
  0
VERTEX
  5
60051
100
AcDbEntity
  8
0
100
AcDbVertex
100
AcDbPolygonMeshVertex
 10
-2.995
 20
-8.97
 30
2.597
 70
    64
  0
VERTEX
  5
60052
100
AcDbEntity
  8
0
100
AcDbVertex
100
AcDbPolygonMeshVertex
 10
-2.995
 20
-9.47
 30
2.597
 70
    64
  0
VERTEX
  5
60053
100
AcDbEntity
  8
0
100
AcDbVertex
100
AcDbPolygonMeshVertex
 10
-2.495
 20
-8.97
 30
2.727
 70
    64
  0
VERTEX
  5
60054
100
AcDbEntity
  8
0
100
AcDbVertex
100
AcDbPolygonMeshVertex
 10
-2.495
 20
-8.97
 30
2.597
 70
    64
  0
VERTEX
  5
60055
100
AcDbEntity
  8
0
100
AcDbVertex
100
AcDbPolygonMeshVertex
 10
-2.495
 20
-9.47
 30
2.597
 70
    64
  0
VERTEX
  5
60056
100
AcDbEntity
  8
0
100
AcDbVertex
100
AcDbPolygonMeshVertex
 10
-2.495
 20
-8.97
 30
2.727
 70
    64
  0
VERTEX
  5
60057
100
AcDbEntity
  8
0
100
AcDbVertex
100
AcDbPolygonMeshVertex
 10
-2.495
 20
-8.97
 30
2.727
 70
    64
  0
VERTEX
  5
60058
100
AcDbEntity
  8
0
100
AcDbVertex
100
AcDbPolygonMeshVertex
 10
-2.495
 20
-9.47
 30
2.727
 70
    64
  0
VERTEX
  5
60059
100
AcDbEntity
  8
0
100
AcDbVertex
100
AcDbPolygonMeshVertex
 10
-2.995
 20
-8.97
 30
2.727
 70
    64
  0
VERTEX
  5
6005A
100
AcDbEntity
  8
0
100
AcDbVertex
100
AcDbPolygonMeshVertex
 10
-2.995
 20
-8.97
 30
2.727
 70
    64
  0
VERTEX
  5
6005B
100
AcDbEntity
  8
0
100
AcDbVertex
100
AcDbPolygonMeshVertex
 10
-2.995
 20
-9.47
 30
2.727
 70
    64
  0
SEQEND
  5
6005C
100
AcDbEntity
  8
0
  0
LINE
  5
6005D
100
AcDbEntity
  8
0
100
AcDbLine
 10
-3.877652
 20
-9.118281
 30
2.727
 11
-3.74422
 21
-9.329228
 31
2.727
  0
LINE
  5
6005E
100
AcDbEntity
  8
0
100
AcDbLine
 10
-3.868015
 20
-9.111791
 30
2.727
 11
-3.734583
 21
-9.322738
 31
2.727
  0
CIRCLE
  5
6005F
100
AcDbEntity
  8
0
100
AcDbCircle
 10
-3.805
 20
-9.22
 30
2.727
 40
0.125
  0
CIRCLE
  5
60060
100
AcDbEntity
  8
0
100
AcDbCircle
 10
-3.805
 20
-9.22
 30
2.727
 40
0.155
  0
POLYLINE
  5
60061
100
AcDbEntity
  8
0
100
AcDbPolygonMesh
 66
     1
 10
0.0
 20
0.0
 30
0.0
 70
    16
 71
     6
 72
     3
  0
VERTEX
  5
60062
100
AcDbEntity
  8
0
100
AcDbVertex
100
AcDbPolygonMeshVertex
 10
-3.555
 20
-9.47
 30
2.727
 70
    64
  0
VERTEX
  5
60063
100
AcDbEntity
  8
0
100
AcDbVertex
100
AcDbPolygonMeshVertex
 10
-3.555
 20
-9.47
 30
2.597
 70
    64
  0
VERTEX
  5
60064
100
AcDbEntity
  8
0
100
AcDbVertex
100
AcDbPolygonMeshVertex
 10
-3.555
 20
-9.47
 30
2.597
 70
    64
  0
VERTEX
  5
60065
100
AcDbEntity
  8
0
100
AcDbVertex
100
AcDbPolygonMeshVertex
 10
-4.055
 20
-9.47
 30
2.727
 70
    64
  0
VERTEX
  5
60066
100
AcDbEntity
  8
0
100
AcDbVertex
100
AcDbPolygonMeshVertex
 10
-4.055
 20
-9.47
 30
2.597
 70
    64
  0
VERTEX
  5
60067
100
AcDbEntity
  8
0
100
AcDbVertex
100
AcDbPolygonMeshVertex
 10
-4.055
 20
-9.47
 30
2.597
 70
    64
  0
VERTEX
  5
60068
100
AcDbEntity
  8
0
100
AcDbVertex
100
AcDbPolygonMeshVertex
 10
-4.055
 20
-8.97
 30
2.727
 70
    64
  0
VERTEX
  5
60069
100
AcDbEntity
  8
0
100
AcDbVertex
100
AcDbPolygonMeshVertex
 10
-4.055
 20
-8.97
 30
2.597
 70
    64
  0
VERTEX
  5
6006A
100
AcDbEntity
  8
0
100
AcDbVertex
100
AcDbPolygonMeshVertex
 10
-4.055
 20
-9.47
 30
2.597
 70
    64
  0
VERTEX
  5
6006B
100
AcDbEntity
  8
0
100
AcDbVertex
100
AcDbPolygonMeshVertex
 10
-3.555
 20
-8.97
 30
2.727
 70
    64
  0
VERTEX
  5
6006C
100
AcDbEntity
  8
0
100
AcDbVertex
100
AcDbPolygonMeshVertex
 10
-3.555
 20
-8.97
 30
2.597
 70
    64
  0
VERTEX
  5
6006D
100
AcDbEntity
  8
0
100
AcDbVertex
100
AcDbPolygonMeshVertex
 10
-3.555
 20
-9.47
 30
2.597
 70
    64
  0
VERTEX
  5
6006E
100
AcDbEntity
  8
0
100
AcDbVertex
100
AcDbPolygonMeshVertex
 10
-3.555
 20
-8.97
 30
2.727
 70
    64
  0
VERTEX
  5
6006F
100
AcDbEntity
  8
0
100
AcDbVertex
100
AcDbPolygonMeshVertex
 10
-3.555
 20
-8.97
 30
2.727
 70
    64
  0
VERTEX
  5
60070
100
AcDbEntity
  8
0
100
AcDbVertex
100
AcDbPolygonMeshVertex
 10
-3.555
 20
-9.47
 30
2.727
 70
    64
  0
VERTEX
  5
60071
100
AcDbEntity
  8
0
100
AcDbVertex
100
AcDbPolygonMeshVertex
 10
-4.055
 20
-8.97
 30
2.727
 70
    64
  0
VERTEX
  5
60072
100
AcDbEntity
  8
0
100
AcDbVertex
100
AcDbPolygonMeshVertex
 10
-4.055
 20
-8.97
 30
2.727
 70
    64
  0
VERTEX
  5
60073
100
AcDbEntity
  8
0
100
AcDbVertex
100
AcDbPolygonMeshVertex
 10
-4.055
 20
-9.47
 30
2.727
 70
    64
  0
SEQEND
  5
60074
100
AcDbEntity
  8
0
  0
LINE
  5
60075
100
AcDbEntity
  8
0
100
AcDbLine
 10
-3.145
 20
-7.13
 30
3.757
 11
-3.145
 21
-6.87
 31
3.757
  0
LINE
  5
60076
100
AcDbEntity
  8
0
100
AcDbLine
 10
-3.405
 20
-6.87
 30
3.757
 11
-3.405
 21
-7.13
 31
3.757
  0
LINE
  5
60077
100
AcDbEntity
  8
0
100
AcDbLine
 10
-3.405
 20
-7.13
 30
3.757
 11
-3.145
 21
-7.13
 31
3.757
  0
LINE
  5
60078
100
AcDbEntity
  8
0
100
AcDbLine
 10
-3.145
 20
-6.87
 30
3.757
 11
-3.405
 21
-6.87
 31
3.757
  0
3DFACE
  5
60079
100
AcDbEntity
  8
0
100
AcDbFace
 10
-2.965
 20
-7.375
 30
4.697
 11
-2.965
 21
-6.625
 31
4.697
 12
-2.965
 22
-6.625
 32
4.577
 13
-2.965
 23
-7.375
 33
4.577
 70
    14
  0
LINE
  5
6007A
100
AcDbEntity
  8
0
100
AcDbLine
 10
-2.965
 20
-7.375
 30
4.697
 11
-2.965
 21
-6.625
 31
4.697
  0
LINE
  5
6007B
100
AcDbEntity
  8
0
100
AcDbLine
 10
-2.965
 20
-7.375
 30
4.577
 11
-2.965
 21
-6.625
 31
4.577
  0
3DFACE
  5
6007C
100
AcDbEntity
  8
0
100
AcDbFace
 10
-3.585
 20
-7.375
 30
4.577
 11
-3.585
 21
-7.375
 31
4.697
 12
-3.585
 22
-6.625
 32
4.697
 13
-3.585
 23
-6.625
 33
4.577
 70
    14
  0
LINE
  5
6007D
100
AcDbEntity
  8
0
100
AcDbLine
 10
-3.585
 20
-6.625
 30
4.697
 11
-3.585
 21
-7.375
 31
4.697
  0
LINE
  5
6007E
100
AcDbEntity
  8
0
100
AcDbLine
 10
-3.585
 20
-6.625
 30
4.577
 11
-3.585
 21
-7.375
 31
4.577
  0
3DFACE
  5
6007F
100
AcDbEntity
  8
0
100
AcDbFace
 10
-2.965
 20
-7.375
 30
4.697
 11
-2.965
 21
-6.625
 31
4.697
 12
-3.585
 22
-6.625
 32
4.697
 13
-3.585
 23
-7.375
 33
4.697
 70
    14
  0
LINE
  5
60080
100
AcDbEntity
  8
0
100
AcDbLine
 10
-2.965
 20
-7.375
 30
4.577
 11
-3.025
 21
-7.25
 31
4.077
  0
3DFACE
  5
60081
100
AcDbEntity
  8
0
100
AcDbFace
 10
-2.965
 20
-6.625
 30
4.577
 11
-3.025
 21
-6.75
 31
4.077
 12
-3.025
 22
-7.25
 32
4.077
 13
-2.965
 23
-7.375
 33
4.577
 70
    14
  0
LINE
  5
60082
100
AcDbEntity
  8
0
100
AcDbLine
 10
-3.585
 20
-7.375
 30
4.577
 11
-3.525
 21
-7.25
 31
4.077
  0
3DFACE
  5
60083
100
AcDbEntity
  8
0
100
AcDbFace
 10
-3.525
 20
-7.25
 30
4.077
 11
-3.525
 21
-6.75
 31
4.077
 12
-3.585
 22
-6.625
 32
4.577
 13
-3.585
 23
-7.375
 33
4.577
 70
    14
  0
3DFACE
  5
60084
100
AcDbEntity
  8
0
100
AcDbFace
 10
-3.525
 20
-7.25
 30
4.077
 11
-3.025
 21
-7.25
 31
4.077
 12
-2.965
 22
-7.375
 32
4.577
 13
-3.585
 23
-7.375
 33
4.577
 70
    14
  0
3DFACE
  5
60085
100
AcDbEntity
  8
0
100
AcDbFace
 10
-3.585
 20
-7.375
 30
4.577
 11
-2.965
 21
-7.375
 31
4.577
 12
-2.965
 22
-7.375
 32
4.697
 13
-3.585
 23
-7.375
 33
4.697
 70
    14
  0
LINE
  5
60086
100
AcDbEntity
  8
0
100
AcDbLine
 10
-3.585
 20
-7.375
 30
4.697
 11
-2.965
 21
-7.375
 31
4.697
  0
LINE
  5
60087
100
AcDbEntity
  8
0
100
AcDbLine
 10
-3.585
 20
-7.375
 30
4.577
 11
-2.965
 21
-7.375
 31
4.577
  0
LINE
  5
60088
100
AcDbEntity
  8
0
100
AcDbLine
 10
-3.585
 20
-7.375
 30
4.697
 11
-3.585
 21
-7.375
 31
4.577
  0
LINE
  5
60089
100
AcDbEntity
  8
0
100
AcDbLine
 10
-2.965
 20
-7.375
 30
4.697
 11
-2.965
 21
-7.375
 31
4.577
  0
LINE
  5
6008A
100
AcDbEntity
  8
0
100
AcDbLine
 10
-2.965
 20
-6.625
 30
4.577
 11
-3.025
 21
-6.75
 31
4.077
  0
LINE
  5
6008B
100
AcDbEntity
  8
0
100
AcDbLine
 10
-3.585
 20
-6.625
 30
4.577
 11
-3.525
 21
-6.75
 31
4.077
  0
3DFACE
  5
6008C
100
AcDbEntity
  8
0
100
AcDbFace
 10
-2.965
 20
-6.625
 30
4.577
 11
-3.585
 21
-6.625
 31
4.577
 12
-3.525
 22
-6.75
 32
4.077
 13
-3.025
 23
-6.75
 33
4.077
 70
    14
  0
LINE
  5
6008D
100
AcDbEntity
  8
0
100
AcDbLine
 10
-3.525
 20
-7.25
 30
4.077
 11
-3.025
 21
-7.25
 31
4.077
  0
LINE
  5
6008E
100
AcDbEntity
  8
0
100
AcDbLine
 10
-3.025
 20
-6.75
 30
4.077
 11
-3.525
 21
-6.75
 31
4.077
  0
LINE
  5
6008F
100
AcDbEntity
  8
0
100
AcDbLine
 10
-3.525
 20
-6.75
 30
4.077
 11
-3.525
 21
-7.25
 31
4.077
  0
LINE
  5
60090
100
AcDbEntity
  8
0
100
AcDbLine
 10
-3.025
 20
-7.25
 30
4.077
 11
-3.025
 21
-6.75
 31
4.077
  0
LINE
  5
60091
100
AcDbEntity
  8
0
100
AcDbLine
 10
-3.145
 20
-7.13
 30
4.077
 11
-3.145
 21
-6.87
 31
4.077
  0
LINE
  5
60092
100
AcDbEntity
  8
0
100
AcDbLine
 10
-3.405
 20
-6.87
 30
4.077
 11
-3.405
 21
-7.13
 31
4.077
  0
LINE
  5
60093
100
AcDbEntity
  8
0
100
AcDbLine
 10
-3.405
 20
-7.13
 30
4.077
 11
-3.145
 21
-7.13
 31
4.077
  0
LINE
  5
60094
100
AcDbEntity
  8
0
100
AcDbLine
 10
-3.145
 20
-6.87
 30
4.077
 11
-3.405
 21
-6.87
 31
4.077
  0
3DFACE
  5
60095
100
AcDbEntity
  8
0
100
AcDbFace
 10
-2.965
 20
-6.625
 30
4.697
 11
-2.965
 21
-6.625
 31
4.577
 12
-3.585
 22
-6.625
 32
4.577
 13
-3.585
 23
-6.625
 33
4.697
 70
    14
  0
LINE
  5
60096
100
AcDbEntity
  8
0
100
AcDbLine
 10
-2.965
 20
-6.625
 30
4.697
 11
-3.585
 21
-6.625
 31
4.697
  0
LINE
  5
60097
100
AcDbEntity
  8
0
100
AcDbLine
 10
-2.965
 20
-6.625
 30
4.577
 11
-3.585
 21
-6.625
 31
4.577
  0
LINE
  5
60098
100
AcDbEntity
  8
0
100
AcDbLine
 10
-3.585
 20
-6.625
 30
4.697
 11
-3.585
 21
-6.625
 31
4.577
  0
LINE
  5
60099
100
AcDbEntity
  8
0
100
AcDbLine
 10
-2.965
 20
-6.625
 30
4.697
 11
-2.965
 21
-6.625
 31
4.577
  0
POLYLINE
  5
6009A
100
AcDbEntity
  8
0
100
AcDbPolygonMesh
 66
     1
 10
0.0
 20
0.0
 30
0.0
 70
    16
 71
     6
 72
     3
  0
VERTEX
  5
6009B
100
AcDbEntity
  8
0
100
AcDbVertex
100
AcDbPolygonMeshVertex
 10
-3.405
 20
-1.22
 30
4.027
 70
    64
  0
VERTEX
  5
6009C
100
AcDbEntity
  8
0
100
AcDbVertex
100
AcDbPolygonMeshVertex
 10
-3.405
 20
-1.22
 30
2.757
 70
    64
  0
VERTEX
  5
6009D
100
AcDbEntity
  8
0
100
AcDbVertex
100
AcDbPolygonMeshVertex
 10
-3.405
 20
-1.22
 30
2.757
 70
    64
  0
VERTEX
  5
6009E
100
AcDbEntity
  8
0
100
AcDbVertex
100
AcDbPolygonMeshVertex
 10
-3.245
 20
-1.22
 30
4.027
 70
    64
  0
VERTEX
  5
6009F
100
AcDbEntity
  8
0
100
AcDbVertex
100
AcDbPolygonMeshVertex
 10
-3.245
 20
-1.22
 30
2.757
 70
    64
  0
VERTEX
  5
600A0
100
AcDbEntity
  8
0
100
AcDbVertex
100
AcDbPolygonMeshVertex
 10
-3.245
 20
-1.22
 30
2.757
 70
    64
  0
VERTEX
  5
600A1
100
AcDbEntity
  8
0
100
AcDbVertex
100
AcDbPolygonMeshVertex
 10
-3.245
 20
-1.5
 30
4.027
 70
    64
  0
VERTEX
  5
600A2
100
AcDbEntity
  8
0
100
AcDbVertex
100
AcDbPolygonMeshVertex
 10
-3.245
 20
-1.5
 30
2.757
 70
    64
  0
VERTEX
  5
600A3
100
AcDbEntity
  8
0
100
AcDbVertex
100
AcDbPolygonMeshVertex
 10
-3.245
 20
-1.22
 30
2.757
 70
    64
  0
VERTEX
  5
600A4
100
AcDbEntity
  8
0
100
AcDbVertex
100
AcDbPolygonMeshVertex
 10
-3.405
 20
-1.5
 30
4.027
 70
    64
  0
VERTEX
  5
600A5
100
AcDbEntity
  8
0
100
AcDbVertex
100
AcDbPolygonMeshVertex
 10
-3.405
 20
-1.5
 30
2.757
 70
    64
  0
VERTEX
  5
600A6
100
AcDbEntity
  8
0
100
AcDbVertex
100
AcDbPolygonMeshVertex
 10
-3.405
 20
-1.22
 30
2.757
 70
    64
  0
VERTEX
  5
600A7
100
AcDbEntity
  8
0
100
AcDbVertex
100
AcDbPolygonMeshVertex
 10
-3.405
 20
-1.5
 30
4.027
 70
    64
  0
VERTEX
  5
600A8
100
AcDbEntity
  8
0
100
AcDbVertex
100
AcDbPolygonMeshVertex
 10
-3.405
 20
-1.5
 30
4.027
 70
    64
  0
VERTEX
  5
600A9
100
AcDbEntity
  8
0
100
AcDbVertex
100
AcDbPolygonMeshVertex
 10
-3.405
 20
-1.22
 30
4.027
 70
    64
  0
VERTEX
  5
600AA
100
AcDbEntity
  8
0
100
AcDbVertex
100
AcDbPolygonMeshVertex
 10
-3.245
 20
-1.5
 30
4.027
 70
    64
  0
VERTEX
  5
600AB
100
AcDbEntity
  8
0
100
AcDbVertex
100
AcDbPolygonMeshVertex
 10
-3.245
 20
-1.5
 30
4.027
 70
    64
  0
VERTEX
  5
600AC
100
AcDbEntity
  8
0
100
AcDbVertex
100
AcDbPolygonMeshVertex
 10
-3.245
 20
-1.22
 30
4.027
 70
    64
  0
SEQEND
  5
600AD
100
AcDbEntity
  8
0
  0
POLYLINE
  5
600AE
100
AcDbEntity
  8
0
100
AcDbPolygonMesh
 66
     1
 10
0.0
 20
0.0
 30
0.0
 70
    16
 71
     6
 72
     3
  0
VERTEX
  5
600AF
100
AcDbEntity
  8
0
100
AcDbVertex
100
AcDbPolygonMeshVertex
 10
-2.245
 20
-1.22
 30
4.027
 70
    64
  0
VERTEX
  5
600B0
100
AcDbEntity
  8
0
100
AcDbVertex
100
AcDbPolygonMeshVertex
 10
-2.245
 20
-1.22
 30
2.757
 70
    64
  0
VERTEX
  5
600B1
100
AcDbEntity
  8
0
100
AcDbVertex
100
AcDbPolygonMeshVertex
 10
-2.245
 20
-1.22
 30
2.757
 70
    64
  0
VERTEX
  5
600B2
100
AcDbEntity
  8
0
100
AcDbVertex
100
AcDbPolygonMeshVertex
 10
-2.085
 20
-1.22
 30
4.027
 70
    64
  0
VERTEX
  5
600B3
100
AcDbEntity
  8
0
100
AcDbVertex
100
AcDbPolygonMeshVertex
 10
-2.085
 20
-1.22
 30
2.757
 70
    64
  0
VERTEX
  5
600B4
100
AcDbEntity
  8
0
100
AcDbVertex
100
AcDbPolygonMeshVertex
 10
-2.085
 20
-1.22
 30
2.757
 70
    64
  0
VERTEX
  5
600B5
100
AcDbEntity
  8
0
100
AcDbVertex
100
AcDbPolygonMeshVertex
 10
-2.085
 20
-1.5
 30
4.027
 70
    64
  0
VERTEX
  5
600B6
100
AcDbEntity
  8
0
100
AcDbVertex
100
AcDbPolygonMeshVertex
 10
-2.085
 20
-1.5
 30
2.757
 70
    64
  0
VERTEX
  5
600B7
100
AcDbEntity
  8
0
100
AcDbVertex
100
AcDbPolygonMeshVertex
 10
-2.085
 20
-1.22
 30
2.757
 70
    64
  0
VERTEX
  5
600B8
100
AcDbEntity
  8
0
100
AcDbVertex
100
AcDbPolygonMeshVertex
 10
-2.245
 20
-1.5
 30
4.027
 70
    64
  0
VERTEX
  5
600B9
100
AcDbEntity
  8
0
100
AcDbVertex
100
AcDbPolygonMeshVertex
 10
-2.245
 20
-1.5
 30
2.757
 70
    64
  0
VERTEX
  5
600BA
100
AcDbEntity
  8
0
100
AcDbVertex
100
AcDbPolygonMeshVertex
 10
-2.245
 20
-1.22
 30
2.757
 70
    64
  0
VERTEX
  5
600BB
100
AcDbEntity
  8
0
100
AcDbVertex
100
AcDbPolygonMeshVertex
 10
-2.245
 20
-1.5
 30
4.027
 70
    64
  0
VERTEX
  5
600BC
100
AcDbEntity
  8
0
100
AcDbVertex
100
AcDbPolygonMeshVertex
 10
-2.245
 20
-1.5
 30
4.027
 70
    64
  0
VERTEX
  5
600BD
100
AcDbEntity
  8
0
100
AcDbVertex
100
AcDbPolygonMeshVertex
 10
-2.245
 20
-1.22
 30
4.027
 70
    64
  0
VERTEX
  5
600BE
100
AcDbEntity
  8
0
100
AcDbVertex
100
AcDbPolygonMeshVertex
 10
-2.085
 20
-1.5
 30
4.027
 70
    64
  0
VERTEX
  5
600BF
100
AcDbEntity
  8
0
100
AcDbVertex
100
AcDbPolygonMeshVertex
 10
-2.085
 20
-1.5
 30
4.027
 70
    64
  0
VERTEX
  5
600C0
100
AcDbEntity
  8
0
100
AcDbVertex
100
AcDbPolygonMeshVertex
 10
-2.085
 20
-1.22
 30
4.027
 70
    64
  0
SEQEND
  5
600C1
100
AcDbEntity
  8
0
  0
POLYLINE
  5
600C2
100
AcDbEntity
  8
0
100
AcDbPolygonMesh
 66
     1
 10
0.0
 20
0.0
 30
0.0
 70
    16
 71
     6
 72
     3
  0
VERTEX
  5
600C3
100
AcDbEntity
  8
0
100
AcDbVertex
100
AcDbPolygonMeshVertex
 10
-1.805
 20
-5.12
 30
4.197
 70
    64
  0
VERTEX
  5
600C4
100
AcDbEntity
  8
0
100
AcDbVertex
100
AcDbPolygonMeshVertex
 10
-1.805
 20
-5.12
 30
3.887
 70
    64
  0
VERTEX
  5
600C5
100
AcDbEntity
  8
0
100
AcDbVertex
100
AcDbPolygonMeshVertex
 10
-1.805
 20
-5.12
 30
3.887
 70
    64
  0
VERTEX
  5
600C6
100
AcDbEntity
  8
0
100
AcDbVertex
100
AcDbPolygonMeshVertex
 10
-3.685
 20
-5.12
 30
4.197
 70
    64
  0
VERTEX
  5
600C7
100
AcDbEntity
  8
0
100
AcDbVertex
100
AcDbPolygonMeshVertex
 10
-3.685
 20
-5.12
 30
3.887
 70
    64
  0
VERTEX
  5
600C8
100
AcDbEntity
  8
0
100
AcDbVertex
100
AcDbPolygonMeshVertex
 10
-3.685
 20
-5.12
 30
3.887
 70
    64
  0
VERTEX
  5
600C9
100
AcDbEntity
  8
0
100
AcDbVertex
100
AcDbPolygonMeshVertex
 10
-3.685
 20
-4.29
 30
4.197
 70
    64
  0
VERTEX
  5
600CA
100
AcDbEntity
  8
0
100
AcDbVertex
100
AcDbPolygonMeshVertex
 10
-3.685
 20
-4.29
 30
3.887
 70
    64
  0
VERTEX
  5
600CB
100
AcDbEntity
  8
0
100
AcDbVertex
100
AcDbPolygonMeshVertex
 10
-3.685
 20
-5.12
 30
3.887
 70
    64
  0
VERTEX
  5
600CC
100
AcDbEntity
  8
0
100
AcDbVertex
100
AcDbPolygonMeshVertex
 10
-1.805
 20
-4.29
 30
4.197
 70
    64
  0
VERTEX
  5
600CD
100
AcDbEntity
  8
0
100
AcDbVertex
100
AcDbPolygonMeshVertex
 10
-1.805
 20
-4.29
 30
3.887
 70
    64
  0
VERTEX
  5
600CE
100
AcDbEntity
  8
0
100
AcDbVertex
100
AcDbPolygonMeshVertex
 10
-1.805
 20
-5.12
 30
3.887
 70
    64
  0
VERTEX
  5
600CF
100
AcDbEntity
  8
0
100
AcDbVertex
100
AcDbPolygonMeshVertex
 10
-1.805
 20
-4.29
 30
4.197
 70
    64
  0
VERTEX
  5
600D0
100
AcDbEntity
  8
0
100
AcDbVertex
100
AcDbPolygonMeshVertex
 10
-1.805
 20
-4.29
 30
4.197
 70
    64
  0
VERTEX
  5
600D1
100
AcDbEntity
  8
0
100
AcDbVertex
100
AcDbPolygonMeshVertex
 10
-1.805
 20
-5.12
 30
4.197
 70
    64
  0
VERTEX
  5
600D2
100
AcDbEntity
  8
0
100
AcDbVertex
100
AcDbPolygonMeshVertex
 10
-3.685
 20
-4.29
 30
4.197
 70
    64
  0
VERTEX
  5
600D3
100
AcDbEntity
  8
0
100
AcDbVertex
100
AcDbPolygonMeshVertex
 10
-3.685
 20
-4.29
 30
4.197
 70
    64
  0
VERTEX
  5
600D4
100
AcDbEntity
  8
0
100
AcDbVertex
100
AcDbPolygonMeshVertex
 10
-3.685
 20
-5.12
 30
4.197
 70
    64
  0
SEQEND
  5
600D5
100
AcDbEntity
  8
0
  0
POLYLINE
  5
600D6
100
AcDbEntity
  8
0
100
AcDbPolygonMesh
 66
     1
 10
0.0
 20
0.0
 30
0.0
 70
    16
 71
     6
 72
     3
  0
VERTEX
  5
600D7
100
AcDbEntity
  8
0
100
AcDbVertex
100
AcDbPolygonMeshVertex
 10
-2.995
 20
-0.88
 30
4.537
 70
    64
  0
VERTEX
  5
600D8
100
AcDbEntity
  8
0
100
AcDbVertex
100
AcDbPolygonMeshVertex
 10
-2.995
 20
-0.88
 30
4.197
 70
    64
  0
VERTEX
  5
600D9
100
AcDbEntity
  8
0
100
AcDbVertex
100
AcDbPolygonMeshVertex
 10
-2.995
 20
-0.88
 30
4.197
 70
    64
  0
VERTEX
  5
600DA
100
AcDbEntity
  8
0
100
AcDbVertex
100
AcDbPolygonMeshVertex
 10
-2.495
 20
-0.88
 30
4.537
 70
    64
  0
VERTEX
  5
600DB
100
AcDbEntity
  8
0
100
AcDbVertex
100
AcDbPolygonMeshVertex
 10
-2.495
 20
-0.88
 30
4.197
 70
    64
  0
VERTEX
  5
600DC
100
AcDbEntity
  8
0
100
AcDbVertex
100
AcDbPolygonMeshVertex
 10
-2.495
 20
-0.88
 30
4.197
 70
    64
  0
VERTEX
  5
600DD
100
AcDbEntity
  8
0
100
AcDbVertex
100
AcDbPolygonMeshVertex
 10
-2.495
 20
-2.0
 30
4.537
 70
    64
  0
VERTEX
  5
600DE
100
AcDbEntity
  8
0
100
AcDbVertex
100
AcDbPolygonMeshVertex
 10
-2.495
 20
-2.0
 30
4.197
 70
    64
  0
VERTEX
  5
600DF
100
AcDbEntity
  8
0
100
AcDbVertex
100
AcDbPolygonMeshVertex
 10
-2.495
 20
-0.88
 30
4.197
 70
    64
  0
VERTEX
  5
600E0
100
AcDbEntity
  8
0
100
AcDbVertex
100
AcDbPolygonMeshVertex
 10
-2.995
 20
-2.0
 30
4.537
 70
    64
  0
VERTEX
  5
600E1
100
AcDbEntity
  8
0
100
AcDbVertex
100
AcDbPolygonMeshVertex
 10
-2.995
 20
-2.0
 30
4.197
 70
    64
  0
VERTEX
  5
600E2
100
AcDbEntity
  8
0
100
AcDbVertex
100
AcDbPolygonMeshVertex
 10
-2.995
 20
-0.88
 30
4.197
 70
    64
  0
VERTEX
  5
600E3
100
AcDbEntity
  8
0
100
AcDbVertex
100
AcDbPolygonMeshVertex
 10
-2.995
 20
-2.0
 30
4.537
 70
    64
  0
VERTEX
  5
600E4
100
AcDbEntity
  8
0
100
AcDbVertex
100
AcDbPolygonMeshVertex
 10
-2.995
 20
-2.0
 30
4.537
 70
    64
  0
VERTEX
  5
600E5
100
AcDbEntity
  8
0
100
AcDbVertex
100
AcDbPolygonMeshVertex
 10
-2.995
 20
-0.88
 30
4.537
 70
    64
  0
VERTEX
  5
600E6
100
AcDbEntity
  8
0
100
AcDbVertex
100
AcDbPolygonMeshVertex
 10
-2.495
 20
-2.0
 30
4.537
 70
    64
  0
VERTEX
  5
600E7
100
AcDbEntity
  8
0
100
AcDbVertex
100
AcDbPolygonMeshVertex
 10
-2.495
 20
-2.0
 30
4.537
 70
    64
  0
VERTEX
  5
600E8
100
AcDbEntity
  8
0
100
AcDbVertex
100
AcDbPolygonMeshVertex
 10
-2.495
 20
-0.88
 30
4.537
 70
    64
  0
SEQEND
  5
600E9
100
AcDbEntity
  8
0
  0
POLYLINE
  5
600EA
100
AcDbEntity
  8
0
100
AcDbPolygonMesh
 66
     1
 10
0.0
 20
0.0
 30
0.0
 70
    16
 71
     6
 72
     3
  0
VERTEX
  5
600EB
100
AcDbEntity
  8
0
100
AcDbVertex
100
AcDbPolygonMeshVertex
 10
-1.935
 20
-0.88
 30
4.537
 70
    64
  0
VERTEX
  5
600EC
100
AcDbEntity
  8
0
100
AcDbVertex
100
AcDbPolygonMeshVertex
 10
-1.935
 20
-0.88
 30
4.197
 70
    64
  0
VERTEX
  5
600ED
100
AcDbEntity
  8
0
100
AcDbVertex
100
AcDbPolygonMeshVertex
 10
-1.935
 20
-0.88
 30
4.197
 70
    64
  0
VERTEX
  5
600EE
100
AcDbEntity
  8
0
100
AcDbVertex
100
AcDbPolygonMeshVertex
 10
-1.435
 20
-0.88
 30
4.537
 70
    64
  0
VERTEX
  5
600EF
100
AcDbEntity
  8
0
100
AcDbVertex
100
AcDbPolygonMeshVertex
 10
-1.435
 20
-0.88
 30
4.197
 70
    64
  0
VERTEX
  5
600F0
100
AcDbEntity
  8
0
100
AcDbVertex
100
AcDbPolygonMeshVertex
 10
-1.435
 20
-0.88
 30
4.197
 70
    64
  0
VERTEX
  5
600F1
100
AcDbEntity
  8
0
100
AcDbVertex
100
AcDbPolygonMeshVertex
 10
-1.435
 20
-2.0
 30
4.537
 70
    64
  0
VERTEX
  5
600F2
100
AcDbEntity
  8
0
100
AcDbVertex
100
AcDbPolygonMeshVertex
 10
-1.435
 20
-2.0
 30
4.197
 70
    64
  0
VERTEX
  5
600F3
100
AcDbEntity
  8
0
100
AcDbVertex
100
AcDbPolygonMeshVertex
 10
-1.435
 20
-0.88
 30
4.197
 70
    64
  0
VERTEX
  5
600F4
100
AcDbEntity
  8
0
100
AcDbVertex
100
AcDbPolygonMeshVertex
 10
-1.935
 20
-2.0
 30
4.537
 70
    64
  0
VERTEX
  5
600F5
100
AcDbEntity
  8
0
100
AcDbVertex
100
AcDbPolygonMeshVertex
 10
-1.935
 20
-2.0
 30
4.197
 70
    64
  0
VERTEX
  5
600F6
100
AcDbEntity
  8
0
100
AcDbVertex
100
AcDbPolygonMeshVertex
 10
-1.935
 20
-0.88
 30
4.197
 70
    64
  0
VERTEX
  5
600F7
100
AcDbEntity
  8
0
100
AcDbVertex
100
AcDbPolygonMeshVertex
 10
-1.935
 20
-2.0
 30
4.537
 70
    64
  0
VERTEX
  5
600F8
100
AcDbEntity
  8
0
100
AcDbVertex
100
AcDbPolygonMeshVertex
 10
-1.935
 20
-2.0
 30
4.537
 70
    64
  0
VERTEX
  5
600F9
100
AcDbEntity
  8
0
100
AcDbVertex
100
AcDbPolygonMeshVertex
 10
-1.935
 20
-0.88
 30
4.537
 70
    64
  0
VERTEX
  5
600FA
100
AcDbEntity
  8
0
100
AcDbVertex
100
AcDbPolygonMeshVertex
 10
-1.435
 20
-2.0
 30
4.537
 70
    64
  0
VERTEX
  5
600FB
100
AcDbEntity
  8
0
100
AcDbVertex
100
AcDbPolygonMeshVertex
 10
-1.435
 20
-2.0
 30
4.537
 70
    64
  0
VERTEX
  5
600FC
100
AcDbEntity
  8
0
100
AcDbVertex
100
AcDbPolygonMeshVertex
 10
-1.435
 20
-0.88
 30
4.537
 70
    64
  0
SEQEND
  5
600FD
100
AcDbEntity
  8
0
  0
POLYLINE
  5
600FE
100
AcDbEntity
  8
0
100
AcDbPolygonMesh
 66
     1
 10
0.0
 20
0.0
 30
0.0
 70
    16
 71
     6
 72
     3
  0
VERTEX
  5
600FF
100
AcDbEntity
  8
0
100
AcDbVertex
100
AcDbPolygonMeshVertex
 10
-3.405
 20
-1.22
 30
4.917
 70
    64
  0
VERTEX
  5
60100
100
AcDbEntity
  8
0
100
AcDbVertex
100
AcDbPolygonMeshVertex
 10
-3.405
 20
-1.22
 30
4.027
 70
    64
  0
VERTEX
  5
60101
100
AcDbEntity
  8
0
100
AcDbVertex
100
AcDbPolygonMeshVertex
 10
-3.405
 20
-1.22
 30
4.027
 70
    64
  0
VERTEX
  5
60102
100
AcDbEntity
  8
0
100
AcDbVertex
100
AcDbPolygonMeshVertex
 10
-3.245
 20
-1.22
 30
4.917
 70
    64
  0
VERTEX
  5
60103
100
AcDbEntity
  8
0
100
AcDbVertex
100
AcDbPolygonMeshVertex
 10
-3.245
 20
-1.22
 30
4.027
 70
    64
  0
VERTEX
  5
60104
100
AcDbEntity
  8
0
100
AcDbVertex
100
AcDbPolygonMeshVertex
 10
-3.245
 20
-1.22
 30
4.027
 70
    64
  0
VERTEX
  5
60105
100
AcDbEntity
  8
0
100
AcDbVertex
100
AcDbPolygonMeshVertex
 10
-3.245
 20
-2.19
 30
4.917
 70
    64
  0
VERTEX
  5
60106
100
AcDbEntity
  8
0
100
AcDbVertex
100
AcDbPolygonMeshVertex
 10
-3.245
 20
-2.19
 30
4.027
 70
    64
  0
VERTEX
  5
60107
100
AcDbEntity
  8
0
100
AcDbVertex
100
AcDbPolygonMeshVertex
 10
-3.245
 20
-1.22
 30
4.027
 70
    64
  0
VERTEX
  5
60108
100
AcDbEntity
  8
0
100
AcDbVertex
100
AcDbPolygonMeshVertex
 10
-3.405
 20
-2.19
 30
4.917
 70
    64
  0
VERTEX
  5
60109
100
AcDbEntity
  8
0
100
AcDbVertex
100
AcDbPolygonMeshVertex
 10
-3.405
 20
-2.19
 30
4.027
 70
    64
  0
VERTEX
  5
6010A
100
AcDbEntity
  8
0
100
AcDbVertex
100
AcDbPolygonMeshVertex
 10
-3.405
 20
-1.22
 30
4.027
 70
    64
  0
VERTEX
  5
6010B
100
AcDbEntity
  8
0
100
AcDbVertex
100
AcDbPolygonMeshVertex
 10
-3.405
 20
-2.19
 30
4.917
 70
    64
  0
VERTEX
  5
6010C
100
AcDbEntity
  8
0
100
AcDbVertex
100
AcDbPolygonMeshVertex
 10
-3.405
 20
-2.19
 30
4.917
 70
    64
  0
VERTEX
  5
6010D
100
AcDbEntity
  8
0
100
AcDbVertex
100
AcDbPolygonMeshVertex
 10
-3.405
 20
-1.22
 30
4.917
 70
    64
  0
VERTEX
  5
6010E
100
AcDbEntity
  8
0
100
AcDbVertex
100
AcDbPolygonMeshVertex
 10
-3.245
 20
-2.19
 30
4.917
 70
    64
  0
VERTEX
  5
6010F
100
AcDbEntity
  8
0
100
AcDbVertex
100
AcDbPolygonMeshVertex
 10
-3.245
 20
-2.19
 30
4.917
 70
    64
  0
VERTEX
  5
60110
100
AcDbEntity
  8
0
100
AcDbVertex
100
AcDbPolygonMeshVertex
 10
-3.245
 20
-1.22
 30
4.917
 70
    64
  0
SEQEND
  5
60111
100
AcDbEntity
  8
0
  0
POLYLINE
  5
60112
100
AcDbEntity
  8
0
100
AcDbPolygonMesh
 66
     1
 10
0.0
 20
0.0
 30
0.0
 70
    16
 71
     6
 72
     3
  0
VERTEX
  5
60113
100
AcDbEntity
  8
0
100
AcDbVertex
100
AcDbPolygonMeshVertex
 10
-2.245
 20
-1.22
 30
4.917
 70
    64
  0
VERTEX
  5
60114
100
AcDbEntity
  8
0
100
AcDbVertex
100
AcDbPolygonMeshVertex
 10
-2.245
 20
-1.22
 30
4.027
 70
    64
  0
VERTEX
  5
60115
100
AcDbEntity
  8
0
100
AcDbVertex
100
AcDbPolygonMeshVertex
 10
-2.245
 20
-1.22
 30
4.027
 70
    64
  0
VERTEX
  5
60116
100
AcDbEntity
  8
0
100
AcDbVertex
100
AcDbPolygonMeshVertex
 10
-2.085
 20
-1.22
 30
4.917
 70
    64
  0
VERTEX
  5
60117
100
AcDbEntity
  8
0
100
AcDbVertex
100
AcDbPolygonMeshVertex
 10
-2.085
 20
-1.22
 30
4.027
 70
    64
  0
VERTEX
  5
60118
100
AcDbEntity
  8
0
100
AcDbVertex
100
AcDbPolygonMeshVertex
 10
-2.085
 20
-1.22
 30
4.027
 70
    64
  0
VERTEX
  5
60119
100
AcDbEntity
  8
0
100
AcDbVertex
100
AcDbPolygonMeshVertex
 10
-2.085
 20
-2.19
 30
4.917
 70
    64
  0
VERTEX
  5
6011A
100
AcDbEntity
  8
0
100
AcDbVertex
100
AcDbPolygonMeshVertex
 10
-2.085
 20
-2.19
 30
4.027
 70
    64
  0
VERTEX
  5
6011B
100
AcDbEntity
  8
0
100
AcDbVertex
100
AcDbPolygonMeshVertex
 10
-2.085
 20
-1.22
 30
4.027
 70
    64
  0
VERTEX
  5
6011C
100
AcDbEntity
  8
0
100
AcDbVertex
100
AcDbPolygonMeshVertex
 10
-2.245
 20
-2.19
 30
4.917
 70
    64
  0
VERTEX
  5
6011D
100
AcDbEntity
  8
0
100
AcDbVertex
100
AcDbPolygonMeshVertex
 10
-2.245
 20
-2.19
 30
4.027
 70
    64
  0
VERTEX
  5
6011E
100
AcDbEntity
  8
0
100
AcDbVertex
100
AcDbPolygonMeshVertex
 10
-2.245
 20
-1.22
 30
4.027
 70
    64
  0
VERTEX
  5
6011F
100
AcDbEntity
  8
0
100
AcDbVertex
100
AcDbPolygonMeshVertex
 10
-2.245
 20
-2.19
 30
4.917
 70
    64
  0
VERTEX
  5
60120
100
AcDbEntity
  8
0
100
AcDbVertex
100
AcDbPolygonMeshVertex
 10
-2.245
 20
-2.19
 30
4.917
 70
    64
  0
VERTEX
  5
60121
100
AcDbEntity
  8
0
100
AcDbVertex
100
AcDbPolygonMeshVertex
 10
-2.245
 20
-1.22
 30
4.917
 70
    64
  0
VERTEX
  5
60122
100
AcDbEntity
  8
0
100
AcDbVertex
100
AcDbPolygonMeshVertex
 10
-2.085
 20
-2.19
 30
4.917
 70
    64
  0
VERTEX
  5
60123
100
AcDbEntity
  8
0
100
AcDbVertex
100
AcDbPolygonMeshVertex
 10
-2.085
 20
-2.19
 30
4.917
 70
    64
  0
VERTEX
  5
60124
100
AcDbEntity
  8
0
100
AcDbVertex
100
AcDbPolygonMeshVertex
 10
-2.085
 20
-1.22
 30
4.917
 70
    64
  0
SEQEND
  5
60125
100
AcDbEntity
  8
0
  0
POLYLINE
  5
60126
100
AcDbEntity
  8
0
100
AcDbPolygonMesh
 66
     1
 10
0.0
 20
0.0
 30
0.0
 70
    16
 71
     6
 72
     3
  0
VERTEX
  5
60127
100
AcDbEntity
  8
0
100
AcDbVertex
100
AcDbPolygonMeshVertex
 10
-4.055
 20
-0.88
 30
4.537
 70
    64
  0
VERTEX
  5
60128
100
AcDbEntity
  8
0
100
AcDbVertex
100
AcDbPolygonMeshVertex
 10
-4.055
 20
-0.88
 30
4.197
 70
    64
  0
VERTEX
  5
60129
100
AcDbEntity
  8
0
100
AcDbVertex
100
AcDbPolygonMeshVertex
 10
-4.055
 20
-0.88
 30
4.197
 70
    64
  0
VERTEX
  5
6012A
100
AcDbEntity
  8
0
100
AcDbVertex
100
AcDbPolygonMeshVertex
 10
-3.555
 20
-0.88
 30
4.537
 70
    64
  0
VERTEX
  5
6012B
100
AcDbEntity
  8
0
100
AcDbVertex
100
AcDbPolygonMeshVertex
 10
-3.555
 20
-0.88
 30
4.197
 70
    64
  0
VERTEX
  5
6012C
100
AcDbEntity
  8
0
100
AcDbVertex
100
AcDbPolygonMeshVertex
 10
-3.555
 20
-0.88
 30
4.197
 70
    64
  0
VERTEX
  5
6012D
100
AcDbEntity
  8
0
100
AcDbVertex
100
AcDbPolygonMeshVertex
 10
-3.555
 20
-2.0
 30
4.537
 70
    64
  0
VERTEX
  5
6012E
100
AcDbEntity
  8
0
100
AcDbVertex
100
AcDbPolygonMeshVertex
 10
-3.555
 20
-2.0
 30
4.197
 70
    64
  0
VERTEX
  5
6012F
100
AcDbEntity
  8
0
100
AcDbVertex
100
AcDbPolygonMeshVertex
 10
-3.555
 20
-0.88
 30
4.197
 70
    64
  0
VERTEX
  5
60130
100
AcDbEntity
  8
0
100
AcDbVertex
100
AcDbPolygonMeshVertex
 10
-4.055
 20
-2.0
 30
4.537
 70
    64
  0
VERTEX
  5
60131
100
AcDbEntity
  8
0
100
AcDbVertex
100
AcDbPolygonMeshVertex
 10
-4.055
 20
-2.0
 30
4.197
 70
    64
  0
VERTEX
  5
60132
100
AcDbEntity
  8
0
100
AcDbVertex
100
AcDbPolygonMeshVertex
 10
-4.055
 20
-0.88
 30
4.197
 70
    64
  0
VERTEX
  5
60133
100
AcDbEntity
  8
0
100
AcDbVertex
100
AcDbPolygonMeshVertex
 10
-4.055
 20
-2.0
 30
4.537
 70
    64
  0
VERTEX
  5
60134
100
AcDbEntity
  8
0
100
AcDbVertex
100
AcDbPolygonMeshVertex
 10
-4.055
 20
-2.0
 30
4.537
 70
    64
  0
VERTEX
  5
60135
100
AcDbEntity
  8
0
100
AcDbVertex
100
AcDbPolygonMeshVertex
 10
-4.055
 20
-0.88
 30
4.537
 70
    64
  0
VERTEX
  5
60136
100
AcDbEntity
  8
0
100
AcDbVertex
100
AcDbPolygonMeshVertex
 10
-3.555
 20
-2.0
 30
4.537
 70
    64
  0
VERTEX
  5
60137
100
AcDbEntity
  8
0
100
AcDbVertex
100
AcDbPolygonMeshVertex
 10
-3.555
 20
-2.0
 30
4.537
 70
    64
  0
VERTEX
  5
60138
100
AcDbEntity
  8
0
100
AcDbVertex
100
AcDbPolygonMeshVertex
 10
-3.555
 20
-0.88
 30
4.537
 70
    64
  0
SEQEND
  5
60139
100
AcDbEntity
  8
0
  0
CIRCLE
  5
6013A
100
AcDbEntity
  8
0
100
AcDbCircle
 10
-2.275
 20
-4.63
 30
4.517
 40
0.095
  0
POLYLINE
  5
6013B
100
AcDbEntity
  8
0
100
AcDbPolygonMesh
 66
     1
 10
0.0
 20
0.0
 30
0.0
 70
    16
 71
     6
 72
     3
  0
VERTEX
  5
6013C
100
AcDbEntity
  8
0
100
AcDbVertex
100
AcDbPolygonMeshVertex
 10
-2.085
 20
-4.82
 30
4.517
 70
    64
  0
VERTEX
  5
6013D
100
AcDbEntity
  8
0
100
AcDbVertex
100
AcDbPolygonMeshVertex
 10
-2.085
 20
-4.82
 30
4.197
 70
    64
  0
VERTEX
  5
6013E
100
AcDbEntity
  8
0
100
AcDbVertex
100
AcDbPolygonMeshVertex
 10
-2.085
 20
-4.82
 30
4.197
 70
    64
  0
VERTEX
  5
6013F
100
AcDbEntity
  8
0
100
AcDbVertex
100
AcDbPolygonMeshVertex
 10
-2.465
 20
-4.82
 30
4.517
 70
    64
  0
VERTEX
  5
60140
100
AcDbEntity
  8
0
100
AcDbVertex
100
AcDbPolygonMeshVertex
 10
-2.465
 20
-4.82
 30
4.197
 70
    64
  0
VERTEX
  5
60141
100
AcDbEntity
  8
0
100
AcDbVertex
100
AcDbPolygonMeshVertex
 10
-2.465
 20
-4.82
 30
4.197
 70
    64
  0
VERTEX
  5
60142
100
AcDbEntity
  8
0
100
AcDbVertex
100
AcDbPolygonMeshVertex
 10
-2.465
 20
-4.38
 30
4.517
 70
    64
  0
VERTEX
  5
60143
100
AcDbEntity
  8
0
100
AcDbVertex
100
AcDbPolygonMeshVertex
 10
-2.465
 20
-4.38
 30
4.197
 70
    64
  0
VERTEX
  5
60144
100
AcDbEntity
  8
0
100
AcDbVertex
100
AcDbPolygonMeshVertex
 10
-2.465
 20
-4.82
 30
4.197
 70
    64
  0
VERTEX
  5
60145
100
AcDbEntity
  8
0
100
AcDbVertex
100
AcDbPolygonMeshVertex
 10
-2.085
 20
-4.38
 30
4.517
 70
    64
  0
VERTEX
  5
60146
100
AcDbEntity
  8
0
100
AcDbVertex
100
AcDbPolygonMeshVertex
 10
-2.085
 20
-4.38
 30
4.197
 70
    64
  0
VERTEX
  5
60147
100
AcDbEntity
  8
0
100
AcDbVertex
100
AcDbPolygonMeshVertex
 10
-2.085
 20
-4.82
 30
4.197
 70
    64
  0
VERTEX
  5
60148
100
AcDbEntity
  8
0
100
AcDbVertex
100
AcDbPolygonMeshVertex
 10
-2.085
 20
-4.38
 30
4.517
 70
    64
  0
VERTEX
  5
60149
100
AcDbEntity
  8
0
100
AcDbVertex
100
AcDbPolygonMeshVertex
 10
-2.085
 20
-4.38
 30
4.517
 70
    64
  0
VERTEX
  5
6014A
100
AcDbEntity
  8
0
100
AcDbVertex
100
AcDbPolygonMeshVertex
 10
-2.085
 20
-4.82
 30
4.517
 70
    64
  0
VERTEX
  5
6014B
100
AcDbEntity
  8
0
100
AcDbVertex
100
AcDbPolygonMeshVertex
 10
-2.465
 20
-4.38
 30
4.517
 70
    64
  0
VERTEX
  5
6014C
100
AcDbEntity
  8
0
100
AcDbVertex
100
AcDbPolygonMeshVertex
 10
-2.465
 20
-4.38
 30
4.517
 70
    64
  0
VERTEX
  5
6014D
100
AcDbEntity
  8
0
100
AcDbVertex
100
AcDbPolygonMeshVertex
 10
-2.465
 20
-4.82
 30
4.517
 70
    64
  0
SEQEND
  5
6014E
100
AcDbEntity
  8
0
  0
POLYLINE
  5
6014F
100
AcDbEntity
  8
0
100
AcDbPolygonMesh
 66
     1
 10
0.0
 20
0.0
 30
0.0
 70
    16
 71
     6
 72
     3
  0
VERTEX
  5
60150
100
AcDbEntity
  8
0
100
AcDbVertex
100
AcDbPolygonMeshVertex
 10
-3.025
 20
-4.82
 30
4.517
 70
    64
  0
VERTEX
  5
60151
100
AcDbEntity
  8
0
100
AcDbVertex
100
AcDbPolygonMeshVertex
 10
-3.025
 20
-4.82
 30
4.197
 70
    64
  0
VERTEX
  5
60152
100
AcDbEntity
  8
0
100
AcDbVertex
100
AcDbPolygonMeshVertex
 10
-3.025
 20
-4.82
 30
4.197
 70
    64
  0
VERTEX
  5
60153
100
AcDbEntity
  8
0
100
AcDbVertex
100
AcDbPolygonMeshVertex
 10
-3.405
 20
-4.82
 30
4.517
 70
    64
  0
VERTEX
  5
60154
100
AcDbEntity
  8
0
100
AcDbVertex
100
AcDbPolygonMeshVertex
 10
-3.405
 20
-4.82
 30
4.197
 70
    64
  0
VERTEX
  5
60155
100
AcDbEntity
  8
0
100
AcDbVertex
100
AcDbPolygonMeshVertex
 10
-3.405
 20
-4.82
 30
4.197
 70
    64
  0
VERTEX
  5
60156
100
AcDbEntity
  8
0
100
AcDbVertex
100
AcDbPolygonMeshVertex
 10
-3.405
 20
-4.38
 30
4.517
 70
    64
  0
VERTEX
  5
60157
100
AcDbEntity
  8
0
100
AcDbVertex
100
AcDbPolygonMeshVertex
 10
-3.405
 20
-4.38
 30
4.197
 70
    64
  0
VERTEX
  5
60158
100
AcDbEntity
  8
0
100
AcDbVertex
100
AcDbPolygonMeshVertex
 10
-3.405
 20
-4.82
 30
4.197
 70
    64
  0
VERTEX
  5
60159
100
AcDbEntity
  8
0
100
AcDbVertex
100
AcDbPolygonMeshVertex
 10
-3.025
 20
-4.38
 30
4.517
 70
    64
  0
VERTEX
  5
6015A
100
AcDbEntity
  8
0
100
AcDbVertex
100
AcDbPolygonMeshVertex
 10
-3.025
 20
-4.38
 30
4.197
 70
    64
  0
VERTEX
  5
6015B
100
AcDbEntity
  8
0
100
AcDbVertex
100
AcDbPolygonMeshVertex
 10
-3.025
 20
-4.82
 30
4.197
 70
    64
  0
VERTEX
  5
6015C
100
AcDbEntity
  8
0
100
AcDbVertex
100
AcDbPolygonMeshVertex
 10
-3.025
 20
-4.38
 30
4.517
 70
    64
  0
VERTEX
  5
6015D
100
AcDbEntity
  8
0
100
AcDbVertex
100
AcDbPolygonMeshVertex
 10
-3.025
 20
-4.38
 30
4.517
 70
    64
  0
VERTEX
  5
6015E
100
AcDbEntity
  8
0
100
AcDbVertex
100
AcDbPolygonMeshVertex
 10
-3.025
 20
-4.82
 30
4.517
 70
    64
  0
VERTEX
  5
6015F
100
AcDbEntity
  8
0
100
AcDbVertex
100
AcDbPolygonMeshVertex
 10
-3.405
 20
-4.38
 30
4.517
 70
    64
  0
VERTEX
  5
60160
100
AcDbEntity
  8
0
100
AcDbVertex
100
AcDbPolygonMeshVertex
 10
-3.405
 20
-4.38
 30
4.517
 70
    64
  0
VERTEX
  5
60161
100
AcDbEntity
  8
0
100
AcDbVertex
100
AcDbPolygonMeshVertex
 10
-3.405
 20
-4.82
 30
4.517
 70
    64
  0
SEQEND
  5
60162
100
AcDbEntity
  8
0
  0
LINE
  5
60163
100
AcDbEntity
  8
0
100
AcDbLine
 10
-3.247227
 20
-4.540356
 30
4.517
 11
-3.195339
 21
-4.72281
 31
4.517
  0
LINE
  5
60164
100
AcDbEntity
  8
0
100
AcDbLine
 10
-3.235713
 20
-4.537285
 30
4.517
 11
-3.183826
 21
-4.71974
 31
4.517
  0
CIRCLE
  5
60165
100
AcDbEntity
  8
0
100
AcDbCircle
 10
-3.215
 20
-4.63
 30
4.517
 40
0.095
  0
LINE
  5
60166
100
AcDbEntity
  8
0
100
AcDbLine
 10
-2.307227
 20
-4.540356
 30
4.517
 11
-2.255339
 21
-4.72281
 31
4.517
  0
LINE
  5
60167
100
AcDbEntity
  8
0
100
AcDbLine
 10
-2.295713
 20
-4.537285
 30
4.517
 11
-2.243826
 21
-4.71974
 31
4.517
  0
POLYLINE
  5
60168
100
AcDbEntity
  8
0
100
AcDbPolygonMesh
 66
     1
 10
0.0
 20
0.0
 30
0.0
 70
    16
 71
     6
 72
     3
  0
VERTEX
  5
60169
100
AcDbEntity
  8
0
100
AcDbVertex
100
AcDbPolygonMeshVertex
 10
-4.055
 20
-0.88
 30
4.667
 70
    64
  0
VERTEX
  5
6016A
100
AcDbEntity
  8
0
100
AcDbVertex
100
AcDbPolygonMeshVertex
 10
-4.055
 20
-0.88
 30
4.537
 70
    64
  0
VERTEX
  5
6016B
100
AcDbEntity
  8
0
100
AcDbVertex
100
AcDbPolygonMeshVertex
 10
-4.055
 20
-0.88
 30
4.537
 70
    64
  0
VERTEX
  5
6016C
100
AcDbEntity
  8
0
100
AcDbVertex
100
AcDbPolygonMeshVertex
 10
-3.555
 20
-0.88
 30
4.667
 70
    64
  0
VERTEX
  5
6016D
100
AcDbEntity
  8
0
100
AcDbVertex
100
AcDbPolygonMeshVertex
 10
-3.555
 20
-0.88
 30
4.537
 70
    64
  0
VERTEX
  5
6016E
100
AcDbEntity
  8
0
100
AcDbVertex
100
AcDbPolygonMeshVertex
 10
-3.555
 20
-0.88
 30
4.537
 70
    64
  0
VERTEX
  5
6016F
100
AcDbEntity
  8
0
100
AcDbVertex
100
AcDbPolygonMeshVertex
 10
-3.555
 20
-1.38
 30
4.667
 70
    64
  0
VERTEX
  5
60170
100
AcDbEntity
  8
0
100
AcDbVertex
100
AcDbPolygonMeshVertex
 10
-3.555
 20
-1.38
 30
4.537
 70
    64
  0
VERTEX
  5
60171
100
AcDbEntity
  8
0
100
AcDbVertex
100
AcDbPolygonMeshVertex
 10
-3.555
 20
-0.88
 30
4.537
 70
    64
  0
VERTEX
  5
60172
100
AcDbEntity
  8
0
100
AcDbVertex
100
AcDbPolygonMeshVertex
 10
-4.055
 20
-1.38
 30
4.667
 70
    64
  0
VERTEX
  5
60173
100
AcDbEntity
  8
0
100
AcDbVertex
100
AcDbPolygonMeshVertex
 10
-4.055
 20
-1.38
 30
4.537
 70
    64
  0
VERTEX
  5
60174
100
AcDbEntity
  8
0
100
AcDbVertex
100
AcDbPolygonMeshVertex
 10
-4.055
 20
-0.88
 30
4.537
 70
    64
  0
VERTEX
  5
60175
100
AcDbEntity
  8
0
100
AcDbVertex
100
AcDbPolygonMeshVertex
 10
-4.055
 20
-1.38
 30
4.667
 70
    64
  0
VERTEX
  5
60176
100
AcDbEntity
  8
0
100
AcDbVertex
100
AcDbPolygonMeshVertex
 10
-4.055
 20
-1.38
 30
4.667
 70
    64
  0
VERTEX
  5
60177
100
AcDbEntity
  8
0
100
AcDbVertex
100
AcDbPolygonMeshVertex
 10
-4.055
 20
-0.88
 30
4.667
 70
    64
  0
VERTEX
  5
60178
100
AcDbEntity
  8
0
100
AcDbVertex
100
AcDbPolygonMeshVertex
 10
-3.555
 20
-1.38
 30
4.667
 70
    64
  0
VERTEX
  5
60179
100
AcDbEntity
  8
0
100
AcDbVertex
100
AcDbPolygonMeshVertex
 10
-3.555
 20
-1.38
 30
4.667
 70
    64
  0
VERTEX
  5
6017A
100
AcDbEntity
  8
0
100
AcDbVertex
100
AcDbPolygonMeshVertex
 10
-3.555
 20
-0.88
 30
4.667
 70
    64
  0
SEQEND
  5
6017B
100
AcDbEntity
  8
0
  0
LINE
  5
6017C
100
AcDbEntity
  8
0
100
AcDbLine
 10
-3.785
 20
-1.25339
 30
4.667
 11
-3.785
 21
-1.00661
 31
4.667
  0
LINE
  5
6017D
100
AcDbEntity
  8
0
100
AcDbLine
 10
-3.825
 20
-1.25339
 30
4.667
 11
-3.825
 21
-1.00661
 31
4.667
  0
CIRCLE
  5
6017E
100
AcDbEntity
  8
0
100
AcDbCircle
 10
-3.805
 20
-1.13
 30
4.667
 40
0.155
  0
CIRCLE
  5
6017F
100
AcDbEntity
  8
0
100
AcDbCircle
 10
-3.805
 20
-1.13
 30
4.667
 40
0.125
  0
POLYLINE
  5
60180
100
AcDbEntity
  8
0
100
AcDbPolygonMesh
 66
     1
 10
0.0
 20
0.0
 30
0.0
 70
    16
 71
     6
 72
     3
  0
VERTEX
  5
60181
100
AcDbEntity
  8
0
100
AcDbVertex
100
AcDbPolygonMeshVertex
 10
-2.995
 20
-0.88
 30
4.667
 70
    64
  0
VERTEX
  5
60182
100
AcDbEntity
  8
0
100
AcDbVertex
100
AcDbPolygonMeshVertex
 10
-2.995
 20
-0.88
 30
4.537
 70
    64
  0
VERTEX
  5
60183
100
AcDbEntity
  8
0
100
AcDbVertex
100
AcDbPolygonMeshVertex
 10
-2.995
 20
-0.88
 30
4.537
 70
    64
  0
VERTEX
  5
60184
100
AcDbEntity
  8
0
100
AcDbVertex
100
AcDbPolygonMeshVertex
 10
-2.495
 20
-0.88
 30
4.667
 70
    64
  0
VERTEX
  5
60185
100
AcDbEntity
  8
0
100
AcDbVertex
100
AcDbPolygonMeshVertex
 10
-2.495
 20
-0.88
 30
4.537
 70
    64
  0
VERTEX
  5
60186
100
AcDbEntity
  8
0
100
AcDbVertex
100
AcDbPolygonMeshVertex
 10
-2.495
 20
-0.88
 30
4.537
 70
    64
  0
VERTEX
  5
60187
100
AcDbEntity
  8
0
100
AcDbVertex
100
AcDbPolygonMeshVertex
 10
-2.495
 20
-1.38
 30
4.667
 70
    64
  0
VERTEX
  5
60188
100
AcDbEntity
  8
0
100
AcDbVertex
100
AcDbPolygonMeshVertex
 10
-2.495
 20
-1.38
 30
4.537
 70
    64
  0
VERTEX
  5
60189
100
AcDbEntity
  8
0
100
AcDbVertex
100
AcDbPolygonMeshVertex
 10
-2.495
 20
-0.88
 30
4.537
 70
    64
  0
VERTEX
  5
6018A
100
AcDbEntity
  8
0
100
AcDbVertex
100
AcDbPolygonMeshVertex
 10
-2.995
 20
-1.38
 30
4.667
 70
    64
  0
VERTEX
  5
6018B
100
AcDbEntity
  8
0
100
AcDbVertex
100
AcDbPolygonMeshVertex
 10
-2.995
 20
-1.38
 30
4.537
 70
    64
  0
VERTEX
  5
6018C
100
AcDbEntity
  8
0
100
AcDbVertex
100
AcDbPolygonMeshVertex
 10
-2.995
 20
-0.88
 30
4.537
 70
    64
  0
VERTEX
  5
6018D
100
AcDbEntity
  8
0
100
AcDbVertex
100
AcDbPolygonMeshVertex
 10
-2.995
 20
-1.38
 30
4.667
 70
    64
  0
VERTEX
  5
6018E
100
AcDbEntity
  8
0
100
AcDbVertex
100
AcDbPolygonMeshVertex
 10
-2.995
 20
-1.38
 30
4.667
 70
    64
  0
VERTEX
  5
6018F
100
AcDbEntity
  8
0
100
AcDbVertex
100
AcDbPolygonMeshVertex
 10
-2.995
 20
-0.88
 30
4.667
 70
    64
  0
VERTEX
  5
60190
100
AcDbEntity
  8
0
100
AcDbVertex
100
AcDbPolygonMeshVertex
 10
-2.495
 20
-1.38
 30
4.667
 70
    64
  0
VERTEX
  5
60191
100
AcDbEntity
  8
0
100
AcDbVertex
100
AcDbPolygonMeshVertex
 10
-2.495
 20
-1.38
 30
4.667
 70
    64
  0
VERTEX
  5
60192
100
AcDbEntity
  8
0
100
AcDbVertex
100
AcDbPolygonMeshVertex
 10
-2.495
 20
-0.88
 30
4.667
 70
    64
  0
SEQEND
  5
60193
100
AcDbEntity
  8
0
  0
LINE
  5
60194
100
AcDbEntity
  8
0
100
AcDbLine
 10
-2.725
 20
-1.25339
 30
4.667
 11
-2.725
 21
-1.00661
 31
4.667
  0
LINE
  5
60195
100
AcDbEntity
  8
0
100
AcDbLine
 10
-2.765
 20
-1.25339
 30
4.667
 11
-2.765
 21
-1.00661
 31
4.667
  0
CIRCLE
  5
60196
100
AcDbEntity
  8
0
100
AcDbCircle
 10
-2.745
 20
-1.13
 30
4.667
 40
0.155
  0
CIRCLE
  5
60197
100
AcDbEntity
  8
0
100
AcDbCircle
 10
-2.745
 20
-1.13
 30
4.667
 40
0.125
  0
POLYLINE
  5
60198
100
AcDbEntity
  8
0
100
AcDbPolygonMesh
 66
     1
 10
0.0
 20
0.0
 30
0.0
 70
    16
 71
     6
 72
     3
  0
VERTEX
  5
60199
100
AcDbEntity
  8
0
100
AcDbVertex
100
AcDbPolygonMeshVertex
 10
-1.935
 20
-0.88
 30
4.667
 70
    64
  0
VERTEX
  5
6019A
100
AcDbEntity
  8
0
100
AcDbVertex
100
AcDbPolygonMeshVertex
 10
-1.935
 20
-0.88
 30
4.537
 70
    64
  0
VERTEX
  5
6019B
100
AcDbEntity
  8
0
100
AcDbVertex
100
AcDbPolygonMeshVertex
 10
-1.935
 20
-0.88
 30
4.537
 70
    64
  0
VERTEX
  5
6019C
100
AcDbEntity
  8
0
100
AcDbVertex
100
AcDbPolygonMeshVertex
 10
-1.435
 20
-0.88
 30
4.667
 70
    64
  0
VERTEX
  5
6019D
100
AcDbEntity
  8
0
100
AcDbVertex
100
AcDbPolygonMeshVertex
 10
-1.435
 20
-0.88
 30
4.537
 70
    64
  0
VERTEX
  5
6019E
100
AcDbEntity
  8
0
100
AcDbVertex
100
AcDbPolygonMeshVertex
 10
-1.435
 20
-0.88
 30
4.537
 70
    64
  0
VERTEX
  5
6019F
100
AcDbEntity
  8
0
100
AcDbVertex
100
AcDbPolygonMeshVertex
 10
-1.435
 20
-1.38
 30
4.667
 70
    64
  0
VERTEX
  5
601A0
100
AcDbEntity
  8
0
100
AcDbVertex
100
AcDbPolygonMeshVertex
 10
-1.435
 20
-1.38
 30
4.537
 70
    64
  0
VERTEX
  5
601A1
100
AcDbEntity
  8
0
100
AcDbVertex
100
AcDbPolygonMeshVertex
 10
-1.435
 20
-0.88
 30
4.537
 70
    64
  0
VERTEX
  5
601A2
100
AcDbEntity
  8
0
100
AcDbVertex
100
AcDbPolygonMeshVertex
 10
-1.935
 20
-1.38
 30
4.667
 70
    64
  0
VERTEX
  5
601A3
100
AcDbEntity
  8
0
100
AcDbVertex
100
AcDbPolygonMeshVertex
 10
-1.935
 20
-1.38
 30
4.537
 70
    64
  0
VERTEX
  5
601A4
100
AcDbEntity
  8
0
100
AcDbVertex
100
AcDbPolygonMeshVertex
 10
-1.935
 20
-0.88
 30
4.537
 70
    64
  0
VERTEX
  5
601A5
100
AcDbEntity
  8
0
100
AcDbVertex
100
AcDbPolygonMeshVertex
 10
-1.935
 20
-1.38
 30
4.667
 70
    64
  0
VERTEX
  5
601A6
100
AcDbEntity
  8
0
100
AcDbVertex
100
AcDbPolygonMeshVertex
 10
-1.935
 20
-1.38
 30
4.667
 70
    64
  0
VERTEX
  5
601A7
100
AcDbEntity
  8
0
100
AcDbVertex
100
AcDbPolygonMeshVertex
 10
-1.935
 20
-0.88
 30
4.667
 70
    64
  0
VERTEX
  5
601A8
100
AcDbEntity
  8
0
100
AcDbVertex
100
AcDbPolygonMeshVertex
 10
-1.435
 20
-1.38
 30
4.667
 70
    64
  0
VERTEX
  5
601A9
100
AcDbEntity
  8
0
100
AcDbVertex
100
AcDbPolygonMeshVertex
 10
-1.435
 20
-1.38
 30
4.667
 70
    64
  0
VERTEX
  5
601AA
100
AcDbEntity
  8
0
100
AcDbVertex
100
AcDbPolygonMeshVertex
 10
-1.435
 20
-0.88
 30
4.667
 70
    64
  0
SEQEND
  5
601AB
100
AcDbEntity
  8
0
  0
LINE
  5
601AC
100
AcDbEntity
  8
0
100
AcDbLine
 10
-1.435
 20
-1.38
 30
4.537
 11
-1.435
 21
-0.88
 31
4.537
  0
CIRCLE
  5
601AD
100
AcDbEntity
  8
0
100
AcDbCircle
 10
-1.685
 20
-1.13
 30
4.667
 40
0.125
  0
CIRCLE
  5
601AE
100
AcDbEntity
  8
0
100
AcDbCircle
 10
-1.685
 20
-1.13
 30
4.667
 40
0.155
  0
LINE
  5
601AF
100
AcDbEntity
  8
0
100
AcDbLine
 10
-1.705
 20
-1.25339
 30
4.667
 11
-1.705
 21
-1.00661
 31
4.667
  0
LINE
  5
601B0
100
AcDbEntity
  8
0
100
AcDbLine
 10
-1.665
 20
-1.25339
 30
4.667
 11
-1.665
 21
-1.00661
 31
4.667
  0
TEXT
  5
601B1
100
AcDbEntity
  8
0
100
AcDbText
 10
1.619825
 20
-1.207667
 30
4.667
 40
0.14053
  1
L1
100
AcDbText
  0
TEXT
  5
601B2
100
AcDbEntity
  8
0
100
AcDbText
 10
2.648985
 20
-1.207186
 30
4.667
 40
0.14053
  1
L2
100
AcDbText
  0
TEXT
  5
601B3
100
AcDbEntity
  8
0
100
AcDbText
 10
3.703125
 20
-1.201712
 30
4.667
 40
0.14053
  1
L3
100
AcDbText
  0
TEXT
  5
601B4
100
AcDbEntity
  8
0
100
AcDbText
 10
1.597196
 20
-9.294514
 30
2.727
 40
0.14053
  1
T1
100
AcDbText
  0
TEXT
  5
601B5
100
AcDbEntity
  8
0
100
AcDbText
 10
2.649504
 20
-9.299148
 30
2.727
 40
0.14053
  1
T2
100
AcDbText
  0
TEXT
  5
601B6
100
AcDbEntity
  8
0
100
AcDbText
 10
3.707153
 20
-9.293103
 30
2.727
 40
0.14053
  1
T3
100
AcDbText
  0
ATTDEF
  5
601B7
100
AcDbEntity
  8
ATTRIBUTES
100
AcDbText
 10
-4.470722
 20
-5.727379
 30
0.0
 40
0.199571
  1
ALLEN-BRADLEY
100
AcDbAttributeDefinition
  3
MANUFACTURER NAME?
  2
AC_VND_LABEL
 70
     1
  0
ATTDEF
  5
601B8
100
AcDbEntity
  8
ATTRIBUTES
100
AcDbText
 10
-4.470722
 20
-6.143153
 30
0.0
 40
0.199571
  1
520G-C
100
AcDbAttributeDefinition
  3
CATALOG NUMBER?
  2
AC_PART_NO
 70
     1
  0
ATTDEF
  5
601B9
100
AcDbEntity
  8
ATTRIBUTES
100
AcDbText
 10
-4.470722
 20
-6.558926
 30
0.0
 40
0.199571
  1
2 SPEED CONSTANT HP w/ EUTECTIC ALLOY OLR; NEMA SIZE 2
100
AcDbAttributeDefinition
  3
PART DESCRIPTION?
  2
AC_DESCRIPTION
 70
     1
  0
ATTDEF
  5
601BA
100
AcDbEntity
  8
ATTRIBUTES
100
AcDbText
 10
-4.470722
 20
-6.974699
 30
0.0
 40
0.199571
  1

100
AcDbAttributeDefinition
  3
DEVICE ID?
  2
DEVICE_ID
 70
     1
  0
ATTDEF
  5
601BB
100
AcDbEntity
  8
ATTRIBUTES
100
AcDbText
 10
-4.470722
 20
-7.390472
 30
0.0
 40
0.199571
  1

100
AcDbAttributeDefinition
  3
CUSTOMER PART NUMBER?
  2
AC_CPART_NO
 70
     1
  0
ATTDEF
  5
601BC
100
AcDbEntity
  8
ATTRIBUTES
100
AcDbText
 10
-4.470722
 20
-7.806246
 30
0.0
 40
0.199571
  1

100
AcDbAttributeDefinition
  3
CUSTOMER NOTE?
  2
AC_NOTE
 70
     1
  0
ATTDEF
  5
601BD
100
AcDbEntity
  8
ATTRIBUTES
100
AcDbText
 10
-4.470722
 20
-8.222019
 30
0.0
 40
0.199571
  1

100
AcDbAttributeDefinition
  3
FASTENER DATA?
  2
FASTENER
 70
     1
  0
ATTDEF
  5
601BE
100
AcDbEntity
  8
ATTRIBUTES
100
AcDbText
 10
-4.470722
 20
-8.637792
 30
0.0
 40
0.199571
  1
INCH
100
AcDbAttributeDefinition
  3
UNIT OF SCALE?
  2
AC_SCALE_UNIT
 70
     1
  0
ATTDEF
  5
601BF
100
AcDbEntity
  8
ATTRIBUTES
100
AcDbText
 10
-4.470722
 20
-9.053565
 30
0.0
 40
0.199571
  1
0
100
AcDbAttributeDefinition
  3
VIEW CODE?
  2
AC_VIEW_CODE
 70
     1
  0
3DFACE
  5
601C0
100
AcDbEntity
  8
0
100
AcDbFace
 10
-1.0
 20
0.281
 30
0.197
 11
-1.0
 21
0.281
 31
0.0
 12
-1.53
 22
-0.249
 32
0.0
 13
-1.53
 23
-0.249
 33
0.197
  0
3DFACE
  5
601C1
100
AcDbEntity
  8
0
100
AcDbFace
 10
1.0
 20
0.281
 30
0.197
 11
1.0
 21
0.281
 31
0.0
 12
-1.0
 22
0.281
 32
0.0
 13
-1.0
 23
0.281
 33
0.197
  0
LWPOLYLINE
  5
601C2
100
AcDbEntity
  8
0
100
AcDbPolyline
 90
        4
 70
     1
 43
0.0
 10
-0.1
 20
-0.131891
 42
4.466089
 10
0.1
 20
-0.131891
 10
0.1
 20
0.0
 42
1.0
 10
-0.1
 20
0.0
  0
3DFACE
  5
601C3
100
AcDbEntity
  8
0
100
AcDbFace
 10
1.53
 20
-0.249
 30
0.197
 11
1.53
 21
-0.249
 31
0.0
 12
1.0
 22
0.281
 32
0.0
 13
1.0
 23
0.281
 33
0.197
  0
LWPOLYLINE
  5
601C4
100
AcDbEntity
  8
0
100
AcDbPolyline
 90
        4
 70
     1
 43
0.0
 38
0.197
 10
-0.1
 20
-0.131891
 42
4.466089
 10
0.1
 20
-0.131891
 10
0.1
 20
0.0
 42
1.0
 10
-0.1
 20
0.0
  0
POINT
  5
601C5
100
AcDbEntity
  8
DIMS-MTG-HOLES
100
AcDbPoint
 10
-3.937
 20
-9.844
 30
0.0
  0
POINT
  5
601C6
100
AcDbEntity
  8
DIMS-MTG-HOLES
100
AcDbPoint
 10
3.937
 20
-9.844
 30
0.0
  0
POINT
  5
601C7
100
AcDbEntity
  8
DIMS-MTG-HOLES
100
AcDbPoint
 10
0.0
 20
0.0
 30
0.0
  0
DIMENSION
  5
601C8
100
AcDbEntity
  8
AREA1
100
AcDbDimension
  2
*D0
 10
-6.78082
 20
-10.059
 30
0.0
 11
-6.78082
 21
-5.015538
 31
0.0
 70
   160
  3
ABECAD_3V
100
AcDbAlignedDimension
 13
-1.0
 23
0.281
 33
0.0
 14
-4.75
 24
-10.059
 34
0.0
 50
90.0
100
AcDbRotatedDimension
1001
ACAD
1000
DSTYLE
1002
{
1070
    40
1040
3.561577
1002
}
  0
DIMENSION
  5
601C9
100
AcDbEntity
  8
AREA1
100
AcDbDimension
  2
*D1
 10
4.75
 20
1.918722
 30
0.0
 11
-0.499147
 21
1.918722
 31
0.0
 70
   160
  3
ABECAD_3V
100
AcDbAlignedDimension
 13
-5.495
 23
-1.43
 33
0.387
 14
4.75
 24
-0.249
 34
0.0
100
AcDbRotatedDimension
1001
ACAD
1000
DSTYLE
1002
{
1070
    40
1040
3.561577
1002
}
  0
LWPOLYLINE
  5
601CA
100
AcDbEntity
  8
SCALE
100
AcDbPolyline
 90
        4
 70
     1
 43
0.0
 10
-1.367684
 20
-10.304343
 10
-0.232055
 20
-10.304343
 10
-0.232055
 20
-11.145953
 10
-1.367684
 20
-11.145953
  0
LINE
  5
601CB
100
AcDbEntity
  8
SCALE
100
AcDbLine
 10
-1.309685
 20
-10.684422
 30
0.0
 11
-0.309685
 21
-10.684422
 31
0.0
  0
LINE
  5
601CC
100
AcDbEntity
  8
SCALE
100
AcDbLine
 10
-1.309685
 20
-10.984422
 30
0.0
 11
-0.915985
 21
-10.984422
 31
0.0
  0
LINE
  5
601CD
100
AcDbEntity
  8
SCALE
100
AcDbLine
 10
-1.309685
 20
-10.784422
 30
0.0
 11
-1.309685
 21
-10.584422
 31
0.0
  0
TEXT
  5
601CE
100
AcDbEntity
  8
SCALE
100
AcDbText
 10
-1.253709
 20
-10.936737
 30
0.0
 40
0.0625
  1
[10mm]
100
AcDbText
  0
LINE
  5
601CF
100
AcDbEntity
  8
SCALE
100
AcDbLine
 10
-1.309685
 20
-11.084422
 30
0.0
 11
-1.309685
 21
-10.884422
 31
0.0
  0
TEXT
  5
601D0
100
AcDbEntity
  8
SCALE
100
AcDbText
 10
-1.308155
 20
-10.409545
 30
0.0
 40
0.0625
  1
SCALE:
100
AcDbText
  0
LINE
  5
601D1
100
AcDbEntity
  8
SCALE
100
AcDbLine
 10
-0.915985
 20
-11.084422
 30
0.0
 11
-0.915985
 21
-10.884422
 31
0.0
  0
TEXT
  5
601D2
100
AcDbEntity
  8
SCALE
100
AcDbText
 10
-0.946402
 20
-10.615373
 30
0.0
 40
0.0625
  1
1 Inch
100
AcDbText
  0
LINE
  5
601D3
100
AcDbEntity
  8
SCALE
100
AcDbLine
 10
-0.309685
 20
-10.684422
 30
0.0
 11
-0.309685
 21
-10.784422
 31
0.0
  0
LINE
  5
601D4
100
AcDbEntity
  8
SCALE
100
AcDbLine
 10
-0.309685
 20
-10.784422
 30
0.0
 11
-0.309685
 21
-10.584422
 31
0.0
  0
DIMENSION
  5
60203
100
AcDbEntity
  8
AREA2
100
AcDbDimension
  2
*D2
 10
-6.435599
 20
0.0
 30
0.0
 11
-7.023425
 21
2.353592
 31
0.0
 70
   160
210
0.0
220
-1.0
230
0.0
  3
ABECAD_3V
100
AcDbAlignedDimension
 13
-3.405
 23
-1.22
 33
4.917
 14
-4.75
 24
-0.249
 34
0.0
 50
90.0
100
AcDbRotatedDimension
1001
ACAD
1000
DSTYLE
1002
{
1070
    40
1040
3.561577
1002
}
  0
VIEWPORT
  5
2C
102
{ACAD_XDICTIONARY
360
6030C
102
}
100
AcDbEntity
 67
     1
  8
0
100
AcDbViewport
 10
4.999849
 20
3.750155
 30
0.0
 40
15.925225
 41
7.624676
 68
     1
 69
     1
1001
ACAD
1000
MVIEW
1002
{
1070
    16
1010
0.0
1020
0.0
1030
0.0
1010
0.0
1020
0.0
1030
1.0
1040
0.0
1040
7.624676
1040
4.999849
1040
3.750155
1040
50.0
1040
0.0
1040
0.0
1070
     0
1070
   100
1070
     1
1070
     1
1070
     0
1070
     0
1070
     0
1070
     0
1040
0.0
1040
0.0
1040
0.0
1040
1.0
1040
1.0
1040
0.0
1040
0.0
1070
     0
1002
{
1002
}
1002
}
  0
VIEWPORT
  5
2D
102
{ACAD_XDICTIONARY
360
6030E
102
}
100
AcDbEntity
 67
     1
  8
0
100
AcDbViewport
 10
2.5
 20
5.625
 30
0.0
 40
5.0
 41
3.75
 68
     3
 69
     2
1001
ACAD
1000
MVIEW
1002
{
1070
    16
1010
0.0
1020
0.0
1030
0.0
1010
0.0
1020
0.0
1030
1.0
1040
0.0
1040
13.566408
1040
-1.160225
1040
-3.75776
1040
50.0
1040
0.0
1040
0.0
1070
     0
1070
   100
1070
     1
1070
     0
1070
     0
1070
     0
1070
     0
1070
     0
1040
0.0
1040
0.0
1040
0.0
1040
1.0
1040
1.0
1040
0.0
1040
0.0
1070
     0
1002
{
1003
AREA2
1002
}
1002
}
  0
VIEWPORT
  5
2E
102
{ACAD_XDICTIONARY
360
60310
102
}
100
AcDbEntity
 67
     1
  8
0
100
AcDbViewport
 10
2.5
 20
1.875
 30
0.0
 40
5.0
 41
3.75
 68
     2
 69
     3
1001
ACAD
1000
MVIEW
1002
{
1070
    16
1010
0.0
1020
0.0
1030
0.0
1010
0.0
1020
-1.0
1030
0.0
1040
0.0
1040
13.355915
1040
-1.10541
1040
2.4585
1040
50.0
1040
0.0
1040
0.0
1070
     0
1070
   100
1070
     1
1070
     0
1070
     0
1070
     0
1070
     0
1070
     0
1040
0.0
1040
0.0
1040
0.0
1040
1.0
1040
1.0
1040
0.0
1040
0.0
1070
     0
1002
{
1003
AREA1
1002
}
1002
}
  0
VIEWPORT
  5
2F
102
{ACAD_XDICTIONARY
360
60312
102
}
100
AcDbEntity
 67
     1
  8
0
100
AcDbViewport
 10
7.5
 20
3.75
 30
0.0
 40
5.0
 41
7.5
 68
     4
 69
     4
1001
ACAD
1000
MVIEW
1002
{
1070
    16
1010
0.0
1020
0.0
1030
0.0
1010
-1.0
1020
-1.0
1030
1.0
1040
0.0
1040
21.5113
1040
3.499366
1040
0.522712
1040
50.0
1040
0.0
1040
0.0
1070
     0
1070
   100
1070
     1
1070
     0
1070
     0
1070
     0
1070
     0
1070
     0
1040
0.0
1040
0.0
1040
0.0
1040
1.0
1040
1.0
1040
0.0
1040
0.0
1070
     0
1002
{
1003
AREA1
1003
AREA2
1002
}
1002
}
  0
TEXT
  5
42D
100
AcDbEntity
 67
     1
  8
0
100
AcDbText
 10
5.253785
 20
7.092701
 30
0.0
 40
0.2
  1

100
AcDbText
  0
TEXT
  5
431
100
AcDbEntity
 67
     1
  8
0
100
AcDbText
 10
5.253785
 20
6.759368
 30
0.0
 40
0.2
  1

100
AcDbText
1001
ACAD
1000
R13OBJECT
1002
{
1005
42D
1002
}
  0
TEXT
  5
11D16
100
AcDbEntity
 67
     1
  8
AREA2
100
AcDbText
 10
5.101109
 20
7.152637
 30
0.0
 40
0.2
  1
520G-C
100
AcDbText
  0
TEXT
  5
24C0A
100
AcDbEntity
 67
     1
  8
AREA2
100
AcDbText
 10
5.101109
 20
6.881437
 30
0.0
 40
0.2
  1
2 SPEED CONSTANT HP 
100
AcDbText
  0
TEXT
  5
2F662
100
AcDbEntity
 67
     1
  8
AREA2
100
AcDbText
 10
5.101109
 20
6.599834
 30
0.0
 40
0.2
  1
w/ EUTECTIC ALLOY OLR; 
100
AcDbText
  0
TEXT
  5
4B785
100
AcDbEntity
 67
     1
  8
AREA2
100
AcDbText
 10
5.101109
 20
6.310076
 30
0.0
 40
0.2
  1
NEMA SIZE 2
100
AcDbText
  0
ENDSEC
  0
SECTION
  2
OBJECTS
  0
DICTIONARY
  5
46D
100
AcDbDictionary
  3
ACAD_GROUP
350
46E
  3
ACAD_LAYOUT
350
49E
  3
ACAD_MLINESTYLE
350
47B
  3
ACAD_PLOTSETTINGS
350
49F
  3
ACAD_PLOTSTYLENAME
350
49C
  3
ACDBHEADERROUNDTRIPXREC
350
602EB
  3
ACDBVARIABLEDICTIONARY
350
48D
  0
DICTIONARY
  5
602E9
100
AcDbDictionary
280
     1
  3
ACAD_XREC_ROUNDTRIP
360
602EA
  0
DICTIONARY
  5
60316
100
AcDbDictionary
280
     1
  3
ACAD_XREC_ROUNDTRIP
360
60317
  0
DICTIONARY
  5
60318
100
AcDbDictionary
280
     1
  3
ACAD_XREC_ROUNDTRIP
360
60319
  0
DICTIONARY
  5
6031C
100
AcDbDictionary
280
     1
  3
ACAD_XREC_ROUNDTRIP
360
6031D
  0
DICTIONARY
  5
4D2
100
AcDbDictionary
280
     1
  3
ACAD_LAYOUTSELFREF
360
60315
  0
DICTIONARY
  5
4D0
100
AcDbDictionary
280
     1
  3
ACAD_LAYOUTSELFREF
360
60314
  0
DICTIONARY
  5
6030C
100
AcDbDictionary
280
     1
  3
ACAD_XREC_ROUNDTRIP
360
6030D
  0
DICTIONARY
  5
6030E
100
AcDbDictionary
280
     1
  3
ACAD_XREC_ROUNDTRIP
360
6030F
  0
DICTIONARY
  5
60310
100
AcDbDictionary
280
     1
  3
ACAD_XREC_ROUNDTRIP
360
60311
  0
DICTIONARY
  5
60312
100
AcDbDictionary
280
     1
  3
ACAD_XREC_ROUNDTRIP
360
60313
  0
DICTIONARY
  5
46E
102
{ACAD_REACTORS
330
46D
102
}
100
AcDbDictionary
  0
DICTIONARY
  5
49E
102
{ACAD_XDICTIONARY
360
6031A
102
}
102
{ACAD_REACTORS
330
46D
102
}
100
AcDbDictionary
  3
LAYOUT1
350
4A1
  3
MODEL
350
4A0
  0
DICTIONARY
  5
47B
102
{ACAD_REACTORS
330
46D
102
}
100
AcDbDictionary
  3
STANDARD
350
47C
  0
DICTIONARY
  5
49F
102
{ACAD_REACTORS
330
46D
102
}
100
AcDbDictionary
  0
ACAD_PROXY_OBJECT
  5
49C
102
{ACAD_REACTORS
330
46D
102
}
100
AcDbProxyObject
 90
      499
 91
      501
 93
       86
310
405010041939BDC9B585B0
350
49D
340
49D
 94
        0
  0
DICTIONARY
  5
602EB
102
{ACAD_REACTORS
330
46D
102
}
100
AcDbDictionary
  3
CEPSNTYPE
350
602F5
  3
DIMSTYLEDATA
350
602F9
  3
FINGERPRINTGUID
350
602F6
  3
HYPERLINKBASE
350
602EE
  3
INSUNITS
350
602F4
  3
LAYOUTDICT
350
602F0
  3
LWETCUNION
350
602F3
  3
PLOTSETDICT
350
602F1
  3
PLOTSTYLNAMDICT
350
602F2
  3
PSVPSCALE
350
602F8
  3
PUCSBASE
350
602FC
  3
PUCSORGBACK
350
60302
  3
PUCSORGBOTTOM
350
602FE
  3
PUCSORGFRONT
350
60301
  3
PUCSORGLEFT
350
602FF
  3
PUCSORGRIGHT
350
60300
  3
PUCSORGTOP
350
602FD
  3
PUCSORTHOREF
350
602FA
  3
PUCSORTHOVIEW
350
602FB
  3
STYLESHEET
350
602EF
  3
TSTACKALIGN
350
602EC
  3
TSTACKSIZE
350
602ED
  3
UCSBASE
350
60305
  3
UCSORGBACK
350
6030B
  3
UCSORGBOTTOM
350
60307
  3
UCSORGFRONT
350
6030A
  3
UCSORGLEFT
350
60308
  3
UCSORGRIGHT
350
60309
  3
UCSORGTOP
350
60306
  3
UCSORTHOREF
350
60303
  3
UCSORTHOVIEW
350
60304
  3
VERSIONGUID
350
602F7
  0
DICTIONARY
  5
48D
102
{ACAD_REACTORS
330
46D
102
}
100
AcDbDictionary
  3
DIMADEC
350
48E
  0
XRECORD
  5
602EA
102
{ACAD_REACTORS
330
602E9
102
}
100
AcDbXrecord
102
EXTNAMES
  1
*ACTIVE
  2
*Active
102
UCS
 74
     0
 71
     1
 10
0.0
 20
0.0
 30
0.0
 10
1.0
 20
0.0
 30
0.0
 10
0.0
 20
1.0
 30
0.0
146
0.0
 79
     1
102
VIEW
281
     1
  0
XRECORD
  5
60317
102
{ACAD_REACTORS
330
60316
102
}
100
AcDbXrecord
102
PLOTBIT
280
     0
  0
XRECORD
  5
60319
102
{ACAD_REACTORS
330
60318
102
}
100
AcDbXrecord
102
ACADR14ROUNDTRIP
1000
DSTYLE
1002
{
1070
   276
 70
     2
1070
   277
 70
     5
1070
   279
 70
     2
1002
}
  0
XRECORD
  5
6031D
102
{ACAD_REACTORS
330
6031C
102
}
100
AcDbXrecord
102
ACADR14ROUNDTRIP
1000
DSTYLE
1002
{
1070
   276
 70
     2
1070
   277
 70
     5
1070
   279
 70
     2
1070
   289
 70
     2
1002
}
  0
XRECORD
  5
60315
102
{ACAD_REACTORS
330
4D2
102
}
100
AcDbXrecord
340
478
  0
XRECORD
  5
60314
102
{ACAD_REACTORS
330
4D0
102
}
100
AcDbXrecord
340
475
  0
XRECORD
  5
6030D
102
{ACAD_REACTORS
330
6030C
102
}
100
AcDbXrecord
102
UCS
 74
     0
 71
     1
 10
0.0
 20
0.0
 30
0.0
 10
1.0
 20
0.0
 30
0.0
 10
0.0
 20
1.0
 30
0.0
146
0.0
 79
     0
102
VIEW
281
     0
102
NEWVIEWCONTROL
280
     4
  0
XRECORD
  5
6030F
102
{ACAD_REACTORS
330
6030E
102
}
100
AcDbXrecord
102
UCS
 74
     0
 71
     1
 10
0.0
 20
0.0
 30
0.0
 10
1.0
 20
0.0
 30
0.0
 10
0.0
 20
1.0
 30
0.0
146
0.0
 79
     1
102
VIEW
281
     0
102
NEWVIEWCONTROL
280
     4
  0
XRECORD
  5
60311
102
{ACAD_REACTORS
330
60310
102
}
100
AcDbXrecord
102
UCS
 74
     0
 71
     1
 10
0.0
 20
0.0
 30
0.0
 10
1.0
 20
0.0
 30
0.0
 10
0.0
 20
0.0
 30
1.0
146
0.0
 79
     3
102
VIEW
281
     0
102
NEWVIEWCONTROL
280
     4
  0
XRECORD
  5
60313
102
{ACAD_REACTORS
330
60312
102
}
100
AcDbXrecord
102
UCS
 74
     0
 71
     1
 10
0.0
 20
0.0
 30
0.0
 10
1.0
 20
0.0
 30
0.0
 10
0.0
 20
1.0
 30
0.0
146
0.0
 79
     0
102
VIEW
281
     0
102
NEWVIEWCONTROL
280
     4
  0
DICTIONARY
  5
6031A
100
AcDbDictionary
280
     1
  3
ACAD_XREC_ROUNDTRIP
360
6031B
  0
ACAD_PROXY_OBJECT
  5
4A1
102
{ACAD_REACTORS
330
49E
102
}
100
AcDbProxyObject
 90
      499
 91
      503
 93
     2044
310
91D4850204C617365724A65742035303030205365726965732050434C20362C008000000C0BB1B1440000000102F06C510000000000BC1B1440000000002E06C5100000000C0CCFC6A4000000018199D9C501064C6574746572A901406AA427D84144352EEE3F47D11959985D5B1D08148C4D081C195B88185CDCDA59DB9B5
310
95B9D1CCB98DD18A30EDE3B1BBFDBC0FC1D572C8D6D0C833F1A2B3054E9249F0FD074C61796F75743140501A97D7DB4AA43C31EFF91E46EBA53B71EFD1F32A15809809100B6537F8EAD447D02A6A6A00200C0093BD106FC0000F06EE366FABE0000032E846F6A2F44424FF2920002440160B7F435600079000000D00CEECC5
310
43D0
330
475
330
2C
340
0
340
0
 94
        0
  0
ACAD_PROXY_OBJECT
  5
4A0
102
{ACAD_REACTORS
330
49E
102
}
100
AcDbProxyObject
 90
      499
 91
      503
 93
      924
310
91D4850204C617365724A65742035303030205365726965732050434C20362C01AAAAAAAAA547D11959985D5B1D08148C4D081C195B88185CDCDA59DB9B595B9D1CCB98DD18A69054D6F64656C901A800000000000000000000000000000000000000000000A1000000000000008902A6A6AAAA0
330
478
330
0
340
0
340
0
 94
        0
  0
MLINESTYLE
  5
47C
102
{ACAD_REACTORS
330
47B
102
}
100
AcDbMlineStyle
  2
STANDARD
 70
     0
  3

 62
   256
 51
90.0
 52
90.0
 71
     2
 49
0.5
 62
   256
  6
BYLAYER
 49
-0.5
 62
   256
  6
BYLAYER
  0
ACAD_PROXY_OBJECT
  5
49D
102
{ACAD_REACTORS
330
49C
102
}
100
AcDbProxyObject
 90
      499
 91
      502
 93
        0
 94
        0
  0
XRECORD
  5
602F5
102
{ACAD_REACTORS
330
602EB
102
}
100
AcDbXrecord
 90
        0
  0
XRECORD
  5
602F9
102
{ACAD_REACTORS
330
602EB
102
}
100
AcDbXrecord
1000
DSTYLE
1002
{
1070
   276
 70
     2
1070
   277
 70
     5
1070
   279
 70
     2
1002
}
  0
XRECORD
  5
602F6
102
{ACAD_REACTORS
330
602EB
102
}
100
AcDbXrecord
  1
{6E0CF4B5-225E-11D4-A150-00A0CC3303EC}
  0
XRECORD
  5
602EE
102
{ACAD_REACTORS
330
602EB
102
}
100
AcDbXrecord
  1

  0
XRECORD
  5
602F4
102
{ACAD_REACTORS
330
602EB
102
}
100
AcDbXrecord
 90
        0
  0
XRECORD
  5
602F0
102
{ACAD_REACTORS
330
602EB
102
}
100
AcDbXrecord
340
49E
  0
XRECORD
  5
602F3
102
{ACAD_REACTORS
330
602EB
102
}
100
AcDbXrecord
 90
    14877
  0
XRECORD
  5
602F1
102
{ACAD_REACTORS
330
602EB
102
}
100
AcDbXrecord
340
49F
  0
XRECORD
  5
602F2
102
{ACAD_REACTORS
330
602EB
102
}
100
AcDbXrecord
340
49C
  0
XRECORD
  5
602F8
102
{ACAD_REACTORS
330
602EB
102
}
100
AcDbXrecord
 40
0.0
  0
XRECORD
  5
602FC
102
{ACAD_REACTORS
330
602EB
102
}
100
AcDbXrecord
340
0
  0
XRECORD
  5
60302
102
{ACAD_REACTORS
330
602EB
102
}
100
AcDbXrecord
 10
0.0
 20
0.0
 30
0.0
  0
XRECORD
  5
602FE
102
{ACAD_REACTORS
330
602EB
102
}
100
AcDbXrecord
 10
0.0
 20
0.0
 30
0.0
  0
XRECORD
  5
60301
102
{ACAD_REACTORS
330
602EB
102
}
100
AcDbXrecord
 10
0.0
 20
0.0
 30
0.0
  0
XRECORD
  5
602FF
102
{ACAD_REACTORS
330
602EB
102
}
100
AcDbXrecord
 10
0.0
 20
0.0
 30
0.0
  0
XRECORD
  5
60300
102
{ACAD_REACTORS
330
602EB
102
}
100
AcDbXrecord
 10
0.0
 20
0.0
 30
0.0
  0
XRECORD
  5
602FD
102
{ACAD_REACTORS
330
602EB
102
}
100
AcDbXrecord
 10
0.0
 20
0.0
 30
0.0
  0
XRECORD
  5
602FA
102
{ACAD_REACTORS
330
602EB
102
}
100
AcDbXrecord
340
0
  0
XRECORD
  5
602FB
102
{ACAD_REACTORS
330
602EB
102
}
100
AcDbXrecord
 70
     0
  0
XRECORD
  5
602EF
102
{ACAD_REACTORS
330
602EB
102
}
100
AcDbXrecord
  1

  0
XRECORD
  5
602EC
102
{ACAD_REACTORS
330
602EB
102
}
100
AcDbXrecord
 90
        1
  0
XRECORD
  5
602ED
102
{ACAD_REACTORS
330
602EB
102
}
100
AcDbXrecord
 90
       70
  0
XRECORD
  5
60305
102
{ACAD_REACTORS
330
602EB
102
}
100
AcDbXrecord
340
0
  0
XRECORD
  5
6030B
102
{ACAD_REACTORS
330
602EB
102
}
100
AcDbXrecord
 10
0.0
 20
0.0
 30
0.0
  0
XRECORD
  5
60307
102
{ACAD_REACTORS
330
602EB
102
}
100
AcDbXrecord
 10
0.0
 20
0.0
 30
0.0
  0
XRECORD
  5
6030A
102
{ACAD_REACTORS
330
602EB
102
}
100
AcDbXrecord
 10
0.0
 20
0.0
 30
0.0
  0
XRECORD
  5
60308
102
{ACAD_REACTORS
330
602EB
102
}
100
AcDbXrecord
 10
0.0
 20
0.0
 30
0.0
  0
XRECORD
  5
60309
102
{ACAD_REACTORS
330
602EB
102
}
100
AcDbXrecord
 10
0.0
 20
0.0
 30
0.0
  0
XRECORD
  5
60306
102
{ACAD_REACTORS
330
602EB
102
}
100
AcDbXrecord
 10
0.0
 20
0.0
 30
0.0
  0
XRECORD
  5
60303
102
{ACAD_REACTORS
330
602EB
102
}
100
AcDbXrecord
340
0
  0
XRECORD
  5
60304
102
{ACAD_REACTORS
330
602EB
102
}
100
AcDbXrecord
 70
     3
  0
XRECORD
  5
602F7
102
{ACAD_REACTORS
330
602EB
102
}
100
AcDbXrecord
  1
{1E02CC2C-24CC-40B9-BF49-B2C0B240C59A}
  0
DICTIONARYVAR
  5
48E
102
{ACAD_REACTORS
330
48D
102
}
100
DictionaryVariables
280
     0
  1
0
  0
XRECORD
  5
6031B
102
{ACAD_REACTORS
330
6031A
102
}
100
AcDbXrecord
102
EXTNAMES
  1
LAYOUT1
  2
Layout1
  1
MODEL
  2
Model
  0
ENDSEC
  0
EOF
