  0
SECTION
  2
HEADER
  9
$ACADVER
  1
AC1014
  9
$ACADMAINTVER
 70
     8
  9
$DWGCODEPAGE
  3
ANSI_1252
  9
$INSBASE
 10
0.0
 20
0.0
 30
0.0
  9
$EXTMIN
 10
-5.866436
 20
-10.173139
 30
-0.031691
  9
$EXTMAX
 10
5.107
 20
1.508031
 30
4.937
  9
$LIMMIN
 10
0.0
 20
0.0
  9
$LIMMAX
 10
12.0
 20
9.0
  9
$ORTHOMODE
 70
     0
  9
$REGENMODE
 70
     1
  9
$FILLMODE
 70
     1
  9
$QTEXTMODE
 70
     0
  9
$MIRRTEXT
 70
     1
  9
$DRAGMODE
 70
     2
  9
$LTSCALE
 40
1.0
  9
$OSMODE
 70
    37
  9
$ATTMODE
 70
     0
  9
$TEXTSIZE
 40
0.2
  9
$TRACEWID
 40
0.05
  9
$TEXTSTYLE
  7
STANDARD
  9
$CLAYER
  8
0
  9
$CELTYPE
  6
BYLAYER
  9
$CECOLOR
 62
   256
  9
$CELTSCALE
 40
1.0
  9
$DELOBJ
 70
     1
  9
$DISPSILH
 70
     0
  9
$DIMSCALE
 40
0.0
  9
$DIMASZ
 40
0.125
  9
$DIMEXO
 40
0.0625
  9
$DIMDLI
 40
0.375
  9
$DIMRND
 40
0.0
  9
$DIMDLE
 40
0.0
  9
$DIMEXE
 40
0.0625
  9
$DIMTP
 40
0.0
  9
$DIMTM
 40
0.0
  9
$DIMTXT
 40
0.125
  9
$DIMCEN
 40
0.09
  9
$DIMTSZ
 40
0.0
  9
$DIMTOL
 70
     0
  9
$DIMLIM
 70
     0
  9
$DIMTIH
 70
     0
  9
$DIMTOH
 70
     1
  9
$DIMSE1
 70
     0
  9
$DIMSE2
 70
     0
  9
$DIMTAD
 70
     0
  9
$DIMZIN
 70
     4
  9
$DIMBLK
  1

  9
$DIMASO
 70
     1
  9
$DIMSHO
 70
     1
  9
$DIMPOST
  1

  9
$DIMAPOST
  1

  9
$DIMALT
 70
     1
  9
$DIMALTD
 70
     2
  9
$DIMALTF
 40
25.4
  9
$DIMLFAC
 40
1.0
  9
$DIMTOFL
 70
     0
  9
$DIMTVP
 40
0.0
  9
$DIMTIX
 70
     0
  9
$DIMSOXD
 70
     0
  9
$DIMSAH
 70
     0
  9
$DIMBLK1
  1

  9
$DIMBLK2
  1

  9
$DIMSTYLE
  2
ABECAD_3V
  9
$DIMCLRD
 70
     0
  9
$DIMCLRE
 70
     0
  9
$DIMCLRT
 70
     0
  9
$DIMTFAC
 40
1.5
  9
$DIMGAP
 40
0.09
  9
$DIMJUST
 70
     0
  9
$DIMSD1
 70
     0
  9
$DIMSD2
 70
     0
  9
$DIMTOLJ
 70
     1
  9
$DIMTZIN
 70
     4
  9
$DIMALTZ
 70
     4
  9
$DIMALTTZ
 70
     4
  9
$DIMFIT
 70
     5
  9
$DIMUPT
 70
     1
  9
$DIMUNIT
 70
     7
  9
$DIMDEC
 70
     6
  9
$DIMTDEC
 70
     6
  9
$DIMALTU
 70
     2
  9
$DIMALTTD
 70
     2
  9
$DIMTXSTY
  7
STANDARD
  9
$DIMAUNIT
 70
     0
  9
$LUNITS
 70
     2
  9
$LUPREC
 70
     6
  9
$SKETCHINC
 40
0.1
  9
$FILLETRAD
 40
0.0
  9
$AUNITS
 70
     0
  9
$AUPREC
 70
     0
  9
$MENU
  1
acad
  9
$ELEVATION
 40
0.0
  9
$PELEVATION
 40
0.0
  9
$THICKNESS
 40
0.0
  9
$LIMCHECK
 70
     0
  9
$BLIPMODE
 70
     0
  9
$CHAMFERA
 40
0.0
  9
$CHAMFERB
 40
0.0
  9
$CHAMFERC
 40
0.0
  9
$CHAMFERD
 40
0.0
  9
$SKPOLY
 70
     0
  9
$TDCREATE
 40
2451726.438362384
  9
$TDUPDATE
 40
2452010.724881018
  9
$TDINDWG
 40
1.2639087963
  9
$TDUSRTIMER
 40
1.2639087963
  9
$USRTIMER
 70
     1
  9
$ANGBASE
 50
0.0
  9
$ANGDIR
 70
     0
  9
$PDMODE
 70
     3
  9
$PDSIZE
 40
0.18
  9
$PLINEWID
 40
0.0
  9
$COORDS
 70
     1
  9
$SPLFRAME
 70
     0
  9
$SPLINETYPE
 70
     6
  9
$SPLINESEGS
 70
     8
  9
$ATTDIA
 70
     0
  9
$ATTREQ
 70
     1
  9
$HANDLING
 70
     1
  9
$HANDSEED
  5
5F5F0
  9
$SURFTAB1
 70
     6
  9
$SURFTAB2
 70
     6
  9
$SURFTYPE
 70
     6
  9
$SURFU
 70
     6
  9
$SURFV
 70
     6
  9
$UCSNAME
  2

  9
$UCSORG
 10
0.0
 20
0.0
 30
0.0
  9
$UCSXDIR
 10
1.0
 20
0.0
 30
0.0
  9
$UCSYDIR
 10
0.0
 20
0.0
 30
1.0
  9
$PUCSNAME
  2

  9
$PUCSORG
 10
0.0
 20
0.0
 30
0.0
  9
$PUCSXDIR
 10
1.0
 20
0.0
 30
0.0
  9
$PUCSYDIR
 10
0.0
 20
1.0
 30
0.0
  9
$USERI1
 70
     0
  9
$USERI2
 70
     0
  9
$USERI3
 70
     0
  9
$USERI4
 70
     0
  9
$USERI5
 70
     0
  9
$USERR1
 40
0.0
  9
$USERR2
 40
0.0
  9
$USERR3
 40
0.0
  9
$USERR4
 40
0.0
  9
$USERR5
 40
0.0
  9
$WORLDVIEW
 70
     1
  9
$SHADEDGE
 70
     3
  9
$SHADEDIF
 70
    70
  9
$TILEMODE
 70
     0
  9
$MAXACTVP
 70
    16
  9
$PINSBASE
 10
0.0
 20
0.0
 30
0.0
  9
$PLIMCHECK
 70
     0
  9
$PEXTMIN
 10
0.0
 20
0.0
 30
0.0
  9
$PEXTMAX
 10
10.0
 20
7.5
 30
0.0
  9
$PLIMMIN
 10
-0.187029
 20
-0.186938
  9
$PLIMMAX
 10
10.187518
 20
7.829757
  9
$UNITMODE
 70
     0
  9
$VISRETAIN
 70
     0
  9
$PLINEGEN
 70
     0
  9
$PSLTSCALE
 70
     1
  9
$TREEDEPTH
 70
  3020
  9
$PICKSTYLE
 70
     1
  9
$CMLSTYLE
  2
STANDARD
  9
$CMLJUST
 70
     0
  9
$CMLSCALE
 40
1.0
  9
$PROXYGRAPHICS
 70
     1
  9
$MEASUREMENT
 70
     0
  0
ENDSEC
  0
SECTION
  2
CLASSES
  0
CLASS
  1
DICTIONARYVAR
  2
AcDbDictionaryVar
  3
"AutoCAD"
 90
        0
280
     0
281
     0
  0
CLASS
  1
ACDBDICTIONARYWDFLT
  2
AcDbDictionaryWithDefault
  3
AutoCAD 2000
 90
        0
280
     0
281
     0
  0
CLASS
  1
ACDBPLACEHOLDER
  2
AcDbPlaceHolder
  3
AutoCAD 2000
 90
        0
280
     0
281
     0
  0
CLASS
  1
LAYOUT
  2
AcDbLayout
  3
AutoCAD 2000
 90
        0
280
     0
281
     0
  0
CLASS
  1
LONG_TRANSACTION
  2
AcDbLongTransaction
  3
AutoCAD 2000
 90
        0
280
     0
281
     0
  0
CLASS
  1
LWPOLYLINE
  2
AcDbPolyline
  3
"AutoCAD"
 90
        0
280
     0
281
     1
  0
CLASS
  1
HATCH
  2
AcDbHatch
  3
"ACAD_SEDONA"
 90
        0
280
     0
281
     1
  0
CLASS
  1
XRECORD
  2
AcDbXrecord
  3
"<Built In>"
 90
        0
280
     0
281
     0
  0
CLASS
  1
LONG_TRANSACTION
  2
AcDbLongTransaction
  3
AutoCAD 2000
 90
        0
280
     0
281
     0
  0
CLASS
  1
LWPOLYLINE
  2
AcDbPolyline
  3
"AutoCAD"
 90
        0
280
     0
281
     1
  0
CLASS
  1
HATCH
  2
AcDbHatch
  3
"ACAD_SEDONA"
 90
        0
280
     0
281
     1
  0
CLASS
  1
XRECORD
  2
AcDbXrecord
  3
"<Built In>"
 90
        0
280
     0
281
     0
  0
CLASS
  1
LONG_TRANSACTION
  2
AcDbLongTransaction
  3
AutoCAD 2000
 90
        0
280
     0
281
     0
  0
CLASS
  1
LWPOLYLINE
  2
AcDbPolyline
  3
"AutoCAD"
 90
        0
280
     0
281
     1
  0
CLASS
  1
HATCH
  2
AcDbHatch
  3
"ACAD_SEDONA"
 90
        0
280
     0
281
     1
  0
CLASS
  1
XRECORD
  2
AcDbXrecord
  3
"<Built In>"
 90
        0
280
     0
281
     0
  0
CLASS
  1
LONG_TRANSACTION
  2
AcDbLongTransaction
  3
AutoCAD 2000
 90
        0
280
     0
281
     0
  0
CLASS
  1
LWPOLYLINE
  2
AcDbPolyline
  3
"AutoCAD"
 90
        0
280
     0
281
     1
  0
CLASS
  1
HATCH
  2
AcDbHatch
  3
"ACAD_SEDONA"
 90
        0
280
     0
281
     1
  0
CLASS
  1
XRECORD
  2
AcDbXrecord
  3
"<Built In>"
 90
        0
280
     0
281
     0
  0
CLASS
  1
LONG_TRANSACTION
  2
AcDbLongTransaction
  3
AutoCAD 2000
 90
        0
280
     0
281
     0
  0
CLASS
  1
LWPOLYLINE
  2
AcDbPolyline
  3
"AutoCAD"
 90
        0
280
     0
281
     1
  0
CLASS
  1
HATCH
  2
AcDbHatch
  3
"ACAD_SEDONA"
 90
        0
280
     0
281
     1
  0
CLASS
  1
XRECORD
  2
AcDbXrecord
  3
"<Built In>"
 90
        0
280
     0
281
     0
  0
CLASS
  1
LONG_TRANSACTION
  2
AcDbLongTransaction
  3
AutoCAD 2000
 90
        0
280
     0
281
     0
  0
CLASS
  1
LWPOLYLINE
  2
AcDbPolyline
  3
"AutoCAD"
 90
        0
280
     0
281
     1
  0
CLASS
  1
HATCH
  2
AcDbHatch
  3
"ACAD_SEDONA"
 90
        0
280
     0
281
     1
  0
CLASS
  1
XRECORD
  2
AcDbXrecord
  3
"<Built In>"
 90
        0
280
     0
281
     0
  0
CLASS
  1
LONG_TRANSACTION
  2
AcDbLongTransaction
  3
AutoCAD 2000
 90
        0
280
     0
281
     0
  0
CLASS
  1
LWPOLYLINE
  2
AcDbPolyline
  3
"AutoCAD"
 90
        0
280
     0
281
     1
  0
CLASS
  1
HATCH
  2
AcDbHatch
  3
"ACAD_SEDONA"
 90
        0
280
     0
281
     1
  0
CLASS
  1
XRECORD
  2
AcDbXrecord
  3
"<Built In>"
 90
        0
280
     0
281
     0
  0
CLASS
  1
LONG_TRANSACTION
  2
AcDbLongTransaction
  3
AutoCAD 2000
 90
        0
280
     0
281
     0
  0
CLASS
  1
LWPOLYLINE
  2
AcDbPolyline
  3
"AutoCAD"
 90
        0
280
     0
281
     1
  0
CLASS
  1
HATCH
  2
AcDbHatch
  3
"ACAD_SEDONA"
 90
        0
280
     0
281
     1
  0
CLASS
  1
XRECORD
  2
AcDbXrecord
  3
"<Built In>"
 90
        0
280
     0
281
     0
  0
CLASS
  1
LONG_TRANSACTION
  2
AcDbLongTransaction
  3
AutoCAD 2000
 90
        0
280
     0
281
     0
  0
CLASS
  1
LWPOLYLINE
  2
AcDbPolyline
  3
"AutoCAD"
 90
        0
280
     0
281
     1
  0
CLASS
  1
HATCH
  2
AcDbHatch
  3
"ACAD_SEDONA"
 90
        0
280
     0
281
     1
  0
CLASS
  1
XRECORD
  2
AcDbXrecord
  3
"<Built In>"
 90
        0
280
     0
281
     0
  0
CLASS
  1
LONG_TRANSACTION
  2
AcDbLongTransaction
  3
AutoCAD 2000
 90
        0
280
     0
281
     0
  0
CLASS
  1
LWPOLYLINE
  2
AcDbPolyline
  3
"AutoCAD"
 90
        0
280
     0
281
     1
  0
CLASS
  1
HATCH
  2
AcDbHatch
  3
"ACAD_SEDONA"
 90
        0
280
     0
281
     1
  0
CLASS
  1
XRECORD
  2
AcDbXrecord
  3
"<Built In>"
 90
        0
280
     0
281
     0
  0
CLASS
  1
LONG_TRANSACTION
  2
AcDbLongTransaction
  3
AutoCAD 2000
 90
        0
280
     0
281
     0
  0
CLASS
  1
LWPOLYLINE
  2
AcDbPolyline
  3
"AutoCAD"
 90
        0
280
     0
281
     1
  0
CLASS
  1
HATCH
  2
AcDbHatch
  3
"ACAD_SEDONA"
 90
        0
280
     0
281
     1
  0
CLASS
  1
XRECORD
  2
AcDbXrecord
  3
"<Built In>"
 90
        0
280
     0
281
     0
  0
CLASS
  1
LONG_TRANSACTION
  2
AcDbLongTransaction
  3
AutoCAD 2000
 90
        0
280
     0
281
     0
  0
CLASS
  1
LWPOLYLINE
  2
AcDbPolyline
  3
"AutoCAD"
 90
        0
280
     0
281
     1
  0
CLASS
  1
HATCH
  2
AcDbHatch
  3
"ACAD_SEDONA"
 90
        0
280
     0
281
     1
  0
CLASS
  1
XRECORD
  2
AcDbXrecord
  3
"<Built In>"
 90
        0
280
     0
281
     0
  0
CLASS
  1
LONG_TRANSACTION
  2
AcDbLongTransaction
  3
AutoCAD 2000
 90
        0
280
     0
281
     0
  0
CLASS
  1
LWPOLYLINE
  2
AcDbPolyline
  3
"AutoCAD"
 90
        0
280
     0
281
     1
  0
CLASS
  1
HATCH
  2
AcDbHatch
  3
"ACAD_SEDONA"
 90
        0
280
     0
281
     1
  0
CLASS
  1
XRECORD
  2
AcDbXrecord
  3
"<Built In>"
 90
        0
280
     0
281
     0
  0
CLASS
  1
LONG_TRANSACTION
  2
AcDbLongTransaction
  3
AutoCAD 2000
 90
        0
280
     0
281
     0
  0
CLASS
  1
LWPOLYLINE
  2
AcDbPolyline
  3
"AutoCAD"
 90
        0
280
     0
281
     1
  0
CLASS
  1
HATCH
  2
AcDbHatch
  3
"ACAD_SEDONA"
 90
        0
280
     0
281
     1
  0
CLASS
  1
XRECORD
  2
AcDbXrecord
  3
"<Built In>"
 90
        0
280
     0
281
     0
  0
CLASS
  1
LONG_TRANSACTION
  2
AcDbLongTransaction
  3
AutoCAD 2000
 90
        0
280
     0
281
     0
  0
CLASS
  1
LWPOLYLINE
  2
AcDbPolyline
  3
"AutoCAD"
 90
        0
280
     0
281
     1
  0
CLASS
  1
HATCH
  2
AcDbHatch
  3
"ACAD_SEDONA"
 90
        0
280
     0
281
     1
  0
CLASS
  1
XRECORD
  2
AcDbXrecord
  3
"<Built In>"
 90
        0
280
     0
281
     0
  0
CLASS
  1
LONG_TRANSACTION
  2
AcDbLongTransaction
  3
AutoCAD 2000
 90
        0
280
     0
281
     0
  0
CLASS
  1
LWPOLYLINE
  2
AcDbPolyline
  3
"AutoCAD"
 90
        0
280
     0
281
     1
  0
CLASS
  1
HATCH
  2
AcDbHatch
  3
"ACAD_SEDONA"
 90
        0
280
     0
281
     1
  0
CLASS
  1
XRECORD
  2
AcDbXrecord
  3
"<Built In>"
 90
        0
280
     0
281
     0
  0
CLASS
  1
LONG_TRANSACTION
  2
AcDbLongTransaction
  3
AutoCAD 2000
 90
        0
280
     0
281
     0
  0
CLASS
  1
LWPOLYLINE
  2
AcDbPolyline
  3
"AutoCAD"
 90
        0
280
     0
281
     1
  0
CLASS
  1
HATCH
  2
AcDbHatch
  3
"ACAD_SEDONA"
 90
        0
280
     0
281
     1
  0
CLASS
  1
XRECORD
  2
AcDbXrecord
  3
"<Built In>"
 90
        0
280
     0
281
     0
  0
CLASS
  1
LONG_TRANSACTION
  2
AcDbLongTransaction
  3
AutoCAD 2000
 90
        0
280
     0
281
     0
  0
CLASS
  1
LWPOLYLINE
  2
AcDbPolyline
  3
"AutoCAD"
 90
        0
280
     0
281
     1
  0
CLASS
  1
HATCH
  2
AcDbHatch
  3
"ACAD_SEDONA"
 90
        0
280
     0
281
     1
  0
CLASS
  1
XRECORD
  2
AcDbXrecord
  3
"<Built In>"
 90
        0
280
     0
281
     0
  0
CLASS
  1
LONG_TRANSACTION
  2
AcDbLongTransaction
  3
AutoCAD 2000
 90
        0
280
     0
281
     0
  0
CLASS
  1
LWPOLYLINE
  2
AcDbPolyline
  3
"AutoCAD"
 90
        0
280
     0
281
     1
  0
CLASS
  1
HATCH
  2
AcDbHatch
  3
"ACAD_SEDONA"
 90
        0
280
     0
281
     1
  0
CLASS
  1
XRECORD
  2
AcDbXrecord
  3
"<Built In>"
 90
        0
280
     0
281
     0
  0
CLASS
  1
LONG_TRANSACTION
  2
AcDbLongTransaction
  3
AutoCAD 2000
 90
        0
280
     0
281
     0
  0
CLASS
  1
LWPOLYLINE
  2
AcDbPolyline
  3
"AutoCAD"
 90
        0
280
     0
281
     1
  0
CLASS
  1
HATCH
  2
AcDbHatch
  3
"ACAD_SEDONA"
 90
        0
280
     0
281
     1
  0
CLASS
  1
XRECORD
  2
AcDbXrecord
  3
"<Built In>"
 90
        0
280
     0
281
     0
  0
CLASS
  1
LONG_TRANSACTION
  2
AcDbLongTransaction
  3
AutoCAD 2000
 90
        0
280
     0
281
     0
  0
CLASS
  1
LWPOLYLINE
  2
AcDbPolyline
  3
"AutoCAD"
 90
        0
280
     0
281
     1
  0
CLASS
  1
HATCH
  2
AcDbHatch
  3
"ACAD_SEDONA"
 90
        0
280
     0
281
     1
  0
CLASS
  1
XRECORD
  2
AcDbXrecord
  3
"<Built In>"
 90
        0
280
     0
281
     0
  0
CLASS
  1
LONG_TRANSACTION
  2
AcDbLongTransaction
  3
AutoCAD 2000
 90
        0
280
     0
281
     0
  0
CLASS
  1
LWPOLYLINE
  2
AcDbPolyline
  3
"AutoCAD"
 90
        0
280
     0
281
     1
  0
CLASS
  1
HATCH
  2
AcDbHatch
  3
"ACAD_SEDONA"
 90
        0
280
     0
281
     1
  0
CLASS
  1
XRECORD
  2
AcDbXrecord
  3
"<Built In>"
 90
        0
280
     0
281
     0
  0
CLASS
  1
LONG_TRANSACTION
  2
AcDbLongTransaction
  3
AutoCAD 2000
 90
        0
280
     0
281
     0
  0
CLASS
  1
LWPOLYLINE
  2
AcDbPolyline
  3
"AutoCAD"
 90
        0
280
     0
281
     1
  0
CLASS
  1
HATCH
  2
AcDbHatch
  3
"ACAD_SEDONA"
 90
        0
280
     0
281
     1
  0
CLASS
  1
XRECORD
  2
AcDbXrecord
  3
"<Built In>"
 90
        0
280
     0
281
     0
  0
CLASS
  1
LONG_TRANSACTION
  2
AcDbLongTransaction
  3
AutoCAD 2000
 90
        0
280
     0
281
     0
  0
CLASS
  1
LWPOLYLINE
  2
AcDbPolyline
  3
"AutoCAD"
 90
        0
280
     0
281
     1
  0
CLASS
  1
HATCH
  2
AcDbHatch
  3
"ACAD_SEDONA"
 90
        0
280
     0
281
     1
  0
CLASS
  1
XRECORD
  2
AcDbXrecord
  3
"<Built In>"
 90
        0
280
     0
281
     0
  0
CLASS
  1
LONG_TRANSACTION
  2
AcDbLongTransaction
  3
AutoCAD 2000
 90
        0
280
     0
281
     0
  0
CLASS
  1
LWPOLYLINE
  2
AcDbPolyline
  3
"AutoCAD"
 90
        0
280
     0
281
     1
  0
CLASS
  1
HATCH
  2
AcDbHatch
  3
"ACAD_SEDONA"
 90
        0
280
     0
281
     1
  0
CLASS
  1
XRECORD
  2
AcDbXrecord
  3
"<Built In>"
 90
        0
280
     0
281
     0
  0
CLASS
  1
LONG_TRANSACTION
  2
AcDbLongTransaction
  3
AutoCAD 2000
 90
        0
280
     0
281
     0
  0
CLASS
  1
LWPOLYLINE
  2
AcDbPolyline
  3
"AutoCAD"
 90
        0
280
     0
281
     1
  0
CLASS
  1
HATCH
  2
AcDbHatch
  3
"ACAD_SEDONA"
 90
        0
280
     0
281
     1
  0
CLASS
  1
XRECORD
  2
AcDbXrecord
  3
"<Built In>"
 90
        0
280
     0
281
     0
  0
CLASS
  1
LONG_TRANSACTION
  2
AcDbLongTransaction
  3
AutoCAD 2000
 90
        0
280
     0
281
     0
  0
CLASS
  1
LWPOLYLINE
  2
AcDbPolyline
  3
"AutoCAD"
 90
        0
280
     0
281
     1
  0
CLASS
  1
HATCH
  2
AcDbHatch
  3
"ACAD_SEDONA"
 90
        0
280
     0
281
     1
  0
CLASS
  1
XRECORD
  2
AcDbXrecord
  3
"<Built In>"
 90
        0
280
     0
281
     0
  0
CLASS
  1
LONG_TRANSACTION
  2
AcDbLongTransaction
  3
AutoCAD 2000
 90
        0
280
     0
281
     0
  0
CLASS
  1
LWPOLYLINE
  2
AcDbPolyline
  3
"AutoCAD"
 90
        0
280
     0
281
     1
  0
CLASS
  1
HATCH
  2
AcDbHatch
  3
"ACAD_SEDONA"
 90
        0
280
     0
281
     1
  0
CLASS
  1
XRECORD
  2
AcDbXrecord
  3
"<Built In>"
 90
        0
280
     0
281
     0
  0
CLASS
  1
LONG_TRANSACTION
  2
AcDbLongTransaction
  3
AutoCAD 2000
 90
        0
280
     0
281
     0
  0
CLASS
  1
LWPOLYLINE
  2
AcDbPolyline
  3
"AutoCAD"
 90
        0
280
     0
281
     1
  0
CLASS
  1
HATCH
  2
AcDbHatch
  3
"ACAD_SEDONA"
 90
        0
280
     0
281
     1
  0
CLASS
  1
XRECORD
  2
AcDbXrecord
  3
"<Built In>"
 90
        0
280
     0
281
     0
  0
CLASS
  1
LONG_TRANSACTION
  2
AcDbLongTransaction
  3
AutoCAD 2000
 90
        0
280
     0
281
     0
  0
CLASS
  1
LWPOLYLINE
  2
AcDbPolyline
  3
"AutoCAD"
 90
        0
280
     0
281
     1
  0
CLASS
  1
HATCH
  2
AcDbHatch
  3
"ACAD_SEDONA"
 90
        0
280
     0
281
     1
  0
CLASS
  1
XRECORD
  2
AcDbXrecord
  3
"<Built In>"
 90
        0
280
     0
281
     0
  0
CLASS
  1
LONG_TRANSACTION
  2
AcDbLongTransaction
  3
AutoCAD 2000
 90
        0
280
     0
281
     0
  0
CLASS
  1
LWPOLYLINE
  2
AcDbPolyline
  3
"AutoCAD"
 90
        0
280
     0
281
     1
  0
CLASS
  1
HATCH
  2
AcDbHatch
  3
"ACAD_SEDONA"
 90
        0
280
     0
281
     1
  0
CLASS
  1
XRECORD
  2
AcDbXrecord
  3
"<Built In>"
 90
        0
280
     0
281
     0
  0
CLASS
  1
LONG_TRANSACTION
  2
AcDbLongTransaction
  3
AutoCAD 2000
 90
        0
280
     0
281
     0
  0
CLASS
  1
LWPOLYLINE
  2
AcDbPolyline
  3
"AutoCAD"
 90
        0
280
     0
281
     1
  0
CLASS
  1
HATCH
  2
AcDbHatch
  3
"ACAD_SEDONA"
 90
        0
280
     0
281
     1
  0
CLASS
  1
XRECORD
  2
AcDbXrecord
  3
"<Built In>"
 90
        0
280
     0
281
     0
  0
CLASS
  1
LONG_TRANSACTION
  2
AcDbLongTransaction
  3
AutoCAD 2000
 90
        0
280
     0
281
     0
  0
CLASS
  1
LWPOLYLINE
  2
AcDbPolyline
  3
"AutoCAD"
 90
        0
280
     0
281
     1
  0
CLASS
  1
HATCH
  2
AcDbHatch
  3
"ACAD_SEDONA"
 90
        0
280
     0
281
     1
  0
CLASS
  1
XRECORD
  2
AcDbXrecord
  3
"<Built In>"
 90
        0
280
     0
281
     0
  0
CLASS
  1
LONG_TRANSACTION
  2
AcDbLongTransaction
  3
AutoCAD 2000
 90
        0
280
     0
281
     0
  0
CLASS
  1
LWPOLYLINE
  2
AcDbPolyline
  3
"AutoCAD"
 90
        0
280
     0
281
     1
  0
CLASS
  1
HATCH
  2
AcDbHatch
  3
"ACAD_SEDONA"
 90
        0
280
     0
281
     1
  0
CLASS
  1
XRECORD
  2
AcDbXrecord
  3
"<Built In>"
 90
        0
280
     0
281
     0
  0
CLASS
  1
LONG_TRANSACTION
  2
AcDbLongTransaction
  3
AutoCAD 2000
 90
        0
280
     0
281
     0
  0
CLASS
  1
LWPOLYLINE
  2
AcDbPolyline
  3
"AutoCAD"
 90
        0
280
     0
281
     1
  0
CLASS
  1
HATCH
  2
AcDbHatch
  3
"ACAD_SEDONA"
 90
        0
280
     0
281
     1
  0
CLASS
  1
XRECORD
  2
AcDbXrecord
  3
"<Built In>"
 90
        0
280
     0
281
     0
  0
CLASS
  1
LONG_TRANSACTION
  2
AcDbLongTransaction
  3
AutoCAD 2000
 90
        0
280
     0
281
     0
  0
CLASS
  1
LWPOLYLINE
  2
AcDbPolyline
  3
"AutoCAD"
 90
        0
280
     0
281
     1
  0
CLASS
  1
HATCH
  2
AcDbHatch
  3
"ACAD_SEDONA"
 90
        0
280
     0
281
     1
  0
CLASS
  1
XRECORD
  2
AcDbXrecord
  3
"<Built In>"
 90
        0
280
     0
281
     0
  0
CLASS
  1
LONG_TRANSACTION
  2
AcDbLongTransaction
  3
AutoCAD 2000
 90
        0
280
     0
281
     0
  0
CLASS
  1
LWPOLYLINE
  2
AcDbPolyline
  3
"AutoCAD"
 90
        0
280
     0
281
     1
  0
CLASS
  1
HATCH
  2
AcDbHatch
  3
"ACAD_SEDONA"
 90
        0
280
     0
281
     1
  0
CLASS
  1
XRECORD
  2
AcDbXrecord
  3
"<Built In>"
 90
        0
280
     0
281
     0
  0
CLASS
  1
LONG_TRANSACTION
  2
AcDbLongTransaction
  3
AutoCAD 2000
 90
        0
280
     0
281
     0
  0
CLASS
  1
LWPOLYLINE
  2
AcDbPolyline
  3
"AutoCAD"
 90
        0
280
     0
281
     1
  0
CLASS
  1
HATCH
  2
AcDbHatch
  3
"ACAD_SEDONA"
 90
        0
280
     0
281
     1
  0
CLASS
  1
XRECORD
  2
AcDbXrecord
  3
"<Built In>"
 90
        0
280
     0
281
     0
  0
CLASS
  1
LONG_TRANSACTION
  2
AcDbLongTransaction
  3
AutoCAD 2000
 90
        0
280
     0
281
     0
  0
CLASS
  1
LWPOLYLINE
  2
AcDbPolyline
  3
"AutoCAD"
 90
        0
280
     0
281
     1
  0
CLASS
  1
HATCH
  2
AcDbHatch
  3
"ACAD_SEDONA"
 90
        0
280
     0
281
     1
  0
CLASS
  1
XRECORD
  2
AcDbXrecord
  3
"<Built In>"
 90
        0
280
     0
281
     0
  0
CLASS
  1
LONG_TRANSACTION
  2
AcDbLongTransaction
  3
AutoCAD 2000
 90
        0
280
     0
281
     0
  0
CLASS
  1
LWPOLYLINE
  2
AcDbPolyline
  3
"AutoCAD"
 90
        0
280
     0
281
     1
  0
CLASS
  1
HATCH
  2
AcDbHatch
  3
"ACAD_SEDONA"
 90
        0
280
     0
281
     1
  0
CLASS
  1
XRECORD
  2
AcDbXrecord
  3
"<Built In>"
 90
        0
280
     0
281
     0
  0
CLASS
  1
LONG_TRANSACTION
  2
AcDbLongTransaction
  3
AutoCAD 2000
 90
        0
280
     0
281
     0
  0
CLASS
  1
LWPOLYLINE
  2
AcDbPolyline
  3
"AutoCAD"
 90
        0
280
     0
281
     1
  0
CLASS
  1
HATCH
  2
AcDbHatch
  3
"ACAD_SEDONA"
 90
        0
280
     0
281
     1
  0
CLASS
  1
XRECORD
  2
AcDbXrecord
  3
"<Built In>"
 90
        0
280
     0
281
     0
  0
ENDSEC
  0
SECTION
  2
TABLES
  0
TABLE
  2
VPORT
  5
469
100
AcDbSymbolTable
 70
     1
  0
VPORT
  5
5F4E9
102
{ACAD_XDICTIONARY
360
5F5B8
102
}
100
AcDbSymbolTableRecord
100
AcDbViewportTableRecord
  2
*ACTIVE
 70
     0
 10
0.0
 20
0.0
 11
1.0
 21
1.0
 12
-1.027751
 22
1.798857
 13
0.0
 23
0.0
 14
1.0
 24
1.0
 15
0.0
 25
0.0
 16
0.0
 26
0.0
 36
1.0
 17
0.648805
 27
-6.132183
 37
2.586733
 40
11.964766
 41
1.82218
 42
50.0
 43
0.0
 44
0.0
 50
0.0
 51
0.0
 71
     0
 72
   100
 73
     1
 74
     1
 75
     0
 76
     0
 77
     0
 78
     0
  0
ENDTAB
  0
TABLE
  2
LTYPE
  5
466
100
AcDbSymbolTable
 70
     1
  0
LTYPE
  5
472
100
AcDbSymbolTableRecord
100
AcDbLinetypeTableRecord
  2
BYBLOCK
 70
     0
  3

 72
    65
 73
     0
 40
0.0
  0
LTYPE
  5
473
100
AcDbSymbolTableRecord
100
AcDbLinetypeTableRecord
  2
BYLAYER
 70
     0
  3

 72
    65
 73
     0
 40
0.0
  0
LTYPE
  5
474
100
AcDbSymbolTableRecord
100
AcDbLinetypeTableRecord
  2
CONTINUOUS
 70
     0
  3
Solid line
 72
    65
 73
     0
 40
0.0
  0
ENDTAB
  0
TABLE
  2
LAYER
  5
463
100
AcDbSymbolTable
 70
     8
  0
LAYER
  5
46F
100
AcDbSymbolTableRecord
100
AcDbLayerTableRecord
  2
0
 70
     0
 62
     7
  6
CONTINUOUS
  0
LAYER
  5
485
100
AcDbSymbolTableRecord
100
AcDbLayerTableRecord
  2
AREA1
 70
     0
 62
     7
  6
CONTINUOUS
  0
LAYER
  5
486
100
AcDbSymbolTableRecord
100
AcDbLayerTableRecord
  2
AREA2
 70
     0
 62
     7
  6
CONTINUOUS
  0
LAYER
  5
494
102
{ACAD_XDICTIONARY
360
5F5E5
102
}
100
AcDbSymbolTableRecord
100
AcDbLayerTableRecord
  2
DEFPOINTS
 70
     0
 62
    -7
  6
CONTINUOUS
  0
LAYER
  5
495
100
AcDbSymbolTableRecord
100
AcDbLayerTableRecord
  2
DIMS-MTG-HOLES
 70
     0
 62
    -1
  6
CONTINUOUS
  0
LAYER
  5
4E6
100
AcDbSymbolTableRecord
100
AcDbLayerTableRecord
  2
SCALE
 70
     0
 62
    -7
  6
CONTINUOUS
  0
LAYER
  5
4ED
100
AcDbSymbolTableRecord
100
AcDbLayerTableRecord
  2
SNAP_POINTS
 70
     0
 62
    -1
  6
CONTINUOUS
  0
LAYER
  5
4F1
100
AcDbSymbolTableRecord
100
AcDbLayerTableRecord
  2
ATTRIBUTES
 70
     0
 62
    -7
  6
CONTINUOUS
  0
ENDTAB
  0
TABLE
  2
STYLE
  5
464
100
AcDbSymbolTable
 70
     1
  0
STYLE
  5
470
100
AcDbSymbolTableRecord
100
AcDbTextStyleTableRecord
  2
STANDARD
 70
     0
 40
0.0
 41
1.0
 50
0.0
 71
     0
 42
0.2
  3
txt
  4

  0
ENDTAB
  0
TABLE
  2
VIEW
  5
467
100
AcDbSymbolTable
 70
     0
  0
ENDTAB
  0
TABLE
  2
UCS
  5
468
100
AcDbSymbolTable
 70
     0
  0
ENDTAB
  0
TABLE
  2
APPID
  5
46A
100
AcDbSymbolTable
 70
     2
  0
APPID
  5
471
100
AcDbSymbolTableRecord
100
AcDbRegAppTableRecord
  2
ACAD
 70
     0
  0
APPID
  5
47E
100
AcDbSymbolTableRecord
100
AcDbRegAppTableRecord
  2
AVE_RENDER
 70
     0
  0
ENDTAB
  0
TABLE
  2
DIMSTYLE
  5
46B
100
AcDbSymbolTable
 70
     2
  0
DIMSTYLE
105
49A
102
{ACAD_XDICTIONARY
360
5F5E7
102
}
102
{ACAD_REACTORS
330
5F4DB
330
5F4A1
330
5F4A0
102
}
100
AcDbSymbolTableRecord
100
AcDbDimStyleTableRecord
  2
ABECAD_3V
 70
     0
  3

  4

  5

  6

  7

 40
0.0
 41
0.125
 42
0.0625
 43
0.375
 44
0.0625
 45
0.0
 46
0.0
 47
0.0
 48
0.0
140
0.125
141
0.09
142
0.0
143
25.4
144
1.0
145
0.0
146
1.5
147
0.09
 71
     0
 72
     0
 73
     0
 74
     1
 75
     0
 76
     0
 77
     0
 78
     4
170
     1
171
     2
172
     0
173
     0
174
     0
175
     0
176
     0
177
     0
178
     0
270
     7
271
     6
272
     6
273
     2
274
     2
340
470
275
     0
280
     0
281
     0
282
     0
283
     1
284
     4
285
     4
286
     4
287
     5
288
     1
  0
DIMSTYLE
105
512
102
{ACAD_XDICTIONARY
360
5F5EB
102
}
100
AcDbSymbolTableRecord
100
AcDbDimStyleTableRecord
  2
ABECAD_3D
 70
     0
  3

  4

  5

  6

  7

 40
1.0
 41
0.18
 42
0.0625
 43
0.375
 44
0.18
 45
0.0
 46
0.0
 47
0.0
 48
0.0
140
0.18
141
0.09
142
0.0
143
25.4
144
1.0
145
0.0
146
1.5
147
0.09
 71
     0
 72
     0
 73
     0
 74
     1
 75
     0
 76
     0
 77
     0
 78
     4
170
     1
171
     2
172
     0
173
     0
174
     0
175
     0
176
     0
177
     0
178
     0
270
     7
271
     6
272
     6
273
     2
274
     2
340
470
275
     0
280
     0
281
     0
282
     0
283
     1
284
     4
285
     4
286
     4
287
     5
288
     1
  0
ENDTAB
  0
TABLE
  2
BLOCK_RECORD
  5
462
100
AcDbSymbolTable
 70
     3
  0
BLOCK_RECORD
  5
478
102
{ACAD_XDICTIONARY
360
4D2
102
}
100
AcDbSymbolTableRecord
100
AcDbBlockTableRecord
  2
*MODEL_SPACE
  0
BLOCK_RECORD
  5
475
102
{ACAD_XDICTIONARY
360
4D0
102
}
100
AcDbSymbolTableRecord
100
AcDbBlockTableRecord
  2
*PAPER_SPACE
  0
BLOCK_RECORD
  5
5F4AD
100
AcDbSymbolTableRecord
100
AcDbBlockTableRecord
  2
*D0
  0
BLOCK_RECORD
  5
5F4BA
100
AcDbSymbolTableRecord
100
AcDbBlockTableRecord
  2
*D1
  0
BLOCK_RECORD
  5
5F4DC
100
AcDbSymbolTableRecord
100
AcDbBlockTableRecord
  2
*D2
  0
ENDTAB
  0
ENDSEC
  0
SECTION
  2
BLOCKS
  0
BLOCK
  5
48B
100
AcDbEntity
  8
0
100
AcDbBlockBegin
  2
*MODEL_SPACE
 70
     0
 10
0.0
 20
0.0
 30
0.0
  3
*MODEL_SPACE
  1

  0
ENDBLK
  5
48C
100
AcDbEntity
  8
0
100
AcDbBlockEnd
  0
BLOCK
  5
489
100
AcDbEntity
 67
     1
  8
0
100
AcDbBlockBegin
  2
*PAPER_SPACE
 70
     0
 10
0.0
 20
0.0
 30
0.0
  3
*PAPER_SPACE
  1

  0
ENDBLK
  5
48A
100
AcDbEntity
 67
     1
  8
0
100
AcDbBlockEnd
  0
BLOCK
  5
5F4B8
100
AcDbEntity
  8
0
100
AcDbBlockBegin
  2
*D0
 70
     1
 10
0.0
 20
0.0
 30
0.0
  3
*D0
  1

  0
LINE
  5
5F4FD
100
AcDbEntity
  8
AREA1
 62
     0
100
AcDbLine
 10
-1.181545
 20
0.191
 30
0.0
 11
-5.866436
 21
0.191
 31
0.0
1001
ACAD
1000
RTLwPs
1070
   158
  0
LINE
  5
5F4FE
100
AcDbEntity
  8
AREA1
 62
     0
100
AcDbLine
 10
-3.734545
 20
-8.969
 30
0.0
 11
-5.866436
 21
-8.969
 31
0.0
1001
ACAD
1000
RTLwPs
1070
   158
  0
LINE
  5
5F4FF
100
AcDbEntity
  8
AREA1
 62
     0
100
AcDbLine
 10
-5.684891
 20
-0.17209
 30
0.0
 11
-5.684891
 21
-1.813784
 31
0.0
1001
ACAD
1000
RTLwPs
1070
   158
  0
LINE
  5
5F500
100
AcDbEntity
  8
AREA1
 62
     0
100
AcDbLine
 10
-5.684891
 20
-8.60591
 30
0.0
 11
-5.684891
 21
-7.177826
 31
0.0
1001
ACAD
1000
RTLwPs
1070
   158
  0
MTEXT
  5
5F501
100
AcDbEntity
  8
AREA1
 62
     0
100
AcDbMText
 10
-5.684891
 20
-4.495805
 30
0.0
 40
0.36309
 41
0.0
 71
     5
 72
     1
  1
\A1;9 5/32 [232.66]
 11
0.0
 21
1.0
 31
0.0
1001
ACAD
1000
MTEXTBEGIN
1070
    73
1070
     1
1070
    44
1040
1.0
1070
    74
1070
     0
1000
MTEXTEND
1000
MTEXTBEGIN
1070
    73
1070
     1
1070
    44
1040
1.0
1070
    74
1070
     0
1000
MTEXTEND
1000
MTEXTBEGIN
1070
    73
1070
     1
1070
    44
1040
1.0
1070
    74
1070
     0
1000
MTEXTEND
1000
MTEXTBEGIN
1070
    73
1070
     1
1070
    44
1040
1.0
1070
    74
1070
     0
1000
MTEXTEND
  0
SOLID
  5
5F502
100
AcDbEntity
  8
AREA1
 62
     0
100
AcDbTrace
 10
-5.745406
 20
-0.17209
 30
0.0
 11
-5.624376
 21
-0.17209
 31
0.0
 12
-5.684891
 22
0.191
 32
0.0
 13
-5.684891
 23
0.191
 33
0.0
  0
SOLID
  5
5F503
100
AcDbEntity
  8
AREA1
 62
     0
100
AcDbTrace
 10
-5.745406
 20
-8.60591
 30
0.0
 11
-5.624376
 21
-8.60591
 31
0.0
 12
-5.684891
 22
-8.969
 32
0.0
 13
-5.684891
 23
-8.969
 33
0.0
  0
POINT
  5
5F504
100
AcDbEntity
  8
DEFPOINTS
 62
     0
100
AcDbPoint
 10
-1.0
 20
0.191
 30
0.0
  0
POINT
  5
5F505
100
AcDbEntity
  8
DEFPOINTS
 62
     0
100
AcDbPoint
 10
-3.553
 20
-8.969
 30
0.0
  0
POINT
  5
5F506
100
AcDbEntity
  8
DEFPOINTS
 62
     0
100
AcDbPoint
 10
-5.684891
 20
-8.969
 30
0.0
  0
ENDBLK
  5
5F4B9
100
AcDbEntity
  8
0
100
AcDbBlockEnd
  0
BLOCK
  5
5F4C5
100
AcDbEntity
  8
0
100
AcDbBlockBegin
  2
*D1
 70
     1
 10
0.0
 20
0.0
 30
0.0
  3
*D1
  1

  0
LINE
  5
5F4F3
100
AcDbEntity
  8
AREA1
 62
     0
100
AcDbLine
 10
-4.168
 20
-1.378455
 30
0.0
 11
-4.168
 21
1.508031
 31
0.0
1001
ACAD
1000
RTLwPs
1070
   158
  0
LINE
  5
5F4F4
100
AcDbEntity
  8
AREA1
 62
     0
100
AcDbLine
 10
5.107
 20
-0.537455
 30
0.0
 11
5.107
 21
1.508031
 31
0.0
1001
ACAD
1000
RTLwPs
1070
   158
  0
LINE
  5
5F4F5
100
AcDbEntity
  8
AREA1
 62
     0
100
AcDbLine
 10
-3.80491
 20
1.326487
 30
0.0
 11
-2.337266
 21
1.326487
 31
0.0
1001
ACAD
1000
RTLwPs
1070
   158
  0
LINE
  5
5F4F6
100
AcDbEntity
  8
AREA1
 62
     0
100
AcDbLine
 10
4.74391
 20
1.326487
 30
0.0
 11
3.026777
 21
1.326487
 31
0.0
1001
ACAD
1000
RTLwPs
1070
   158
  0
MTEXT
  5
5F4F7
100
AcDbEntity
  8
AREA1
 62
     0
100
AcDbMText
 10
0.344756
 20
1.326487
 30
0.0
 40
0.36309
 41
0.0
 71
     5
 72
     1
  1
\A1;9 9/32 [235.59]
1001
ACAD
1000
MTEXTBEGIN
1070
    73
1070
     1
1070
    44
1040
1.0
1070
    74
1070
     0
1000
MTEXTEND
1000
MTEXTBEGIN
1070
    73
1070
     1
1070
    44
1040
1.0
1070
    74
1070
     0
1000
MTEXTEND
1000
MTEXTBEGIN
1070
    73
1070
     1
1070
    44
1040
1.0
1070
    74
1070
     0
1000
MTEXTEND
1000
MTEXTBEGIN
1070
    73
1070
     1
1070
    44
1040
1.0
1070
    74
1070
     0
1000
MTEXTEND
  0
SOLID
  5
5F4F8
100
AcDbEntity
  8
AREA1
 62
     0
100
AcDbTrace
 10
-3.80491
 20
1.387002
 30
0.0
 11
-3.80491
 21
1.265972
 31
0.0
 12
-4.168
 22
1.326487
 32
0.0
 13
-4.168
 23
1.326487
 33
0.0
  0
SOLID
  5
5F4F9
100
AcDbEntity
  8
AREA1
 62
     0
100
AcDbTrace
 10
4.74391
 20
1.387002
 30
0.0
 11
4.74391
 21
1.265972
 31
0.0
 12
5.107
 22
1.326487
 32
0.0
 13
5.107
 23
1.326487
 33
0.0
  0
POINT
  5
5F4FA
100
AcDbEntity
  8
DEFPOINTS
 62
     0
100
AcDbPoint
 10
-4.168
 20
-1.56
 30
0.387
  0
POINT
  5
5F4FB
100
AcDbEntity
  8
DEFPOINTS
 62
     0
100
AcDbPoint
 10
5.107
 20
-0.719
 30
0.0
  0
POINT
  5
5F4FC
100
AcDbEntity
  8
DEFPOINTS
 62
     0
100
AcDbPoint
 10
5.107
 20
1.326487
 30
0.0
  0
ENDBLK
  5
5F4C6
100
AcDbEntity
  8
0
100
AcDbBlockEnd
  0
BLOCK
  5
5F4E7
100
AcDbEntity
  8
0
100
AcDbBlockBegin
  2
*D2
 70
     1
 10
0.0
 20
0.0
 30
0.0
  3
*D2
  1

  0
LINE
  5
5F507
100
AcDbEntity
  8
AREA2
 62
     0
100
AcDbLine
 10
-2.787545
 20
4.937
 30
0.0
 11
-5.114571
 21
4.937
 31
0.0
1001
ACAD
1000
RTLwPs
1070
   158
  0
LINE
  5
5F508
100
AcDbEntity
  8
AREA2
 62
     0
100
AcDbLine
 10
-3.734545
 20
0.0
 30
0.0
 11
-5.114571
 21
0.0
 31
0.0
1001
ACAD
1000
RTLwPs
1070
   158
  0
LINE
  5
5F509
100
AcDbEntity
  8
AREA2
 62
     0
100
AcDbLine
 10
-4.933026
 20
4.57391
 30
0.0
 11
-4.933026
 21
0.36309
 31
0.0
1001
ACAD
1000
RTLwPs
1070
   158
  0
MTEXT
  5
5F50A
100
AcDbEntity
  8
AREA2
 62
     0
100
AcDbMText
 10
-5.556525
 20
2.358649
 30
0.0
 40
0.36309
 41
0.0
 71
     5
 72
     1
  1
\A1;4 15/16 [125.40]
 11
0.0
 21
1.0
 31
0.0
1001
ACAD
1000
MTEXTBEGIN
1070
    73
1070
     1
1070
    44
1040
1.0
1070
    74
1070
     0
1000
MTEXTEND
1000
MTEXTBEGIN
1070
    73
1070
     1
1070
    44
1040
1.0
1070
    74
1070
     0
1000
MTEXTEND
1000
MTEXTBEGIN
1070
    73
1070
     1
1070
    44
1040
1.0
1070
    74
1070
     0
1000
MTEXTEND
1000
MTEXTBEGIN
1070
    73
1070
     1
1070
    44
1040
1.0
1070
    74
1070
     0
1000
MTEXTEND
  0
SOLID
  5
5F50B
100
AcDbEntity
  8
AREA2
 62
     0
100
AcDbTrace
 10
-4.993541
 20
4.57391
 30
0.0
 11
-4.872511
 21
4.57391
 31
0.0
 12
-4.933026
 22
4.937
 32
0.0
 13
-4.933026
 23
4.937
 33
0.0
  0
SOLID
  5
5F50C
100
AcDbEntity
  8
AREA2
 62
     0
100
AcDbTrace
 10
-4.993541
 20
0.36309
 30
0.0
 11
-4.872511
 21
0.36309
 31
0.0
 12
-4.933026
 22
0.0
 32
0.0
 13
-4.933026
 23
0.0
 33
0.0
  0
POINT
  5
5F50D
100
AcDbEntity
  8
DEFPOINTS
 62
     0
100
AcDbPoint
 10
-2.606
 20
4.937
 30
5.88
  0
POINT
  5
5F50E
100
AcDbEntity
  8
DEFPOINTS
 62
     0
100
AcDbPoint
 10
-3.553
 20
0.0
 30
0.719
  0
POINT
  5
5F50F
100
AcDbEntity
  8
DEFPOINTS
 62
     0
100
AcDbPoint
 10
-4.933026
 20
0.0
 30
0.0
  0
ENDBLK
  5
5F4E8
100
AcDbEntity
  8
0
100
AcDbBlockEnd
  0
ENDSEC
  0
SECTION
  2
ENTITIES
  0
POLYLINE
  5
5EF3F
100
AcDbEntity
  8
0
100
AcDbPolygonMesh
 66
     1
 10
0.0
 20
0.0
 30
0.0
 70
    16
 71
     6
 72
     3
  0
VERTEX
  5
5EF40
100
AcDbEntity
  8
0
100
AcDbVertex
100
AcDbPolygonMeshVertex
 10
-0.018
 20
-2.93
 30
4.287
 70
    64
  0
VERTEX
  5
5EF41
100
AcDbEntity
  8
0
100
AcDbVertex
100
AcDbPolygonMeshVertex
 10
-0.018
 20
-2.93
 30
0.387
 70
    64
  0
VERTEX
  5
5EF42
100
AcDbEntity
  8
0
100
AcDbVertex
100
AcDbPolygonMeshVertex
 10
-0.018
 20
-2.93
 30
0.387
 70
    64
  0
VERTEX
  5
5EF43
100
AcDbEntity
  8
0
100
AcDbVertex
100
AcDbPolygonMeshVertex
 10
0.772
 20
-2.93
 30
4.287
 70
    64
  0
VERTEX
  5
5EF44
100
AcDbEntity
  8
0
100
AcDbVertex
100
AcDbPolygonMeshVertex
 10
0.772
 20
-2.93
 30
0.387
 70
    64
  0
VERTEX
  5
5EF45
100
AcDbEntity
  8
0
100
AcDbVertex
100
AcDbPolygonMeshVertex
 10
0.772
 20
-2.93
 30
0.387
 70
    64
  0
VERTEX
  5
5EF46
100
AcDbEntity
  8
0
100
AcDbVertex
100
AcDbPolygonMeshVertex
 10
0.772
 20
-1.56
 30
4.287
 70
    64
  0
VERTEX
  5
5EF47
100
AcDbEntity
  8
0
100
AcDbVertex
100
AcDbPolygonMeshVertex
 10
0.772
 20
-1.56
 30
0.387
 70
    64
  0
VERTEX
  5
5EF48
100
AcDbEntity
  8
0
100
AcDbVertex
100
AcDbPolygonMeshVertex
 10
0.772
 20
-2.93
 30
0.387
 70
    64
  0
VERTEX
  5
5EF49
100
AcDbEntity
  8
0
100
AcDbVertex
100
AcDbPolygonMeshVertex
 10
-0.018
 20
-1.56
 30
4.287
 70
    64
  0
VERTEX
  5
5EF4A
100
AcDbEntity
  8
0
100
AcDbVertex
100
AcDbPolygonMeshVertex
 10
-0.018
 20
-1.56
 30
0.387
 70
    64
  0
VERTEX
  5
5EF4B
100
AcDbEntity
  8
0
100
AcDbVertex
100
AcDbPolygonMeshVertex
 10
-0.018
 20
-2.93
 30
0.387
 70
    64
  0
VERTEX
  5
5EF4C
100
AcDbEntity
  8
0
100
AcDbVertex
100
AcDbPolygonMeshVertex
 10
-0.018
 20
-1.56
 30
4.287
 70
    64
  0
VERTEX
  5
5EF4D
100
AcDbEntity
  8
0
100
AcDbVertex
100
AcDbPolygonMeshVertex
 10
-0.018
 20
-1.56
 30
4.287
 70
    64
  0
VERTEX
  5
5EF4E
100
AcDbEntity
  8
0
100
AcDbVertex
100
AcDbPolygonMeshVertex
 10
-0.018
 20
-2.93
 30
4.287
 70
    64
  0
VERTEX
  5
5EF4F
100
AcDbEntity
  8
0
100
AcDbVertex
100
AcDbPolygonMeshVertex
 10
0.772
 20
-1.56
 30
4.287
 70
    64
  0
VERTEX
  5
5EF50
100
AcDbEntity
  8
0
100
AcDbVertex
100
AcDbPolygonMeshVertex
 10
0.772
 20
-1.56
 30
4.287
 70
    64
  0
VERTEX
  5
5EF51
100
AcDbEntity
  8
0
100
AcDbVertex
100
AcDbPolygonMeshVertex
 10
0.772
 20
-2.93
 30
4.287
 70
    64
  0
SEQEND
  5
5EF52
100
AcDbEntity
  8
0
  0
POLYLINE
  5
5EF53
100
AcDbEntity
  8
0
100
AcDbPolygonMesh
 66
     1
 10
0.0
 20
0.0
 30
0.0
 70
    16
 71
     6
 72
     3
  0
VERTEX
  5
5EF54
100
AcDbEntity
  8
0
100
AcDbVertex
100
AcDbPolygonMeshVertex
 10
0.022
 20
-2.06
 30
4.477
 70
    64
  0
VERTEX
  5
5EF55
100
AcDbEntity
  8
0
100
AcDbVertex
100
AcDbPolygonMeshVertex
 10
0.022
 20
-2.06
 30
4.287
 70
    64
  0
VERTEX
  5
5EF56
100
AcDbEntity
  8
0
100
AcDbVertex
100
AcDbPolygonMeshVertex
 10
0.022
 20
-2.06
 30
4.287
 70
    64
  0
VERTEX
  5
5EF57
100
AcDbEntity
  8
0
100
AcDbVertex
100
AcDbPolygonMeshVertex
 10
0.522
 20
-2.06
 30
4.477
 70
    64
  0
VERTEX
  5
5EF58
100
AcDbEntity
  8
0
100
AcDbVertex
100
AcDbPolygonMeshVertex
 10
0.522
 20
-2.06
 30
4.287
 70
    64
  0
VERTEX
  5
5EF59
100
AcDbEntity
  8
0
100
AcDbVertex
100
AcDbPolygonMeshVertex
 10
0.522
 20
-2.06
 30
4.287
 70
    64
  0
VERTEX
  5
5EF5A
100
AcDbEntity
  8
0
100
AcDbVertex
100
AcDbPolygonMeshVertex
 10
0.522
 20
-1.65
 30
4.477
 70
    64
  0
VERTEX
  5
5EF5B
100
AcDbEntity
  8
0
100
AcDbVertex
100
AcDbPolygonMeshVertex
 10
0.522
 20
-1.65
 30
4.287
 70
    64
  0
VERTEX
  5
5EF5C
100
AcDbEntity
  8
0
100
AcDbVertex
100
AcDbPolygonMeshVertex
 10
0.522
 20
-2.06
 30
4.287
 70
    64
  0
VERTEX
  5
5EF5D
100
AcDbEntity
  8
0
100
AcDbVertex
100
AcDbPolygonMeshVertex
 10
0.022
 20
-1.65
 30
4.477
 70
    64
  0
VERTEX
  5
5EF5E
100
AcDbEntity
  8
0
100
AcDbVertex
100
AcDbPolygonMeshVertex
 10
0.022
 20
-1.65
 30
4.287
 70
    64
  0
VERTEX
  5
5EF5F
100
AcDbEntity
  8
0
100
AcDbVertex
100
AcDbPolygonMeshVertex
 10
0.022
 20
-2.06
 30
4.287
 70
    64
  0
VERTEX
  5
5EF60
100
AcDbEntity
  8
0
100
AcDbVertex
100
AcDbPolygonMeshVertex
 10
0.022
 20
-1.65
 30
4.477
 70
    64
  0
VERTEX
  5
5EF61
100
AcDbEntity
  8
0
100
AcDbVertex
100
AcDbPolygonMeshVertex
 10
0.022
 20
-1.65
 30
4.477
 70
    64
  0
VERTEX
  5
5EF62
100
AcDbEntity
  8
0
100
AcDbVertex
100
AcDbPolygonMeshVertex
 10
0.022
 20
-2.06
 30
4.477
 70
    64
  0
VERTEX
  5
5EF63
100
AcDbEntity
  8
0
100
AcDbVertex
100
AcDbPolygonMeshVertex
 10
0.522
 20
-1.65
 30
4.477
 70
    64
  0
VERTEX
  5
5EF64
100
AcDbEntity
  8
0
100
AcDbVertex
100
AcDbPolygonMeshVertex
 10
0.522
 20
-1.65
 30
4.477
 70
    64
  0
VERTEX
  5
5EF65
100
AcDbEntity
  8
0
100
AcDbVertex
100
AcDbPolygonMeshVertex
 10
0.522
 20
-2.06
 30
4.477
 70
    64
  0
SEQEND
  5
5EF66
100
AcDbEntity
  8
0
  0
CIRCLE
  5
5EF67
100
AcDbEntity
  8
0
100
AcDbCircle
 10
0.272
 20
-1.855
 30
4.477
 40
0.19
  0
LINE
  5
5EF68
100
AcDbEntity
  8
0
100
AcDbLine
 10
0.176965
 20
-2.018318
 30
4.477
 11
0.408216
 21
-1.721115
 31
4.477
  0
LINE
  5
5EF69
100
AcDbEntity
  8
0
100
AcDbLine
 10
0.136278
 20
-1.987964
 30
4.477
 11
0.367529
 21
-1.690762
 31
4.477
  0
POLYLINE
  5
5EF6A
100
AcDbEntity
  8
0
100
AcDbPolygonMesh
 66
     1
 10
0.0
 20
0.0
 30
0.0
 70
    16
 71
     6
 72
     3
  0
VERTEX
  5
5EF6B
100
AcDbEntity
  8
0
100
AcDbVertex
100
AcDbPolygonMeshVertex
 10
-3.378
 20
-2.93
 30
4.287
 70
    64
  0
VERTEX
  5
5EF6C
100
AcDbEntity
  8
0
100
AcDbVertex
100
AcDbPolygonMeshVertex
 10
-3.378
 20
-2.93
 30
0.387
 70
    64
  0
VERTEX
  5
5EF6D
100
AcDbEntity
  8
0
100
AcDbVertex
100
AcDbPolygonMeshVertex
 10
-3.378
 20
-2.93
 30
0.387
 70
    64
  0
VERTEX
  5
5EF6E
100
AcDbEntity
  8
0
100
AcDbVertex
100
AcDbPolygonMeshVertex
 10
-4.168
 20
-2.93
 30
4.287
 70
    64
  0
VERTEX
  5
5EF6F
100
AcDbEntity
  8
0
100
AcDbVertex
100
AcDbPolygonMeshVertex
 10
-4.168
 20
-2.93
 30
0.387
 70
    64
  0
VERTEX
  5
5EF70
100
AcDbEntity
  8
0
100
AcDbVertex
100
AcDbPolygonMeshVertex
 10
-4.168
 20
-2.93
 30
0.387
 70
    64
  0
VERTEX
  5
5EF71
100
AcDbEntity
  8
0
100
AcDbVertex
100
AcDbPolygonMeshVertex
 10
-4.168
 20
-1.56
 30
4.287
 70
    64
  0
VERTEX
  5
5EF72
100
AcDbEntity
  8
0
100
AcDbVertex
100
AcDbPolygonMeshVertex
 10
-4.168
 20
-1.56
 30
0.387
 70
    64
  0
VERTEX
  5
5EF73
100
AcDbEntity
  8
0
100
AcDbVertex
100
AcDbPolygonMeshVertex
 10
-4.168
 20
-2.93
 30
0.387
 70
    64
  0
VERTEX
  5
5EF74
100
AcDbEntity
  8
0
100
AcDbVertex
100
AcDbPolygonMeshVertex
 10
-3.378
 20
-1.56
 30
4.287
 70
    64
  0
VERTEX
  5
5EF75
100
AcDbEntity
  8
0
100
AcDbVertex
100
AcDbPolygonMeshVertex
 10
-3.378
 20
-1.56
 30
0.387
 70
    64
  0
VERTEX
  5
5EF76
100
AcDbEntity
  8
0
100
AcDbVertex
100
AcDbPolygonMeshVertex
 10
-3.378
 20
-2.93
 30
0.387
 70
    64
  0
VERTEX
  5
5EF77
100
AcDbEntity
  8
0
100
AcDbVertex
100
AcDbPolygonMeshVertex
 10
-3.378
 20
-1.56
 30
4.287
 70
    64
  0
VERTEX
  5
5EF78
100
AcDbEntity
  8
0
100
AcDbVertex
100
AcDbPolygonMeshVertex
 10
-3.378
 20
-1.56
 30
4.287
 70
    64
  0
VERTEX
  5
5EF79
100
AcDbEntity
  8
0
100
AcDbVertex
100
AcDbPolygonMeshVertex
 10
-3.378
 20
-2.93
 30
4.287
 70
    64
  0
VERTEX
  5
5EF7A
100
AcDbEntity
  8
0
100
AcDbVertex
100
AcDbPolygonMeshVertex
 10
-4.168
 20
-1.56
 30
4.287
 70
    64
  0
VERTEX
  5
5EF7B
100
AcDbEntity
  8
0
100
AcDbVertex
100
AcDbPolygonMeshVertex
 10
-4.168
 20
-1.56
 30
4.287
 70
    64
  0
VERTEX
  5
5EF7C
100
AcDbEntity
  8
0
100
AcDbVertex
100
AcDbPolygonMeshVertex
 10
-4.168
 20
-2.93
 30
4.287
 70
    64
  0
SEQEND
  5
5EF7D
100
AcDbEntity
  8
0
  0
POLYLINE
  5
5EF7E
100
AcDbEntity
  8
0
100
AcDbPolygonMesh
 66
     1
 10
0.0
 20
0.0
 30
0.0
 70
    16
 71
     6
 72
     3
  0
VERTEX
  5
5EF7F
100
AcDbEntity
  8
0
100
AcDbVertex
100
AcDbPolygonMeshVertex
 10
-3.418
 20
-2.06
 30
4.477
 70
    64
  0
VERTEX
  5
5EF80
100
AcDbEntity
  8
0
100
AcDbVertex
100
AcDbPolygonMeshVertex
 10
-3.418
 20
-2.06
 30
4.287
 70
    64
  0
VERTEX
  5
5EF81
100
AcDbEntity
  8
0
100
AcDbVertex
100
AcDbPolygonMeshVertex
 10
-3.418
 20
-2.06
 30
4.287
 70
    64
  0
VERTEX
  5
5EF82
100
AcDbEntity
  8
0
100
AcDbVertex
100
AcDbPolygonMeshVertex
 10
-3.918
 20
-2.06
 30
4.477
 70
    64
  0
VERTEX
  5
5EF83
100
AcDbEntity
  8
0
100
AcDbVertex
100
AcDbPolygonMeshVertex
 10
-3.918
 20
-2.06
 30
4.287
 70
    64
  0
VERTEX
  5
5EF84
100
AcDbEntity
  8
0
100
AcDbVertex
100
AcDbPolygonMeshVertex
 10
-3.918
 20
-2.06
 30
4.287
 70
    64
  0
VERTEX
  5
5EF85
100
AcDbEntity
  8
0
100
AcDbVertex
100
AcDbPolygonMeshVertex
 10
-3.918
 20
-1.65
 30
4.477
 70
    64
  0
VERTEX
  5
5EF86
100
AcDbEntity
  8
0
100
AcDbVertex
100
AcDbPolygonMeshVertex
 10
-3.918
 20
-1.65
 30
4.287
 70
    64
  0
VERTEX
  5
5EF87
100
AcDbEntity
  8
0
100
AcDbVertex
100
AcDbPolygonMeshVertex
 10
-3.918
 20
-2.06
 30
4.287
 70
    64
  0
VERTEX
  5
5EF88
100
AcDbEntity
  8
0
100
AcDbVertex
100
AcDbPolygonMeshVertex
 10
-3.418
 20
-1.65
 30
4.477
 70
    64
  0
VERTEX
  5
5EF89
100
AcDbEntity
  8
0
100
AcDbVertex
100
AcDbPolygonMeshVertex
 10
-3.418
 20
-1.65
 30
4.287
 70
    64
  0
VERTEX
  5
5EF8A
100
AcDbEntity
  8
0
100
AcDbVertex
100
AcDbPolygonMeshVertex
 10
-3.418
 20
-2.06
 30
4.287
 70
    64
  0
VERTEX
  5
5EF8B
100
AcDbEntity
  8
0
100
AcDbVertex
100
AcDbPolygonMeshVertex
 10
-3.418
 20
-1.65
 30
4.477
 70
    64
  0
VERTEX
  5
5EF8C
100
AcDbEntity
  8
0
100
AcDbVertex
100
AcDbPolygonMeshVertex
 10
-3.418
 20
-1.65
 30
4.477
 70
    64
  0
VERTEX
  5
5EF8D
100
AcDbEntity
  8
0
100
AcDbVertex
100
AcDbPolygonMeshVertex
 10
-3.418
 20
-2.06
 30
4.477
 70
    64
  0
VERTEX
  5
5EF8E
100
AcDbEntity
  8
0
100
AcDbVertex
100
AcDbPolygonMeshVertex
 10
-3.918
 20
-1.65
 30
4.477
 70
    64
  0
VERTEX
  5
5EF8F
100
AcDbEntity
  8
0
100
AcDbVertex
100
AcDbPolygonMeshVertex
 10
-3.918
 20
-1.65
 30
4.477
 70
    64
  0
VERTEX
  5
5EF90
100
AcDbEntity
  8
0
100
AcDbVertex
100
AcDbPolygonMeshVertex
 10
-3.918
 20
-2.06
 30
4.477
 70
    64
  0
SEQEND
  5
5EF91
100
AcDbEntity
  8
0
  0
CIRCLE
  5
5EF92
100
AcDbEntity
  8
0
100
AcDbCircle
 10
-3.668
 20
-1.855
 30
4.477
 40
0.19
  0
LINE
  5
5EF93
100
AcDbEntity
  8
0
100
AcDbLine
 10
-3.572965
 20
-2.018318
 30
4.477
 11
-3.804216
 21
-1.721115
 31
4.477
  0
LINE
  5
5EF94
100
AcDbEntity
  8
0
100
AcDbLine
 10
-3.532278
 20
-1.987964
 30
4.477
 11
-3.763529
 21
-1.690762
 31
4.477
  0
ARC
  5
5EF95
100
AcDbEntity
  8
0
100
AcDbCircle
 10
-2.753
 20
-8.748
 30
0.197
 40
0.1
100
AcDbArc
 50
0.0
 51
179.999985
  0
ARC
  5
5EF96
100
AcDbEntity
  8
0
100
AcDbCircle
 10
-2.753
 20
-8.748
 30
0.0
 40
0.1
100
AcDbArc
 50
0.0
 51
179.999985
  0
LINE
  5
5EF97
100
AcDbEntity
  8
0
100
AcDbLine
 10
-2.853
 20
-8.969
 30
0.0
 11
-2.853
 21
-8.969
 31
0.197
  0
LINE
  5
5EF98
100
AcDbEntity
  8
0
100
AcDbLine
 10
-2.853
 20
-8.748
 30
0.0
 11
-2.853
 21
-8.748
 31
0.197
  0
LINE
  5
5EF99
100
AcDbEntity
  8
0
100
AcDbLine
 10
-2.653
 20
-8.969
 30
0.0
 11
-2.653
 21
-8.969
 31
0.197
  0
LINE
  5
5EF9A
100
AcDbEntity
  8
0
100
AcDbLine
 10
-2.653
 20
-8.748
 30
0.0
 11
-2.653
 21
-8.748
 31
0.197
  0
LINE
  5
5EF9B
100
AcDbEntity
  8
0
100
AcDbLine
 10
-2.853
 20
-8.748
 30
0.0
 11
-2.853
 21
-8.969
 31
0.0
  0
LINE
  5
5EF9C
100
AcDbEntity
  8
0
100
AcDbLine
 10
-2.653
 20
-8.969
 30
0.0
 11
-2.653
 21
-8.748
 31
0.0
  0
LINE
  5
5EF9D
100
AcDbEntity
  8
0
100
AcDbLine
 10
-2.853
 20
-8.748
 30
0.197
 11
-2.853
 21
-8.969
 31
0.197
  0
LINE
  5
5EF9E
100
AcDbEntity
  8
0
100
AcDbLine
 10
-2.653
 20
-8.969
 30
0.197
 11
-2.653
 21
-8.748
 31
0.197
  0
LINE
  5
5EF9F
100
AcDbEntity
  8
0
100
AcDbLine
 10
0.1
 20
-0.09
 30
0.197
 11
0.1
 21
-0.221891
 31
0.197
  0
LINE
  5
5EFA0
100
AcDbEntity
  8
0
100
AcDbLine
 10
-0.1
 20
-0.09
 30
0.197
 11
-0.1
 21
-0.221891
 31
0.197
  0
LINE
  5
5EFA1
100
AcDbEntity
  8
0
100
AcDbLine
 10
0.1
 20
-0.09
 30
0.0
 11
0.1
 21
-0.221891
 31
0.0
  0
LINE
  5
5EFA2
100
AcDbEntity
  8
0
100
AcDbLine
 10
-0.1
 20
-0.09
 30
0.0
 11
-0.1
 21
-0.221891
 31
0.0
  0
ARC
  5
5EFA3
100
AcDbEntity
  8
0
100
AcDbCircle
 10
0.0
 20
-0.434
 30
0.0
 40
0.2345
100
AcDbArc
 50
115.241821
 51
64.758209
  0
ARC
  5
5EFA4
100
AcDbEntity
  8
0
100
AcDbCircle
 10
0.0
 20
-0.434
 30
0.197
 40
0.2345
100
AcDbArc
 50
115.241821
 51
64.758209
  0
LINE
  5
5EFA5
100
AcDbEntity
  8
0
100
AcDbLine
 10
-0.1
 20
-0.221891
 30
0.0
 11
-0.1
 21
-0.221891
 31
0.197
  0
LINE
  5
5EFA6
100
AcDbEntity
  8
0
100
AcDbLine
 10
0.1
 20
-0.221891
 30
0.0
 11
0.1
 21
-0.221891
 31
0.197
  0
LINE
  5
5EFA7
100
AcDbEntity
  8
0
100
AcDbLine
 10
-0.1
 20
-0.09
 30
0.0
 11
-0.1
 21
-0.09
 31
0.197
  0
LINE
  5
5EFA8
100
AcDbEntity
  8
0
100
AcDbLine
 10
0.1
 20
-0.09
 30
0.0
 11
0.1
 21
-0.09
 31
0.197
  0
ARC
  5
5EFA9
100
AcDbEntity
  8
0
100
AcDbCircle
 10
0.0
 20
-0.09
 30
0.0
 40
0.1
100
AcDbArc
 50
0.0
 51
179.999985
  0
ARC
  5
5EFAA
100
AcDbEntity
  8
0
100
AcDbCircle
 10
0.0
 20
-0.09
 30
0.0
 40
0.1
100
AcDbArc
 50
0.0
 51
179.999985
  0
ARC
  5
5EFAB
100
AcDbEntity
  8
0
100
AcDbCircle
 10
0.0
 20
-0.09
 30
0.197
 40
0.1
100
AcDbArc
 50
0.0
 51
179.999985
  0
ARC
  5
5EFAC
100
AcDbEntity
  8
0
100
AcDbCircle
 10
0.0
 20
-0.09
 30
0.197
 40
0.1
100
AcDbArc
 50
0.0
 51
179.999985
  0
ARC
  5
5EFAD
100
AcDbEntity
  8
0
100
AcDbCircle
 10
4.337
 20
-8.748
 30
0.197
 40
0.1
100
AcDbArc
 50
0.0
 51
179.999985
  0
ARC
  5
5EFAE
100
AcDbEntity
  8
0
100
AcDbCircle
 10
4.337
 20
-8.748
 30
0.0
 40
0.1
100
AcDbArc
 50
0.0
 51
179.999985
  0
LINE
  5
5EFAF
100
AcDbEntity
  8
0
100
AcDbLine
 10
4.237
 20
-8.969
 30
0.0
 11
4.237
 21
-8.969
 31
0.197
  0
LINE
  5
5EFB0
100
AcDbEntity
  8
0
100
AcDbLine
 10
4.237
 20
-8.748
 30
0.0
 11
4.237
 21
-8.748
 31
0.197
  0
LINE
  5
5EFB1
100
AcDbEntity
  8
0
100
AcDbLine
 10
4.437
 20
-8.969
 30
0.0
 11
4.437
 21
-8.969
 31
0.197
  0
LINE
  5
5EFB2
100
AcDbEntity
  8
0
100
AcDbLine
 10
4.437
 20
-8.748
 30
0.0
 11
4.437
 21
-8.748
 31
0.197
  0
LINE
  5
5EFB3
100
AcDbEntity
  8
0
100
AcDbLine
 39
0.197
 10
4.237
 20
-8.969
 30
0.0
 11
4.237
 21
-8.748
 31
0.0
  0
LINE
  5
5EFB4
100
AcDbEntity
  8
0
100
AcDbLine
 39
0.197
 10
4.437
 20
-8.748
 30
0.0
 11
4.437
 21
-8.969
 31
0.0
  0
LINE
  5
5EFB5
100
AcDbEntity
  8
0
100
AcDbLine
 10
4.237
 20
-8.969
 30
0.197
 11
4.237
 21
-8.748
 31
0.197
  0
LINE
  5
5EFB6
100
AcDbEntity
  8
0
100
AcDbLine
 10
4.437
 20
-8.969
 30
0.197
 11
4.437
 21
-8.748
 31
0.197
  0
POLYLINE
  5
5EFB7
100
AcDbEntity
  8
0
100
AcDbPolygonMesh
 66
     1
 10
0.0
 20
0.0
 30
0.0
 70
    16
 71
     6
 72
     3
  0
VERTEX
  5
5EFB8
100
AcDbEntity
  8
0
100
AcDbVertex
100
AcDbPolygonMeshVertex
 10
5.107
 20
-8.969
 30
0.197
 70
    64
  0
VERTEX
  5
5EFB9
100
AcDbEntity
  8
0
100
AcDbVertex
100
AcDbPolygonMeshVertex
 10
5.107
 20
-8.969
 30
0.0
 70
    64
  0
VERTEX
  5
5EFBA
100
AcDbEntity
  8
0
100
AcDbVertex
100
AcDbPolygonMeshVertex
 10
5.107
 20
-8.969
 30
0.0
 70
    64
  0
VERTEX
  5
5EFBB
100
AcDbEntity
  8
0
100
AcDbVertex
100
AcDbPolygonMeshVertex
 10
-3.553
 20
-8.969
 30
0.197
 70
    64
  0
VERTEX
  5
5EFBC
100
AcDbEntity
  8
0
100
AcDbVertex
100
AcDbPolygonMeshVertex
 10
-3.553
 20
-8.969
 30
0.0
 70
    64
  0
VERTEX
  5
5EFBD
100
AcDbEntity
  8
0
100
AcDbVertex
100
AcDbPolygonMeshVertex
 10
-3.553
 20
-8.969
 30
0.0
 70
    64
  0
VERTEX
  5
5EFBE
100
AcDbEntity
  8
0
100
AcDbVertex
100
AcDbPolygonMeshVertex
 10
-3.553
 20
-0.719
 30
0.197
 70
    64
  0
VERTEX
  5
5EFBF
100
AcDbEntity
  8
0
100
AcDbVertex
100
AcDbPolygonMeshVertex
 10
-3.553
 20
-0.719
 30
0.0
 70
    64
  0
VERTEX
  5
5EFC0
100
AcDbEntity
  8
0
100
AcDbVertex
100
AcDbPolygonMeshVertex
 10
-3.553
 20
-8.969
 30
0.0
 70
    64
  0
VERTEX
  5
5EFC1
100
AcDbEntity
  8
0
100
AcDbVertex
100
AcDbPolygonMeshVertex
 10
5.107
 20
-0.719
 30
0.197
 70
    64
  0
VERTEX
  5
5EFC2
100
AcDbEntity
  8
0
100
AcDbVertex
100
AcDbPolygonMeshVertex
 10
5.107
 20
-0.719
 30
0.0
 70
    64
  0
VERTEX
  5
5EFC3
100
AcDbEntity
  8
0
100
AcDbVertex
100
AcDbPolygonMeshVertex
 10
5.107
 20
-8.969
 30
0.0
 70
    64
  0
VERTEX
  5
5EFC4
100
AcDbEntity
  8
0
100
AcDbVertex
100
AcDbPolygonMeshVertex
 10
5.107
 20
-0.719
 30
0.197
 70
    64
  0
VERTEX
  5
5EFC5
100
AcDbEntity
  8
0
100
AcDbVertex
100
AcDbPolygonMeshVertex
 10
5.107
 20
-0.719
 30
0.197
 70
    64
  0
VERTEX
  5
5EFC6
100
AcDbEntity
  8
0
100
AcDbVertex
100
AcDbPolygonMeshVertex
 10
5.107
 20
-8.969
 30
0.197
 70
    64
  0
VERTEX
  5
5EFC7
100
AcDbEntity
  8
0
100
AcDbVertex
100
AcDbPolygonMeshVertex
 10
-3.553
 20
-0.719
 30
0.197
 70
    64
  0
VERTEX
  5
5EFC8
100
AcDbEntity
  8
0
100
AcDbVertex
100
AcDbPolygonMeshVertex
 10
-3.553
 20
-0.719
 30
0.197
 70
    64
  0
VERTEX
  5
5EFC9
100
AcDbEntity
  8
0
100
AcDbVertex
100
AcDbPolygonMeshVertex
 10
-3.553
 20
-8.969
 30
0.197
 70
    64
  0
SEQEND
  5
5EFCA
100
AcDbEntity
  8
0
  0
3DFACE
  5
5EFCB
100
AcDbEntity
  8
0
100
AcDbFace
 10
1.91
 20
-0.719
 30
0.197
 11
1.0
 21
0.191
 31
0.197
 12
-1.0
 22
0.191
 32
0.197
 13
-1.91
 23
-0.719
 33
0.197
  0
3DFACE
  5
5EFCC
100
AcDbEntity
  8
0
100
AcDbFace
 10
1.91
 20
-0.719
 30
0.0
 11
1.0
 21
0.191
 31
0.0
 12
-1.0
 22
0.191
 32
0.0
 13
-1.91
 23
-0.719
 33
0.0
  0
3DFACE
  5
5EFCD
100
AcDbEntity
  8
0
100
AcDbFace
 10
1.0
 20
0.191
 30
0.197
 11
1.0
 21
0.191
 31
0.0
 12
1.91
 22
-0.719
 32
0.0
 13
1.91
 23
-0.719
 33
0.197
  0
3DFACE
  5
5EFCE
100
AcDbEntity
  8
0
100
AcDbFace
 10
-1.0
 20
0.191
 30
0.197
 11
-1.0
 21
0.191
 31
0.0
 12
1.0
 22
0.191
 32
0.0
 13
1.0
 23
0.191
 33
0.197
  0
3DFACE
  5
5EFCF
100
AcDbEntity
  8
0
100
AcDbFace
 10
-1.0
 20
0.191
 30
0.197
 11
-1.0
 21
0.191
 31
0.0
 12
-1.91
 22
-0.719
 32
0.0
 13
-1.91
 23
-0.719
 33
0.197
  0
LINE
  5
5EFD0
100
AcDbEntity
  8
0
100
AcDbLine
 10
1.622
 20
-5.88
 30
2.007
 11
1.622
 21
-5.88
 31
3.237
  0
LINE
  5
5EFD1
100
AcDbEntity
  8
0
100
AcDbLine
 10
2.022
 20
-8.4
 30
0.387
 11
2.022
 21
-8.15
 31
0.387
  0
LINE
  5
5EFD2
100
AcDbEntity
  8
0
100
AcDbLine
 10
2.022
 20
-8.4
 30
0.577
 11
2.022
 21
-8.15
 31
0.577
  0
LINE
  5
5EFD3
100
AcDbEntity
  8
0
100
AcDbLine
 10
1.822
 20
-8.15
 30
0.387
 11
1.822
 21
-8.4
 31
0.387
  0
LINE
  5
5EFD4
100
AcDbEntity
  8
0
100
AcDbLine
 10
1.822
 20
-8.15
 30
0.577
 11
1.822
 21
-8.4
 31
0.577
  0
LINE
  5
5EFD5
100
AcDbEntity
  8
0
100
AcDbLine
 10
1.822
 20
-8.4
 30
0.387
 11
1.822
 21
-8.4
 31
0.577
  0
LINE
  5
5EFD6
100
AcDbEntity
  8
0
100
AcDbLine
 10
2.022
 20
-8.15
 30
0.387
 11
2.022
 21
-8.15
 31
0.577
  0
LINE
  5
5EFD7
100
AcDbEntity
  8
0
100
AcDbLine
 10
1.822
 20
-8.15
 30
0.387
 11
1.822
 21
-8.15
 31
0.577
  0
ARC
  5
5EFD8
100
AcDbEntity
  8
0
100
AcDbCircle
 10
1.922
 20
-8.15
 30
0.387
 40
0.1
100
AcDbArc
 50
0.0
 51
179.999985
  0
ARC
  5
5EFD9
100
AcDbEntity
  8
0
100
AcDbCircle
 10
1.922
 20
-8.15
 30
0.577
 40
0.1
100
AcDbArc
 50
0.0
 51
179.999985
  0
3DFACE
  5
5EFDA
100
AcDbEntity
  8
0
100
AcDbFace
 10
4.772
 20
-8.15
 30
0.577
 11
4.772
 21
-8.15
 31
0.387
 12
4.772
 22
-8.4
 32
0.387
 13
4.772
 23
-8.4
 33
0.577
 70
    14
  0
LINE
  5
5EFDB
100
AcDbEntity
  8
0
100
AcDbLine
 10
4.572
 20
-8.15
 30
0.387
 11
4.572
 21
-8.4
 31
0.387
  0
LINE
  5
5EFDC
100
AcDbEntity
  8
0
100
AcDbLine
 10
4.772
 20
-8.4
 30
0.387
 11
4.772
 21
-8.15
 31
0.387
  0
LINE
  5
5EFDD
100
AcDbEntity
  8
0
100
AcDbLine
 10
4.572
 20
-8.15
 30
0.577
 11
4.572
 21
-8.4
 31
0.577
  0
LINE
  5
5EFDE
100
AcDbEntity
  8
0
100
AcDbLine
 10
4.772
 20
-8.4
 30
0.577
 11
4.772
 21
-8.15
 31
0.577
  0
LINE
  5
5EFDF
100
AcDbEntity
  8
0
100
AcDbLine
 10
4.572
 20
-8.4
 30
0.387
 11
4.572
 21
-8.4
 31
0.577
  0
LINE
  5
5EFE0
100
AcDbEntity
  8
0
100
AcDbLine
 10
4.772
 20
-8.4
 30
0.387
 11
4.772
 21
-8.4
 31
0.577
  0
LINE
  5
5EFE1
100
AcDbEntity
  8
0
100
AcDbLine
 10
4.572
 20
-8.15
 30
0.387
 11
4.572
 21
-8.15
 31
0.577
  0
LINE
  5
5EFE2
100
AcDbEntity
  8
0
100
AcDbLine
 10
4.772
 20
-8.15
 30
0.387
 11
4.772
 21
-8.15
 31
0.577
  0
ARC
  5
5EFE3
100
AcDbEntity
  8
0
100
AcDbCircle
 10
4.672
 20
-8.15
 30
0.387
 40
0.1
100
AcDbArc
 50
0.0
 51
179.999985
  0
ARC
  5
5EFE4
100
AcDbEntity
  8
0
100
AcDbCircle
 10
4.672
 20
-8.15
 30
0.577
 40
0.1
100
AcDbArc
 50
0.0
 51
179.999985
  0
CIRCLE
  5
5EFE5
100
AcDbEntity
  8
0
100
AcDbCircle
 10
2.172
 20
-6.153487
 30
5.387245
 40
0.155
210
0.0
220
-0.3163624652213708
230
0.9486383876899864
  0
LINE
  5
5EFE6
100
AcDbEntity
  8
0
100
AcDbLine
 10
2.151925
 20
-7.687557
 30
3.115192
 11
2.172414
 21
-7.394718
 31
3.212851
210
0.0
220
-0.3163624652213708
230
0.9486383876899864
  0
LINE
  5
5EFE7
100
AcDbEntity
  8
0
100
AcDbLine
 10
2.171042
 20
-7.688819
 30
3.114771
 11
2.191531
 21
-7.39598
 31
3.21243
210
0.0
220
-0.3163624652213708
230
0.9486383876899864
  0
CIRCLE
  5
5EFE8
100
AcDbEntity
  8
0
100
AcDbCircle
 10
3.232
 20
-6.153487
 30
5.387245
 40
0.155
210
0.0
220
-0.3163624652213708
230
0.9486383876899864
  0
LINE
  5
5EFE9
100
AcDbEntity
  8
0
100
AcDbLine
 10
3.231042
 20
-7.688819
 30
3.114771
 11
3.251531
 21
-7.39598
 31
3.21243
210
0.0
220
-0.3163624652213708
230
0.9486383876899864
  0
LINE
  5
5EFEA
100
AcDbEntity
  8
0
100
AcDbLine
 10
3.211925
 20
-7.687557
 30
3.115192
 11
3.232414
 21
-7.394718
 31
3.212851
210
0.0
220
-0.3163624652213708
230
0.9486383876899864
  0
LINE
  5
5EFEB
100
AcDbEntity
  8
0
100
AcDbLine
 10
2.579
 20
-6.38
 30
4.347
 11
2.579
 21
-6.38
 31
4.027
  0
LINE
  5
5EFEC
100
AcDbEntity
  8
0
100
AcDbLine
 10
2.829
 20
-6.38
 30
4.347
 11
2.829
 21
-6.38
 31
4.027
  0
LINE
  5
5EFED
100
AcDbEntity
  8
0
100
AcDbLine
 10
2.829
 20
-6.13
 30
4.347
 11
2.829
 21
-6.13
 31
4.027
  0
LINE
  5
5EFEE
100
AcDbEntity
  8
0
100
AcDbLine
 10
2.579
 20
-6.13
 30
4.347
 11
2.579
 21
-6.13
 31
4.027
  0
LINE
  5
5EFEF
100
AcDbEntity
  8
0
100
AcDbLine
 10
2.829
 20
-6.13
 30
4.347
 11
2.829
 21
-6.13
 31
4.027
  0
3DFACE
  5
5EFF0
100
AcDbEntity
  8
0
100
AcDbFace
 10
2.829
 20
-6.38
 30
4.347
 11
2.829
 21
-6.38
 31
4.027
 12
2.829
 22
-6.13
 32
4.027
 13
2.829
 23
-6.13
 33
4.347
 70
    14
  0
3DFACE
  5
5EFF1
100
AcDbEntity
  8
0
100
AcDbFace
 10
2.829
 20
-6.13
 30
4.027
 11
2.829
 21
-6.13
 31
4.347
 12
2.829
 22
-6.38
 32
4.347
 13
2.829
 23
-6.38
 33
4.027
 70
     3
  0
3DFACE
  5
5EFF2
100
AcDbEntity
  8
0
100
AcDbFace
 10
2.829
 20
-6.38
 30
4.347
 11
2.829
 21
-6.38
 31
4.027
 12
2.829
 22
-6.13
 32
4.027
 13
2.829
 23
-6.13
 33
4.027
 70
    14
  0
3DFACE
  5
5EFF3
100
AcDbEntity
  8
0
100
AcDbFace
 10
2.829
 20
-6.13
 30
4.027
 11
2.579
 21
-6.13
 31
4.027
 12
2.579
 22
-6.13
 32
4.347
 13
2.829
 23
-6.13
 33
4.347
 70
    14
  0
3DFACE
  5
5EFF4
100
AcDbEntity
  8
0
100
AcDbFace
 10
2.579
 20
-6.13
 30
4.347
 11
2.579
 21
-6.38
 31
4.347
 12
2.579
 22
-6.38
 32
4.027
 13
2.579
 23
-6.13
 33
4.027
 70
    14
  0
3DFACE
  5
5EFF5
100
AcDbEntity
  8
0
100
AcDbFace
 10
2.579
 20
-6.38
 30
4.347
 11
2.579
 21
-6.38
 31
4.027
 12
2.829
 22
-6.38
 32
4.027
 13
2.829
 23
-6.38
 33
4.347
 70
    14
  0
LINE
  5
5EFF6
100
AcDbEntity
  8
0
100
AcDbLine
 10
2.829
 20
-6.38
 30
4.027
 11
2.579
 21
-6.38
 31
4.027
  0
LINE
  5
5EFF7
100
AcDbEntity
  8
0
100
AcDbLine
 10
2.579
 20
-6.13
 30
4.027
 11
2.829
 21
-6.13
 31
4.027
  0
LINE
  5
5EFF8
100
AcDbEntity
  8
0
100
AcDbLine
 10
2.579
 20
-6.38
 30
4.027
 11
2.579
 21
-6.13
 31
4.027
  0
LINE
  5
5EFF9
100
AcDbEntity
  8
0
100
AcDbLine
 10
2.829
 20
-6.13
 30
4.027
 11
2.829
 21
-6.38
 31
4.027
  0
3DFACE
  5
5EFFA
100
AcDbEntity
  8
0
100
AcDbFace
 10
2.394
 20
-5.88
 30
4.937
 11
3.014
 21
-5.88
 31
4.937
 12
3.014
 22
-5.88
 32
4.812
 13
2.394
 23
-5.88
 33
4.812
 70
    14
  0
LINE
  5
5EFFB
100
AcDbEntity
  8
0
100
AcDbLine
 10
2.394
 20
-5.88
 30
4.937
 11
3.014
 21
-5.88
 31
4.937
  0
LINE
  5
5EFFC
100
AcDbEntity
  8
0
100
AcDbLine
 10
2.394
 20
-5.88
 30
4.812
 11
3.014
 21
-5.88
 31
4.812
  0
LINE
  5
5EFFD
100
AcDbEntity
  8
0
100
AcDbLine
 10
2.454
 20
-6.005
 30
4.347
 11
2.954
 21
-6.005
 31
4.347
  0
3DFACE
  5
5EFFE
100
AcDbEntity
  8
0
100
AcDbFace
 10
3.014
 20
-5.88
 30
4.812
 11
2.394
 21
-5.88
 31
4.812
 12
2.454
 22
-6.005
 32
4.347
 13
2.954
 23
-6.005
 33
4.347
 70
    14
  0
LINE
  5
5EFFF
100
AcDbEntity
  8
0
100
AcDbLine
 10
3.014
 20
-6.63
 30
4.812
 11
2.394
 21
-6.63
 31
4.812
  0
3DFACE
  5
5F000
100
AcDbEntity
  8
0
100
AcDbFace
 10
2.394
 20
-6.63
 30
4.937
 11
3.014
 21
-6.63
 31
4.937
 12
3.014
 22
-6.63
 32
4.812
 13
2.394
 23
-6.63
 33
4.812
 70
    14
  0
LINE
  5
5F001
100
AcDbEntity
  8
0
100
AcDbLine
 10
3.014
 20
-6.63
 30
4.937
 11
2.394
 21
-6.63
 31
4.937
  0
LINE
  5
5F002
100
AcDbEntity
  8
0
100
AcDbLine
 10
2.954
 20
-6.505
 30
4.347
 11
2.454
 21
-6.505
 31
4.347
  0
3DFACE
  5
5F003
100
AcDbEntity
  8
0
100
AcDbFace
 10
2.394
 20
-6.63
 30
4.812
 11
3.014
 21
-6.63
 31
4.812
 12
2.954
 22
-6.505
 32
4.347
 13
2.454
 23
-6.505
 33
4.347
 70
    14
  0
3DFACE
  5
5F004
100
AcDbEntity
  8
0
100
AcDbFace
 10
2.394
 20
-5.88
 30
4.937
 11
3.014
 21
-5.88
 31
4.937
 12
3.014
 22
-6.63
 32
4.937
 13
2.394
 23
-6.63
 33
4.937
 70
    14
  0
LINE
  5
5F005
100
AcDbEntity
  8
0
100
AcDbLine
 10
2.579
 20
-6.38
 30
4.347
 11
2.829
 21
-6.38
 31
4.347
  0
LINE
  5
5F006
100
AcDbEntity
  8
0
100
AcDbLine
 10
2.579
 20
-6.13
 30
4.347
 11
2.829
 21
-6.13
 31
4.347
  0
LINE
  5
5F007
100
AcDbEntity
  8
0
100
AcDbLine
 10
2.394
 20
-6.63
 30
4.812
 11
2.394
 21
-5.88
 31
4.812
  0
3DFACE
  5
5F008
100
AcDbEntity
  8
0
100
AcDbFace
 10
2.394
 20
-5.88
 30
4.937
 11
2.394
 21
-5.88
 31
4.812
 12
2.394
 22
-6.63
 32
4.812
 13
2.394
 23
-6.63
 33
4.937
 70
    14
  0
LINE
  5
5F009
100
AcDbEntity
  8
0
100
AcDbLine
 10
2.394
 20
-6.63
 30
4.937
 11
2.394
 21
-5.88
 31
4.937
  0
LINE
  5
5F00A
100
AcDbEntity
  8
0
100
AcDbLine
 10
2.454
 20
-6.005
 30
4.347
 11
2.454
 21
-6.505
 31
4.347
  0
LINE
  5
5F00B
100
AcDbEntity
  8
0
100
AcDbLine
 10
2.579
 20
-6.38
 30
4.347
 11
2.579
 21
-6.13
 31
4.347
  0
3DFACE
  5
5F00C
100
AcDbEntity
  8
0
100
AcDbFace
 10
2.394
 20
-5.88
 30
4.812
 11
2.454
 21
-6.005
 31
4.347
 12
2.454
 22
-6.505
 32
4.347
 13
2.394
 23
-6.63
 33
4.812
 70
    14
  0
LINE
  5
5F00D
100
AcDbEntity
  8
0
100
AcDbLine
 10
2.454
 20
-6.505
 30
4.347
 11
2.394
 21
-6.63
 31
4.812
  0
LINE
  5
5F00E
100
AcDbEntity
  8
0
100
AcDbLine
 10
2.394
 20
-6.63
 30
4.812
 11
2.394
 21
-6.63
 31
4.937
  0
LINE
  5
5F00F
100
AcDbEntity
  8
0
100
AcDbLine
 10
2.394
 20
-5.88
 30
4.812
 11
2.454
 21
-6.005
 31
4.347
  0
LINE
  5
5F010
100
AcDbEntity
  8
0
100
AcDbLine
 10
2.394
 20
-5.88
 30
4.937
 11
2.394
 21
-5.88
 31
4.812
  0
3DFACE
  5
5F011
100
AcDbEntity
  8
0
100
AcDbFace
 10
3.014
 20
-5.88
 30
4.937
 11
3.014
 21
-6.63
 31
4.937
 12
3.014
 22
-6.63
 32
4.812
 13
3.014
 23
-5.88
 33
4.812
 70
    14
  0
LINE
  5
5F012
100
AcDbEntity
  8
0
100
AcDbLine
 10
3.014
 20
-5.88
 30
4.937
 11
3.014
 21
-6.63
 31
4.937
  0
LINE
  5
5F013
100
AcDbEntity
  8
0
100
AcDbLine
 10
3.014
 20
-5.88
 30
4.812
 11
3.014
 21
-6.63
 31
4.812
  0
LINE
  5
5F014
100
AcDbEntity
  8
0
100
AcDbLine
 10
2.829
 20
-6.13
 30
4.347
 11
2.829
 21
-6.38
 31
4.347
  0
LINE
  5
5F015
100
AcDbEntity
  8
0
100
AcDbLine
 10
2.954
 20
-6.005
 30
4.347
 11
2.954
 21
-6.505
 31
4.347
  0
3DFACE
  5
5F016
100
AcDbEntity
  8
0
100
AcDbFace
 10
3.014
 20
-6.63
 30
4.812
 11
2.954
 21
-6.505
 31
4.347
 12
2.954
 22
-6.005
 32
4.347
 13
3.014
 23
-5.88
 33
4.812
 70
    14
  0
LINE
  5
5F017
100
AcDbEntity
  8
0
100
AcDbLine
 10
3.014
 20
-6.63
 30
4.812
 11
2.954
 21
-6.505
 31
4.347
  0
LINE
  5
5F018
100
AcDbEntity
  8
0
100
AcDbLine
 10
3.014
 20
-6.63
 30
4.937
 11
3.014
 21
-6.63
 31
4.812
  0
LINE
  5
5F019
100
AcDbEntity
  8
0
100
AcDbLine
 10
3.014
 20
-5.88
 30
4.812
 11
2.954
 21
-6.005
 31
4.347
  0
LINE
  5
5F01A
100
AcDbEntity
  8
0
100
AcDbLine
 10
3.014
 20
-5.88
 30
4.937
 11
3.014
 21
-5.88
 31
4.812
  0
CIRCLE
  5
5F01B
100
AcDbEntity
  8
0
100
AcDbCircle
 10
4.292
 20
-6.153487
 30
5.387245
 40
0.155
210
0.0
220
-0.3163624652213708
230
0.9486383876899864
  0
LINE
  5
5F01C
100
AcDbEntity
  8
0
100
AcDbLine
 10
4.291042
 20
-7.688819
 30
3.114771
 11
4.311531
 21
-7.39598
 31
3.21243
210
0.0
220
-0.3163624652213708
230
0.9486383876899864
  0
LINE
  5
5F01D
100
AcDbEntity
  8
0
100
AcDbLine
 10
4.271925
 20
-7.687557
 30
3.115192
 11
4.292414
 21
-7.394718
 31
3.212851
210
0.0
220
-0.3163624652213708
230
0.9486383876899864
  0
CIRCLE
  5
5F01E
100
AcDbEntity
  8
0
100
AcDbCircle
 10
3.682
 20
-1.06
 30
0.577
 40
0.1
  0
CIRCLE
  5
5F01F
100
AcDbEntity
  8
0
100
AcDbCircle
 10
3.682
 20
-1.06
 30
0.577
 40
0.1
  0
LINE
  5
5F020
100
AcDbEntity
  8
0
100
AcDbLine
 10
3.017
 20
-0.78
 30
0.387
 11
4.457
 21
-0.78
 31
0.387
  0
LINE
  5
5F021
100
AcDbEntity
  8
0
100
AcDbLine
 10
3.017
 20
-0.78
 30
0.577
 11
4.457
 21
-0.78
 31
0.577
  0
3DFACE
  5
5F022
100
AcDbEntity
  8
0
100
AcDbFace
 10
2.327
 20
-0.78
 30
0.577
 11
2.137
 21
-0.78
 31
0.577
 12
2.137
 22
-0.78
 32
0.387
 13
2.327
 23
-0.78
 33
0.387
 70
    14
  0
LINE
  5
5F023
100
AcDbEntity
  8
0
100
AcDbLine
 10
2.137
 20
-0.78
 30
0.387
 11
2.327
 21
-0.78
 31
0.387
  0
LINE
  5
5F024
100
AcDbEntity
  8
0
100
AcDbLine
 10
2.137
 20
-0.78
 30
0.577
 11
2.327
 21
-0.78
 31
0.577
  0
ARC
  5
5F025
100
AcDbEntity
  8
0
100
AcDbCircle
 10
3.302
 20
-1.06
 30
0.577
 40
0.1015
100
AcDbArc
 50
0.0
 51
179.999985
  0
ARC
  5
5F026
100
AcDbEntity
  8
0
100
AcDbCircle
 10
3.302
 20
-1.06
 30
0.577
 40
0.1015
100
AcDbArc
 50
0.0
 51
179.999985
  0
LINE
  5
5F027
100
AcDbEntity
  8
0
100
AcDbLine
 10
3.4035
 20
-1.192159
 30
0.387
 11
3.4035
 21
-1.192159
 31
0.577
  0
LINE
  5
5F028
100
AcDbEntity
  8
0
100
AcDbLine
 10
3.4035
 20
-1.06
 30
0.387
 11
3.4035
 21
-1.06
 31
0.577
  0
LINE
  5
5F029
100
AcDbEntity
  8
0
100
AcDbLine
 10
3.2005
 20
-1.06
 30
0.387
 11
3.2005
 21
-1.06
 31
0.577
  0
ARC
  5
5F02A
100
AcDbEntity
  8
0
100
AcDbCircle
 10
3.302
 20
-1.403
 30
0.577
 40
0.234
100
AcDbArc
 50
115.70649
 51
64.293579
  0
ARC
  5
5F02B
100
AcDbEntity
  8
0
100
AcDbCircle
 10
3.302
 20
-1.403
 30
0.577
 40
0.234
100
AcDbArc
 50
115.70649
 51
64.293579
  0
LINE
  5
5F02C
100
AcDbEntity
  8
0
100
AcDbLine
 10
3.2005
 20
-1.06
 30
0.577
 11
3.2005
 21
-1.192159
 31
0.577
  0
LINE
  5
5F02D
100
AcDbEntity
  8
0
100
AcDbLine
 10
3.2005
 20
-1.06
 30
0.577
 11
3.2005
 21
-1.192159
 31
0.577
  0
LINE
  5
5F02E
100
AcDbEntity
  8
0
100
AcDbLine
 10
3.4035
 20
-1.06
 30
0.577
 11
3.4035
 21
-1.192159
 31
0.577
  0
LINE
  5
5F02F
100
AcDbEntity
  8
0
100
AcDbLine
 10
3.4035
 20
-1.06
 30
0.577
 11
3.4035
 21
-1.192159
 31
0.577
  0
LINE
  5
5F030
100
AcDbEntity
  8
0
100
AcDbLine
 10
4.457
 20
-0.78
 30
0.387
 11
5.077
 21
-1.4
 31
0.387
  0
LINE
  5
5F031
100
AcDbEntity
  8
0
100
AcDbLine
 10
4.457
 20
-0.78
 30
0.577
 11
5.077
 21
-1.4
 31
0.577
  0
LINE
  5
5F032
100
AcDbEntity
  8
0
100
AcDbLine
 10
3.782
 20
-1.06
 30
0.387
 11
3.782
 21
-1.06
 31
0.577
  0
CIRCLE
  5
5F033
100
AcDbEntity
  8
0
100
AcDbCircle
 10
3.682
 20
-1.06
 30
0.387
 40
0.1
  0
ARC
  5
5F034
100
AcDbEntity
  8
0
100
AcDbCircle
 10
3.302
 20
-1.403
 30
0.387
 40
0.234
100
AcDbArc
 50
115.70649
 51
64.293579
  0
LINE
  5
5F035
100
AcDbEntity
  8
0
100
AcDbLine
 10
3.4035
 20
-1.06
 30
0.387
 11
3.4035
 21
-1.192159
 31
0.387
  0
ARC
  5
5F036
100
AcDbEntity
  8
0
100
AcDbCircle
 10
3.302
 20
-1.06
 30
0.387
 40
0.1015
100
AcDbArc
 50
0.0
 51
179.999985
  0
LINE
  5
5F037
100
AcDbEntity
  8
0
100
AcDbLine
 10
3.2005
 20
-1.06
 30
0.387
 11
3.2005
 21
-1.192159
 31
0.387
  0
LINE
  5
5F038
100
AcDbEntity
  8
0
100
AcDbLine
 10
3.2005
 20
-1.192159
 30
0.387
 11
3.2005
 21
-1.192159
 31
0.577
  0
LINE
  5
5F039
100
AcDbEntity
  8
0
100
AcDbLine
 10
1.622
 20
-7.29
 30
3.237
 11
1.622
 21
-7.29
 31
0.577
  0
LINE
  5
5F03A
100
AcDbEntity
  8
0
100
AcDbLine
 10
4.982
 20
-5.88
 30
2.007
 11
4.982
 21
-7.682911
 31
2.007
  0
LINE
  5
5F03B
100
AcDbEntity
  8
0
100
AcDbLine
 10
1.622
 20
-7.7
 30
2.157
 11
1.622
 21
-7.7
 31
2.007
  0
LINE
  5
5F03C
100
AcDbEntity
  8
0
100
AcDbLine
 10
1.622
 20
-7.7
 30
2.007
 11
1.622
 21
-7.7
 31
0.577
  0
POLYLINE
  5
5F03D
100
AcDbEntity
  8
0
100
AcDbPolygonMesh
 66
     1
 10
0.0
 20
0.0
 30
0.0
 70
    16
 71
     6
 72
     3
  0
VERTEX
  5
5F03E
100
AcDbEntity
  8
0
100
AcDbVertex
100
AcDbPolygonMeshVertex
 10
4.982
 20
-7.7
 30
3.087
 70
    64
  0
VERTEX
  5
5F03F
100
AcDbEntity
  8
0
100
AcDbVertex
100
AcDbPolygonMeshVertex
 10
4.982
 20
-7.7
 30
0.577
 70
    64
  0
VERTEX
  5
5F040
100
AcDbEntity
  8
0
100
AcDbVertex
100
AcDbPolygonMeshVertex
 10
4.982
 20
-7.7
 30
0.577
 70
    64
  0
VERTEX
  5
5F041
100
AcDbEntity
  8
0
100
AcDbVertex
100
AcDbPolygonMeshVertex
 10
1.622
 20
-7.7
 30
3.087
 70
    64
  0
VERTEX
  5
5F042
100
AcDbEntity
  8
0
100
AcDbVertex
100
AcDbPolygonMeshVertex
 10
1.622
 20
-7.7
 30
0.577
 70
    64
  0
VERTEX
  5
5F043
100
AcDbEntity
  8
0
100
AcDbVertex
100
AcDbPolygonMeshVertex
 10
1.622
 20
-7.7
 30
0.577
 70
    64
  0
VERTEX
  5
5F044
100
AcDbEntity
  8
0
100
AcDbVertex
100
AcDbPolygonMeshVertex
 10
1.622
 20
-7.29
 30
3.087
 70
    64
  0
VERTEX
  5
5F045
100
AcDbEntity
  8
0
100
AcDbVertex
100
AcDbPolygonMeshVertex
 10
1.622
 20
-7.29
 30
0.577
 70
    64
  0
VERTEX
  5
5F046
100
AcDbEntity
  8
0
100
AcDbVertex
100
AcDbPolygonMeshVertex
 10
1.622
 20
-7.7
 30
0.577
 70
    64
  0
VERTEX
  5
5F047
100
AcDbEntity
  8
0
100
AcDbVertex
100
AcDbPolygonMeshVertex
 10
4.982
 20
-7.29
 30
3.087
 70
    64
  0
VERTEX
  5
5F048
100
AcDbEntity
  8
0
100
AcDbVertex
100
AcDbPolygonMeshVertex
 10
4.982
 20
-7.29
 30
0.577
 70
    64
  0
VERTEX
  5
5F049
100
AcDbEntity
  8
0
100
AcDbVertex
100
AcDbPolygonMeshVertex
 10
4.982
 20
-7.7
 30
0.577
 70
    64
  0
VERTEX
  5
5F04A
100
AcDbEntity
  8
0
100
AcDbVertex
100
AcDbPolygonMeshVertex
 10
4.982
 20
-7.29
 30
3.087
 70
    64
  0
VERTEX
  5
5F04B
100
AcDbEntity
  8
0
100
AcDbVertex
100
AcDbPolygonMeshVertex
 10
4.982
 20
-7.29
 30
3.087
 70
    64
  0
VERTEX
  5
5F04C
100
AcDbEntity
  8
0
100
AcDbVertex
100
AcDbPolygonMeshVertex
 10
4.982
 20
-7.7
 30
3.087
 70
    64
  0
VERTEX
  5
5F04D
100
AcDbEntity
  8
0
100
AcDbVertex
100
AcDbPolygonMeshVertex
 10
1.622
 20
-7.29
 30
3.087
 70
    64
  0
VERTEX
  5
5F04E
100
AcDbEntity
  8
0
100
AcDbVertex
100
AcDbPolygonMeshVertex
 10
1.622
 20
-7.29
 30
3.087
 70
    64
  0
VERTEX
  5
5F04F
100
AcDbEntity
  8
0
100
AcDbVertex
100
AcDbPolygonMeshVertex
 10
1.622
 20
-7.7
 30
3.087
 70
    64
  0
SEQEND
  5
5F050
100
AcDbEntity
  8
0
  0
POLYLINE
  5
5F051
100
AcDbEntity
  8
0
100
AcDbPolygonMesh
 66
     1
 10
0.0
 20
0.0
 30
0.0
 70
    16
 71
     6
 72
     3
  0
VERTEX
  5
5F052
100
AcDbEntity
  8
0
100
AcDbVertex
100
AcDbPolygonMeshVertex
 10
2.792
 20
-8.13
 30
0.887
 70
    64
  0
VERTEX
  5
5F053
100
AcDbEntity
  8
0
100
AcDbVertex
100
AcDbPolygonMeshVertex
 10
2.792
 20
-8.13
 30
0.577
 70
    64
  0
VERTEX
  5
5F054
100
AcDbEntity
  8
0
100
AcDbVertex
100
AcDbPolygonMeshVertex
 10
2.792
 20
-8.13
 30
0.577
 70
    64
  0
VERTEX
  5
5F055
100
AcDbEntity
  8
0
100
AcDbVertex
100
AcDbPolygonMeshVertex
 10
2.292
 20
-8.13
 30
0.887
 70
    64
  0
VERTEX
  5
5F056
100
AcDbEntity
  8
0
100
AcDbVertex
100
AcDbPolygonMeshVertex
 10
2.292
 20
-8.13
 30
0.577
 70
    64
  0
VERTEX
  5
5F057
100
AcDbEntity
  8
0
100
AcDbVertex
100
AcDbPolygonMeshVertex
 10
2.292
 20
-8.13
 30
0.577
 70
    64
  0
VERTEX
  5
5F058
100
AcDbEntity
  8
0
100
AcDbVertex
100
AcDbPolygonMeshVertex
 10
2.292
 20
-7.7
 30
0.887
 70
    64
  0
VERTEX
  5
5F059
100
AcDbEntity
  8
0
100
AcDbVertex
100
AcDbPolygonMeshVertex
 10
2.292
 20
-7.7
 30
0.577
 70
    64
  0
VERTEX
  5
5F05A
100
AcDbEntity
  8
0
100
AcDbVertex
100
AcDbPolygonMeshVertex
 10
2.292
 20
-8.13
 30
0.577
 70
    64
  0
VERTEX
  5
5F05B
100
AcDbEntity
  8
0
100
AcDbVertex
100
AcDbPolygonMeshVertex
 10
2.792
 20
-7.7
 30
0.887
 70
    64
  0
VERTEX
  5
5F05C
100
AcDbEntity
  8
0
100
AcDbVertex
100
AcDbPolygonMeshVertex
 10
2.792
 20
-7.7
 30
0.577
 70
    64
  0
VERTEX
  5
5F05D
100
AcDbEntity
  8
0
100
AcDbVertex
100
AcDbPolygonMeshVertex
 10
2.792
 20
-8.13
 30
0.577
 70
    64
  0
VERTEX
  5
5F05E
100
AcDbEntity
  8
0
100
AcDbVertex
100
AcDbPolygonMeshVertex
 10
2.792
 20
-7.7
 30
0.887
 70
    64
  0
VERTEX
  5
5F05F
100
AcDbEntity
  8
0
100
AcDbVertex
100
AcDbPolygonMeshVertex
 10
2.792
 20
-7.7
 30
0.887
 70
    64
  0
VERTEX
  5
5F060
100
AcDbEntity
  8
0
100
AcDbVertex
100
AcDbPolygonMeshVertex
 10
2.792
 20
-8.13
 30
0.887
 70
    64
  0
VERTEX
  5
5F061
100
AcDbEntity
  8
0
100
AcDbVertex
100
AcDbPolygonMeshVertex
 10
2.292
 20
-7.7
 30
0.887
 70
    64
  0
VERTEX
  5
5F062
100
AcDbEntity
  8
0
100
AcDbVertex
100
AcDbPolygonMeshVertex
 10
2.292
 20
-7.7
 30
0.887
 70
    64
  0
VERTEX
  5
5F063
100
AcDbEntity
  8
0
100
AcDbVertex
100
AcDbPolygonMeshVertex
 10
2.292
 20
-8.13
 30
0.887
 70
    64
  0
SEQEND
  5
5F064
100
AcDbEntity
  8
0
  0
POLYLINE
  5
5F065
100
AcDbEntity
  8
0
100
AcDbPolygonMesh
 66
     1
 10
0.0
 20
0.0
 30
0.0
 70
    16
 71
     6
 72
     3
  0
VERTEX
  5
5F066
100
AcDbEntity
  8
0
100
AcDbVertex
100
AcDbPolygonMeshVertex
 10
4.169
 20
-8.13
 30
0.887
 70
    64
  0
VERTEX
  5
5F067
100
AcDbEntity
  8
0
100
AcDbVertex
100
AcDbPolygonMeshVertex
 10
4.169
 20
-8.13
 30
0.577
 70
    64
  0
VERTEX
  5
5F068
100
AcDbEntity
  8
0
100
AcDbVertex
100
AcDbPolygonMeshVertex
 10
4.169
 20
-8.13
 30
0.577
 70
    64
  0
VERTEX
  5
5F069
100
AcDbEntity
  8
0
100
AcDbVertex
100
AcDbPolygonMeshVertex
 10
3.669
 20
-8.13
 30
0.887
 70
    64
  0
VERTEX
  5
5F06A
100
AcDbEntity
  8
0
100
AcDbVertex
100
AcDbPolygonMeshVertex
 10
3.669
 20
-8.13
 30
0.577
 70
    64
  0
VERTEX
  5
5F06B
100
AcDbEntity
  8
0
100
AcDbVertex
100
AcDbPolygonMeshVertex
 10
3.669
 20
-8.13
 30
0.577
 70
    64
  0
VERTEX
  5
5F06C
100
AcDbEntity
  8
0
100
AcDbVertex
100
AcDbPolygonMeshVertex
 10
3.669
 20
-7.7
 30
0.887
 70
    64
  0
VERTEX
  5
5F06D
100
AcDbEntity
  8
0
100
AcDbVertex
100
AcDbPolygonMeshVertex
 10
3.669
 20
-7.7
 30
0.577
 70
    64
  0
VERTEX
  5
5F06E
100
AcDbEntity
  8
0
100
AcDbVertex
100
AcDbPolygonMeshVertex
 10
3.669
 20
-8.13
 30
0.577
 70
    64
  0
VERTEX
  5
5F06F
100
AcDbEntity
  8
0
100
AcDbVertex
100
AcDbPolygonMeshVertex
 10
4.169
 20
-7.7
 30
0.887
 70
    64
  0
VERTEX
  5
5F070
100
AcDbEntity
  8
0
100
AcDbVertex
100
AcDbPolygonMeshVertex
 10
4.169
 20
-7.7
 30
0.577
 70
    64
  0
VERTEX
  5
5F071
100
AcDbEntity
  8
0
100
AcDbVertex
100
AcDbPolygonMeshVertex
 10
4.169
 20
-8.13
 30
0.577
 70
    64
  0
VERTEX
  5
5F072
100
AcDbEntity
  8
0
100
AcDbVertex
100
AcDbPolygonMeshVertex
 10
4.169
 20
-7.7
 30
0.887
 70
    64
  0
VERTEX
  5
5F073
100
AcDbEntity
  8
0
100
AcDbVertex
100
AcDbPolygonMeshVertex
 10
4.169
 20
-7.7
 30
0.887
 70
    64
  0
VERTEX
  5
5F074
100
AcDbEntity
  8
0
100
AcDbVertex
100
AcDbPolygonMeshVertex
 10
4.169
 20
-8.13
 30
0.887
 70
    64
  0
VERTEX
  5
5F075
100
AcDbEntity
  8
0
100
AcDbVertex
100
AcDbPolygonMeshVertex
 10
3.669
 20
-7.7
 30
0.887
 70
    64
  0
VERTEX
  5
5F076
100
AcDbEntity
  8
0
100
AcDbVertex
100
AcDbPolygonMeshVertex
 10
3.669
 20
-7.7
 30
0.887
 70
    64
  0
VERTEX
  5
5F077
100
AcDbEntity
  8
0
100
AcDbVertex
100
AcDbPolygonMeshVertex
 10
3.669
 20
-8.13
 30
0.887
 70
    64
  0
SEQEND
  5
5F078
100
AcDbEntity
  8
0
  0
POLYLINE
  5
5F079
100
AcDbEntity
  8
0
100
AcDbPolygonMesh
 66
     1
 10
0.0
 20
0.0
 30
0.0
 70
    16
 71
     6
 72
     3
  0
VERTEX
  5
5F07A
100
AcDbEntity
  8
0
100
AcDbVertex
100
AcDbPolygonMeshVertex
 10
1.622
 20
-7.7
 30
3.087
 70
    64
  0
VERTEX
  5
5F07B
100
AcDbEntity
  8
0
100
AcDbVertex
100
AcDbPolygonMeshVertex
 10
1.622
 20
-7.7
 30
3.087
 70
    64
  0
VERTEX
  5
5F07C
100
AcDbEntity
  8
0
100
AcDbVertex
100
AcDbPolygonMeshVertex
 10
1.622
 20
-7.7
 30
3.087
 70
    64
  0
VERTEX
  5
5F07D
100
AcDbEntity
  8
0
100
AcDbVertex
100
AcDbPolygonMeshVertex
 10
1.622
 20
-7.29
 30
3.237
 70
    64
  0
VERTEX
  5
5F07E
100
AcDbEntity
  8
0
100
AcDbVertex
100
AcDbPolygonMeshVertex
 10
1.622
 20
-7.29
 30
3.087
 70
    64
  0
VERTEX
  5
5F07F
100
AcDbEntity
  8
0
100
AcDbVertex
100
AcDbPolygonMeshVertex
 10
1.622
 20
-7.29
 30
3.087
 70
    64
  0
VERTEX
  5
5F080
100
AcDbEntity
  8
0
100
AcDbVertex
100
AcDbPolygonMeshVertex
 10
4.982
 20
-7.29
 30
3.237
 70
    64
  0
VERTEX
  5
5F081
100
AcDbEntity
  8
0
100
AcDbVertex
100
AcDbPolygonMeshVertex
 10
4.982
 20
-7.29
 30
3.087
 70
    64
  0
VERTEX
  5
5F082
100
AcDbEntity
  8
0
100
AcDbVertex
100
AcDbPolygonMeshVertex
 10
1.622
 20
-7.29
 30
3.087
 70
    64
  0
VERTEX
  5
5F083
100
AcDbEntity
  8
0
100
AcDbVertex
100
AcDbPolygonMeshVertex
 10
4.982
 20
-7.7
 30
3.087
 70
    64
  0
VERTEX
  5
5F084
100
AcDbEntity
  8
0
100
AcDbVertex
100
AcDbPolygonMeshVertex
 10
4.982
 20
-7.7
 30
3.087
 70
    64
  0
VERTEX
  5
5F085
100
AcDbEntity
  8
0
100
AcDbVertex
100
AcDbPolygonMeshVertex
 10
1.622
 20
-7.7
 30
3.087
 70
    64
  0
VERTEX
  5
5F086
100
AcDbEntity
  8
0
100
AcDbVertex
100
AcDbPolygonMeshVertex
 10
4.982
 20
-7.7
 30
3.087
 70
    64
  0
VERTEX
  5
5F087
100
AcDbEntity
  8
0
100
AcDbVertex
100
AcDbPolygonMeshVertex
 10
4.982
 20
-7.7
 30
3.087
 70
    64
  0
VERTEX
  5
5F088
100
AcDbEntity
  8
0
100
AcDbVertex
100
AcDbPolygonMeshVertex
 10
1.622
 20
-7.7
 30
3.087
 70
    64
  0
VERTEX
  5
5F089
100
AcDbEntity
  8
0
100
AcDbVertex
100
AcDbPolygonMeshVertex
 10
4.982
 20
-7.29
 30
3.237
 70
    64
  0
VERTEX
  5
5F08A
100
AcDbEntity
  8
0
100
AcDbVertex
100
AcDbPolygonMeshVertex
 10
4.982
 20
-7.29
 30
3.237
 70
    64
  0
VERTEX
  5
5F08B
100
AcDbEntity
  8
0
100
AcDbVertex
100
AcDbPolygonMeshVertex
 10
1.622
 20
-7.29
 30
3.237
 70
    64
  0
SEQEND
  5
5F08C
100
AcDbEntity
  8
0
  0
POLYLINE
  5
5F08D
100
AcDbEntity
  8
0
100
AcDbPolygonMesh
 66
     1
 10
0.0
 20
0.0
 30
0.0
 70
    16
 71
     6
 72
     3
  0
VERTEX
  5
5F08E
100
AcDbEntity
  8
0
100
AcDbVertex
100
AcDbPolygonMeshVertex
 10
4.982
 20
-7.29
 30
4.027
 70
    64
  0
VERTEX
  5
5F08F
100
AcDbEntity
  8
0
100
AcDbVertex
100
AcDbPolygonMeshVertex
 10
4.982
 20
-7.29
 30
0.577
 70
    64
  0
VERTEX
  5
5F090
100
AcDbEntity
  8
0
100
AcDbVertex
100
AcDbPolygonMeshVertex
 10
4.982
 20
-7.29
 30
0.577
 70
    64
  0
VERTEX
  5
5F091
100
AcDbEntity
  8
0
100
AcDbVertex
100
AcDbPolygonMeshVertex
 10
1.622
 20
-7.29
 30
4.027
 70
    64
  0
VERTEX
  5
5F092
100
AcDbEntity
  8
0
100
AcDbVertex
100
AcDbPolygonMeshVertex
 10
1.622
 20
-7.29
 30
0.577
 70
    64
  0
VERTEX
  5
5F093
100
AcDbEntity
  8
0
100
AcDbVertex
100
AcDbPolygonMeshVertex
 10
1.622
 20
-7.29
 30
0.577
 70
    64
  0
VERTEX
  5
5F094
100
AcDbEntity
  8
0
100
AcDbVertex
100
AcDbPolygonMeshVertex
 10
1.622
 20
-5.88
 30
4.027
 70
    64
  0
VERTEX
  5
5F095
100
AcDbEntity
  8
0
100
AcDbVertex
100
AcDbPolygonMeshVertex
 10
1.622
 20
-5.88
 30
0.577
 70
    64
  0
VERTEX
  5
5F096
100
AcDbEntity
  8
0
100
AcDbVertex
100
AcDbPolygonMeshVertex
 10
1.622
 20
-7.29
 30
0.577
 70
    64
  0
VERTEX
  5
5F097
100
AcDbEntity
  8
0
100
AcDbVertex
100
AcDbPolygonMeshVertex
 10
4.982
 20
-5.88
 30
4.027
 70
    64
  0
VERTEX
  5
5F098
100
AcDbEntity
  8
0
100
AcDbVertex
100
AcDbPolygonMeshVertex
 10
4.982
 20
-5.88
 30
0.577
 70
    64
  0
VERTEX
  5
5F099
100
AcDbEntity
  8
0
100
AcDbVertex
100
AcDbPolygonMeshVertex
 10
4.982
 20
-7.29
 30
0.577
 70
    64
  0
VERTEX
  5
5F09A
100
AcDbEntity
  8
0
100
AcDbVertex
100
AcDbPolygonMeshVertex
 10
4.982
 20
-5.88
 30
4.027
 70
    64
  0
VERTEX
  5
5F09B
100
AcDbEntity
  8
0
100
AcDbVertex
100
AcDbPolygonMeshVertex
 10
4.982
 20
-5.88
 30
4.027
 70
    64
  0
VERTEX
  5
5F09C
100
AcDbEntity
  8
0
100
AcDbVertex
100
AcDbPolygonMeshVertex
 10
4.982
 20
-7.29
 30
4.027
 70
    64
  0
VERTEX
  5
5F09D
100
AcDbEntity
  8
0
100
AcDbVertex
100
AcDbPolygonMeshVertex
 10
1.622
 20
-5.88
 30
4.027
 70
    64
  0
VERTEX
  5
5F09E
100
AcDbEntity
  8
0
100
AcDbVertex
100
AcDbPolygonMeshVertex
 10
1.622
 20
-5.88
 30
4.027
 70
    64
  0
VERTEX
  5
5F09F
100
AcDbEntity
  8
0
100
AcDbVertex
100
AcDbPolygonMeshVertex
 10
1.622
 20
-7.29
 30
4.027
 70
    64
  0
SEQEND
  5
5F0A0
100
AcDbEntity
  8
0
  0
LINE
  5
5F0A1
100
AcDbEntity
  8
0
100
AcDbLine
 10
2.722674
 20
-3.915015
 30
4.857
 11
2.83729
 21
-4.065138
 31
4.857
  0
LINE
  5
5F0A2
100
AcDbEntity
  8
0
100
AcDbLine
 10
2.706485
 20
-3.931205
 30
4.857
 11
2.821101
 21
-4.081327
 31
4.857
  0
CIRCLE
  5
5F0A3
100
AcDbEntity
  8
0
100
AcDbCircle
 10
2.772
 20
-4.0
 30
4.857
 40
0.095
  0
CIRCLE
  5
5F0A4
100
AcDbEntity
  8
0
100
AcDbCircle
 10
2.242
 20
-1.325
 30
1.867
 40
0.19
  0
LINE
  5
5F0A5
100
AcDbEntity
  8
0
100
AcDbLine
 10
3.782674
 20
-3.915015
 30
4.857
 11
3.89729
 21
-4.065138
 31
4.857
  0
LINE
  5
5F0A6
100
AcDbEntity
  8
0
100
AcDbLine
 10
3.766485
 20
-3.931205
 30
4.857
 11
3.8811
 21
-4.081327
 31
4.857
  0
CIRCLE
  5
5F0A7
100
AcDbEntity
  8
0
100
AcDbCircle
 10
3.832
 20
-4.0
 30
4.857
 40
0.095
  0
LINE
  5
5F0A8
100
AcDbEntity
  8
0
100
AcDbLine
 10
4.266965
 20
-2.018318
 30
4.667
 11
4.498216
 21
-1.721115
 31
4.667
  0
LINE
  5
5F0A9
100
AcDbEntity
  8
0
100
AcDbLine
 10
4.226278
 20
-1.987964
 30
4.667
 11
4.457529
 21
-1.690762
 31
4.667
  0
CIRCLE
  5
5F0AA
100
AcDbEntity
  8
0
100
AcDbCircle
 10
4.362
 20
-1.855
 30
4.667
 40
0.19
  0
POLYLINE
  5
5F0AB
100
AcDbEntity
  8
0
100
AcDbPolygonMesh
 66
     1
 10
0.0
 20
0.0
 30
0.0
 70
    16
 71
     6
 72
     3
  0
VERTEX
  5
5F0AC
100
AcDbEntity
  8
0
100
AcDbVertex
100
AcDbPolygonMeshVertex
 10
4.242
 20
-4.53
 30
4.387
 70
    64
  0
VERTEX
  5
5F0AD
100
AcDbEntity
  8
0
100
AcDbVertex
100
AcDbPolygonMeshVertex
 10
4.242
 20
-4.53
 30
4.017
 70
    64
  0
VERTEX
  5
5F0AE
100
AcDbEntity
  8
0
100
AcDbVertex
100
AcDbPolygonMeshVertex
 10
4.242
 20
-4.53
 30
4.017
 70
    64
  0
VERTEX
  5
5F0AF
100
AcDbEntity
  8
0
100
AcDbVertex
100
AcDbPolygonMeshVertex
 10
2.362
 20
-4.53
 30
4.387
 70
    64
  0
VERTEX
  5
5F0B0
100
AcDbEntity
  8
0
100
AcDbVertex
100
AcDbPolygonMeshVertex
 10
2.362
 20
-4.53
 30
4.017
 70
    64
  0
VERTEX
  5
5F0B1
100
AcDbEntity
  8
0
100
AcDbVertex
100
AcDbPolygonMeshVertex
 10
2.362
 20
-4.53
 30
4.017
 70
    64
  0
VERTEX
  5
5F0B2
100
AcDbEntity
  8
0
100
AcDbVertex
100
AcDbPolygonMeshVertex
 10
2.362
 20
-3.69
 30
4.387
 70
    64
  0
VERTEX
  5
5F0B3
100
AcDbEntity
  8
0
100
AcDbVertex
100
AcDbPolygonMeshVertex
 10
2.362
 20
-3.69
 30
4.017
 70
    64
  0
VERTEX
  5
5F0B4
100
AcDbEntity
  8
0
100
AcDbVertex
100
AcDbPolygonMeshVertex
 10
2.362
 20
-4.53
 30
4.017
 70
    64
  0
VERTEX
  5
5F0B5
100
AcDbEntity
  8
0
100
AcDbVertex
100
AcDbPolygonMeshVertex
 10
4.242
 20
-3.69
 30
4.387
 70
    64
  0
VERTEX
  5
5F0B6
100
AcDbEntity
  8
0
100
AcDbVertex
100
AcDbPolygonMeshVertex
 10
4.242
 20
-3.69
 30
4.017
 70
    64
  0
VERTEX
  5
5F0B7
100
AcDbEntity
  8
0
100
AcDbVertex
100
AcDbPolygonMeshVertex
 10
4.242
 20
-4.53
 30
4.017
 70
    64
  0
VERTEX
  5
5F0B8
100
AcDbEntity
  8
0
100
AcDbVertex
100
AcDbPolygonMeshVertex
 10
4.242
 20
-3.69
 30
4.387
 70
    64
  0
VERTEX
  5
5F0B9
100
AcDbEntity
  8
0
100
AcDbVertex
100
AcDbPolygonMeshVertex
 10
4.242
 20
-3.69
 30
4.387
 70
    64
  0
VERTEX
  5
5F0BA
100
AcDbEntity
  8
0
100
AcDbVertex
100
AcDbPolygonMeshVertex
 10
4.242
 20
-4.53
 30
4.387
 70
    64
  0
VERTEX
  5
5F0BB
100
AcDbEntity
  8
0
100
AcDbVertex
100
AcDbPolygonMeshVertex
 10
2.362
 20
-3.69
 30
4.387
 70
    64
  0
VERTEX
  5
5F0BC
100
AcDbEntity
  8
0
100
AcDbVertex
100
AcDbPolygonMeshVertex
 10
2.362
 20
-3.69
 30
4.387
 70
    64
  0
VERTEX
  5
5F0BD
100
AcDbEntity
  8
0
100
AcDbVertex
100
AcDbPolygonMeshVertex
 10
2.362
 20
-4.53
 30
4.387
 70
    64
  0
SEQEND
  5
5F0BE
100
AcDbEntity
  8
0
  0
POLYLINE
  5
5F0BF
100
AcDbEntity
  8
0
100
AcDbPolygonMesh
 66
     1
 10
0.0
 20
0.0
 30
0.0
 70
    16
 71
     6
 72
     3
  0
VERTEX
  5
5F0C0
100
AcDbEntity
  8
0
100
AcDbVertex
100
AcDbPolygonMeshVertex
 10
4.052
 20
-4.13
 30
4.857
 70
    64
  0
VERTEX
  5
5F0C1
100
AcDbEntity
  8
0
100
AcDbVertex
100
AcDbPolygonMeshVertex
 10
4.052
 20
-4.13
 30
4.387
 70
    64
  0
VERTEX
  5
5F0C2
100
AcDbEntity
  8
0
100
AcDbVertex
100
AcDbPolygonMeshVertex
 10
4.052
 20
-4.13
 30
4.387
 70
    64
  0
VERTEX
  5
5F0C3
100
AcDbEntity
  8
0
100
AcDbVertex
100
AcDbPolygonMeshVertex
 10
3.612
 20
-4.13
 30
4.857
 70
    64
  0
VERTEX
  5
5F0C4
100
AcDbEntity
  8
0
100
AcDbVertex
100
AcDbPolygonMeshVertex
 10
3.612
 20
-4.13
 30
4.387
 70
    64
  0
VERTEX
  5
5F0C5
100
AcDbEntity
  8
0
100
AcDbVertex
100
AcDbPolygonMeshVertex
 10
3.612
 20
-4.13
 30
4.387
 70
    64
  0
VERTEX
  5
5F0C6
100
AcDbEntity
  8
0
100
AcDbVertex
100
AcDbPolygonMeshVertex
 10
3.612
 20
-3.75
 30
4.857
 70
    64
  0
VERTEX
  5
5F0C7
100
AcDbEntity
  8
0
100
AcDbVertex
100
AcDbPolygonMeshVertex
 10
3.612
 20
-3.75
 30
4.387
 70
    64
  0
VERTEX
  5
5F0C8
100
AcDbEntity
  8
0
100
AcDbVertex
100
AcDbPolygonMeshVertex
 10
3.612
 20
-4.13
 30
4.387
 70
    64
  0
VERTEX
  5
5F0C9
100
AcDbEntity
  8
0
100
AcDbVertex
100
AcDbPolygonMeshVertex
 10
4.052
 20
-3.75
 30
4.857
 70
    64
  0
VERTEX
  5
5F0CA
100
AcDbEntity
  8
0
100
AcDbVertex
100
AcDbPolygonMeshVertex
 10
4.052
 20
-3.75
 30
4.387
 70
    64
  0
VERTEX
  5
5F0CB
100
AcDbEntity
  8
0
100
AcDbVertex
100
AcDbPolygonMeshVertex
 10
4.052
 20
-4.13
 30
4.387
 70
    64
  0
VERTEX
  5
5F0CC
100
AcDbEntity
  8
0
100
AcDbVertex
100
AcDbPolygonMeshVertex
 10
4.052
 20
-3.75
 30
4.857
 70
    64
  0
VERTEX
  5
5F0CD
100
AcDbEntity
  8
0
100
AcDbVertex
100
AcDbPolygonMeshVertex
 10
4.052
 20
-3.75
 30
4.857
 70
    64
  0
VERTEX
  5
5F0CE
100
AcDbEntity
  8
0
100
AcDbVertex
100
AcDbPolygonMeshVertex
 10
4.052
 20
-4.13
 30
4.857
 70
    64
  0
VERTEX
  5
5F0CF
100
AcDbEntity
  8
0
100
AcDbVertex
100
AcDbPolygonMeshVertex
 10
3.612
 20
-3.75
 30
4.857
 70
    64
  0
VERTEX
  5
5F0D0
100
AcDbEntity
  8
0
100
AcDbVertex
100
AcDbPolygonMeshVertex
 10
3.612
 20
-3.75
 30
4.857
 70
    64
  0
VERTEX
  5
5F0D1
100
AcDbEntity
  8
0
100
AcDbVertex
100
AcDbPolygonMeshVertex
 10
3.612
 20
-4.13
 30
4.857
 70
    64
  0
SEQEND
  5
5F0D2
100
AcDbEntity
  8
0
  0
POLYLINE
  5
5F0D3
100
AcDbEntity
  8
0
100
AcDbPolygonMesh
 66
     1
 10
0.0
 20
0.0
 30
0.0
 70
    16
 71
     6
 72
     3
  0
VERTEX
  5
5F0D4
100
AcDbEntity
  8
0
100
AcDbVertex
100
AcDbPolygonMeshVertex
 10
2.992
 20
-4.13
 30
4.857
 70
    64
  0
VERTEX
  5
5F0D5
100
AcDbEntity
  8
0
100
AcDbVertex
100
AcDbPolygonMeshVertex
 10
2.992
 20
-4.13
 30
4.387
 70
    64
  0
VERTEX
  5
5F0D6
100
AcDbEntity
  8
0
100
AcDbVertex
100
AcDbPolygonMeshVertex
 10
2.992
 20
-4.13
 30
4.387
 70
    64
  0
VERTEX
  5
5F0D7
100
AcDbEntity
  8
0
100
AcDbVertex
100
AcDbPolygonMeshVertex
 10
2.552
 20
-4.13
 30
4.857
 70
    64
  0
VERTEX
  5
5F0D8
100
AcDbEntity
  8
0
100
AcDbVertex
100
AcDbPolygonMeshVertex
 10
2.552
 20
-4.13
 30
4.387
 70
    64
  0
VERTEX
  5
5F0D9
100
AcDbEntity
  8
0
100
AcDbVertex
100
AcDbPolygonMeshVertex
 10
2.552
 20
-4.13
 30
4.387
 70
    64
  0
VERTEX
  5
5F0DA
100
AcDbEntity
  8
0
100
AcDbVertex
100
AcDbPolygonMeshVertex
 10
2.552
 20
-3.75
 30
4.857
 70
    64
  0
VERTEX
  5
5F0DB
100
AcDbEntity
  8
0
100
AcDbVertex
100
AcDbPolygonMeshVertex
 10
2.552
 20
-3.75
 30
4.387
 70
    64
  0
VERTEX
  5
5F0DC
100
AcDbEntity
  8
0
100
AcDbVertex
100
AcDbPolygonMeshVertex
 10
2.552
 20
-4.13
 30
4.387
 70
    64
  0
VERTEX
  5
5F0DD
100
AcDbEntity
  8
0
100
AcDbVertex
100
AcDbPolygonMeshVertex
 10
2.992
 20
-3.75
 30
4.857
 70
    64
  0
VERTEX
  5
5F0DE
100
AcDbEntity
  8
0
100
AcDbVertex
100
AcDbPolygonMeshVertex
 10
2.992
 20
-3.75
 30
4.387
 70
    64
  0
VERTEX
  5
5F0DF
100
AcDbEntity
  8
0
100
AcDbVertex
100
AcDbPolygonMeshVertex
 10
2.992
 20
-4.13
 30
4.387
 70
    64
  0
VERTEX
  5
5F0E0
100
AcDbEntity
  8
0
100
AcDbVertex
100
AcDbPolygonMeshVertex
 10
2.992
 20
-3.75
 30
4.857
 70
    64
  0
VERTEX
  5
5F0E1
100
AcDbEntity
  8
0
100
AcDbVertex
100
AcDbPolygonMeshVertex
 10
2.992
 20
-3.75
 30
4.857
 70
    64
  0
VERTEX
  5
5F0E2
100
AcDbEntity
  8
0
100
AcDbVertex
100
AcDbPolygonMeshVertex
 10
2.992
 20
-4.13
 30
4.857
 70
    64
  0
VERTEX
  5
5F0E3
100
AcDbEntity
  8
0
100
AcDbVertex
100
AcDbPolygonMeshVertex
 10
2.552
 20
-3.75
 30
4.857
 70
    64
  0
VERTEX
  5
5F0E4
100
AcDbEntity
  8
0
100
AcDbVertex
100
AcDbPolygonMeshVertex
 10
2.552
 20
-3.75
 30
4.857
 70
    64
  0
VERTEX
  5
5F0E5
100
AcDbEntity
  8
0
100
AcDbVertex
100
AcDbPolygonMeshVertex
 10
2.552
 20
-4.13
 30
4.857
 70
    64
  0
SEQEND
  5
5F0E6
100
AcDbEntity
  8
0
  0
LINE
  5
5F0E7
100
AcDbEntity
  8
0
100
AcDbLine
 10
1.622
 20
-2.24
 30
4.017
 11
1.622
 21
-2.24
 31
0.577
  0
POLYLINE
  5
5F0E8
100
AcDbEntity
  8
0
100
AcDbPolygonMesh
 66
     1
 10
0.0
 20
0.0
 30
0.0
 70
    16
 71
     6
 72
     3
  0
VERTEX
  5
5F0E9
100
AcDbEntity
  8
0
100
AcDbVertex
100
AcDbPolygonMeshVertex
 10
4.982
 20
-5.63
 30
4.017
 70
    64
  0
VERTEX
  5
5F0EA
100
AcDbEntity
  8
0
100
AcDbVertex
100
AcDbPolygonMeshVertex
 10
4.982
 20
-5.63
 30
0.577
 70
    64
  0
VERTEX
  5
5F0EB
100
AcDbEntity
  8
0
100
AcDbVertex
100
AcDbPolygonMeshVertex
 10
4.982
 20
-5.63
 30
0.577
 70
    64
  0
VERTEX
  5
5F0EC
100
AcDbEntity
  8
0
100
AcDbVertex
100
AcDbPolygonMeshVertex
 10
1.622
 20
-5.63
 30
4.017
 70
    64
  0
VERTEX
  5
5F0ED
100
AcDbEntity
  8
0
100
AcDbVertex
100
AcDbPolygonMeshVertex
 10
1.622
 20
-5.63
 30
0.577
 70
    64
  0
VERTEX
  5
5F0EE
100
AcDbEntity
  8
0
100
AcDbVertex
100
AcDbPolygonMeshVertex
 10
1.622
 20
-5.63
 30
0.577
 70
    64
  0
VERTEX
  5
5F0EF
100
AcDbEntity
  8
0
100
AcDbVertex
100
AcDbPolygonMeshVertex
 10
1.622
 20
-2.24
 30
4.017
 70
    64
  0
VERTEX
  5
5F0F0
100
AcDbEntity
  8
0
100
AcDbVertex
100
AcDbPolygonMeshVertex
 10
1.622
 20
-2.24
 30
0.577
 70
    64
  0
VERTEX
  5
5F0F1
100
AcDbEntity
  8
0
100
AcDbVertex
100
AcDbPolygonMeshVertex
 10
1.622
 20
-5.63
 30
0.577
 70
    64
  0
VERTEX
  5
5F0F2
100
AcDbEntity
  8
0
100
AcDbVertex
100
AcDbPolygonMeshVertex
 10
4.982
 20
-2.24
 30
4.017
 70
    64
  0
VERTEX
  5
5F0F3
100
AcDbEntity
  8
0
100
AcDbVertex
100
AcDbPolygonMeshVertex
 10
4.982
 20
-2.24
 30
0.577
 70
    64
  0
VERTEX
  5
5F0F4
100
AcDbEntity
  8
0
100
AcDbVertex
100
AcDbPolygonMeshVertex
 10
4.982
 20
-5.63
 30
0.577
 70
    64
  0
VERTEX
  5
5F0F5
100
AcDbEntity
  8
0
100
AcDbVertex
100
AcDbPolygonMeshVertex
 10
4.982
 20
-2.24
 30
4.017
 70
    64
  0
VERTEX
  5
5F0F6
100
AcDbEntity
  8
0
100
AcDbVertex
100
AcDbPolygonMeshVertex
 10
4.982
 20
-2.24
 30
4.017
 70
    64
  0
VERTEX
  5
5F0F7
100
AcDbEntity
  8
0
100
AcDbVertex
100
AcDbPolygonMeshVertex
 10
4.982
 20
-5.63
 30
4.017
 70
    64
  0
VERTEX
  5
5F0F8
100
AcDbEntity
  8
0
100
AcDbVertex
100
AcDbPolygonMeshVertex
 10
1.622
 20
-2.24
 30
4.017
 70
    64
  0
VERTEX
  5
5F0F9
100
AcDbEntity
  8
0
100
AcDbVertex
100
AcDbPolygonMeshVertex
 10
1.622
 20
-2.24
 30
4.017
 70
    64
  0
VERTEX
  5
5F0FA
100
AcDbEntity
  8
0
100
AcDbVertex
100
AcDbPolygonMeshVertex
 10
1.622
 20
-5.63
 30
4.017
 70
    64
  0
SEQEND
  5
5F0FB
100
AcDbEntity
  8
0
  0
POLYLINE
  5
5F0FC
100
AcDbEntity
  8
0
100
AcDbPolygonMesh
 66
     1
 10
0.0
 20
0.0
 30
0.0
 70
    16
 71
     6
 72
     3
  0
VERTEX
  5
5F0FD
100
AcDbEntity
  8
0
100
AcDbVertex
100
AcDbPolygonMeshVertex
 10
4.982
 20
-5.88
 30
3.237
 70
    64
  0
VERTEX
  5
5F0FE
100
AcDbEntity
  8
0
100
AcDbVertex
100
AcDbPolygonMeshVertex
 10
4.982
 20
-5.88
 30
2.007
 70
    64
  0
VERTEX
  5
5F0FF
100
AcDbEntity
  8
0
100
AcDbVertex
100
AcDbPolygonMeshVertex
 10
4.982
 20
-5.88
 30
2.007
 70
    64
  0
VERTEX
  5
5F100
100
AcDbEntity
  8
0
100
AcDbVertex
100
AcDbPolygonMeshVertex
 10
1.622
 20
-5.88
 30
3.237
 70
    64
  0
VERTEX
  5
5F101
100
AcDbEntity
  8
0
100
AcDbVertex
100
AcDbPolygonMeshVertex
 10
1.622
 20
-5.88
 30
2.007
 70
    64
  0
VERTEX
  5
5F102
100
AcDbEntity
  8
0
100
AcDbVertex
100
AcDbPolygonMeshVertex
 10
1.622
 20
-5.88
 30
2.007
 70
    64
  0
VERTEX
  5
5F103
100
AcDbEntity
  8
0
100
AcDbVertex
100
AcDbPolygonMeshVertex
 10
1.622
 20
-5.63
 30
3.237
 70
    64
  0
VERTEX
  5
5F104
100
AcDbEntity
  8
0
100
AcDbVertex
100
AcDbPolygonMeshVertex
 10
1.622
 20
-5.63
 30
2.007
 70
    64
  0
VERTEX
  5
5F105
100
AcDbEntity
  8
0
100
AcDbVertex
100
AcDbPolygonMeshVertex
 10
1.622
 20
-5.88
 30
2.007
 70
    64
  0
VERTEX
  5
5F106
100
AcDbEntity
  8
0
100
AcDbVertex
100
AcDbPolygonMeshVertex
 10
4.982
 20
-5.63
 30
3.237
 70
    64
  0
VERTEX
  5
5F107
100
AcDbEntity
  8
0
100
AcDbVertex
100
AcDbPolygonMeshVertex
 10
4.982
 20
-5.63
 30
2.007
 70
    64
  0
VERTEX
  5
5F108
100
AcDbEntity
  8
0
100
AcDbVertex
100
AcDbPolygonMeshVertex
 10
4.982
 20
-5.88
 30
2.007
 70
    64
  0
VERTEX
  5
5F109
100
AcDbEntity
  8
0
100
AcDbVertex
100
AcDbPolygonMeshVertex
 10
4.982
 20
-5.63
 30
3.237
 70
    64
  0
VERTEX
  5
5F10A
100
AcDbEntity
  8
0
100
AcDbVertex
100
AcDbPolygonMeshVertex
 10
4.982
 20
-5.63
 30
3.237
 70
    64
  0
VERTEX
  5
5F10B
100
AcDbEntity
  8
0
100
AcDbVertex
100
AcDbPolygonMeshVertex
 10
4.982
 20
-5.88
 30
3.237
 70
    64
  0
VERTEX
  5
5F10C
100
AcDbEntity
  8
0
100
AcDbVertex
100
AcDbPolygonMeshVertex
 10
1.622
 20
-5.63
 30
3.237
 70
    64
  0
VERTEX
  5
5F10D
100
AcDbEntity
  8
0
100
AcDbVertex
100
AcDbPolygonMeshVertex
 10
1.622
 20
-5.63
 30
3.237
 70
    64
  0
VERTEX
  5
5F10E
100
AcDbEntity
  8
0
100
AcDbVertex
100
AcDbPolygonMeshVertex
 10
1.622
 20
-5.88
 30
3.237
 70
    64
  0
SEQEND
  5
5F10F
100
AcDbEntity
  8
0
  0
POLYLINE
  5
5F110
100
AcDbEntity
  8
0
100
AcDbPolygonMesh
 66
     1
 10
0.0
 20
0.0
 30
0.0
 70
    16
 71
     6
 72
     3
  0
VERTEX
  5
5F111
100
AcDbEntity
  8
0
100
AcDbVertex
100
AcDbPolygonMeshVertex
 10
1.622
 20
-5.63
 30
0.577
 70
    64
  0
VERTEX
  5
5F112
100
AcDbEntity
  8
0
100
AcDbVertex
100
AcDbPolygonMeshVertex
 10
1.622
 20
-5.63
 30
0.577
 70
    64
  0
VERTEX
  5
5F113
100
AcDbEntity
  8
0
100
AcDbVertex
100
AcDbPolygonMeshVertex
 10
1.622
 20
-5.63
 30
0.577
 70
    64
  0
VERTEX
  5
5F114
100
AcDbEntity
  8
0
100
AcDbVertex
100
AcDbPolygonMeshVertex
 10
1.622
 20
-5.88
 30
2.007
 70
    64
  0
VERTEX
  5
5F115
100
AcDbEntity
  8
0
100
AcDbVertex
100
AcDbPolygonMeshVertex
 10
1.622
 20
-5.63
 30
2.007
 70
    64
  0
VERTEX
  5
5F116
100
AcDbEntity
  8
0
100
AcDbVertex
100
AcDbPolygonMeshVertex
 10
1.622
 20
-5.63
 30
2.007
 70
    64
  0
VERTEX
  5
5F117
100
AcDbEntity
  8
0
100
AcDbVertex
100
AcDbPolygonMeshVertex
 10
4.982
 20
-5.88
 30
2.007
 70
    64
  0
VERTEX
  5
5F118
100
AcDbEntity
  8
0
100
AcDbVertex
100
AcDbPolygonMeshVertex
 10
4.982
 20
-5.63
 30
2.007
 70
    64
  0
VERTEX
  5
5F119
100
AcDbEntity
  8
0
100
AcDbVertex
100
AcDbPolygonMeshVertex
 10
1.622
 20
-5.63
 30
2.007
 70
    64
  0
VERTEX
  5
5F11A
100
AcDbEntity
  8
0
100
AcDbVertex
100
AcDbPolygonMeshVertex
 10
4.982
 20
-5.63
 30
0.577
 70
    64
  0
VERTEX
  5
5F11B
100
AcDbEntity
  8
0
100
AcDbVertex
100
AcDbPolygonMeshVertex
 10
4.982
 20
-5.63
 30
0.577
 70
    64
  0
VERTEX
  5
5F11C
100
AcDbEntity
  8
0
100
AcDbVertex
100
AcDbPolygonMeshVertex
 10
1.622
 20
-5.63
 30
0.577
 70
    64
  0
VERTEX
  5
5F11D
100
AcDbEntity
  8
0
100
AcDbVertex
100
AcDbPolygonMeshVertex
 10
4.982
 20
-5.63
 30
0.577
 70
    64
  0
VERTEX
  5
5F11E
100
AcDbEntity
  8
0
100
AcDbVertex
100
AcDbPolygonMeshVertex
 10
4.982
 20
-5.63
 30
0.577
 70
    64
  0
VERTEX
  5
5F11F
100
AcDbEntity
  8
0
100
AcDbVertex
100
AcDbPolygonMeshVertex
 10
1.622
 20
-5.63
 30
0.577
 70
    64
  0
VERTEX
  5
5F120
100
AcDbEntity
  8
0
100
AcDbVertex
100
AcDbPolygonMeshVertex
 10
4.982
 20
-5.88
 30
2.007
 70
    64
  0
VERTEX
  5
5F121
100
AcDbEntity
  8
0
100
AcDbVertex
100
AcDbPolygonMeshVertex
 10
4.982
 20
-5.88
 30
2.007
 70
    64
  0
VERTEX
  5
5F122
100
AcDbEntity
  8
0
100
AcDbVertex
100
AcDbPolygonMeshVertex
 10
1.622
 20
-5.88
 30
2.007
 70
    64
  0
SEQEND
  5
5F123
100
AcDbEntity
  8
0
  0
POLYLINE
  5
5F124
100
AcDbEntity
  8
0
100
AcDbPolygonMesh
 66
     1
 10
0.0
 20
0.0
 30
0.0
 70
    16
 71
     6
 72
     3
  0
VERTEX
  5
5F125
100
AcDbEntity
  8
0
100
AcDbVertex
100
AcDbPolygonMeshVertex
 10
4.982
 20
-2.24
 30
4.477
 70
    64
  0
VERTEX
  5
5F126
100
AcDbEntity
  8
0
100
AcDbVertex
100
AcDbPolygonMeshVertex
 10
4.982
 20
-2.24
 30
0.577
 70
    64
  0
VERTEX
  5
5F127
100
AcDbEntity
  8
0
100
AcDbVertex
100
AcDbPolygonMeshVertex
 10
4.982
 20
-2.24
 30
0.577
 70
    64
  0
VERTEX
  5
5F128
100
AcDbEntity
  8
0
100
AcDbVertex
100
AcDbPolygonMeshVertex
 10
1.622
 20
-2.24
 30
4.477
 70
    64
  0
VERTEX
  5
5F129
100
AcDbEntity
  8
0
100
AcDbVertex
100
AcDbPolygonMeshVertex
 10
1.622
 20
-2.24
 30
0.577
 70
    64
  0
VERTEX
  5
5F12A
100
AcDbEntity
  8
0
100
AcDbVertex
100
AcDbPolygonMeshVertex
 10
1.622
 20
-2.24
 30
0.577
 70
    64
  0
VERTEX
  5
5F12B
100
AcDbEntity
  8
0
100
AcDbVertex
100
AcDbPolygonMeshVertex
 10
1.622
 20
-1.56
 30
4.477
 70
    64
  0
VERTEX
  5
5F12C
100
AcDbEntity
  8
0
100
AcDbVertex
100
AcDbPolygonMeshVertex
 10
1.622
 20
-1.56
 30
0.577
 70
    64
  0
VERTEX
  5
5F12D
100
AcDbEntity
  8
0
100
AcDbVertex
100
AcDbPolygonMeshVertex
 10
1.622
 20
-2.24
 30
0.577
 70
    64
  0
VERTEX
  5
5F12E
100
AcDbEntity
  8
0
100
AcDbVertex
100
AcDbPolygonMeshVertex
 10
4.982
 20
-1.56
 30
4.477
 70
    64
  0
VERTEX
  5
5F12F
100
AcDbEntity
  8
0
100
AcDbVertex
100
AcDbPolygonMeshVertex
 10
4.982
 20
-1.56
 30
0.577
 70
    64
  0
VERTEX
  5
5F130
100
AcDbEntity
  8
0
100
AcDbVertex
100
AcDbPolygonMeshVertex
 10
4.982
 20
-2.24
 30
0.577
 70
    64
  0
VERTEX
  5
5F131
100
AcDbEntity
  8
0
100
AcDbVertex
100
AcDbPolygonMeshVertex
 10
4.982
 20
-1.56
 30
4.477
 70
    64
  0
VERTEX
  5
5F132
100
AcDbEntity
  8
0
100
AcDbVertex
100
AcDbPolygonMeshVertex
 10
4.982
 20
-1.56
 30
4.477
 70
    64
  0
VERTEX
  5
5F133
100
AcDbEntity
  8
0
100
AcDbVertex
100
AcDbPolygonMeshVertex
 10
4.982
 20
-2.24
 30
4.477
 70
    64
  0
VERTEX
  5
5F134
100
AcDbEntity
  8
0
100
AcDbVertex
100
AcDbPolygonMeshVertex
 10
1.622
 20
-1.56
 30
4.477
 70
    64
  0
VERTEX
  5
5F135
100
AcDbEntity
  8
0
100
AcDbVertex
100
AcDbPolygonMeshVertex
 10
1.622
 20
-1.56
 30
4.477
 70
    64
  0
VERTEX
  5
5F136
100
AcDbEntity
  8
0
100
AcDbVertex
100
AcDbPolygonMeshVertex
 10
1.622
 20
-2.24
 30
4.477
 70
    64
  0
SEQEND
  5
5F137
100
AcDbEntity
  8
0
  0
LINE
  5
5F138
100
AcDbEntity
  8
0
100
AcDbLine
 10
3.922
 20
-1.56
 30
4.477
 11
3.922
 21
-1.43
 31
4.477
  0
LINE
  5
5F139
100
AcDbEntity
  8
0
100
AcDbLine
 10
3.922
 20
-1.43
 30
4.477
 11
3.742
 21
-1.43
 31
4.477
  0
POLYLINE
  5
5F13A
100
AcDbEntity
  8
0
100
AcDbPolygonMesh
 66
     1
 10
0.0
 20
0.0
 30
0.0
 70
    16
 71
     6
 72
     3
  0
VERTEX
  5
5F13B
100
AcDbEntity
  8
0
100
AcDbVertex
100
AcDbPolygonMeshVertex
 10
3.742
 20
-1.43
 30
4.857
 70
    64
  0
VERTEX
  5
5F13C
100
AcDbEntity
  8
0
100
AcDbVertex
100
AcDbPolygonMeshVertex
 10
3.742
 20
-1.43
 30
4.477
 70
    64
  0
VERTEX
  5
5F13D
100
AcDbEntity
  8
0
100
AcDbVertex
100
AcDbPolygonMeshVertex
 10
3.742
 20
-1.43
 30
4.477
 70
    64
  0
VERTEX
  5
5F13E
100
AcDbEntity
  8
0
100
AcDbVertex
100
AcDbPolygonMeshVertex
 10
3.922
 20
-1.43
 30
4.857
 70
    64
  0
VERTEX
  5
5F13F
100
AcDbEntity
  8
0
100
AcDbVertex
100
AcDbPolygonMeshVertex
 10
3.922
 20
-1.43
 30
4.477
 70
    64
  0
VERTEX
  5
5F140
100
AcDbEntity
  8
0
100
AcDbVertex
100
AcDbPolygonMeshVertex
 10
3.922
 20
-1.43
 30
4.477
 70
    64
  0
VERTEX
  5
5F141
100
AcDbEntity
  8
0
100
AcDbVertex
100
AcDbPolygonMeshVertex
 10
3.922
 20
-2.24
 30
4.857
 70
    64
  0
VERTEX
  5
5F142
100
AcDbEntity
  8
0
100
AcDbVertex
100
AcDbPolygonMeshVertex
 10
3.922
 20
-2.24
 30
4.477
 70
    64
  0
VERTEX
  5
5F143
100
AcDbEntity
  8
0
100
AcDbVertex
100
AcDbPolygonMeshVertex
 10
3.922
 20
-1.43
 30
4.477
 70
    64
  0
VERTEX
  5
5F144
100
AcDbEntity
  8
0
100
AcDbVertex
100
AcDbPolygonMeshVertex
 10
3.742
 20
-2.24
 30
4.857
 70
    64
  0
VERTEX
  5
5F145
100
AcDbEntity
  8
0
100
AcDbVertex
100
AcDbPolygonMeshVertex
 10
3.742
 20
-2.24
 30
4.477
 70
    64
  0
VERTEX
  5
5F146
100
AcDbEntity
  8
0
100
AcDbVertex
100
AcDbPolygonMeshVertex
 10
3.742
 20
-1.43
 30
4.477
 70
    64
  0
VERTEX
  5
5F147
100
AcDbEntity
  8
0
100
AcDbVertex
100
AcDbPolygonMeshVertex
 10
3.742
 20
-2.24
 30
4.857
 70
    64
  0
VERTEX
  5
5F148
100
AcDbEntity
  8
0
100
AcDbVertex
100
AcDbPolygonMeshVertex
 10
3.742
 20
-2.24
 30
4.857
 70
    64
  0
VERTEX
  5
5F149
100
AcDbEntity
  8
0
100
AcDbVertex
100
AcDbPolygonMeshVertex
 10
3.742
 20
-1.43
 30
4.857
 70
    64
  0
VERTEX
  5
5F14A
100
AcDbEntity
  8
0
100
AcDbVertex
100
AcDbPolygonMeshVertex
 10
3.922
 20
-2.24
 30
4.857
 70
    64
  0
VERTEX
  5
5F14B
100
AcDbEntity
  8
0
100
AcDbVertex
100
AcDbPolygonMeshVertex
 10
3.922
 20
-2.24
 30
4.857
 70
    64
  0
VERTEX
  5
5F14C
100
AcDbEntity
  8
0
100
AcDbVertex
100
AcDbPolygonMeshVertex
 10
3.922
 20
-1.43
 30
4.857
 70
    64
  0
SEQEND
  5
5F14D
100
AcDbEntity
  8
0
  0
POLYLINE
  5
5F14E
100
AcDbEntity
  8
0
100
AcDbPolygonMesh
 66
     1
 10
0.0
 20
0.0
 30
0.0
 70
    16
 71
     6
 72
     3
  0
VERTEX
  5
5F14F
100
AcDbEntity
  8
0
100
AcDbVertex
100
AcDbPolygonMeshVertex
 10
3.742
 20
-1.43
 30
4.477
 70
    64
  0
VERTEX
  5
5F150
100
AcDbEntity
  8
0
100
AcDbVertex
100
AcDbPolygonMeshVertex
 10
3.742
 20
-1.43
 30
3.357
 70
    64
  0
VERTEX
  5
5F151
100
AcDbEntity
  8
0
100
AcDbVertex
100
AcDbPolygonMeshVertex
 10
3.742
 20
-1.43
 30
3.357
 70
    64
  0
VERTEX
  5
5F152
100
AcDbEntity
  8
0
100
AcDbVertex
100
AcDbPolygonMeshVertex
 10
3.922
 20
-1.43
 30
4.477
 70
    64
  0
VERTEX
  5
5F153
100
AcDbEntity
  8
0
100
AcDbVertex
100
AcDbPolygonMeshVertex
 10
3.922
 20
-1.43
 30
3.357
 70
    64
  0
VERTEX
  5
5F154
100
AcDbEntity
  8
0
100
AcDbVertex
100
AcDbPolygonMeshVertex
 10
3.922
 20
-1.43
 30
3.357
 70
    64
  0
VERTEX
  5
5F155
100
AcDbEntity
  8
0
100
AcDbVertex
100
AcDbPolygonMeshVertex
 10
3.922
 20
-1.56
 30
4.477
 70
    64
  0
VERTEX
  5
5F156
100
AcDbEntity
  8
0
100
AcDbVertex
100
AcDbPolygonMeshVertex
 10
3.922
 20
-1.56
 30
3.357
 70
    64
  0
VERTEX
  5
5F157
100
AcDbEntity
  8
0
100
AcDbVertex
100
AcDbPolygonMeshVertex
 10
3.922
 20
-1.43
 30
3.357
 70
    64
  0
VERTEX
  5
5F158
100
AcDbEntity
  8
0
100
AcDbVertex
100
AcDbPolygonMeshVertex
 10
3.742
 20
-1.56
 30
4.477
 70
    64
  0
VERTEX
  5
5F159
100
AcDbEntity
  8
0
100
AcDbVertex
100
AcDbPolygonMeshVertex
 10
3.742
 20
-1.56
 30
3.357
 70
    64
  0
VERTEX
  5
5F15A
100
AcDbEntity
  8
0
100
AcDbVertex
100
AcDbPolygonMeshVertex
 10
3.742
 20
-1.43
 30
3.357
 70
    64
  0
VERTEX
  5
5F15B
100
AcDbEntity
  8
0
100
AcDbVertex
100
AcDbPolygonMeshVertex
 10
3.742
 20
-1.56
 30
4.477
 70
    64
  0
VERTEX
  5
5F15C
100
AcDbEntity
  8
0
100
AcDbVertex
100
AcDbPolygonMeshVertex
 10
3.742
 20
-1.56
 30
4.477
 70
    64
  0
VERTEX
  5
5F15D
100
AcDbEntity
  8
0
100
AcDbVertex
100
AcDbPolygonMeshVertex
 10
3.742
 20
-1.43
 30
4.477
 70
    64
  0
VERTEX
  5
5F15E
100
AcDbEntity
  8
0
100
AcDbVertex
100
AcDbPolygonMeshVertex
 10
3.922
 20
-1.56
 30
4.477
 70
    64
  0
VERTEX
  5
5F15F
100
AcDbEntity
  8
0
100
AcDbVertex
100
AcDbPolygonMeshVertex
 10
3.922
 20
-1.56
 30
4.477
 70
    64
  0
VERTEX
  5
5F160
100
AcDbEntity
  8
0
100
AcDbVertex
100
AcDbPolygonMeshVertex
 10
3.922
 20
-1.43
 30
4.477
 70
    64
  0
SEQEND
  5
5F161
100
AcDbEntity
  8
0
  0
POLYLINE
  5
5F162
100
AcDbEntity
  8
0
100
AcDbPolygonMesh
 66
     1
 10
0.0
 20
0.0
 30
0.0
 70
    16
 71
     6
 72
     3
  0
VERTEX
  5
5F163
100
AcDbEntity
  8
0
100
AcDbVertex
100
AcDbPolygonMeshVertex
 10
2.682
 20
-1.43
 30
4.857
 70
    64
  0
VERTEX
  5
5F164
100
AcDbEntity
  8
0
100
AcDbVertex
100
AcDbPolygonMeshVertex
 10
2.682
 20
-1.43
 30
4.477
 70
    64
  0
VERTEX
  5
5F165
100
AcDbEntity
  8
0
100
AcDbVertex
100
AcDbPolygonMeshVertex
 10
2.682
 20
-1.43
 30
4.477
 70
    64
  0
VERTEX
  5
5F166
100
AcDbEntity
  8
0
100
AcDbVertex
100
AcDbPolygonMeshVertex
 10
2.862
 20
-1.43
 30
4.857
 70
    64
  0
VERTEX
  5
5F167
100
AcDbEntity
  8
0
100
AcDbVertex
100
AcDbPolygonMeshVertex
 10
2.862
 20
-1.43
 30
4.477
 70
    64
  0
VERTEX
  5
5F168
100
AcDbEntity
  8
0
100
AcDbVertex
100
AcDbPolygonMeshVertex
 10
2.862
 20
-1.43
 30
4.477
 70
    64
  0
VERTEX
  5
5F169
100
AcDbEntity
  8
0
100
AcDbVertex
100
AcDbPolygonMeshVertex
 10
2.862
 20
-2.24
 30
4.857
 70
    64
  0
VERTEX
  5
5F16A
100
AcDbEntity
  8
0
100
AcDbVertex
100
AcDbPolygonMeshVertex
 10
2.862
 20
-2.24
 30
4.477
 70
    64
  0
VERTEX
  5
5F16B
100
AcDbEntity
  8
0
100
AcDbVertex
100
AcDbPolygonMeshVertex
 10
2.862
 20
-1.43
 30
4.477
 70
    64
  0
VERTEX
  5
5F16C
100
AcDbEntity
  8
0
100
AcDbVertex
100
AcDbPolygonMeshVertex
 10
2.682
 20
-2.24
 30
4.857
 70
    64
  0
VERTEX
  5
5F16D
100
AcDbEntity
  8
0
100
AcDbVertex
100
AcDbPolygonMeshVertex
 10
2.682
 20
-2.24
 30
4.477
 70
    64
  0
VERTEX
  5
5F16E
100
AcDbEntity
  8
0
100
AcDbVertex
100
AcDbPolygonMeshVertex
 10
2.682
 20
-1.43
 30
4.477
 70
    64
  0
VERTEX
  5
5F16F
100
AcDbEntity
  8
0
100
AcDbVertex
100
AcDbPolygonMeshVertex
 10
2.682
 20
-2.24
 30
4.857
 70
    64
  0
VERTEX
  5
5F170
100
AcDbEntity
  8
0
100
AcDbVertex
100
AcDbPolygonMeshVertex
 10
2.682
 20
-2.24
 30
4.857
 70
    64
  0
VERTEX
  5
5F171
100
AcDbEntity
  8
0
100
AcDbVertex
100
AcDbPolygonMeshVertex
 10
2.682
 20
-1.43
 30
4.857
 70
    64
  0
VERTEX
  5
5F172
100
AcDbEntity
  8
0
100
AcDbVertex
100
AcDbPolygonMeshVertex
 10
2.862
 20
-2.24
 30
4.857
 70
    64
  0
VERTEX
  5
5F173
100
AcDbEntity
  8
0
100
AcDbVertex
100
AcDbPolygonMeshVertex
 10
2.862
 20
-2.24
 30
4.857
 70
    64
  0
VERTEX
  5
5F174
100
AcDbEntity
  8
0
100
AcDbVertex
100
AcDbPolygonMeshVertex
 10
2.862
 20
-1.43
 30
4.857
 70
    64
  0
SEQEND
  5
5F175
100
AcDbEntity
  8
0
  0
POLYLINE
  5
5F176
100
AcDbEntity
  8
0
100
AcDbPolygonMesh
 66
     1
 10
0.0
 20
0.0
 30
0.0
 70
    16
 71
     6
 72
     3
  0
VERTEX
  5
5F177
100
AcDbEntity
  8
0
100
AcDbVertex
100
AcDbPolygonMeshVertex
 10
2.682
 20
-1.43
 30
4.477
 70
    64
  0
VERTEX
  5
5F178
100
AcDbEntity
  8
0
100
AcDbVertex
100
AcDbPolygonMeshVertex
 10
2.682
 20
-1.43
 30
3.357
 70
    64
  0
VERTEX
  5
5F179
100
AcDbEntity
  8
0
100
AcDbVertex
100
AcDbPolygonMeshVertex
 10
2.682
 20
-1.43
 30
3.357
 70
    64
  0
VERTEX
  5
5F17A
100
AcDbEntity
  8
0
100
AcDbVertex
100
AcDbPolygonMeshVertex
 10
2.862
 20
-1.43
 30
4.477
 70
    64
  0
VERTEX
  5
5F17B
100
AcDbEntity
  8
0
100
AcDbVertex
100
AcDbPolygonMeshVertex
 10
2.862
 20
-1.43
 30
3.357
 70
    64
  0
VERTEX
  5
5F17C
100
AcDbEntity
  8
0
100
AcDbVertex
100
AcDbPolygonMeshVertex
 10
2.862
 20
-1.43
 30
3.357
 70
    64
  0
VERTEX
  5
5F17D
100
AcDbEntity
  8
0
100
AcDbVertex
100
AcDbPolygonMeshVertex
 10
2.862
 20
-1.56
 30
4.477
 70
    64
  0
VERTEX
  5
5F17E
100
AcDbEntity
  8
0
100
AcDbVertex
100
AcDbPolygonMeshVertex
 10
2.862
 20
-1.56
 30
3.357
 70
    64
  0
VERTEX
  5
5F17F
100
AcDbEntity
  8
0
100
AcDbVertex
100
AcDbPolygonMeshVertex
 10
2.862
 20
-1.43
 30
3.357
 70
    64
  0
VERTEX
  5
5F180
100
AcDbEntity
  8
0
100
AcDbVertex
100
AcDbPolygonMeshVertex
 10
2.682
 20
-1.56
 30
4.477
 70
    64
  0
VERTEX
  5
5F181
100
AcDbEntity
  8
0
100
AcDbVertex
100
AcDbPolygonMeshVertex
 10
2.682
 20
-1.56
 30
3.357
 70
    64
  0
VERTEX
  5
5F182
100
AcDbEntity
  8
0
100
AcDbVertex
100
AcDbPolygonMeshVertex
 10
2.682
 20
-1.43
 30
3.357
 70
    64
  0
VERTEX
  5
5F183
100
AcDbEntity
  8
0
100
AcDbVertex
100
AcDbPolygonMeshVertex
 10
2.682
 20
-1.56
 30
4.477
 70
    64
  0
VERTEX
  5
5F184
100
AcDbEntity
  8
0
100
AcDbVertex
100
AcDbPolygonMeshVertex
 10
2.682
 20
-1.56
 30
4.477
 70
    64
  0
VERTEX
  5
5F185
100
AcDbEntity
  8
0
100
AcDbVertex
100
AcDbPolygonMeshVertex
 10
2.682
 20
-1.43
 30
4.477
 70
    64
  0
VERTEX
  5
5F186
100
AcDbEntity
  8
0
100
AcDbVertex
100
AcDbPolygonMeshVertex
 10
2.862
 20
-1.56
 30
4.477
 70
    64
  0
VERTEX
  5
5F187
100
AcDbEntity
  8
0
100
AcDbVertex
100
AcDbPolygonMeshVertex
 10
2.862
 20
-1.56
 30
4.477
 70
    64
  0
VERTEX
  5
5F188
100
AcDbEntity
  8
0
100
AcDbVertex
100
AcDbPolygonMeshVertex
 10
2.862
 20
-1.43
 30
4.477
 70
    64
  0
SEQEND
  5
5F189
100
AcDbEntity
  8
0
  0
POLYLINE
  5
5F18A
100
AcDbEntity
  8
0
100
AcDbPolygonMesh
 66
     1
 10
0.0
 20
0.0
 30
0.0
 70
    16
 71
     6
 72
     3
  0
VERTEX
  5
5F18B
100
AcDbEntity
  8
0
100
AcDbVertex
100
AcDbPolygonMeshVertex
 10
4.112
 20
-1.65
 30
4.667
 70
    64
  0
VERTEX
  5
5F18C
100
AcDbEntity
  8
0
100
AcDbVertex
100
AcDbPolygonMeshVertex
 10
4.112
 20
-1.65
 30
4.477
 70
    64
  0
VERTEX
  5
5F18D
100
AcDbEntity
  8
0
100
AcDbVertex
100
AcDbPolygonMeshVertex
 10
4.112
 20
-1.65
 30
4.477
 70
    64
  0
VERTEX
  5
5F18E
100
AcDbEntity
  8
0
100
AcDbVertex
100
AcDbPolygonMeshVertex
 10
4.612
 20
-1.65
 30
4.667
 70
    64
  0
VERTEX
  5
5F18F
100
AcDbEntity
  8
0
100
AcDbVertex
100
AcDbPolygonMeshVertex
 10
4.612
 20
-1.65
 30
4.477
 70
    64
  0
VERTEX
  5
5F190
100
AcDbEntity
  8
0
100
AcDbVertex
100
AcDbPolygonMeshVertex
 10
4.612
 20
-1.65
 30
4.477
 70
    64
  0
VERTEX
  5
5F191
100
AcDbEntity
  8
0
100
AcDbVertex
100
AcDbPolygonMeshVertex
 10
4.612
 20
-2.06
 30
4.667
 70
    64
  0
VERTEX
  5
5F192
100
AcDbEntity
  8
0
100
AcDbVertex
100
AcDbPolygonMeshVertex
 10
4.612
 20
-2.06
 30
4.477
 70
    64
  0
VERTEX
  5
5F193
100
AcDbEntity
  8
0
100
AcDbVertex
100
AcDbPolygonMeshVertex
 10
4.612
 20
-1.65
 30
4.477
 70
    64
  0
VERTEX
  5
5F194
100
AcDbEntity
  8
0
100
AcDbVertex
100
AcDbPolygonMeshVertex
 10
4.112
 20
-2.06
 30
4.667
 70
    64
  0
VERTEX
  5
5F195
100
AcDbEntity
  8
0
100
AcDbVertex
100
AcDbPolygonMeshVertex
 10
4.112
 20
-2.06
 30
4.477
 70
    64
  0
VERTEX
  5
5F196
100
AcDbEntity
  8
0
100
AcDbVertex
100
AcDbPolygonMeshVertex
 10
4.112
 20
-1.65
 30
4.477
 70
    64
  0
VERTEX
  5
5F197
100
AcDbEntity
  8
0
100
AcDbVertex
100
AcDbPolygonMeshVertex
 10
4.112
 20
-2.06
 30
4.667
 70
    64
  0
VERTEX
  5
5F198
100
AcDbEntity
  8
0
100
AcDbVertex
100
AcDbPolygonMeshVertex
 10
4.112
 20
-2.06
 30
4.667
 70
    64
  0
VERTEX
  5
5F199
100
AcDbEntity
  8
0
100
AcDbVertex
100
AcDbPolygonMeshVertex
 10
4.112
 20
-1.65
 30
4.667
 70
    64
  0
VERTEX
  5
5F19A
100
AcDbEntity
  8
0
100
AcDbVertex
100
AcDbPolygonMeshVertex
 10
4.612
 20
-2.06
 30
4.667
 70
    64
  0
VERTEX
  5
5F19B
100
AcDbEntity
  8
0
100
AcDbVertex
100
AcDbPolygonMeshVertex
 10
4.612
 20
-2.06
 30
4.667
 70
    64
  0
VERTEX
  5
5F19C
100
AcDbEntity
  8
0
100
AcDbVertex
100
AcDbPolygonMeshVertex
 10
4.612
 20
-1.65
 30
4.667
 70
    64
  0
SEQEND
  5
5F19D
100
AcDbEntity
  8
0
  0
LINE
  5
5F19E
100
AcDbEntity
  8
0
100
AcDbLine
 10
3.166278
 20
-1.987964
 30
4.667
 11
3.397529
 21
-1.690762
 31
4.667
  0
LINE
  5
5F19F
100
AcDbEntity
  8
0
100
AcDbLine
 10
3.206965
 20
-2.018318
 30
4.667
 11
3.438216
 21
-1.721115
 31
4.667
  0
CIRCLE
  5
5F1A0
100
AcDbEntity
  8
0
100
AcDbCircle
 10
3.302
 20
-1.855
 30
4.667
 40
0.19
  0
POLYLINE
  5
5F1A1
100
AcDbEntity
  8
0
100
AcDbPolygonMesh
 66
     1
 10
0.0
 20
0.0
 30
0.0
 70
    16
 71
     6
 72
     3
  0
VERTEX
  5
5F1A2
100
AcDbEntity
  8
0
100
AcDbVertex
100
AcDbPolygonMeshVertex
 10
3.052
 20
-1.65
 30
4.667
 70
    64
  0
VERTEX
  5
5F1A3
100
AcDbEntity
  8
0
100
AcDbVertex
100
AcDbPolygonMeshVertex
 10
3.052
 20
-1.65
 30
4.477
 70
    64
  0
VERTEX
  5
5F1A4
100
AcDbEntity
  8
0
100
AcDbVertex
100
AcDbPolygonMeshVertex
 10
3.052
 20
-1.65
 30
4.477
 70
    64
  0
VERTEX
  5
5F1A5
100
AcDbEntity
  8
0
100
AcDbVertex
100
AcDbPolygonMeshVertex
 10
3.552
 20
-1.65
 30
4.667
 70
    64
  0
VERTEX
  5
5F1A6
100
AcDbEntity
  8
0
100
AcDbVertex
100
AcDbPolygonMeshVertex
 10
3.552
 20
-1.65
 30
4.477
 70
    64
  0
VERTEX
  5
5F1A7
100
AcDbEntity
  8
0
100
AcDbVertex
100
AcDbPolygonMeshVertex
 10
3.552
 20
-1.65
 30
4.477
 70
    64
  0
VERTEX
  5
5F1A8
100
AcDbEntity
  8
0
100
AcDbVertex
100
AcDbPolygonMeshVertex
 10
3.552
 20
-2.06
 30
4.667
 70
    64
  0
VERTEX
  5
5F1A9
100
AcDbEntity
  8
0
100
AcDbVertex
100
AcDbPolygonMeshVertex
 10
3.552
 20
-2.06
 30
4.477
 70
    64
  0
VERTEX
  5
5F1AA
100
AcDbEntity
  8
0
100
AcDbVertex
100
AcDbPolygonMeshVertex
 10
3.552
 20
-1.65
 30
4.477
 70
    64
  0
VERTEX
  5
5F1AB
100
AcDbEntity
  8
0
100
AcDbVertex
100
AcDbPolygonMeshVertex
 10
3.052
 20
-2.06
 30
4.667
 70
    64
  0
VERTEX
  5
5F1AC
100
AcDbEntity
  8
0
100
AcDbVertex
100
AcDbPolygonMeshVertex
 10
3.052
 20
-2.06
 30
4.477
 70
    64
  0
VERTEX
  5
5F1AD
100
AcDbEntity
  8
0
100
AcDbVertex
100
AcDbPolygonMeshVertex
 10
3.052
 20
-1.65
 30
4.477
 70
    64
  0
VERTEX
  5
5F1AE
100
AcDbEntity
  8
0
100
AcDbVertex
100
AcDbPolygonMeshVertex
 10
3.052
 20
-2.06
 30
4.667
 70
    64
  0
VERTEX
  5
5F1AF
100
AcDbEntity
  8
0
100
AcDbVertex
100
AcDbPolygonMeshVertex
 10
3.052
 20
-2.06
 30
4.667
 70
    64
  0
VERTEX
  5
5F1B0
100
AcDbEntity
  8
0
100
AcDbVertex
100
AcDbPolygonMeshVertex
 10
3.052
 20
-1.65
 30
4.667
 70
    64
  0
VERTEX
  5
5F1B1
100
AcDbEntity
  8
0
100
AcDbVertex
100
AcDbPolygonMeshVertex
 10
3.552
 20
-2.06
 30
4.667
 70
    64
  0
VERTEX
  5
5F1B2
100
AcDbEntity
  8
0
100
AcDbVertex
100
AcDbPolygonMeshVertex
 10
3.552
 20
-2.06
 30
4.667
 70
    64
  0
VERTEX
  5
5F1B3
100
AcDbEntity
  8
0
100
AcDbVertex
100
AcDbPolygonMeshVertex
 10
3.552
 20
-1.65
 30
4.667
 70
    64
  0
SEQEND
  5
5F1B4
100
AcDbEntity
  8
0
  0
LINE
  5
5F1B5
100
AcDbEntity
  8
0
100
AcDbLine
 10
2.106278
 20
-1.987964
 30
4.667
 11
2.337529
 21
-1.690762
 31
4.667
  0
LINE
  5
5F1B6
100
AcDbEntity
  8
0
100
AcDbLine
 10
2.146965
 20
-2.018318
 30
4.667
 11
2.378216
 21
-1.721115
 31
4.667
  0
CIRCLE
  5
5F1B7
100
AcDbEntity
  8
0
100
AcDbCircle
 10
2.242
 20
-1.855
 30
4.667
 40
0.19
  0
POLYLINE
  5
5F1B8
100
AcDbEntity
  8
0
100
AcDbPolygonMesh
 66
     1
 10
0.0
 20
0.0
 30
0.0
 70
    16
 71
     6
 72
     3
  0
VERTEX
  5
5F1B9
100
AcDbEntity
  8
0
100
AcDbVertex
100
AcDbPolygonMeshVertex
 10
1.992
 20
-1.65
 30
4.667
 70
    64
  0
VERTEX
  5
5F1BA
100
AcDbEntity
  8
0
100
AcDbVertex
100
AcDbPolygonMeshVertex
 10
1.992
 20
-1.65
 30
4.477
 70
    64
  0
VERTEX
  5
5F1BB
100
AcDbEntity
  8
0
100
AcDbVertex
100
AcDbPolygonMeshVertex
 10
1.992
 20
-1.65
 30
4.477
 70
    64
  0
VERTEX
  5
5F1BC
100
AcDbEntity
  8
0
100
AcDbVertex
100
AcDbPolygonMeshVertex
 10
2.492
 20
-1.65
 30
4.667
 70
    64
  0
VERTEX
  5
5F1BD
100
AcDbEntity
  8
0
100
AcDbVertex
100
AcDbPolygonMeshVertex
 10
2.492
 20
-1.65
 30
4.477
 70
    64
  0
VERTEX
  5
5F1BE
100
AcDbEntity
  8
0
100
AcDbVertex
100
AcDbPolygonMeshVertex
 10
2.492
 20
-1.65
 30
4.477
 70
    64
  0
VERTEX
  5
5F1BF
100
AcDbEntity
  8
0
100
AcDbVertex
100
AcDbPolygonMeshVertex
 10
2.492
 20
-2.06
 30
4.667
 70
    64
  0
VERTEX
  5
5F1C0
100
AcDbEntity
  8
0
100
AcDbVertex
100
AcDbPolygonMeshVertex
 10
2.492
 20
-2.06
 30
4.477
 70
    64
  0
VERTEX
  5
5F1C1
100
AcDbEntity
  8
0
100
AcDbVertex
100
AcDbPolygonMeshVertex
 10
2.492
 20
-1.65
 30
4.477
 70
    64
  0
VERTEX
  5
5F1C2
100
AcDbEntity
  8
0
100
AcDbVertex
100
AcDbPolygonMeshVertex
 10
1.992
 20
-2.06
 30
4.667
 70
    64
  0
VERTEX
  5
5F1C3
100
AcDbEntity
  8
0
100
AcDbVertex
100
AcDbPolygonMeshVertex
 10
1.992
 20
-2.06
 30
4.477
 70
    64
  0
VERTEX
  5
5F1C4
100
AcDbEntity
  8
0
100
AcDbVertex
100
AcDbPolygonMeshVertex
 10
1.992
 20
-1.65
 30
4.477
 70
    64
  0
VERTEX
  5
5F1C5
100
AcDbEntity
  8
0
100
AcDbVertex
100
AcDbPolygonMeshVertex
 10
1.992
 20
-2.06
 30
4.667
 70
    64
  0
VERTEX
  5
5F1C6
100
AcDbEntity
  8
0
100
AcDbVertex
100
AcDbPolygonMeshVertex
 10
1.992
 20
-2.06
 30
4.667
 70
    64
  0
VERTEX
  5
5F1C7
100
AcDbEntity
  8
0
100
AcDbVertex
100
AcDbPolygonMeshVertex
 10
1.992
 20
-1.65
 30
4.667
 70
    64
  0
VERTEX
  5
5F1C8
100
AcDbEntity
  8
0
100
AcDbVertex
100
AcDbPolygonMeshVertex
 10
2.492
 20
-2.06
 30
4.667
 70
    64
  0
VERTEX
  5
5F1C9
100
AcDbEntity
  8
0
100
AcDbVertex
100
AcDbPolygonMeshVertex
 10
2.492
 20
-2.06
 30
4.667
 70
    64
  0
VERTEX
  5
5F1CA
100
AcDbEntity
  8
0
100
AcDbVertex
100
AcDbPolygonMeshVertex
 10
2.492
 20
-1.65
 30
4.667
 70
    64
  0
SEQEND
  5
5F1CB
100
AcDbEntity
  8
0
  0
POLYLINE
  5
5F1CC
100
AcDbEntity
  8
0
100
AcDbPolygonMesh
 66
     1
 10
0.0
 20
0.0
 30
0.0
 70
    16
 71
     6
 72
     3
  0
VERTEX
  5
5F1CD
100
AcDbEntity
  8
0
100
AcDbVertex
100
AcDbPolygonMeshVertex
 10
1.992
 20
-1.09
 30
1.857
 70
    64
  0
VERTEX
  5
5F1CE
100
AcDbEntity
  8
0
100
AcDbVertex
100
AcDbPolygonMeshVertex
 10
1.992
 20
-1.09
 30
1.547
 70
    64
  0
VERTEX
  5
5F1CF
100
AcDbEntity
  8
0
100
AcDbVertex
100
AcDbPolygonMeshVertex
 10
1.992
 20
-1.09
 30
1.547
 70
    64
  0
VERTEX
  5
5F1D0
100
AcDbEntity
  8
0
100
AcDbVertex
100
AcDbPolygonMeshVertex
 10
2.492
 20
-1.09
 30
1.857
 70
    64
  0
VERTEX
  5
5F1D1
100
AcDbEntity
  8
0
100
AcDbVertex
100
AcDbPolygonMeshVertex
 10
2.492
 20
-1.09
 30
1.547
 70
    64
  0
VERTEX
  5
5F1D2
100
AcDbEntity
  8
0
100
AcDbVertex
100
AcDbPolygonMeshVertex
 10
2.492
 20
-1.09
 30
1.547
 70
    64
  0
VERTEX
  5
5F1D3
100
AcDbEntity
  8
0
100
AcDbVertex
100
AcDbPolygonMeshVertex
 10
2.492
 20
-1.56
 30
1.857
 70
    64
  0
VERTEX
  5
5F1D4
100
AcDbEntity
  8
0
100
AcDbVertex
100
AcDbPolygonMeshVertex
 10
2.492
 20
-1.56
 30
1.547
 70
    64
  0
VERTEX
  5
5F1D5
100
AcDbEntity
  8
0
100
AcDbVertex
100
AcDbPolygonMeshVertex
 10
2.492
 20
-1.09
 30
1.547
 70
    64
  0
VERTEX
  5
5F1D6
100
AcDbEntity
  8
0
100
AcDbVertex
100
AcDbPolygonMeshVertex
 10
1.992
 20
-1.56
 30
1.857
 70
    64
  0
VERTEX
  5
5F1D7
100
AcDbEntity
  8
0
100
AcDbVertex
100
AcDbPolygonMeshVertex
 10
1.992
 20
-1.56
 30
1.547
 70
    64
  0
VERTEX
  5
5F1D8
100
AcDbEntity
  8
0
100
AcDbVertex
100
AcDbPolygonMeshVertex
 10
1.992
 20
-1.09
 30
1.547
 70
    64
  0
VERTEX
  5
5F1D9
100
AcDbEntity
  8
0
100
AcDbVertex
100
AcDbPolygonMeshVertex
 10
1.992
 20
-1.56
 30
1.857
 70
    64
  0
VERTEX
  5
5F1DA
100
AcDbEntity
  8
0
100
AcDbVertex
100
AcDbPolygonMeshVertex
 10
1.992
 20
-1.56
 30
1.857
 70
    64
  0
VERTEX
  5
5F1DB
100
AcDbEntity
  8
0
100
AcDbVertex
100
AcDbPolygonMeshVertex
 10
1.992
 20
-1.09
 30
1.857
 70
    64
  0
VERTEX
  5
5F1DC
100
AcDbEntity
  8
0
100
AcDbVertex
100
AcDbPolygonMeshVertex
 10
2.492
 20
-1.56
 30
1.857
 70
    64
  0
VERTEX
  5
5F1DD
100
AcDbEntity
  8
0
100
AcDbVertex
100
AcDbPolygonMeshVertex
 10
2.492
 20
-1.56
 30
1.857
 70
    64
  0
VERTEX
  5
5F1DE
100
AcDbEntity
  8
0
100
AcDbVertex
100
AcDbPolygonMeshVertex
 10
2.492
 20
-1.09
 30
1.857
 70
    64
  0
SEQEND
  5
5F1DF
100
AcDbEntity
  8
0
  0
POLYLINE
  5
5F1E0
100
AcDbEntity
  8
0
100
AcDbPolygonMesh
 66
     1
 10
0.0
 20
0.0
 30
0.0
 70
    16
 71
     6
 72
     3
  0
VERTEX
  5
5F1E1
100
AcDbEntity
  8
0
100
AcDbVertex
100
AcDbPolygonMeshVertex
 10
3.052
 20
-1.09
 30
1.857
 70
    64
  0
VERTEX
  5
5F1E2
100
AcDbEntity
  8
0
100
AcDbVertex
100
AcDbPolygonMeshVertex
 10
3.052
 20
-1.09
 30
1.547
 70
    64
  0
VERTEX
  5
5F1E3
100
AcDbEntity
  8
0
100
AcDbVertex
100
AcDbPolygonMeshVertex
 10
3.052
 20
-1.09
 30
1.547
 70
    64
  0
VERTEX
  5
5F1E4
100
AcDbEntity
  8
0
100
AcDbVertex
100
AcDbPolygonMeshVertex
 10
3.552
 20
-1.09
 30
1.857
 70
    64
  0
VERTEX
  5
5F1E5
100
AcDbEntity
  8
0
100
AcDbVertex
100
AcDbPolygonMeshVertex
 10
3.552
 20
-1.09
 30
1.547
 70
    64
  0
VERTEX
  5
5F1E6
100
AcDbEntity
  8
0
100
AcDbVertex
100
AcDbPolygonMeshVertex
 10
3.552
 20
-1.09
 30
1.547
 70
    64
  0
VERTEX
  5
5F1E7
100
AcDbEntity
  8
0
100
AcDbVertex
100
AcDbPolygonMeshVertex
 10
3.552
 20
-1.56
 30
1.857
 70
    64
  0
VERTEX
  5
5F1E8
100
AcDbEntity
  8
0
100
AcDbVertex
100
AcDbPolygonMeshVertex
 10
3.552
 20
-1.56
 30
1.547
 70
    64
  0
VERTEX
  5
5F1E9
100
AcDbEntity
  8
0
100
AcDbVertex
100
AcDbPolygonMeshVertex
 10
3.552
 20
-1.09
 30
1.547
 70
    64
  0
VERTEX
  5
5F1EA
100
AcDbEntity
  8
0
100
AcDbVertex
100
AcDbPolygonMeshVertex
 10
3.052
 20
-1.56
 30
1.857
 70
    64
  0
VERTEX
  5
5F1EB
100
AcDbEntity
  8
0
100
AcDbVertex
100
AcDbPolygonMeshVertex
 10
3.052
 20
-1.56
 30
1.547
 70
    64
  0
VERTEX
  5
5F1EC
100
AcDbEntity
  8
0
100
AcDbVertex
100
AcDbPolygonMeshVertex
 10
3.052
 20
-1.09
 30
1.547
 70
    64
  0
VERTEX
  5
5F1ED
100
AcDbEntity
  8
0
100
AcDbVertex
100
AcDbPolygonMeshVertex
 10
3.052
 20
-1.56
 30
1.857
 70
    64
  0
VERTEX
  5
5F1EE
100
AcDbEntity
  8
0
100
AcDbVertex
100
AcDbPolygonMeshVertex
 10
3.052
 20
-1.56
 30
1.857
 70
    64
  0
VERTEX
  5
5F1EF
100
AcDbEntity
  8
0
100
AcDbVertex
100
AcDbPolygonMeshVertex
 10
3.052
 20
-1.09
 30
1.857
 70
    64
  0
VERTEX
  5
5F1F0
100
AcDbEntity
  8
0
100
AcDbVertex
100
AcDbPolygonMeshVertex
 10
3.552
 20
-1.56
 30
1.857
 70
    64
  0
VERTEX
  5
5F1F1
100
AcDbEntity
  8
0
100
AcDbVertex
100
AcDbPolygonMeshVertex
 10
3.552
 20
-1.56
 30
1.857
 70
    64
  0
VERTEX
  5
5F1F2
100
AcDbEntity
  8
0
100
AcDbVertex
100
AcDbPolygonMeshVertex
 10
3.552
 20
-1.09
 30
1.857
 70
    64
  0
SEQEND
  5
5F1F3
100
AcDbEntity
  8
0
  0
CIRCLE
  5
5F1F4
100
AcDbEntity
  8
0
100
AcDbCircle
 10
3.302
 20
-1.325
 30
1.867
 40
0.19
  0
POLYLINE
  5
5F1F5
100
AcDbEntity
  8
0
100
AcDbPolygonMesh
 66
     1
 10
0.0
 20
0.0
 30
0.0
 70
    16
 71
     6
 72
     3
  0
VERTEX
  5
5F1F6
100
AcDbEntity
  8
0
100
AcDbVertex
100
AcDbPolygonMeshVertex
 10
4.112
 20
-1.09
 30
1.857
 70
    64
  0
VERTEX
  5
5F1F7
100
AcDbEntity
  8
0
100
AcDbVertex
100
AcDbPolygonMeshVertex
 10
4.112
 20
-1.09
 30
1.547
 70
    64
  0
VERTEX
  5
5F1F8
100
AcDbEntity
  8
0
100
AcDbVertex
100
AcDbPolygonMeshVertex
 10
4.112
 20
-1.09
 30
1.547
 70
    64
  0
VERTEX
  5
5F1F9
100
AcDbEntity
  8
0
100
AcDbVertex
100
AcDbPolygonMeshVertex
 10
4.612
 20
-1.09
 30
1.857
 70
    64
  0
VERTEX
  5
5F1FA
100
AcDbEntity
  8
0
100
AcDbVertex
100
AcDbPolygonMeshVertex
 10
4.612
 20
-1.09
 30
1.547
 70
    64
  0
VERTEX
  5
5F1FB
100
AcDbEntity
  8
0
100
AcDbVertex
100
AcDbPolygonMeshVertex
 10
4.612
 20
-1.09
 30
1.547
 70
    64
  0
VERTEX
  5
5F1FC
100
AcDbEntity
  8
0
100
AcDbVertex
100
AcDbPolygonMeshVertex
 10
4.612
 20
-1.56
 30
1.857
 70
    64
  0
VERTEX
  5
5F1FD
100
AcDbEntity
  8
0
100
AcDbVertex
100
AcDbPolygonMeshVertex
 10
4.612
 20
-1.56
 30
1.547
 70
    64
  0
VERTEX
  5
5F1FE
100
AcDbEntity
  8
0
100
AcDbVertex
100
AcDbPolygonMeshVertex
 10
4.612
 20
-1.09
 30
1.547
 70
    64
  0
VERTEX
  5
5F1FF
100
AcDbEntity
  8
0
100
AcDbVertex
100
AcDbPolygonMeshVertex
 10
4.112
 20
-1.56
 30
1.857
 70
    64
  0
VERTEX
  5
5F200
100
AcDbEntity
  8
0
100
AcDbVertex
100
AcDbPolygonMeshVertex
 10
4.112
 20
-1.56
 30
1.547
 70
    64
  0
VERTEX
  5
5F201
100
AcDbEntity
  8
0
100
AcDbVertex
100
AcDbPolygonMeshVertex
 10
4.112
 20
-1.09
 30
1.547
 70
    64
  0
VERTEX
  5
5F202
100
AcDbEntity
  8
0
100
AcDbVertex
100
AcDbPolygonMeshVertex
 10
4.112
 20
-1.56
 30
1.857
 70
    64
  0
VERTEX
  5
5F203
100
AcDbEntity
  8
0
100
AcDbVertex
100
AcDbPolygonMeshVertex
 10
4.112
 20
-1.56
 30
1.857
 70
    64
  0
VERTEX
  5
5F204
100
AcDbEntity
  8
0
100
AcDbVertex
100
AcDbPolygonMeshVertex
 10
4.112
 20
-1.09
 30
1.857
 70
    64
  0
VERTEX
  5
5F205
100
AcDbEntity
  8
0
100
AcDbVertex
100
AcDbPolygonMeshVertex
 10
4.612
 20
-1.56
 30
1.857
 70
    64
  0
VERTEX
  5
5F206
100
AcDbEntity
  8
0
100
AcDbVertex
100
AcDbPolygonMeshVertex
 10
4.612
 20
-1.56
 30
1.857
 70
    64
  0
VERTEX
  5
5F207
100
AcDbEntity
  8
0
100
AcDbVertex
100
AcDbPolygonMeshVertex
 10
4.612
 20
-1.09
 30
1.857
 70
    64
  0
SEQEND
  5
5F208
100
AcDbEntity
  8
0
  0
CIRCLE
  5
5F209
100
AcDbEntity
  8
0
100
AcDbCircle
 10
4.362
 20
-1.325
 30
1.867
 40
0.19
  0
POLYLINE
  5
5F20A
100
AcDbEntity
  8
0
100
AcDbPolygonMesh
 66
     1
 10
0.0
 20
0.0
 30
0.0
 70
    16
 71
     6
 72
     3
  0
VERTEX
  5
5F20B
100
AcDbEntity
  8
0
100
AcDbVertex
100
AcDbPolygonMeshVertex
 10
5.077
 20
-8.4
 30
0.577
 70
    64
  0
VERTEX
  5
5F20C
100
AcDbEntity
  8
0
100
AcDbVertex
100
AcDbPolygonMeshVertex
 10
5.077
 20
-8.4
 30
0.387
 70
    64
  0
VERTEX
  5
5F20D
100
AcDbEntity
  8
0
100
AcDbVertex
100
AcDbPolygonMeshVertex
 10
5.077
 20
-8.4
 30
0.387
 70
    64
  0
VERTEX
  5
5F20E
100
AcDbEntity
  8
0
100
AcDbVertex
100
AcDbPolygonMeshVertex
 10
1.517
 20
-8.4
 30
0.577
 70
    64
  0
VERTEX
  5
5F20F
100
AcDbEntity
  8
0
100
AcDbVertex
100
AcDbPolygonMeshVertex
 10
1.517
 20
-8.4
 30
0.387
 70
    64
  0
VERTEX
  5
5F210
100
AcDbEntity
  8
0
100
AcDbVertex
100
AcDbPolygonMeshVertex
 10
1.517
 20
-8.4
 30
0.387
 70
    64
  0
VERTEX
  5
5F211
100
AcDbEntity
  8
0
100
AcDbVertex
100
AcDbPolygonMeshVertex
 10
1.517
 20
-1.4
 30
0.577
 70
    64
  0
VERTEX
  5
5F212
100
AcDbEntity
  8
0
100
AcDbVertex
100
AcDbPolygonMeshVertex
 10
1.517
 20
-1.4
 30
0.387
 70
    64
  0
VERTEX
  5
5F213
100
AcDbEntity
  8
0
100
AcDbVertex
100
AcDbPolygonMeshVertex
 10
1.517
 20
-8.4
 30
0.387
 70
    64
  0
VERTEX
  5
5F214
100
AcDbEntity
  8
0
100
AcDbVertex
100
AcDbPolygonMeshVertex
 10
5.077
 20
-1.4
 30
0.577
 70
    64
  0
VERTEX
  5
5F215
100
AcDbEntity
  8
0
100
AcDbVertex
100
AcDbPolygonMeshVertex
 10
5.077
 20
-1.4
 30
0.387
 70
    64
  0
VERTEX
  5
5F216
100
AcDbEntity
  8
0
100
AcDbVertex
100
AcDbPolygonMeshVertex
 10
5.077
 20
-8.4
 30
0.387
 70
    64
  0
VERTEX
  5
5F217
100
AcDbEntity
  8
0
100
AcDbVertex
100
AcDbPolygonMeshVertex
 10
5.077
 20
-1.4
 30
0.577
 70
    64
  0
VERTEX
  5
5F218
100
AcDbEntity
  8
0
100
AcDbVertex
100
AcDbPolygonMeshVertex
 10
5.077
 20
-1.4
 30
0.577
 70
    64
  0
VERTEX
  5
5F219
100
AcDbEntity
  8
0
100
AcDbVertex
100
AcDbPolygonMeshVertex
 10
5.077
 20
-8.4
 30
0.577
 70
    64
  0
VERTEX
  5
5F21A
100
AcDbEntity
  8
0
100
AcDbVertex
100
AcDbPolygonMeshVertex
 10
1.517
 20
-1.4
 30
0.577
 70
    64
  0
VERTEX
  5
5F21B
100
AcDbEntity
  8
0
100
AcDbVertex
100
AcDbPolygonMeshVertex
 10
1.517
 20
-1.4
 30
0.577
 70
    64
  0
VERTEX
  5
5F21C
100
AcDbEntity
  8
0
100
AcDbVertex
100
AcDbPolygonMeshVertex
 10
1.517
 20
-8.4
 30
0.577
 70
    64
  0
SEQEND
  5
5F21D
100
AcDbEntity
  8
0
  0
LINE
  5
5F21E
100
AcDbEntity
  8
0
100
AcDbLine
 10
2.022
 20
-8.4
 30
0.577
 11
2.022
 21
-8.4
 31
0.387
  0
3DFACE
  5
5F21F
100
AcDbEntity
  8
0
100
AcDbFace
 10
5.077
 20
-1.4
 30
0.577
 11
4.457
 21
-0.78
 31
0.577
 12
3.017
 22
-0.78
 32
0.577
 13
2.917
 23
-1.06
 33
0.577
 70
     8
  0
3DFACE
  5
5F220
100
AcDbEntity
  8
0
100
AcDbFace
 10
2.427
 20
-1.06
 30
0.577
 11
2.327
 21
-0.78
 31
0.577
 12
2.137
 22
-0.78
 32
0.577
 13
1.517
 23
-1.4
 33
0.577
 70
     8
  0
3DFACE
  5
5F221
100
AcDbEntity
  8
0
100
AcDbFace
 10
2.427
 20
-1.06
 30
0.577
 11
1.517
 21
-1.4
 31
0.577
 12
5.077
 22
-1.4
 32
0.577
 13
2.917
 23
-1.06
 33
0.577
 70
    15
  0
3DFACE
  5
5F222
100
AcDbEntity
  8
0
100
AcDbFace
 10
2.427
 20
-1.06
 30
0.387
 11
1.517
 21
-1.4
 31
0.387
 12
5.077
 22
-1.4
 32
0.387
 13
2.917
 23
-1.06
 33
0.387
 70
    15
  0
3DFACE
  5
5F223
100
AcDbEntity
  8
0
100
AcDbFace
 10
5.077
 20
-1.4
 30
0.387
 11
4.457
 21
-0.78
 31
0.387
 12
3.017
 22
-0.78
 32
0.387
 13
2.917
 23
-1.06
 33
0.387
 70
     8
  0
3DFACE
  5
5F224
100
AcDbEntity
  8
0
100
AcDbFace
 10
2.427
 20
-1.06
 30
0.387
 11
2.327
 21
-0.78
 31
0.387
 12
2.137
 22
-0.78
 32
0.387
 13
1.517
 23
-1.4
 33
0.387
 70
     8
  0
3DFACE
  5
5F225
100
AcDbEntity
  8
0
100
AcDbFace
 10
5.077
 20
-1.4
 30
0.387
 11
5.077
 21
-1.4
 31
0.577
 12
4.457
 22
-0.78
 32
0.577
 13
4.457
 23
-0.78
 33
0.387
  0
3DFACE
  5
5F226
100
AcDbEntity
  8
0
100
AcDbFace
 10
4.457
 20
-0.78
 30
0.577
 11
3.017
 21
-0.78
 31
0.577
 12
3.017
 22
-0.78
 32
0.387
 13
4.457
 23
-0.78
 33
0.387
  0
3DFACE
  5
5F227
100
AcDbEntity
  8
0
100
AcDbFace
 10
2.427
 20
-1.06
 30
0.577
 11
2.427
 21
-1.06
 31
0.387
 12
2.327
 22
-0.78
 32
0.387
 13
2.327
 23
-0.78
 33
0.577
  0
3DFACE
  5
5F228
100
AcDbEntity
  8
0
100
AcDbFace
 10
2.917
 20
-1.06
 30
0.577
 11
2.917
 21
-1.06
 31
0.387
 12
2.427
 22
-1.06
 32
0.387
 13
2.427
 23
-1.06
 33
0.577
  0
3DFACE
  5
5F229
100
AcDbEntity
  8
0
100
AcDbFace
 10
2.327
 20
-0.78
 30
0.577
 11
2.327
 21
-0.78
 31
0.387
 12
2.137
 22
-0.78
 32
0.387
 13
2.137
 23
-0.78
 33
0.577
  0
3DFACE
  5
5F22A
100
AcDbEntity
  8
0
100
AcDbFace
 10
2.917
 20
-1.06
 30
0.577
 11
2.917
 21
-1.06
 31
0.387
 12
3.017
 22
-0.78
 32
0.387
 13
3.017
 23
-0.78
 33
0.577
  0
3DFACE
  5
5F22B
100
AcDbEntity
  8
0
100
AcDbFace
 10
2.137
 20
-0.78
 30
0.387
 11
2.137
 21
-0.78
 31
0.577
 12
1.517
 22
-1.4
 32
0.577
 13
1.517
 23
-1.4
 33
0.387
  0
LINE
  5
5F22C
100
AcDbEntity
  8
0
100
AcDbLine
 10
-3.378
 20
-5.88
 30
2.007
 11
-3.378
 21
-5.88
 31
3.237
  0
LINE
  5
5F22D
100
AcDbEntity
  8
0
100
AcDbLine
 10
-2.978
 20
-8.4
 30
0.387
 11
-2.978
 21
-8.15
 31
0.387
  0
LINE
  5
5F22E
100
AcDbEntity
  8
0
100
AcDbLine
 10
-2.978
 20
-8.4
 30
0.577
 11
-2.978
 21
-8.15
 31
0.577
  0
LINE
  5
5F22F
100
AcDbEntity
  8
0
100
AcDbLine
 10
-3.178
 20
-8.15
 30
0.387
 11
-3.178
 21
-8.4
 31
0.387
  0
LINE
  5
5F230
100
AcDbEntity
  8
0
100
AcDbLine
 10
-3.178
 20
-8.15
 30
0.577
 11
-3.178
 21
-8.4
 31
0.577
  0
LINE
  5
5F231
100
AcDbEntity
  8
0
100
AcDbLine
 10
-3.178
 20
-8.4
 30
0.387
 11
-3.178
 21
-8.4
 31
0.577
  0
LINE
  5
5F232
100
AcDbEntity
  8
0
100
AcDbLine
 10
-2.978
 20
-8.15
 30
0.387
 11
-2.978
 21
-8.15
 31
0.577
  0
LINE
  5
5F233
100
AcDbEntity
  8
0
100
AcDbLine
 10
-3.178
 20
-8.15
 30
0.387
 11
-3.178
 21
-8.15
 31
0.577
  0
ARC
  5
5F234
100
AcDbEntity
  8
0
100
AcDbCircle
 10
-3.078
 20
-8.15
 30
0.387
 40
0.1
100
AcDbArc
 50
0.0
 51
179.999985
  0
ARC
  5
5F235
100
AcDbEntity
  8
0
100
AcDbCircle
 10
-3.078
 20
-8.15
 30
0.577
 40
0.1
100
AcDbArc
 50
0.0
 51
179.999985
  0
3DFACE
  5
5F236
100
AcDbEntity
  8
0
100
AcDbFace
 10
-0.228
 20
-8.15
 30
0.577
 11
-0.228
 21
-8.15
 31
0.387
 12
-0.228
 22
-8.4
 32
0.387
 13
-0.228
 23
-8.4
 33
0.577
 70
    14
  0
LINE
  5
5F237
100
AcDbEntity
  8
0
100
AcDbLine
 10
-0.428
 20
-8.15
 30
0.387
 11
-0.428
 21
-8.4
 31
0.387
  0
LINE
  5
5F238
100
AcDbEntity
  8
0
100
AcDbLine
 10
-0.228
 20
-8.4
 30
0.387
 11
-0.228
 21
-8.15
 31
0.387
  0
LINE
  5
5F239
100
AcDbEntity
  8
0
100
AcDbLine
 10
-0.428
 20
-8.15
 30
0.577
 11
-0.428
 21
-8.4
 31
0.577
  0
LINE
  5
5F23A
100
AcDbEntity
  8
0
100
AcDbLine
 10
-0.228
 20
-8.4
 30
0.577
 11
-0.228
 21
-8.15
 31
0.577
  0
LINE
  5
5F23B
100
AcDbEntity
  8
0
100
AcDbLine
 10
-0.428
 20
-8.4
 30
0.387
 11
-0.428
 21
-8.4
 31
0.577
  0
LINE
  5
5F23C
100
AcDbEntity
  8
0
100
AcDbLine
 10
-0.228
 20
-8.4
 30
0.387
 11
-0.228
 21
-8.4
 31
0.577
  0
LINE
  5
5F23D
100
AcDbEntity
  8
0
100
AcDbLine
 10
-0.428
 20
-8.15
 30
0.387
 11
-0.428
 21
-8.15
 31
0.577
  0
LINE
  5
5F23E
100
AcDbEntity
  8
0
100
AcDbLine
 10
-0.228
 20
-8.15
 30
0.387
 11
-0.228
 21
-8.15
 31
0.577
  0
ARC
  5
5F23F
100
AcDbEntity
  8
0
100
AcDbCircle
 10
-0.328
 20
-8.15
 30
0.387
 40
0.1
100
AcDbArc
 50
0.0
 51
179.999985
  0
ARC
  5
5F240
100
AcDbEntity
  8
0
100
AcDbCircle
 10
-0.328
 20
-8.15
 30
0.577
 40
0.1
100
AcDbArc
 50
0.0
 51
179.999985
  0
CIRCLE
  5
5F241
100
AcDbEntity
  8
0
100
AcDbCircle
 10
-2.828
 20
-6.153487
 30
5.387245
 40
0.155
210
0.0
220
-0.3163624652213708
230
0.9486383876899864
  0
LINE
  5
5F242
100
AcDbEntity
  8
0
100
AcDbLine
 10
-2.848075
 20
-7.687557
 30
3.115192
 11
-2.827586
 21
-7.394718
 31
3.212851
210
0.0
220
-0.3163624652213708
230
0.9486383876899864
  0
LINE
  5
5F243
100
AcDbEntity
  8
0
100
AcDbLine
 10
-2.828958
 20
-7.688819
 30
3.114771
 11
-2.808469
 21
-7.39598
 31
3.21243
210
0.0
220
-0.3163624652213708
230
0.9486383876899864
  0
CIRCLE
  5
5F244
100
AcDbEntity
  8
0
100
AcDbCircle
 10
-1.768
 20
-6.153487
 30
5.387245
 40
0.155
210
0.0
220
-0.3163624652213708
230
0.9486383876899864
  0
LINE
  5
5F245
100
AcDbEntity
  8
0
100
AcDbLine
 10
-1.768958
 20
-7.688819
 30
3.114771
 11
-1.748469
 21
-7.39598
 31
3.21243
210
0.0
220
-0.3163624652213708
230
0.9486383876899864
  0
LINE
  5
5F246
100
AcDbEntity
  8
0
100
AcDbLine
 10
-1.788075
 20
-7.687557
 30
3.115192
 11
-1.767586
 21
-7.394718
 31
3.212851
210
0.0
220
-0.3163624652213708
230
0.9486383876899864
  0
LINE
  5
5F247
100
AcDbEntity
  8
0
100
AcDbLine
 10
-2.421
 20
-6.38
 30
4.347
 11
-2.421
 21
-6.38
 31
4.027
  0
LINE
  5
5F248
100
AcDbEntity
  8
0
100
AcDbLine
 10
-2.171
 20
-6.38
 30
4.347
 11
-2.171
 21
-6.38
 31
4.027
  0
LINE
  5
5F249
100
AcDbEntity
  8
0
100
AcDbLine
 10
-2.171
 20
-6.13
 30
4.347
 11
-2.171
 21
-6.13
 31
4.027
  0
LINE
  5
5F24A
100
AcDbEntity
  8
0
100
AcDbLine
 10
-2.421
 20
-6.13
 30
4.347
 11
-2.421
 21
-6.13
 31
4.027
  0
LINE
  5
5F24B
100
AcDbEntity
  8
0
100
AcDbLine
 10
-2.171
 20
-6.13
 30
4.347
 11
-2.171
 21
-6.13
 31
4.027
  0
3DFACE
  5
5F24C
100
AcDbEntity
  8
0
100
AcDbFace
 10
-2.171
 20
-6.38
 30
4.347
 11
-2.171
 21
-6.38
 31
4.027
 12
-2.171
 22
-6.13
 32
4.027
 13
-2.171
 23
-6.13
 33
4.347
 70
    14
  0
3DFACE
  5
5F24D
100
AcDbEntity
  8
0
100
AcDbFace
 10
-2.171
 20
-6.13
 30
4.027
 11
-2.171
 21
-6.13
 31
4.347
 12
-2.171
 22
-6.38
 32
4.347
 13
-2.171
 23
-6.38
 33
4.027
 70
     3
  0
3DFACE
  5
5F24E
100
AcDbEntity
  8
0
100
AcDbFace
 10
-2.171
 20
-6.38
 30
4.347
 11
-2.171
 21
-6.38
 31
4.027
 12
-2.171
 22
-6.13
 32
4.027
 13
-2.171
 23
-6.13
 33
4.027
 70
    14
  0
3DFACE
  5
5F24F
100
AcDbEntity
  8
0
100
AcDbFace
 10
-2.171
 20
-6.13
 30
4.027
 11
-2.421
 21
-6.13
 31
4.027
 12
-2.421
 22
-6.13
 32
4.347
 13
-2.171
 23
-6.13
 33
4.347
 70
    14
  0
3DFACE
  5
5F250
100
AcDbEntity
  8
0
100
AcDbFace
 10
-2.421
 20
-6.13
 30
4.347
 11
-2.421
 21
-6.38
 31
4.347
 12
-2.421
 22
-6.38
 32
4.027
 13
-2.421
 23
-6.13
 33
4.027
 70
    14
  0
3DFACE
  5
5F251
100
AcDbEntity
  8
0
100
AcDbFace
 10
-2.421
 20
-6.38
 30
4.347
 11
-2.421
 21
-6.38
 31
4.027
 12
-2.171
 22
-6.38
 32
4.027
 13
-2.171
 23
-6.38
 33
4.347
 70
    14
  0
LINE
  5
5F252
100
AcDbEntity
  8
0
100
AcDbLine
 10
-2.171
 20
-6.38
 30
4.027
 11
-2.421
 21
-6.38
 31
4.027
  0
LINE
  5
5F253
100
AcDbEntity
  8
0
100
AcDbLine
 10
-2.421
 20
-6.13
 30
4.027
 11
-2.171
 21
-6.13
 31
4.027
  0
LINE
  5
5F254
100
AcDbEntity
  8
0
100
AcDbLine
 10
-2.421
 20
-6.38
 30
4.027
 11
-2.421
 21
-6.13
 31
4.027
  0
LINE
  5
5F255
100
AcDbEntity
  8
0
100
AcDbLine
 10
-2.171
 20
-6.13
 30
4.027
 11
-2.171
 21
-6.38
 31
4.027
  0
3DFACE
  5
5F256
100
AcDbEntity
  8
0
100
AcDbFace
 10
-2.606
 20
-5.88
 30
4.937
 11
-1.986
 21
-5.88
 31
4.937
 12
-1.986
 22
-5.88
 32
4.812
 13
-2.606
 23
-5.88
 33
4.812
 70
    14
  0
LINE
  5
5F257
100
AcDbEntity
  8
0
100
AcDbLine
 10
-2.606
 20
-5.88
 30
4.937
 11
-1.986
 21
-5.88
 31
4.937
  0
LINE
  5
5F258
100
AcDbEntity
  8
0
100
AcDbLine
 10
-2.606
 20
-5.88
 30
4.812
 11
-1.986
 21
-5.88
 31
4.812
  0
LINE
  5
5F259
100
AcDbEntity
  8
0
100
AcDbLine
 10
-2.546
 20
-6.005
 30
4.347
 11
-2.046
 21
-6.005
 31
4.347
  0
3DFACE
  5
5F25A
100
AcDbEntity
  8
0
100
AcDbFace
 10
-1.986
 20
-5.88
 30
4.812
 11
-2.606
 21
-5.88
 31
4.812
 12
-2.546
 22
-6.005
 32
4.347
 13
-2.046
 23
-6.005
 33
4.347
 70
    14
  0
LINE
  5
5F25B
100
AcDbEntity
  8
0
100
AcDbLine
 10
-1.986
 20
-6.63
 30
4.812
 11
-2.606
 21
-6.63
 31
4.812
  0
3DFACE
  5
5F25C
100
AcDbEntity
  8
0
100
AcDbFace
 10
-2.606
 20
-6.63
 30
4.937
 11
-1.986
 21
-6.63
 31
4.937
 12
-1.986
 22
-6.63
 32
4.812
 13
-2.606
 23
-6.63
 33
4.812
 70
    14
  0
LINE
  5
5F25D
100
AcDbEntity
  8
0
100
AcDbLine
 10
-1.986
 20
-6.63
 30
4.937
 11
-2.606
 21
-6.63
 31
4.937
  0
LINE
  5
5F25E
100
AcDbEntity
  8
0
100
AcDbLine
 10
-2.046
 20
-6.505
 30
4.347
 11
-2.546
 21
-6.505
 31
4.347
  0
3DFACE
  5
5F25F
100
AcDbEntity
  8
0
100
AcDbFace
 10
-2.606
 20
-6.63
 30
4.812
 11
-1.986
 21
-6.63
 31
4.812
 12
-2.046
 22
-6.505
 32
4.347
 13
-2.546
 23
-6.505
 33
4.347
 70
    14
  0
3DFACE
  5
5F260
100
AcDbEntity
  8
0
100
AcDbFace
 10
-2.606
 20
-5.88
 30
4.937
 11
-1.986
 21
-5.88
 31
4.937
 12
-1.986
 22
-6.63
 32
4.937
 13
-2.606
 23
-6.63
 33
4.937
 70
    14
  0
LINE
  5
5F261
100
AcDbEntity
  8
0
100
AcDbLine
 10
-2.421
 20
-6.38
 30
4.347
 11
-2.171
 21
-6.38
 31
4.347
  0
LINE
  5
5F262
100
AcDbEntity
  8
0
100
AcDbLine
 10
-2.421
 20
-6.13
 30
4.347
 11
-2.171
 21
-6.13
 31
4.347
  0
LINE
  5
5F263
100
AcDbEntity
  8
0
100
AcDbLine
 10
-2.606
 20
-6.63
 30
4.812
 11
-2.606
 21
-5.88
 31
4.812
  0
3DFACE
  5
5F264
100
AcDbEntity
  8
0
100
AcDbFace
 10
-2.606
 20
-5.88
 30
4.937
 11
-2.606
 21
-5.88
 31
4.812
 12
-2.606
 22
-6.63
 32
4.812
 13
-2.606
 23
-6.63
 33
4.937
 70
    14
  0
LINE
  5
5F265
100
AcDbEntity
  8
0
100
AcDbLine
 10
-2.606
 20
-6.63
 30
4.937
 11
-2.606
 21
-5.88
 31
4.937
  0
LINE
  5
5F266
100
AcDbEntity
  8
0
100
AcDbLine
 10
-2.546
 20
-6.005
 30
4.347
 11
-2.546
 21
-6.505
 31
4.347
  0
LINE
  5
5F267
100
AcDbEntity
  8
0
100
AcDbLine
 10
-2.421
 20
-6.38
 30
4.347
 11
-2.421
 21
-6.13
 31
4.347
  0
3DFACE
  5
5F268
100
AcDbEntity
  8
0
100
AcDbFace
 10
-2.606
 20
-5.88
 30
4.812
 11
-2.546
 21
-6.005
 31
4.347
 12
-2.546
 22
-6.505
 32
4.347
 13
-2.606
 23
-6.63
 33
4.812
 70
    14
  0
LINE
  5
5F269
100
AcDbEntity
  8
0
100
AcDbLine
 10
-2.546
 20
-6.505
 30
4.347
 11
-2.606
 21
-6.63
 31
4.812
  0
LINE
  5
5F26A
100
AcDbEntity
  8
0
100
AcDbLine
 10
-2.606
 20
-6.63
 30
4.812
 11
-2.606
 21
-6.63
 31
4.937
  0
LINE
  5
5F26B
100
AcDbEntity
  8
0
100
AcDbLine
 10
-2.606
 20
-5.88
 30
4.812
 11
-2.546
 21
-6.005
 31
4.347
  0
LINE
  5
5F26C
100
AcDbEntity
  8
0
100
AcDbLine
 10
-2.606
 20
-5.88
 30
4.937
 11
-2.606
 21
-5.88
 31
4.812
  0
3DFACE
  5
5F26D
100
AcDbEntity
  8
0
100
AcDbFace
 10
-1.986
 20
-5.88
 30
4.937
 11
-1.986
 21
-6.63
 31
4.937
 12
-1.986
 22
-6.63
 32
4.812
 13
-1.986
 23
-5.88
 33
4.812
 70
    14
  0
LINE
  5
5F26E
100
AcDbEntity
  8
0
100
AcDbLine
 10
-1.986
 20
-5.88
 30
4.937
 11
-1.986
 21
-6.63
 31
4.937
  0
LINE
  5
5F26F
100
AcDbEntity
  8
0
100
AcDbLine
 10
-1.986
 20
-5.88
 30
4.812
 11
-1.986
 21
-6.63
 31
4.812
  0
LINE
  5
5F270
100
AcDbEntity
  8
0
100
AcDbLine
 10
-2.171
 20
-6.13
 30
4.347
 11
-2.171
 21
-6.38
 31
4.347
  0
LINE
  5
5F271
100
AcDbEntity
  8
0
100
AcDbLine
 10
-2.046
 20
-6.005
 30
4.347
 11
-2.046
 21
-6.505
 31
4.347
  0
3DFACE
  5
5F272
100
AcDbEntity
  8
0
100
AcDbFace
 10
-1.986
 20
-6.63
 30
4.812
 11
-2.046
 21
-6.505
 31
4.347
 12
-2.046
 22
-6.005
 32
4.347
 13
-1.986
 23
-5.88
 33
4.812
 70
    14
  0
LINE
  5
5F273
100
AcDbEntity
  8
0
100
AcDbLine
 10
-1.986
 20
-6.63
 30
4.812
 11
-2.046
 21
-6.505
 31
4.347
  0
LINE
  5
5F274
100
AcDbEntity
  8
0
100
AcDbLine
 10
-1.986
 20
-6.63
 30
4.937
 11
-1.986
 21
-6.63
 31
4.812
  0
LINE
  5
5F275
100
AcDbEntity
  8
0
100
AcDbLine
 10
-1.986
 20
-5.88
 30
4.812
 11
-2.046
 21
-6.005
 31
4.347
  0
LINE
  5
5F276
100
AcDbEntity
  8
0
100
AcDbLine
 10
-1.986
 20
-5.88
 30
4.937
 11
-1.986
 21
-5.88
 31
4.812
  0
CIRCLE
  5
5F277
100
AcDbEntity
  8
0
100
AcDbCircle
 10
-0.708
 20
-6.153487
 30
5.387245
 40
0.155
210
0.0
220
-0.3163624652213708
230
0.9486383876899864
  0
LINE
  5
5F278
100
AcDbEntity
  8
0
100
AcDbLine
 10
-0.708958
 20
-7.688819
 30
3.114771
 11
-0.688469
 21
-7.39598
 31
3.21243
210
0.0
220
-0.3163624652213708
230
0.9486383876899864
  0
LINE
  5
5F279
100
AcDbEntity
  8
0
100
AcDbLine
 10
-0.728075
 20
-7.687557
 30
3.115192
 11
-0.707586
 21
-7.394718
 31
3.212851
210
0.0
220
-0.3163624652213708
230
0.9486383876899864
  0
CIRCLE
  5
5F27A
100
AcDbEntity
  8
0
100
AcDbCircle
 10
-1.318
 20
-1.06
 30
0.577
 40
0.1
  0
CIRCLE
  5
5F27B
100
AcDbEntity
  8
0
100
AcDbCircle
 10
-1.318
 20
-1.06
 30
0.577
 40
0.1
  0
LINE
  5
5F27C
100
AcDbEntity
  8
0
100
AcDbLine
 10
-1.983
 20
-0.78
 30
0.387
 11
-0.543
 21
-0.78
 31
0.387
  0
LINE
  5
5F27D
100
AcDbEntity
  8
0
100
AcDbLine
 10
-1.983
 20
-0.78
 30
0.577
 11
-0.543
 21
-0.78
 31
0.577
  0
3DFACE
  5
5F27E
100
AcDbEntity
  8
0
100
AcDbFace
 10
-2.673
 20
-0.78
 30
0.577
 11
-2.863
 21
-0.78
 31
0.577
 12
-2.863
 22
-0.78
 32
0.387
 13
-2.673
 23
-0.78
 33
0.387
 70
    14
  0
LINE
  5
5F27F
100
AcDbEntity
  8
0
100
AcDbLine
 10
-2.863
 20
-0.78
 30
0.387
 11
-2.673
 21
-0.78
 31
0.387
  0
LINE
  5
5F280
100
AcDbEntity
  8
0
100
AcDbLine
 10
-2.863
 20
-0.78
 30
0.577
 11
-2.673
 21
-0.78
 31
0.577
  0
ARC
  5
5F281
100
AcDbEntity
  8
0
100
AcDbCircle
 10
-1.698
 20
-1.06
 30
0.577
 40
0.1015
100
AcDbArc
 50
0.0
 51
179.999985
  0
ARC
  5
5F282
100
AcDbEntity
  8
0
100
AcDbCircle
 10
-1.698
 20
-1.06
 30
0.577
 40
0.1015
100
AcDbArc
 50
0.0
 51
179.999985
  0
LINE
  5
5F283
100
AcDbEntity
  8
0
100
AcDbLine
 10
-1.5965
 20
-1.192159
 30
0.387
 11
-1.5965
 21
-1.192159
 31
0.577
  0
LINE
  5
5F284
100
AcDbEntity
  8
0
100
AcDbLine
 10
-1.5965
 20
-1.06
 30
0.387
 11
-1.5965
 21
-1.06
 31
0.577
  0
LINE
  5
5F285
100
AcDbEntity
  8
0
100
AcDbLine
 10
-1.7995
 20
-1.06
 30
0.387
 11
-1.7995
 21
-1.06
 31
0.577
  0
ARC
  5
5F286
100
AcDbEntity
  8
0
100
AcDbCircle
 10
-1.698
 20
-1.403
 30
0.577
 40
0.234
100
AcDbArc
 50
115.70649
 51
64.293579
  0
ARC
  5
5F287
100
AcDbEntity
  8
0
100
AcDbCircle
 10
-1.698
 20
-1.403
 30
0.577
 40
0.234
100
AcDbArc
 50
115.70649
 51
64.293579
  0
LINE
  5
5F288
100
AcDbEntity
  8
0
100
AcDbLine
 10
-1.7995
 20
-1.06
 30
0.577
 11
-1.7995
 21
-1.192159
 31
0.577
  0
LINE
  5
5F289
100
AcDbEntity
  8
0
100
AcDbLine
 10
-1.7995
 20
-1.06
 30
0.577
 11
-1.7995
 21
-1.192159
 31
0.577
  0
LINE
  5
5F28A
100
AcDbEntity
  8
0
100
AcDbLine
 10
-1.5965
 20
-1.06
 30
0.577
 11
-1.5965
 21
-1.192159
 31
0.577
  0
LINE
  5
5F28B
100
AcDbEntity
  8
0
100
AcDbLine
 10
-1.5965
 20
-1.06
 30
0.577
 11
-1.5965
 21
-1.192159
 31
0.577
  0
LINE
  5
5F28C
100
AcDbEntity
  8
0
100
AcDbLine
 10
-0.543
 20
-0.78
 30
0.387
 11
0.077
 21
-1.4
 31
0.387
  0
LINE
  5
5F28D
100
AcDbEntity
  8
0
100
AcDbLine
 10
-0.543
 20
-0.78
 30
0.577
 11
0.077
 21
-1.4
 31
0.577
  0
LINE
  5
5F28E
100
AcDbEntity
  8
0
100
AcDbLine
 10
-1.218
 20
-1.06
 30
0.387
 11
-1.218
 21
-1.06
 31
0.577
  0
CIRCLE
  5
5F28F
100
AcDbEntity
  8
0
100
AcDbCircle
 10
-1.318
 20
-1.06
 30
0.387
 40
0.1
  0
ARC
  5
5F290
100
AcDbEntity
  8
0
100
AcDbCircle
 10
-1.698
 20
-1.403
 30
0.387
 40
0.234
100
AcDbArc
 50
115.70649
 51
64.293579
  0
LINE
  5
5F291
100
AcDbEntity
  8
0
100
AcDbLine
 10
-1.5965
 20
-1.06
 30
0.387
 11
-1.5965
 21
-1.192159
 31
0.387
  0
ARC
  5
5F292
100
AcDbEntity
  8
0
100
AcDbCircle
 10
-1.698
 20
-1.06
 30
0.387
 40
0.1015
100
AcDbArc
 50
0.0
 51
179.999985
  0
LINE
  5
5F293
100
AcDbEntity
  8
0
100
AcDbLine
 10
-1.7995
 20
-1.06
 30
0.387
 11
-1.7995
 21
-1.192159
 31
0.387
  0
LINE
  5
5F294
100
AcDbEntity
  8
0
100
AcDbLine
 10
-1.7995
 20
-1.192159
 30
0.387
 11
-1.7995
 21
-1.192159
 31
0.577
  0
LINE
  5
5F295
100
AcDbEntity
  8
0
100
AcDbLine
 10
-3.378
 20
-7.29
 30
3.237
 11
-3.378
 21
-7.29
 31
0.577
  0
LINE
  5
5F296
100
AcDbEntity
  8
0
100
AcDbLine
 10
-0.018
 20
-5.88
 30
2.007
 11
-0.018
 21
-7.682911
 31
2.007
  0
LINE
  5
5F297
100
AcDbEntity
  8
0
100
AcDbLine
 10
-3.378
 20
-7.7
 30
2.157
 11
-3.378
 21
-7.7
 31
2.007
  0
LINE
  5
5F298
100
AcDbEntity
  8
0
100
AcDbLine
 10
-3.378
 20
-7.7
 30
2.007
 11
-3.378
 21
-7.7
 31
0.577
  0
POLYLINE
  5
5F299
100
AcDbEntity
  8
0
100
AcDbPolygonMesh
 66
     1
 10
0.0
 20
0.0
 30
0.0
 70
    16
 71
     6
 72
     3
  0
VERTEX
  5
5F29A
100
AcDbEntity
  8
0
100
AcDbVertex
100
AcDbPolygonMeshVertex
 10
-0.018
 20
-7.7
 30
3.087
 70
    64
  0
VERTEX
  5
5F29B
100
AcDbEntity
  8
0
100
AcDbVertex
100
AcDbPolygonMeshVertex
 10
-0.018
 20
-7.7
 30
0.577
 70
    64
  0
VERTEX
  5
5F29C
100
AcDbEntity
  8
0
100
AcDbVertex
100
AcDbPolygonMeshVertex
 10
-0.018
 20
-7.7
 30
0.577
 70
    64
  0
VERTEX
  5
5F29D
100
AcDbEntity
  8
0
100
AcDbVertex
100
AcDbPolygonMeshVertex
 10
-3.378
 20
-7.7
 30
3.087
 70
    64
  0
VERTEX
  5
5F29E
100
AcDbEntity
  8
0
100
AcDbVertex
100
AcDbPolygonMeshVertex
 10
-3.378
 20
-7.7
 30
0.577
 70
    64
  0
VERTEX
  5
5F29F
100
AcDbEntity
  8
0
100
AcDbVertex
100
AcDbPolygonMeshVertex
 10
-3.378
 20
-7.7
 30
0.577
 70
    64
  0
VERTEX
  5
5F2A0
100
AcDbEntity
  8
0
100
AcDbVertex
100
AcDbPolygonMeshVertex
 10
-3.378
 20
-7.29
 30
3.087
 70
    64
  0
VERTEX
  5
5F2A1
100
AcDbEntity
  8
0
100
AcDbVertex
100
AcDbPolygonMeshVertex
 10
-3.378
 20
-7.29
 30
0.577
 70
    64
  0
VERTEX
  5
5F2A2
100
AcDbEntity
  8
0
100
AcDbVertex
100
AcDbPolygonMeshVertex
 10
-3.378
 20
-7.7
 30
0.577
 70
    64
  0
VERTEX
  5
5F2A3
100
AcDbEntity
  8
0
100
AcDbVertex
100
AcDbPolygonMeshVertex
 10
-0.018
 20
-7.29
 30
3.087
 70
    64
  0
VERTEX
  5
5F2A4
100
AcDbEntity
  8
0
100
AcDbVertex
100
AcDbPolygonMeshVertex
 10
-0.018
 20
-7.29
 30
0.577
 70
    64
  0
VERTEX
  5
5F2A5
100
AcDbEntity
  8
0
100
AcDbVertex
100
AcDbPolygonMeshVertex
 10
-0.018
 20
-7.7
 30
0.577
 70
    64
  0
VERTEX
  5
5F2A6
100
AcDbEntity
  8
0
100
AcDbVertex
100
AcDbPolygonMeshVertex
 10
-0.018
 20
-7.29
 30
3.087
 70
    64
  0
VERTEX
  5
5F2A7
100
AcDbEntity
  8
0
100
AcDbVertex
100
AcDbPolygonMeshVertex
 10
-0.018
 20
-7.29
 30
3.087
 70
    64
  0
VERTEX
  5
5F2A8
100
AcDbEntity
  8
0
100
AcDbVertex
100
AcDbPolygonMeshVertex
 10
-0.018
 20
-7.7
 30
3.087
 70
    64
  0
VERTEX
  5
5F2A9
100
AcDbEntity
  8
0
100
AcDbVertex
100
AcDbPolygonMeshVertex
 10
-3.378
 20
-7.29
 30
3.087
 70
    64
  0
VERTEX
  5
5F2AA
100
AcDbEntity
  8
0
100
AcDbVertex
100
AcDbPolygonMeshVertex
 10
-3.378
 20
-7.29
 30
3.087
 70
    64
  0
VERTEX
  5
5F2AB
100
AcDbEntity
  8
0
100
AcDbVertex
100
AcDbPolygonMeshVertex
 10
-3.378
 20
-7.7
 30
3.087
 70
    64
  0
SEQEND
  5
5F2AC
100
AcDbEntity
  8
0
  0
POLYLINE
  5
5F2AD
100
AcDbEntity
  8
0
100
AcDbPolygonMesh
 66
     1
 10
0.0
 20
0.0
 30
0.0
 70
    16
 71
     6
 72
     3
  0
VERTEX
  5
5F2AE
100
AcDbEntity
  8
0
100
AcDbVertex
100
AcDbPolygonMeshVertex
 10
-2.208
 20
-8.13
 30
0.887
 70
    64
  0
VERTEX
  5
5F2AF
100
AcDbEntity
  8
0
100
AcDbVertex
100
AcDbPolygonMeshVertex
 10
-2.208
 20
-8.13
 30
0.577
 70
    64
  0
VERTEX
  5
5F2B0
100
AcDbEntity
  8
0
100
AcDbVertex
100
AcDbPolygonMeshVertex
 10
-2.208
 20
-8.13
 30
0.577
 70
    64
  0
VERTEX
  5
5F2B1
100
AcDbEntity
  8
0
100
AcDbVertex
100
AcDbPolygonMeshVertex
 10
-2.708
 20
-8.13
 30
0.887
 70
    64
  0
VERTEX
  5
5F2B2
100
AcDbEntity
  8
0
100
AcDbVertex
100
AcDbPolygonMeshVertex
 10
-2.708
 20
-8.13
 30
0.577
 70
    64
  0
VERTEX
  5
5F2B3
100
AcDbEntity
  8
0
100
AcDbVertex
100
AcDbPolygonMeshVertex
 10
-2.708
 20
-8.13
 30
0.577
 70
    64
  0
VERTEX
  5
5F2B4
100
AcDbEntity
  8
0
100
AcDbVertex
100
AcDbPolygonMeshVertex
 10
-2.708
 20
-7.7
 30
0.887
 70
    64
  0
VERTEX
  5
5F2B5
100
AcDbEntity
  8
0
100
AcDbVertex
100
AcDbPolygonMeshVertex
 10
-2.708
 20
-7.7
 30
0.577
 70
    64
  0
VERTEX
  5
5F2B6
100
AcDbEntity
  8
0
100
AcDbVertex
100
AcDbPolygonMeshVertex
 10
-2.708
 20
-8.13
 30
0.577
 70
    64
  0
VERTEX
  5
5F2B7
100
AcDbEntity
  8
0
100
AcDbVertex
100
AcDbPolygonMeshVertex
 10
-2.208
 20
-7.7
 30
0.887
 70
    64
  0
VERTEX
  5
5F2B8
100
AcDbEntity
  8
0
100
AcDbVertex
100
AcDbPolygonMeshVertex
 10
-2.208
 20
-7.7
 30
0.577
 70
    64
  0
VERTEX
  5
5F2B9
100
AcDbEntity
  8
0
100
AcDbVertex
100
AcDbPolygonMeshVertex
 10
-2.208
 20
-8.13
 30
0.577
 70
    64
  0
VERTEX
  5
5F2BA
100
AcDbEntity
  8
0
100
AcDbVertex
100
AcDbPolygonMeshVertex
 10
-2.208
 20
-7.7
 30
0.887
 70
    64
  0
VERTEX
  5
5F2BB
100
AcDbEntity
  8
0
100
AcDbVertex
100
AcDbPolygonMeshVertex
 10
-2.208
 20
-7.7
 30
0.887
 70
    64
  0
VERTEX
  5
5F2BC
100
AcDbEntity
  8
0
100
AcDbVertex
100
AcDbPolygonMeshVertex
 10
-2.208
 20
-8.13
 30
0.887
 70
    64
  0
VERTEX
  5
5F2BD
100
AcDbEntity
  8
0
100
AcDbVertex
100
AcDbPolygonMeshVertex
 10
-2.708
 20
-7.7
 30
0.887
 70
    64
  0
VERTEX
  5
5F2BE
100
AcDbEntity
  8
0
100
AcDbVertex
100
AcDbPolygonMeshVertex
 10
-2.708
 20
-7.7
 30
0.887
 70
    64
  0
VERTEX
  5
5F2BF
100
AcDbEntity
  8
0
100
AcDbVertex
100
AcDbPolygonMeshVertex
 10
-2.708
 20
-8.13
 30
0.887
 70
    64
  0
SEQEND
  5
5F2C0
100
AcDbEntity
  8
0
  0
POLYLINE
  5
5F2C1
100
AcDbEntity
  8
0
100
AcDbPolygonMesh
 66
     1
 10
0.0
 20
0.0
 30
0.0
 70
    16
 71
     6
 72
     3
  0
VERTEX
  5
5F2C2
100
AcDbEntity
  8
0
100
AcDbVertex
100
AcDbPolygonMeshVertex
 10
-0.831
 20
-8.13
 30
0.887
 70
    64
  0
VERTEX
  5
5F2C3
100
AcDbEntity
  8
0
100
AcDbVertex
100
AcDbPolygonMeshVertex
 10
-0.831
 20
-8.13
 30
0.577
 70
    64
  0
VERTEX
  5
5F2C4
100
AcDbEntity
  8
0
100
AcDbVertex
100
AcDbPolygonMeshVertex
 10
-0.831
 20
-8.13
 30
0.577
 70
    64
  0
VERTEX
  5
5F2C5
100
AcDbEntity
  8
0
100
AcDbVertex
100
AcDbPolygonMeshVertex
 10
-1.331
 20
-8.13
 30
0.887
 70
    64
  0
VERTEX
  5
5F2C6
100
AcDbEntity
  8
0
100
AcDbVertex
100
AcDbPolygonMeshVertex
 10
-1.331
 20
-8.13
 30
0.577
 70
    64
  0
VERTEX
  5
5F2C7
100
AcDbEntity
  8
0
100
AcDbVertex
100
AcDbPolygonMeshVertex
 10
-1.331
 20
-8.13
 30
0.577
 70
    64
  0
VERTEX
  5
5F2C8
100
AcDbEntity
  8
0
100
AcDbVertex
100
AcDbPolygonMeshVertex
 10
-1.331
 20
-7.7
 30
0.887
 70
    64
  0
VERTEX
  5
5F2C9
100
AcDbEntity
  8
0
100
AcDbVertex
100
AcDbPolygonMeshVertex
 10
-1.331
 20
-7.7
 30
0.577
 70
    64
  0
VERTEX
  5
5F2CA
100
AcDbEntity
  8
0
100
AcDbVertex
100
AcDbPolygonMeshVertex
 10
-1.331
 20
-8.13
 30
0.577
 70
    64
  0
VERTEX
  5
5F2CB
100
AcDbEntity
  8
0
100
AcDbVertex
100
AcDbPolygonMeshVertex
 10
-0.831
 20
-7.7
 30
0.887
 70
    64
  0
VERTEX
  5
5F2CC
100
AcDbEntity
  8
0
100
AcDbVertex
100
AcDbPolygonMeshVertex
 10
-0.831
 20
-7.7
 30
0.577
 70
    64
  0
VERTEX
  5
5F2CD
100
AcDbEntity
  8
0
100
AcDbVertex
100
AcDbPolygonMeshVertex
 10
-0.831
 20
-8.13
 30
0.577
 70
    64
  0
VERTEX
  5
5F2CE
100
AcDbEntity
  8
0
100
AcDbVertex
100
AcDbPolygonMeshVertex
 10
-0.831
 20
-7.7
 30
0.887
 70
    64
  0
VERTEX
  5
5F2CF
100
AcDbEntity
  8
0
100
AcDbVertex
100
AcDbPolygonMeshVertex
 10
-0.831
 20
-7.7
 30
0.887
 70
    64
  0
VERTEX
  5
5F2D0
100
AcDbEntity
  8
0
100
AcDbVertex
100
AcDbPolygonMeshVertex
 10
-0.831
 20
-8.13
 30
0.887
 70
    64
  0
VERTEX
  5
5F2D1
100
AcDbEntity
  8
0
100
AcDbVertex
100
AcDbPolygonMeshVertex
 10
-1.331
 20
-7.7
 30
0.887
 70
    64
  0
VERTEX
  5
5F2D2
100
AcDbEntity
  8
0
100
AcDbVertex
100
AcDbPolygonMeshVertex
 10
-1.331
 20
-7.7
 30
0.887
 70
    64
  0
VERTEX
  5
5F2D3
100
AcDbEntity
  8
0
100
AcDbVertex
100
AcDbPolygonMeshVertex
 10
-1.331
 20
-8.13
 30
0.887
 70
    64
  0
SEQEND
  5
5F2D4
100
AcDbEntity
  8
0
  0
POLYLINE
  5
5F2D5
100
AcDbEntity
  8
0
100
AcDbPolygonMesh
 66
     1
 10
0.0
 20
0.0
 30
0.0
 70
    16
 71
     6
 72
     3
  0
VERTEX
  5
5F2D6
100
AcDbEntity
  8
0
100
AcDbVertex
100
AcDbPolygonMeshVertex
 10
-3.378
 20
-7.7
 30
3.087
 70
    64
  0
VERTEX
  5
5F2D7
100
AcDbEntity
  8
0
100
AcDbVertex
100
AcDbPolygonMeshVertex
 10
-3.378
 20
-7.7
 30
3.087
 70
    64
  0
VERTEX
  5
5F2D8
100
AcDbEntity
  8
0
100
AcDbVertex
100
AcDbPolygonMeshVertex
 10
-3.378
 20
-7.7
 30
3.087
 70
    64
  0
VERTEX
  5
5F2D9
100
AcDbEntity
  8
0
100
AcDbVertex
100
AcDbPolygonMeshVertex
 10
-3.378
 20
-7.29
 30
3.237
 70
    64
  0
VERTEX
  5
5F2DA
100
AcDbEntity
  8
0
100
AcDbVertex
100
AcDbPolygonMeshVertex
 10
-3.378
 20
-7.29
 30
3.087
 70
    64
  0
VERTEX
  5
5F2DB
100
AcDbEntity
  8
0
100
AcDbVertex
100
AcDbPolygonMeshVertex
 10
-3.378
 20
-7.29
 30
3.087
 70
    64
  0
VERTEX
  5
5F2DC
100
AcDbEntity
  8
0
100
AcDbVertex
100
AcDbPolygonMeshVertex
 10
-0.018
 20
-7.29
 30
3.237
 70
    64
  0
VERTEX
  5
5F2DD
100
AcDbEntity
  8
0
100
AcDbVertex
100
AcDbPolygonMeshVertex
 10
-0.018
 20
-7.29
 30
3.087
 70
    64
  0
VERTEX
  5
5F2DE
100
AcDbEntity
  8
0
100
AcDbVertex
100
AcDbPolygonMeshVertex
 10
-3.378
 20
-7.29
 30
3.087
 70
    64
  0
VERTEX
  5
5F2DF
100
AcDbEntity
  8
0
100
AcDbVertex
100
AcDbPolygonMeshVertex
 10
-0.018
 20
-7.7
 30
3.087
 70
    64
  0
VERTEX
  5
5F2E0
100
AcDbEntity
  8
0
100
AcDbVertex
100
AcDbPolygonMeshVertex
 10
-0.018
 20
-7.7
 30
3.087
 70
    64
  0
VERTEX
  5
5F2E1
100
AcDbEntity
  8
0
100
AcDbVertex
100
AcDbPolygonMeshVertex
 10
-3.378
 20
-7.7
 30
3.087
 70
    64
  0
VERTEX
  5
5F2E2
100
AcDbEntity
  8
0
100
AcDbVertex
100
AcDbPolygonMeshVertex
 10
-0.018
 20
-7.7
 30
3.087
 70
    64
  0
VERTEX
  5
5F2E3
100
AcDbEntity
  8
0
100
AcDbVertex
100
AcDbPolygonMeshVertex
 10
-0.018
 20
-7.7
 30
3.087
 70
    64
  0
VERTEX
  5
5F2E4
100
AcDbEntity
  8
0
100
AcDbVertex
100
AcDbPolygonMeshVertex
 10
-3.378
 20
-7.7
 30
3.087
 70
    64
  0
VERTEX
  5
5F2E5
100
AcDbEntity
  8
0
100
AcDbVertex
100
AcDbPolygonMeshVertex
 10
-0.018
 20
-7.29
 30
3.237
 70
    64
  0
VERTEX
  5
5F2E6
100
AcDbEntity
  8
0
100
AcDbVertex
100
AcDbPolygonMeshVertex
 10
-0.018
 20
-7.29
 30
3.237
 70
    64
  0
VERTEX
  5
5F2E7
100
AcDbEntity
  8
0
100
AcDbVertex
100
AcDbPolygonMeshVertex
 10
-3.378
 20
-7.29
 30
3.237
 70
    64
  0
SEQEND
  5
5F2E8
100
AcDbEntity
  8
0
  0
POLYLINE
  5
5F2E9
100
AcDbEntity
  8
0
100
AcDbPolygonMesh
 66
     1
 10
0.0
 20
0.0
 30
0.0
 70
    16
 71
     6
 72
     3
  0
VERTEX
  5
5F2EA
100
AcDbEntity
  8
0
100
AcDbVertex
100
AcDbPolygonMeshVertex
 10
-0.018
 20
-7.29
 30
4.027
 70
    64
  0
VERTEX
  5
5F2EB
100
AcDbEntity
  8
0
100
AcDbVertex
100
AcDbPolygonMeshVertex
 10
-0.018
 20
-7.29
 30
0.577
 70
    64
  0
VERTEX
  5
5F2EC
100
AcDbEntity
  8
0
100
AcDbVertex
100
AcDbPolygonMeshVertex
 10
-0.018
 20
-7.29
 30
0.577
 70
    64
  0
VERTEX
  5
5F2ED
100
AcDbEntity
  8
0
100
AcDbVertex
100
AcDbPolygonMeshVertex
 10
-3.378
 20
-7.29
 30
4.027
 70
    64
  0
VERTEX
  5
5F2EE
100
AcDbEntity
  8
0
100
AcDbVertex
100
AcDbPolygonMeshVertex
 10
-3.378
 20
-7.29
 30
0.577
 70
    64
  0
VERTEX
  5
5F2EF
100
AcDbEntity
  8
0
100
AcDbVertex
100
AcDbPolygonMeshVertex
 10
-3.378
 20
-7.29
 30
0.577
 70
    64
  0
VERTEX
  5
5F2F0
100
AcDbEntity
  8
0
100
AcDbVertex
100
AcDbPolygonMeshVertex
 10
-3.378
 20
-5.88
 30
4.027
 70
    64
  0
VERTEX
  5
5F2F1
100
AcDbEntity
  8
0
100
AcDbVertex
100
AcDbPolygonMeshVertex
 10
-3.378
 20
-5.88
 30
0.577
 70
    64
  0
VERTEX
  5
5F2F2
100
AcDbEntity
  8
0
100
AcDbVertex
100
AcDbPolygonMeshVertex
 10
-3.378
 20
-7.29
 30
0.577
 70
    64
  0
VERTEX
  5
5F2F3
100
AcDbEntity
  8
0
100
AcDbVertex
100
AcDbPolygonMeshVertex
 10
-0.018
 20
-5.88
 30
4.027
 70
    64
  0
VERTEX
  5
5F2F4
100
AcDbEntity
  8
0
100
AcDbVertex
100
AcDbPolygonMeshVertex
 10
-0.018
 20
-5.88
 30
0.577
 70
    64
  0
VERTEX
  5
5F2F5
100
AcDbEntity
  8
0
100
AcDbVertex
100
AcDbPolygonMeshVertex
 10
-0.018
 20
-7.29
 30
0.577
 70
    64
  0
VERTEX
  5
5F2F6
100
AcDbEntity
  8
0
100
AcDbVertex
100
AcDbPolygonMeshVertex
 10
-0.018
 20
-5.88
 30
4.027
 70
    64
  0
VERTEX
  5
5F2F7
100
AcDbEntity
  8
0
100
AcDbVertex
100
AcDbPolygonMeshVertex
 10
-0.018
 20
-5.88
 30
4.027
 70
    64
  0
VERTEX
  5
5F2F8
100
AcDbEntity
  8
0
100
AcDbVertex
100
AcDbPolygonMeshVertex
 10
-0.018
 20
-7.29
 30
4.027
 70
    64
  0
VERTEX
  5
5F2F9
100
AcDbEntity
  8
0
100
AcDbVertex
100
AcDbPolygonMeshVertex
 10
-3.378
 20
-5.88
 30
4.027
 70
    64
  0
VERTEX
  5
5F2FA
100
AcDbEntity
  8
0
100
AcDbVertex
100
AcDbPolygonMeshVertex
 10
-3.378
 20
-5.88
 30
4.027
 70
    64
  0
VERTEX
  5
5F2FB
100
AcDbEntity
  8
0
100
AcDbVertex
100
AcDbPolygonMeshVertex
 10
-3.378
 20
-7.29
 30
4.027
 70
    64
  0
SEQEND
  5
5F2FC
100
AcDbEntity
  8
0
  0
LINE
  5
5F2FD
100
AcDbEntity
  8
0
100
AcDbLine
 10
-2.277326
 20
-3.915015
 30
4.857
 11
-2.16271
 21
-4.065138
 31
4.857
  0
LINE
  5
5F2FE
100
AcDbEntity
  8
0
100
AcDbLine
 10
-2.293515
 20
-3.931205
 30
4.857
 11
-2.178899
 21
-4.081327
 31
4.857
  0
CIRCLE
  5
5F2FF
100
AcDbEntity
  8
0
100
AcDbCircle
 10
-2.228
 20
-4.0
 30
4.857
 40
0.095
  0
LINE
  5
5F300
100
AcDbEntity
  8
0
100
AcDbLine
 10
-2.853035
 20
-1.488318
 30
1.867
 11
-2.621784
 21
-1.191115
 31
1.867
  0
LINE
  5
5F301
100
AcDbEntity
  8
0
100
AcDbLine
 10
-2.893722
 20
-1.457964
 30
1.867
 11
-2.662471
 21
-1.160762
 31
1.867
  0
CIRCLE
  5
5F302
100
AcDbEntity
  8
0
100
AcDbCircle
 10
-2.758
 20
-1.325
 30
1.867
 40
0.19
  0
LINE
  5
5F303
100
AcDbEntity
  8
0
100
AcDbLine
 10
-1.217326
 20
-3.915015
 30
4.857
 11
-1.10271
 21
-4.065138
 31
4.857
  0
LINE
  5
5F304
100
AcDbEntity
  8
0
100
AcDbLine
 10
-1.233515
 20
-3.931205
 30
4.857
 11
-1.1189
 21
-4.081327
 31
4.857
  0
CIRCLE
  5
5F305
100
AcDbEntity
  8
0
100
AcDbCircle
 10
-1.168
 20
-4.0
 30
4.857
 40
0.095
  0
LINE
  5
5F306
100
AcDbEntity
  8
0
100
AcDbLine
 10
-0.733035
 20
-2.018318
 30
4.667
 11
-0.501784
 21
-1.721115
 31
4.667
  0
LINE
  5
5F307
100
AcDbEntity
  8
0
100
AcDbLine
 10
-0.773722
 20
-1.987964
 30
4.667
 11
-0.542471
 21
-1.690762
 31
4.667
  0
CIRCLE
  5
5F308
100
AcDbEntity
  8
0
100
AcDbCircle
 10
-0.638
 20
-1.855
 30
4.667
 40
0.19
  0
POLYLINE
  5
5F309
100
AcDbEntity
  8
0
100
AcDbPolygonMesh
 66
     1
 10
0.0
 20
0.0
 30
0.0
 70
    16
 71
     6
 72
     3
  0
VERTEX
  5
5F30A
100
AcDbEntity
  8
0
100
AcDbVertex
100
AcDbPolygonMeshVertex
 10
-0.758
 20
-4.53
 30
4.387
 70
    64
  0
VERTEX
  5
5F30B
100
AcDbEntity
  8
0
100
AcDbVertex
100
AcDbPolygonMeshVertex
 10
-0.758
 20
-4.53
 30
4.017
 70
    64
  0
VERTEX
  5
5F30C
100
AcDbEntity
  8
0
100
AcDbVertex
100
AcDbPolygonMeshVertex
 10
-0.758
 20
-4.53
 30
4.017
 70
    64
  0
VERTEX
  5
5F30D
100
AcDbEntity
  8
0
100
AcDbVertex
100
AcDbPolygonMeshVertex
 10
-2.638
 20
-4.53
 30
4.387
 70
    64
  0
VERTEX
  5
5F30E
100
AcDbEntity
  8
0
100
AcDbVertex
100
AcDbPolygonMeshVertex
 10
-2.638
 20
-4.53
 30
4.017
 70
    64
  0
VERTEX
  5
5F30F
100
AcDbEntity
  8
0
100
AcDbVertex
100
AcDbPolygonMeshVertex
 10
-2.638
 20
-4.53
 30
4.017
 70
    64
  0
VERTEX
  5
5F310
100
AcDbEntity
  8
0
100
AcDbVertex
100
AcDbPolygonMeshVertex
 10
-2.638
 20
-3.69
 30
4.387
 70
    64
  0
VERTEX
  5
5F311
100
AcDbEntity
  8
0
100
AcDbVertex
100
AcDbPolygonMeshVertex
 10
-2.638
 20
-3.69
 30
4.017
 70
    64
  0
VERTEX
  5
5F312
100
AcDbEntity
  8
0
100
AcDbVertex
100
AcDbPolygonMeshVertex
 10
-2.638
 20
-4.53
 30
4.017
 70
    64
  0
VERTEX
  5
5F313
100
AcDbEntity
  8
0
100
AcDbVertex
100
AcDbPolygonMeshVertex
 10
-0.758
 20
-3.69
 30
4.387
 70
    64
  0
VERTEX
  5
5F314
100
AcDbEntity
  8
0
100
AcDbVertex
100
AcDbPolygonMeshVertex
 10
-0.758
 20
-3.69
 30
4.017
 70
    64
  0
VERTEX
  5
5F315
100
AcDbEntity
  8
0
100
AcDbVertex
100
AcDbPolygonMeshVertex
 10
-0.758
 20
-4.53
 30
4.017
 70
    64
  0
VERTEX
  5
5F316
100
AcDbEntity
  8
0
100
AcDbVertex
100
AcDbPolygonMeshVertex
 10
-0.758
 20
-3.69
 30
4.387
 70
    64
  0
VERTEX
  5
5F317
100
AcDbEntity
  8
0
100
AcDbVertex
100
AcDbPolygonMeshVertex
 10
-0.758
 20
-3.69
 30
4.387
 70
    64
  0
VERTEX
  5
5F318
100
AcDbEntity
  8
0
100
AcDbVertex
100
AcDbPolygonMeshVertex
 10
-0.758
 20
-4.53
 30
4.387
 70
    64
  0
VERTEX
  5
5F319
100
AcDbEntity
  8
0
100
AcDbVertex
100
AcDbPolygonMeshVertex
 10
-2.638
 20
-3.69
 30
4.387
 70
    64
  0
VERTEX
  5
5F31A
100
AcDbEntity
  8
0
100
AcDbVertex
100
AcDbPolygonMeshVertex
 10
-2.638
 20
-3.69
 30
4.387
 70
    64
  0
VERTEX
  5
5F31B
100
AcDbEntity
  8
0
100
AcDbVertex
100
AcDbPolygonMeshVertex
 10
-2.638
 20
-4.53
 30
4.387
 70
    64
  0
SEQEND
  5
5F31C
100
AcDbEntity
  8
0
  0
POLYLINE
  5
5F31D
100
AcDbEntity
  8
0
100
AcDbPolygonMesh
 66
     1
 10
0.0
 20
0.0
 30
0.0
 70
    16
 71
     6
 72
     3
  0
VERTEX
  5
5F31E
100
AcDbEntity
  8
0
100
AcDbVertex
100
AcDbPolygonMeshVertex
 10
-0.948
 20
-4.13
 30
4.857
 70
    64
  0
VERTEX
  5
5F31F
100
AcDbEntity
  8
0
100
AcDbVertex
100
AcDbPolygonMeshVertex
 10
-0.948
 20
-4.13
 30
4.387
 70
    64
  0
VERTEX
  5
5F320
100
AcDbEntity
  8
0
100
AcDbVertex
100
AcDbPolygonMeshVertex
 10
-0.948
 20
-4.13
 30
4.387
 70
    64
  0
VERTEX
  5
5F321
100
AcDbEntity
  8
0
100
AcDbVertex
100
AcDbPolygonMeshVertex
 10
-1.388
 20
-4.13
 30
4.857
 70
    64
  0
VERTEX
  5
5F322
100
AcDbEntity
  8
0
100
AcDbVertex
100
AcDbPolygonMeshVertex
 10
-1.388
 20
-4.13
 30
4.387
 70
    64
  0
VERTEX
  5
5F323
100
AcDbEntity
  8
0
100
AcDbVertex
100
AcDbPolygonMeshVertex
 10
-1.388
 20
-4.13
 30
4.387
 70
    64
  0
VERTEX
  5
5F324
100
AcDbEntity
  8
0
100
AcDbVertex
100
AcDbPolygonMeshVertex
 10
-1.388
 20
-3.75
 30
4.857
 70
    64
  0
VERTEX
  5
5F325
100
AcDbEntity
  8
0
100
AcDbVertex
100
AcDbPolygonMeshVertex
 10
-1.388
 20
-3.75
 30
4.387
 70
    64
  0
VERTEX
  5
5F326
100
AcDbEntity
  8
0
100
AcDbVertex
100
AcDbPolygonMeshVertex
 10
-1.388
 20
-4.13
 30
4.387
 70
    64
  0
VERTEX
  5
5F327
100
AcDbEntity
  8
0
100
AcDbVertex
100
AcDbPolygonMeshVertex
 10
-0.948
 20
-3.75
 30
4.857
 70
    64
  0
VERTEX
  5
5F328
100
AcDbEntity
  8
0
100
AcDbVertex
100
AcDbPolygonMeshVertex
 10
-0.948
 20
-3.75
 30
4.387
 70
    64
  0
VERTEX
  5
5F329
100
AcDbEntity
  8
0
100
AcDbVertex
100
AcDbPolygonMeshVertex
 10
-0.948
 20
-4.13
 30
4.387
 70
    64
  0
VERTEX
  5
5F32A
100
AcDbEntity
  8
0
100
AcDbVertex
100
AcDbPolygonMeshVertex
 10
-0.948
 20
-3.75
 30
4.857
 70
    64
  0
VERTEX
  5
5F32B
100
AcDbEntity
  8
0
100
AcDbVertex
100
AcDbPolygonMeshVertex
 10
-0.948
 20
-3.75
 30
4.857
 70
    64
  0
VERTEX
  5
5F32C
100
AcDbEntity
  8
0
100
AcDbVertex
100
AcDbPolygonMeshVertex
 10
-0.948
 20
-4.13
 30
4.857
 70
    64
  0
VERTEX
  5
5F32D
100
AcDbEntity
  8
0
100
AcDbVertex
100
AcDbPolygonMeshVertex
 10
-1.388
 20
-3.75
 30
4.857
 70
    64
  0
VERTEX
  5
5F32E
100
AcDbEntity
  8
0
100
AcDbVertex
100
AcDbPolygonMeshVertex
 10
-1.388
 20
-3.75
 30
4.857
 70
    64
  0
VERTEX
  5
5F32F
100
AcDbEntity
  8
0
100
AcDbVertex
100
AcDbPolygonMeshVertex
 10
-1.388
 20
-4.13
 30
4.857
 70
    64
  0
SEQEND
  5
5F330
100
AcDbEntity
  8
0
  0
POLYLINE
  5
5F331
100
AcDbEntity
  8
0
100
AcDbPolygonMesh
 66
     1
 10
0.0
 20
0.0
 30
0.0
 70
    16
 71
     6
 72
     3
  0
VERTEX
  5
5F332
100
AcDbEntity
  8
0
100
AcDbVertex
100
AcDbPolygonMeshVertex
 10
-2.008
 20
-4.13
 30
4.857
 70
    64
  0
VERTEX
  5
5F333
100
AcDbEntity
  8
0
100
AcDbVertex
100
AcDbPolygonMeshVertex
 10
-2.008
 20
-4.13
 30
4.387
 70
    64
  0
VERTEX
  5
5F334
100
AcDbEntity
  8
0
100
AcDbVertex
100
AcDbPolygonMeshVertex
 10
-2.008
 20
-4.13
 30
4.387
 70
    64
  0
VERTEX
  5
5F335
100
AcDbEntity
  8
0
100
AcDbVertex
100
AcDbPolygonMeshVertex
 10
-2.448
 20
-4.13
 30
4.857
 70
    64
  0
VERTEX
  5
5F336
100
AcDbEntity
  8
0
100
AcDbVertex
100
AcDbPolygonMeshVertex
 10
-2.448
 20
-4.13
 30
4.387
 70
    64
  0
VERTEX
  5
5F337
100
AcDbEntity
  8
0
100
AcDbVertex
100
AcDbPolygonMeshVertex
 10
-2.448
 20
-4.13
 30
4.387
 70
    64
  0
VERTEX
  5
5F338
100
AcDbEntity
  8
0
100
AcDbVertex
100
AcDbPolygonMeshVertex
 10
-2.448
 20
-3.75
 30
4.857
 70
    64
  0
VERTEX
  5
5F339
100
AcDbEntity
  8
0
100
AcDbVertex
100
AcDbPolygonMeshVertex
 10
-2.448
 20
-3.75
 30
4.387
 70
    64
  0
VERTEX
  5
5F33A
100
AcDbEntity
  8
0
100
AcDbVertex
100
AcDbPolygonMeshVertex
 10
-2.448
 20
-4.13
 30
4.387
 70
    64
  0
VERTEX
  5
5F33B
100
AcDbEntity
  8
0
100
AcDbVertex
100
AcDbPolygonMeshVertex
 10
-2.008
 20
-3.75
 30
4.857
 70
    64
  0
VERTEX
  5
5F33C
100
AcDbEntity
  8
0
100
AcDbVertex
100
AcDbPolygonMeshVertex
 10
-2.008
 20
-3.75
 30
4.387
 70
    64
  0
VERTEX
  5
5F33D
100
AcDbEntity
  8
0
100
AcDbVertex
100
AcDbPolygonMeshVertex
 10
-2.008
 20
-4.13
 30
4.387
 70
    64
  0
VERTEX
  5
5F33E
100
AcDbEntity
  8
0
100
AcDbVertex
100
AcDbPolygonMeshVertex
 10
-2.008
 20
-3.75
 30
4.857
 70
    64
  0
VERTEX
  5
5F33F
100
AcDbEntity
  8
0
100
AcDbVertex
100
AcDbPolygonMeshVertex
 10
-2.008
 20
-3.75
 30
4.857
 70
    64
  0
VERTEX
  5
5F340
100
AcDbEntity
  8
0
100
AcDbVertex
100
AcDbPolygonMeshVertex
 10
-2.008
 20
-4.13
 30
4.857
 70
    64
  0
VERTEX
  5
5F341
100
AcDbEntity
  8
0
100
AcDbVertex
100
AcDbPolygonMeshVertex
 10
-2.448
 20
-3.75
 30
4.857
 70
    64
  0
VERTEX
  5
5F342
100
AcDbEntity
  8
0
100
AcDbVertex
100
AcDbPolygonMeshVertex
 10
-2.448
 20
-3.75
 30
4.857
 70
    64
  0
VERTEX
  5
5F343
100
AcDbEntity
  8
0
100
AcDbVertex
100
AcDbPolygonMeshVertex
 10
-2.448
 20
-4.13
 30
4.857
 70
    64
  0
SEQEND
  5
5F344
100
AcDbEntity
  8
0
  0
LINE
  5
5F345
100
AcDbEntity
  8
0
100
AcDbLine
 10
-3.378
 20
-2.24
 30
4.017
 11
-3.378
 21
-2.24
 31
0.577
  0
POLYLINE
  5
5F346
100
AcDbEntity
  8
0
100
AcDbPolygonMesh
 66
     1
 10
0.0
 20
0.0
 30
0.0
 70
    16
 71
     6
 72
     3
  0
VERTEX
  5
5F347
100
AcDbEntity
  8
0
100
AcDbVertex
100
AcDbPolygonMeshVertex
 10
-0.018
 20
-5.63
 30
4.017
 70
    64
  0
VERTEX
  5
5F348
100
AcDbEntity
  8
0
100
AcDbVertex
100
AcDbPolygonMeshVertex
 10
-0.018
 20
-5.63
 30
0.577
 70
    64
  0
VERTEX
  5
5F349
100
AcDbEntity
  8
0
100
AcDbVertex
100
AcDbPolygonMeshVertex
 10
-0.018
 20
-5.63
 30
0.577
 70
    64
  0
VERTEX
  5
5F34A
100
AcDbEntity
  8
0
100
AcDbVertex
100
AcDbPolygonMeshVertex
 10
-3.378
 20
-5.63
 30
4.017
 70
    64
  0
VERTEX
  5
5F34B
100
AcDbEntity
  8
0
100
AcDbVertex
100
AcDbPolygonMeshVertex
 10
-3.378
 20
-5.63
 30
0.577
 70
    64
  0
VERTEX
  5
5F34C
100
AcDbEntity
  8
0
100
AcDbVertex
100
AcDbPolygonMeshVertex
 10
-3.378
 20
-5.63
 30
0.577
 70
    64
  0
VERTEX
  5
5F34D
100
AcDbEntity
  8
0
100
AcDbVertex
100
AcDbPolygonMeshVertex
 10
-3.378
 20
-2.24
 30
4.017
 70
    64
  0
VERTEX
  5
5F34E
100
AcDbEntity
  8
0
100
AcDbVertex
100
AcDbPolygonMeshVertex
 10
-3.378
 20
-2.24
 30
0.577
 70
    64
  0
VERTEX
  5
5F34F
100
AcDbEntity
  8
0
100
AcDbVertex
100
AcDbPolygonMeshVertex
 10
-3.378
 20
-5.63
 30
0.577
 70
    64
  0
VERTEX
  5
5F350
100
AcDbEntity
  8
0
100
AcDbVertex
100
AcDbPolygonMeshVertex
 10
-0.018
 20
-2.24
 30
4.017
 70
    64
  0
VERTEX
  5
5F351
100
AcDbEntity
  8
0
100
AcDbVertex
100
AcDbPolygonMeshVertex
 10
-0.018
 20
-2.24
 30
0.577
 70
    64
  0
VERTEX
  5
5F352
100
AcDbEntity
  8
0
100
AcDbVertex
100
AcDbPolygonMeshVertex
 10
-0.018
 20
-5.63
 30
0.577
 70
    64
  0
VERTEX
  5
5F353
100
AcDbEntity
  8
0
100
AcDbVertex
100
AcDbPolygonMeshVertex
 10
-0.018
 20
-2.24
 30
4.017
 70
    64
  0
VERTEX
  5
5F354
100
AcDbEntity
  8
0
100
AcDbVertex
100
AcDbPolygonMeshVertex
 10
-0.018
 20
-2.24
 30
4.017
 70
    64
  0
VERTEX
  5
5F355
100
AcDbEntity
  8
0
100
AcDbVertex
100
AcDbPolygonMeshVertex
 10
-0.018
 20
-5.63
 30
4.017
 70
    64
  0
VERTEX
  5
5F356
100
AcDbEntity
  8
0
100
AcDbVertex
100
AcDbPolygonMeshVertex
 10
-3.378
 20
-2.24
 30
4.017
 70
    64
  0
VERTEX
  5
5F357
100
AcDbEntity
  8
0
100
AcDbVertex
100
AcDbPolygonMeshVertex
 10
-3.378
 20
-2.24
 30
4.017
 70
    64
  0
VERTEX
  5
5F358
100
AcDbEntity
  8
0
100
AcDbVertex
100
AcDbPolygonMeshVertex
 10
-3.378
 20
-5.63
 30
4.017
 70
    64
  0
SEQEND
  5
5F359
100
AcDbEntity
  8
0
  0
POLYLINE
  5
5F35A
100
AcDbEntity
  8
0
100
AcDbPolygonMesh
 66
     1
 10
0.0
 20
0.0
 30
0.0
 70
    16
 71
     6
 72
     3
  0
VERTEX
  5
5F35B
100
AcDbEntity
  8
0
100
AcDbVertex
100
AcDbPolygonMeshVertex
 10
-0.018
 20
-5.88
 30
3.237
 70
    64
  0
VERTEX
  5
5F35C
100
AcDbEntity
  8
0
100
AcDbVertex
100
AcDbPolygonMeshVertex
 10
-0.018
 20
-5.88
 30
2.007
 70
    64
  0
VERTEX
  5
5F35D
100
AcDbEntity
  8
0
100
AcDbVertex
100
AcDbPolygonMeshVertex
 10
-0.018
 20
-5.88
 30
2.007
 70
    64
  0
VERTEX
  5
5F35E
100
AcDbEntity
  8
0
100
AcDbVertex
100
AcDbPolygonMeshVertex
 10
-3.378
 20
-5.88
 30
3.237
 70
    64
  0
VERTEX
  5
5F35F
100
AcDbEntity
  8
0
100
AcDbVertex
100
AcDbPolygonMeshVertex
 10
-3.378
 20
-5.88
 30
2.007
 70
    64
  0
VERTEX
  5
5F360
100
AcDbEntity
  8
0
100
AcDbVertex
100
AcDbPolygonMeshVertex
 10
-3.378
 20
-5.88
 30
2.007
 70
    64
  0
VERTEX
  5
5F361
100
AcDbEntity
  8
0
100
AcDbVertex
100
AcDbPolygonMeshVertex
 10
-3.378
 20
-5.63
 30
3.237
 70
    64
  0
VERTEX
  5
5F362
100
AcDbEntity
  8
0
100
AcDbVertex
100
AcDbPolygonMeshVertex
 10
-3.378
 20
-5.63
 30
2.007
 70
    64
  0
VERTEX
  5
5F363
100
AcDbEntity
  8
0
100
AcDbVertex
100
AcDbPolygonMeshVertex
 10
-3.378
 20
-5.88
 30
2.007
 70
    64
  0
VERTEX
  5
5F364
100
AcDbEntity
  8
0
100
AcDbVertex
100
AcDbPolygonMeshVertex
 10
-0.018
 20
-5.63
 30
3.237
 70
    64
  0
VERTEX
  5
5F365
100
AcDbEntity
  8
0
100
AcDbVertex
100
AcDbPolygonMeshVertex
 10
-0.018
 20
-5.63
 30
2.007
 70
    64
  0
VERTEX
  5
5F366
100
AcDbEntity
  8
0
100
AcDbVertex
100
AcDbPolygonMeshVertex
 10
-0.018
 20
-5.88
 30
2.007
 70
    64
  0
VERTEX
  5
5F367
100
AcDbEntity
  8
0
100
AcDbVertex
100
AcDbPolygonMeshVertex
 10
-0.018
 20
-5.63
 30
3.237
 70
    64
  0
VERTEX
  5
5F368
100
AcDbEntity
  8
0
100
AcDbVertex
100
AcDbPolygonMeshVertex
 10
-0.018
 20
-5.63
 30
3.237
 70
    64
  0
VERTEX
  5
5F369
100
AcDbEntity
  8
0
100
AcDbVertex
100
AcDbPolygonMeshVertex
 10
-0.018
 20
-5.88
 30
3.237
 70
    64
  0
VERTEX
  5
5F36A
100
AcDbEntity
  8
0
100
AcDbVertex
100
AcDbPolygonMeshVertex
 10
-3.378
 20
-5.63
 30
3.237
 70
    64
  0
VERTEX
  5
5F36B
100
AcDbEntity
  8
0
100
AcDbVertex
100
AcDbPolygonMeshVertex
 10
-3.378
 20
-5.63
 30
3.237
 70
    64
  0
VERTEX
  5
5F36C
100
AcDbEntity
  8
0
100
AcDbVertex
100
AcDbPolygonMeshVertex
 10
-3.378
 20
-5.88
 30
3.237
 70
    64
  0
SEQEND
  5
5F36D
100
AcDbEntity
  8
0
  0
POLYLINE
  5
5F36E
100
AcDbEntity
  8
0
100
AcDbPolygonMesh
 66
     1
 10
0.0
 20
0.0
 30
0.0
 70
    16
 71
     6
 72
     3
  0
VERTEX
  5
5F36F
100
AcDbEntity
  8
0
100
AcDbVertex
100
AcDbPolygonMeshVertex
 10
-3.378
 20
-5.63
 30
0.577
 70
    64
  0
VERTEX
  5
5F370
100
AcDbEntity
  8
0
100
AcDbVertex
100
AcDbPolygonMeshVertex
 10
-3.378
 20
-5.63
 30
0.577
 70
    64
  0
VERTEX
  5
5F371
100
AcDbEntity
  8
0
100
AcDbVertex
100
AcDbPolygonMeshVertex
 10
-3.378
 20
-5.63
 30
0.577
 70
    64
  0
VERTEX
  5
5F372
100
AcDbEntity
  8
0
100
AcDbVertex
100
AcDbPolygonMeshVertex
 10
-3.378
 20
-5.88
 30
2.007
 70
    64
  0
VERTEX
  5
5F373
100
AcDbEntity
  8
0
100
AcDbVertex
100
AcDbPolygonMeshVertex
 10
-3.378
 20
-5.63
 30
2.007
 70
    64
  0
VERTEX
  5
5F374
100
AcDbEntity
  8
0
100
AcDbVertex
100
AcDbPolygonMeshVertex
 10
-3.378
 20
-5.63
 30
2.007
 70
    64
  0
VERTEX
  5
5F375
100
AcDbEntity
  8
0
100
AcDbVertex
100
AcDbPolygonMeshVertex
 10
-0.018
 20
-5.88
 30
2.007
 70
    64
  0
VERTEX
  5
5F376
100
AcDbEntity
  8
0
100
AcDbVertex
100
AcDbPolygonMeshVertex
 10
-0.018
 20
-5.63
 30
2.007
 70
    64
  0
VERTEX
  5
5F377
100
AcDbEntity
  8
0
100
AcDbVertex
100
AcDbPolygonMeshVertex
 10
-3.378
 20
-5.63
 30
2.007
 70
    64
  0
VERTEX
  5
5F378
100
AcDbEntity
  8
0
100
AcDbVertex
100
AcDbPolygonMeshVertex
 10
-0.018
 20
-5.63
 30
0.577
 70
    64
  0
VERTEX
  5
5F379
100
AcDbEntity
  8
0
100
AcDbVertex
100
AcDbPolygonMeshVertex
 10
-0.018
 20
-5.63
 30
0.577
 70
    64
  0
VERTEX
  5
5F37A
100
AcDbEntity
  8
0
100
AcDbVertex
100
AcDbPolygonMeshVertex
 10
-3.378
 20
-5.63
 30
0.577
 70
    64
  0
VERTEX
  5
5F37B
100
AcDbEntity
  8
0
100
AcDbVertex
100
AcDbPolygonMeshVertex
 10
-0.018
 20
-5.63
 30
0.577
 70
    64
  0
VERTEX
  5
5F37C
100
AcDbEntity
  8
0
100
AcDbVertex
100
AcDbPolygonMeshVertex
 10
-0.018
 20
-5.63
 30
0.577
 70
    64
  0
VERTEX
  5
5F37D
100
AcDbEntity
  8
0
100
AcDbVertex
100
AcDbPolygonMeshVertex
 10
-3.378
 20
-5.63
 30
0.577
 70
    64
  0
VERTEX
  5
5F37E
100
AcDbEntity
  8
0
100
AcDbVertex
100
AcDbPolygonMeshVertex
 10
-0.018
 20
-5.88
 30
2.007
 70
    64
  0
VERTEX
  5
5F37F
100
AcDbEntity
  8
0
100
AcDbVertex
100
AcDbPolygonMeshVertex
 10
-0.018
 20
-5.88
 30
2.007
 70
    64
  0
VERTEX
  5
5F380
100
AcDbEntity
  8
0
100
AcDbVertex
100
AcDbPolygonMeshVertex
 10
-3.378
 20
-5.88
 30
2.007
 70
    64
  0
SEQEND
  5
5F381
100
AcDbEntity
  8
0
  0
POLYLINE
  5
5F382
100
AcDbEntity
  8
0
100
AcDbPolygonMesh
 66
     1
 10
0.0
 20
0.0
 30
0.0
 70
    16
 71
     6
 72
     3
  0
VERTEX
  5
5F383
100
AcDbEntity
  8
0
100
AcDbVertex
100
AcDbPolygonMeshVertex
 10
-0.018
 20
-2.24
 30
4.477
 70
    64
  0
VERTEX
  5
5F384
100
AcDbEntity
  8
0
100
AcDbVertex
100
AcDbPolygonMeshVertex
 10
-0.018
 20
-2.24
 30
0.577
 70
    64
  0
VERTEX
  5
5F385
100
AcDbEntity
  8
0
100
AcDbVertex
100
AcDbPolygonMeshVertex
 10
-0.018
 20
-2.24
 30
0.577
 70
    64
  0
VERTEX
  5
5F386
100
AcDbEntity
  8
0
100
AcDbVertex
100
AcDbPolygonMeshVertex
 10
-3.378
 20
-2.24
 30
4.477
 70
    64
  0
VERTEX
  5
5F387
100
AcDbEntity
  8
0
100
AcDbVertex
100
AcDbPolygonMeshVertex
 10
-3.378
 20
-2.24
 30
0.577
 70
    64
  0
VERTEX
  5
5F388
100
AcDbEntity
  8
0
100
AcDbVertex
100
AcDbPolygonMeshVertex
 10
-3.378
 20
-2.24
 30
0.577
 70
    64
  0
VERTEX
  5
5F389
100
AcDbEntity
  8
0
100
AcDbVertex
100
AcDbPolygonMeshVertex
 10
-3.378
 20
-1.56
 30
4.477
 70
    64
  0
VERTEX
  5
5F38A
100
AcDbEntity
  8
0
100
AcDbVertex
100
AcDbPolygonMeshVertex
 10
-3.378
 20
-1.56
 30
0.577
 70
    64
  0
VERTEX
  5
5F38B
100
AcDbEntity
  8
0
100
AcDbVertex
100
AcDbPolygonMeshVertex
 10
-3.378
 20
-2.24
 30
0.577
 70
    64
  0
VERTEX
  5
5F38C
100
AcDbEntity
  8
0
100
AcDbVertex
100
AcDbPolygonMeshVertex
 10
-0.018
 20
-1.56
 30
4.477
 70
    64
  0
VERTEX
  5
5F38D
100
AcDbEntity
  8
0
100
AcDbVertex
100
AcDbPolygonMeshVertex
 10
-0.018
 20
-1.56
 30
0.577
 70
    64
  0
VERTEX
  5
5F38E
100
AcDbEntity
  8
0
100
AcDbVertex
100
AcDbPolygonMeshVertex
 10
-0.018
 20
-2.24
 30
0.577
 70
    64
  0
VERTEX
  5
5F38F
100
AcDbEntity
  8
0
100
AcDbVertex
100
AcDbPolygonMeshVertex
 10
-0.018
 20
-1.56
 30
4.477
 70
    64
  0
VERTEX
  5
5F390
100
AcDbEntity
  8
0
100
AcDbVertex
100
AcDbPolygonMeshVertex
 10
-0.018
 20
-1.56
 30
4.477
 70
    64
  0
VERTEX
  5
5F391
100
AcDbEntity
  8
0
100
AcDbVertex
100
AcDbPolygonMeshVertex
 10
-0.018
 20
-2.24
 30
4.477
 70
    64
  0
VERTEX
  5
5F392
100
AcDbEntity
  8
0
100
AcDbVertex
100
AcDbPolygonMeshVertex
 10
-3.378
 20
-1.56
 30
4.477
 70
    64
  0
VERTEX
  5
5F393
100
AcDbEntity
  8
0
100
AcDbVertex
100
AcDbPolygonMeshVertex
 10
-3.378
 20
-1.56
 30
4.477
 70
    64
  0
VERTEX
  5
5F394
100
AcDbEntity
  8
0
100
AcDbVertex
100
AcDbPolygonMeshVertex
 10
-3.378
 20
-2.24
 30
4.477
 70
    64
  0
SEQEND
  5
5F395
100
AcDbEntity
  8
0
  0
LINE
  5
5F396
100
AcDbEntity
  8
0
100
AcDbLine
 10
-1.078
 20
-1.56
 30
4.477
 11
-1.078
 21
-1.43
 31
4.477
  0
LINE
  5
5F397
100
AcDbEntity
  8
0
100
AcDbLine
 10
-1.078
 20
-1.43
 30
4.477
 11
-1.258
 21
-1.43
 31
4.477
  0
POLYLINE
  5
5F398
100
AcDbEntity
  8
0
100
AcDbPolygonMesh
 66
     1
 10
0.0
 20
0.0
 30
0.0
 70
    16
 71
     6
 72
     3
  0
VERTEX
  5
5F399
100
AcDbEntity
  8
0
100
AcDbVertex
100
AcDbPolygonMeshVertex
 10
-1.258
 20
-1.43
 30
4.857
 70
    64
  0
VERTEX
  5
5F39A
100
AcDbEntity
  8
0
100
AcDbVertex
100
AcDbPolygonMeshVertex
 10
-1.258
 20
-1.43
 30
4.477
 70
    64
  0
VERTEX
  5
5F39B
100
AcDbEntity
  8
0
100
AcDbVertex
100
AcDbPolygonMeshVertex
 10
-1.258
 20
-1.43
 30
4.477
 70
    64
  0
VERTEX
  5
5F39C
100
AcDbEntity
  8
0
100
AcDbVertex
100
AcDbPolygonMeshVertex
 10
-1.078
 20
-1.43
 30
4.857
 70
    64
  0
VERTEX
  5
5F39D
100
AcDbEntity
  8
0
100
AcDbVertex
100
AcDbPolygonMeshVertex
 10
-1.078
 20
-1.43
 30
4.477
 70
    64
  0
VERTEX
  5
5F39E
100
AcDbEntity
  8
0
100
AcDbVertex
100
AcDbPolygonMeshVertex
 10
-1.078
 20
-1.43
 30
4.477
 70
    64
  0
VERTEX
  5
5F39F
100
AcDbEntity
  8
0
100
AcDbVertex
100
AcDbPolygonMeshVertex
 10
-1.078
 20
-2.24
 30
4.857
 70
    64
  0
VERTEX
  5
5F3A0
100
AcDbEntity
  8
0
100
AcDbVertex
100
AcDbPolygonMeshVertex
 10
-1.078
 20
-2.24
 30
4.477
 70
    64
  0
VERTEX
  5
5F3A1
100
AcDbEntity
  8
0
100
AcDbVertex
100
AcDbPolygonMeshVertex
 10
-1.078
 20
-1.43
 30
4.477
 70
    64
  0
VERTEX
  5
5F3A2
100
AcDbEntity
  8
0
100
AcDbVertex
100
AcDbPolygonMeshVertex
 10
-1.258
 20
-2.24
 30
4.857
 70
    64
  0
VERTEX
  5
5F3A3
100
AcDbEntity
  8
0
100
AcDbVertex
100
AcDbPolygonMeshVertex
 10
-1.258
 20
-2.24
 30
4.477
 70
    64
  0
VERTEX
  5
5F3A4
100
AcDbEntity
  8
0
100
AcDbVertex
100
AcDbPolygonMeshVertex
 10
-1.258
 20
-1.43
 30
4.477
 70
    64
  0
VERTEX
  5
5F3A5
100
AcDbEntity
  8
0
100
AcDbVertex
100
AcDbPolygonMeshVertex
 10
-1.258
 20
-2.24
 30
4.857
 70
    64
  0
VERTEX
  5
5F3A6
100
AcDbEntity
  8
0
100
AcDbVertex
100
AcDbPolygonMeshVertex
 10
-1.258
 20
-2.24
 30
4.857
 70
    64
  0
VERTEX
  5
5F3A7
100
AcDbEntity
  8
0
100
AcDbVertex
100
AcDbPolygonMeshVertex
 10
-1.258
 20
-1.43
 30
4.857
 70
    64
  0
VERTEX
  5
5F3A8
100
AcDbEntity
  8
0
100
AcDbVertex
100
AcDbPolygonMeshVertex
 10
-1.078
 20
-2.24
 30
4.857
 70
    64
  0
VERTEX
  5
5F3A9
100
AcDbEntity
  8
0
100
AcDbVertex
100
AcDbPolygonMeshVertex
 10
-1.078
 20
-2.24
 30
4.857
 70
    64
  0
VERTEX
  5
5F3AA
100
AcDbEntity
  8
0
100
AcDbVertex
100
AcDbPolygonMeshVertex
 10
-1.078
 20
-1.43
 30
4.857
 70
    64
  0
SEQEND
  5
5F3AB
100
AcDbEntity
  8
0
  0
POLYLINE
  5
5F3AC
100
AcDbEntity
  8
0
100
AcDbPolygonMesh
 66
     1
 10
0.0
 20
0.0
 30
0.0
 70
    16
 71
     6
 72
     3
  0
VERTEX
  5
5F3AD
100
AcDbEntity
  8
0
100
AcDbVertex
100
AcDbPolygonMeshVertex
 10
-1.258
 20
-1.43
 30
4.477
 70
    64
  0
VERTEX
  5
5F3AE
100
AcDbEntity
  8
0
100
AcDbVertex
100
AcDbPolygonMeshVertex
 10
-1.258
 20
-1.43
 30
3.357
 70
    64
  0
VERTEX
  5
5F3AF
100
AcDbEntity
  8
0
100
AcDbVertex
100
AcDbPolygonMeshVertex
 10
-1.258
 20
-1.43
 30
3.357
 70
    64
  0
VERTEX
  5
5F3B0
100
AcDbEntity
  8
0
100
AcDbVertex
100
AcDbPolygonMeshVertex
 10
-1.078
 20
-1.43
 30
4.477
 70
    64
  0
VERTEX
  5
5F3B1
100
AcDbEntity
  8
0
100
AcDbVertex
100
AcDbPolygonMeshVertex
 10
-1.078
 20
-1.43
 30
3.357
 70
    64
  0
VERTEX
  5
5F3B2
100
AcDbEntity
  8
0
100
AcDbVertex
100
AcDbPolygonMeshVertex
 10
-1.078
 20
-1.43
 30
3.357
 70
    64
  0
VERTEX
  5
5F3B3
100
AcDbEntity
  8
0
100
AcDbVertex
100
AcDbPolygonMeshVertex
 10
-1.078
 20
-1.56
 30
4.477
 70
    64
  0
VERTEX
  5
5F3B4
100
AcDbEntity
  8
0
100
AcDbVertex
100
AcDbPolygonMeshVertex
 10
-1.078
 20
-1.56
 30
3.357
 70
    64
  0
VERTEX
  5
5F3B5
100
AcDbEntity
  8
0
100
AcDbVertex
100
AcDbPolygonMeshVertex
 10
-1.078
 20
-1.43
 30
3.357
 70
    64
  0
VERTEX
  5
5F3B6
100
AcDbEntity
  8
0
100
AcDbVertex
100
AcDbPolygonMeshVertex
 10
-1.258
 20
-1.56
 30
4.477
 70
    64
  0
VERTEX
  5
5F3B7
100
AcDbEntity
  8
0
100
AcDbVertex
100
AcDbPolygonMeshVertex
 10
-1.258
 20
-1.56
 30
3.357
 70
    64
  0
VERTEX
  5
5F3B8
100
AcDbEntity
  8
0
100
AcDbVertex
100
AcDbPolygonMeshVertex
 10
-1.258
 20
-1.43
 30
3.357
 70
    64
  0
VERTEX
  5
5F3B9
100
AcDbEntity
  8
0
100
AcDbVertex
100
AcDbPolygonMeshVertex
 10
-1.258
 20
-1.56
 30
4.477
 70
    64
  0
VERTEX
  5
5F3BA
100
AcDbEntity
  8
0
100
AcDbVertex
100
AcDbPolygonMeshVertex
 10
-1.258
 20
-1.56
 30
4.477
 70
    64
  0
VERTEX
  5
5F3BB
100
AcDbEntity
  8
0
100
AcDbVertex
100
AcDbPolygonMeshVertex
 10
-1.258
 20
-1.43
 30
4.477
 70
    64
  0
VERTEX
  5
5F3BC
100
AcDbEntity
  8
0
100
AcDbVertex
100
AcDbPolygonMeshVertex
 10
-1.078
 20
-1.56
 30
4.477
 70
    64
  0
VERTEX
  5
5F3BD
100
AcDbEntity
  8
0
100
AcDbVertex
100
AcDbPolygonMeshVertex
 10
-1.078
 20
-1.56
 30
4.477
 70
    64
  0
VERTEX
  5
5F3BE
100
AcDbEntity
  8
0
100
AcDbVertex
100
AcDbPolygonMeshVertex
 10
-1.078
 20
-1.43
 30
4.477
 70
    64
  0
SEQEND
  5
5F3BF
100
AcDbEntity
  8
0
  0
POLYLINE
  5
5F3C0
100
AcDbEntity
  8
0
100
AcDbPolygonMesh
 66
     1
 10
0.0
 20
0.0
 30
0.0
 70
    16
 71
     6
 72
     3
  0
VERTEX
  5
5F3C1
100
AcDbEntity
  8
0
100
AcDbVertex
100
AcDbPolygonMeshVertex
 10
-2.318
 20
-1.43
 30
4.857
 70
    64
  0
VERTEX
  5
5F3C2
100
AcDbEntity
  8
0
100
AcDbVertex
100
AcDbPolygonMeshVertex
 10
-2.318
 20
-1.43
 30
4.477
 70
    64
  0
VERTEX
  5
5F3C3
100
AcDbEntity
  8
0
100
AcDbVertex
100
AcDbPolygonMeshVertex
 10
-2.318
 20
-1.43
 30
4.477
 70
    64
  0
VERTEX
  5
5F3C4
100
AcDbEntity
  8
0
100
AcDbVertex
100
AcDbPolygonMeshVertex
 10
-2.138
 20
-1.43
 30
4.857
 70
    64
  0
VERTEX
  5
5F3C5
100
AcDbEntity
  8
0
100
AcDbVertex
100
AcDbPolygonMeshVertex
 10
-2.138
 20
-1.43
 30
4.477
 70
    64
  0
VERTEX
  5
5F3C6
100
AcDbEntity
  8
0
100
AcDbVertex
100
AcDbPolygonMeshVertex
 10
-2.138
 20
-1.43
 30
4.477
 70
    64
  0
VERTEX
  5
5F3C7
100
AcDbEntity
  8
0
100
AcDbVertex
100
AcDbPolygonMeshVertex
 10
-2.138
 20
-2.24
 30
4.857
 70
    64
  0
VERTEX
  5
5F3C8
100
AcDbEntity
  8
0
100
AcDbVertex
100
AcDbPolygonMeshVertex
 10
-2.138
 20
-2.24
 30
4.477
 70
    64
  0
VERTEX
  5
5F3C9
100
AcDbEntity
  8
0
100
AcDbVertex
100
AcDbPolygonMeshVertex
 10
-2.138
 20
-1.43
 30
4.477
 70
    64
  0
VERTEX
  5
5F3CA
100
AcDbEntity
  8
0
100
AcDbVertex
100
AcDbPolygonMeshVertex
 10
-2.318
 20
-2.24
 30
4.857
 70
    64
  0
VERTEX
  5
5F3CB
100
AcDbEntity
  8
0
100
AcDbVertex
100
AcDbPolygonMeshVertex
 10
-2.318
 20
-2.24
 30
4.477
 70
    64
  0
VERTEX
  5
5F3CC
100
AcDbEntity
  8
0
100
AcDbVertex
100
AcDbPolygonMeshVertex
 10
-2.318
 20
-1.43
 30
4.477
 70
    64
  0
VERTEX
  5
5F3CD
100
AcDbEntity
  8
0
100
AcDbVertex
100
AcDbPolygonMeshVertex
 10
-2.318
 20
-2.24
 30
4.857
 70
    64
  0
VERTEX
  5
5F3CE
100
AcDbEntity
  8
0
100
AcDbVertex
100
AcDbPolygonMeshVertex
 10
-2.318
 20
-2.24
 30
4.857
 70
    64
  0
VERTEX
  5
5F3CF
100
AcDbEntity
  8
0
100
AcDbVertex
100
AcDbPolygonMeshVertex
 10
-2.318
 20
-1.43
 30
4.857
 70
    64
  0
VERTEX
  5
5F3D0
100
AcDbEntity
  8
0
100
AcDbVertex
100
AcDbPolygonMeshVertex
 10
-2.138
 20
-2.24
 30
4.857
 70
    64
  0
VERTEX
  5
5F3D1
100
AcDbEntity
  8
0
100
AcDbVertex
100
AcDbPolygonMeshVertex
 10
-2.138
 20
-2.24
 30
4.857
 70
    64
  0
VERTEX
  5
5F3D2
100
AcDbEntity
  8
0
100
AcDbVertex
100
AcDbPolygonMeshVertex
 10
-2.138
 20
-1.43
 30
4.857
 70
    64
  0
SEQEND
  5
5F3D3
100
AcDbEntity
  8
0
  0
POLYLINE
  5
5F3D4
100
AcDbEntity
  8
0
100
AcDbPolygonMesh
 66
     1
 10
0.0
 20
0.0
 30
0.0
 70
    16
 71
     6
 72
     3
  0
VERTEX
  5
5F3D5
100
AcDbEntity
  8
0
100
AcDbVertex
100
AcDbPolygonMeshVertex
 10
-2.318
 20
-1.43
 30
4.477
 70
    64
  0
VERTEX
  5
5F3D6
100
AcDbEntity
  8
0
100
AcDbVertex
100
AcDbPolygonMeshVertex
 10
-2.318
 20
-1.43
 30
3.357
 70
    64
  0
VERTEX
  5
5F3D7
100
AcDbEntity
  8
0
100
AcDbVertex
100
AcDbPolygonMeshVertex
 10
-2.318
 20
-1.43
 30
3.357
 70
    64
  0
VERTEX
  5
5F3D8
100
AcDbEntity
  8
0
100
AcDbVertex
100
AcDbPolygonMeshVertex
 10
-2.138
 20
-1.43
 30
4.477
 70
    64
  0
VERTEX
  5
5F3D9
100
AcDbEntity
  8
0
100
AcDbVertex
100
AcDbPolygonMeshVertex
 10
-2.138
 20
-1.43
 30
3.357
 70
    64
  0
VERTEX
  5
5F3DA
100
AcDbEntity
  8
0
100
AcDbVertex
100
AcDbPolygonMeshVertex
 10
-2.138
 20
-1.43
 30
3.357
 70
    64
  0
VERTEX
  5
5F3DB
100
AcDbEntity
  8
0
100
AcDbVertex
100
AcDbPolygonMeshVertex
 10
-2.138
 20
-1.56
 30
4.477
 70
    64
  0
VERTEX
  5
5F3DC
100
AcDbEntity
  8
0
100
AcDbVertex
100
AcDbPolygonMeshVertex
 10
-2.138
 20
-1.56
 30
3.357
 70
    64
  0
VERTEX
  5
5F3DD
100
AcDbEntity
  8
0
100
AcDbVertex
100
AcDbPolygonMeshVertex
 10
-2.138
 20
-1.43
 30
3.357
 70
    64
  0
VERTEX
  5
5F3DE
100
AcDbEntity
  8
0
100
AcDbVertex
100
AcDbPolygonMeshVertex
 10
-2.318
 20
-1.56
 30
4.477
 70
    64
  0
VERTEX
  5
5F3DF
100
AcDbEntity
  8
0
100
AcDbVertex
100
AcDbPolygonMeshVertex
 10
-2.318
 20
-1.56
 30
3.357
 70
    64
  0
VERTEX
  5
5F3E0
100
AcDbEntity
  8
0
100
AcDbVertex
100
AcDbPolygonMeshVertex
 10
-2.318
 20
-1.43
 30
3.357
 70
    64
  0
VERTEX
  5
5F3E1
100
AcDbEntity
  8
0
100
AcDbVertex
100
AcDbPolygonMeshVertex
 10
-2.318
 20
-1.56
 30
4.477
 70
    64
  0
VERTEX
  5
5F3E2
100
AcDbEntity
  8
0
100
AcDbVertex
100
AcDbPolygonMeshVertex
 10
-2.318
 20
-1.56
 30
4.477
 70
    64
  0
VERTEX
  5
5F3E3
100
AcDbEntity
  8
0
100
AcDbVertex
100
AcDbPolygonMeshVertex
 10
-2.318
 20
-1.43
 30
4.477
 70
    64
  0
VERTEX
  5
5F3E4
100
AcDbEntity
  8
0
100
AcDbVertex
100
AcDbPolygonMeshVertex
 10
-2.138
 20
-1.56
 30
4.477
 70
    64
  0
VERTEX
  5
5F3E5
100
AcDbEntity
  8
0
100
AcDbVertex
100
AcDbPolygonMeshVertex
 10
-2.138
 20
-1.56
 30
4.477
 70
    64
  0
VERTEX
  5
5F3E6
100
AcDbEntity
  8
0
100
AcDbVertex
100
AcDbPolygonMeshVertex
 10
-2.138
 20
-1.43
 30
4.477
 70
    64
  0
SEQEND
  5
5F3E7
100
AcDbEntity
  8
0
  0
POLYLINE
  5
5F3E8
100
AcDbEntity
  8
0
100
AcDbPolygonMesh
 66
     1
 10
0.0
 20
0.0
 30
0.0
 70
    16
 71
     6
 72
     3
  0
VERTEX
  5
5F3E9
100
AcDbEntity
  8
0
100
AcDbVertex
100
AcDbPolygonMeshVertex
 10
-0.888
 20
-1.65
 30
4.667
 70
    64
  0
VERTEX
  5
5F3EA
100
AcDbEntity
  8
0
100
AcDbVertex
100
AcDbPolygonMeshVertex
 10
-0.888
 20
-1.65
 30
4.477
 70
    64
  0
VERTEX
  5
5F3EB
100
AcDbEntity
  8
0
100
AcDbVertex
100
AcDbPolygonMeshVertex
 10
-0.888
 20
-1.65
 30
4.477
 70
    64
  0
VERTEX
  5
5F3EC
100
AcDbEntity
  8
0
100
AcDbVertex
100
AcDbPolygonMeshVertex
 10
-0.388
 20
-1.65
 30
4.667
 70
    64
  0
VERTEX
  5
5F3ED
100
AcDbEntity
  8
0
100
AcDbVertex
100
AcDbPolygonMeshVertex
 10
-0.388
 20
-1.65
 30
4.477
 70
    64
  0
VERTEX
  5
5F3EE
100
AcDbEntity
  8
0
100
AcDbVertex
100
AcDbPolygonMeshVertex
 10
-0.388
 20
-1.65
 30
4.477
 70
    64
  0
VERTEX
  5
5F3EF
100
AcDbEntity
  8
0
100
AcDbVertex
100
AcDbPolygonMeshVertex
 10
-0.388
 20
-2.06
 30
4.667
 70
    64
  0
VERTEX
  5
5F3F0
100
AcDbEntity
  8
0
100
AcDbVertex
100
AcDbPolygonMeshVertex
 10
-0.388
 20
-2.06
 30
4.477
 70
    64
  0
VERTEX
  5
5F3F1
100
AcDbEntity
  8
0
100
AcDbVertex
100
AcDbPolygonMeshVertex
 10
-0.388
 20
-1.65
 30
4.477
 70
    64
  0
VERTEX
  5
5F3F2
100
AcDbEntity
  8
0
100
AcDbVertex
100
AcDbPolygonMeshVertex
 10
-0.888
 20
-2.06
 30
4.667
 70
    64
  0
VERTEX
  5
5F3F3
100
AcDbEntity
  8
0
100
AcDbVertex
100
AcDbPolygonMeshVertex
 10
-0.888
 20
-2.06
 30
4.477
 70
    64
  0
VERTEX
  5
5F3F4
100
AcDbEntity
  8
0
100
AcDbVertex
100
AcDbPolygonMeshVertex
 10
-0.888
 20
-1.65
 30
4.477
 70
    64
  0
VERTEX
  5
5F3F5
100
AcDbEntity
  8
0
100
AcDbVertex
100
AcDbPolygonMeshVertex
 10
-0.888
 20
-2.06
 30
4.667
 70
    64
  0
VERTEX
  5
5F3F6
100
AcDbEntity
  8
0
100
AcDbVertex
100
AcDbPolygonMeshVertex
 10
-0.888
 20
-2.06
 30
4.667
 70
    64
  0
VERTEX
  5
5F3F7
100
AcDbEntity
  8
0
100
AcDbVertex
100
AcDbPolygonMeshVertex
 10
-0.888
 20
-1.65
 30
4.667
 70
    64
  0
VERTEX
  5
5F3F8
100
AcDbEntity
  8
0
100
AcDbVertex
100
AcDbPolygonMeshVertex
 10
-0.388
 20
-2.06
 30
4.667
 70
    64
  0
VERTEX
  5
5F3F9
100
AcDbEntity
  8
0
100
AcDbVertex
100
AcDbPolygonMeshVertex
 10
-0.388
 20
-2.06
 30
4.667
 70
    64
  0
VERTEX
  5
5F3FA
100
AcDbEntity
  8
0
100
AcDbVertex
100
AcDbPolygonMeshVertex
 10
-0.388
 20
-1.65
 30
4.667
 70
    64
  0
SEQEND
  5
5F3FB
100
AcDbEntity
  8
0
  0
LINE
  5
5F3FC
100
AcDbEntity
  8
0
100
AcDbLine
 10
-1.833722
 20
-1.987964
 30
4.667
 11
-1.602471
 21
-1.690762
 31
4.667
  0
LINE
  5
5F3FD
100
AcDbEntity
  8
0
100
AcDbLine
 10
-1.793035
 20
-2.018318
 30
4.667
 11
-1.561784
 21
-1.721115
 31
4.667
  0
CIRCLE
  5
5F3FE
100
AcDbEntity
  8
0
100
AcDbCircle
 10
-1.698
 20
-1.855
 30
4.667
 40
0.19
  0
POLYLINE
  5
5F3FF
100
AcDbEntity
  8
0
100
AcDbPolygonMesh
 66
     1
 10
0.0
 20
0.0
 30
0.0
 70
    16
 71
     6
 72
     3
  0
VERTEX
  5
5F400
100
AcDbEntity
  8
0
100
AcDbVertex
100
AcDbPolygonMeshVertex
 10
-1.948
 20
-1.65
 30
4.667
 70
    64
  0
VERTEX
  5
5F401
100
AcDbEntity
  8
0
100
AcDbVertex
100
AcDbPolygonMeshVertex
 10
-1.948
 20
-1.65
 30
4.477
 70
    64
  0
VERTEX
  5
5F402
100
AcDbEntity
  8
0
100
AcDbVertex
100
AcDbPolygonMeshVertex
 10
-1.948
 20
-1.65
 30
4.477
 70
    64
  0
VERTEX
  5
5F403
100
AcDbEntity
  8
0
100
AcDbVertex
100
AcDbPolygonMeshVertex
 10
-1.448
 20
-1.65
 30
4.667
 70
    64
  0
VERTEX
  5
5F404
100
AcDbEntity
  8
0
100
AcDbVertex
100
AcDbPolygonMeshVertex
 10
-1.448
 20
-1.65
 30
4.477
 70
    64
  0
VERTEX
  5
5F405
100
AcDbEntity
  8
0
100
AcDbVertex
100
AcDbPolygonMeshVertex
 10
-1.448
 20
-1.65
 30
4.477
 70
    64
  0
VERTEX
  5
5F406
100
AcDbEntity
  8
0
100
AcDbVertex
100
AcDbPolygonMeshVertex
 10
-1.448
 20
-2.06
 30
4.667
 70
    64
  0
VERTEX
  5
5F407
100
AcDbEntity
  8
0
100
AcDbVertex
100
AcDbPolygonMeshVertex
 10
-1.448
 20
-2.06
 30
4.477
 70
    64
  0
VERTEX
  5
5F408
100
AcDbEntity
  8
0
100
AcDbVertex
100
AcDbPolygonMeshVertex
 10
-1.448
 20
-1.65
 30
4.477
 70
    64
  0
VERTEX
  5
5F409
100
AcDbEntity
  8
0
100
AcDbVertex
100
AcDbPolygonMeshVertex
 10
-1.948
 20
-2.06
 30
4.667
 70
    64
  0
VERTEX
  5
5F40A
100
AcDbEntity
  8
0
100
AcDbVertex
100
AcDbPolygonMeshVertex
 10
-1.948
 20
-2.06
 30
4.477
 70
    64
  0
VERTEX
  5
5F40B
100
AcDbEntity
  8
0
100
AcDbVertex
100
AcDbPolygonMeshVertex
 10
-1.948
 20
-1.65
 30
4.477
 70
    64
  0
VERTEX
  5
5F40C
100
AcDbEntity
  8
0
100
AcDbVertex
100
AcDbPolygonMeshVertex
 10
-1.948
 20
-2.06
 30
4.667
 70
    64
  0
VERTEX
  5
5F40D
100
AcDbEntity
  8
0
100
AcDbVertex
100
AcDbPolygonMeshVertex
 10
-1.948
 20
-2.06
 30
4.667
 70
    64
  0
VERTEX
  5
5F40E
100
AcDbEntity
  8
0
100
AcDbVertex
100
AcDbPolygonMeshVertex
 10
-1.948
 20
-1.65
 30
4.667
 70
    64
  0
VERTEX
  5
5F40F
100
AcDbEntity
  8
0
100
AcDbVertex
100
AcDbPolygonMeshVertex
 10
-1.448
 20
-2.06
 30
4.667
 70
    64
  0
VERTEX
  5
5F410
100
AcDbEntity
  8
0
100
AcDbVertex
100
AcDbPolygonMeshVertex
 10
-1.448
 20
-2.06
 30
4.667
 70
    64
  0
VERTEX
  5
5F411
100
AcDbEntity
  8
0
100
AcDbVertex
100
AcDbPolygonMeshVertex
 10
-1.448
 20
-1.65
 30
4.667
 70
    64
  0
SEQEND
  5
5F412
100
AcDbEntity
  8
0
  0
LINE
  5
5F413
100
AcDbEntity
  8
0
100
AcDbLine
 10
-2.893722
 20
-1.987964
 30
4.667
 11
-2.662471
 21
-1.690762
 31
4.667
  0
LINE
  5
5F414
100
AcDbEntity
  8
0
100
AcDbLine
 10
-2.853035
 20
-2.018318
 30
4.667
 11
-2.621784
 21
-1.721115
 31
4.667
  0
CIRCLE
  5
5F415
100
AcDbEntity
  8
0
100
AcDbCircle
 10
-2.758
 20
-1.855
 30
4.667
 40
0.19
  0
POLYLINE
  5
5F416
100
AcDbEntity
  8
0
100
AcDbPolygonMesh
 66
     1
 10
0.0
 20
0.0
 30
0.0
 70
    16
 71
     6
 72
     3
  0
VERTEX
  5
5F417
100
AcDbEntity
  8
0
100
AcDbVertex
100
AcDbPolygonMeshVertex
 10
-3.008
 20
-1.65
 30
4.667
 70
    64
  0
VERTEX
  5
5F418
100
AcDbEntity
  8
0
100
AcDbVertex
100
AcDbPolygonMeshVertex
 10
-3.008
 20
-1.65
 30
4.477
 70
    64
  0
VERTEX
  5
5F419
100
AcDbEntity
  8
0
100
AcDbVertex
100
AcDbPolygonMeshVertex
 10
-3.008
 20
-1.65
 30
4.477
 70
    64
  0
VERTEX
  5
5F41A
100
AcDbEntity
  8
0
100
AcDbVertex
100
AcDbPolygonMeshVertex
 10
-2.508
 20
-1.65
 30
4.667
 70
    64
  0
VERTEX
  5
5F41B
100
AcDbEntity
  8
0
100
AcDbVertex
100
AcDbPolygonMeshVertex
 10
-2.508
 20
-1.65
 30
4.477
 70
    64
  0
VERTEX
  5
5F41C
100
AcDbEntity
  8
0
100
AcDbVertex
100
AcDbPolygonMeshVertex
 10
-2.508
 20
-1.65
 30
4.477
 70
    64
  0
VERTEX
  5
5F41D
100
AcDbEntity
  8
0
100
AcDbVertex
100
AcDbPolygonMeshVertex
 10
-2.508
 20
-2.06
 30
4.667
 70
    64
  0
VERTEX
  5
5F41E
100
AcDbEntity
  8
0
100
AcDbVertex
100
AcDbPolygonMeshVertex
 10
-2.508
 20
-2.06
 30
4.477
 70
    64
  0
VERTEX
  5
5F41F
100
AcDbEntity
  8
0
100
AcDbVertex
100
AcDbPolygonMeshVertex
 10
-2.508
 20
-1.65
 30
4.477
 70
    64
  0
VERTEX
  5
5F420
100
AcDbEntity
  8
0
100
AcDbVertex
100
AcDbPolygonMeshVertex
 10
-3.008
 20
-2.06
 30
4.667
 70
    64
  0
VERTEX
  5
5F421
100
AcDbEntity
  8
0
100
AcDbVertex
100
AcDbPolygonMeshVertex
 10
-3.008
 20
-2.06
 30
4.477
 70
    64
  0
VERTEX
  5
5F422
100
AcDbEntity
  8
0
100
AcDbVertex
100
AcDbPolygonMeshVertex
 10
-3.008
 20
-1.65
 30
4.477
 70
    64
  0
VERTEX
  5
5F423
100
AcDbEntity
  8
0
100
AcDbVertex
100
AcDbPolygonMeshVertex
 10
-3.008
 20
-2.06
 30
4.667
 70
    64
  0
VERTEX
  5
5F424
100
AcDbEntity
  8
0
100
AcDbVertex
100
AcDbPolygonMeshVertex
 10
-3.008
 20
-2.06
 30
4.667
 70
    64
  0
VERTEX
  5
5F425
100
AcDbEntity
  8
0
100
AcDbVertex
100
AcDbPolygonMeshVertex
 10
-3.008
 20
-1.65
 30
4.667
 70
    64
  0
VERTEX
  5
5F426
100
AcDbEntity
  8
0
100
AcDbVertex
100
AcDbPolygonMeshVertex
 10
-2.508
 20
-2.06
 30
4.667
 70
    64
  0
VERTEX
  5
5F427
100
AcDbEntity
  8
0
100
AcDbVertex
100
AcDbPolygonMeshVertex
 10
-2.508
 20
-2.06
 30
4.667
 70
    64
  0
VERTEX
  5
5F428
100
AcDbEntity
  8
0
100
AcDbVertex
100
AcDbPolygonMeshVertex
 10
-2.508
 20
-1.65
 30
4.667
 70
    64
  0
SEQEND
  5
5F429
100
AcDbEntity
  8
0
  0
POLYLINE
  5
5F42A
100
AcDbEntity
  8
0
100
AcDbPolygonMesh
 66
     1
 10
0.0
 20
0.0
 30
0.0
 70
    16
 71
     6
 72
     3
  0
VERTEX
  5
5F42B
100
AcDbEntity
  8
0
100
AcDbVertex
100
AcDbPolygonMeshVertex
 10
-3.008
 20
-1.09
 30
1.857
 70
    64
  0
VERTEX
  5
5F42C
100
AcDbEntity
  8
0
100
AcDbVertex
100
AcDbPolygonMeshVertex
 10
-3.008
 20
-1.09
 30
1.547
 70
    64
  0
VERTEX
  5
5F42D
100
AcDbEntity
  8
0
100
AcDbVertex
100
AcDbPolygonMeshVertex
 10
-3.008
 20
-1.09
 30
1.547
 70
    64
  0
VERTEX
  5
5F42E
100
AcDbEntity
  8
0
100
AcDbVertex
100
AcDbPolygonMeshVertex
 10
-2.508
 20
-1.09
 30
1.857
 70
    64
  0
VERTEX
  5
5F42F
100
AcDbEntity
  8
0
100
AcDbVertex
100
AcDbPolygonMeshVertex
 10
-2.508
 20
-1.09
 30
1.547
 70
    64
  0
VERTEX
  5
5F430
100
AcDbEntity
  8
0
100
AcDbVertex
100
AcDbPolygonMeshVertex
 10
-2.508
 20
-1.09
 30
1.547
 70
    64
  0
VERTEX
  5
5F431
100
AcDbEntity
  8
0
100
AcDbVertex
100
AcDbPolygonMeshVertex
 10
-2.508
 20
-1.56
 30
1.857
 70
    64
  0
VERTEX
  5
5F432
100
AcDbEntity
  8
0
100
AcDbVertex
100
AcDbPolygonMeshVertex
 10
-2.508
 20
-1.56
 30
1.547
 70
    64
  0
VERTEX
  5
5F433
100
AcDbEntity
  8
0
100
AcDbVertex
100
AcDbPolygonMeshVertex
 10
-2.508
 20
-1.09
 30
1.547
 70
    64
  0
VERTEX
  5
5F434
100
AcDbEntity
  8
0
100
AcDbVertex
100
AcDbPolygonMeshVertex
 10
-3.008
 20
-1.56
 30
1.857
 70
    64
  0
VERTEX
  5
5F435
100
AcDbEntity
  8
0
100
AcDbVertex
100
AcDbPolygonMeshVertex
 10
-3.008
 20
-1.56
 30
1.547
 70
    64
  0
VERTEX
  5
5F436
100
AcDbEntity
  8
0
100
AcDbVertex
100
AcDbPolygonMeshVertex
 10
-3.008
 20
-1.09
 30
1.547
 70
    64
  0
VERTEX
  5
5F437
100
AcDbEntity
  8
0
100
AcDbVertex
100
AcDbPolygonMeshVertex
 10
-3.008
 20
-1.56
 30
1.857
 70
    64
  0
VERTEX
  5
5F438
100
AcDbEntity
  8
0
100
AcDbVertex
100
AcDbPolygonMeshVertex
 10
-3.008
 20
-1.56
 30
1.857
 70
    64
  0
VERTEX
  5
5F439
100
AcDbEntity
  8
0
100
AcDbVertex
100
AcDbPolygonMeshVertex
 10
-3.008
 20
-1.09
 30
1.857
 70
    64
  0
VERTEX
  5
5F43A
100
AcDbEntity
  8
0
100
AcDbVertex
100
AcDbPolygonMeshVertex
 10
-2.508
 20
-1.56
 30
1.857
 70
    64
  0
VERTEX
  5
5F43B
100
AcDbEntity
  8
0
100
AcDbVertex
100
AcDbPolygonMeshVertex
 10
-2.508
 20
-1.56
 30
1.857
 70
    64
  0
VERTEX
  5
5F43C
100
AcDbEntity
  8
0
100
AcDbVertex
100
AcDbPolygonMeshVertex
 10
-2.508
 20
-1.09
 30
1.857
 70
    64
  0
SEQEND
  5
5F43D
100
AcDbEntity
  8
0
  0
POLYLINE
  5
5F43E
100
AcDbEntity
  8
0
100
AcDbPolygonMesh
 66
     1
 10
0.0
 20
0.0
 30
0.0
 70
    16
 71
     6
 72
     3
  0
VERTEX
  5
5F43F
100
AcDbEntity
  8
0
100
AcDbVertex
100
AcDbPolygonMeshVertex
 10
-1.948
 20
-1.09
 30
1.857
 70
    64
  0
VERTEX
  5
5F440
100
AcDbEntity
  8
0
100
AcDbVertex
100
AcDbPolygonMeshVertex
 10
-1.948
 20
-1.09
 30
1.547
 70
    64
  0
VERTEX
  5
5F441
100
AcDbEntity
  8
0
100
AcDbVertex
100
AcDbPolygonMeshVertex
 10
-1.948
 20
-1.09
 30
1.547
 70
    64
  0
VERTEX
  5
5F442
100
AcDbEntity
  8
0
100
AcDbVertex
100
AcDbPolygonMeshVertex
 10
-1.448
 20
-1.09
 30
1.857
 70
    64
  0
VERTEX
  5
5F443
100
AcDbEntity
  8
0
100
AcDbVertex
100
AcDbPolygonMeshVertex
 10
-1.448
 20
-1.09
 30
1.547
 70
    64
  0
VERTEX
  5
5F444
100
AcDbEntity
  8
0
100
AcDbVertex
100
AcDbPolygonMeshVertex
 10
-1.448
 20
-1.09
 30
1.547
 70
    64
  0
VERTEX
  5
5F445
100
AcDbEntity
  8
0
100
AcDbVertex
100
AcDbPolygonMeshVertex
 10
-1.448
 20
-1.56
 30
1.857
 70
    64
  0
VERTEX
  5
5F446
100
AcDbEntity
  8
0
100
AcDbVertex
100
AcDbPolygonMeshVertex
 10
-1.448
 20
-1.56
 30
1.547
 70
    64
  0
VERTEX
  5
5F447
100
AcDbEntity
  8
0
100
AcDbVertex
100
AcDbPolygonMeshVertex
 10
-1.448
 20
-1.09
 30
1.547
 70
    64
  0
VERTEX
  5
5F448
100
AcDbEntity
  8
0
100
AcDbVertex
100
AcDbPolygonMeshVertex
 10
-1.948
 20
-1.56
 30
1.857
 70
    64
  0
VERTEX
  5
5F449
100
AcDbEntity
  8
0
100
AcDbVertex
100
AcDbPolygonMeshVertex
 10
-1.948
 20
-1.56
 30
1.547
 70
    64
  0
VERTEX
  5
5F44A
100
AcDbEntity
  8
0
100
AcDbVertex
100
AcDbPolygonMeshVertex
 10
-1.948
 20
-1.09
 30
1.547
 70
    64
  0
VERTEX
  5
5F44B
100
AcDbEntity
  8
0
100
AcDbVertex
100
AcDbPolygonMeshVertex
 10
-1.948
 20
-1.56
 30
1.857
 70
    64
  0
VERTEX
  5
5F44C
100
AcDbEntity
  8
0
100
AcDbVertex
100
AcDbPolygonMeshVertex
 10
-1.948
 20
-1.56
 30
1.857
 70
    64
  0
VERTEX
  5
5F44D
100
AcDbEntity
  8
0
100
AcDbVertex
100
AcDbPolygonMeshVertex
 10
-1.948
 20
-1.09
 30
1.857
 70
    64
  0
VERTEX
  5
5F44E
100
AcDbEntity
  8
0
100
AcDbVertex
100
AcDbPolygonMeshVertex
 10
-1.448
 20
-1.56
 30
1.857
 70
    64
  0
VERTEX
  5
5F44F
100
AcDbEntity
  8
0
100
AcDbVertex
100
AcDbPolygonMeshVertex
 10
-1.448
 20
-1.56
 30
1.857
 70
    64
  0
VERTEX
  5
5F450
100
AcDbEntity
  8
0
100
AcDbVertex
100
AcDbPolygonMeshVertex
 10
-1.448
 20
-1.09
 30
1.857
 70
    64
  0
SEQEND
  5
5F451
100
AcDbEntity
  8
0
  0
CIRCLE
  5
5F452
100
AcDbEntity
  8
0
100
AcDbCircle
 10
-1.698
 20
-1.325
 30
1.867
 40
0.19
  0
LINE
  5
5F453
100
AcDbEntity
  8
0
100
AcDbLine
 10
-1.833722
 20
-1.457964
 30
1.867
 11
-1.602471
 21
-1.160762
 31
1.867
  0
LINE
  5
5F454
100
AcDbEntity
  8
0
100
AcDbLine
 10
-1.793035
 20
-1.488318
 30
1.867
 11
-1.561784
 21
-1.191115
 31
1.867
  0
POLYLINE
  5
5F455
100
AcDbEntity
  8
0
100
AcDbPolygonMesh
 66
     1
 10
0.0
 20
0.0
 30
0.0
 70
    16
 71
     6
 72
     3
  0
VERTEX
  5
5F456
100
AcDbEntity
  8
0
100
AcDbVertex
100
AcDbPolygonMeshVertex
 10
-0.888
 20
-1.09
 30
1.857
 70
    64
  0
VERTEX
  5
5F457
100
AcDbEntity
  8
0
100
AcDbVertex
100
AcDbPolygonMeshVertex
 10
-0.888
 20
-1.09
 30
1.547
 70
    64
  0
VERTEX
  5
5F458
100
AcDbEntity
  8
0
100
AcDbVertex
100
AcDbPolygonMeshVertex
 10
-0.888
 20
-1.09
 30
1.547
 70
    64
  0
VERTEX
  5
5F459
100
AcDbEntity
  8
0
100
AcDbVertex
100
AcDbPolygonMeshVertex
 10
-0.388
 20
-1.09
 30
1.857
 70
    64
  0
VERTEX
  5
5F45A
100
AcDbEntity
  8
0
100
AcDbVertex
100
AcDbPolygonMeshVertex
 10
-0.388
 20
-1.09
 30
1.547
 70
    64
  0
VERTEX
  5
5F45B
100
AcDbEntity
  8
0
100
AcDbVertex
100
AcDbPolygonMeshVertex
 10
-0.388
 20
-1.09
 30
1.547
 70
    64
  0
VERTEX
  5
5F45C
100
AcDbEntity
  8
0
100
AcDbVertex
100
AcDbPolygonMeshVertex
 10
-0.388
 20
-1.56
 30
1.857
 70
    64
  0
VERTEX
  5
5F45D
100
AcDbEntity
  8
0
100
AcDbVertex
100
AcDbPolygonMeshVertex
 10
-0.388
 20
-1.56
 30
1.547
 70
    64
  0
VERTEX
  5
5F45E
100
AcDbEntity
  8
0
100
AcDbVertex
100
AcDbPolygonMeshVertex
 10
-0.388
 20
-1.09
 30
1.547
 70
    64
  0
VERTEX
  5
5F45F
100
AcDbEntity
  8
0
100
AcDbVertex
100
AcDbPolygonMeshVertex
 10
-0.888
 20
-1.56
 30
1.857
 70
    64
  0
VERTEX
  5
5F460
100
AcDbEntity
  8
0
100
AcDbVertex
100
AcDbPolygonMeshVertex
 10
-0.888
 20
-1.56
 30
1.547
 70
    64
  0
VERTEX
  5
5F461
100
AcDbEntity
  8
0
100
AcDbVertex
100
AcDbPolygonMeshVertex
 10
-0.888
 20
-1.09
 30
1.547
 70
    64
  0
VERTEX
  5
5F462
100
AcDbEntity
  8
0
100
AcDbVertex
100
AcDbPolygonMeshVertex
 10
-0.888
 20
-1.56
 30
1.857
 70
    64
  0
VERTEX
  5
5F463
100
AcDbEntity
  8
0
100
AcDbVertex
100
AcDbPolygonMeshVertex
 10
-0.888
 20
-1.56
 30
1.857
 70
    64
  0
VERTEX
  5
5F464
100
AcDbEntity
  8
0
100
AcDbVertex
100
AcDbPolygonMeshVertex
 10
-0.888
 20
-1.09
 30
1.857
 70
    64
  0
VERTEX
  5
5F465
100
AcDbEntity
  8
0
100
AcDbVertex
100
AcDbPolygonMeshVertex
 10
-0.388
 20
-1.56
 30
1.857
 70
    64
  0
VERTEX
  5
5F466
100
AcDbEntity
  8
0
100
AcDbVertex
100
AcDbPolygonMeshVertex
 10
-0.388
 20
-1.56
 30
1.857
 70
    64
  0
VERTEX
  5
5F467
100
AcDbEntity
  8
0
100
AcDbVertex
100
AcDbPolygonMeshVertex
 10
-0.388
 20
-1.09
 30
1.857
 70
    64
  0
SEQEND
  5
5F468
100
AcDbEntity
  8
0
  0
CIRCLE
  5
5F469
100
AcDbEntity
  8
0
100
AcDbCircle
 10
-0.638
 20
-1.325
 30
1.867
 40
0.19
  0
LINE
  5
5F46A
100
AcDbEntity
  8
0
100
AcDbLine
 10
-0.773722
 20
-1.457964
 30
1.867
 11
-0.542471
 21
-1.160762
 31
1.867
  0
LINE
  5
5F46B
100
AcDbEntity
  8
0
100
AcDbLine
 10
-0.733035
 20
-1.488318
 30
1.867
 11
-0.501784
 21
-1.191115
 31
1.867
  0
POLYLINE
  5
5F46C
100
AcDbEntity
  8
0
100
AcDbPolygonMesh
 66
     1
 10
0.0
 20
0.0
 30
0.0
 70
    16
 71
     6
 72
     3
  0
VERTEX
  5
5F46D
100
AcDbEntity
  8
0
100
AcDbVertex
100
AcDbPolygonMeshVertex
 10
0.077
 20
-8.4
 30
0.577
 70
    64
  0
VERTEX
  5
5F46E
100
AcDbEntity
  8
0
100
AcDbVertex
100
AcDbPolygonMeshVertex
 10
0.077
 20
-8.4
 30
0.387
 70
    64
  0
VERTEX
  5
5F46F
100
AcDbEntity
  8
0
100
AcDbVertex
100
AcDbPolygonMeshVertex
 10
0.077
 20
-8.4
 30
0.387
 70
    64
  0
VERTEX
  5
5F470
100
AcDbEntity
  8
0
100
AcDbVertex
100
AcDbPolygonMeshVertex
 10
-3.483
 20
-8.4
 30
0.577
 70
    64
  0
VERTEX
  5
5F471
100
AcDbEntity
  8
0
100
AcDbVertex
100
AcDbPolygonMeshVertex
 10
-3.483
 20
-8.4
 30
0.387
 70
    64
  0
VERTEX
  5
5F472
100
AcDbEntity
  8
0
100
AcDbVertex
100
AcDbPolygonMeshVertex
 10
-3.483
 20
-8.4
 30
0.387
 70
    64
  0
VERTEX
  5
5F473
100
AcDbEntity
  8
0
100
AcDbVertex
100
AcDbPolygonMeshVertex
 10
-3.483
 20
-1.4
 30
0.577
 70
    64
  0
VERTEX
  5
5F474
100
AcDbEntity
  8
0
100
AcDbVertex
100
AcDbPolygonMeshVertex
 10
-3.483
 20
-1.4
 30
0.387
 70
    64
  0
VERTEX
  5
5F475
100
AcDbEntity
  8
0
100
AcDbVertex
100
AcDbPolygonMeshVertex
 10
-3.483
 20
-8.4
 30
0.387
 70
    64
  0
VERTEX
  5
5F476
100
AcDbEntity
  8
0
100
AcDbVertex
100
AcDbPolygonMeshVertex
 10
0.077
 20
-1.4
 30
0.577
 70
    64
  0
VERTEX
  5
5F477
100
AcDbEntity
  8
0
100
AcDbVertex
100
AcDbPolygonMeshVertex
 10
0.077
 20
-1.4
 30
0.387
 70
    64
  0
VERTEX
  5
5F478
100
AcDbEntity
  8
0
100
AcDbVertex
100
AcDbPolygonMeshVertex
 10
0.077
 20
-8.4
 30
0.387
 70
    64
  0
VERTEX
  5
5F479
100
AcDbEntity
  8
0
100
AcDbVertex
100
AcDbPolygonMeshVertex
 10
0.077
 20
-1.4
 30
0.577
 70
    64
  0
VERTEX
  5
5F47A
100
AcDbEntity
  8
0
100
AcDbVertex
100
AcDbPolygonMeshVertex
 10
0.077
 20
-1.4
 30
0.577
 70
    64
  0
VERTEX
  5
5F47B
100
AcDbEntity
  8
0
100
AcDbVertex
100
AcDbPolygonMeshVertex
 10
0.077
 20
-8.4
 30
0.577
 70
    64
  0
VERTEX
  5
5F47C
100
AcDbEntity
  8
0
100
AcDbVertex
100
AcDbPolygonMeshVertex
 10
-3.483
 20
-1.4
 30
0.577
 70
    64
  0
VERTEX
  5
5F47D
100
AcDbEntity
  8
0
100
AcDbVertex
100
AcDbPolygonMeshVertex
 10
-3.483
 20
-1.4
 30
0.577
 70
    64
  0
VERTEX
  5
5F47E
100
AcDbEntity
  8
0
100
AcDbVertex
100
AcDbPolygonMeshVertex
 10
-3.483
 20
-8.4
 30
0.577
 70
    64
  0
SEQEND
  5
5F47F
100
AcDbEntity
  8
0
  0
LINE
  5
5F480
100
AcDbEntity
  8
0
100
AcDbLine
 10
-2.978
 20
-8.4
 30
0.577
 11
-2.978
 21
-8.4
 31
0.387
  0
3DFACE
  5
5F481
100
AcDbEntity
  8
0
100
AcDbFace
 10
0.077
 20
-1.4
 30
0.577
 11
-0.543
 21
-0.78
 31
0.577
 12
-1.983
 22
-0.78
 32
0.577
 13
-2.083
 23
-1.06
 33
0.577
 70
     8
  0
3DFACE
  5
5F482
100
AcDbEntity
  8
0
100
AcDbFace
 10
-2.573
 20
-1.06
 30
0.577
 11
-2.673
 21
-0.78
 31
0.577
 12
-2.863
 22
-0.78
 32
0.577
 13
-3.483
 23
-1.4
 33
0.577
 70
     8
  0
3DFACE
  5
5F483
100
AcDbEntity
  8
0
100
AcDbFace
 10
-2.573
 20
-1.06
 30
0.577
 11
-3.483
 21
-1.4
 31
0.577
 12
0.077
 22
-1.4
 32
0.577
 13
-2.083
 23
-1.06
 33
0.577
 70
    15
  0
3DFACE
  5
5F484
100
AcDbEntity
  8
0
100
AcDbFace
 10
-2.573
 20
-1.06
 30
0.387
 11
-3.483
 21
-1.4
 31
0.387
 12
0.077
 22
-1.4
 32
0.387
 13
-2.083
 23
-1.06
 33
0.387
 70
    15
  0
3DFACE
  5
5F485
100
AcDbEntity
  8
0
100
AcDbFace
 10
0.077
 20
-1.4
 30
0.387
 11
-0.543
 21
-0.78
 31
0.387
 12
-1.983
 22
-0.78
 32
0.387
 13
-2.083
 23
-1.06
 33
0.387
 70
     8
  0
3DFACE
  5
5F486
100
AcDbEntity
  8
0
100
AcDbFace
 10
-2.573
 20
-1.06
 30
0.387
 11
-2.673
 21
-0.78
 31
0.387
 12
-2.863
 22
-0.78
 32
0.387
 13
-3.483
 23
-1.4
 33
0.387
 70
     8
  0
3DFACE
  5
5F487
100
AcDbEntity
  8
0
100
AcDbFace
 10
0.077
 20
-1.4
 30
0.387
 11
0.077
 21
-1.4
 31
0.577
 12
-0.543
 22
-0.78
 32
0.577
 13
-0.543
 23
-0.78
 33
0.387
  0
3DFACE
  5
5F488
100
AcDbEntity
  8
0
100
AcDbFace
 10
-0.543
 20
-0.78
 30
0.577
 11
-1.983
 21
-0.78
 31
0.577
 12
-1.983
 22
-0.78
 32
0.387
 13
-0.543
 23
-0.78
 33
0.387
  0
3DFACE
  5
5F489
100
AcDbEntity
  8
0
100
AcDbFace
 10
-2.573
 20
-1.06
 30
0.577
 11
-2.573
 21
-1.06
 31
0.387
 12
-2.673
 22
-0.78
 32
0.387
 13
-2.673
 23
-0.78
 33
0.577
  0
3DFACE
  5
5F48A
100
AcDbEntity
  8
0
100
AcDbFace
 10
-2.083
 20
-1.06
 30
0.577
 11
-2.083
 21
-1.06
 31
0.387
 12
-2.573
 22
-1.06
 32
0.387
 13
-2.573
 23
-1.06
 33
0.577
  0
3DFACE
  5
5F48B
100
AcDbEntity
  8
0
100
AcDbFace
 10
-2.673
 20
-0.78
 30
0.577
 11
-2.673
 21
-0.78
 31
0.387
 12
-2.863
 22
-0.78
 32
0.387
 13
-2.863
 23
-0.78
 33
0.577
  0
3DFACE
  5
5F48C
100
AcDbEntity
  8
0
100
AcDbFace
 10
-2.083
 20
-1.06
 30
0.577
 11
-2.083
 21
-1.06
 31
0.387
 12
-1.983
 22
-0.78
 32
0.387
 13
-1.983
 23
-0.78
 33
0.577
  0
3DFACE
  5
5F48D
100
AcDbEntity
  8
0
100
AcDbFace
 10
-2.863
 20
-0.78
 30
0.387
 11
-2.863
 21
-0.78
 31
0.577
 12
-3.483
 22
-1.4
 32
0.577
 13
-3.483
 23
-1.4
 33
0.387
  0
TEXT
  5
5F48E
100
AcDbEntity
  8
0
100
AcDbText
 10
2.151358
 20
-1.388191
 30
1.867
 40
0.133902
  1
L1
100
AcDbText
  0
TEXT
  5
5F48F
100
AcDbEntity
  8
0
100
AcDbText
 10
3.205679
 20
-1.389203
 30
1.867
 40
0.133902
  1
L2
100
AcDbText
  0
TEXT
  5
5F490
100
AcDbEntity
  8
0
100
AcDbText
 10
4.2543
 20
-1.384518
 30
1.867
 40
0.133902
  1
L3
100
AcDbText
  0
TEXT
  5
5F491
100
AcDbEntity
  8
0
100
AcDbText
 10
2.07826
 20
-7.243986
 30
4.027
 40
0.133902
  1
T1
100
AcDbText
  0
TEXT
  5
5F492
100
AcDbEntity
  8
0
100
AcDbText
 10
3.111241
 20
-7.257055
 30
4.027
 40
0.133902
  1
T2
100
AcDbText
  0
TEXT
  5
5F493
100
AcDbEntity
  8
0
100
AcDbText
 10
4.180257
 20
-7.252115
 30
4.027
 40
0.133902
  1
T3
100
AcDbText
  0
ATTDEF
  5
5F494
100
AcDbEntity
  8
ATTRIBUTES
100
AcDbText
 10
-3.264927
 20
-5.193549
 30
0.0
 40
0.210924
  1
ALLEN-BRADLEY
100
AcDbAttributeDefinition
  3
MANUFACTURER NAME?
  2
AC_VND_LABEL
 70
     1
  0
ATTDEF
  5
5F495
100
AcDbEntity
  8
ATTRIBUTES
100
AcDbText
 10
-3.264927
 20
-5.632974
 30
0.0
 40
0.210924
  1
520G-A
100
AcDbAttributeDefinition
  3
CATALOG NUMBER?
  2
AC_PART_NO
 70
     1
  0
ATTDEF
  5
5F496
100
AcDbEntity
  8
ATTRIBUTES
100
AcDbText
 10
-3.264927
 20
-6.072399
 30
0.0
 40
0.210924
  1
2 SPEED CONSTANT HP w/ EUTECTIC ALLOY OLR; NEMA SIZE 0 & 1
100
AcDbAttributeDefinition
  3
PART DESCRIPTION?
  2
AC_DESCRIPTION
 70
     1
  0
ATTDEF
  5
5F497
100
AcDbEntity
  8
ATTRIBUTES
100
AcDbText
 10
-3.264927
 20
-6.511824
 30
0.0
 40
0.210924
  1

100
AcDbAttributeDefinition
  3
DEVICE ID?
  2
DEVICE_ID
 70
     1
  0
ATTDEF
  5
5F498
100
AcDbEntity
  8
ATTRIBUTES
100
AcDbText
 10
-3.264927
 20
-6.951249
 30
0.0
 40
0.210924
  1

100
AcDbAttributeDefinition
  3
CUSTOMER PART NUMBER?
  2
AC_CPART_NO
 70
     1
  0
ATTDEF
  5
5F499
100
AcDbEntity
  8
ATTRIBUTES
100
AcDbText
 10
-3.264927
 20
-7.390674
 30
0.0
 40
0.210924
  1

100
AcDbAttributeDefinition
  3
CUSTOMER NOTE?
  2
AC_NOTE
 70
     1
  0
ATTDEF
  5
5F49A
100
AcDbEntity
  8
ATTRIBUTES
100
AcDbText
 10
-3.264927
 20
-7.8301
 30
0.0
 40
0.210924
  1

100
AcDbAttributeDefinition
  3
FASTENER DATA?
  2
FASTENER
 70
     1
  0
ATTDEF
  5
5F49B
100
AcDbEntity
  8
ATTRIBUTES
100
AcDbText
 10
-3.264927
 20
-8.269525
 30
0.0
 40
0.210924
  1
INCH
100
AcDbAttributeDefinition
  3
UNIT OF SCALE?
  2
AC_SCALE_UNIT
 70
     1
  0
ATTDEF
  5
5F49C
100
AcDbEntity
  8
ATTRIBUTES
100
AcDbText
 10
-3.264927
 20
-8.70895
 30
0.0
 40
0.210924
  1
0
100
AcDbAttributeDefinition
  3
VIEW CODE?
  2
AC_VIEW_CODE
 70
     1
  0
POINT
  5
5F49D
100
AcDbEntity
  8
DIMS-MTG-HOLES
100
AcDbPoint
 10
-2.753
 20
-8.748
 30
0.0
  0
POINT
  5
5F49E
100
AcDbEntity
  8
DIMS-MTG-HOLES
100
AcDbPoint
 10
4.337
 20
-8.748
 30
0.0
  0
POINT
  5
5F49F
100
AcDbEntity
  8
DIMS-MTG-HOLES
100
AcDbPoint
 10
0.0
 20
-0.09
 30
0.0
  0
DIMENSION
  5
5F4A0
100
AcDbEntity
  8
AREA1
100
AcDbDimension
  2
*D0
 10
-5.684891
 20
-8.969
 30
0.0
 11
-5.684891
 21
-4.495805
 31
0.0
 70
   160
  3
ABECAD_3V
100
AcDbAlignedDimension
 13
-1.0
 23
0.191
 33
0.0
 14
-3.553
 24
-8.969
 34
0.0
 50
90.0
100
AcDbRotatedDimension
1001
ACAD
1000
DSTYLE
1002
{
1070
    40
1040
2.904716
1002
}
  0
DIMENSION
  5
5F4A1
100
AcDbEntity
  8
AREA1
100
AcDbDimension
  2
*D1
 10
5.107
 20
1.326487
 30
0.0
 11
0.344756
 21
1.326487
 31
0.0
 70
   160
  3
ABECAD_3V
100
AcDbAlignedDimension
 13
-4.168
 23
-1.56
 33
0.387
 14
5.107
 24
-0.719
 34
0.0
100
AcDbRotatedDimension
1001
ACAD
1000
DSTYLE
1002
{
1070
    40
1040
2.904716
1002
}
  0
LWPOLYLINE
  5
5F4A2
100
AcDbEntity
  8
SCALE
100
AcDbPolyline
 90
        4
 70
     1
 43
0.0
 10
-0.563059
 20
-9.33153
 10
0.57257
 20
-9.33153
 10
0.57257
 20
-10.173139
 10
-0.563059
 20
-10.173139
  0
LINE
  5
5F4A3
100
AcDbEntity
  8
SCALE
100
AcDbLine
 10
-0.50506
 20
-9.711608
 30
0.0
 11
0.49494
 21
-9.711608
 31
0.0
  0
LINE
  5
5F4A4
100
AcDbEntity
  8
SCALE
100
AcDbLine
 10
-0.50506
 20
-10.011608
 30
0.0
 11
-0.11136
 21
-10.011608
 31
0.0
  0
LINE
  5
5F4A5
100
AcDbEntity
  8
SCALE
100
AcDbLine
 10
-0.50506
 20
-9.811608
 30
0.0
 11
-0.50506
 21
-9.611608
 31
0.0
  0
TEXT
  5
5F4A6
100
AcDbEntity
  8
SCALE
100
AcDbText
 10
-0.449084
 20
-9.963923
 30
0.0
 40
0.0625
  1
[10mm]
100
AcDbText
  0
LINE
  5
5F4A7
100
AcDbEntity
  8
SCALE
100
AcDbLine
 10
-0.50506
 20
-10.111608
 30
0.0
 11
-0.50506
 21
-9.911608
 31
0.0
  0
TEXT
  5
5F4A8
100
AcDbEntity
  8
SCALE
100
AcDbText
 10
-0.50353
 20
-9.436731
 30
0.0
 40
0.0625
  1
SCALE:
100
AcDbText
  0
LINE
  5
5F4A9
100
AcDbEntity
  8
SCALE
100
AcDbLine
 10
-0.11136
 20
-10.111608
 30
0.0
 11
-0.11136
 21
-9.911608
 31
0.0
  0
TEXT
  5
5F4AA
100
AcDbEntity
  8
SCALE
100
AcDbText
 10
-0.141777
 20
-9.642559
 30
0.0
 40
0.0625
  1
1 Inch
100
AcDbText
  0
LINE
  5
5F4AB
100
AcDbEntity
  8
SCALE
100
AcDbLine
 10
0.49494
 20
-9.711608
 30
0.0
 11
0.49494
 21
-9.811608
 31
0.0
  0
LINE
  5
5F4AC
100
AcDbEntity
  8
SCALE
100
AcDbLine
 10
0.49494
 20
-9.811608
 30
0.0
 11
0.49494
 21
-9.611608
 31
0.0
  0
DIMENSION
  5
5F4DB
100
AcDbEntity
  8
AREA2
100
AcDbDimension
  2
*D2
 10
-4.933026
 20
0.0
 30
0.0
 11
-5.556525
 21
2.358649
 31
0.0
 70
   160
210
0.0
220
-1.0
230
0.0
  3
ABECAD_3V
100
AcDbAlignedDimension
 13
-2.606
 23
-5.88
 33
4.937
 14
-3.553
 24
-0.719
 34
0.0
 50
90.0
100
AcDbRotatedDimension
1001
ACAD
1000
DSTYLE
1002
{
1070
    40
1040
2.904716
1002
}
  0
VIEWPORT
  5
2C
102
{ACAD_XDICTIONARY
360
5F5DB
102
}
100
AcDbEntity
 67
     1
  8
0
100
AcDbViewport
 10
4.999849
 20
3.750155
 30
0.0
 40
16.481272
 41
7.63272
 68
     1
 69
     1
1001
ACAD
1000
MVIEW
1002
{
1070
    16
1010
0.0
1020
0.0
1030
0.0
1010
0.0
1020
0.0
1030
1.0
1040
0.0
1040
7.63272
1040
4.999849
1040
3.750155
1040
50.0
1040
0.0
1040
0.0
1070
     0
1070
   100
1070
     1
1070
     1
1070
     0
1070
     0
1070
     0
1070
     0
1040
0.0
1040
0.0
1040
0.0
1040
1.0
1040
1.0
1040
0.0
1040
0.0
1070
     0
1002
{
1002
}
1002
}
  0
VIEWPORT
  5
2D
102
{ACAD_XDICTIONARY
360
5F5DD
102
}
100
AcDbEntity
 67
     1
  8
0
100
AcDbViewport
 10
2.5
 20
5.625
 30
0.0
 40
5.0
 41
3.75
 68
     3
 69
     2
1001
ACAD
1000
MVIEW
1002
{
1070
    16
1010
0.0
1020
0.0
1030
0.0
1010
0.0
1020
0.0
1030
1.0
1040
0.0
1040
11.125908
1040
-0.378945
1040
-3.699454
1040
50.0
1040
0.0
1040
0.0
1070
     0
1070
   100
1070
     1
1070
     0
1070
     0
1070
     0
1070
     0
1070
     0
1040
0.0
1040
0.0
1040
0.0
1040
1.0
1040
1.0
1040
0.0
1040
0.0
1070
     0
1002
{
1003
AREA2
1002
}
1002
}
  0
VIEWPORT
  5
2E
102
{ACAD_XDICTIONARY
360
5F5DF
102
}
100
AcDbEntity
 67
     1
  8
0
100
AcDbViewport
 10
2.5
 20
1.875
 30
0.0
 40
5.0
 41
3.75
 68
     2
 69
     3
1001
ACAD
1000
MVIEW
1002
{
1070
    16
1010
0.0
1020
0.0
1030
0.0
1010
0.0
1020
-1.0
1030
0.0
1040
0.0
1040
10.892686
1040
-0.378945
1040
2.4685
1040
50.0
1040
0.0
1040
0.0
1070
     0
1070
   100
1070
     1
1070
     0
1070
     0
1070
     0
1070
     0
1070
     0
1040
0.0
1040
0.0
1040
0.0
1040
1.0
1040
1.0
1040
0.0
1040
0.0
1070
     0
1002
{
1003
AREA1
1002
}
1002
}
  0
VIEWPORT
  5
2F
102
{ACAD_XDICTIONARY
360
5F5E1
102
}
100
AcDbEntity
 67
     1
  8
0
100
AcDbViewport
 10
7.5
 20
3.75
 30
0.0
 40
5.0
 41
7.5
 68
     4
 69
     4
1001
ACAD
1000
MVIEW
1002
{
1070
    16
1010
0.0
1020
0.0
1030
0.0
1010
-1.0
1020
-1.0
1030
1.0
1040
0.0
1040
18.493776
1040
3.975056
1040
0.953095
1040
50.0
1040
0.0
1040
0.0
1070
     0
1070
   100
1070
     1
1070
     0
1070
     0
1070
     0
1070
     0
1070
     0
1040
0.0
1040
0.0
1040
0.0
1040
1.0
1040
1.0
1040
0.0
1040
0.0
1070
     0
1002
{
1003
AREA1
1003
AREA2
1002
}
1002
}
  0
TEXT
  5
42D
100
AcDbEntity
 67
     1
  8
0
100
AcDbText
 10
5.253785
 20
7.092701
 30
0.0
 40
0.2
  1

100
AcDbText
  0
TEXT
  5
431
100
AcDbEntity
 67
     1
  8
0
100
AcDbText
 10
5.253785
 20
6.759368
 30
0.0
 40
0.2
  1

100
AcDbText
1001
ACAD
1000
R13OBJECT
1002
{
1005
42D
1002
}
  0
TEXT
  5
11D16
100
AcDbEntity
 67
     1
  8
AREA2
100
AcDbText
 10
5.101109
 20
7.152637
 30
0.0
 40
0.2
  1
520G-A
100
AcDbText
  0
TEXT
  5
24C0A
100
AcDbEntity
 67
     1
  8
AREA2
100
AcDbText
 10
5.101109
 20
6.881437
 30
0.0
 40
0.2
  1
2 SPEED CONSTANT HP 
100
AcDbText
  0
TEXT
  5
2F662
100
AcDbEntity
 67
     1
  8
AREA2
100
AcDbText
 10
5.101109
 20
6.599834
 30
0.0
 40
0.2
  1
w/ EUTECTIC ALLOY OLR; 
100
AcDbText
  0
TEXT
  5
4B785
100
AcDbEntity
 67
     1
  8
AREA2
100
AcDbText
 10
5.101109
 20
6.310076
 30
0.0
 40
0.2
  1
NEMA SIZE 0 & 1
100
AcDbText
  0
ENDSEC
  0
SECTION
  2
OBJECTS
  0
DICTIONARY
  5
46D
100
AcDbDictionary
  3
ACAD_GROUP
350
46E
  3
ACAD_LAYOUT
350
49E
  3
ACAD_MLINESTYLE
350
47B
  3
ACAD_PLOTSETTINGS
350
49F
  3
ACAD_PLOTSTYLENAME
350
49C
  3
ACDBHEADERROUNDTRIPXREC
350
5F5BA
  3
ACDBVARIABLEDICTIONARY
350
48D
  0
DICTIONARY
  5
5F5B8
100
AcDbDictionary
280
     1
  3
ACAD_XREC_ROUNDTRIP
360
5F5B9
  0
DICTIONARY
  5
5F5E5
100
AcDbDictionary
280
     1
  3
ACAD_XREC_ROUNDTRIP
360
5F5E6
  0
DICTIONARY
  5
5F5E7
100
AcDbDictionary
280
     1
  3
ACAD_XREC_ROUNDTRIP
360
5F5E8
  0
DICTIONARY
  5
5F5EB
100
AcDbDictionary
280
     1
  3
ACAD_XREC_ROUNDTRIP
360
5F5EC
  0
DICTIONARY
  5
4D2
100
AcDbDictionary
280
     1
  3
ACAD_LAYOUTSELFREF
360
5F5E4
  0
DICTIONARY
  5
4D0
100
AcDbDictionary
280
     1
  3
ACAD_LAYOUTSELFREF
360
5F5E3
  0
DICTIONARY
  5
5F5DB
100
AcDbDictionary
280
     1
  3
ACAD_XREC_ROUNDTRIP
360
5F5DC
  0
DICTIONARY
  5
5F5DD
100
AcDbDictionary
280
     1
  3
ACAD_XREC_ROUNDTRIP
360
5F5DE
  0
DICTIONARY
  5
5F5DF
100
AcDbDictionary
280
     1
  3
ACAD_XREC_ROUNDTRIP
360
5F5E0
  0
DICTIONARY
  5
5F5E1
100
AcDbDictionary
280
     1
  3
ACAD_XREC_ROUNDTRIP
360
5F5E2
  0
DICTIONARY
  5
46E
102
{ACAD_REACTORS
330
46D
102
}
100
AcDbDictionary
  0
DICTIONARY
  5
49E
102
{ACAD_XDICTIONARY
360
5F5E9
102
}
102
{ACAD_REACTORS
330
46D
102
}
100
AcDbDictionary
  3
LAYOUT1
350
4A1
  3
MODEL
350
4A0
  0
DICTIONARY
  5
47B
102
{ACAD_REACTORS
330
46D
102
}
100
AcDbDictionary
  3
STANDARD
350
47C
  0
DICTIONARY
  5
49F
102
{ACAD_REACTORS
330
46D
102
}
100
AcDbDictionary
  0
ACAD_PROXY_OBJECT
  5
49C
102
{ACAD_REACTORS
330
46D
102
}
100
AcDbProxyObject
 90
      499
 91
      501
 93
       86
310
405010041939BDC9B585B0
350
49D
340
49D
 94
        0
  0
DICTIONARY
  5
5F5BA
102
{ACAD_REACTORS
330
46D
102
}
100
AcDbDictionary
  3
CEPSNTYPE
350
5F5C4
  3
DIMSTYLEDATA
350
5F5C8
  3
FINGERPRINTGUID
350
5F5C5
  3
HYPERLINKBASE
350
5F5BD
  3
INSUNITS
350
5F5C3
  3
LAYOUTDICT
350
5F5BF
  3
LWETCUNION
350
5F5C2
  3
PLOTSETDICT
350
5F5C0
  3
PLOTSTYLNAMDICT
350
5F5C1
  3
PSVPSCALE
350
5F5C7
  3
PUCSBASE
350
5F5CB
  3
PUCSORGBACK
350
5F5D1
  3
PUCSORGBOTTOM
350
5F5CD
  3
PUCSORGFRONT
350
5F5D0
  3
PUCSORGLEFT
350
5F5CE
  3
PUCSORGRIGHT
350
5F5CF
  3
PUCSORGTOP
350
5F5CC
  3
PUCSORTHOREF
350
5F5C9
  3
PUCSORTHOVIEW
350
5F5CA
  3
STYLESHEET
350
5F5BE
  3
TSTACKALIGN
350
5F5BB
  3
TSTACKSIZE
350
5F5BC
  3
UCSBASE
350
5F5D4
  3
UCSORGBACK
350
5F5DA
  3
UCSORGBOTTOM
350
5F5D6
  3
UCSORGFRONT
350
5F5D9
  3
UCSORGLEFT
350
5F5D7
  3
UCSORGRIGHT
350
5F5D8
  3
UCSORGTOP
350
5F5D5
  3
UCSORTHOREF
350
5F5D2
  3
UCSORTHOVIEW
350
5F5D3
  3
VERSIONGUID
350
5F5C6
  0
DICTIONARY
  5
48D
102
{ACAD_REACTORS
330
46D
102
}
100
AcDbDictionary
  3
DIMADEC
350
48E
  0
XRECORD
  5
5F5B9
102
{ACAD_REACTORS
330
5F5B8
102
}
100
AcDbXrecord
102
EXTNAMES
  1
*ACTIVE
  2
*Active
102
UCS
 74
     0
 71
     1
 10
0.0
 20
0.0
 30
0.0
 10
1.0
 20
0.0
 30
0.0
 10
0.0
 20
1.0
 30
0.0
146
0.0
 79
     1
102
VIEW
281
     1
  0
XRECORD
  5
5F5E6
102
{ACAD_REACTORS
330
5F5E5
102
}
100
AcDbXrecord
102
PLOTBIT
280
     0
  0
XRECORD
  5
5F5E8
102
{ACAD_REACTORS
330
5F5E7
102
}
100
AcDbXrecord
102
ACADR14ROUNDTRIP
1000
DSTYLE
1002
{
1070
   276
 70
     2
1070
   277
 70
     5
1070
   279
 70
     2
1002
}
  0
XRECORD
  5
5F5EC
102
{ACAD_REACTORS
330
5F5EB
102
}
100
AcDbXrecord
102
ACADR14ROUNDTRIP
1000
DSTYLE
1002
{
1070
   276
 70
     2
1070
   277
 70
     5
1070
   279
 70
     2
1070
   289
 70
     2
1002
}
  0
XRECORD
  5
5F5E4
102
{ACAD_REACTORS
330
4D2
102
}
100
AcDbXrecord
340
478
  0
XRECORD
  5
5F5E3
102
{ACAD_REACTORS
330
4D0
102
}
100
AcDbXrecord
340
475
  0
XRECORD
  5
5F5DC
102
{ACAD_REACTORS
330
5F5DB
102
}
100
AcDbXrecord
102
UCS
 74
     0
 71
     1
 10
0.0
 20
0.0
 30
0.0
 10
1.0
 20
0.0
 30
0.0
 10
0.0
 20
1.0
 30
0.0
146
0.0
 79
     0
102
VIEW
281
     0
102
NEWVIEWCONTROL
280
     4
  0
XRECORD
  5
5F5DE
102
{ACAD_REACTORS
330
5F5DD
102
}
100
AcDbXrecord
102
UCS
 74
     0
 71
     1
 10
0.0
 20
0.0
 30
0.0
 10
1.0
 20
0.0
 30
0.0
 10
0.0
 20
1.0
 30
0.0
146
0.0
 79
     1
102
VIEW
281
     0
102
NEWVIEWCONTROL
280
     4
  0
XRECORD
  5
5F5E0
102
{ACAD_REACTORS
330
5F5DF
102
}
100
AcDbXrecord
102
UCS
 74
     0
 71
     1
 10
0.0
 20
0.0
 30
0.0
 10
1.0
 20
0.0
 30
0.0
 10
0.0
 20
0.0
 30
1.0
146
0.0
 79
     3
102
VIEW
281
     0
102
NEWVIEWCONTROL
280
     4
  0
XRECORD
  5
5F5E2
102
{ACAD_REACTORS
330
5F5E1
102
}
100
AcDbXrecord
102
UCS
 74
     0
 71
     1
 10
0.0
 20
0.0
 30
0.0
 10
1.0
 20
0.0
 30
0.0
 10
0.0
 20
1.0
 30
0.0
146
0.0
 79
     0
102
VIEW
281
     0
102
NEWVIEWCONTROL
280
     4
  0
DICTIONARY
  5
5F5E9
100
AcDbDictionary
280
     1
  3
ACAD_XREC_ROUNDTRIP
360
5F5EA
  0
ACAD_PROXY_OBJECT
  5
4A1
102
{ACAD_REACTORS
330
49E
102
}
100
AcDbProxyObject
 90
      499
 91
      503
 93
     2044
310
91D4850204C617365724A65742035303030205365726965732050434C20362C008000000C0BB1B1440000000102F06C510000000000BC1B1440000000002E06C5100000000C0CCFC6A4000000018199D9C501064C6574746572A901406AA427D84144352EEE3F47D11959985D5B1D08148C4D081C195B88185CDCDA59DB9B5
310
95B9D1CCB98DD18A30EDE3B1BBFDBC0FC1D572C8D6D0C833F1A2B3054E9249F0FD074C61796F75743140501A97D7DB4AA43C31EFF91E46EBA53B71EFD1F32A15809809100B6537F8EAD447D02A6A6A00200C0093BD106FC0000F06EE366FABE0000032E846F6A2F44424FF2920002440160B7F435600079000000D00CEECC5
310
43D0
330
475
330
2C
340
0
340
0
 94
        0
  0
ACAD_PROXY_OBJECT
  5
4A0
102
{ACAD_REACTORS
330
49E
102
}
100
AcDbProxyObject
 90
      499
 91
      503
 93
      924
310
91D4850204C617365724A65742035303030205365726965732050434C20362C01AAAAAAAAA547D11959985D5B1D08148C4D081C195B88185CDCDA59DB9B595B9D1CCB98DD18A69054D6F64656C901A800000000000000000000000000000000000000000000A1000000000000008902A6A6AAAA0
330
478
330
0
340
0
340
0
 94
        0
  0
MLINESTYLE
  5
47C
102
{ACAD_REACTORS
330
47B
102
}
100
AcDbMlineStyle
  2
STANDARD
 70
     0
  3

 62
   256
 51
90.0
 52
90.0
 71
     2
 49
0.5
 62
   256
  6
BYLAYER
 49
-0.5
 62
   256
  6
BYLAYER
  0
ACAD_PROXY_OBJECT
  5
49D
102
{ACAD_REACTORS
330
49C
102
}
100
AcDbProxyObject
 90
      499
 91
      502
 93
        0
 94
        0
  0
XRECORD
  5
5F5C4
102
{ACAD_REACTORS
330
5F5BA
102
}
100
AcDbXrecord
 90
        0
  0
XRECORD
  5
5F5C8
102
{ACAD_REACTORS
330
5F5BA
102
}
100
AcDbXrecord
1000
DSTYLE
1002
{
1070
   276
 70
     2
1070
   277
 70
     5
1070
   279
 70
     2
1002
}
  0
XRECORD
  5
5F5C5
102
{ACAD_REACTORS
330
5F5BA
102
}
100
AcDbXrecord
  1
{6E0CF4B5-225E-11D4-A150-00A0CC3303EC}
  0
XRECORD
  5
5F5BD
102
{ACAD_REACTORS
330
5F5BA
102
}
100
AcDbXrecord
  1

  0
XRECORD
  5
5F5C3
102
{ACAD_REACTORS
330
5F5BA
102
}
100
AcDbXrecord
 90
        0
  0
XRECORD
  5
5F5BF
102
{ACAD_REACTORS
330
5F5BA
102
}
100
AcDbXrecord
340
49E
  0
XRECORD
  5
5F5C2
102
{ACAD_REACTORS
330
5F5BA
102
}
100
AcDbXrecord
 90
    14877
  0
XRECORD
  5
5F5C0
102
{ACAD_REACTORS
330
5F5BA
102
}
100
AcDbXrecord
340
49F
  0
XRECORD
  5
5F5C1
102
{ACAD_REACTORS
330
5F5BA
102
}
100
AcDbXrecord
340
49C
  0
XRECORD
  5
5F5C7
102
{ACAD_REACTORS
330
5F5BA
102
}
100
AcDbXrecord
 40
0.0
  0
XRECORD
  5
5F5CB
102
{ACAD_REACTORS
330
5F5BA
102
}
100
AcDbXrecord
340
0
  0
XRECORD
  5
5F5D1
102
{ACAD_REACTORS
330
5F5BA
102
}
100
AcDbXrecord
 10
0.0
 20
0.0
 30
0.0
  0
XRECORD
  5
5F5CD
102
{ACAD_REACTORS
330
5F5BA
102
}
100
AcDbXrecord
 10
0.0
 20
0.0
 30
0.0
  0
XRECORD
  5
5F5D0
102
{ACAD_REACTORS
330
5F5BA
102
}
100
AcDbXrecord
 10
0.0
 20
0.0
 30
0.0
  0
XRECORD
  5
5F5CE
102
{ACAD_REACTORS
330
5F5BA
102
}
100
AcDbXrecord
 10
0.0
 20
0.0
 30
0.0
  0
XRECORD
  5
5F5CF
102
{ACAD_REACTORS
330
5F5BA
102
}
100
AcDbXrecord
 10
0.0
 20
0.0
 30
0.0
  0
XRECORD
  5
5F5CC
102
{ACAD_REACTORS
330
5F5BA
102
}
100
AcDbXrecord
 10
0.0
 20
0.0
 30
0.0
  0
XRECORD
  5
5F5C9
102
{ACAD_REACTORS
330
5F5BA
102
}
100
AcDbXrecord
340
0
  0
XRECORD
  5
5F5CA
102
{ACAD_REACTORS
330
5F5BA
102
}
100
AcDbXrecord
 70
     0
  0
XRECORD
  5
5F5BE
102
{ACAD_REACTORS
330
5F5BA
102
}
100
AcDbXrecord
  1

  0
XRECORD
  5
5F5BB
102
{ACAD_REACTORS
330
5F5BA
102
}
100
AcDbXrecord
 90
        1
  0
XRECORD
  5
5F5BC
102
{ACAD_REACTORS
330
5F5BA
102
}
100
AcDbXrecord
 90
       70
  0
XRECORD
  5
5F5D4
102
{ACAD_REACTORS
330
5F5BA
102
}
100
AcDbXrecord
340
0
  0
XRECORD
  5
5F5DA
102
{ACAD_REACTORS
330
5F5BA
102
}
100
AcDbXrecord
 10
0.0
 20
0.0
 30
0.0
  0
XRECORD
  5
5F5D6
102
{ACAD_REACTORS
330
5F5BA
102
}
100
AcDbXrecord
 10
0.0
 20
0.0
 30
0.0
  0
XRECORD
  5
5F5D9
102
{ACAD_REACTORS
330
5F5BA
102
}
100
AcDbXrecord
 10
0.0
 20
0.0
 30
0.0
  0
XRECORD
  5
5F5D7
102
{ACAD_REACTORS
330
5F5BA
102
}
100
AcDbXrecord
 10
0.0
 20
0.0
 30
0.0
  0
XRECORD
  5
5F5D8
102
{ACAD_REACTORS
330
5F5BA
102
}
100
AcDbXrecord
 10
0.0
 20
0.0
 30
0.0
  0
XRECORD
  5
5F5D5
102
{ACAD_REACTORS
330
5F5BA
102
}
100
AcDbXrecord
 10
0.0
 20
0.0
 30
0.0
  0
XRECORD
  5
5F5D2
102
{ACAD_REACTORS
330
5F5BA
102
}
100
AcDbXrecord
340
0
  0
XRECORD
  5
5F5D3
102
{ACAD_REACTORS
330
5F5BA
102
}
100
AcDbXrecord
 70
     3
  0
XRECORD
  5
5F5C6
102
{ACAD_REACTORS
330
5F5BA
102
}
100
AcDbXrecord
  1
{B8AA8DEF-B60D-49D2-A025-F7D0ACF264F6}
  0
DICTIONARYVAR
  5
48E
102
{ACAD_REACTORS
330
48D
102
}
100
DictionaryVariables
280
     0
  1
0
  0
XRECORD
  5
5F5EA
102
{ACAD_REACTORS
330
5F5E9
102
}
100
AcDbXrecord
102
EXTNAMES
  1
LAYOUT1
  2
Layout1
  1
MODEL
  2
Model
  0
ENDSEC
  0
EOF
