  0
SECTION
  2
HEADER
  9
$ACADVER
  1
AC1014
  9
$ACADMAINTVER
 70
     8
  9
$DWGCODEPAGE
  3
ANSI_1252
  9
$INSBASE
 10
0.0
 20
0.0
 30
0.0
  9
$EXTMIN
 10
-5.570363
 20
-10.026022
 30
0.0
  9
$EXTMAX
 10
5.107
 20
1.556878
 30
4.937
  9
$LIMMIN
 10
0.0
 20
0.0
  9
$LIMMAX
 10
12.0
 20
9.0
  9
$ORTHOMODE
 70
     0
  9
$REGENMODE
 70
     1
  9
$FILLMODE
 70
     1
  9
$QTEXTMODE
 70
     0
  9
$MIRRTEXT
 70
     1
  9
$DRAGMODE
 70
     2
  9
$LTSCALE
 40
1.0
  9
$OSMODE
 70
    37
  9
$ATTMODE
 70
     1
  9
$TEXTSIZE
 40
0.12
  9
$TRACEWID
 40
0.05
  9
$TEXTSTYLE
  7
STANDARD
  9
$CLAYER
  8
0
  9
$CELTYPE
  6
BYLAYER
  9
$CECOLOR
 62
   256
  9
$CELTSCALE
 40
1.0
  9
$DELOBJ
 70
     1
  9
$DISPSILH
 70
     0
  9
$DIMSCALE
 40
1.0
  9
$DIMASZ
 40
0.5
  9
$DIMEXO
 40
0.1
  9
$DIMDLI
 40
0.375
  9
$DIMRND
 40
0.0
  9
$DIMDLE
 40
0.0
  9
$DIMEXE
 40
0.1
  9
$DIMTP
 40
0.0
  9
$DIMTM
 40
0.0
  9
$DIMTXT
 40
0.5
  9
$DIMCEN
 40
0.09
  9
$DIMTSZ
 40
0.0
  9
$DIMTOL
 70
     0
  9
$DIMLIM
 70
     0
  9
$DIMTIH
 70
     0
  9
$DIMTOH
 70
     1
  9
$DIMSE1
 70
     0
  9
$DIMSE2
 70
     0
  9
$DIMTAD
 70
     0
  9
$DIMZIN
 70
     4
  9
$DIMBLK
  1

  9
$DIMASO
 70
     1
  9
$DIMSHO
 70
     1
  9
$DIMPOST
  1

  9
$DIMAPOST
  1

  9
$DIMALT
 70
     1
  9
$DIMALTD
 70
     2
  9
$DIMALTF
 40
25.4
  9
$DIMLFAC
 40
1.0
  9
$DIMTOFL
 70
     0
  9
$DIMTVP
 40
0.0
  9
$DIMTIX
 70
     0
  9
$DIMSOXD
 70
     0
  9
$DIMSAH
 70
     0
  9
$DIMBLK1
  1

  9
$DIMBLK2
  1

  9
$DIMSTYLE
  2
ABECAD_3D
  9
$DIMCLRD
 70
     0
  9
$DIMCLRE
 70
     0
  9
$DIMCLRT
 70
     0
  9
$DIMTFAC
 40
1.5
  9
$DIMGAP
 40
0.09
  9
$DIMJUST
 70
     0
  9
$DIMSD1
 70
     0
  9
$DIMSD2
 70
     0
  9
$DIMTOLJ
 70
     1
  9
$DIMTZIN
 70
     4
  9
$DIMALTZ
 70
     4
  9
$DIMALTTZ
 70
     4
  9
$DIMFIT
 70
     5
  9
$DIMUPT
 70
     1
  9
$DIMUNIT
 70
     7
  9
$DIMDEC
 70
     6
  9
$DIMTDEC
 70
     6
  9
$DIMALTU
 70
     2
  9
$DIMALTTD
 70
     2
  9
$DIMTXSTY
  7
STANDARD
  9
$DIMAUNIT
 70
     0
  9
$LUNITS
 70
     2
  9
$LUPREC
 70
     4
  9
$SKETCHINC
 40
0.1
  9
$FILLETRAD
 40
0.0
  9
$AUNITS
 70
     0
  9
$AUPREC
 70
     0
  9
$MENU
  1
ACAD
  9
$ELEVATION
 40
0.0
  9
$PELEVATION
 40
0.0
  9
$THICKNESS
 40
0.0
  9
$LIMCHECK
 70
     0
  9
$BLIPMODE
 70
     0
  9
$CHAMFERA
 40
0.0
  9
$CHAMFERB
 40
0.0
  9
$CHAMFERC
 40
0.0
  9
$CHAMFERD
 40
0.0
  9
$SKPOLY
 70
     0
  9
$TDCREATE
 40
2451726.438389120
  9
$TDUPDATE
 40
2452010.491162847
  9
$TDINDWG
 40
1.2327355324
  9
$TDUSRTIMER
 40
1.2327355324
  9
$USRTIMER
 70
     1
  9
$ANGBASE
 50
0.0
  9
$ANGDIR
 70
     0
  9
$PDMODE
 70
     3
  9
$PDSIZE
 40
0.09
  9
$PLINEWID
 40
0.0
  9
$COORDS
 70
     1
  9
$SPLFRAME
 70
     1
  9
$SPLINETYPE
 70
     6
  9
$SPLINESEGS
 70
     8
  9
$ATTDIA
 70
     0
  9
$ATTREQ
 70
     1
  9
$HANDLING
 70
     1
  9
$HANDSEED
  5
9DE59
  9
$SURFTAB1
 70
     6
  9
$SURFTAB2
 70
     6
  9
$SURFTYPE
 70
     6
  9
$SURFU
 70
     6
  9
$SURFV
 70
     6
  9
$UCSNAME
  2

  9
$UCSORG
 10
0.0
 20
0.0
 30
0.0
  9
$UCSXDIR
 10
1.0
 20
0.0
 30
0.0
  9
$UCSYDIR
 10
0.0
 20
1.0
 30
0.0
  9
$PUCSNAME
  2

  9
$PUCSORG
 10
0.0
 20
0.0
 30
0.0
  9
$PUCSXDIR
 10
1.0
 20
0.0
 30
0.0
  9
$PUCSYDIR
 10
0.0
 20
1.0
 30
0.0
  9
$USERI1
 70
     0
  9
$USERI2
 70
     0
  9
$USERI3
 70
     0
  9
$USERI4
 70
     0
  9
$USERI5
 70
     0
  9
$USERR1
 40
0.0
  9
$USERR2
 40
0.0
  9
$USERR3
 40
0.0
  9
$USERR4
 40
0.0
  9
$USERR5
 40
0.0
  9
$WORLDVIEW
 70
     1
  9
$SHADEDGE
 70
     3
  9
$SHADEDIF
 70
    70
  9
$TILEMODE
 70
     1
  9
$MAXACTVP
 70
    16
  9
$PINSBASE
 10
0.0
 20
0.0
 30
0.0
  9
$PLIMCHECK
 70
     0
  9
$PEXTMIN
 10
1.05
 20
0.8
 30
0.0
  9
$PEXTMAX
 10
9.45
 20
7.2
 30
0.0
  9
$PLIMMIN
 10
-0.25
 20
-0.25
  9
$PLIMMAX
 10
10.75
 20
8.25
  9
$UNITMODE
 70
     0
  9
$VISRETAIN
 70
     0
  9
$PLINEGEN
 70
     0
  9
$PSLTSCALE
 70
     1
  9
$TREEDEPTH
 70
  3020
  9
$PICKSTYLE
 70
     1
  9
$CMLSTYLE
  2
STANDARD
  9
$CMLJUST
 70
     0
  9
$CMLSCALE
 40
1.0
  9
$PROXYGRAPHICS
 70
     1
  9
$MEASUREMENT
 70
     0
  0
ENDSEC
  0
SECTION
  2
CLASSES
  0
CLASS
  1
DICTIONARYVAR
  2
AcDbDictionaryVar
  3
"AutoCAD"
 90
        0
280
     0
281
     0
  0
CLASS
  1
ACDBDICTIONARYWDFLT
  2
AcDbDictionaryWithDefault
  3
AutoCAD 2000
 90
        0
280
     0
281
     0
  0
CLASS
  1
ACDBPLACEHOLDER
  2
AcDbPlaceHolder
  3
AutoCAD 2000
 90
        0
280
     0
281
     0
  0
CLASS
  1
LAYOUT
  2
AcDbLayout
  3
AutoCAD 2000
 90
        0
280
     0
281
     0
  0
CLASS
  1
LONG_TRANSACTION
  2
AcDbLongTransaction
  3
AutoCAD 2000
 90
        0
280
     0
281
     0
  0
CLASS
  1
LWPOLYLINE
  2
AcDbPolyline
  3
"AutoCAD"
 90
        0
280
     0
281
     1
  0
CLASS
  1
HATCH
  2
AcDbHatch
  3
"ACAD_SEDONA"
 90
        0
280
     0
281
     1
  0
CLASS
  1
XRECORD
  2
AcDbXrecord
  3
"<Built In>"
 90
        0
280
     0
281
     0
  0
CLASS
  1
LONG_TRANSACTION
  2
AcDbLongTransaction
  3
AutoCAD 2000
 90
        0
280
     0
281
     0
  0
CLASS
  1
LWPOLYLINE
  2
AcDbPolyline
  3
"AutoCAD"
 90
        0
280
     0
281
     1
  0
CLASS
  1
HATCH
  2
AcDbHatch
  3
"ACAD_SEDONA"
 90
        0
280
     0
281
     1
  0
CLASS
  1
XRECORD
  2
AcDbXrecord
  3
"<Built In>"
 90
        0
280
     0
281
     0
  0
CLASS
  1
LONG_TRANSACTION
  2
AcDbLongTransaction
  3
AutoCAD 2000
 90
        0
280
     0
281
     0
  0
CLASS
  1
LWPOLYLINE
  2
AcDbPolyline
  3
"AutoCAD"
 90
        0
280
     0
281
     1
  0
CLASS
  1
HATCH
  2
AcDbHatch
  3
"ACAD_SEDONA"
 90
        0
280
     0
281
     1
  0
CLASS
  1
XRECORD
  2
AcDbXrecord
  3
"<Built In>"
 90
        0
280
     0
281
     0
  0
CLASS
  1
LONG_TRANSACTION
  2
AcDbLongTransaction
  3
AutoCAD 2000
 90
        0
280
     0
281
     0
  0
CLASS
  1
LWPOLYLINE
  2
AcDbPolyline
  3
"AutoCAD"
 90
        0
280
     0
281
     1
  0
CLASS
  1
HATCH
  2
AcDbHatch
  3
"ACAD_SEDONA"
 90
        0
280
     0
281
     1
  0
CLASS
  1
XRECORD
  2
AcDbXrecord
  3
"<Built In>"
 90
        0
280
     0
281
     0
  0
CLASS
  1
LONG_TRANSACTION
  2
AcDbLongTransaction
  3
AutoCAD 2000
 90
        0
280
     0
281
     0
  0
CLASS
  1
LWPOLYLINE
  2
AcDbPolyline
  3
"AutoCAD"
 90
        0
280
     0
281
     1
  0
CLASS
  1
HATCH
  2
AcDbHatch
  3
"ACAD_SEDONA"
 90
        0
280
     0
281
     1
  0
CLASS
  1
XRECORD
  2
AcDbXrecord
  3
"<Built In>"
 90
        0
280
     0
281
     0
  0
CLASS
  1
LONG_TRANSACTION
  2
AcDbLongTransaction
  3
AutoCAD 2000
 90
        0
280
     0
281
     0
  0
CLASS
  1
LWPOLYLINE
  2
AcDbPolyline
  3
"AutoCAD"
 90
        0
280
     0
281
     1
  0
CLASS
  1
HATCH
  2
AcDbHatch
  3
"ACAD_SEDONA"
 90
        0
280
     0
281
     1
  0
CLASS
  1
XRECORD
  2
AcDbXrecord
  3
"<Built In>"
 90
        0
280
     0
281
     0
  0
CLASS
  1
LONG_TRANSACTION
  2
AcDbLongTransaction
  3
AutoCAD 2000
 90
        0
280
     0
281
     0
  0
CLASS
  1
LWPOLYLINE
  2
AcDbPolyline
  3
"AutoCAD"
 90
        0
280
     0
281
     1
  0
CLASS
  1
HATCH
  2
AcDbHatch
  3
"ACAD_SEDONA"
 90
        0
280
     0
281
     1
  0
CLASS
  1
XRECORD
  2
AcDbXrecord
  3
"<Built In>"
 90
        0
280
     0
281
     0
  0
CLASS
  1
LONG_TRANSACTION
  2
AcDbLongTransaction
  3
AutoCAD 2000
 90
        0
280
     0
281
     0
  0
CLASS
  1
LWPOLYLINE
  2
AcDbPolyline
  3
"AutoCAD"
 90
        0
280
     0
281
     1
  0
CLASS
  1
HATCH
  2
AcDbHatch
  3
"ACAD_SEDONA"
 90
        0
280
     0
281
     1
  0
CLASS
  1
XRECORD
  2
AcDbXrecord
  3
"<Built In>"
 90
        0
280
     0
281
     0
  0
CLASS
  1
LONG_TRANSACTION
  2
AcDbLongTransaction
  3
AutoCAD 2000
 90
        0
280
     0
281
     0
  0
CLASS
  1
LWPOLYLINE
  2
AcDbPolyline
  3
"AutoCAD"
 90
        0
280
     0
281
     1
  0
CLASS
  1
HATCH
  2
AcDbHatch
  3
"ACAD_SEDONA"
 90
        0
280
     0
281
     1
  0
CLASS
  1
XRECORD
  2
AcDbXrecord
  3
"<Built In>"
 90
        0
280
     0
281
     0
  0
CLASS
  1
LONG_TRANSACTION
  2
AcDbLongTransaction
  3
AutoCAD 2000
 90
        0
280
     0
281
     0
  0
CLASS
  1
LWPOLYLINE
  2
AcDbPolyline
  3
"AutoCAD"
 90
        0
280
     0
281
     1
  0
CLASS
  1
HATCH
  2
AcDbHatch
  3
"ACAD_SEDONA"
 90
        0
280
     0
281
     1
  0
CLASS
  1
XRECORD
  2
AcDbXrecord
  3
"<Built In>"
 90
        0
280
     0
281
     0
  0
CLASS
  1
LONG_TRANSACTION
  2
AcDbLongTransaction
  3
AutoCAD 2000
 90
        0
280
     0
281
     0
  0
CLASS
  1
LWPOLYLINE
  2
AcDbPolyline
  3
"AutoCAD"
 90
        0
280
     0
281
     1
  0
CLASS
  1
HATCH
  2
AcDbHatch
  3
"ACAD_SEDONA"
 90
        0
280
     0
281
     1
  0
CLASS
  1
XRECORD
  2
AcDbXrecord
  3
"<Built In>"
 90
        0
280
     0
281
     0
  0
CLASS
  1
LONG_TRANSACTION
  2
AcDbLongTransaction
  3
AutoCAD 2000
 90
        0
280
     0
281
     0
  0
CLASS
  1
LWPOLYLINE
  2
AcDbPolyline
  3
"AutoCAD"
 90
        0
280
     0
281
     1
  0
CLASS
  1
HATCH
  2
AcDbHatch
  3
"ACAD_SEDONA"
 90
        0
280
     0
281
     1
  0
CLASS
  1
XRECORD
  2
AcDbXrecord
  3
"<Built In>"
 90
        0
280
     0
281
     0
  0
CLASS
  1
LONG_TRANSACTION
  2
AcDbLongTransaction
  3
AutoCAD 2000
 90
        0
280
     0
281
     0
  0
CLASS
  1
LWPOLYLINE
  2
AcDbPolyline
  3
"AutoCAD"
 90
        0
280
     0
281
     1
  0
CLASS
  1
HATCH
  2
AcDbHatch
  3
"ACAD_SEDONA"
 90
        0
280
     0
281
     1
  0
CLASS
  1
XRECORD
  2
AcDbXrecord
  3
"<Built In>"
 90
        0
280
     0
281
     0
  0
CLASS
  1
LONG_TRANSACTION
  2
AcDbLongTransaction
  3
AutoCAD 2000
 90
        0
280
     0
281
     0
  0
CLASS
  1
LWPOLYLINE
  2
AcDbPolyline
  3
"AutoCAD"
 90
        0
280
     0
281
     1
  0
CLASS
  1
HATCH
  2
AcDbHatch
  3
"ACAD_SEDONA"
 90
        0
280
     0
281
     1
  0
CLASS
  1
XRECORD
  2
AcDbXrecord
  3
"<Built In>"
 90
        0
280
     0
281
     0
  0
CLASS
  1
LONG_TRANSACTION
  2
AcDbLongTransaction
  3
AutoCAD 2000
 90
        0
280
     0
281
     0
  0
CLASS
  1
LWPOLYLINE
  2
AcDbPolyline
  3
"AutoCAD"
 90
        0
280
     0
281
     1
  0
CLASS
  1
HATCH
  2
AcDbHatch
  3
"ACAD_SEDONA"
 90
        0
280
     0
281
     1
  0
CLASS
  1
XRECORD
  2
AcDbXrecord
  3
"<Built In>"
 90
        0
280
     0
281
     0
  0
CLASS
  1
LONG_TRANSACTION
  2
AcDbLongTransaction
  3
AutoCAD 2000
 90
        0
280
     0
281
     0
  0
CLASS
  1
LWPOLYLINE
  2
AcDbPolyline
  3
"AutoCAD"
 90
        0
280
     0
281
     1
  0
CLASS
  1
HATCH
  2
AcDbHatch
  3
"ACAD_SEDONA"
 90
        0
280
     0
281
     1
  0
CLASS
  1
XRECORD
  2
AcDbXrecord
  3
"<Built In>"
 90
        0
280
     0
281
     0
  0
CLASS
  1
LONG_TRANSACTION
  2
AcDbLongTransaction
  3
AutoCAD 2000
 90
        0
280
     0
281
     0
  0
CLASS
  1
LWPOLYLINE
  2
AcDbPolyline
  3
"AutoCAD"
 90
        0
280
     0
281
     1
  0
CLASS
  1
HATCH
  2
AcDbHatch
  3
"ACAD_SEDONA"
 90
        0
280
     0
281
     1
  0
CLASS
  1
XRECORD
  2
AcDbXrecord
  3
"<Built In>"
 90
        0
280
     0
281
     0
  0
CLASS
  1
LONG_TRANSACTION
  2
AcDbLongTransaction
  3
AutoCAD 2000
 90
        0
280
     0
281
     0
  0
CLASS
  1
LWPOLYLINE
  2
AcDbPolyline
  3
"AutoCAD"
 90
        0
280
     0
281
     1
  0
CLASS
  1
HATCH
  2
AcDbHatch
  3
"ACAD_SEDONA"
 90
        0
280
     0
281
     1
  0
CLASS
  1
XRECORD
  2
AcDbXrecord
  3
"<Built In>"
 90
        0
280
     0
281
     0
  0
CLASS
  1
LONG_TRANSACTION
  2
AcDbLongTransaction
  3
AutoCAD 2000
 90
        0
280
     0
281
     0
  0
CLASS
  1
LWPOLYLINE
  2
AcDbPolyline
  3
"AutoCAD"
 90
        0
280
     0
281
     1
  0
CLASS
  1
HATCH
  2
AcDbHatch
  3
"ACAD_SEDONA"
 90
        0
280
     0
281
     1
  0
CLASS
  1
XRECORD
  2
AcDbXrecord
  3
"<Built In>"
 90
        0
280
     0
281
     0
  0
CLASS
  1
LONG_TRANSACTION
  2
AcDbLongTransaction
  3
AutoCAD 2000
 90
        0
280
     0
281
     0
  0
CLASS
  1
LWPOLYLINE
  2
AcDbPolyline
  3
"AutoCAD"
 90
        0
280
     0
281
     1
  0
CLASS
  1
HATCH
  2
AcDbHatch
  3
"ACAD_SEDONA"
 90
        0
280
     0
281
     1
  0
CLASS
  1
XRECORD
  2
AcDbXrecord
  3
"<Built In>"
 90
        0
280
     0
281
     0
  0
CLASS
  1
LONG_TRANSACTION
  2
AcDbLongTransaction
  3
AutoCAD 2000
 90
        0
280
     0
281
     0
  0
CLASS
  1
LWPOLYLINE
  2
AcDbPolyline
  3
"AutoCAD"
 90
        0
280
     0
281
     1
  0
CLASS
  1
HATCH
  2
AcDbHatch
  3
"ACAD_SEDONA"
 90
        0
280
     0
281
     1
  0
CLASS
  1
XRECORD
  2
AcDbXrecord
  3
"<Built In>"
 90
        0
280
     0
281
     0
  0
CLASS
  1
LONG_TRANSACTION
  2
AcDbLongTransaction
  3
AutoCAD 2000
 90
        0
280
     0
281
     0
  0
CLASS
  1
LWPOLYLINE
  2
AcDbPolyline
  3
"AutoCAD"
 90
        0
280
     0
281
     1
  0
CLASS
  1
HATCH
  2
AcDbHatch
  3
"ACAD_SEDONA"
 90
        0
280
     0
281
     1
  0
CLASS
  1
XRECORD
  2
AcDbXrecord
  3
"<Built In>"
 90
        0
280
     0
281
     0
  0
CLASS
  1
LONG_TRANSACTION
  2
AcDbLongTransaction
  3
AutoCAD 2000
 90
        0
280
     0
281
     0
  0
CLASS
  1
LWPOLYLINE
  2
AcDbPolyline
  3
"AutoCAD"
 90
        0
280
     0
281
     1
  0
CLASS
  1
HATCH
  2
AcDbHatch
  3
"ACAD_SEDONA"
 90
        0
280
     0
281
     1
  0
CLASS
  1
XRECORD
  2
AcDbXrecord
  3
"<Built In>"
 90
        0
280
     0
281
     0
  0
CLASS
  1
LONG_TRANSACTION
  2
AcDbLongTransaction
  3
AutoCAD 2000
 90
        0
280
     0
281
     0
  0
CLASS
  1
LWPOLYLINE
  2
AcDbPolyline
  3
"AutoCAD"
 90
        0
280
     0
281
     1
  0
CLASS
  1
HATCH
  2
AcDbHatch
  3
"ACAD_SEDONA"
 90
        0
280
     0
281
     1
  0
CLASS
  1
XRECORD
  2
AcDbXrecord
  3
"<Built In>"
 90
        0
280
     0
281
     0
  0
CLASS
  1
LONG_TRANSACTION
  2
AcDbLongTransaction
  3
AutoCAD 2000
 90
        0
280
     0
281
     0
  0
CLASS
  1
LWPOLYLINE
  2
AcDbPolyline
  3
"AutoCAD"
 90
        0
280
     0
281
     1
  0
CLASS
  1
HATCH
  2
AcDbHatch
  3
"ACAD_SEDONA"
 90
        0
280
     0
281
     1
  0
CLASS
  1
XRECORD
  2
AcDbXrecord
  3
"<Built In>"
 90
        0
280
     0
281
     0
  0
CLASS
  1
LONG_TRANSACTION
  2
AcDbLongTransaction
  3
AutoCAD 2000
 90
        0
280
     0
281
     0
  0
CLASS
  1
LWPOLYLINE
  2
AcDbPolyline
  3
"AutoCAD"
 90
        0
280
     0
281
     1
  0
CLASS
  1
HATCH
  2
AcDbHatch
  3
"ACAD_SEDONA"
 90
        0
280
     0
281
     1
  0
CLASS
  1
XRECORD
  2
AcDbXrecord
  3
"<Built In>"
 90
        0
280
     0
281
     0
  0
CLASS
  1
LONG_TRANSACTION
  2
AcDbLongTransaction
  3
AutoCAD 2000
 90
        0
280
     0
281
     0
  0
CLASS
  1
LWPOLYLINE
  2
AcDbPolyline
  3
"AutoCAD"
 90
        0
280
     0
281
     1
  0
CLASS
  1
HATCH
  2
AcDbHatch
  3
"ACAD_SEDONA"
 90
        0
280
     0
281
     1
  0
CLASS
  1
XRECORD
  2
AcDbXrecord
  3
"<Built In>"
 90
        0
280
     0
281
     0
  0
CLASS
  1
LONG_TRANSACTION
  2
AcDbLongTransaction
  3
AutoCAD 2000
 90
        0
280
     0
281
     0
  0
CLASS
  1
LWPOLYLINE
  2
AcDbPolyline
  3
"AutoCAD"
 90
        0
280
     0
281
     1
  0
CLASS
  1
HATCH
  2
AcDbHatch
  3
"ACAD_SEDONA"
 90
        0
280
     0
281
     1
  0
CLASS
  1
XRECORD
  2
AcDbXrecord
  3
"<Built In>"
 90
        0
280
     0
281
     0
  0
CLASS
  1
LONG_TRANSACTION
  2
AcDbLongTransaction
  3
AutoCAD 2000
 90
        0
280
     0
281
     0
  0
CLASS
  1
LWPOLYLINE
  2
AcDbPolyline
  3
"AutoCAD"
 90
        0
280
     0
281
     1
  0
CLASS
  1
HATCH
  2
AcDbHatch
  3
"ACAD_SEDONA"
 90
        0
280
     0
281
     1
  0
CLASS
  1
XRECORD
  2
AcDbXrecord
  3
"<Built In>"
 90
        0
280
     0
281
     0
  0
CLASS
  1
LONG_TRANSACTION
  2
AcDbLongTransaction
  3
AutoCAD 2000
 90
        0
280
     0
281
     0
  0
CLASS
  1
LWPOLYLINE
  2
AcDbPolyline
  3
"AutoCAD"
 90
        0
280
     0
281
     1
  0
CLASS
  1
HATCH
  2
AcDbHatch
  3
"ACAD_SEDONA"
 90
        0
280
     0
281
     1
  0
CLASS
  1
XRECORD
  2
AcDbXrecord
  3
"<Built In>"
 90
        0
280
     0
281
     0
  0
CLASS
  1
LONG_TRANSACTION
  2
AcDbLongTransaction
  3
AutoCAD 2000
 90
        0
280
     0
281
     0
  0
CLASS
  1
LWPOLYLINE
  2
AcDbPolyline
  3
"AutoCAD"
 90
        0
280
     0
281
     1
  0
CLASS
  1
HATCH
  2
AcDbHatch
  3
"ACAD_SEDONA"
 90
        0
280
     0
281
     1
  0
CLASS
  1
XRECORD
  2
AcDbXrecord
  3
"<Built In>"
 90
        0
280
     0
281
     0
  0
CLASS
  1
LONG_TRANSACTION
  2
AcDbLongTransaction
  3
AutoCAD 2000
 90
        0
280
     0
281
     0
  0
CLASS
  1
LWPOLYLINE
  2
AcDbPolyline
  3
"AutoCAD"
 90
        0
280
     0
281
     1
  0
CLASS
  1
HATCH
  2
AcDbHatch
  3
"ACAD_SEDONA"
 90
        0
280
     0
281
     1
  0
CLASS
  1
XRECORD
  2
AcDbXrecord
  3
"<Built In>"
 90
        0
280
     0
281
     0
  0
CLASS
  1
LONG_TRANSACTION
  2
AcDbLongTransaction
  3
AutoCAD 2000
 90
        0
280
     0
281
     0
  0
CLASS
  1
LWPOLYLINE
  2
AcDbPolyline
  3
"AutoCAD"
 90
        0
280
     0
281
     1
  0
CLASS
  1
HATCH
  2
AcDbHatch
  3
"ACAD_SEDONA"
 90
        0
280
     0
281
     1
  0
CLASS
  1
XRECORD
  2
AcDbXrecord
  3
"<Built In>"
 90
        0
280
     0
281
     0
  0
CLASS
  1
LONG_TRANSACTION
  2
AcDbLongTransaction
  3
AutoCAD 2000
 90
        0
280
     0
281
     0
  0
CLASS
  1
LWPOLYLINE
  2
AcDbPolyline
  3
"AutoCAD"
 90
        0
280
     0
281
     1
  0
CLASS
  1
HATCH
  2
AcDbHatch
  3
"ACAD_SEDONA"
 90
        0
280
     0
281
     1
  0
CLASS
  1
XRECORD
  2
AcDbXrecord
  3
"<Built In>"
 90
        0
280
     0
281
     0
  0
CLASS
  1
LONG_TRANSACTION
  2
AcDbLongTransaction
  3
AutoCAD 2000
 90
        0
280
     0
281
     0
  0
CLASS
  1
LWPOLYLINE
  2
AcDbPolyline
  3
"AutoCAD"
 90
        0
280
     0
281
     1
  0
CLASS
  1
HATCH
  2
AcDbHatch
  3
"ACAD_SEDONA"
 90
        0
280
     0
281
     1
  0
CLASS
  1
XRECORD
  2
AcDbXrecord
  3
"<Built In>"
 90
        0
280
     0
281
     0
  0
ENDSEC
  0
SECTION
  2
TABLES
  0
TABLE
  2
VPORT
  5
458C7
100
AcDbSymbolTable
 70
     1
  0
VPORT
  5
9DE24
102
{ACAD_XDICTIONARY
360
9DE27
102
}
100
AcDbSymbolTableRecord
100
AcDbViewportTableRecord
  2
*ACTIVE
 70
     0
 10
0.0
 20
0.0
 11
1.0
 21
1.0
 12
-0.993466
 22
-2.31165
 13
0.0
 23
0.0
 14
0.25
 24
0.25
 15
0.25
 25
0.25
 16
0.0
 26
0.0
 36
1.0
 17
0.761827
 27
-1.923188
 37
4.043999
 40
11.778212
 41
1.960674
 42
50.0
 43
0.0
 44
0.0
 50
0.0
 51
0.0
 71
     0
 72
 20000
 73
     1
 74
     1
 75
     0
 76
     0
 77
     0
 78
     0
  0
ENDTAB
  0
TABLE
  2
LTYPE
  5
458C4
100
AcDbSymbolTable
 70
     1
  0
LTYPE
  5
458D0
100
AcDbSymbolTableRecord
100
AcDbLinetypeTableRecord
  2
BYBLOCK
 70
     0
  3

 72
    65
 73
     0
 40
0.0
  0
LTYPE
  5
458D1
100
AcDbSymbolTableRecord
100
AcDbLinetypeTableRecord
  2
BYLAYER
 70
     0
  3

 72
    65
 73
     0
 40
0.0
  0
LTYPE
  5
458D2
100
AcDbSymbolTableRecord
100
AcDbLinetypeTableRecord
  2
CONTINUOUS
 70
     0
  3
Solid line
 72
    65
 73
     0
 40
0.0
  0
ENDTAB
  0
TABLE
  2
LAYER
  5
458C1
100
AcDbSymbolTable
 70
     7
  0
LAYER
  5
458CD
100
AcDbSymbolTableRecord
100
AcDbLayerTableRecord
  2
0
 70
     0
 62
     7
  6
CONTINUOUS
  0
LAYER
  5
458EA
100
AcDbSymbolTableRecord
100
AcDbLayerTableRecord
  2
DIMS-MTG-HOLES
 70
     0
 62
     1
  6
CONTINUOUS
  0
LAYER
  5
458EB
100
AcDbSymbolTableRecord
100
AcDbLayerTableRecord
  2
ATTRIBUTES
 70
     0
 62
     7
  6
CONTINUOUS
  0
LAYER
  5
4593B
102
{ACAD_XDICTIONARY
360
9DE50
102
}
100
AcDbSymbolTableRecord
100
AcDbLayerTableRecord
  2
AREA1
 70
     0
 62
    -7
  6
CONTINUOUS
  0
LAYER
  5
45940
102
{ACAD_XDICTIONARY
360
9DE25
102
}
100
AcDbSymbolTableRecord
100
AcDbLayerTableRecord
  2
DEFPOINTS
 70
     0
 62
    -7
  6
CONTINUOUS
  0
LAYER
  5
45954
100
AcDbSymbolTableRecord
100
AcDbLayerTableRecord
  2
SCALE
 70
     0
 62
    -7
  6
CONTINUOUS
  0
LAYER
  5
4D59A
100
AcDbSymbolTableRecord
100
AcDbLayerTableRecord
  2
SNAP_POINTS
 70
     0
 62
    -1
  6
CONTINUOUS
  0
ENDTAB
  0
TABLE
  2
STYLE
  5
458C2
100
AcDbSymbolTable
 70
     1
  0
STYLE
  5
458CE
100
AcDbSymbolTableRecord
100
AcDbTextStyleTableRecord
  2
STANDARD
 70
     0
 40
0.0
 41
1.0
 50
0.0
 71
     0
 42
0.12
  3
txt
  4

  0
ENDTAB
  0
TABLE
  2
VIEW
  5
458C5
100
AcDbSymbolTable
 70
     0
  0
ENDTAB
  0
TABLE
  2
UCS
  5
458C6
100
AcDbSymbolTable
 70
     0
  0
ENDTAB
  0
TABLE
  2
APPID
  5
458C8
100
AcDbSymbolTable
 70
     2
  0
APPID
  5
458CF
100
AcDbSymbolTableRecord
100
AcDbRegAppTableRecord
  2
ACAD
 70
     0
  0
APPID
  5
5FD5B
100
AcDbSymbolTableRecord
100
AcDbRegAppTableRecord
  2
AVE_RENDER
 70
     0
  0
ENDTAB
  0
TABLE
  2
DIMSTYLE
  5
458C9
100
AcDbSymbolTable
 70
     1
  0
DIMSTYLE
105
458F6
102
{ACAD_XDICTIONARY
360
9DE4C
102
}
102
{ACAD_REACTORS
330
9DDB9
330
9DDC7
102
}
100
AcDbSymbolTableRecord
100
AcDbDimStyleTableRecord
  2
ABECAD_3D
 70
     0
  3

  4

  5

  6

  7

 40
1.0
 41
0.5
 42
0.1
 43
0.375
 44
0.1
 45
0.0
 46
0.0
 47
0.0
 48
0.0
140
0.5
141
0.09
142
0.0
143
25.4
144
1.0
145
0.0
146
1.5
147
0.09
 71
     0
 72
     0
 73
     0
 74
     1
 75
     0
 76
     0
 77
     0
 78
     4
170
     1
171
     2
172
     0
173
     0
174
     0
175
     0
176
     0
177
     0
178
     0
270
     7
271
     6
272
     6
273
     2
274
     2
340
458CE
275
     0
280
     0
281
     0
282
     0
283
     1
284
     4
285
     4
286
     4
287
     5
288
     1
  0
ENDTAB
  0
TABLE
  2
BLOCK_RECORD
  5
458C0
100
AcDbSymbolTable
 70
     2
  0
BLOCK_RECORD
  5
458D6
102
{ACAD_XDICTIONARY
360
4592C
102
}
100
AcDbSymbolTableRecord
100
AcDbBlockTableRecord
  2
*MODEL_SPACE
  0
BLOCK_RECORD
  5
458D3
102
{ACAD_XDICTIONARY
360
4592A
102
}
100
AcDbSymbolTableRecord
100
AcDbBlockTableRecord
  2
*PAPER_SPACE
  0
BLOCK_RECORD
  5
9DDBA
100
AcDbSymbolTableRecord
100
AcDbBlockTableRecord
  2
*D0
  0
BLOCK_RECORD
  5
9DDC8
100
AcDbSymbolTableRecord
100
AcDbBlockTableRecord
  2
*D1
  0
ENDTAB
  0
ENDSEC
  0
SECTION
  2
BLOCKS
  0
BLOCK
  5
458DF
100
AcDbEntity
  8
0
100
AcDbBlockBegin
  2
*MODEL_SPACE
 70
     0
 10
0.0
 20
0.0
 30
0.0
  3
*MODEL_SPACE
  1

  0
ENDBLK
  5
458E0
100
AcDbEntity
  8
0
100
AcDbBlockEnd
  0
BLOCK
  5
458DD
100
AcDbEntity
 67
     1
  8
0
100
AcDbBlockBegin
  2
*PAPER_SPACE
 70
     0
 10
0.0
 20
0.0
 30
0.0
  3
*PAPER_SPACE
  1

  0
ENDBLK
  5
458DE
100
AcDbEntity
 67
     1
  8
0
100
AcDbBlockEnd
  0
BLOCK
  5
9DDC5
100
AcDbEntity
  8
0
100
AcDbBlockBegin
  2
*D0
 70
     1
 10
0.0
 20
0.0
 30
0.0
  3
*D0
  1

  0
LINE
  5
9DDBB
100
AcDbEntity
  8
AREA1
 62
     0
100
AcDbLine
 10
-1.1
 20
0.191
 30
0.0
 11
-5.420363
 21
0.191
 31
0.0
1001
ACAD
1000
RTLwPs
1070
   158
  0
LINE
  5
9DDBC
100
AcDbEntity
  8
AREA1
 62
     0
100
AcDbLine
 10
-3.653
 20
-8.969
 30
0.0
 11
-5.420363
 21
-8.969
 31
0.0
1001
ACAD
1000
RTLwPs
1070
   158
  0
LINE
  5
9DDBD
100
AcDbEntity
  8
AREA1
 62
     0
100
AcDbLine
 10
-5.320363
 20
-0.309
 30
0.0
 11
-5.320363
 21
-1.026731
 31
0.0
1001
ACAD
1000
RTLwPs
1070
   158
  0
LINE
  5
9DDBE
100
AcDbEntity
  8
AREA1
 62
     0
100
AcDbLine
 10
-5.320363
 20
-8.469
 30
0.0
 11
-5.320363
 21
-7.873398
 31
0.0
1001
ACAD
1000
RTLwPs
1070
   158
  0
MTEXT
  5
9DDBF
100
AcDbEntity
  8
AREA1
 62
     0
100
AcDbMText
 10
-5.320363
 20
-4.450064
 30
0.0
 40
0.5
 41
0.0
 71
     5
 72
     1
  1
\A1;9 5/32 [232.66]
 11
0.0
 21
1.0
 31
0.0
1001
ACAD
1000
MTEXTBEGIN
1070
    73
1070
     1
1070
    44
1040
1.0
1070
    74
1070
     0
1000
MTEXTEND
1000
MTEXTBEGIN
1070
    73
1070
     1
1070
    44
1040
1.0
1070
    74
1070
     0
1000
MTEXTEND
  0
SOLID
  5
9DDC0
100
AcDbEntity
  8
AREA1
 62
     0
100
AcDbTrace
 10
-5.403696
 20
-0.309
 30
0.0
 11
-5.237029
 21
-0.309
 31
0.0
 12
-5.320363
 22
0.191
 32
0.0
 13
-5.320363
 23
0.191
 33
0.0
  0
SOLID
  5
9DDC1
100
AcDbEntity
  8
AREA1
 62
     0
100
AcDbTrace
 10
-5.403696
 20
-8.469
 30
0.0
 11
-5.237029
 21
-8.469
 31
0.0
 12
-5.320363
 22
-8.969
 32
0.0
 13
-5.320363
 23
-8.969
 33
0.0
  0
POINT
  5
9DDC2
100
AcDbEntity
  8
DEFPOINTS
 62
     0
100
AcDbPoint
 10
-1.0
 20
0.191
 30
0.0
  0
POINT
  5
9DDC3
100
AcDbEntity
  8
DEFPOINTS
 62
     0
100
AcDbPoint
 10
-3.553
 20
-8.969
 30
0.0
  0
POINT
  5
9DDC4
100
AcDbEntity
  8
DEFPOINTS
 62
     0
100
AcDbPoint
 10
-5.320363
 20
-8.969
 30
0.0
  0
ENDBLK
  5
9DDC6
100
AcDbEntity
  8
0
100
AcDbBlockEnd
  0
BLOCK
  5
9DDD3
100
AcDbEntity
  8
0
100
AcDbBlockBegin
  2
*D1
 70
     1
 10
0.0
 20
0.0
 30
0.0
  3
*D1
  1

  0
LINE
  5
9DDC9
100
AcDbEntity
  8
AREA1
 62
     0
100
AcDbLine
 10
-4.168
 20
-1.46
 30
0.0
 11
-4.168
 21
1.406878
 31
0.0
1001
ACAD
1000
RTLwPs
1070
   158
  0
LINE
  5
9DDCA
100
AcDbEntity
  8
AREA1
 62
     0
100
AcDbLine
 10
5.107
 20
-0.619
 30
0.0
 11
5.107
 21
1.406878
 31
0.0
1001
ACAD
1000
RTLwPs
1070
   158
  0
LINE
  5
9DDCB
100
AcDbEntity
  8
AREA1
 62
     0
100
AcDbLine
 10
-3.668
 20
1.306878
 30
0.0
 11
-3.033238
 21
1.306878
 31
0.0
1001
ACAD
1000
RTLwPs
1070
   158
  0
LINE
  5
9DDCC
100
AcDbEntity
  8
AREA1
 62
     0
100
AcDbLine
 10
4.607
 20
1.306878
 30
0.0
 11
3.813429
 21
1.306878
 31
0.0
1001
ACAD
1000
RTLwPs
1070
   158
  0
MTEXT
  5
9DDCD
100
AcDbEntity
  8
AREA1
 62
     0
100
AcDbMText
 10
0.390096
 20
1.306878
 30
0.0
 40
0.5
 41
0.0
 71
     5
 72
     1
  1
\A1;9 9/32 [235.59]
1001
ACAD
1000
MTEXTBEGIN
1070
    73
1070
     1
1070
    44
1040
1.0
1070
    74
1070
     0
1000
MTEXTEND
1000
MTEXTBEGIN
1070
    73
1070
     1
1070
    44
1040
1.0
1070
    74
1070
     0
1000
MTEXTEND
  0
SOLID
  5
9DDCE
100
AcDbEntity
  8
AREA1
 62
     0
100
AcDbTrace
 10
-3.668
 20
1.390212
 30
0.0
 11
-3.668
 21
1.223545
 31
0.0
 12
-4.168
 22
1.306878
 32
0.0
 13
-4.168
 23
1.306878
 33
0.0
  0
SOLID
  5
9DDCF
100
AcDbEntity
  8
AREA1
 62
     0
100
AcDbTrace
 10
4.607
 20
1.390212
 30
0.0
 11
4.607
 21
1.223545
 31
0.0
 12
5.107
 22
1.306878
 32
0.0
 13
5.107
 23
1.306878
 33
0.0
  0
POINT
  5
9DDD0
100
AcDbEntity
  8
DEFPOINTS
 62
     0
100
AcDbPoint
 10
-4.168
 20
-1.56
 30
0.387
  0
POINT
  5
9DDD1
100
AcDbEntity
  8
DEFPOINTS
 62
     0
100
AcDbPoint
 10
5.107
 20
-0.719
 30
0.0
  0
POINT
  5
9DDD2
100
AcDbEntity
  8
DEFPOINTS
 62
     0
100
AcDbPoint
 10
5.107
 20
1.306878
 30
0.0
  0
ENDBLK
  5
9DDD4
100
AcDbEntity
  8
0
100
AcDbBlockEnd
  0
ENDSEC
  0
SECTION
  2
ENTITIES
  0
POLYLINE
  5
9D84C
100
AcDbEntity
  8
0
100
AcDbPolygonMesh
 66
     1
 10
0.0
 20
0.0
 30
0.0
 70
    16
 71
     6
 72
     3
  0
VERTEX
  5
9D84D
100
AcDbEntity
  8
0
100
AcDbVertex
100
AcDbPolygonMeshVertex
 10
-0.018
 20
-2.93
 30
4.287
 70
    64
  0
VERTEX
  5
9D84E
100
AcDbEntity
  8
0
100
AcDbVertex
100
AcDbPolygonMeshVertex
 10
-0.018
 20
-2.93
 30
0.387
 70
    64
  0
VERTEX
  5
9D84F
100
AcDbEntity
  8
0
100
AcDbVertex
100
AcDbPolygonMeshVertex
 10
-0.018
 20
-2.93
 30
0.387
 70
    64
  0
VERTEX
  5
9D850
100
AcDbEntity
  8
0
100
AcDbVertex
100
AcDbPolygonMeshVertex
 10
0.772
 20
-2.93
 30
4.287
 70
    64
  0
VERTEX
  5
9D851
100
AcDbEntity
  8
0
100
AcDbVertex
100
AcDbPolygonMeshVertex
 10
0.772
 20
-2.93
 30
0.387
 70
    64
  0
VERTEX
  5
9D852
100
AcDbEntity
  8
0
100
AcDbVertex
100
AcDbPolygonMeshVertex
 10
0.772
 20
-2.93
 30
0.387
 70
    64
  0
VERTEX
  5
9D853
100
AcDbEntity
  8
0
100
AcDbVertex
100
AcDbPolygonMeshVertex
 10
0.772
 20
-1.56
 30
4.287
 70
    64
  0
VERTEX
  5
9D854
100
AcDbEntity
  8
0
100
AcDbVertex
100
AcDbPolygonMeshVertex
 10
0.772
 20
-1.56
 30
0.387
 70
    64
  0
VERTEX
  5
9D855
100
AcDbEntity
  8
0
100
AcDbVertex
100
AcDbPolygonMeshVertex
 10
0.772
 20
-2.93
 30
0.387
 70
    64
  0
VERTEX
  5
9D856
100
AcDbEntity
  8
0
100
AcDbVertex
100
AcDbPolygonMeshVertex
 10
-0.018
 20
-1.56
 30
4.287
 70
    64
  0
VERTEX
  5
9D857
100
AcDbEntity
  8
0
100
AcDbVertex
100
AcDbPolygonMeshVertex
 10
-0.018
 20
-1.56
 30
0.387
 70
    64
  0
VERTEX
  5
9D858
100
AcDbEntity
  8
0
100
AcDbVertex
100
AcDbPolygonMeshVertex
 10
-0.018
 20
-2.93
 30
0.387
 70
    64
  0
VERTEX
  5
9D859
100
AcDbEntity
  8
0
100
AcDbVertex
100
AcDbPolygonMeshVertex
 10
-0.018
 20
-1.56
 30
4.287
 70
    64
  0
VERTEX
  5
9D85A
100
AcDbEntity
  8
0
100
AcDbVertex
100
AcDbPolygonMeshVertex
 10
-0.018
 20
-1.56
 30
4.287
 70
    64
  0
VERTEX
  5
9D85B
100
AcDbEntity
  8
0
100
AcDbVertex
100
AcDbPolygonMeshVertex
 10
-0.018
 20
-2.93
 30
4.287
 70
    64
  0
VERTEX
  5
9D85C
100
AcDbEntity
  8
0
100
AcDbVertex
100
AcDbPolygonMeshVertex
 10
0.772
 20
-1.56
 30
4.287
 70
    64
  0
VERTEX
  5
9D85D
100
AcDbEntity
  8
0
100
AcDbVertex
100
AcDbPolygonMeshVertex
 10
0.772
 20
-1.56
 30
4.287
 70
    64
  0
VERTEX
  5
9D85E
100
AcDbEntity
  8
0
100
AcDbVertex
100
AcDbPolygonMeshVertex
 10
0.772
 20
-2.93
 30
4.287
 70
    64
  0
SEQEND
  5
9D85F
100
AcDbEntity
  8
0
  0
POLYLINE
  5
9D860
100
AcDbEntity
  8
0
100
AcDbPolygonMesh
 66
     1
 10
0.0
 20
0.0
 30
0.0
 70
    16
 71
     6
 72
     3
  0
VERTEX
  5
9D861
100
AcDbEntity
  8
0
100
AcDbVertex
100
AcDbPolygonMeshVertex
 10
0.022
 20
-2.06
 30
4.477
 70
    64
  0
VERTEX
  5
9D862
100
AcDbEntity
  8
0
100
AcDbVertex
100
AcDbPolygonMeshVertex
 10
0.022
 20
-2.06
 30
4.287
 70
    64
  0
VERTEX
  5
9D863
100
AcDbEntity
  8
0
100
AcDbVertex
100
AcDbPolygonMeshVertex
 10
0.022
 20
-2.06
 30
4.287
 70
    64
  0
VERTEX
  5
9D864
100
AcDbEntity
  8
0
100
AcDbVertex
100
AcDbPolygonMeshVertex
 10
0.522
 20
-2.06
 30
4.477
 70
    64
  0
VERTEX
  5
9D865
100
AcDbEntity
  8
0
100
AcDbVertex
100
AcDbPolygonMeshVertex
 10
0.522
 20
-2.06
 30
4.287
 70
    64
  0
VERTEX
  5
9D866
100
AcDbEntity
  8
0
100
AcDbVertex
100
AcDbPolygonMeshVertex
 10
0.522
 20
-2.06
 30
4.287
 70
    64
  0
VERTEX
  5
9D867
100
AcDbEntity
  8
0
100
AcDbVertex
100
AcDbPolygonMeshVertex
 10
0.522
 20
-1.65
 30
4.477
 70
    64
  0
VERTEX
  5
9D868
100
AcDbEntity
  8
0
100
AcDbVertex
100
AcDbPolygonMeshVertex
 10
0.522
 20
-1.65
 30
4.287
 70
    64
  0
VERTEX
  5
9D869
100
AcDbEntity
  8
0
100
AcDbVertex
100
AcDbPolygonMeshVertex
 10
0.522
 20
-2.06
 30
4.287
 70
    64
  0
VERTEX
  5
9D86A
100
AcDbEntity
  8
0
100
AcDbVertex
100
AcDbPolygonMeshVertex
 10
0.022
 20
-1.65
 30
4.477
 70
    64
  0
VERTEX
  5
9D86B
100
AcDbEntity
  8
0
100
AcDbVertex
100
AcDbPolygonMeshVertex
 10
0.022
 20
-1.65
 30
4.287
 70
    64
  0
VERTEX
  5
9D86C
100
AcDbEntity
  8
0
100
AcDbVertex
100
AcDbPolygonMeshVertex
 10
0.022
 20
-2.06
 30
4.287
 70
    64
  0
VERTEX
  5
9D86D
100
AcDbEntity
  8
0
100
AcDbVertex
100
AcDbPolygonMeshVertex
 10
0.022
 20
-1.65
 30
4.477
 70
    64
  0
VERTEX
  5
9D86E
100
AcDbEntity
  8
0
100
AcDbVertex
100
AcDbPolygonMeshVertex
 10
0.022
 20
-1.65
 30
4.477
 70
    64
  0
VERTEX
  5
9D86F
100
AcDbEntity
  8
0
100
AcDbVertex
100
AcDbPolygonMeshVertex
 10
0.022
 20
-2.06
 30
4.477
 70
    64
  0
VERTEX
  5
9D870
100
AcDbEntity
  8
0
100
AcDbVertex
100
AcDbPolygonMeshVertex
 10
0.522
 20
-1.65
 30
4.477
 70
    64
  0
VERTEX
  5
9D871
100
AcDbEntity
  8
0
100
AcDbVertex
100
AcDbPolygonMeshVertex
 10
0.522
 20
-1.65
 30
4.477
 70
    64
  0
VERTEX
  5
9D872
100
AcDbEntity
  8
0
100
AcDbVertex
100
AcDbPolygonMeshVertex
 10
0.522
 20
-2.06
 30
4.477
 70
    64
  0
SEQEND
  5
9D873
100
AcDbEntity
  8
0
  0
CIRCLE
  5
9D874
100
AcDbEntity
  8
0
100
AcDbCircle
 10
0.272
 20
-1.855
 30
4.477
 40
0.19
  0
LINE
  5
9D875
100
AcDbEntity
  8
0
100
AcDbLine
 10
0.176965
 20
-2.018318
 30
4.477
 11
0.408216
 21
-1.721115
 31
4.477
  0
LINE
  5
9D876
100
AcDbEntity
  8
0
100
AcDbLine
 10
0.136278
 20
-1.987964
 30
4.477
 11
0.367529
 21
-1.690762
 31
4.477
  0
POLYLINE
  5
9D877
100
AcDbEntity
  8
0
100
AcDbPolygonMesh
 66
     1
 10
0.0
 20
0.0
 30
0.0
 70
    16
 71
     6
 72
     3
  0
VERTEX
  5
9D878
100
AcDbEntity
  8
0
100
AcDbVertex
100
AcDbPolygonMeshVertex
 10
-3.378
 20
-2.93
 30
4.287
 70
    64
  0
VERTEX
  5
9D879
100
AcDbEntity
  8
0
100
AcDbVertex
100
AcDbPolygonMeshVertex
 10
-3.378
 20
-2.93
 30
0.387
 70
    64
  0
VERTEX
  5
9D87A
100
AcDbEntity
  8
0
100
AcDbVertex
100
AcDbPolygonMeshVertex
 10
-3.378
 20
-2.93
 30
0.387
 70
    64
  0
VERTEX
  5
9D87B
100
AcDbEntity
  8
0
100
AcDbVertex
100
AcDbPolygonMeshVertex
 10
-4.168
 20
-2.93
 30
4.287
 70
    64
  0
VERTEX
  5
9D87C
100
AcDbEntity
  8
0
100
AcDbVertex
100
AcDbPolygonMeshVertex
 10
-4.168
 20
-2.93
 30
0.387
 70
    64
  0
VERTEX
  5
9D87D
100
AcDbEntity
  8
0
100
AcDbVertex
100
AcDbPolygonMeshVertex
 10
-4.168
 20
-2.93
 30
0.387
 70
    64
  0
VERTEX
  5
9D87E
100
AcDbEntity
  8
0
100
AcDbVertex
100
AcDbPolygonMeshVertex
 10
-4.168
 20
-1.56
 30
4.287
 70
    64
  0
VERTEX
  5
9D87F
100
AcDbEntity
  8
0
100
AcDbVertex
100
AcDbPolygonMeshVertex
 10
-4.168
 20
-1.56
 30
0.387
 70
    64
  0
VERTEX
  5
9D880
100
AcDbEntity
  8
0
100
AcDbVertex
100
AcDbPolygonMeshVertex
 10
-4.168
 20
-2.93
 30
0.387
 70
    64
  0
VERTEX
  5
9D881
100
AcDbEntity
  8
0
100
AcDbVertex
100
AcDbPolygonMeshVertex
 10
-3.378
 20
-1.56
 30
4.287
 70
    64
  0
VERTEX
  5
9D882
100
AcDbEntity
  8
0
100
AcDbVertex
100
AcDbPolygonMeshVertex
 10
-3.378
 20
-1.56
 30
0.387
 70
    64
  0
VERTEX
  5
9D883
100
AcDbEntity
  8
0
100
AcDbVertex
100
AcDbPolygonMeshVertex
 10
-3.378
 20
-2.93
 30
0.387
 70
    64
  0
VERTEX
  5
9D884
100
AcDbEntity
  8
0
100
AcDbVertex
100
AcDbPolygonMeshVertex
 10
-3.378
 20
-1.56
 30
4.287
 70
    64
  0
VERTEX
  5
9D885
100
AcDbEntity
  8
0
100
AcDbVertex
100
AcDbPolygonMeshVertex
 10
-3.378
 20
-1.56
 30
4.287
 70
    64
  0
VERTEX
  5
9D886
100
AcDbEntity
  8
0
100
AcDbVertex
100
AcDbPolygonMeshVertex
 10
-3.378
 20
-2.93
 30
4.287
 70
    64
  0
VERTEX
  5
9D887
100
AcDbEntity
  8
0
100
AcDbVertex
100
AcDbPolygonMeshVertex
 10
-4.168
 20
-1.56
 30
4.287
 70
    64
  0
VERTEX
  5
9D888
100
AcDbEntity
  8
0
100
AcDbVertex
100
AcDbPolygonMeshVertex
 10
-4.168
 20
-1.56
 30
4.287
 70
    64
  0
VERTEX
  5
9D889
100
AcDbEntity
  8
0
100
AcDbVertex
100
AcDbPolygonMeshVertex
 10
-4.168
 20
-2.93
 30
4.287
 70
    64
  0
SEQEND
  5
9D88A
100
AcDbEntity
  8
0
  0
POLYLINE
  5
9D88B
100
AcDbEntity
  8
0
100
AcDbPolygonMesh
 66
     1
 10
0.0
 20
0.0
 30
0.0
 70
    16
 71
     6
 72
     3
  0
VERTEX
  5
9D88C
100
AcDbEntity
  8
0
100
AcDbVertex
100
AcDbPolygonMeshVertex
 10
-3.418
 20
-2.06
 30
4.477
 70
    64
  0
VERTEX
  5
9D88D
100
AcDbEntity
  8
0
100
AcDbVertex
100
AcDbPolygonMeshVertex
 10
-3.418
 20
-2.06
 30
4.287
 70
    64
  0
VERTEX
  5
9D88E
100
AcDbEntity
  8
0
100
AcDbVertex
100
AcDbPolygonMeshVertex
 10
-3.418
 20
-2.06
 30
4.287
 70
    64
  0
VERTEX
  5
9D88F
100
AcDbEntity
  8
0
100
AcDbVertex
100
AcDbPolygonMeshVertex
 10
-3.918
 20
-2.06
 30
4.477
 70
    64
  0
VERTEX
  5
9D890
100
AcDbEntity
  8
0
100
AcDbVertex
100
AcDbPolygonMeshVertex
 10
-3.918
 20
-2.06
 30
4.287
 70
    64
  0
VERTEX
  5
9D891
100
AcDbEntity
  8
0
100
AcDbVertex
100
AcDbPolygonMeshVertex
 10
-3.918
 20
-2.06
 30
4.287
 70
    64
  0
VERTEX
  5
9D892
100
AcDbEntity
  8
0
100
AcDbVertex
100
AcDbPolygonMeshVertex
 10
-3.918
 20
-1.65
 30
4.477
 70
    64
  0
VERTEX
  5
9D893
100
AcDbEntity
  8
0
100
AcDbVertex
100
AcDbPolygonMeshVertex
 10
-3.918
 20
-1.65
 30
4.287
 70
    64
  0
VERTEX
  5
9D894
100
AcDbEntity
  8
0
100
AcDbVertex
100
AcDbPolygonMeshVertex
 10
-3.918
 20
-2.06
 30
4.287
 70
    64
  0
VERTEX
  5
9D895
100
AcDbEntity
  8
0
100
AcDbVertex
100
AcDbPolygonMeshVertex
 10
-3.418
 20
-1.65
 30
4.477
 70
    64
  0
VERTEX
  5
9D896
100
AcDbEntity
  8
0
100
AcDbVertex
100
AcDbPolygonMeshVertex
 10
-3.418
 20
-1.65
 30
4.287
 70
    64
  0
VERTEX
  5
9D897
100
AcDbEntity
  8
0
100
AcDbVertex
100
AcDbPolygonMeshVertex
 10
-3.418
 20
-2.06
 30
4.287
 70
    64
  0
VERTEX
  5
9D898
100
AcDbEntity
  8
0
100
AcDbVertex
100
AcDbPolygonMeshVertex
 10
-3.418
 20
-1.65
 30
4.477
 70
    64
  0
VERTEX
  5
9D899
100
AcDbEntity
  8
0
100
AcDbVertex
100
AcDbPolygonMeshVertex
 10
-3.418
 20
-1.65
 30
4.477
 70
    64
  0
VERTEX
  5
9D89A
100
AcDbEntity
  8
0
100
AcDbVertex
100
AcDbPolygonMeshVertex
 10
-3.418
 20
-2.06
 30
4.477
 70
    64
  0
VERTEX
  5
9D89B
100
AcDbEntity
  8
0
100
AcDbVertex
100
AcDbPolygonMeshVertex
 10
-3.918
 20
-1.65
 30
4.477
 70
    64
  0
VERTEX
  5
9D89C
100
AcDbEntity
  8
0
100
AcDbVertex
100
AcDbPolygonMeshVertex
 10
-3.918
 20
-1.65
 30
4.477
 70
    64
  0
VERTEX
  5
9D89D
100
AcDbEntity
  8
0
100
AcDbVertex
100
AcDbPolygonMeshVertex
 10
-3.918
 20
-2.06
 30
4.477
 70
    64
  0
SEQEND
  5
9D89E
100
AcDbEntity
  8
0
  0
CIRCLE
  5
9D89F
100
AcDbEntity
  8
0
100
AcDbCircle
 10
-3.668
 20
-1.855
 30
4.477
 40
0.19
  0
LINE
  5
9D8A0
100
AcDbEntity
  8
0
100
AcDbLine
 10
-3.572965
 20
-2.018318
 30
4.477
 11
-3.804216
 21
-1.721115
 31
4.477
  0
LINE
  5
9D8A1
100
AcDbEntity
  8
0
100
AcDbLine
 10
-3.532278
 20
-1.987964
 30
4.477
 11
-3.763529
 21
-1.690762
 31
4.477
  0
ARC
  5
9D8A2
100
AcDbEntity
  8
0
100
AcDbCircle
 10
-2.753
 20
-8.748
 30
0.197
 40
0.1
100
AcDbArc
 50
0.0
 51
179.999985
  0
ARC
  5
9D8A3
100
AcDbEntity
  8
0
100
AcDbCircle
 10
-2.753
 20
-8.748
 30
0.0
 40
0.1
100
AcDbArc
 50
0.0
 51
179.999985
  0
LINE
  5
9D8A4
100
AcDbEntity
  8
0
100
AcDbLine
 10
-2.853
 20
-8.969
 30
0.0
 11
-2.853
 21
-8.969
 31
0.197
  0
LINE
  5
9D8A5
100
AcDbEntity
  8
0
100
AcDbLine
 10
-2.853
 20
-8.748
 30
0.0
 11
-2.853
 21
-8.748
 31
0.197
  0
LINE
  5
9D8A6
100
AcDbEntity
  8
0
100
AcDbLine
 10
-2.653
 20
-8.969
 30
0.0
 11
-2.653
 21
-8.969
 31
0.197
  0
LINE
  5
9D8A7
100
AcDbEntity
  8
0
100
AcDbLine
 10
-2.653
 20
-8.748
 30
0.0
 11
-2.653
 21
-8.748
 31
0.197
  0
LINE
  5
9D8A8
100
AcDbEntity
  8
0
100
AcDbLine
 10
-2.853
 20
-8.748
 30
0.0
 11
-2.853
 21
-8.969
 31
0.0
  0
LINE
  5
9D8A9
100
AcDbEntity
  8
0
100
AcDbLine
 10
-2.653
 20
-8.969
 30
0.0
 11
-2.653
 21
-8.748
 31
0.0
  0
LINE
  5
9D8AA
100
AcDbEntity
  8
0
100
AcDbLine
 10
-2.853
 20
-8.748
 30
0.197
 11
-2.853
 21
-8.969
 31
0.197
  0
LINE
  5
9D8AB
100
AcDbEntity
  8
0
100
AcDbLine
 10
-2.653
 20
-8.969
 30
0.197
 11
-2.653
 21
-8.748
 31
0.197
  0
LINE
  5
9D8AC
100
AcDbEntity
  8
0
100
AcDbLine
 10
0.1
 20
-0.09
 30
0.197
 11
0.1
 21
-0.221891
 31
0.197
  0
LINE
  5
9D8AD
100
AcDbEntity
  8
0
100
AcDbLine
 10
-0.1
 20
-0.09
 30
0.197
 11
-0.1
 21
-0.221891
 31
0.197
  0
LINE
  5
9D8AE
100
AcDbEntity
  8
0
100
AcDbLine
 10
0.1
 20
-0.09
 30
0.0
 11
0.1
 21
-0.221891
 31
0.0
  0
LINE
  5
9D8AF
100
AcDbEntity
  8
0
100
AcDbLine
 10
-0.1
 20
-0.09
 30
0.0
 11
-0.1
 21
-0.221891
 31
0.0
  0
ARC
  5
9D8B0
100
AcDbEntity
  8
0
100
AcDbCircle
 10
0.0
 20
-0.434
 30
0.0
 40
0.2345
100
AcDbArc
 50
115.241821
 51
64.758209
  0
ARC
  5
9D8B1
100
AcDbEntity
  8
0
100
AcDbCircle
 10
0.0
 20
-0.434
 30
0.197
 40
0.2345
100
AcDbArc
 50
115.241821
 51
64.758209
  0
LINE
  5
9D8B2
100
AcDbEntity
  8
0
100
AcDbLine
 10
-0.1
 20
-0.221891
 30
0.0
 11
-0.1
 21
-0.221891
 31
0.197
  0
LINE
  5
9D8B3
100
AcDbEntity
  8
0
100
AcDbLine
 10
0.1
 20
-0.221891
 30
0.0
 11
0.1
 21
-0.221891
 31
0.197
  0
LINE
  5
9D8B4
100
AcDbEntity
  8
0
100
AcDbLine
 10
-0.1
 20
-0.09
 30
0.0
 11
-0.1
 21
-0.09
 31
0.197
  0
LINE
  5
9D8B5
100
AcDbEntity
  8
0
100
AcDbLine
 10
0.1
 20
-0.09
 30
0.0
 11
0.1
 21
-0.09
 31
0.197
  0
ARC
  5
9D8B6
100
AcDbEntity
  8
0
100
AcDbCircle
 10
0.0
 20
-0.09
 30
0.0
 40
0.1
100
AcDbArc
 50
0.0
 51
179.999985
  0
ARC
  5
9D8B7
100
AcDbEntity
  8
0
100
AcDbCircle
 10
0.0
 20
-0.09
 30
0.0
 40
0.1
100
AcDbArc
 50
0.0
 51
179.999985
  0
ARC
  5
9D8B8
100
AcDbEntity
  8
0
100
AcDbCircle
 10
0.0
 20
-0.09
 30
0.197
 40
0.1
100
AcDbArc
 50
0.0
 51
179.999985
  0
ARC
  5
9D8B9
100
AcDbEntity
  8
0
100
AcDbCircle
 10
0.0
 20
-0.09
 30
0.197
 40
0.1
100
AcDbArc
 50
0.0
 51
179.999985
  0
ARC
  5
9D8BA
100
AcDbEntity
  8
0
100
AcDbCircle
 10
4.337
 20
-8.748
 30
0.197
 40
0.1
100
AcDbArc
 50
0.0
 51
179.999985
  0
ARC
  5
9D8BB
100
AcDbEntity
  8
0
100
AcDbCircle
 10
4.337
 20
-8.748
 30
0.0
 40
0.1
100
AcDbArc
 50
0.0
 51
179.999985
  0
LINE
  5
9D8BC
100
AcDbEntity
  8
0
100
AcDbLine
 10
4.237
 20
-8.969
 30
0.0
 11
4.237
 21
-8.969
 31
0.197
  0
LINE
  5
9D8BD
100
AcDbEntity
  8
0
100
AcDbLine
 10
4.237
 20
-8.748
 30
0.0
 11
4.237
 21
-8.748
 31
0.197
  0
LINE
  5
9D8BE
100
AcDbEntity
  8
0
100
AcDbLine
 10
4.437
 20
-8.969
 30
0.0
 11
4.437
 21
-8.969
 31
0.197
  0
LINE
  5
9D8BF
100
AcDbEntity
  8
0
100
AcDbLine
 10
4.437
 20
-8.748
 30
0.0
 11
4.437
 21
-8.748
 31
0.197
  0
LINE
  5
9D8C0
100
AcDbEntity
  8
0
100
AcDbLine
 39
0.197
 10
4.237
 20
-8.969
 30
0.0
 11
4.237
 21
-8.748
 31
0.0
  0
LINE
  5
9D8C1
100
AcDbEntity
  8
0
100
AcDbLine
 39
0.197
 10
4.437
 20
-8.748
 30
0.0
 11
4.437
 21
-8.969
 31
0.0
  0
LINE
  5
9D8C2
100
AcDbEntity
  8
0
100
AcDbLine
 10
4.237
 20
-8.969
 30
0.197
 11
4.237
 21
-8.748
 31
0.197
  0
LINE
  5
9D8C3
100
AcDbEntity
  8
0
100
AcDbLine
 10
4.437
 20
-8.969
 30
0.197
 11
4.437
 21
-8.748
 31
0.197
  0
POLYLINE
  5
9D8C4
100
AcDbEntity
  8
0
100
AcDbPolygonMesh
 66
     1
 10
0.0
 20
0.0
 30
0.0
 70
    16
 71
     6
 72
     3
  0
VERTEX
  5
9D8C5
100
AcDbEntity
  8
0
100
AcDbVertex
100
AcDbPolygonMeshVertex
 10
5.107
 20
-8.969
 30
0.197
 70
    64
  0
VERTEX
  5
9D8C6
100
AcDbEntity
  8
0
100
AcDbVertex
100
AcDbPolygonMeshVertex
 10
5.107
 20
-8.969
 30
0.0
 70
    64
  0
VERTEX
  5
9D8C7
100
AcDbEntity
  8
0
100
AcDbVertex
100
AcDbPolygonMeshVertex
 10
5.107
 20
-8.969
 30
0.0
 70
    64
  0
VERTEX
  5
9D8C8
100
AcDbEntity
  8
0
100
AcDbVertex
100
AcDbPolygonMeshVertex
 10
-3.553
 20
-8.969
 30
0.197
 70
    64
  0
VERTEX
  5
9D8C9
100
AcDbEntity
  8
0
100
AcDbVertex
100
AcDbPolygonMeshVertex
 10
-3.553
 20
-8.969
 30
0.0
 70
    64
  0
VERTEX
  5
9D8CA
100
AcDbEntity
  8
0
100
AcDbVertex
100
AcDbPolygonMeshVertex
 10
-3.553
 20
-8.969
 30
0.0
 70
    64
  0
VERTEX
  5
9D8CB
100
AcDbEntity
  8
0
100
AcDbVertex
100
AcDbPolygonMeshVertex
 10
-3.553
 20
-0.719
 30
0.197
 70
    64
  0
VERTEX
  5
9D8CC
100
AcDbEntity
  8
0
100
AcDbVertex
100
AcDbPolygonMeshVertex
 10
-3.553
 20
-0.719
 30
0.0
 70
    64
  0
VERTEX
  5
9D8CD
100
AcDbEntity
  8
0
100
AcDbVertex
100
AcDbPolygonMeshVertex
 10
-3.553
 20
-8.969
 30
0.0
 70
    64
  0
VERTEX
  5
9D8CE
100
AcDbEntity
  8
0
100
AcDbVertex
100
AcDbPolygonMeshVertex
 10
5.107
 20
-0.719
 30
0.197
 70
    64
  0
VERTEX
  5
9D8CF
100
AcDbEntity
  8
0
100
AcDbVertex
100
AcDbPolygonMeshVertex
 10
5.107
 20
-0.719
 30
0.0
 70
    64
  0
VERTEX
  5
9D8D0
100
AcDbEntity
  8
0
100
AcDbVertex
100
AcDbPolygonMeshVertex
 10
5.107
 20
-8.969
 30
0.0
 70
    64
  0
VERTEX
  5
9D8D1
100
AcDbEntity
  8
0
100
AcDbVertex
100
AcDbPolygonMeshVertex
 10
5.107
 20
-0.719
 30
0.197
 70
    64
  0
VERTEX
  5
9D8D2
100
AcDbEntity
  8
0
100
AcDbVertex
100
AcDbPolygonMeshVertex
 10
5.107
 20
-0.719
 30
0.197
 70
    64
  0
VERTEX
  5
9D8D3
100
AcDbEntity
  8
0
100
AcDbVertex
100
AcDbPolygonMeshVertex
 10
5.107
 20
-8.969
 30
0.197
 70
    64
  0
VERTEX
  5
9D8D4
100
AcDbEntity
  8
0
100
AcDbVertex
100
AcDbPolygonMeshVertex
 10
-3.553
 20
-0.719
 30
0.197
 70
    64
  0
VERTEX
  5
9D8D5
100
AcDbEntity
  8
0
100
AcDbVertex
100
AcDbPolygonMeshVertex
 10
-3.553
 20
-0.719
 30
0.197
 70
    64
  0
VERTEX
  5
9D8D6
100
AcDbEntity
  8
0
100
AcDbVertex
100
AcDbPolygonMeshVertex
 10
-3.553
 20
-8.969
 30
0.197
 70
    64
  0
SEQEND
  5
9D8D7
100
AcDbEntity
  8
0
  0
3DFACE
  5
9D8D8
100
AcDbEntity
  8
0
100
AcDbFace
 10
1.91
 20
-0.719
 30
0.197
 11
1.0
 21
0.191
 31
0.197
 12
-1.0
 22
0.191
 32
0.197
 13
-1.91
 23
-0.719
 33
0.197
  0
3DFACE
  5
9D8D9
100
AcDbEntity
  8
0
100
AcDbFace
 10
1.91
 20
-0.719
 30
0.0
 11
1.0
 21
0.191
 31
0.0
 12
-1.0
 22
0.191
 32
0.0
 13
-1.91
 23
-0.719
 33
0.0
  0
3DFACE
  5
9D8DA
100
AcDbEntity
  8
0
100
AcDbFace
 10
1.0
 20
0.191
 30
0.197
 11
1.0
 21
0.191
 31
0.0
 12
1.91
 22
-0.719
 32
0.0
 13
1.91
 23
-0.719
 33
0.197
  0
3DFACE
  5
9D8DB
100
AcDbEntity
  8
0
100
AcDbFace
 10
-1.0
 20
0.191
 30
0.197
 11
-1.0
 21
0.191
 31
0.0
 12
1.0
 22
0.191
 32
0.0
 13
1.0
 23
0.191
 33
0.197
  0
3DFACE
  5
9D8DC
100
AcDbEntity
  8
0
100
AcDbFace
 10
-1.0
 20
0.191
 30
0.197
 11
-1.0
 21
0.191
 31
0.0
 12
-1.91
 22
-0.719
 32
0.0
 13
-1.91
 23
-0.719
 33
0.197
  0
LINE
  5
9D8E1
100
AcDbEntity
  8
0
100
AcDbLine
 10
1.622
 20
-5.88
 30
2.007
 11
1.622
 21
-5.88
 31
3.237
  0
LINE
  5
9D8E2
100
AcDbEntity
  8
0
100
AcDbLine
 10
2.022
 20
-8.4
 30
0.387
 11
2.022
 21
-8.15
 31
0.387
  0
LINE
  5
9D8E3
100
AcDbEntity
  8
0
100
AcDbLine
 10
2.022
 20
-8.4
 30
0.577
 11
2.022
 21
-8.15
 31
0.577
  0
LINE
  5
9D8E4
100
AcDbEntity
  8
0
100
AcDbLine
 10
1.822
 20
-8.15
 30
0.387
 11
1.822
 21
-8.4
 31
0.387
  0
LINE
  5
9D8E5
100
AcDbEntity
  8
0
100
AcDbLine
 10
1.822
 20
-8.15
 30
0.577
 11
1.822
 21
-8.4
 31
0.577
  0
LINE
  5
9D8E6
100
AcDbEntity
  8
0
100
AcDbLine
 10
1.822
 20
-8.4
 30
0.387
 11
1.822
 21
-8.4
 31
0.577
  0
LINE
  5
9D8E7
100
AcDbEntity
  8
0
100
AcDbLine
 10
2.022
 20
-8.15
 30
0.387
 11
2.022
 21
-8.15
 31
0.577
  0
LINE
  5
9D8E8
100
AcDbEntity
  8
0
100
AcDbLine
 10
1.822
 20
-8.15
 30
0.387
 11
1.822
 21
-8.15
 31
0.577
  0
ARC
  5
9D8E9
100
AcDbEntity
  8
0
100
AcDbCircle
 10
1.922
 20
-8.15
 30
0.387
 40
0.1
100
AcDbArc
 50
0.0
 51
179.999985
  0
ARC
  5
9D8EA
100
AcDbEntity
  8
0
100
AcDbCircle
 10
1.922
 20
-8.15
 30
0.577
 40
0.1
100
AcDbArc
 50
0.0
 51
179.999985
  0
3DFACE
  5
9D8EB
100
AcDbEntity
  8
0
100
AcDbFace
 10
4.772
 20
-8.15
 30
0.577
 11
4.772
 21
-8.15
 31
0.387
 12
4.772
 22
-8.4
 32
0.387
 13
4.772
 23
-8.4
 33
0.577
 70
    14
  0
LINE
  5
9D8EC
100
AcDbEntity
  8
0
100
AcDbLine
 10
4.572
 20
-8.15
 30
0.387
 11
4.572
 21
-8.4
 31
0.387
  0
LINE
  5
9D8ED
100
AcDbEntity
  8
0
100
AcDbLine
 10
4.772
 20
-8.4
 30
0.387
 11
4.772
 21
-8.15
 31
0.387
  0
LINE
  5
9D8EE
100
AcDbEntity
  8
0
100
AcDbLine
 10
4.572
 20
-8.15
 30
0.577
 11
4.572
 21
-8.4
 31
0.577
  0
LINE
  5
9D8EF
100
AcDbEntity
  8
0
100
AcDbLine
 10
4.772
 20
-8.4
 30
0.577
 11
4.772
 21
-8.15
 31
0.577
  0
LINE
  5
9D8F0
100
AcDbEntity
  8
0
100
AcDbLine
 10
4.572
 20
-8.4
 30
0.387
 11
4.572
 21
-8.4
 31
0.577
  0
LINE
  5
9D8F1
100
AcDbEntity
  8
0
100
AcDbLine
 10
4.772
 20
-8.4
 30
0.387
 11
4.772
 21
-8.4
 31
0.577
  0
LINE
  5
9D8F2
100
AcDbEntity
  8
0
100
AcDbLine
 10
4.572
 20
-8.15
 30
0.387
 11
4.572
 21
-8.15
 31
0.577
  0
LINE
  5
9D8F3
100
AcDbEntity
  8
0
100
AcDbLine
 10
4.772
 20
-8.15
 30
0.387
 11
4.772
 21
-8.15
 31
0.577
  0
ARC
  5
9D8F4
100
AcDbEntity
  8
0
100
AcDbCircle
 10
4.672
 20
-8.15
 30
0.387
 40
0.1
100
AcDbArc
 50
0.0
 51
179.999985
  0
ARC
  5
9D8F5
100
AcDbEntity
  8
0
100
AcDbCircle
 10
4.672
 20
-8.15
 30
0.577
 40
0.1
100
AcDbArc
 50
0.0
 51
179.999985
  0
CIRCLE
  5
9D8F6
100
AcDbEntity
  8
0
100
AcDbCircle
 10
2.172
 20
-6.153487
 30
5.387245
 40
0.155
210
0.0
220
-0.3163624652213708
230
0.9486383876899864
  0
LINE
  5
9D8F7
100
AcDbEntity
  8
0
100
AcDbLine
 10
2.151925
 20
-7.687557
 30
3.115192
 11
2.172414
 21
-7.394718
 31
3.212851
210
0.0
220
-0.3163624652213708
230
0.9486383876899864
  0
LINE
  5
9D8F8
100
AcDbEntity
  8
0
100
AcDbLine
 10
2.171042
 20
-7.688819
 30
3.114771
 11
2.191531
 21
-7.39598
 31
3.21243
210
0.0
220
-0.3163624652213708
230
0.9486383876899864
  0
CIRCLE
  5
9D8F9
100
AcDbEntity
  8
0
100
AcDbCircle
 10
3.232
 20
-6.153487
 30
5.387245
 40
0.155
210
0.0
220
-0.3163624652213708
230
0.9486383876899864
  0
LINE
  5
9D8FA
100
AcDbEntity
  8
0
100
AcDbLine
 10
3.231042
 20
-7.688819
 30
3.114771
 11
3.251531
 21
-7.39598
 31
3.21243
210
0.0
220
-0.3163624652213708
230
0.9486383876899864
  0
LINE
  5
9D8FB
100
AcDbEntity
  8
0
100
AcDbLine
 10
3.211925
 20
-7.687557
 30
3.115192
 11
3.232414
 21
-7.394718
 31
3.212851
210
0.0
220
-0.3163624652213708
230
0.9486383876899864
  0
LINE
  5
9D8FC
100
AcDbEntity
  8
0
100
AcDbLine
 10
2.579
 20
-6.38
 30
4.347
 11
2.579
 21
-6.38
 31
4.027
  0
LINE
  5
9D8FD
100
AcDbEntity
  8
0
100
AcDbLine
 10
2.829
 20
-6.38
 30
4.347
 11
2.829
 21
-6.38
 31
4.027
  0
LINE
  5
9D8FE
100
AcDbEntity
  8
0
100
AcDbLine
 10
2.829
 20
-6.13
 30
4.347
 11
2.829
 21
-6.13
 31
4.027
  0
LINE
  5
9D8FF
100
AcDbEntity
  8
0
100
AcDbLine
 10
2.579
 20
-6.13
 30
4.347
 11
2.579
 21
-6.13
 31
4.027
  0
LINE
  5
9D900
100
AcDbEntity
  8
0
100
AcDbLine
 10
2.829
 20
-6.13
 30
4.347
 11
2.829
 21
-6.13
 31
4.027
  0
3DFACE
  5
9D901
100
AcDbEntity
  8
0
100
AcDbFace
 10
2.829
 20
-6.38
 30
4.347
 11
2.829
 21
-6.38
 31
4.027
 12
2.829
 22
-6.13
 32
4.027
 13
2.829
 23
-6.13
 33
4.347
 70
    14
  0
3DFACE
  5
9D902
100
AcDbEntity
  8
0
100
AcDbFace
 10
2.829
 20
-6.13
 30
4.027
 11
2.829
 21
-6.13
 31
4.347
 12
2.829
 22
-6.38
 32
4.347
 13
2.829
 23
-6.38
 33
4.027
 70
     3
  0
3DFACE
  5
9D903
100
AcDbEntity
  8
0
100
AcDbFace
 10
2.829
 20
-6.38
 30
4.347
 11
2.829
 21
-6.38
 31
4.027
 12
2.829
 22
-6.13
 32
4.027
 13
2.829
 23
-6.13
 33
4.027
 70
    14
  0
3DFACE
  5
9D904
100
AcDbEntity
  8
0
100
AcDbFace
 10
2.829
 20
-6.13
 30
4.027
 11
2.579
 21
-6.13
 31
4.027
 12
2.579
 22
-6.13
 32
4.347
 13
2.829
 23
-6.13
 33
4.347
 70
    14
  0
3DFACE
  5
9D905
100
AcDbEntity
  8
0
100
AcDbFace
 10
2.579
 20
-6.13
 30
4.347
 11
2.579
 21
-6.38
 31
4.347
 12
2.579
 22
-6.38
 32
4.027
 13
2.579
 23
-6.13
 33
4.027
 70
    14
  0
3DFACE
  5
9D906
100
AcDbEntity
  8
0
100
AcDbFace
 10
2.579
 20
-6.38
 30
4.347
 11
2.579
 21
-6.38
 31
4.027
 12
2.829
 22
-6.38
 32
4.027
 13
2.829
 23
-6.38
 33
4.347
 70
    14
  0
LINE
  5
9D907
100
AcDbEntity
  8
0
100
AcDbLine
 10
2.829
 20
-6.38
 30
4.027
 11
2.579
 21
-6.38
 31
4.027
  0
LINE
  5
9D908
100
AcDbEntity
  8
0
100
AcDbLine
 10
2.579
 20
-6.13
 30
4.027
 11
2.829
 21
-6.13
 31
4.027
  0
LINE
  5
9D909
100
AcDbEntity
  8
0
100
AcDbLine
 10
2.579
 20
-6.38
 30
4.027
 11
2.579
 21
-6.13
 31
4.027
  0
LINE
  5
9D90A
100
AcDbEntity
  8
0
100
AcDbLine
 10
2.829
 20
-6.13
 30
4.027
 11
2.829
 21
-6.38
 31
4.027
  0
3DFACE
  5
9D90B
100
AcDbEntity
  8
0
100
AcDbFace
 10
2.394
 20
-5.88
 30
4.937
 11
3.014
 21
-5.88
 31
4.937
 12
3.014
 22
-5.88
 32
4.812
 13
2.394
 23
-5.88
 33
4.812
 70
    14
  0
LINE
  5
9D90C
100
AcDbEntity
  8
0
100
AcDbLine
 10
2.394
 20
-5.88
 30
4.937
 11
3.014
 21
-5.88
 31
4.937
  0
LINE
  5
9D90D
100
AcDbEntity
  8
0
100
AcDbLine
 10
2.394
 20
-5.88
 30
4.812
 11
3.014
 21
-5.88
 31
4.812
  0
LINE
  5
9D90E
100
AcDbEntity
  8
0
100
AcDbLine
 10
2.454
 20
-6.005
 30
4.347
 11
2.954
 21
-6.005
 31
4.347
  0
3DFACE
  5
9D90F
100
AcDbEntity
  8
0
100
AcDbFace
 10
3.014
 20
-5.88
 30
4.812
 11
2.394
 21
-5.88
 31
4.812
 12
2.454
 22
-6.005
 32
4.347
 13
2.954
 23
-6.005
 33
4.347
 70
    14
  0
LINE
  5
9D910
100
AcDbEntity
  8
0
100
AcDbLine
 10
3.014
 20
-6.63
 30
4.812
 11
2.394
 21
-6.63
 31
4.812
  0
3DFACE
  5
9D911
100
AcDbEntity
  8
0
100
AcDbFace
 10
2.394
 20
-6.63
 30
4.937
 11
3.014
 21
-6.63
 31
4.937
 12
3.014
 22
-6.63
 32
4.812
 13
2.394
 23
-6.63
 33
4.812
 70
    14
  0
LINE
  5
9D912
100
AcDbEntity
  8
0
100
AcDbLine
 10
3.014
 20
-6.63
 30
4.937
 11
2.394
 21
-6.63
 31
4.937
  0
LINE
  5
9D913
100
AcDbEntity
  8
0
100
AcDbLine
 10
2.954
 20
-6.505
 30
4.347
 11
2.454
 21
-6.505
 31
4.347
  0
3DFACE
  5
9D914
100
AcDbEntity
  8
0
100
AcDbFace
 10
2.394
 20
-6.63
 30
4.812
 11
3.014
 21
-6.63
 31
4.812
 12
2.954
 22
-6.505
 32
4.347
 13
2.454
 23
-6.505
 33
4.347
 70
    14
  0
3DFACE
  5
9D915
100
AcDbEntity
  8
0
100
AcDbFace
 10
2.394
 20
-5.88
 30
4.937
 11
3.014
 21
-5.88
 31
4.937
 12
3.014
 22
-6.63
 32
4.937
 13
2.394
 23
-6.63
 33
4.937
 70
    14
  0
LINE
  5
9D916
100
AcDbEntity
  8
0
100
AcDbLine
 10
2.579
 20
-6.38
 30
4.347
 11
2.829
 21
-6.38
 31
4.347
  0
LINE
  5
9D917
100
AcDbEntity
  8
0
100
AcDbLine
 10
2.579
 20
-6.13
 30
4.347
 11
2.829
 21
-6.13
 31
4.347
  0
LINE
  5
9D918
100
AcDbEntity
  8
0
100
AcDbLine
 10
2.394
 20
-6.63
 30
4.812
 11
2.394
 21
-5.88
 31
4.812
  0
3DFACE
  5
9D919
100
AcDbEntity
  8
0
100
AcDbFace
 10
2.394
 20
-5.88
 30
4.937
 11
2.394
 21
-5.88
 31
4.812
 12
2.394
 22
-6.63
 32
4.812
 13
2.394
 23
-6.63
 33
4.937
 70
    14
  0
LINE
  5
9D91A
100
AcDbEntity
  8
0
100
AcDbLine
 10
2.394
 20
-6.63
 30
4.937
 11
2.394
 21
-5.88
 31
4.937
  0
LINE
  5
9D91B
100
AcDbEntity
  8
0
100
AcDbLine
 10
2.454
 20
-6.005
 30
4.347
 11
2.454
 21
-6.505
 31
4.347
  0
LINE
  5
9D91C
100
AcDbEntity
  8
0
100
AcDbLine
 10
2.579
 20
-6.38
 30
4.347
 11
2.579
 21
-6.13
 31
4.347
  0
3DFACE
  5
9D91D
100
AcDbEntity
  8
0
100
AcDbFace
 10
2.394
 20
-5.88
 30
4.812
 11
2.454
 21
-6.005
 31
4.347
 12
2.454
 22
-6.505
 32
4.347
 13
2.394
 23
-6.63
 33
4.812
 70
    14
  0
LINE
  5
9D91E
100
AcDbEntity
  8
0
100
AcDbLine
 10
2.454
 20
-6.505
 30
4.347
 11
2.394
 21
-6.63
 31
4.812
  0
LINE
  5
9D91F
100
AcDbEntity
  8
0
100
AcDbLine
 10
2.394
 20
-6.63
 30
4.812
 11
2.394
 21
-6.63
 31
4.937
  0
LINE
  5
9D920
100
AcDbEntity
  8
0
100
AcDbLine
 10
2.394
 20
-5.88
 30
4.812
 11
2.454
 21
-6.005
 31
4.347
  0
LINE
  5
9D921
100
AcDbEntity
  8
0
100
AcDbLine
 10
2.394
 20
-5.88
 30
4.937
 11
2.394
 21
-5.88
 31
4.812
  0
3DFACE
  5
9D922
100
AcDbEntity
  8
0
100
AcDbFace
 10
3.014
 20
-5.88
 30
4.937
 11
3.014
 21
-6.63
 31
4.937
 12
3.014
 22
-6.63
 32
4.812
 13
3.014
 23
-5.88
 33
4.812
 70
    14
  0
LINE
  5
9D923
100
AcDbEntity
  8
0
100
AcDbLine
 10
3.014
 20
-5.88
 30
4.937
 11
3.014
 21
-6.63
 31
4.937
  0
LINE
  5
9D924
100
AcDbEntity
  8
0
100
AcDbLine
 10
3.014
 20
-5.88
 30
4.812
 11
3.014
 21
-6.63
 31
4.812
  0
LINE
  5
9D925
100
AcDbEntity
  8
0
100
AcDbLine
 10
2.829
 20
-6.13
 30
4.347
 11
2.829
 21
-6.38
 31
4.347
  0
LINE
  5
9D926
100
AcDbEntity
  8
0
100
AcDbLine
 10
2.954
 20
-6.005
 30
4.347
 11
2.954
 21
-6.505
 31
4.347
  0
3DFACE
  5
9D927
100
AcDbEntity
  8
0
100
AcDbFace
 10
3.014
 20
-6.63
 30
4.812
 11
2.954
 21
-6.505
 31
4.347
 12
2.954
 22
-6.005
 32
4.347
 13
3.014
 23
-5.88
 33
4.812
 70
    14
  0
LINE
  5
9D928
100
AcDbEntity
  8
0
100
AcDbLine
 10
3.014
 20
-6.63
 30
4.812
 11
2.954
 21
-6.505
 31
4.347
  0
LINE
  5
9D929
100
AcDbEntity
  8
0
100
AcDbLine
 10
3.014
 20
-6.63
 30
4.937
 11
3.014
 21
-6.63
 31
4.812
  0
LINE
  5
9D92A
100
AcDbEntity
  8
0
100
AcDbLine
 10
3.014
 20
-5.88
 30
4.812
 11
2.954
 21
-6.005
 31
4.347
  0
LINE
  5
9D92B
100
AcDbEntity
  8
0
100
AcDbLine
 10
3.014
 20
-5.88
 30
4.937
 11
3.014
 21
-5.88
 31
4.812
  0
CIRCLE
  5
9D92C
100
AcDbEntity
  8
0
100
AcDbCircle
 10
4.292
 20
-6.153487
 30
5.387245
 40
0.155
210
0.0
220
-0.3163624652213708
230
0.9486383876899864
  0
LINE
  5
9D92D
100
AcDbEntity
  8
0
100
AcDbLine
 10
4.291042
 20
-7.688819
 30
3.114771
 11
4.311531
 21
-7.39598
 31
3.21243
210
0.0
220
-0.3163624652213708
230
0.9486383876899864
  0
LINE
  5
9D92E
100
AcDbEntity
  8
0
100
AcDbLine
 10
4.271925
 20
-7.687557
 30
3.115192
 11
4.292414
 21
-7.394718
 31
3.212851
210
0.0
220
-0.3163624652213708
230
0.9486383876899864
  0
CIRCLE
  5
9D92F
100
AcDbEntity
  8
0
100
AcDbCircle
 10
3.682
 20
-1.06
 30
0.577
 40
0.1
  0
CIRCLE
  5
9D930
100
AcDbEntity
  8
0
100
AcDbCircle
 10
3.682
 20
-1.06
 30
0.577
 40
0.1
  0
LINE
  5
9D931
100
AcDbEntity
  8
0
100
AcDbLine
 10
3.017
 20
-0.78
 30
0.387
 11
4.457
 21
-0.78
 31
0.387
  0
LINE
  5
9D932
100
AcDbEntity
  8
0
100
AcDbLine
 10
3.017
 20
-0.78
 30
0.577
 11
4.457
 21
-0.78
 31
0.577
  0
3DFACE
  5
9D933
100
AcDbEntity
  8
0
100
AcDbFace
 10
2.327
 20
-0.78
 30
0.577
 11
2.137
 21
-0.78
 31
0.577
 12
2.137
 22
-0.78
 32
0.387
 13
2.327
 23
-0.78
 33
0.387
 70
    14
  0
LINE
  5
9D934
100
AcDbEntity
  8
0
100
AcDbLine
 10
2.137
 20
-0.78
 30
0.387
 11
2.327
 21
-0.78
 31
0.387
  0
LINE
  5
9D935
100
AcDbEntity
  8
0
100
AcDbLine
 10
2.137
 20
-0.78
 30
0.577
 11
2.327
 21
-0.78
 31
0.577
  0
ARC
  5
9D936
100
AcDbEntity
  8
0
100
AcDbCircle
 10
3.302
 20
-1.06
 30
0.577
 40
0.1015
100
AcDbArc
 50
0.0
 51
179.999985
  0
ARC
  5
9D937
100
AcDbEntity
  8
0
100
AcDbCircle
 10
3.302
 20
-1.06
 30
0.577
 40
0.1015
100
AcDbArc
 50
0.0
 51
179.999985
  0
LINE
  5
9D938
100
AcDbEntity
  8
0
100
AcDbLine
 10
3.4035
 20
-1.192159
 30
0.387
 11
3.4035
 21
-1.192159
 31
0.577
  0
LINE
  5
9D939
100
AcDbEntity
  8
0
100
AcDbLine
 10
3.4035
 20
-1.06
 30
0.387
 11
3.4035
 21
-1.06
 31
0.577
  0
LINE
  5
9D93A
100
AcDbEntity
  8
0
100
AcDbLine
 10
3.2005
 20
-1.06
 30
0.387
 11
3.2005
 21
-1.06
 31
0.577
  0
ARC
  5
9D93B
100
AcDbEntity
  8
0
100
AcDbCircle
 10
3.302
 20
-1.403
 30
0.577
 40
0.234
100
AcDbArc
 50
115.70649
 51
64.293579
  0
ARC
  5
9D93C
100
AcDbEntity
  8
0
100
AcDbCircle
 10
3.302
 20
-1.403
 30
0.577
 40
0.234
100
AcDbArc
 50
115.70649
 51
64.293579
  0
LINE
  5
9D93D
100
AcDbEntity
  8
0
100
AcDbLine
 10
3.2005
 20
-1.06
 30
0.577
 11
3.2005
 21
-1.192159
 31
0.577
  0
LINE
  5
9D93E
100
AcDbEntity
  8
0
100
AcDbLine
 10
3.2005
 20
-1.06
 30
0.577
 11
3.2005
 21
-1.192159
 31
0.577
  0
LINE
  5
9D93F
100
AcDbEntity
  8
0
100
AcDbLine
 10
3.4035
 20
-1.06
 30
0.577
 11
3.4035
 21
-1.192159
 31
0.577
  0
LINE
  5
9D940
100
AcDbEntity
  8
0
100
AcDbLine
 10
3.4035
 20
-1.06
 30
0.577
 11
3.4035
 21
-1.192159
 31
0.577
  0
LINE
  5
9D941
100
AcDbEntity
  8
0
100
AcDbLine
 10
4.457
 20
-0.78
 30
0.387
 11
5.077
 21
-1.4
 31
0.387
  0
LINE
  5
9D942
100
AcDbEntity
  8
0
100
AcDbLine
 10
4.457
 20
-0.78
 30
0.577
 11
5.077
 21
-1.4
 31
0.577
  0
LINE
  5
9D943
100
AcDbEntity
  8
0
100
AcDbLine
 10
3.782
 20
-1.06
 30
0.387
 11
3.782
 21
-1.06
 31
0.577
  0
CIRCLE
  5
9D944
100
AcDbEntity
  8
0
100
AcDbCircle
 10
3.682
 20
-1.06
 30
0.387
 40
0.1
  0
ARC
  5
9D945
100
AcDbEntity
  8
0
100
AcDbCircle
 10
3.302
 20
-1.403
 30
0.387
 40
0.234
100
AcDbArc
 50
115.70649
 51
64.293579
  0
LINE
  5
9D946
100
AcDbEntity
  8
0
100
AcDbLine
 10
3.4035
 20
-1.06
 30
0.387
 11
3.4035
 21
-1.192159
 31
0.387
  0
ARC
  5
9D947
100
AcDbEntity
  8
0
100
AcDbCircle
 10
3.302
 20
-1.06
 30
0.387
 40
0.1015
100
AcDbArc
 50
0.0
 51
179.999985
  0
LINE
  5
9D948
100
AcDbEntity
  8
0
100
AcDbLine
 10
3.2005
 20
-1.06
 30
0.387
 11
3.2005
 21
-1.192159
 31
0.387
  0
LINE
  5
9D949
100
AcDbEntity
  8
0
100
AcDbLine
 10
3.2005
 20
-1.192159
 30
0.387
 11
3.2005
 21
-1.192159
 31
0.577
  0
LINE
  5
9D94E
100
AcDbEntity
  8
0
100
AcDbLine
 10
1.622
 20
-7.29
 30
3.237
 11
1.622
 21
-7.29
 31
0.577
  0
LINE
  5
9D94F
100
AcDbEntity
  8
0
100
AcDbLine
 10
4.982
 20
-5.88
 30
2.007
 11
4.982
 21
-7.682911
 31
2.007
  0
LINE
  5
9D950
100
AcDbEntity
  8
0
100
AcDbLine
 10
1.622
 20
-7.7
 30
2.157
 11
1.622
 21
-7.7
 31
2.007
  0
LINE
  5
9D951
100
AcDbEntity
  8
0
100
AcDbLine
 10
1.622
 20
-7.7
 30
2.007
 11
1.622
 21
-7.7
 31
0.577
  0
POLYLINE
  5
9D952
100
AcDbEntity
  8
0
100
AcDbPolygonMesh
 66
     1
 10
0.0
 20
0.0
 30
0.0
 70
    16
 71
     6
 72
     3
  0
VERTEX
  5
9D953
100
AcDbEntity
  8
0
100
AcDbVertex
100
AcDbPolygonMeshVertex
 10
4.982
 20
-7.7
 30
3.087
 70
    64
  0
VERTEX
  5
9D954
100
AcDbEntity
  8
0
100
AcDbVertex
100
AcDbPolygonMeshVertex
 10
4.982
 20
-7.7
 30
0.577
 70
    64
  0
VERTEX
  5
9D955
100
AcDbEntity
  8
0
100
AcDbVertex
100
AcDbPolygonMeshVertex
 10
4.982
 20
-7.7
 30
0.577
 70
    64
  0
VERTEX
  5
9D956
100
AcDbEntity
  8
0
100
AcDbVertex
100
AcDbPolygonMeshVertex
 10
1.622
 20
-7.7
 30
3.087
 70
    64
  0
VERTEX
  5
9D957
100
AcDbEntity
  8
0
100
AcDbVertex
100
AcDbPolygonMeshVertex
 10
1.622
 20
-7.7
 30
0.577
 70
    64
  0
VERTEX
  5
9D958
100
AcDbEntity
  8
0
100
AcDbVertex
100
AcDbPolygonMeshVertex
 10
1.622
 20
-7.7
 30
0.577
 70
    64
  0
VERTEX
  5
9D959
100
AcDbEntity
  8
0
100
AcDbVertex
100
AcDbPolygonMeshVertex
 10
1.622
 20
-7.29
 30
3.087
 70
    64
  0
VERTEX
  5
9D95A
100
AcDbEntity
  8
0
100
AcDbVertex
100
AcDbPolygonMeshVertex
 10
1.622
 20
-7.29
 30
0.577
 70
    64
  0
VERTEX
  5
9D95B
100
AcDbEntity
  8
0
100
AcDbVertex
100
AcDbPolygonMeshVertex
 10
1.622
 20
-7.7
 30
0.577
 70
    64
  0
VERTEX
  5
9D95C
100
AcDbEntity
  8
0
100
AcDbVertex
100
AcDbPolygonMeshVertex
 10
4.982
 20
-7.29
 30
3.087
 70
    64
  0
VERTEX
  5
9D95D
100
AcDbEntity
  8
0
100
AcDbVertex
100
AcDbPolygonMeshVertex
 10
4.982
 20
-7.29
 30
0.577
 70
    64
  0
VERTEX
  5
9D95E
100
AcDbEntity
  8
0
100
AcDbVertex
100
AcDbPolygonMeshVertex
 10
4.982
 20
-7.7
 30
0.577
 70
    64
  0
VERTEX
  5
9D95F
100
AcDbEntity
  8
0
100
AcDbVertex
100
AcDbPolygonMeshVertex
 10
4.982
 20
-7.29
 30
3.087
 70
    64
  0
VERTEX
  5
9D960
100
AcDbEntity
  8
0
100
AcDbVertex
100
AcDbPolygonMeshVertex
 10
4.982
 20
-7.29
 30
3.087
 70
    64
  0
VERTEX
  5
9D961
100
AcDbEntity
  8
0
100
AcDbVertex
100
AcDbPolygonMeshVertex
 10
4.982
 20
-7.7
 30
3.087
 70
    64
  0
VERTEX
  5
9D962
100
AcDbEntity
  8
0
100
AcDbVertex
100
AcDbPolygonMeshVertex
 10
1.622
 20
-7.29
 30
3.087
 70
    64
  0
VERTEX
  5
9D963
100
AcDbEntity
  8
0
100
AcDbVertex
100
AcDbPolygonMeshVertex
 10
1.622
 20
-7.29
 30
3.087
 70
    64
  0
VERTEX
  5
9D964
100
AcDbEntity
  8
0
100
AcDbVertex
100
AcDbPolygonMeshVertex
 10
1.622
 20
-7.7
 30
3.087
 70
    64
  0
SEQEND
  5
9D965
100
AcDbEntity
  8
0
  0
POLYLINE
  5
9D966
100
AcDbEntity
  8
0
100
AcDbPolygonMesh
 66
     1
 10
0.0
 20
0.0
 30
0.0
 70
    16
 71
     6
 72
     3
  0
VERTEX
  5
9D967
100
AcDbEntity
  8
0
100
AcDbVertex
100
AcDbPolygonMeshVertex
 10
2.792
 20
-8.13
 30
0.887
 70
    64
  0
VERTEX
  5
9D968
100
AcDbEntity
  8
0
100
AcDbVertex
100
AcDbPolygonMeshVertex
 10
2.792
 20
-8.13
 30
0.577
 70
    64
  0
VERTEX
  5
9D969
100
AcDbEntity
  8
0
100
AcDbVertex
100
AcDbPolygonMeshVertex
 10
2.792
 20
-8.13
 30
0.577
 70
    64
  0
VERTEX
  5
9D96A
100
AcDbEntity
  8
0
100
AcDbVertex
100
AcDbPolygonMeshVertex
 10
2.292
 20
-8.13
 30
0.887
 70
    64
  0
VERTEX
  5
9D96B
100
AcDbEntity
  8
0
100
AcDbVertex
100
AcDbPolygonMeshVertex
 10
2.292
 20
-8.13
 30
0.577
 70
    64
  0
VERTEX
  5
9D96C
100
AcDbEntity
  8
0
100
AcDbVertex
100
AcDbPolygonMeshVertex
 10
2.292
 20
-8.13
 30
0.577
 70
    64
  0
VERTEX
  5
9D96D
100
AcDbEntity
  8
0
100
AcDbVertex
100
AcDbPolygonMeshVertex
 10
2.292
 20
-7.7
 30
0.887
 70
    64
  0
VERTEX
  5
9D96E
100
AcDbEntity
  8
0
100
AcDbVertex
100
AcDbPolygonMeshVertex
 10
2.292
 20
-7.7
 30
0.577
 70
    64
  0
VERTEX
  5
9D96F
100
AcDbEntity
  8
0
100
AcDbVertex
100
AcDbPolygonMeshVertex
 10
2.292
 20
-8.13
 30
0.577
 70
    64
  0
VERTEX
  5
9D970
100
AcDbEntity
  8
0
100
AcDbVertex
100
AcDbPolygonMeshVertex
 10
2.792
 20
-7.7
 30
0.887
 70
    64
  0
VERTEX
  5
9D971
100
AcDbEntity
  8
0
100
AcDbVertex
100
AcDbPolygonMeshVertex
 10
2.792
 20
-7.7
 30
0.577
 70
    64
  0
VERTEX
  5
9D972
100
AcDbEntity
  8
0
100
AcDbVertex
100
AcDbPolygonMeshVertex
 10
2.792
 20
-8.13
 30
0.577
 70
    64
  0
VERTEX
  5
9D973
100
AcDbEntity
  8
0
100
AcDbVertex
100
AcDbPolygonMeshVertex
 10
2.792
 20
-7.7
 30
0.887
 70
    64
  0
VERTEX
  5
9D974
100
AcDbEntity
  8
0
100
AcDbVertex
100
AcDbPolygonMeshVertex
 10
2.792
 20
-7.7
 30
0.887
 70
    64
  0
VERTEX
  5
9D975
100
AcDbEntity
  8
0
100
AcDbVertex
100
AcDbPolygonMeshVertex
 10
2.792
 20
-8.13
 30
0.887
 70
    64
  0
VERTEX
  5
9D976
100
AcDbEntity
  8
0
100
AcDbVertex
100
AcDbPolygonMeshVertex
 10
2.292
 20
-7.7
 30
0.887
 70
    64
  0
VERTEX
  5
9D977
100
AcDbEntity
  8
0
100
AcDbVertex
100
AcDbPolygonMeshVertex
 10
2.292
 20
-7.7
 30
0.887
 70
    64
  0
VERTEX
  5
9D978
100
AcDbEntity
  8
0
100
AcDbVertex
100
AcDbPolygonMeshVertex
 10
2.292
 20
-8.13
 30
0.887
 70
    64
  0
SEQEND
  5
9D979
100
AcDbEntity
  8
0
  0
POLYLINE
  5
9D97A
100
AcDbEntity
  8
0
100
AcDbPolygonMesh
 66
     1
 10
0.0
 20
0.0
 30
0.0
 70
    16
 71
     6
 72
     3
  0
VERTEX
  5
9D97B
100
AcDbEntity
  8
0
100
AcDbVertex
100
AcDbPolygonMeshVertex
 10
4.169
 20
-8.13
 30
0.887
 70
    64
  0
VERTEX
  5
9D97C
100
AcDbEntity
  8
0
100
AcDbVertex
100
AcDbPolygonMeshVertex
 10
4.169
 20
-8.13
 30
0.577
 70
    64
  0
VERTEX
  5
9D97D
100
AcDbEntity
  8
0
100
AcDbVertex
100
AcDbPolygonMeshVertex
 10
4.169
 20
-8.13
 30
0.577
 70
    64
  0
VERTEX
  5
9D97E
100
AcDbEntity
  8
0
100
AcDbVertex
100
AcDbPolygonMeshVertex
 10
3.669
 20
-8.13
 30
0.887
 70
    64
  0
VERTEX
  5
9D97F
100
AcDbEntity
  8
0
100
AcDbVertex
100
AcDbPolygonMeshVertex
 10
3.669
 20
-8.13
 30
0.577
 70
    64
  0
VERTEX
  5
9D980
100
AcDbEntity
  8
0
100
AcDbVertex
100
AcDbPolygonMeshVertex
 10
3.669
 20
-8.13
 30
0.577
 70
    64
  0
VERTEX
  5
9D981
100
AcDbEntity
  8
0
100
AcDbVertex
100
AcDbPolygonMeshVertex
 10
3.669
 20
-7.7
 30
0.887
 70
    64
  0
VERTEX
  5
9D982
100
AcDbEntity
  8
0
100
AcDbVertex
100
AcDbPolygonMeshVertex
 10
3.669
 20
-7.7
 30
0.577
 70
    64
  0
VERTEX
  5
9D983
100
AcDbEntity
  8
0
100
AcDbVertex
100
AcDbPolygonMeshVertex
 10
3.669
 20
-8.13
 30
0.577
 70
    64
  0
VERTEX
  5
9D984
100
AcDbEntity
  8
0
100
AcDbVertex
100
AcDbPolygonMeshVertex
 10
4.169
 20
-7.7
 30
0.887
 70
    64
  0
VERTEX
  5
9D985
100
AcDbEntity
  8
0
100
AcDbVertex
100
AcDbPolygonMeshVertex
 10
4.169
 20
-7.7
 30
0.577
 70
    64
  0
VERTEX
  5
9D986
100
AcDbEntity
  8
0
100
AcDbVertex
100
AcDbPolygonMeshVertex
 10
4.169
 20
-8.13
 30
0.577
 70
    64
  0
VERTEX
  5
9D987
100
AcDbEntity
  8
0
100
AcDbVertex
100
AcDbPolygonMeshVertex
 10
4.169
 20
-7.7
 30
0.887
 70
    64
  0
VERTEX
  5
9D988
100
AcDbEntity
  8
0
100
AcDbVertex
100
AcDbPolygonMeshVertex
 10
4.169
 20
-7.7
 30
0.887
 70
    64
  0
VERTEX
  5
9D989
100
AcDbEntity
  8
0
100
AcDbVertex
100
AcDbPolygonMeshVertex
 10
4.169
 20
-8.13
 30
0.887
 70
    64
  0
VERTEX
  5
9D98A
100
AcDbEntity
  8
0
100
AcDbVertex
100
AcDbPolygonMeshVertex
 10
3.669
 20
-7.7
 30
0.887
 70
    64
  0
VERTEX
  5
9D98B
100
AcDbEntity
  8
0
100
AcDbVertex
100
AcDbPolygonMeshVertex
 10
3.669
 20
-7.7
 30
0.887
 70
    64
  0
VERTEX
  5
9D98C
100
AcDbEntity
  8
0
100
AcDbVertex
100
AcDbPolygonMeshVertex
 10
3.669
 20
-8.13
 30
0.887
 70
    64
  0
SEQEND
  5
9D98D
100
AcDbEntity
  8
0
  0
POLYLINE
  5
9D98E
100
AcDbEntity
  8
0
100
AcDbPolygonMesh
 66
     1
 10
0.0
 20
0.0
 30
0.0
 70
    16
 71
     6
 72
     3
  0
VERTEX
  5
9D98F
100
AcDbEntity
  8
0
100
AcDbVertex
100
AcDbPolygonMeshVertex
 10
1.622
 20
-7.7
 30
3.087
 70
    64
  0
VERTEX
  5
9D990
100
AcDbEntity
  8
0
100
AcDbVertex
100
AcDbPolygonMeshVertex
 10
1.622
 20
-7.7
 30
3.087
 70
    64
  0
VERTEX
  5
9D991
100
AcDbEntity
  8
0
100
AcDbVertex
100
AcDbPolygonMeshVertex
 10
1.622
 20
-7.7
 30
3.087
 70
    64
  0
VERTEX
  5
9D992
100
AcDbEntity
  8
0
100
AcDbVertex
100
AcDbPolygonMeshVertex
 10
1.622
 20
-7.29
 30
3.237
 70
    64
  0
VERTEX
  5
9D993
100
AcDbEntity
  8
0
100
AcDbVertex
100
AcDbPolygonMeshVertex
 10
1.622
 20
-7.29
 30
3.087
 70
    64
  0
VERTEX
  5
9D994
100
AcDbEntity
  8
0
100
AcDbVertex
100
AcDbPolygonMeshVertex
 10
1.622
 20
-7.29
 30
3.087
 70
    64
  0
VERTEX
  5
9D995
100
AcDbEntity
  8
0
100
AcDbVertex
100
AcDbPolygonMeshVertex
 10
4.982
 20
-7.29
 30
3.237
 70
    64
  0
VERTEX
  5
9D996
100
AcDbEntity
  8
0
100
AcDbVertex
100
AcDbPolygonMeshVertex
 10
4.982
 20
-7.29
 30
3.087
 70
    64
  0
VERTEX
  5
9D997
100
AcDbEntity
  8
0
100
AcDbVertex
100
AcDbPolygonMeshVertex
 10
1.622
 20
-7.29
 30
3.087
 70
    64
  0
VERTEX
  5
9D998
100
AcDbEntity
  8
0
100
AcDbVertex
100
AcDbPolygonMeshVertex
 10
4.982
 20
-7.7
 30
3.087
 70
    64
  0
VERTEX
  5
9D999
100
AcDbEntity
  8
0
100
AcDbVertex
100
AcDbPolygonMeshVertex
 10
4.982
 20
-7.7
 30
3.087
 70
    64
  0
VERTEX
  5
9D99A
100
AcDbEntity
  8
0
100
AcDbVertex
100
AcDbPolygonMeshVertex
 10
1.622
 20
-7.7
 30
3.087
 70
    64
  0
VERTEX
  5
9D99B
100
AcDbEntity
  8
0
100
AcDbVertex
100
AcDbPolygonMeshVertex
 10
4.982
 20
-7.7
 30
3.087
 70
    64
  0
VERTEX
  5
9D99C
100
AcDbEntity
  8
0
100
AcDbVertex
100
AcDbPolygonMeshVertex
 10
4.982
 20
-7.7
 30
3.087
 70
    64
  0
VERTEX
  5
9D99D
100
AcDbEntity
  8
0
100
AcDbVertex
100
AcDbPolygonMeshVertex
 10
1.622
 20
-7.7
 30
3.087
 70
    64
  0
VERTEX
  5
9D99E
100
AcDbEntity
  8
0
100
AcDbVertex
100
AcDbPolygonMeshVertex
 10
4.982
 20
-7.29
 30
3.237
 70
    64
  0
VERTEX
  5
9D99F
100
AcDbEntity
  8
0
100
AcDbVertex
100
AcDbPolygonMeshVertex
 10
4.982
 20
-7.29
 30
3.237
 70
    64
  0
VERTEX
  5
9D9A0
100
AcDbEntity
  8
0
100
AcDbVertex
100
AcDbPolygonMeshVertex
 10
1.622
 20
-7.29
 30
3.237
 70
    64
  0
SEQEND
  5
9D9A1
100
AcDbEntity
  8
0
  0
POLYLINE
  5
9D9A2
100
AcDbEntity
  8
0
100
AcDbPolygonMesh
 66
     1
 10
0.0
 20
0.0
 30
0.0
 70
    16
 71
     6
 72
     3
  0
VERTEX
  5
9D9A3
100
AcDbEntity
  8
0
100
AcDbVertex
100
AcDbPolygonMeshVertex
 10
4.982
 20
-7.29
 30
4.027
 70
    64
  0
VERTEX
  5
9D9A4
100
AcDbEntity
  8
0
100
AcDbVertex
100
AcDbPolygonMeshVertex
 10
4.982
 20
-7.29
 30
0.577
 70
    64
  0
VERTEX
  5
9D9A5
100
AcDbEntity
  8
0
100
AcDbVertex
100
AcDbPolygonMeshVertex
 10
4.982
 20
-7.29
 30
0.577
 70
    64
  0
VERTEX
  5
9D9A6
100
AcDbEntity
  8
0
100
AcDbVertex
100
AcDbPolygonMeshVertex
 10
1.622
 20
-7.29
 30
4.027
 70
    64
  0
VERTEX
  5
9D9A7
100
AcDbEntity
  8
0
100
AcDbVertex
100
AcDbPolygonMeshVertex
 10
1.622
 20
-7.29
 30
0.577
 70
    64
  0
VERTEX
  5
9D9A8
100
AcDbEntity
  8
0
100
AcDbVertex
100
AcDbPolygonMeshVertex
 10
1.622
 20
-7.29
 30
0.577
 70
    64
  0
VERTEX
  5
9D9A9
100
AcDbEntity
  8
0
100
AcDbVertex
100
AcDbPolygonMeshVertex
 10
1.622
 20
-5.88
 30
4.027
 70
    64
  0
VERTEX
  5
9D9AA
100
AcDbEntity
  8
0
100
AcDbVertex
100
AcDbPolygonMeshVertex
 10
1.622
 20
-5.88
 30
0.577
 70
    64
  0
VERTEX
  5
9D9AB
100
AcDbEntity
  8
0
100
AcDbVertex
100
AcDbPolygonMeshVertex
 10
1.622
 20
-7.29
 30
0.577
 70
    64
  0
VERTEX
  5
9D9AC
100
AcDbEntity
  8
0
100
AcDbVertex
100
AcDbPolygonMeshVertex
 10
4.982
 20
-5.88
 30
4.027
 70
    64
  0
VERTEX
  5
9D9AD
100
AcDbEntity
  8
0
100
AcDbVertex
100
AcDbPolygonMeshVertex
 10
4.982
 20
-5.88
 30
0.577
 70
    64
  0
VERTEX
  5
9D9AE
100
AcDbEntity
  8
0
100
AcDbVertex
100
AcDbPolygonMeshVertex
 10
4.982
 20
-7.29
 30
0.577
 70
    64
  0
VERTEX
  5
9D9AF
100
AcDbEntity
  8
0
100
AcDbVertex
100
AcDbPolygonMeshVertex
 10
4.982
 20
-5.88
 30
4.027
 70
    64
  0
VERTEX
  5
9D9B0
100
AcDbEntity
  8
0
100
AcDbVertex
100
AcDbPolygonMeshVertex
 10
4.982
 20
-5.88
 30
4.027
 70
    64
  0
VERTEX
  5
9D9B1
100
AcDbEntity
  8
0
100
AcDbVertex
100
AcDbPolygonMeshVertex
 10
4.982
 20
-7.29
 30
4.027
 70
    64
  0
VERTEX
  5
9D9B2
100
AcDbEntity
  8
0
100
AcDbVertex
100
AcDbPolygonMeshVertex
 10
1.622
 20
-5.88
 30
4.027
 70
    64
  0
VERTEX
  5
9D9B3
100
AcDbEntity
  8
0
100
AcDbVertex
100
AcDbPolygonMeshVertex
 10
1.622
 20
-5.88
 30
4.027
 70
    64
  0
VERTEX
  5
9D9B4
100
AcDbEntity
  8
0
100
AcDbVertex
100
AcDbPolygonMeshVertex
 10
1.622
 20
-7.29
 30
4.027
 70
    64
  0
SEQEND
  5
9D9B5
100
AcDbEntity
  8
0
  0
LINE
  5
9D9B6
100
AcDbEntity
  8
0
100
AcDbLine
 10
2.722674
 20
-3.915015
 30
4.857
 11
2.83729
 21
-4.065138
 31
4.857
  0
LINE
  5
9D9B7
100
AcDbEntity
  8
0
100
AcDbLine
 10
2.706485
 20
-3.931205
 30
4.857
 11
2.821101
 21
-4.081327
 31
4.857
  0
CIRCLE
  5
9D9B8
100
AcDbEntity
  8
0
100
AcDbCircle
 10
2.772
 20
-4.0
 30
4.857
 40
0.095
  0
CIRCLE
  5
9D9B9
100
AcDbEntity
  8
0
100
AcDbCircle
 10
2.242
 20
-1.325
 30
1.867
 40
0.19
  0
LINE
  5
9D9BA
100
AcDbEntity
  8
0
100
AcDbLine
 10
3.782674
 20
-3.915015
 30
4.857
 11
3.89729
 21
-4.065138
 31
4.857
  0
LINE
  5
9D9BB
100
AcDbEntity
  8
0
100
AcDbLine
 10
3.766485
 20
-3.931205
 30
4.857
 11
3.8811
 21
-4.081327
 31
4.857
  0
CIRCLE
  5
9D9BC
100
AcDbEntity
  8
0
100
AcDbCircle
 10
3.832
 20
-4.0
 30
4.857
 40
0.095
  0
LINE
  5
9D9BD
100
AcDbEntity
  8
0
100
AcDbLine
 10
4.266965
 20
-2.018318
 30
4.667
 11
4.498216
 21
-1.721115
 31
4.667
  0
LINE
  5
9D9BE
100
AcDbEntity
  8
0
100
AcDbLine
 10
4.226278
 20
-1.987964
 30
4.667
 11
4.457529
 21
-1.690762
 31
4.667
  0
CIRCLE
  5
9D9BF
100
AcDbEntity
  8
0
100
AcDbCircle
 10
4.362
 20
-1.855
 30
4.667
 40
0.19
  0
POLYLINE
  5
9D9C0
100
AcDbEntity
  8
0
100
AcDbPolygonMesh
 66
     1
 10
0.0
 20
0.0
 30
0.0
 70
    16
 71
     6
 72
     3
  0
VERTEX
  5
9D9C1
100
AcDbEntity
  8
0
100
AcDbVertex
100
AcDbPolygonMeshVertex
 10
4.242
 20
-4.53
 30
4.387
 70
    64
  0
VERTEX
  5
9D9C2
100
AcDbEntity
  8
0
100
AcDbVertex
100
AcDbPolygonMeshVertex
 10
4.242
 20
-4.53
 30
4.017
 70
    64
  0
VERTEX
  5
9D9C3
100
AcDbEntity
  8
0
100
AcDbVertex
100
AcDbPolygonMeshVertex
 10
4.242
 20
-4.53
 30
4.017
 70
    64
  0
VERTEX
  5
9D9C4
100
AcDbEntity
  8
0
100
AcDbVertex
100
AcDbPolygonMeshVertex
 10
2.362
 20
-4.53
 30
4.387
 70
    64
  0
VERTEX
  5
9D9C5
100
AcDbEntity
  8
0
100
AcDbVertex
100
AcDbPolygonMeshVertex
 10
2.362
 20
-4.53
 30
4.017
 70
    64
  0
VERTEX
  5
9D9C6
100
AcDbEntity
  8
0
100
AcDbVertex
100
AcDbPolygonMeshVertex
 10
2.362
 20
-4.53
 30
4.017
 70
    64
  0
VERTEX
  5
9D9C7
100
AcDbEntity
  8
0
100
AcDbVertex
100
AcDbPolygonMeshVertex
 10
2.362
 20
-3.69
 30
4.387
 70
    64
  0
VERTEX
  5
9D9C8
100
AcDbEntity
  8
0
100
AcDbVertex
100
AcDbPolygonMeshVertex
 10
2.362
 20
-3.69
 30
4.017
 70
    64
  0
VERTEX
  5
9D9C9
100
AcDbEntity
  8
0
100
AcDbVertex
100
AcDbPolygonMeshVertex
 10
2.362
 20
-4.53
 30
4.017
 70
    64
  0
VERTEX
  5
9D9CA
100
AcDbEntity
  8
0
100
AcDbVertex
100
AcDbPolygonMeshVertex
 10
4.242
 20
-3.69
 30
4.387
 70
    64
  0
VERTEX
  5
9D9CB
100
AcDbEntity
  8
0
100
AcDbVertex
100
AcDbPolygonMeshVertex
 10
4.242
 20
-3.69
 30
4.017
 70
    64
  0
VERTEX
  5
9D9CC
100
AcDbEntity
  8
0
100
AcDbVertex
100
AcDbPolygonMeshVertex
 10
4.242
 20
-4.53
 30
4.017
 70
    64
  0
VERTEX
  5
9D9CD
100
AcDbEntity
  8
0
100
AcDbVertex
100
AcDbPolygonMeshVertex
 10
4.242
 20
-3.69
 30
4.387
 70
    64
  0
VERTEX
  5
9D9CE
100
AcDbEntity
  8
0
100
AcDbVertex
100
AcDbPolygonMeshVertex
 10
4.242
 20
-3.69
 30
4.387
 70
    64
  0
VERTEX
  5
9D9CF
100
AcDbEntity
  8
0
100
AcDbVertex
100
AcDbPolygonMeshVertex
 10
4.242
 20
-4.53
 30
4.387
 70
    64
  0
VERTEX
  5
9D9D0
100
AcDbEntity
  8
0
100
AcDbVertex
100
AcDbPolygonMeshVertex
 10
2.362
 20
-3.69
 30
4.387
 70
    64
  0
VERTEX
  5
9D9D1
100
AcDbEntity
  8
0
100
AcDbVertex
100
AcDbPolygonMeshVertex
 10
2.362
 20
-3.69
 30
4.387
 70
    64
  0
VERTEX
  5
9D9D2
100
AcDbEntity
  8
0
100
AcDbVertex
100
AcDbPolygonMeshVertex
 10
2.362
 20
-4.53
 30
4.387
 70
    64
  0
SEQEND
  5
9D9D3
100
AcDbEntity
  8
0
  0
POLYLINE
  5
9D9D4
100
AcDbEntity
  8
0
100
AcDbPolygonMesh
 66
     1
 10
0.0
 20
0.0
 30
0.0
 70
    16
 71
     6
 72
     3
  0
VERTEX
  5
9D9D5
100
AcDbEntity
  8
0
100
AcDbVertex
100
AcDbPolygonMeshVertex
 10
4.052
 20
-4.13
 30
4.857
 70
    64
  0
VERTEX
  5
9D9D6
100
AcDbEntity
  8
0
100
AcDbVertex
100
AcDbPolygonMeshVertex
 10
4.052
 20
-4.13
 30
4.387
 70
    64
  0
VERTEX
  5
9D9D7
100
AcDbEntity
  8
0
100
AcDbVertex
100
AcDbPolygonMeshVertex
 10
4.052
 20
-4.13
 30
4.387
 70
    64
  0
VERTEX
  5
9D9D8
100
AcDbEntity
  8
0
100
AcDbVertex
100
AcDbPolygonMeshVertex
 10
3.612
 20
-4.13
 30
4.857
 70
    64
  0
VERTEX
  5
9D9D9
100
AcDbEntity
  8
0
100
AcDbVertex
100
AcDbPolygonMeshVertex
 10
3.612
 20
-4.13
 30
4.387
 70
    64
  0
VERTEX
  5
9D9DA
100
AcDbEntity
  8
0
100
AcDbVertex
100
AcDbPolygonMeshVertex
 10
3.612
 20
-4.13
 30
4.387
 70
    64
  0
VERTEX
  5
9D9DB
100
AcDbEntity
  8
0
100
AcDbVertex
100
AcDbPolygonMeshVertex
 10
3.612
 20
-3.75
 30
4.857
 70
    64
  0
VERTEX
  5
9D9DC
100
AcDbEntity
  8
0
100
AcDbVertex
100
AcDbPolygonMeshVertex
 10
3.612
 20
-3.75
 30
4.387
 70
    64
  0
VERTEX
  5
9D9DD
100
AcDbEntity
  8
0
100
AcDbVertex
100
AcDbPolygonMeshVertex
 10
3.612
 20
-4.13
 30
4.387
 70
    64
  0
VERTEX
  5
9D9DE
100
AcDbEntity
  8
0
100
AcDbVertex
100
AcDbPolygonMeshVertex
 10
4.052
 20
-3.75
 30
4.857
 70
    64
  0
VERTEX
  5
9D9DF
100
AcDbEntity
  8
0
100
AcDbVertex
100
AcDbPolygonMeshVertex
 10
4.052
 20
-3.75
 30
4.387
 70
    64
  0
VERTEX
  5
9D9E0
100
AcDbEntity
  8
0
100
AcDbVertex
100
AcDbPolygonMeshVertex
 10
4.052
 20
-4.13
 30
4.387
 70
    64
  0
VERTEX
  5
9D9E1
100
AcDbEntity
  8
0
100
AcDbVertex
100
AcDbPolygonMeshVertex
 10
4.052
 20
-3.75
 30
4.857
 70
    64
  0
VERTEX
  5
9D9E2
100
AcDbEntity
  8
0
100
AcDbVertex
100
AcDbPolygonMeshVertex
 10
4.052
 20
-3.75
 30
4.857
 70
    64
  0
VERTEX
  5
9D9E3
100
AcDbEntity
  8
0
100
AcDbVertex
100
AcDbPolygonMeshVertex
 10
4.052
 20
-4.13
 30
4.857
 70
    64
  0
VERTEX
  5
9D9E4
100
AcDbEntity
  8
0
100
AcDbVertex
100
AcDbPolygonMeshVertex
 10
3.612
 20
-3.75
 30
4.857
 70
    64
  0
VERTEX
  5
9D9E5
100
AcDbEntity
  8
0
100
AcDbVertex
100
AcDbPolygonMeshVertex
 10
3.612
 20
-3.75
 30
4.857
 70
    64
  0
VERTEX
  5
9D9E6
100
AcDbEntity
  8
0
100
AcDbVertex
100
AcDbPolygonMeshVertex
 10
3.612
 20
-4.13
 30
4.857
 70
    64
  0
SEQEND
  5
9D9E7
100
AcDbEntity
  8
0
  0
POLYLINE
  5
9D9E8
100
AcDbEntity
  8
0
100
AcDbPolygonMesh
 66
     1
 10
0.0
 20
0.0
 30
0.0
 70
    16
 71
     6
 72
     3
  0
VERTEX
  5
9D9E9
100
AcDbEntity
  8
0
100
AcDbVertex
100
AcDbPolygonMeshVertex
 10
2.992
 20
-4.13
 30
4.857
 70
    64
  0
VERTEX
  5
9D9EA
100
AcDbEntity
  8
0
100
AcDbVertex
100
AcDbPolygonMeshVertex
 10
2.992
 20
-4.13
 30
4.387
 70
    64
  0
VERTEX
  5
9D9EB
100
AcDbEntity
  8
0
100
AcDbVertex
100
AcDbPolygonMeshVertex
 10
2.992
 20
-4.13
 30
4.387
 70
    64
  0
VERTEX
  5
9D9EC
100
AcDbEntity
  8
0
100
AcDbVertex
100
AcDbPolygonMeshVertex
 10
2.552
 20
-4.13
 30
4.857
 70
    64
  0
VERTEX
  5
9D9ED
100
AcDbEntity
  8
0
100
AcDbVertex
100
AcDbPolygonMeshVertex
 10
2.552
 20
-4.13
 30
4.387
 70
    64
  0
VERTEX
  5
9D9EE
100
AcDbEntity
  8
0
100
AcDbVertex
100
AcDbPolygonMeshVertex
 10
2.552
 20
-4.13
 30
4.387
 70
    64
  0
VERTEX
  5
9D9EF
100
AcDbEntity
  8
0
100
AcDbVertex
100
AcDbPolygonMeshVertex
 10
2.552
 20
-3.75
 30
4.857
 70
    64
  0
VERTEX
  5
9D9F0
100
AcDbEntity
  8
0
100
AcDbVertex
100
AcDbPolygonMeshVertex
 10
2.552
 20
-3.75
 30
4.387
 70
    64
  0
VERTEX
  5
9D9F1
100
AcDbEntity
  8
0
100
AcDbVertex
100
AcDbPolygonMeshVertex
 10
2.552
 20
-4.13
 30
4.387
 70
    64
  0
VERTEX
  5
9D9F2
100
AcDbEntity
  8
0
100
AcDbVertex
100
AcDbPolygonMeshVertex
 10
2.992
 20
-3.75
 30
4.857
 70
    64
  0
VERTEX
  5
9D9F3
100
AcDbEntity
  8
0
100
AcDbVertex
100
AcDbPolygonMeshVertex
 10
2.992
 20
-3.75
 30
4.387
 70
    64
  0
VERTEX
  5
9D9F4
100
AcDbEntity
  8
0
100
AcDbVertex
100
AcDbPolygonMeshVertex
 10
2.992
 20
-4.13
 30
4.387
 70
    64
  0
VERTEX
  5
9D9F5
100
AcDbEntity
  8
0
100
AcDbVertex
100
AcDbPolygonMeshVertex
 10
2.992
 20
-3.75
 30
4.857
 70
    64
  0
VERTEX
  5
9D9F6
100
AcDbEntity
  8
0
100
AcDbVertex
100
AcDbPolygonMeshVertex
 10
2.992
 20
-3.75
 30
4.857
 70
    64
  0
VERTEX
  5
9D9F7
100
AcDbEntity
  8
0
100
AcDbVertex
100
AcDbPolygonMeshVertex
 10
2.992
 20
-4.13
 30
4.857
 70
    64
  0
VERTEX
  5
9D9F8
100
AcDbEntity
  8
0
100
AcDbVertex
100
AcDbPolygonMeshVertex
 10
2.552
 20
-3.75
 30
4.857
 70
    64
  0
VERTEX
  5
9D9F9
100
AcDbEntity
  8
0
100
AcDbVertex
100
AcDbPolygonMeshVertex
 10
2.552
 20
-3.75
 30
4.857
 70
    64
  0
VERTEX
  5
9D9FA
100
AcDbEntity
  8
0
100
AcDbVertex
100
AcDbPolygonMeshVertex
 10
2.552
 20
-4.13
 30
4.857
 70
    64
  0
SEQEND
  5
9D9FB
100
AcDbEntity
  8
0
  0
LINE
  5
9D9FC
100
AcDbEntity
  8
0
100
AcDbLine
 10
1.622
 20
-2.24
 30
4.017
 11
1.622
 21
-2.24
 31
0.577
  0
POLYLINE
  5
9D9FD
100
AcDbEntity
  8
0
100
AcDbPolygonMesh
 66
     1
 10
0.0
 20
0.0
 30
0.0
 70
    16
 71
     6
 72
     3
  0
VERTEX
  5
9D9FE
100
AcDbEntity
  8
0
100
AcDbVertex
100
AcDbPolygonMeshVertex
 10
4.982
 20
-5.63
 30
4.017
 70
    64
  0
VERTEX
  5
9D9FF
100
AcDbEntity
  8
0
100
AcDbVertex
100
AcDbPolygonMeshVertex
 10
4.982
 20
-5.63
 30
0.577
 70
    64
  0
VERTEX
  5
9DA00
100
AcDbEntity
  8
0
100
AcDbVertex
100
AcDbPolygonMeshVertex
 10
4.982
 20
-5.63
 30
0.577
 70
    64
  0
VERTEX
  5
9DA01
100
AcDbEntity
  8
0
100
AcDbVertex
100
AcDbPolygonMeshVertex
 10
1.622
 20
-5.63
 30
4.017
 70
    64
  0
VERTEX
  5
9DA02
100
AcDbEntity
  8
0
100
AcDbVertex
100
AcDbPolygonMeshVertex
 10
1.622
 20
-5.63
 30
0.577
 70
    64
  0
VERTEX
  5
9DA03
100
AcDbEntity
  8
0
100
AcDbVertex
100
AcDbPolygonMeshVertex
 10
1.622
 20
-5.63
 30
0.577
 70
    64
  0
VERTEX
  5
9DA04
100
AcDbEntity
  8
0
100
AcDbVertex
100
AcDbPolygonMeshVertex
 10
1.622
 20
-2.24
 30
4.017
 70
    64
  0
VERTEX
  5
9DA05
100
AcDbEntity
  8
0
100
AcDbVertex
100
AcDbPolygonMeshVertex
 10
1.622
 20
-2.24
 30
0.577
 70
    64
  0
VERTEX
  5
9DA06
100
AcDbEntity
  8
0
100
AcDbVertex
100
AcDbPolygonMeshVertex
 10
1.622
 20
-5.63
 30
0.577
 70
    64
  0
VERTEX
  5
9DA07
100
AcDbEntity
  8
0
100
AcDbVertex
100
AcDbPolygonMeshVertex
 10
4.982
 20
-2.24
 30
4.017
 70
    64
  0
VERTEX
  5
9DA08
100
AcDbEntity
  8
0
100
AcDbVertex
100
AcDbPolygonMeshVertex
 10
4.982
 20
-2.24
 30
0.577
 70
    64
  0
VERTEX
  5
9DA09
100
AcDbEntity
  8
0
100
AcDbVertex
100
AcDbPolygonMeshVertex
 10
4.982
 20
-5.63
 30
0.577
 70
    64
  0
VERTEX
  5
9DA0A
100
AcDbEntity
  8
0
100
AcDbVertex
100
AcDbPolygonMeshVertex
 10
4.982
 20
-2.24
 30
4.017
 70
    64
  0
VERTEX
  5
9DA0B
100
AcDbEntity
  8
0
100
AcDbVertex
100
AcDbPolygonMeshVertex
 10
4.982
 20
-2.24
 30
4.017
 70
    64
  0
VERTEX
  5
9DA0C
100
AcDbEntity
  8
0
100
AcDbVertex
100
AcDbPolygonMeshVertex
 10
4.982
 20
-5.63
 30
4.017
 70
    64
  0
VERTEX
  5
9DA0D
100
AcDbEntity
  8
0
100
AcDbVertex
100
AcDbPolygonMeshVertex
 10
1.622
 20
-2.24
 30
4.017
 70
    64
  0
VERTEX
  5
9DA0E
100
AcDbEntity
  8
0
100
AcDbVertex
100
AcDbPolygonMeshVertex
 10
1.622
 20
-2.24
 30
4.017
 70
    64
  0
VERTEX
  5
9DA0F
100
AcDbEntity
  8
0
100
AcDbVertex
100
AcDbPolygonMeshVertex
 10
1.622
 20
-5.63
 30
4.017
 70
    64
  0
SEQEND
  5
9DA10
100
AcDbEntity
  8
0
  0
POLYLINE
  5
9DA11
100
AcDbEntity
  8
0
100
AcDbPolygonMesh
 66
     1
 10
0.0
 20
0.0
 30
0.0
 70
    16
 71
     6
 72
     3
  0
VERTEX
  5
9DA12
100
AcDbEntity
  8
0
100
AcDbVertex
100
AcDbPolygonMeshVertex
 10
4.982
 20
-5.88
 30
3.237
 70
    64
  0
VERTEX
  5
9DA13
100
AcDbEntity
  8
0
100
AcDbVertex
100
AcDbPolygonMeshVertex
 10
4.982
 20
-5.88
 30
2.007
 70
    64
  0
VERTEX
  5
9DA14
100
AcDbEntity
  8
0
100
AcDbVertex
100
AcDbPolygonMeshVertex
 10
4.982
 20
-5.88
 30
2.007
 70
    64
  0
VERTEX
  5
9DA15
100
AcDbEntity
  8
0
100
AcDbVertex
100
AcDbPolygonMeshVertex
 10
1.622
 20
-5.88
 30
3.237
 70
    64
  0
VERTEX
  5
9DA16
100
AcDbEntity
  8
0
100
AcDbVertex
100
AcDbPolygonMeshVertex
 10
1.622
 20
-5.88
 30
2.007
 70
    64
  0
VERTEX
  5
9DA17
100
AcDbEntity
  8
0
100
AcDbVertex
100
AcDbPolygonMeshVertex
 10
1.622
 20
-5.88
 30
2.007
 70
    64
  0
VERTEX
  5
9DA18
100
AcDbEntity
  8
0
100
AcDbVertex
100
AcDbPolygonMeshVertex
 10
1.622
 20
-5.63
 30
3.237
 70
    64
  0
VERTEX
  5
9DA19
100
AcDbEntity
  8
0
100
AcDbVertex
100
AcDbPolygonMeshVertex
 10
1.622
 20
-5.63
 30
2.007
 70
    64
  0
VERTEX
  5
9DA1A
100
AcDbEntity
  8
0
100
AcDbVertex
100
AcDbPolygonMeshVertex
 10
1.622
 20
-5.88
 30
2.007
 70
    64
  0
VERTEX
  5
9DA1B
100
AcDbEntity
  8
0
100
AcDbVertex
100
AcDbPolygonMeshVertex
 10
4.982
 20
-5.63
 30
3.237
 70
    64
  0
VERTEX
  5
9DA1C
100
AcDbEntity
  8
0
100
AcDbVertex
100
AcDbPolygonMeshVertex
 10
4.982
 20
-5.63
 30
2.007
 70
    64
  0
VERTEX
  5
9DA1D
100
AcDbEntity
  8
0
100
AcDbVertex
100
AcDbPolygonMeshVertex
 10
4.982
 20
-5.88
 30
2.007
 70
    64
  0
VERTEX
  5
9DA1E
100
AcDbEntity
  8
0
100
AcDbVertex
100
AcDbPolygonMeshVertex
 10
4.982
 20
-5.63
 30
3.237
 70
    64
  0
VERTEX
  5
9DA1F
100
AcDbEntity
  8
0
100
AcDbVertex
100
AcDbPolygonMeshVertex
 10
4.982
 20
-5.63
 30
3.237
 70
    64
  0
VERTEX
  5
9DA20
100
AcDbEntity
  8
0
100
AcDbVertex
100
AcDbPolygonMeshVertex
 10
4.982
 20
-5.88
 30
3.237
 70
    64
  0
VERTEX
  5
9DA21
100
AcDbEntity
  8
0
100
AcDbVertex
100
AcDbPolygonMeshVertex
 10
1.622
 20
-5.63
 30
3.237
 70
    64
  0
VERTEX
  5
9DA22
100
AcDbEntity
  8
0
100
AcDbVertex
100
AcDbPolygonMeshVertex
 10
1.622
 20
-5.63
 30
3.237
 70
    64
  0
VERTEX
  5
9DA23
100
AcDbEntity
  8
0
100
AcDbVertex
100
AcDbPolygonMeshVertex
 10
1.622
 20
-5.88
 30
3.237
 70
    64
  0
SEQEND
  5
9DA24
100
AcDbEntity
  8
0
  0
POLYLINE
  5
9DA25
100
AcDbEntity
  8
0
100
AcDbPolygonMesh
 66
     1
 10
0.0
 20
0.0
 30
0.0
 70
    16
 71
     6
 72
     3
  0
VERTEX
  5
9DA26
100
AcDbEntity
  8
0
100
AcDbVertex
100
AcDbPolygonMeshVertex
 10
1.622
 20
-5.63
 30
0.577
 70
    64
  0
VERTEX
  5
9DA27
100
AcDbEntity
  8
0
100
AcDbVertex
100
AcDbPolygonMeshVertex
 10
1.622
 20
-5.63
 30
0.577
 70
    64
  0
VERTEX
  5
9DA28
100
AcDbEntity
  8
0
100
AcDbVertex
100
AcDbPolygonMeshVertex
 10
1.622
 20
-5.63
 30
0.577
 70
    64
  0
VERTEX
  5
9DA29
100
AcDbEntity
  8
0
100
AcDbVertex
100
AcDbPolygonMeshVertex
 10
1.622
 20
-5.88
 30
2.007
 70
    64
  0
VERTEX
  5
9DA2A
100
AcDbEntity
  8
0
100
AcDbVertex
100
AcDbPolygonMeshVertex
 10
1.622
 20
-5.63
 30
2.007
 70
    64
  0
VERTEX
  5
9DA2B
100
AcDbEntity
  8
0
100
AcDbVertex
100
AcDbPolygonMeshVertex
 10
1.622
 20
-5.63
 30
2.007
 70
    64
  0
VERTEX
  5
9DA2C
100
AcDbEntity
  8
0
100
AcDbVertex
100
AcDbPolygonMeshVertex
 10
4.982
 20
-5.88
 30
2.007
 70
    64
  0
VERTEX
  5
9DA2D
100
AcDbEntity
  8
0
100
AcDbVertex
100
AcDbPolygonMeshVertex
 10
4.982
 20
-5.63
 30
2.007
 70
    64
  0
VERTEX
  5
9DA2E
100
AcDbEntity
  8
0
100
AcDbVertex
100
AcDbPolygonMeshVertex
 10
1.622
 20
-5.63
 30
2.007
 70
    64
  0
VERTEX
  5
9DA2F
100
AcDbEntity
  8
0
100
AcDbVertex
100
AcDbPolygonMeshVertex
 10
4.982
 20
-5.63
 30
0.577
 70
    64
  0
VERTEX
  5
9DA30
100
AcDbEntity
  8
0
100
AcDbVertex
100
AcDbPolygonMeshVertex
 10
4.982
 20
-5.63
 30
0.577
 70
    64
  0
VERTEX
  5
9DA31
100
AcDbEntity
  8
0
100
AcDbVertex
100
AcDbPolygonMeshVertex
 10
1.622
 20
-5.63
 30
0.577
 70
    64
  0
VERTEX
  5
9DA32
100
AcDbEntity
  8
0
100
AcDbVertex
100
AcDbPolygonMeshVertex
 10
4.982
 20
-5.63
 30
0.577
 70
    64
  0
VERTEX
  5
9DA33
100
AcDbEntity
  8
0
100
AcDbVertex
100
AcDbPolygonMeshVertex
 10
4.982
 20
-5.63
 30
0.577
 70
    64
  0
VERTEX
  5
9DA34
100
AcDbEntity
  8
0
100
AcDbVertex
100
AcDbPolygonMeshVertex
 10
1.622
 20
-5.63
 30
0.577
 70
    64
  0
VERTEX
  5
9DA35
100
AcDbEntity
  8
0
100
AcDbVertex
100
AcDbPolygonMeshVertex
 10
4.982
 20
-5.88
 30
2.007
 70
    64
  0
VERTEX
  5
9DA36
100
AcDbEntity
  8
0
100
AcDbVertex
100
AcDbPolygonMeshVertex
 10
4.982
 20
-5.88
 30
2.007
 70
    64
  0
VERTEX
  5
9DA37
100
AcDbEntity
  8
0
100
AcDbVertex
100
AcDbPolygonMeshVertex
 10
1.622
 20
-5.88
 30
2.007
 70
    64
  0
SEQEND
  5
9DA38
100
AcDbEntity
  8
0
  0
POLYLINE
  5
9DA39
100
AcDbEntity
  8
0
100
AcDbPolygonMesh
 66
     1
 10
0.0
 20
0.0
 30
0.0
 70
    16
 71
     6
 72
     3
  0
VERTEX
  5
9DA3A
100
AcDbEntity
  8
0
100
AcDbVertex
100
AcDbPolygonMeshVertex
 10
4.982
 20
-2.24
 30
4.477
 70
    64
  0
VERTEX
  5
9DA3B
100
AcDbEntity
  8
0
100
AcDbVertex
100
AcDbPolygonMeshVertex
 10
4.982
 20
-2.24
 30
0.577
 70
    64
  0
VERTEX
  5
9DA3C
100
AcDbEntity
  8
0
100
AcDbVertex
100
AcDbPolygonMeshVertex
 10
4.982
 20
-2.24
 30
0.577
 70
    64
  0
VERTEX
  5
9DA3D
100
AcDbEntity
  8
0
100
AcDbVertex
100
AcDbPolygonMeshVertex
 10
1.622
 20
-2.24
 30
4.477
 70
    64
  0
VERTEX
  5
9DA3E
100
AcDbEntity
  8
0
100
AcDbVertex
100
AcDbPolygonMeshVertex
 10
1.622
 20
-2.24
 30
0.577
 70
    64
  0
VERTEX
  5
9DA3F
100
AcDbEntity
  8
0
100
AcDbVertex
100
AcDbPolygonMeshVertex
 10
1.622
 20
-2.24
 30
0.577
 70
    64
  0
VERTEX
  5
9DA40
100
AcDbEntity
  8
0
100
AcDbVertex
100
AcDbPolygonMeshVertex
 10
1.622
 20
-1.56
 30
4.477
 70
    64
  0
VERTEX
  5
9DA41
100
AcDbEntity
  8
0
100
AcDbVertex
100
AcDbPolygonMeshVertex
 10
1.622
 20
-1.56
 30
0.577
 70
    64
  0
VERTEX
  5
9DA42
100
AcDbEntity
  8
0
100
AcDbVertex
100
AcDbPolygonMeshVertex
 10
1.622
 20
-2.24
 30
0.577
 70
    64
  0
VERTEX
  5
9DA43
100
AcDbEntity
  8
0
100
AcDbVertex
100
AcDbPolygonMeshVertex
 10
4.982
 20
-1.56
 30
4.477
 70
    64
  0
VERTEX
  5
9DA44
100
AcDbEntity
  8
0
100
AcDbVertex
100
AcDbPolygonMeshVertex
 10
4.982
 20
-1.56
 30
0.577
 70
    64
  0
VERTEX
  5
9DA45
100
AcDbEntity
  8
0
100
AcDbVertex
100
AcDbPolygonMeshVertex
 10
4.982
 20
-2.24
 30
0.577
 70
    64
  0
VERTEX
  5
9DA46
100
AcDbEntity
  8
0
100
AcDbVertex
100
AcDbPolygonMeshVertex
 10
4.982
 20
-1.56
 30
4.477
 70
    64
  0
VERTEX
  5
9DA47
100
AcDbEntity
  8
0
100
AcDbVertex
100
AcDbPolygonMeshVertex
 10
4.982
 20
-1.56
 30
4.477
 70
    64
  0
VERTEX
  5
9DA48
100
AcDbEntity
  8
0
100
AcDbVertex
100
AcDbPolygonMeshVertex
 10
4.982
 20
-2.24
 30
4.477
 70
    64
  0
VERTEX
  5
9DA49
100
AcDbEntity
  8
0
100
AcDbVertex
100
AcDbPolygonMeshVertex
 10
1.622
 20
-1.56
 30
4.477
 70
    64
  0
VERTEX
  5
9DA4A
100
AcDbEntity
  8
0
100
AcDbVertex
100
AcDbPolygonMeshVertex
 10
1.622
 20
-1.56
 30
4.477
 70
    64
  0
VERTEX
  5
9DA4B
100
AcDbEntity
  8
0
100
AcDbVertex
100
AcDbPolygonMeshVertex
 10
1.622
 20
-2.24
 30
4.477
 70
    64
  0
SEQEND
  5
9DA4C
100
AcDbEntity
  8
0
  0
LINE
  5
9DA4D
100
AcDbEntity
  8
0
100
AcDbLine
 10
3.922
 20
-1.56
 30
4.477
 11
3.922
 21
-1.43
 31
4.477
  0
LINE
  5
9DA4E
100
AcDbEntity
  8
0
100
AcDbLine
 10
3.922
 20
-1.43
 30
4.477
 11
3.742
 21
-1.43
 31
4.477
  0
POLYLINE
  5
9DA4F
100
AcDbEntity
  8
0
100
AcDbPolygonMesh
 66
     1
 10
0.0
 20
0.0
 30
0.0
 70
    16
 71
     6
 72
     3
  0
VERTEX
  5
9DA50
100
AcDbEntity
  8
0
100
AcDbVertex
100
AcDbPolygonMeshVertex
 10
3.742
 20
-1.43
 30
4.857
 70
    64
  0
VERTEX
  5
9DA51
100
AcDbEntity
  8
0
100
AcDbVertex
100
AcDbPolygonMeshVertex
 10
3.742
 20
-1.43
 30
4.477
 70
    64
  0
VERTEX
  5
9DA52
100
AcDbEntity
  8
0
100
AcDbVertex
100
AcDbPolygonMeshVertex
 10
3.742
 20
-1.43
 30
4.477
 70
    64
  0
VERTEX
  5
9DA53
100
AcDbEntity
  8
0
100
AcDbVertex
100
AcDbPolygonMeshVertex
 10
3.922
 20
-1.43
 30
4.857
 70
    64
  0
VERTEX
  5
9DA54
100
AcDbEntity
  8
0
100
AcDbVertex
100
AcDbPolygonMeshVertex
 10
3.922
 20
-1.43
 30
4.477
 70
    64
  0
VERTEX
  5
9DA55
100
AcDbEntity
  8
0
100
AcDbVertex
100
AcDbPolygonMeshVertex
 10
3.922
 20
-1.43
 30
4.477
 70
    64
  0
VERTEX
  5
9DA56
100
AcDbEntity
  8
0
100
AcDbVertex
100
AcDbPolygonMeshVertex
 10
3.922
 20
-2.24
 30
4.857
 70
    64
  0
VERTEX
  5
9DA57
100
AcDbEntity
  8
0
100
AcDbVertex
100
AcDbPolygonMeshVertex
 10
3.922
 20
-2.24
 30
4.477
 70
    64
  0
VERTEX
  5
9DA58
100
AcDbEntity
  8
0
100
AcDbVertex
100
AcDbPolygonMeshVertex
 10
3.922
 20
-1.43
 30
4.477
 70
    64
  0
VERTEX
  5
9DA59
100
AcDbEntity
  8
0
100
AcDbVertex
100
AcDbPolygonMeshVertex
 10
3.742
 20
-2.24
 30
4.857
 70
    64
  0
VERTEX
  5
9DA5A
100
AcDbEntity
  8
0
100
AcDbVertex
100
AcDbPolygonMeshVertex
 10
3.742
 20
-2.24
 30
4.477
 70
    64
  0
VERTEX
  5
9DA5B
100
AcDbEntity
  8
0
100
AcDbVertex
100
AcDbPolygonMeshVertex
 10
3.742
 20
-1.43
 30
4.477
 70
    64
  0
VERTEX
  5
9DA5C
100
AcDbEntity
  8
0
100
AcDbVertex
100
AcDbPolygonMeshVertex
 10
3.742
 20
-2.24
 30
4.857
 70
    64
  0
VERTEX
  5
9DA5D
100
AcDbEntity
  8
0
100
AcDbVertex
100
AcDbPolygonMeshVertex
 10
3.742
 20
-2.24
 30
4.857
 70
    64
  0
VERTEX
  5
9DA5E
100
AcDbEntity
  8
0
100
AcDbVertex
100
AcDbPolygonMeshVertex
 10
3.742
 20
-1.43
 30
4.857
 70
    64
  0
VERTEX
  5
9DA5F
100
AcDbEntity
  8
0
100
AcDbVertex
100
AcDbPolygonMeshVertex
 10
3.922
 20
-2.24
 30
4.857
 70
    64
  0
VERTEX
  5
9DA60
100
AcDbEntity
  8
0
100
AcDbVertex
100
AcDbPolygonMeshVertex
 10
3.922
 20
-2.24
 30
4.857
 70
    64
  0
VERTEX
  5
9DA61
100
AcDbEntity
  8
0
100
AcDbVertex
100
AcDbPolygonMeshVertex
 10
3.922
 20
-1.43
 30
4.857
 70
    64
  0
SEQEND
  5
9DA62
100
AcDbEntity
  8
0
  0
POLYLINE
  5
9DA63
100
AcDbEntity
  8
0
100
AcDbPolygonMesh
 66
     1
 10
0.0
 20
0.0
 30
0.0
 70
    16
 71
     6
 72
     3
  0
VERTEX
  5
9DA64
100
AcDbEntity
  8
0
100
AcDbVertex
100
AcDbPolygonMeshVertex
 10
3.742
 20
-1.43
 30
4.477
 70
    64
  0
VERTEX
  5
9DA65
100
AcDbEntity
  8
0
100
AcDbVertex
100
AcDbPolygonMeshVertex
 10
3.742
 20
-1.43
 30
3.357
 70
    64
  0
VERTEX
  5
9DA66
100
AcDbEntity
  8
0
100
AcDbVertex
100
AcDbPolygonMeshVertex
 10
3.742
 20
-1.43
 30
3.357
 70
    64
  0
VERTEX
  5
9DA67
100
AcDbEntity
  8
0
100
AcDbVertex
100
AcDbPolygonMeshVertex
 10
3.922
 20
-1.43
 30
4.477
 70
    64
  0
VERTEX
  5
9DA68
100
AcDbEntity
  8
0
100
AcDbVertex
100
AcDbPolygonMeshVertex
 10
3.922
 20
-1.43
 30
3.357
 70
    64
  0
VERTEX
  5
9DA69
100
AcDbEntity
  8
0
100
AcDbVertex
100
AcDbPolygonMeshVertex
 10
3.922
 20
-1.43
 30
3.357
 70
    64
  0
VERTEX
  5
9DA6A
100
AcDbEntity
  8
0
100
AcDbVertex
100
AcDbPolygonMeshVertex
 10
3.922
 20
-1.56
 30
4.477
 70
    64
  0
VERTEX
  5
9DA6B
100
AcDbEntity
  8
0
100
AcDbVertex
100
AcDbPolygonMeshVertex
 10
3.922
 20
-1.56
 30
3.357
 70
    64
  0
VERTEX
  5
9DA6C
100
AcDbEntity
  8
0
100
AcDbVertex
100
AcDbPolygonMeshVertex
 10
3.922
 20
-1.43
 30
3.357
 70
    64
  0
VERTEX
  5
9DA6D
100
AcDbEntity
  8
0
100
AcDbVertex
100
AcDbPolygonMeshVertex
 10
3.742
 20
-1.56
 30
4.477
 70
    64
  0
VERTEX
  5
9DA6E
100
AcDbEntity
  8
0
100
AcDbVertex
100
AcDbPolygonMeshVertex
 10
3.742
 20
-1.56
 30
3.357
 70
    64
  0
VERTEX
  5
9DA6F
100
AcDbEntity
  8
0
100
AcDbVertex
100
AcDbPolygonMeshVertex
 10
3.742
 20
-1.43
 30
3.357
 70
    64
  0
VERTEX
  5
9DA70
100
AcDbEntity
  8
0
100
AcDbVertex
100
AcDbPolygonMeshVertex
 10
3.742
 20
-1.56
 30
4.477
 70
    64
  0
VERTEX
  5
9DA71
100
AcDbEntity
  8
0
100
AcDbVertex
100
AcDbPolygonMeshVertex
 10
3.742
 20
-1.56
 30
4.477
 70
    64
  0
VERTEX
  5
9DA72
100
AcDbEntity
  8
0
100
AcDbVertex
100
AcDbPolygonMeshVertex
 10
3.742
 20
-1.43
 30
4.477
 70
    64
  0
VERTEX
  5
9DA73
100
AcDbEntity
  8
0
100
AcDbVertex
100
AcDbPolygonMeshVertex
 10
3.922
 20
-1.56
 30
4.477
 70
    64
  0
VERTEX
  5
9DA74
100
AcDbEntity
  8
0
100
AcDbVertex
100
AcDbPolygonMeshVertex
 10
3.922
 20
-1.56
 30
4.477
 70
    64
  0
VERTEX
  5
9DA75
100
AcDbEntity
  8
0
100
AcDbVertex
100
AcDbPolygonMeshVertex
 10
3.922
 20
-1.43
 30
4.477
 70
    64
  0
SEQEND
  5
9DA76
100
AcDbEntity
  8
0
  0
POLYLINE
  5
9DA77
100
AcDbEntity
  8
0
100
AcDbPolygonMesh
 66
     1
 10
0.0
 20
0.0
 30
0.0
 70
    16
 71
     6
 72
     3
  0
VERTEX
  5
9DA78
100
AcDbEntity
  8
0
100
AcDbVertex
100
AcDbPolygonMeshVertex
 10
2.682
 20
-1.43
 30
4.857
 70
    64
  0
VERTEX
  5
9DA79
100
AcDbEntity
  8
0
100
AcDbVertex
100
AcDbPolygonMeshVertex
 10
2.682
 20
-1.43
 30
4.477
 70
    64
  0
VERTEX
  5
9DA7A
100
AcDbEntity
  8
0
100
AcDbVertex
100
AcDbPolygonMeshVertex
 10
2.682
 20
-1.43
 30
4.477
 70
    64
  0
VERTEX
  5
9DA7B
100
AcDbEntity
  8
0
100
AcDbVertex
100
AcDbPolygonMeshVertex
 10
2.862
 20
-1.43
 30
4.857
 70
    64
  0
VERTEX
  5
9DA7C
100
AcDbEntity
  8
0
100
AcDbVertex
100
AcDbPolygonMeshVertex
 10
2.862
 20
-1.43
 30
4.477
 70
    64
  0
VERTEX
  5
9DA7D
100
AcDbEntity
  8
0
100
AcDbVertex
100
AcDbPolygonMeshVertex
 10
2.862
 20
-1.43
 30
4.477
 70
    64
  0
VERTEX
  5
9DA7E
100
AcDbEntity
  8
0
100
AcDbVertex
100
AcDbPolygonMeshVertex
 10
2.862
 20
-2.24
 30
4.857
 70
    64
  0
VERTEX
  5
9DA7F
100
AcDbEntity
  8
0
100
AcDbVertex
100
AcDbPolygonMeshVertex
 10
2.862
 20
-2.24
 30
4.477
 70
    64
  0
VERTEX
  5
9DA80
100
AcDbEntity
  8
0
100
AcDbVertex
100
AcDbPolygonMeshVertex
 10
2.862
 20
-1.43
 30
4.477
 70
    64
  0
VERTEX
  5
9DA81
100
AcDbEntity
  8
0
100
AcDbVertex
100
AcDbPolygonMeshVertex
 10
2.682
 20
-2.24
 30
4.857
 70
    64
  0
VERTEX
  5
9DA82
100
AcDbEntity
  8
0
100
AcDbVertex
100
AcDbPolygonMeshVertex
 10
2.682
 20
-2.24
 30
4.477
 70
    64
  0
VERTEX
  5
9DA83
100
AcDbEntity
  8
0
100
AcDbVertex
100
AcDbPolygonMeshVertex
 10
2.682
 20
-1.43
 30
4.477
 70
    64
  0
VERTEX
  5
9DA84
100
AcDbEntity
  8
0
100
AcDbVertex
100
AcDbPolygonMeshVertex
 10
2.682
 20
-2.24
 30
4.857
 70
    64
  0
VERTEX
  5
9DA85
100
AcDbEntity
  8
0
100
AcDbVertex
100
AcDbPolygonMeshVertex
 10
2.682
 20
-2.24
 30
4.857
 70
    64
  0
VERTEX
  5
9DA86
100
AcDbEntity
  8
0
100
AcDbVertex
100
AcDbPolygonMeshVertex
 10
2.682
 20
-1.43
 30
4.857
 70
    64
  0
VERTEX
  5
9DA87
100
AcDbEntity
  8
0
100
AcDbVertex
100
AcDbPolygonMeshVertex
 10
2.862
 20
-2.24
 30
4.857
 70
    64
  0
VERTEX
  5
9DA88
100
AcDbEntity
  8
0
100
AcDbVertex
100
AcDbPolygonMeshVertex
 10
2.862
 20
-2.24
 30
4.857
 70
    64
  0
VERTEX
  5
9DA89
100
AcDbEntity
  8
0
100
AcDbVertex
100
AcDbPolygonMeshVertex
 10
2.862
 20
-1.43
 30
4.857
 70
    64
  0
SEQEND
  5
9DA8A
100
AcDbEntity
  8
0
  0
POLYLINE
  5
9DA8B
100
AcDbEntity
  8
0
100
AcDbPolygonMesh
 66
     1
 10
0.0
 20
0.0
 30
0.0
 70
    16
 71
     6
 72
     3
  0
VERTEX
  5
9DA8C
100
AcDbEntity
  8
0
100
AcDbVertex
100
AcDbPolygonMeshVertex
 10
2.682
 20
-1.43
 30
4.477
 70
    64
  0
VERTEX
  5
9DA8D
100
AcDbEntity
  8
0
100
AcDbVertex
100
AcDbPolygonMeshVertex
 10
2.682
 20
-1.43
 30
3.357
 70
    64
  0
VERTEX
  5
9DA8E
100
AcDbEntity
  8
0
100
AcDbVertex
100
AcDbPolygonMeshVertex
 10
2.682
 20
-1.43
 30
3.357
 70
    64
  0
VERTEX
  5
9DA8F
100
AcDbEntity
  8
0
100
AcDbVertex
100
AcDbPolygonMeshVertex
 10
2.862
 20
-1.43
 30
4.477
 70
    64
  0
VERTEX
  5
9DA90
100
AcDbEntity
  8
0
100
AcDbVertex
100
AcDbPolygonMeshVertex
 10
2.862
 20
-1.43
 30
3.357
 70
    64
  0
VERTEX
  5
9DA91
100
AcDbEntity
  8
0
100
AcDbVertex
100
AcDbPolygonMeshVertex
 10
2.862
 20
-1.43
 30
3.357
 70
    64
  0
VERTEX
  5
9DA92
100
AcDbEntity
  8
0
100
AcDbVertex
100
AcDbPolygonMeshVertex
 10
2.862
 20
-1.56
 30
4.477
 70
    64
  0
VERTEX
  5
9DA93
100
AcDbEntity
  8
0
100
AcDbVertex
100
AcDbPolygonMeshVertex
 10
2.862
 20
-1.56
 30
3.357
 70
    64
  0
VERTEX
  5
9DA94
100
AcDbEntity
  8
0
100
AcDbVertex
100
AcDbPolygonMeshVertex
 10
2.862
 20
-1.43
 30
3.357
 70
    64
  0
VERTEX
  5
9DA95
100
AcDbEntity
  8
0
100
AcDbVertex
100
AcDbPolygonMeshVertex
 10
2.682
 20
-1.56
 30
4.477
 70
    64
  0
VERTEX
  5
9DA96
100
AcDbEntity
  8
0
100
AcDbVertex
100
AcDbPolygonMeshVertex
 10
2.682
 20
-1.56
 30
3.357
 70
    64
  0
VERTEX
  5
9DA97
100
AcDbEntity
  8
0
100
AcDbVertex
100
AcDbPolygonMeshVertex
 10
2.682
 20
-1.43
 30
3.357
 70
    64
  0
VERTEX
  5
9DA98
100
AcDbEntity
  8
0
100
AcDbVertex
100
AcDbPolygonMeshVertex
 10
2.682
 20
-1.56
 30
4.477
 70
    64
  0
VERTEX
  5
9DA99
100
AcDbEntity
  8
0
100
AcDbVertex
100
AcDbPolygonMeshVertex
 10
2.682
 20
-1.56
 30
4.477
 70
    64
  0
VERTEX
  5
9DA9A
100
AcDbEntity
  8
0
100
AcDbVertex
100
AcDbPolygonMeshVertex
 10
2.682
 20
-1.43
 30
4.477
 70
    64
  0
VERTEX
  5
9DA9B
100
AcDbEntity
  8
0
100
AcDbVertex
100
AcDbPolygonMeshVertex
 10
2.862
 20
-1.56
 30
4.477
 70
    64
  0
VERTEX
  5
9DA9C
100
AcDbEntity
  8
0
100
AcDbVertex
100
AcDbPolygonMeshVertex
 10
2.862
 20
-1.56
 30
4.477
 70
    64
  0
VERTEX
  5
9DA9D
100
AcDbEntity
  8
0
100
AcDbVertex
100
AcDbPolygonMeshVertex
 10
2.862
 20
-1.43
 30
4.477
 70
    64
  0
SEQEND
  5
9DA9E
100
AcDbEntity
  8
0
  0
POLYLINE
  5
9DA9F
100
AcDbEntity
  8
0
100
AcDbPolygonMesh
 66
     1
 10
0.0
 20
0.0
 30
0.0
 70
    16
 71
     6
 72
     3
  0
VERTEX
  5
9DAA0
100
AcDbEntity
  8
0
100
AcDbVertex
100
AcDbPolygonMeshVertex
 10
4.112
 20
-1.65
 30
4.667
 70
    64
  0
VERTEX
  5
9DAA1
100
AcDbEntity
  8
0
100
AcDbVertex
100
AcDbPolygonMeshVertex
 10
4.112
 20
-1.65
 30
4.477
 70
    64
  0
VERTEX
  5
9DAA2
100
AcDbEntity
  8
0
100
AcDbVertex
100
AcDbPolygonMeshVertex
 10
4.112
 20
-1.65
 30
4.477
 70
    64
  0
VERTEX
  5
9DAA3
100
AcDbEntity
  8
0
100
AcDbVertex
100
AcDbPolygonMeshVertex
 10
4.612
 20
-1.65
 30
4.667
 70
    64
  0
VERTEX
  5
9DAA4
100
AcDbEntity
  8
0
100
AcDbVertex
100
AcDbPolygonMeshVertex
 10
4.612
 20
-1.65
 30
4.477
 70
    64
  0
VERTEX
  5
9DAA5
100
AcDbEntity
  8
0
100
AcDbVertex
100
AcDbPolygonMeshVertex
 10
4.612
 20
-1.65
 30
4.477
 70
    64
  0
VERTEX
  5
9DAA6
100
AcDbEntity
  8
0
100
AcDbVertex
100
AcDbPolygonMeshVertex
 10
4.612
 20
-2.06
 30
4.667
 70
    64
  0
VERTEX
  5
9DAA7
100
AcDbEntity
  8
0
100
AcDbVertex
100
AcDbPolygonMeshVertex
 10
4.612
 20
-2.06
 30
4.477
 70
    64
  0
VERTEX
  5
9DAA8
100
AcDbEntity
  8
0
100
AcDbVertex
100
AcDbPolygonMeshVertex
 10
4.612
 20
-1.65
 30
4.477
 70
    64
  0
VERTEX
  5
9DAA9
100
AcDbEntity
  8
0
100
AcDbVertex
100
AcDbPolygonMeshVertex
 10
4.112
 20
-2.06
 30
4.667
 70
    64
  0
VERTEX
  5
9DAAA
100
AcDbEntity
  8
0
100
AcDbVertex
100
AcDbPolygonMeshVertex
 10
4.112
 20
-2.06
 30
4.477
 70
    64
  0
VERTEX
  5
9DAAB
100
AcDbEntity
  8
0
100
AcDbVertex
100
AcDbPolygonMeshVertex
 10
4.112
 20
-1.65
 30
4.477
 70
    64
  0
VERTEX
  5
9DAAC
100
AcDbEntity
  8
0
100
AcDbVertex
100
AcDbPolygonMeshVertex
 10
4.112
 20
-2.06
 30
4.667
 70
    64
  0
VERTEX
  5
9DAAD
100
AcDbEntity
  8
0
100
AcDbVertex
100
AcDbPolygonMeshVertex
 10
4.112
 20
-2.06
 30
4.667
 70
    64
  0
VERTEX
  5
9DAAE
100
AcDbEntity
  8
0
100
AcDbVertex
100
AcDbPolygonMeshVertex
 10
4.112
 20
-1.65
 30
4.667
 70
    64
  0
VERTEX
  5
9DAAF
100
AcDbEntity
  8
0
100
AcDbVertex
100
AcDbPolygonMeshVertex
 10
4.612
 20
-2.06
 30
4.667
 70
    64
  0
VERTEX
  5
9DAB0
100
AcDbEntity
  8
0
100
AcDbVertex
100
AcDbPolygonMeshVertex
 10
4.612
 20
-2.06
 30
4.667
 70
    64
  0
VERTEX
  5
9DAB1
100
AcDbEntity
  8
0
100
AcDbVertex
100
AcDbPolygonMeshVertex
 10
4.612
 20
-1.65
 30
4.667
 70
    64
  0
SEQEND
  5
9DAB2
100
AcDbEntity
  8
0
  0
LINE
  5
9DAB3
100
AcDbEntity
  8
0
100
AcDbLine
 10
3.166278
 20
-1.987964
 30
4.667
 11
3.397529
 21
-1.690762
 31
4.667
  0
LINE
  5
9DAB4
100
AcDbEntity
  8
0
100
AcDbLine
 10
3.206965
 20
-2.018318
 30
4.667
 11
3.438216
 21
-1.721115
 31
4.667
  0
CIRCLE
  5
9DAB5
100
AcDbEntity
  8
0
100
AcDbCircle
 10
3.302
 20
-1.855
 30
4.667
 40
0.19
  0
POLYLINE
  5
9DAB6
100
AcDbEntity
  8
0
100
AcDbPolygonMesh
 66
     1
 10
0.0
 20
0.0
 30
0.0
 70
    16
 71
     6
 72
     3
  0
VERTEX
  5
9DAB7
100
AcDbEntity
  8
0
100
AcDbVertex
100
AcDbPolygonMeshVertex
 10
3.052
 20
-1.65
 30
4.667
 70
    64
  0
VERTEX
  5
9DAB8
100
AcDbEntity
  8
0
100
AcDbVertex
100
AcDbPolygonMeshVertex
 10
3.052
 20
-1.65
 30
4.477
 70
    64
  0
VERTEX
  5
9DAB9
100
AcDbEntity
  8
0
100
AcDbVertex
100
AcDbPolygonMeshVertex
 10
3.052
 20
-1.65
 30
4.477
 70
    64
  0
VERTEX
  5
9DABA
100
AcDbEntity
  8
0
100
AcDbVertex
100
AcDbPolygonMeshVertex
 10
3.552
 20
-1.65
 30
4.667
 70
    64
  0
VERTEX
  5
9DABB
100
AcDbEntity
  8
0
100
AcDbVertex
100
AcDbPolygonMeshVertex
 10
3.552
 20
-1.65
 30
4.477
 70
    64
  0
VERTEX
  5
9DABC
100
AcDbEntity
  8
0
100
AcDbVertex
100
AcDbPolygonMeshVertex
 10
3.552
 20
-1.65
 30
4.477
 70
    64
  0
VERTEX
  5
9DABD
100
AcDbEntity
  8
0
100
AcDbVertex
100
AcDbPolygonMeshVertex
 10
3.552
 20
-2.06
 30
4.667
 70
    64
  0
VERTEX
  5
9DABE
100
AcDbEntity
  8
0
100
AcDbVertex
100
AcDbPolygonMeshVertex
 10
3.552
 20
-2.06
 30
4.477
 70
    64
  0
VERTEX
  5
9DABF
100
AcDbEntity
  8
0
100
AcDbVertex
100
AcDbPolygonMeshVertex
 10
3.552
 20
-1.65
 30
4.477
 70
    64
  0
VERTEX
  5
9DAC0
100
AcDbEntity
  8
0
100
AcDbVertex
100
AcDbPolygonMeshVertex
 10
3.052
 20
-2.06
 30
4.667
 70
    64
  0
VERTEX
  5
9DAC1
100
AcDbEntity
  8
0
100
AcDbVertex
100
AcDbPolygonMeshVertex
 10
3.052
 20
-2.06
 30
4.477
 70
    64
  0
VERTEX
  5
9DAC2
100
AcDbEntity
  8
0
100
AcDbVertex
100
AcDbPolygonMeshVertex
 10
3.052
 20
-1.65
 30
4.477
 70
    64
  0
VERTEX
  5
9DAC3
100
AcDbEntity
  8
0
100
AcDbVertex
100
AcDbPolygonMeshVertex
 10
3.052
 20
-2.06
 30
4.667
 70
    64
  0
VERTEX
  5
9DAC4
100
AcDbEntity
  8
0
100
AcDbVertex
100
AcDbPolygonMeshVertex
 10
3.052
 20
-2.06
 30
4.667
 70
    64
  0
VERTEX
  5
9DAC5
100
AcDbEntity
  8
0
100
AcDbVertex
100
AcDbPolygonMeshVertex
 10
3.052
 20
-1.65
 30
4.667
 70
    64
  0
VERTEX
  5
9DAC6
100
AcDbEntity
  8
0
100
AcDbVertex
100
AcDbPolygonMeshVertex
 10
3.552
 20
-2.06
 30
4.667
 70
    64
  0
VERTEX
  5
9DAC7
100
AcDbEntity
  8
0
100
AcDbVertex
100
AcDbPolygonMeshVertex
 10
3.552
 20
-2.06
 30
4.667
 70
    64
  0
VERTEX
  5
9DAC8
100
AcDbEntity
  8
0
100
AcDbVertex
100
AcDbPolygonMeshVertex
 10
3.552
 20
-1.65
 30
4.667
 70
    64
  0
SEQEND
  5
9DAC9
100
AcDbEntity
  8
0
  0
LINE
  5
9DACA
100
AcDbEntity
  8
0
100
AcDbLine
 10
2.106278
 20
-1.987964
 30
4.667
 11
2.337529
 21
-1.690762
 31
4.667
  0
LINE
  5
9DACB
100
AcDbEntity
  8
0
100
AcDbLine
 10
2.146965
 20
-2.018318
 30
4.667
 11
2.378216
 21
-1.721115
 31
4.667
  0
CIRCLE
  5
9DACC
100
AcDbEntity
  8
0
100
AcDbCircle
 10
2.242
 20
-1.855
 30
4.667
 40
0.19
  0
POLYLINE
  5
9DACD
100
AcDbEntity
  8
0
100
AcDbPolygonMesh
 66
     1
 10
0.0
 20
0.0
 30
0.0
 70
    16
 71
     6
 72
     3
  0
VERTEX
  5
9DACE
100
AcDbEntity
  8
0
100
AcDbVertex
100
AcDbPolygonMeshVertex
 10
1.992
 20
-1.65
 30
4.667
 70
    64
  0
VERTEX
  5
9DACF
100
AcDbEntity
  8
0
100
AcDbVertex
100
AcDbPolygonMeshVertex
 10
1.992
 20
-1.65
 30
4.477
 70
    64
  0
VERTEX
  5
9DAD0
100
AcDbEntity
  8
0
100
AcDbVertex
100
AcDbPolygonMeshVertex
 10
1.992
 20
-1.65
 30
4.477
 70
    64
  0
VERTEX
  5
9DAD1
100
AcDbEntity
  8
0
100
AcDbVertex
100
AcDbPolygonMeshVertex
 10
2.492
 20
-1.65
 30
4.667
 70
    64
  0
VERTEX
  5
9DAD2
100
AcDbEntity
  8
0
100
AcDbVertex
100
AcDbPolygonMeshVertex
 10
2.492
 20
-1.65
 30
4.477
 70
    64
  0
VERTEX
  5
9DAD3
100
AcDbEntity
  8
0
100
AcDbVertex
100
AcDbPolygonMeshVertex
 10
2.492
 20
-1.65
 30
4.477
 70
    64
  0
VERTEX
  5
9DAD4
100
AcDbEntity
  8
0
100
AcDbVertex
100
AcDbPolygonMeshVertex
 10
2.492
 20
-2.06
 30
4.667
 70
    64
  0
VERTEX
  5
9DAD5
100
AcDbEntity
  8
0
100
AcDbVertex
100
AcDbPolygonMeshVertex
 10
2.492
 20
-2.06
 30
4.477
 70
    64
  0
VERTEX
  5
9DAD6
100
AcDbEntity
  8
0
100
AcDbVertex
100
AcDbPolygonMeshVertex
 10
2.492
 20
-1.65
 30
4.477
 70
    64
  0
VERTEX
  5
9DAD7
100
AcDbEntity
  8
0
100
AcDbVertex
100
AcDbPolygonMeshVertex
 10
1.992
 20
-2.06
 30
4.667
 70
    64
  0
VERTEX
  5
9DAD8
100
AcDbEntity
  8
0
100
AcDbVertex
100
AcDbPolygonMeshVertex
 10
1.992
 20
-2.06
 30
4.477
 70
    64
  0
VERTEX
  5
9DAD9
100
AcDbEntity
  8
0
100
AcDbVertex
100
AcDbPolygonMeshVertex
 10
1.992
 20
-1.65
 30
4.477
 70
    64
  0
VERTEX
  5
9DADA
100
AcDbEntity
  8
0
100
AcDbVertex
100
AcDbPolygonMeshVertex
 10
1.992
 20
-2.06
 30
4.667
 70
    64
  0
VERTEX
  5
9DADB
100
AcDbEntity
  8
0
100
AcDbVertex
100
AcDbPolygonMeshVertex
 10
1.992
 20
-2.06
 30
4.667
 70
    64
  0
VERTEX
  5
9DADC
100
AcDbEntity
  8
0
100
AcDbVertex
100
AcDbPolygonMeshVertex
 10
1.992
 20
-1.65
 30
4.667
 70
    64
  0
VERTEX
  5
9DADD
100
AcDbEntity
  8
0
100
AcDbVertex
100
AcDbPolygonMeshVertex
 10
2.492
 20
-2.06
 30
4.667
 70
    64
  0
VERTEX
  5
9DADE
100
AcDbEntity
  8
0
100
AcDbVertex
100
AcDbPolygonMeshVertex
 10
2.492
 20
-2.06
 30
4.667
 70
    64
  0
VERTEX
  5
9DADF
100
AcDbEntity
  8
0
100
AcDbVertex
100
AcDbPolygonMeshVertex
 10
2.492
 20
-1.65
 30
4.667
 70
    64
  0
SEQEND
  5
9DAE0
100
AcDbEntity
  8
0
  0
POLYLINE
  5
9DAE1
100
AcDbEntity
  8
0
100
AcDbPolygonMesh
 66
     1
 10
0.0
 20
0.0
 30
0.0
 70
    16
 71
     6
 72
     3
  0
VERTEX
  5
9DAE2
100
AcDbEntity
  8
0
100
AcDbVertex
100
AcDbPolygonMeshVertex
 10
1.992
 20
-1.09
 30
1.857
 70
    64
  0
VERTEX
  5
9DAE3
100
AcDbEntity
  8
0
100
AcDbVertex
100
AcDbPolygonMeshVertex
 10
1.992
 20
-1.09
 30
1.547
 70
    64
  0
VERTEX
  5
9DAE4
100
AcDbEntity
  8
0
100
AcDbVertex
100
AcDbPolygonMeshVertex
 10
1.992
 20
-1.09
 30
1.547
 70
    64
  0
VERTEX
  5
9DAE5
100
AcDbEntity
  8
0
100
AcDbVertex
100
AcDbPolygonMeshVertex
 10
2.492
 20
-1.09
 30
1.857
 70
    64
  0
VERTEX
  5
9DAE6
100
AcDbEntity
  8
0
100
AcDbVertex
100
AcDbPolygonMeshVertex
 10
2.492
 20
-1.09
 30
1.547
 70
    64
  0
VERTEX
  5
9DAE7
100
AcDbEntity
  8
0
100
AcDbVertex
100
AcDbPolygonMeshVertex
 10
2.492
 20
-1.09
 30
1.547
 70
    64
  0
VERTEX
  5
9DAE8
100
AcDbEntity
  8
0
100
AcDbVertex
100
AcDbPolygonMeshVertex
 10
2.492
 20
-1.56
 30
1.857
 70
    64
  0
VERTEX
  5
9DAE9
100
AcDbEntity
  8
0
100
AcDbVertex
100
AcDbPolygonMeshVertex
 10
2.492
 20
-1.56
 30
1.547
 70
    64
  0
VERTEX
  5
9DAEA
100
AcDbEntity
  8
0
100
AcDbVertex
100
AcDbPolygonMeshVertex
 10
2.492
 20
-1.09
 30
1.547
 70
    64
  0
VERTEX
  5
9DAEB
100
AcDbEntity
  8
0
100
AcDbVertex
100
AcDbPolygonMeshVertex
 10
1.992
 20
-1.56
 30
1.857
 70
    64
  0
VERTEX
  5
9DAEC
100
AcDbEntity
  8
0
100
AcDbVertex
100
AcDbPolygonMeshVertex
 10
1.992
 20
-1.56
 30
1.547
 70
    64
  0
VERTEX
  5
9DAED
100
AcDbEntity
  8
0
100
AcDbVertex
100
AcDbPolygonMeshVertex
 10
1.992
 20
-1.09
 30
1.547
 70
    64
  0
VERTEX
  5
9DAEE
100
AcDbEntity
  8
0
100
AcDbVertex
100
AcDbPolygonMeshVertex
 10
1.992
 20
-1.56
 30
1.857
 70
    64
  0
VERTEX
  5
9DAEF
100
AcDbEntity
  8
0
100
AcDbVertex
100
AcDbPolygonMeshVertex
 10
1.992
 20
-1.56
 30
1.857
 70
    64
  0
VERTEX
  5
9DAF0
100
AcDbEntity
  8
0
100
AcDbVertex
100
AcDbPolygonMeshVertex
 10
1.992
 20
-1.09
 30
1.857
 70
    64
  0
VERTEX
  5
9DAF1
100
AcDbEntity
  8
0
100
AcDbVertex
100
AcDbPolygonMeshVertex
 10
2.492
 20
-1.56
 30
1.857
 70
    64
  0
VERTEX
  5
9DAF2
100
AcDbEntity
  8
0
100
AcDbVertex
100
AcDbPolygonMeshVertex
 10
2.492
 20
-1.56
 30
1.857
 70
    64
  0
VERTEX
  5
9DAF3
100
AcDbEntity
  8
0
100
AcDbVertex
100
AcDbPolygonMeshVertex
 10
2.492
 20
-1.09
 30
1.857
 70
    64
  0
SEQEND
  5
9DAF4
100
AcDbEntity
  8
0
  0
POLYLINE
  5
9DAF5
100
AcDbEntity
  8
0
100
AcDbPolygonMesh
 66
     1
 10
0.0
 20
0.0
 30
0.0
 70
    16
 71
     6
 72
     3
  0
VERTEX
  5
9DAF6
100
AcDbEntity
  8
0
100
AcDbVertex
100
AcDbPolygonMeshVertex
 10
3.052
 20
-1.09
 30
1.857
 70
    64
  0
VERTEX
  5
9DAF7
100
AcDbEntity
  8
0
100
AcDbVertex
100
AcDbPolygonMeshVertex
 10
3.052
 20
-1.09
 30
1.547
 70
    64
  0
VERTEX
  5
9DAF8
100
AcDbEntity
  8
0
100
AcDbVertex
100
AcDbPolygonMeshVertex
 10
3.052
 20
-1.09
 30
1.547
 70
    64
  0
VERTEX
  5
9DAF9
100
AcDbEntity
  8
0
100
AcDbVertex
100
AcDbPolygonMeshVertex
 10
3.552
 20
-1.09
 30
1.857
 70
    64
  0
VERTEX
  5
9DAFA
100
AcDbEntity
  8
0
100
AcDbVertex
100
AcDbPolygonMeshVertex
 10
3.552
 20
-1.09
 30
1.547
 70
    64
  0
VERTEX
  5
9DAFB
100
AcDbEntity
  8
0
100
AcDbVertex
100
AcDbPolygonMeshVertex
 10
3.552
 20
-1.09
 30
1.547
 70
    64
  0
VERTEX
  5
9DAFC
100
AcDbEntity
  8
0
100
AcDbVertex
100
AcDbPolygonMeshVertex
 10
3.552
 20
-1.56
 30
1.857
 70
    64
  0
VERTEX
  5
9DAFD
100
AcDbEntity
  8
0
100
AcDbVertex
100
AcDbPolygonMeshVertex
 10
3.552
 20
-1.56
 30
1.547
 70
    64
  0
VERTEX
  5
9DAFE
100
AcDbEntity
  8
0
100
AcDbVertex
100
AcDbPolygonMeshVertex
 10
3.552
 20
-1.09
 30
1.547
 70
    64
  0
VERTEX
  5
9DAFF
100
AcDbEntity
  8
0
100
AcDbVertex
100
AcDbPolygonMeshVertex
 10
3.052
 20
-1.56
 30
1.857
 70
    64
  0
VERTEX
  5
9DB00
100
AcDbEntity
  8
0
100
AcDbVertex
100
AcDbPolygonMeshVertex
 10
3.052
 20
-1.56
 30
1.547
 70
    64
  0
VERTEX
  5
9DB01
100
AcDbEntity
  8
0
100
AcDbVertex
100
AcDbPolygonMeshVertex
 10
3.052
 20
-1.09
 30
1.547
 70
    64
  0
VERTEX
  5
9DB02
100
AcDbEntity
  8
0
100
AcDbVertex
100
AcDbPolygonMeshVertex
 10
3.052
 20
-1.56
 30
1.857
 70
    64
  0
VERTEX
  5
9DB03
100
AcDbEntity
  8
0
100
AcDbVertex
100
AcDbPolygonMeshVertex
 10
3.052
 20
-1.56
 30
1.857
 70
    64
  0
VERTEX
  5
9DB04
100
AcDbEntity
  8
0
100
AcDbVertex
100
AcDbPolygonMeshVertex
 10
3.052
 20
-1.09
 30
1.857
 70
    64
  0
VERTEX
  5
9DB05
100
AcDbEntity
  8
0
100
AcDbVertex
100
AcDbPolygonMeshVertex
 10
3.552
 20
-1.56
 30
1.857
 70
    64
  0
VERTEX
  5
9DB06
100
AcDbEntity
  8
0
100
AcDbVertex
100
AcDbPolygonMeshVertex
 10
3.552
 20
-1.56
 30
1.857
 70
    64
  0
VERTEX
  5
9DB07
100
AcDbEntity
  8
0
100
AcDbVertex
100
AcDbPolygonMeshVertex
 10
3.552
 20
-1.09
 30
1.857
 70
    64
  0
SEQEND
  5
9DB08
100
AcDbEntity
  8
0
  0
CIRCLE
  5
9DB09
100
AcDbEntity
  8
0
100
AcDbCircle
 10
3.302
 20
-1.325
 30
1.867
 40
0.19
  0
POLYLINE
  5
9DB0A
100
AcDbEntity
  8
0
100
AcDbPolygonMesh
 66
     1
 10
0.0
 20
0.0
 30
0.0
 70
    16
 71
     6
 72
     3
  0
VERTEX
  5
9DB0B
100
AcDbEntity
  8
0
100
AcDbVertex
100
AcDbPolygonMeshVertex
 10
4.112
 20
-1.09
 30
1.857
 70
    64
  0
VERTEX
  5
9DB0C
100
AcDbEntity
  8
0
100
AcDbVertex
100
AcDbPolygonMeshVertex
 10
4.112
 20
-1.09
 30
1.547
 70
    64
  0
VERTEX
  5
9DB0D
100
AcDbEntity
  8
0
100
AcDbVertex
100
AcDbPolygonMeshVertex
 10
4.112
 20
-1.09
 30
1.547
 70
    64
  0
VERTEX
  5
9DB0E
100
AcDbEntity
  8
0
100
AcDbVertex
100
AcDbPolygonMeshVertex
 10
4.612
 20
-1.09
 30
1.857
 70
    64
  0
VERTEX
  5
9DB0F
100
AcDbEntity
  8
0
100
AcDbVertex
100
AcDbPolygonMeshVertex
 10
4.612
 20
-1.09
 30
1.547
 70
    64
  0
VERTEX
  5
9DB10
100
AcDbEntity
  8
0
100
AcDbVertex
100
AcDbPolygonMeshVertex
 10
4.612
 20
-1.09
 30
1.547
 70
    64
  0
VERTEX
  5
9DB11
100
AcDbEntity
  8
0
100
AcDbVertex
100
AcDbPolygonMeshVertex
 10
4.612
 20
-1.56
 30
1.857
 70
    64
  0
VERTEX
  5
9DB12
100
AcDbEntity
  8
0
100
AcDbVertex
100
AcDbPolygonMeshVertex
 10
4.612
 20
-1.56
 30
1.547
 70
    64
  0
VERTEX
  5
9DB13
100
AcDbEntity
  8
0
100
AcDbVertex
100
AcDbPolygonMeshVertex
 10
4.612
 20
-1.09
 30
1.547
 70
    64
  0
VERTEX
  5
9DB14
100
AcDbEntity
  8
0
100
AcDbVertex
100
AcDbPolygonMeshVertex
 10
4.112
 20
-1.56
 30
1.857
 70
    64
  0
VERTEX
  5
9DB15
100
AcDbEntity
  8
0
100
AcDbVertex
100
AcDbPolygonMeshVertex
 10
4.112
 20
-1.56
 30
1.547
 70
    64
  0
VERTEX
  5
9DB16
100
AcDbEntity
  8
0
100
AcDbVertex
100
AcDbPolygonMeshVertex
 10
4.112
 20
-1.09
 30
1.547
 70
    64
  0
VERTEX
  5
9DB17
100
AcDbEntity
  8
0
100
AcDbVertex
100
AcDbPolygonMeshVertex
 10
4.112
 20
-1.56
 30
1.857
 70
    64
  0
VERTEX
  5
9DB18
100
AcDbEntity
  8
0
100
AcDbVertex
100
AcDbPolygonMeshVertex
 10
4.112
 20
-1.56
 30
1.857
 70
    64
  0
VERTEX
  5
9DB19
100
AcDbEntity
  8
0
100
AcDbVertex
100
AcDbPolygonMeshVertex
 10
4.112
 20
-1.09
 30
1.857
 70
    64
  0
VERTEX
  5
9DB1A
100
AcDbEntity
  8
0
100
AcDbVertex
100
AcDbPolygonMeshVertex
 10
4.612
 20
-1.56
 30
1.857
 70
    64
  0
VERTEX
  5
9DB1B
100
AcDbEntity
  8
0
100
AcDbVertex
100
AcDbPolygonMeshVertex
 10
4.612
 20
-1.56
 30
1.857
 70
    64
  0
VERTEX
  5
9DB1C
100
AcDbEntity
  8
0
100
AcDbVertex
100
AcDbPolygonMeshVertex
 10
4.612
 20
-1.09
 30
1.857
 70
    64
  0
SEQEND
  5
9DB1D
100
AcDbEntity
  8
0
  0
CIRCLE
  5
9DB1E
100
AcDbEntity
  8
0
100
AcDbCircle
 10
4.362
 20
-1.325
 30
1.867
 40
0.19
  0
POLYLINE
  5
9DB1F
100
AcDbEntity
  8
0
100
AcDbPolygonMesh
 66
     1
 10
0.0
 20
0.0
 30
0.0
 70
    16
 71
     6
 72
     3
  0
VERTEX
  5
9DB20
100
AcDbEntity
  8
0
100
AcDbVertex
100
AcDbPolygonMeshVertex
 10
5.077
 20
-8.4
 30
0.577
 70
    64
  0
VERTEX
  5
9DB21
100
AcDbEntity
  8
0
100
AcDbVertex
100
AcDbPolygonMeshVertex
 10
5.077
 20
-8.4
 30
0.387
 70
    64
  0
VERTEX
  5
9DB22
100
AcDbEntity
  8
0
100
AcDbVertex
100
AcDbPolygonMeshVertex
 10
5.077
 20
-8.4
 30
0.387
 70
    64
  0
VERTEX
  5
9DB23
100
AcDbEntity
  8
0
100
AcDbVertex
100
AcDbPolygonMeshVertex
 10
1.517
 20
-8.4
 30
0.577
 70
    64
  0
VERTEX
  5
9DB24
100
AcDbEntity
  8
0
100
AcDbVertex
100
AcDbPolygonMeshVertex
 10
1.517
 20
-8.4
 30
0.387
 70
    64
  0
VERTEX
  5
9DB25
100
AcDbEntity
  8
0
100
AcDbVertex
100
AcDbPolygonMeshVertex
 10
1.517
 20
-8.4
 30
0.387
 70
    64
  0
VERTEX
  5
9DB26
100
AcDbEntity
  8
0
100
AcDbVertex
100
AcDbPolygonMeshVertex
 10
1.517
 20
-1.4
 30
0.577
 70
    64
  0
VERTEX
  5
9DB27
100
AcDbEntity
  8
0
100
AcDbVertex
100
AcDbPolygonMeshVertex
 10
1.517
 20
-1.4
 30
0.387
 70
    64
  0
VERTEX
  5
9DB28
100
AcDbEntity
  8
0
100
AcDbVertex
100
AcDbPolygonMeshVertex
 10
1.517
 20
-8.4
 30
0.387
 70
    64
  0
VERTEX
  5
9DB29
100
AcDbEntity
  8
0
100
AcDbVertex
100
AcDbPolygonMeshVertex
 10
5.077
 20
-1.4
 30
0.577
 70
    64
  0
VERTEX
  5
9DB2A
100
AcDbEntity
  8
0
100
AcDbVertex
100
AcDbPolygonMeshVertex
 10
5.077
 20
-1.4
 30
0.387
 70
    64
  0
VERTEX
  5
9DB2B
100
AcDbEntity
  8
0
100
AcDbVertex
100
AcDbPolygonMeshVertex
 10
5.077
 20
-8.4
 30
0.387
 70
    64
  0
VERTEX
  5
9DB2C
100
AcDbEntity
  8
0
100
AcDbVertex
100
AcDbPolygonMeshVertex
 10
5.077
 20
-1.4
 30
0.577
 70
    64
  0
VERTEX
  5
9DB2D
100
AcDbEntity
  8
0
100
AcDbVertex
100
AcDbPolygonMeshVertex
 10
5.077
 20
-1.4
 30
0.577
 70
    64
  0
VERTEX
  5
9DB2E
100
AcDbEntity
  8
0
100
AcDbVertex
100
AcDbPolygonMeshVertex
 10
5.077
 20
-8.4
 30
0.577
 70
    64
  0
VERTEX
  5
9DB2F
100
AcDbEntity
  8
0
100
AcDbVertex
100
AcDbPolygonMeshVertex
 10
1.517
 20
-1.4
 30
0.577
 70
    64
  0
VERTEX
  5
9DB30
100
AcDbEntity
  8
0
100
AcDbVertex
100
AcDbPolygonMeshVertex
 10
1.517
 20
-1.4
 30
0.577
 70
    64
  0
VERTEX
  5
9DB31
100
AcDbEntity
  8
0
100
AcDbVertex
100
AcDbPolygonMeshVertex
 10
1.517
 20
-8.4
 30
0.577
 70
    64
  0
SEQEND
  5
9DB32
100
AcDbEntity
  8
0
  0
LINE
  5
9DB33
100
AcDbEntity
  8
0
100
AcDbLine
 10
2.022
 20
-8.4
 30
0.577
 11
2.022
 21
-8.4
 31
0.387
  0
3DFACE
  5
9DB34
100
AcDbEntity
  8
0
100
AcDbFace
 10
5.077
 20
-1.4
 30
0.577
 11
4.457
 21
-0.78
 31
0.577
 12
3.017
 22
-0.78
 32
0.577
 13
2.917
 23
-1.06
 33
0.577
 70
     8
  0
3DFACE
  5
9DB35
100
AcDbEntity
  8
0
100
AcDbFace
 10
2.427
 20
-1.06
 30
0.577
 11
2.327
 21
-0.78
 31
0.577
 12
2.137
 22
-0.78
 32
0.577
 13
1.517
 23
-1.4
 33
0.577
 70
     8
  0
3DFACE
  5
9DB36
100
AcDbEntity
  8
0
100
AcDbFace
 10
2.427
 20
-1.06
 30
0.577
 11
1.517
 21
-1.4
 31
0.577
 12
5.077
 22
-1.4
 32
0.577
 13
2.917
 23
-1.06
 33
0.577
 70
    15
  0
3DFACE
  5
9DB37
100
AcDbEntity
  8
0
100
AcDbFace
 10
2.427
 20
-1.06
 30
0.387
 11
1.517
 21
-1.4
 31
0.387
 12
5.077
 22
-1.4
 32
0.387
 13
2.917
 23
-1.06
 33
0.387
 70
    15
  0
3DFACE
  5
9DB38
100
AcDbEntity
  8
0
100
AcDbFace
 10
5.077
 20
-1.4
 30
0.387
 11
4.457
 21
-0.78
 31
0.387
 12
3.017
 22
-0.78
 32
0.387
 13
2.917
 23
-1.06
 33
0.387
 70
     8
  0
3DFACE
  5
9DB39
100
AcDbEntity
  8
0
100
AcDbFace
 10
2.427
 20
-1.06
 30
0.387
 11
2.327
 21
-0.78
 31
0.387
 12
2.137
 22
-0.78
 32
0.387
 13
1.517
 23
-1.4
 33
0.387
 70
     8
  0
3DFACE
  5
9DB3A
100
AcDbEntity
  8
0
100
AcDbFace
 10
5.077
 20
-1.4
 30
0.387
 11
5.077
 21
-1.4
 31
0.577
 12
4.457
 22
-0.78
 32
0.577
 13
4.457
 23
-0.78
 33
0.387
  0
3DFACE
  5
9DB3B
100
AcDbEntity
  8
0
100
AcDbFace
 10
4.457
 20
-0.78
 30
0.577
 11
3.017
 21
-0.78
 31
0.577
 12
3.017
 22
-0.78
 32
0.387
 13
4.457
 23
-0.78
 33
0.387
  0
3DFACE
  5
9DB3C
100
AcDbEntity
  8
0
100
AcDbFace
 10
2.427
 20
-1.06
 30
0.577
 11
2.427
 21
-1.06
 31
0.387
 12
2.327
 22
-0.78
 32
0.387
 13
2.327
 23
-0.78
 33
0.577
  0
3DFACE
  5
9DB3D
100
AcDbEntity
  8
0
100
AcDbFace
 10
2.917
 20
-1.06
 30
0.577
 11
2.917
 21
-1.06
 31
0.387
 12
2.427
 22
-1.06
 32
0.387
 13
2.427
 23
-1.06
 33
0.577
  0
3DFACE
  5
9DB3E
100
AcDbEntity
  8
0
100
AcDbFace
 10
2.327
 20
-0.78
 30
0.577
 11
2.327
 21
-0.78
 31
0.387
 12
2.137
 22
-0.78
 32
0.387
 13
2.137
 23
-0.78
 33
0.577
  0
3DFACE
  5
9DB3F
100
AcDbEntity
  8
0
100
AcDbFace
 10
2.917
 20
-1.06
 30
0.577
 11
2.917
 21
-1.06
 31
0.387
 12
3.017
 22
-0.78
 32
0.387
 13
3.017
 23
-0.78
 33
0.577
  0
3DFACE
  5
9DB40
100
AcDbEntity
  8
0
100
AcDbFace
 10
2.137
 20
-0.78
 30
0.387
 11
2.137
 21
-0.78
 31
0.577
 12
1.517
 22
-1.4
 32
0.577
 13
1.517
 23
-1.4
 33
0.387
  0
LINE
  5
9DB41
100
AcDbEntity
  8
0
100
AcDbLine
 10
-3.378
 20
-5.88
 30
2.007
 11
-3.378
 21
-5.88
 31
3.237
  0
LINE
  5
9DB42
100
AcDbEntity
  8
0
100
AcDbLine
 10
-2.978
 20
-8.4
 30
0.387
 11
-2.978
 21
-8.15
 31
0.387
  0
LINE
  5
9DB43
100
AcDbEntity
  8
0
100
AcDbLine
 10
-2.978
 20
-8.4
 30
0.577
 11
-2.978
 21
-8.15
 31
0.577
  0
LINE
  5
9DB44
100
AcDbEntity
  8
0
100
AcDbLine
 10
-3.178
 20
-8.15
 30
0.387
 11
-3.178
 21
-8.4
 31
0.387
  0
LINE
  5
9DB45
100
AcDbEntity
  8
0
100
AcDbLine
 10
-3.178
 20
-8.15
 30
0.577
 11
-3.178
 21
-8.4
 31
0.577
  0
LINE
  5
9DB46
100
AcDbEntity
  8
0
100
AcDbLine
 10
-3.178
 20
-8.4
 30
0.387
 11
-3.178
 21
-8.4
 31
0.577
  0
LINE
  5
9DB47
100
AcDbEntity
  8
0
100
AcDbLine
 10
-2.978
 20
-8.15
 30
0.387
 11
-2.978
 21
-8.15
 31
0.577
  0
LINE
  5
9DB48
100
AcDbEntity
  8
0
100
AcDbLine
 10
-3.178
 20
-8.15
 30
0.387
 11
-3.178
 21
-8.15
 31
0.577
  0
ARC
  5
9DB49
100
AcDbEntity
  8
0
100
AcDbCircle
 10
-3.078
 20
-8.15
 30
0.387
 40
0.1
100
AcDbArc
 50
0.0
 51
179.999985
  0
ARC
  5
9DB4A
100
AcDbEntity
  8
0
100
AcDbCircle
 10
-3.078
 20
-8.15
 30
0.577
 40
0.1
100
AcDbArc
 50
0.0
 51
179.999985
  0
3DFACE
  5
9DB4B
100
AcDbEntity
  8
0
100
AcDbFace
 10
-0.228
 20
-8.15
 30
0.577
 11
-0.228
 21
-8.15
 31
0.387
 12
-0.228
 22
-8.4
 32
0.387
 13
-0.228
 23
-8.4
 33
0.577
 70
    14
  0
LINE
  5
9DB4C
100
AcDbEntity
  8
0
100
AcDbLine
 10
-0.428
 20
-8.15
 30
0.387
 11
-0.428
 21
-8.4
 31
0.387
  0
LINE
  5
9DB4D
100
AcDbEntity
  8
0
100
AcDbLine
 10
-0.228
 20
-8.4
 30
0.387
 11
-0.228
 21
-8.15
 31
0.387
  0
LINE
  5
9DB4E
100
AcDbEntity
  8
0
100
AcDbLine
 10
-0.428
 20
-8.15
 30
0.577
 11
-0.428
 21
-8.4
 31
0.577
  0
LINE
  5
9DB4F
100
AcDbEntity
  8
0
100
AcDbLine
 10
-0.228
 20
-8.4
 30
0.577
 11
-0.228
 21
-8.15
 31
0.577
  0
LINE
  5
9DB50
100
AcDbEntity
  8
0
100
AcDbLine
 10
-0.428
 20
-8.4
 30
0.387
 11
-0.428
 21
-8.4
 31
0.577
  0
LINE
  5
9DB51
100
AcDbEntity
  8
0
100
AcDbLine
 10
-0.228
 20
-8.4
 30
0.387
 11
-0.228
 21
-8.4
 31
0.577
  0
LINE
  5
9DB52
100
AcDbEntity
  8
0
100
AcDbLine
 10
-0.428
 20
-8.15
 30
0.387
 11
-0.428
 21
-8.15
 31
0.577
  0
LINE
  5
9DB53
100
AcDbEntity
  8
0
100
AcDbLine
 10
-0.228
 20
-8.15
 30
0.387
 11
-0.228
 21
-8.15
 31
0.577
  0
ARC
  5
9DB54
100
AcDbEntity
  8
0
100
AcDbCircle
 10
-0.328
 20
-8.15
 30
0.387
 40
0.1
100
AcDbArc
 50
0.0
 51
179.999985
  0
ARC
  5
9DB55
100
AcDbEntity
  8
0
100
AcDbCircle
 10
-0.328
 20
-8.15
 30
0.577
 40
0.1
100
AcDbArc
 50
0.0
 51
179.999985
  0
CIRCLE
  5
9DB56
100
AcDbEntity
  8
0
100
AcDbCircle
 10
-2.828
 20
-6.153487
 30
5.387245
 40
0.155
210
0.0
220
-0.3163624652213708
230
0.9486383876899864
  0
LINE
  5
9DB57
100
AcDbEntity
  8
0
100
AcDbLine
 10
-2.848075
 20
-7.687557
 30
3.115192
 11
-2.827586
 21
-7.394718
 31
3.212851
210
0.0
220
-0.3163624652213708
230
0.9486383876899864
  0
LINE
  5
9DB58
100
AcDbEntity
  8
0
100
AcDbLine
 10
-2.828958
 20
-7.688819
 30
3.114771
 11
-2.808469
 21
-7.39598
 31
3.21243
210
0.0
220
-0.3163624652213708
230
0.9486383876899864
  0
CIRCLE
  5
9DB59
100
AcDbEntity
  8
0
100
AcDbCircle
 10
-1.768
 20
-6.153487
 30
5.387245
 40
0.155
210
0.0
220
-0.3163624652213708
230
0.9486383876899864
  0
LINE
  5
9DB5A
100
AcDbEntity
  8
0
100
AcDbLine
 10
-1.768958
 20
-7.688819
 30
3.114771
 11
-1.748469
 21
-7.39598
 31
3.21243
210
0.0
220
-0.3163624652213708
230
0.9486383876899864
  0
LINE
  5
9DB5B
100
AcDbEntity
  8
0
100
AcDbLine
 10
-1.788075
 20
-7.687557
 30
3.115192
 11
-1.767586
 21
-7.394718
 31
3.212851
210
0.0
220
-0.3163624652213708
230
0.9486383876899864
  0
LINE
  5
9DB5C
100
AcDbEntity
  8
0
100
AcDbLine
 10
-2.421
 20
-6.38
 30
4.347
 11
-2.421
 21
-6.38
 31
4.027
  0
LINE
  5
9DB5D
100
AcDbEntity
  8
0
100
AcDbLine
 10
-2.171
 20
-6.38
 30
4.347
 11
-2.171
 21
-6.38
 31
4.027
  0
LINE
  5
9DB5E
100
AcDbEntity
  8
0
100
AcDbLine
 10
-2.171
 20
-6.13
 30
4.347
 11
-2.171
 21
-6.13
 31
4.027
  0
LINE
  5
9DB5F
100
AcDbEntity
  8
0
100
AcDbLine
 10
-2.421
 20
-6.13
 30
4.347
 11
-2.421
 21
-6.13
 31
4.027
  0
LINE
  5
9DB60
100
AcDbEntity
  8
0
100
AcDbLine
 10
-2.171
 20
-6.13
 30
4.347
 11
-2.171
 21
-6.13
 31
4.027
  0
3DFACE
  5
9DB61
100
AcDbEntity
  8
0
100
AcDbFace
 10
-2.171
 20
-6.38
 30
4.347
 11
-2.171
 21
-6.38
 31
4.027
 12
-2.171
 22
-6.13
 32
4.027
 13
-2.171
 23
-6.13
 33
4.347
 70
    14
  0
3DFACE
  5
9DB62
100
AcDbEntity
  8
0
100
AcDbFace
 10
-2.171
 20
-6.13
 30
4.027
 11
-2.171
 21
-6.13
 31
4.347
 12
-2.171
 22
-6.38
 32
4.347
 13
-2.171
 23
-6.38
 33
4.027
 70
     3
  0
3DFACE
  5
9DB63
100
AcDbEntity
  8
0
100
AcDbFace
 10
-2.171
 20
-6.38
 30
4.347
 11
-2.171
 21
-6.38
 31
4.027
 12
-2.171
 22
-6.13
 32
4.027
 13
-2.171
 23
-6.13
 33
4.027
 70
    14
  0
3DFACE
  5
9DB64
100
AcDbEntity
  8
0
100
AcDbFace
 10
-2.171
 20
-6.13
 30
4.027
 11
-2.421
 21
-6.13
 31
4.027
 12
-2.421
 22
-6.13
 32
4.347
 13
-2.171
 23
-6.13
 33
4.347
 70
    14
  0
3DFACE
  5
9DB65
100
AcDbEntity
  8
0
100
AcDbFace
 10
-2.421
 20
-6.13
 30
4.347
 11
-2.421
 21
-6.38
 31
4.347
 12
-2.421
 22
-6.38
 32
4.027
 13
-2.421
 23
-6.13
 33
4.027
 70
    14
  0
3DFACE
  5
9DB66
100
AcDbEntity
  8
0
100
AcDbFace
 10
-2.421
 20
-6.38
 30
4.347
 11
-2.421
 21
-6.38
 31
4.027
 12
-2.171
 22
-6.38
 32
4.027
 13
-2.171
 23
-6.38
 33
4.347
 70
    14
  0
LINE
  5
9DB67
100
AcDbEntity
  8
0
100
AcDbLine
 10
-2.171
 20
-6.38
 30
4.027
 11
-2.421
 21
-6.38
 31
4.027
  0
LINE
  5
9DB68
100
AcDbEntity
  8
0
100
AcDbLine
 10
-2.421
 20
-6.13
 30
4.027
 11
-2.171
 21
-6.13
 31
4.027
  0
LINE
  5
9DB69
100
AcDbEntity
  8
0
100
AcDbLine
 10
-2.421
 20
-6.38
 30
4.027
 11
-2.421
 21
-6.13
 31
4.027
  0
LINE
  5
9DB6A
100
AcDbEntity
  8
0
100
AcDbLine
 10
-2.171
 20
-6.13
 30
4.027
 11
-2.171
 21
-6.38
 31
4.027
  0
3DFACE
  5
9DB6B
100
AcDbEntity
  8
0
100
AcDbFace
 10
-2.606
 20
-5.88
 30
4.937
 11
-1.986
 21
-5.88
 31
4.937
 12
-1.986
 22
-5.88
 32
4.812
 13
-2.606
 23
-5.88
 33
4.812
 70
    14
  0
LINE
  5
9DB6C
100
AcDbEntity
  8
0
100
AcDbLine
 10
-2.606
 20
-5.88
 30
4.937
 11
-1.986
 21
-5.88
 31
4.937
  0
LINE
  5
9DB6D
100
AcDbEntity
  8
0
100
AcDbLine
 10
-2.606
 20
-5.88
 30
4.812
 11
-1.986
 21
-5.88
 31
4.812
  0
LINE
  5
9DB6E
100
AcDbEntity
  8
0
100
AcDbLine
 10
-2.546
 20
-6.005
 30
4.347
 11
-2.046
 21
-6.005
 31
4.347
  0
3DFACE
  5
9DB6F
100
AcDbEntity
  8
0
100
AcDbFace
 10
-1.986
 20
-5.88
 30
4.812
 11
-2.606
 21
-5.88
 31
4.812
 12
-2.546
 22
-6.005
 32
4.347
 13
-2.046
 23
-6.005
 33
4.347
 70
    14
  0
LINE
  5
9DB70
100
AcDbEntity
  8
0
100
AcDbLine
 10
-1.986
 20
-6.63
 30
4.812
 11
-2.606
 21
-6.63
 31
4.812
  0
3DFACE
  5
9DB71
100
AcDbEntity
  8
0
100
AcDbFace
 10
-2.606
 20
-6.63
 30
4.937
 11
-1.986
 21
-6.63
 31
4.937
 12
-1.986
 22
-6.63
 32
4.812
 13
-2.606
 23
-6.63
 33
4.812
 70
    14
  0
LINE
  5
9DB72
100
AcDbEntity
  8
0
100
AcDbLine
 10
-1.986
 20
-6.63
 30
4.937
 11
-2.606
 21
-6.63
 31
4.937
  0
LINE
  5
9DB73
100
AcDbEntity
  8
0
100
AcDbLine
 10
-2.046
 20
-6.505
 30
4.347
 11
-2.546
 21
-6.505
 31
4.347
  0
3DFACE
  5
9DB74
100
AcDbEntity
  8
0
100
AcDbFace
 10
-2.606
 20
-6.63
 30
4.812
 11
-1.986
 21
-6.63
 31
4.812
 12
-2.046
 22
-6.505
 32
4.347
 13
-2.546
 23
-6.505
 33
4.347
 70
    14
  0
3DFACE
  5
9DB75
100
AcDbEntity
  8
0
100
AcDbFace
 10
-2.606
 20
-5.88
 30
4.937
 11
-1.986
 21
-5.88
 31
4.937
 12
-1.986
 22
-6.63
 32
4.937
 13
-2.606
 23
-6.63
 33
4.937
 70
    14
  0
LINE
  5
9DB76
100
AcDbEntity
  8
0
100
AcDbLine
 10
-2.421
 20
-6.38
 30
4.347
 11
-2.171
 21
-6.38
 31
4.347
  0
LINE
  5
9DB77
100
AcDbEntity
  8
0
100
AcDbLine
 10
-2.421
 20
-6.13
 30
4.347
 11
-2.171
 21
-6.13
 31
4.347
  0
LINE
  5
9DB78
100
AcDbEntity
  8
0
100
AcDbLine
 10
-2.606
 20
-6.63
 30
4.812
 11
-2.606
 21
-5.88
 31
4.812
  0
3DFACE
  5
9DB79
100
AcDbEntity
  8
0
100
AcDbFace
 10
-2.606
 20
-5.88
 30
4.937
 11
-2.606
 21
-5.88
 31
4.812
 12
-2.606
 22
-6.63
 32
4.812
 13
-2.606
 23
-6.63
 33
4.937
 70
    14
  0
LINE
  5
9DB7A
100
AcDbEntity
  8
0
100
AcDbLine
 10
-2.606
 20
-6.63
 30
4.937
 11
-2.606
 21
-5.88
 31
4.937
  0
LINE
  5
9DB7B
100
AcDbEntity
  8
0
100
AcDbLine
 10
-2.546
 20
-6.005
 30
4.347
 11
-2.546
 21
-6.505
 31
4.347
  0
LINE
  5
9DB7C
100
AcDbEntity
  8
0
100
AcDbLine
 10
-2.421
 20
-6.38
 30
4.347
 11
-2.421
 21
-6.13
 31
4.347
  0
3DFACE
  5
9DB7D
100
AcDbEntity
  8
0
100
AcDbFace
 10
-2.606
 20
-5.88
 30
4.812
 11
-2.546
 21
-6.005
 31
4.347
 12
-2.546
 22
-6.505
 32
4.347
 13
-2.606
 23
-6.63
 33
4.812
 70
    14
  0
LINE
  5
9DB7E
100
AcDbEntity
  8
0
100
AcDbLine
 10
-2.546
 20
-6.505
 30
4.347
 11
-2.606
 21
-6.63
 31
4.812
  0
LINE
  5
9DB7F
100
AcDbEntity
  8
0
100
AcDbLine
 10
-2.606
 20
-6.63
 30
4.812
 11
-2.606
 21
-6.63
 31
4.937
  0
LINE
  5
9DB80
100
AcDbEntity
  8
0
100
AcDbLine
 10
-2.606
 20
-5.88
 30
4.812
 11
-2.546
 21
-6.005
 31
4.347
  0
LINE
  5
9DB81
100
AcDbEntity
  8
0
100
AcDbLine
 10
-2.606
 20
-5.88
 30
4.937
 11
-2.606
 21
-5.88
 31
4.812
  0
3DFACE
  5
9DB82
100
AcDbEntity
  8
0
100
AcDbFace
 10
-1.986
 20
-5.88
 30
4.937
 11
-1.986
 21
-6.63
 31
4.937
 12
-1.986
 22
-6.63
 32
4.812
 13
-1.986
 23
-5.88
 33
4.812
 70
    14
  0
LINE
  5
9DB83
100
AcDbEntity
  8
0
100
AcDbLine
 10
-1.986
 20
-5.88
 30
4.937
 11
-1.986
 21
-6.63
 31
4.937
  0
LINE
  5
9DB84
100
AcDbEntity
  8
0
100
AcDbLine
 10
-1.986
 20
-5.88
 30
4.812
 11
-1.986
 21
-6.63
 31
4.812
  0
LINE
  5
9DB85
100
AcDbEntity
  8
0
100
AcDbLine
 10
-2.171
 20
-6.13
 30
4.347
 11
-2.171
 21
-6.38
 31
4.347
  0
LINE
  5
9DB86
100
AcDbEntity
  8
0
100
AcDbLine
 10
-2.046
 20
-6.005
 30
4.347
 11
-2.046
 21
-6.505
 31
4.347
  0
3DFACE
  5
9DB87
100
AcDbEntity
  8
0
100
AcDbFace
 10
-1.986
 20
-6.63
 30
4.812
 11
-2.046
 21
-6.505
 31
4.347
 12
-2.046
 22
-6.005
 32
4.347
 13
-1.986
 23
-5.88
 33
4.812
 70
    14
  0
LINE
  5
9DB88
100
AcDbEntity
  8
0
100
AcDbLine
 10
-1.986
 20
-6.63
 30
4.812
 11
-2.046
 21
-6.505
 31
4.347
  0
LINE
  5
9DB89
100
AcDbEntity
  8
0
100
AcDbLine
 10
-1.986
 20
-6.63
 30
4.937
 11
-1.986
 21
-6.63
 31
4.812
  0
LINE
  5
9DB8A
100
AcDbEntity
  8
0
100
AcDbLine
 10
-1.986
 20
-5.88
 30
4.812
 11
-2.046
 21
-6.005
 31
4.347
  0
LINE
  5
9DB8B
100
AcDbEntity
  8
0
100
AcDbLine
 10
-1.986
 20
-5.88
 30
4.937
 11
-1.986
 21
-5.88
 31
4.812
  0
CIRCLE
  5
9DB8C
100
AcDbEntity
  8
0
100
AcDbCircle
 10
-0.708
 20
-6.153487
 30
5.387245
 40
0.155
210
0.0
220
-0.3163624652213708
230
0.9486383876899864
  0
LINE
  5
9DB8D
100
AcDbEntity
  8
0
100
AcDbLine
 10
-0.708958
 20
-7.688819
 30
3.114771
 11
-0.688469
 21
-7.39598
 31
3.21243
210
0.0
220
-0.3163624652213708
230
0.9486383876899864
  0
LINE
  5
9DB8E
100
AcDbEntity
  8
0
100
AcDbLine
 10
-0.728075
 20
-7.687557
 30
3.115192
 11
-0.707586
 21
-7.394718
 31
3.212851
210
0.0
220
-0.3163624652213708
230
0.9486383876899864
  0
CIRCLE
  5
9DB8F
100
AcDbEntity
  8
0
100
AcDbCircle
 10
-1.318
 20
-1.06
 30
0.577
 40
0.1
  0
CIRCLE
  5
9DB90
100
AcDbEntity
  8
0
100
AcDbCircle
 10
-1.318
 20
-1.06
 30
0.577
 40
0.1
  0
LINE
  5
9DB91
100
AcDbEntity
  8
0
100
AcDbLine
 10
-1.983
 20
-0.78
 30
0.387
 11
-0.543
 21
-0.78
 31
0.387
  0
LINE
  5
9DB92
100
AcDbEntity
  8
0
100
AcDbLine
 10
-1.983
 20
-0.78
 30
0.577
 11
-0.543
 21
-0.78
 31
0.577
  0
3DFACE
  5
9DB93
100
AcDbEntity
  8
0
100
AcDbFace
 10
-2.673
 20
-0.78
 30
0.577
 11
-2.863
 21
-0.78
 31
0.577
 12
-2.863
 22
-0.78
 32
0.387
 13
-2.673
 23
-0.78
 33
0.387
 70
    14
  0
LINE
  5
9DB94
100
AcDbEntity
  8
0
100
AcDbLine
 10
-2.863
 20
-0.78
 30
0.387
 11
-2.673
 21
-0.78
 31
0.387
  0
LINE
  5
9DB95
100
AcDbEntity
  8
0
100
AcDbLine
 10
-2.863
 20
-0.78
 30
0.577
 11
-2.673
 21
-0.78
 31
0.577
  0
ARC
  5
9DB96
100
AcDbEntity
  8
0
100
AcDbCircle
 10
-1.698
 20
-1.06
 30
0.577
 40
0.1015
100
AcDbArc
 50
0.0
 51
179.999985
  0
ARC
  5
9DB97
100
AcDbEntity
  8
0
100
AcDbCircle
 10
-1.698
 20
-1.06
 30
0.577
 40
0.1015
100
AcDbArc
 50
0.0
 51
179.999985
  0
LINE
  5
9DB98
100
AcDbEntity
  8
0
100
AcDbLine
 10
-1.5965
 20
-1.192159
 30
0.387
 11
-1.5965
 21
-1.192159
 31
0.577
  0
LINE
  5
9DB99
100
AcDbEntity
  8
0
100
AcDbLine
 10
-1.5965
 20
-1.06
 30
0.387
 11
-1.5965
 21
-1.06
 31
0.577
  0
LINE
  5
9DB9A
100
AcDbEntity
  8
0
100
AcDbLine
 10
-1.7995
 20
-1.06
 30
0.387
 11
-1.7995
 21
-1.06
 31
0.577
  0
ARC
  5
9DB9B
100
AcDbEntity
  8
0
100
AcDbCircle
 10
-1.698
 20
-1.403
 30
0.577
 40
0.234
100
AcDbArc
 50
115.70649
 51
64.293579
  0
ARC
  5
9DB9C
100
AcDbEntity
  8
0
100
AcDbCircle
 10
-1.698
 20
-1.403
 30
0.577
 40
0.234
100
AcDbArc
 50
115.70649
 51
64.293579
  0
LINE
  5
9DB9D
100
AcDbEntity
  8
0
100
AcDbLine
 10
-1.7995
 20
-1.06
 30
0.577
 11
-1.7995
 21
-1.192159
 31
0.577
  0
LINE
  5
9DB9E
100
AcDbEntity
  8
0
100
AcDbLine
 10
-1.7995
 20
-1.06
 30
0.577
 11
-1.7995
 21
-1.192159
 31
0.577
  0
LINE
  5
9DB9F
100
AcDbEntity
  8
0
100
AcDbLine
 10
-1.5965
 20
-1.06
 30
0.577
 11
-1.5965
 21
-1.192159
 31
0.577
  0
LINE
  5
9DBA0
100
AcDbEntity
  8
0
100
AcDbLine
 10
-1.5965
 20
-1.06
 30
0.577
 11
-1.5965
 21
-1.192159
 31
0.577
  0
LINE
  5
9DBA1
100
AcDbEntity
  8
0
100
AcDbLine
 10
-0.543
 20
-0.78
 30
0.387
 11
0.077
 21
-1.4
 31
0.387
  0
LINE
  5
9DBA2
100
AcDbEntity
  8
0
100
AcDbLine
 10
-0.543
 20
-0.78
 30
0.577
 11
0.077
 21
-1.4
 31
0.577
  0
LINE
  5
9DBA3
100
AcDbEntity
  8
0
100
AcDbLine
 10
-1.218
 20
-1.06
 30
0.387
 11
-1.218
 21
-1.06
 31
0.577
  0
CIRCLE
  5
9DBA4
100
AcDbEntity
  8
0
100
AcDbCircle
 10
-1.318
 20
-1.06
 30
0.387
 40
0.1
  0
ARC
  5
9DBA5
100
AcDbEntity
  8
0
100
AcDbCircle
 10
-1.698
 20
-1.403
 30
0.387
 40
0.234
100
AcDbArc
 50
115.70649
 51
64.293579
  0
LINE
  5
9DBA6
100
AcDbEntity
  8
0
100
AcDbLine
 10
-1.5965
 20
-1.06
 30
0.387
 11
-1.5965
 21
-1.192159
 31
0.387
  0
ARC
  5
9DBA7
100
AcDbEntity
  8
0
100
AcDbCircle
 10
-1.698
 20
-1.06
 30
0.387
 40
0.1015
100
AcDbArc
 50
0.0
 51
179.999985
  0
LINE
  5
9DBA8
100
AcDbEntity
  8
0
100
AcDbLine
 10
-1.7995
 20
-1.06
 30
0.387
 11
-1.7995
 21
-1.192159
 31
0.387
  0
LINE
  5
9DBA9
100
AcDbEntity
  8
0
100
AcDbLine
 10
-1.7995
 20
-1.192159
 30
0.387
 11
-1.7995
 21
-1.192159
 31
0.577
  0
LINE
  5
9DBAE
100
AcDbEntity
  8
0
100
AcDbLine
 10
-3.378
 20
-7.29
 30
3.237
 11
-3.378
 21
-7.29
 31
0.577
  0
LINE
  5
9DBAF
100
AcDbEntity
  8
0
100
AcDbLine
 10
-0.018
 20
-5.88
 30
2.007
 11
-0.018
 21
-7.682911
 31
2.007
  0
LINE
  5
9DBB0
100
AcDbEntity
  8
0
100
AcDbLine
 10
-3.378
 20
-7.7
 30
2.157
 11
-3.378
 21
-7.7
 31
2.007
  0
LINE
  5
9DBB1
100
AcDbEntity
  8
0
100
AcDbLine
 10
-3.378
 20
-7.7
 30
2.007
 11
-3.378
 21
-7.7
 31
0.577
  0
POLYLINE
  5
9DBB2
100
AcDbEntity
  8
0
100
AcDbPolygonMesh
 66
     1
 10
0.0
 20
0.0
 30
0.0
 70
    16
 71
     6
 72
     3
  0
VERTEX
  5
9DBB3
100
AcDbEntity
  8
0
100
AcDbVertex
100
AcDbPolygonMeshVertex
 10
-0.018
 20
-7.7
 30
3.087
 70
    64
  0
VERTEX
  5
9DBB4
100
AcDbEntity
  8
0
100
AcDbVertex
100
AcDbPolygonMeshVertex
 10
-0.018
 20
-7.7
 30
0.577
 70
    64
  0
VERTEX
  5
9DBB5
100
AcDbEntity
  8
0
100
AcDbVertex
100
AcDbPolygonMeshVertex
 10
-0.018
 20
-7.7
 30
0.577
 70
    64
  0
VERTEX
  5
9DBB6
100
AcDbEntity
  8
0
100
AcDbVertex
100
AcDbPolygonMeshVertex
 10
-3.378
 20
-7.7
 30
3.087
 70
    64
  0
VERTEX
  5
9DBB7
100
AcDbEntity
  8
0
100
AcDbVertex
100
AcDbPolygonMeshVertex
 10
-3.378
 20
-7.7
 30
0.577
 70
    64
  0
VERTEX
  5
9DBB8
100
AcDbEntity
  8
0
100
AcDbVertex
100
AcDbPolygonMeshVertex
 10
-3.378
 20
-7.7
 30
0.577
 70
    64
  0
VERTEX
  5
9DBB9
100
AcDbEntity
  8
0
100
AcDbVertex
100
AcDbPolygonMeshVertex
 10
-3.378
 20
-7.29
 30
3.087
 70
    64
  0
VERTEX
  5
9DBBA
100
AcDbEntity
  8
0
100
AcDbVertex
100
AcDbPolygonMeshVertex
 10
-3.378
 20
-7.29
 30
0.577
 70
    64
  0
VERTEX
  5
9DBBB
100
AcDbEntity
  8
0
100
AcDbVertex
100
AcDbPolygonMeshVertex
 10
-3.378
 20
-7.7
 30
0.577
 70
    64
  0
VERTEX
  5
9DBBC
100
AcDbEntity
  8
0
100
AcDbVertex
100
AcDbPolygonMeshVertex
 10
-0.018
 20
-7.29
 30
3.087
 70
    64
  0
VERTEX
  5
9DBBD
100
AcDbEntity
  8
0
100
AcDbVertex
100
AcDbPolygonMeshVertex
 10
-0.018
 20
-7.29
 30
0.577
 70
    64
  0
VERTEX
  5
9DBBE
100
AcDbEntity
  8
0
100
AcDbVertex
100
AcDbPolygonMeshVertex
 10
-0.018
 20
-7.7
 30
0.577
 70
    64
  0
VERTEX
  5
9DBBF
100
AcDbEntity
  8
0
100
AcDbVertex
100
AcDbPolygonMeshVertex
 10
-0.018
 20
-7.29
 30
3.087
 70
    64
  0
VERTEX
  5
9DBC0
100
AcDbEntity
  8
0
100
AcDbVertex
100
AcDbPolygonMeshVertex
 10
-0.018
 20
-7.29
 30
3.087
 70
    64
  0
VERTEX
  5
9DBC1
100
AcDbEntity
  8
0
100
AcDbVertex
100
AcDbPolygonMeshVertex
 10
-0.018
 20
-7.7
 30
3.087
 70
    64
  0
VERTEX
  5
9DBC2
100
AcDbEntity
  8
0
100
AcDbVertex
100
AcDbPolygonMeshVertex
 10
-3.378
 20
-7.29
 30
3.087
 70
    64
  0
VERTEX
  5
9DBC3
100
AcDbEntity
  8
0
100
AcDbVertex
100
AcDbPolygonMeshVertex
 10
-3.378
 20
-7.29
 30
3.087
 70
    64
  0
VERTEX
  5
9DBC4
100
AcDbEntity
  8
0
100
AcDbVertex
100
AcDbPolygonMeshVertex
 10
-3.378
 20
-7.7
 30
3.087
 70
    64
  0
SEQEND
  5
9DBC5
100
AcDbEntity
  8
0
  0
POLYLINE
  5
9DBC6
100
AcDbEntity
  8
0
100
AcDbPolygonMesh
 66
     1
 10
0.0
 20
0.0
 30
0.0
 70
    16
 71
     6
 72
     3
  0
VERTEX
  5
9DBC7
100
AcDbEntity
  8
0
100
AcDbVertex
100
AcDbPolygonMeshVertex
 10
-2.208
 20
-8.13
 30
0.887
 70
    64
  0
VERTEX
  5
9DBC8
100
AcDbEntity
  8
0
100
AcDbVertex
100
AcDbPolygonMeshVertex
 10
-2.208
 20
-8.13
 30
0.577
 70
    64
  0
VERTEX
  5
9DBC9
100
AcDbEntity
  8
0
100
AcDbVertex
100
AcDbPolygonMeshVertex
 10
-2.208
 20
-8.13
 30
0.577
 70
    64
  0
VERTEX
  5
9DBCA
100
AcDbEntity
  8
0
100
AcDbVertex
100
AcDbPolygonMeshVertex
 10
-2.708
 20
-8.13
 30
0.887
 70
    64
  0
VERTEX
  5
9DBCB
100
AcDbEntity
  8
0
100
AcDbVertex
100
AcDbPolygonMeshVertex
 10
-2.708
 20
-8.13
 30
0.577
 70
    64
  0
VERTEX
  5
9DBCC
100
AcDbEntity
  8
0
100
AcDbVertex
100
AcDbPolygonMeshVertex
 10
-2.708
 20
-8.13
 30
0.577
 70
    64
  0
VERTEX
  5
9DBCD
100
AcDbEntity
  8
0
100
AcDbVertex
100
AcDbPolygonMeshVertex
 10
-2.708
 20
-7.7
 30
0.887
 70
    64
  0
VERTEX
  5
9DBCE
100
AcDbEntity
  8
0
100
AcDbVertex
100
AcDbPolygonMeshVertex
 10
-2.708
 20
-7.7
 30
0.577
 70
    64
  0
VERTEX
  5
9DBCF
100
AcDbEntity
  8
0
100
AcDbVertex
100
AcDbPolygonMeshVertex
 10
-2.708
 20
-8.13
 30
0.577
 70
    64
  0
VERTEX
  5
9DBD0
100
AcDbEntity
  8
0
100
AcDbVertex
100
AcDbPolygonMeshVertex
 10
-2.208
 20
-7.7
 30
0.887
 70
    64
  0
VERTEX
  5
9DBD1
100
AcDbEntity
  8
0
100
AcDbVertex
100
AcDbPolygonMeshVertex
 10
-2.208
 20
-7.7
 30
0.577
 70
    64
  0
VERTEX
  5
9DBD2
100
AcDbEntity
  8
0
100
AcDbVertex
100
AcDbPolygonMeshVertex
 10
-2.208
 20
-8.13
 30
0.577
 70
    64
  0
VERTEX
  5
9DBD3
100
AcDbEntity
  8
0
100
AcDbVertex
100
AcDbPolygonMeshVertex
 10
-2.208
 20
-7.7
 30
0.887
 70
    64
  0
VERTEX
  5
9DBD4
100
AcDbEntity
  8
0
100
AcDbVertex
100
AcDbPolygonMeshVertex
 10
-2.208
 20
-7.7
 30
0.887
 70
    64
  0
VERTEX
  5
9DBD5
100
AcDbEntity
  8
0
100
AcDbVertex
100
AcDbPolygonMeshVertex
 10
-2.208
 20
-8.13
 30
0.887
 70
    64
  0
VERTEX
  5
9DBD6
100
AcDbEntity
  8
0
100
AcDbVertex
100
AcDbPolygonMeshVertex
 10
-2.708
 20
-7.7
 30
0.887
 70
    64
  0
VERTEX
  5
9DBD7
100
AcDbEntity
  8
0
100
AcDbVertex
100
AcDbPolygonMeshVertex
 10
-2.708
 20
-7.7
 30
0.887
 70
    64
  0
VERTEX
  5
9DBD8
100
AcDbEntity
  8
0
100
AcDbVertex
100
AcDbPolygonMeshVertex
 10
-2.708
 20
-8.13
 30
0.887
 70
    64
  0
SEQEND
  5
9DBD9
100
AcDbEntity
  8
0
  0
POLYLINE
  5
9DBDA
100
AcDbEntity
  8
0
100
AcDbPolygonMesh
 66
     1
 10
0.0
 20
0.0
 30
0.0
 70
    16
 71
     6
 72
     3
  0
VERTEX
  5
9DBDB
100
AcDbEntity
  8
0
100
AcDbVertex
100
AcDbPolygonMeshVertex
 10
-0.831
 20
-8.13
 30
0.887
 70
    64
  0
VERTEX
  5
9DBDC
100
AcDbEntity
  8
0
100
AcDbVertex
100
AcDbPolygonMeshVertex
 10
-0.831
 20
-8.13
 30
0.577
 70
    64
  0
VERTEX
  5
9DBDD
100
AcDbEntity
  8
0
100
AcDbVertex
100
AcDbPolygonMeshVertex
 10
-0.831
 20
-8.13
 30
0.577
 70
    64
  0
VERTEX
  5
9DBDE
100
AcDbEntity
  8
0
100
AcDbVertex
100
AcDbPolygonMeshVertex
 10
-1.331
 20
-8.13
 30
0.887
 70
    64
  0
VERTEX
  5
9DBDF
100
AcDbEntity
  8
0
100
AcDbVertex
100
AcDbPolygonMeshVertex
 10
-1.331
 20
-8.13
 30
0.577
 70
    64
  0
VERTEX
  5
9DBE0
100
AcDbEntity
  8
0
100
AcDbVertex
100
AcDbPolygonMeshVertex
 10
-1.331
 20
-8.13
 30
0.577
 70
    64
  0
VERTEX
  5
9DBE1
100
AcDbEntity
  8
0
100
AcDbVertex
100
AcDbPolygonMeshVertex
 10
-1.331
 20
-7.7
 30
0.887
 70
    64
  0
VERTEX
  5
9DBE2
100
AcDbEntity
  8
0
100
AcDbVertex
100
AcDbPolygonMeshVertex
 10
-1.331
 20
-7.7
 30
0.577
 70
    64
  0
VERTEX
  5
9DBE3
100
AcDbEntity
  8
0
100
AcDbVertex
100
AcDbPolygonMeshVertex
 10
-1.331
 20
-8.13
 30
0.577
 70
    64
  0
VERTEX
  5
9DBE4
100
AcDbEntity
  8
0
100
AcDbVertex
100
AcDbPolygonMeshVertex
 10
-0.831
 20
-7.7
 30
0.887
 70
    64
  0
VERTEX
  5
9DBE5
100
AcDbEntity
  8
0
100
AcDbVertex
100
AcDbPolygonMeshVertex
 10
-0.831
 20
-7.7
 30
0.577
 70
    64
  0
VERTEX
  5
9DBE6
100
AcDbEntity
  8
0
100
AcDbVertex
100
AcDbPolygonMeshVertex
 10
-0.831
 20
-8.13
 30
0.577
 70
    64
  0
VERTEX
  5
9DBE7
100
AcDbEntity
  8
0
100
AcDbVertex
100
AcDbPolygonMeshVertex
 10
-0.831
 20
-7.7
 30
0.887
 70
    64
  0
VERTEX
  5
9DBE8
100
AcDbEntity
  8
0
100
AcDbVertex
100
AcDbPolygonMeshVertex
 10
-0.831
 20
-7.7
 30
0.887
 70
    64
  0
VERTEX
  5
9DBE9
100
AcDbEntity
  8
0
100
AcDbVertex
100
AcDbPolygonMeshVertex
 10
-0.831
 20
-8.13
 30
0.887
 70
    64
  0
VERTEX
  5
9DBEA
100
AcDbEntity
  8
0
100
AcDbVertex
100
AcDbPolygonMeshVertex
 10
-1.331
 20
-7.7
 30
0.887
 70
    64
  0
VERTEX
  5
9DBEB
100
AcDbEntity
  8
0
100
AcDbVertex
100
AcDbPolygonMeshVertex
 10
-1.331
 20
-7.7
 30
0.887
 70
    64
  0
VERTEX
  5
9DBEC
100
AcDbEntity
  8
0
100
AcDbVertex
100
AcDbPolygonMeshVertex
 10
-1.331
 20
-8.13
 30
0.887
 70
    64
  0
SEQEND
  5
9DBED
100
AcDbEntity
  8
0
  0
POLYLINE
  5
9DBEE
100
AcDbEntity
  8
0
100
AcDbPolygonMesh
 66
     1
 10
0.0
 20
0.0
 30
0.0
 70
    16
 71
     6
 72
     3
  0
VERTEX
  5
9DBEF
100
AcDbEntity
  8
0
100
AcDbVertex
100
AcDbPolygonMeshVertex
 10
-3.378
 20
-7.7
 30
3.087
 70
    64
  0
VERTEX
  5
9DBF0
100
AcDbEntity
  8
0
100
AcDbVertex
100
AcDbPolygonMeshVertex
 10
-3.378
 20
-7.7
 30
3.087
 70
    64
  0
VERTEX
  5
9DBF1
100
AcDbEntity
  8
0
100
AcDbVertex
100
AcDbPolygonMeshVertex
 10
-3.378
 20
-7.7
 30
3.087
 70
    64
  0
VERTEX
  5
9DBF2
100
AcDbEntity
  8
0
100
AcDbVertex
100
AcDbPolygonMeshVertex
 10
-3.378
 20
-7.29
 30
3.237
 70
    64
  0
VERTEX
  5
9DBF3
100
AcDbEntity
  8
0
100
AcDbVertex
100
AcDbPolygonMeshVertex
 10
-3.378
 20
-7.29
 30
3.087
 70
    64
  0
VERTEX
  5
9DBF4
100
AcDbEntity
  8
0
100
AcDbVertex
100
AcDbPolygonMeshVertex
 10
-3.378
 20
-7.29
 30
3.087
 70
    64
  0
VERTEX
  5
9DBF5
100
AcDbEntity
  8
0
100
AcDbVertex
100
AcDbPolygonMeshVertex
 10
-0.018
 20
-7.29
 30
3.237
 70
    64
  0
VERTEX
  5
9DBF6
100
AcDbEntity
  8
0
100
AcDbVertex
100
AcDbPolygonMeshVertex
 10
-0.018
 20
-7.29
 30
3.087
 70
    64
  0
VERTEX
  5
9DBF7
100
AcDbEntity
  8
0
100
AcDbVertex
100
AcDbPolygonMeshVertex
 10
-3.378
 20
-7.29
 30
3.087
 70
    64
  0
VERTEX
  5
9DBF8
100
AcDbEntity
  8
0
100
AcDbVertex
100
AcDbPolygonMeshVertex
 10
-0.018
 20
-7.7
 30
3.087
 70
    64
  0
VERTEX
  5
9DBF9
100
AcDbEntity
  8
0
100
AcDbVertex
100
AcDbPolygonMeshVertex
 10
-0.018
 20
-7.7
 30
3.087
 70
    64
  0
VERTEX
  5
9DBFA
100
AcDbEntity
  8
0
100
AcDbVertex
100
AcDbPolygonMeshVertex
 10
-3.378
 20
-7.7
 30
3.087
 70
    64
  0
VERTEX
  5
9DBFB
100
AcDbEntity
  8
0
100
AcDbVertex
100
AcDbPolygonMeshVertex
 10
-0.018
 20
-7.7
 30
3.087
 70
    64
  0
VERTEX
  5
9DBFC
100
AcDbEntity
  8
0
100
AcDbVertex
100
AcDbPolygonMeshVertex
 10
-0.018
 20
-7.7
 30
3.087
 70
    64
  0
VERTEX
  5
9DBFD
100
AcDbEntity
  8
0
100
AcDbVertex
100
AcDbPolygonMeshVertex
 10
-3.378
 20
-7.7
 30
3.087
 70
    64
  0
VERTEX
  5
9DBFE
100
AcDbEntity
  8
0
100
AcDbVertex
100
AcDbPolygonMeshVertex
 10
-0.018
 20
-7.29
 30
3.237
 70
    64
  0
VERTEX
  5
9DBFF
100
AcDbEntity
  8
0
100
AcDbVertex
100
AcDbPolygonMeshVertex
 10
-0.018
 20
-7.29
 30
3.237
 70
    64
  0
VERTEX
  5
9DC00
100
AcDbEntity
  8
0
100
AcDbVertex
100
AcDbPolygonMeshVertex
 10
-3.378
 20
-7.29
 30
3.237
 70
    64
  0
SEQEND
  5
9DC01
100
AcDbEntity
  8
0
  0
POLYLINE
  5
9DC02
100
AcDbEntity
  8
0
100
AcDbPolygonMesh
 66
     1
 10
0.0
 20
0.0
 30
0.0
 70
    16
 71
     6
 72
     3
  0
VERTEX
  5
9DC03
100
AcDbEntity
  8
0
100
AcDbVertex
100
AcDbPolygonMeshVertex
 10
-0.018
 20
-7.29
 30
4.027
 70
    64
  0
VERTEX
  5
9DC04
100
AcDbEntity
  8
0
100
AcDbVertex
100
AcDbPolygonMeshVertex
 10
-0.018
 20
-7.29
 30
0.577
 70
    64
  0
VERTEX
  5
9DC05
100
AcDbEntity
  8
0
100
AcDbVertex
100
AcDbPolygonMeshVertex
 10
-0.018
 20
-7.29
 30
0.577
 70
    64
  0
VERTEX
  5
9DC06
100
AcDbEntity
  8
0
100
AcDbVertex
100
AcDbPolygonMeshVertex
 10
-3.378
 20
-7.29
 30
4.027
 70
    64
  0
VERTEX
  5
9DC07
100
AcDbEntity
  8
0
100
AcDbVertex
100
AcDbPolygonMeshVertex
 10
-3.378
 20
-7.29
 30
0.577
 70
    64
  0
VERTEX
  5
9DC08
100
AcDbEntity
  8
0
100
AcDbVertex
100
AcDbPolygonMeshVertex
 10
-3.378
 20
-7.29
 30
0.577
 70
    64
  0
VERTEX
  5
9DC09
100
AcDbEntity
  8
0
100
AcDbVertex
100
AcDbPolygonMeshVertex
 10
-3.378
 20
-5.88
 30
4.027
 70
    64
  0
VERTEX
  5
9DC0A
100
AcDbEntity
  8
0
100
AcDbVertex
100
AcDbPolygonMeshVertex
 10
-3.378
 20
-5.88
 30
0.577
 70
    64
  0
VERTEX
  5
9DC0B
100
AcDbEntity
  8
0
100
AcDbVertex
100
AcDbPolygonMeshVertex
 10
-3.378
 20
-7.29
 30
0.577
 70
    64
  0
VERTEX
  5
9DC0C
100
AcDbEntity
  8
0
100
AcDbVertex
100
AcDbPolygonMeshVertex
 10
-0.018
 20
-5.88
 30
4.027
 70
    64
  0
VERTEX
  5
9DC0D
100
AcDbEntity
  8
0
100
AcDbVertex
100
AcDbPolygonMeshVertex
 10
-0.018
 20
-5.88
 30
0.577
 70
    64
  0
VERTEX
  5
9DC0E
100
AcDbEntity
  8
0
100
AcDbVertex
100
AcDbPolygonMeshVertex
 10
-0.018
 20
-7.29
 30
0.577
 70
    64
  0
VERTEX
  5
9DC0F
100
AcDbEntity
  8
0
100
AcDbVertex
100
AcDbPolygonMeshVertex
 10
-0.018
 20
-5.88
 30
4.027
 70
    64
  0
VERTEX
  5
9DC10
100
AcDbEntity
  8
0
100
AcDbVertex
100
AcDbPolygonMeshVertex
 10
-0.018
 20
-5.88
 30
4.027
 70
    64
  0
VERTEX
  5
9DC11
100
AcDbEntity
  8
0
100
AcDbVertex
100
AcDbPolygonMeshVertex
 10
-0.018
 20
-7.29
 30
4.027
 70
    64
  0
VERTEX
  5
9DC12
100
AcDbEntity
  8
0
100
AcDbVertex
100
AcDbPolygonMeshVertex
 10
-3.378
 20
-5.88
 30
4.027
 70
    64
  0
VERTEX
  5
9DC13
100
AcDbEntity
  8
0
100
AcDbVertex
100
AcDbPolygonMeshVertex
 10
-3.378
 20
-5.88
 30
4.027
 70
    64
  0
VERTEX
  5
9DC14
100
AcDbEntity
  8
0
100
AcDbVertex
100
AcDbPolygonMeshVertex
 10
-3.378
 20
-7.29
 30
4.027
 70
    64
  0
SEQEND
  5
9DC15
100
AcDbEntity
  8
0
  0
LINE
  5
9DC16
100
AcDbEntity
  8
0
100
AcDbLine
 10
-2.277326
 20
-3.915015
 30
4.857
 11
-2.16271
 21
-4.065138
 31
4.857
  0
LINE
  5
9DC17
100
AcDbEntity
  8
0
100
AcDbLine
 10
-2.293515
 20
-3.931205
 30
4.857
 11
-2.178899
 21
-4.081327
 31
4.857
  0
CIRCLE
  5
9DC18
100
AcDbEntity
  8
0
100
AcDbCircle
 10
-2.228
 20
-4.0
 30
4.857
 40
0.095
  0
LINE
  5
9DC19
100
AcDbEntity
  8
0
100
AcDbLine
 10
-2.853035
 20
-1.488318
 30
1.867
 11
-2.621784
 21
-1.191115
 31
1.867
  0
LINE
  5
9DC1A
100
AcDbEntity
  8
0
100
AcDbLine
 10
-2.893722
 20
-1.457964
 30
1.867
 11
-2.662471
 21
-1.160762
 31
1.867
  0
CIRCLE
  5
9DC1B
100
AcDbEntity
  8
0
100
AcDbCircle
 10
-2.758
 20
-1.325
 30
1.867
 40
0.19
  0
LINE
  5
9DC1C
100
AcDbEntity
  8
0
100
AcDbLine
 10
-1.217326
 20
-3.915015
 30
4.857
 11
-1.10271
 21
-4.065138
 31
4.857
  0
LINE
  5
9DC1D
100
AcDbEntity
  8
0
100
AcDbLine
 10
-1.233515
 20
-3.931205
 30
4.857
 11
-1.1189
 21
-4.081327
 31
4.857
  0
CIRCLE
  5
9DC1E
100
AcDbEntity
  8
0
100
AcDbCircle
 10
-1.168
 20
-4.0
 30
4.857
 40
0.095
  0
LINE
  5
9DC1F
100
AcDbEntity
  8
0
100
AcDbLine
 10
-0.733035
 20
-2.018318
 30
4.667
 11
-0.501784
 21
-1.721115
 31
4.667
  0
LINE
  5
9DC20
100
AcDbEntity
  8
0
100
AcDbLine
 10
-0.773722
 20
-1.987964
 30
4.667
 11
-0.542471
 21
-1.690762
 31
4.667
  0
CIRCLE
  5
9DC21
100
AcDbEntity
  8
0
100
AcDbCircle
 10
-0.638
 20
-1.855
 30
4.667
 40
0.19
  0
POLYLINE
  5
9DC22
100
AcDbEntity
  8
0
100
AcDbPolygonMesh
 66
     1
 10
0.0
 20
0.0
 30
0.0
 70
    16
 71
     6
 72
     3
  0
VERTEX
  5
9DC23
100
AcDbEntity
  8
0
100
AcDbVertex
100
AcDbPolygonMeshVertex
 10
-0.758
 20
-4.53
 30
4.387
 70
    64
  0
VERTEX
  5
9DC24
100
AcDbEntity
  8
0
100
AcDbVertex
100
AcDbPolygonMeshVertex
 10
-0.758
 20
-4.53
 30
4.017
 70
    64
  0
VERTEX
  5
9DC25
100
AcDbEntity
  8
0
100
AcDbVertex
100
AcDbPolygonMeshVertex
 10
-0.758
 20
-4.53
 30
4.017
 70
    64
  0
VERTEX
  5
9DC26
100
AcDbEntity
  8
0
100
AcDbVertex
100
AcDbPolygonMeshVertex
 10
-2.638
 20
-4.53
 30
4.387
 70
    64
  0
VERTEX
  5
9DC27
100
AcDbEntity
  8
0
100
AcDbVertex
100
AcDbPolygonMeshVertex
 10
-2.638
 20
-4.53
 30
4.017
 70
    64
  0
VERTEX
  5
9DC28
100
AcDbEntity
  8
0
100
AcDbVertex
100
AcDbPolygonMeshVertex
 10
-2.638
 20
-4.53
 30
4.017
 70
    64
  0
VERTEX
  5
9DC29
100
AcDbEntity
  8
0
100
AcDbVertex
100
AcDbPolygonMeshVertex
 10
-2.638
 20
-3.69
 30
4.387
 70
    64
  0
VERTEX
  5
9DC2A
100
AcDbEntity
  8
0
100
AcDbVertex
100
AcDbPolygonMeshVertex
 10
-2.638
 20
-3.69
 30
4.017
 70
    64
  0
VERTEX
  5
9DC2B
100
AcDbEntity
  8
0
100
AcDbVertex
100
AcDbPolygonMeshVertex
 10
-2.638
 20
-4.53
 30
4.017
 70
    64
  0
VERTEX
  5
9DC2C
100
AcDbEntity
  8
0
100
AcDbVertex
100
AcDbPolygonMeshVertex
 10
-0.758
 20
-3.69
 30
4.387
 70
    64
  0
VERTEX
  5
9DC2D
100
AcDbEntity
  8
0
100
AcDbVertex
100
AcDbPolygonMeshVertex
 10
-0.758
 20
-3.69
 30
4.017
 70
    64
  0
VERTEX
  5
9DC2E
100
AcDbEntity
  8
0
100
AcDbVertex
100
AcDbPolygonMeshVertex
 10
-0.758
 20
-4.53
 30
4.017
 70
    64
  0
VERTEX
  5
9DC2F
100
AcDbEntity
  8
0
100
AcDbVertex
100
AcDbPolygonMeshVertex
 10
-0.758
 20
-3.69
 30
4.387
 70
    64
  0
VERTEX
  5
9DC30
100
AcDbEntity
  8
0
100
AcDbVertex
100
AcDbPolygonMeshVertex
 10
-0.758
 20
-3.69
 30
4.387
 70
    64
  0
VERTEX
  5
9DC31
100
AcDbEntity
  8
0
100
AcDbVertex
100
AcDbPolygonMeshVertex
 10
-0.758
 20
-4.53
 30
4.387
 70
    64
  0
VERTEX
  5
9DC32
100
AcDbEntity
  8
0
100
AcDbVertex
100
AcDbPolygonMeshVertex
 10
-2.638
 20
-3.69
 30
4.387
 70
    64
  0
VERTEX
  5
9DC33
100
AcDbEntity
  8
0
100
AcDbVertex
100
AcDbPolygonMeshVertex
 10
-2.638
 20
-3.69
 30
4.387
 70
    64
  0
VERTEX
  5
9DC34
100
AcDbEntity
  8
0
100
AcDbVertex
100
AcDbPolygonMeshVertex
 10
-2.638
 20
-4.53
 30
4.387
 70
    64
  0
SEQEND
  5
9DC35
100
AcDbEntity
  8
0
  0
POLYLINE
  5
9DC36
100
AcDbEntity
  8
0
100
AcDbPolygonMesh
 66
     1
 10
0.0
 20
0.0
 30
0.0
 70
    16
 71
     6
 72
     3
  0
VERTEX
  5
9DC37
100
AcDbEntity
  8
0
100
AcDbVertex
100
AcDbPolygonMeshVertex
 10
-0.948
 20
-4.13
 30
4.857
 70
    64
  0
VERTEX
  5
9DC38
100
AcDbEntity
  8
0
100
AcDbVertex
100
AcDbPolygonMeshVertex
 10
-0.948
 20
-4.13
 30
4.387
 70
    64
  0
VERTEX
  5
9DC39
100
AcDbEntity
  8
0
100
AcDbVertex
100
AcDbPolygonMeshVertex
 10
-0.948
 20
-4.13
 30
4.387
 70
    64
  0
VERTEX
  5
9DC3A
100
AcDbEntity
  8
0
100
AcDbVertex
100
AcDbPolygonMeshVertex
 10
-1.388
 20
-4.13
 30
4.857
 70
    64
  0
VERTEX
  5
9DC3B
100
AcDbEntity
  8
0
100
AcDbVertex
100
AcDbPolygonMeshVertex
 10
-1.388
 20
-4.13
 30
4.387
 70
    64
  0
VERTEX
  5
9DC3C
100
AcDbEntity
  8
0
100
AcDbVertex
100
AcDbPolygonMeshVertex
 10
-1.388
 20
-4.13
 30
4.387
 70
    64
  0
VERTEX
  5
9DC3D
100
AcDbEntity
  8
0
100
AcDbVertex
100
AcDbPolygonMeshVertex
 10
-1.388
 20
-3.75
 30
4.857
 70
    64
  0
VERTEX
  5
9DC3E
100
AcDbEntity
  8
0
100
AcDbVertex
100
AcDbPolygonMeshVertex
 10
-1.388
 20
-3.75
 30
4.387
 70
    64
  0
VERTEX
  5
9DC3F
100
AcDbEntity
  8
0
100
AcDbVertex
100
AcDbPolygonMeshVertex
 10
-1.388
 20
-4.13
 30
4.387
 70
    64
  0
VERTEX
  5
9DC40
100
AcDbEntity
  8
0
100
AcDbVertex
100
AcDbPolygonMeshVertex
 10
-0.948
 20
-3.75
 30
4.857
 70
    64
  0
VERTEX
  5
9DC41
100
AcDbEntity
  8
0
100
AcDbVertex
100
AcDbPolygonMeshVertex
 10
-0.948
 20
-3.75
 30
4.387
 70
    64
  0
VERTEX
  5
9DC42
100
AcDbEntity
  8
0
100
AcDbVertex
100
AcDbPolygonMeshVertex
 10
-0.948
 20
-4.13
 30
4.387
 70
    64
  0
VERTEX
  5
9DC43
100
AcDbEntity
  8
0
100
AcDbVertex
100
AcDbPolygonMeshVertex
 10
-0.948
 20
-3.75
 30
4.857
 70
    64
  0
VERTEX
  5
9DC44
100
AcDbEntity
  8
0
100
AcDbVertex
100
AcDbPolygonMeshVertex
 10
-0.948
 20
-3.75
 30
4.857
 70
    64
  0
VERTEX
  5
9DC45
100
AcDbEntity
  8
0
100
AcDbVertex
100
AcDbPolygonMeshVertex
 10
-0.948
 20
-4.13
 30
4.857
 70
    64
  0
VERTEX
  5
9DC46
100
AcDbEntity
  8
0
100
AcDbVertex
100
AcDbPolygonMeshVertex
 10
-1.388
 20
-3.75
 30
4.857
 70
    64
  0
VERTEX
  5
9DC47
100
AcDbEntity
  8
0
100
AcDbVertex
100
AcDbPolygonMeshVertex
 10
-1.388
 20
-3.75
 30
4.857
 70
    64
  0
VERTEX
  5
9DC48
100
AcDbEntity
  8
0
100
AcDbVertex
100
AcDbPolygonMeshVertex
 10
-1.388
 20
-4.13
 30
4.857
 70
    64
  0
SEQEND
  5
9DC49
100
AcDbEntity
  8
0
  0
POLYLINE
  5
9DC4A
100
AcDbEntity
  8
0
100
AcDbPolygonMesh
 66
     1
 10
0.0
 20
0.0
 30
0.0
 70
    16
 71
     6
 72
     3
  0
VERTEX
  5
9DC4B
100
AcDbEntity
  8
0
100
AcDbVertex
100
AcDbPolygonMeshVertex
 10
-2.008
 20
-4.13
 30
4.857
 70
    64
  0
VERTEX
  5
9DC4C
100
AcDbEntity
  8
0
100
AcDbVertex
100
AcDbPolygonMeshVertex
 10
-2.008
 20
-4.13
 30
4.387
 70
    64
  0
VERTEX
  5
9DC4D
100
AcDbEntity
  8
0
100
AcDbVertex
100
AcDbPolygonMeshVertex
 10
-2.008
 20
-4.13
 30
4.387
 70
    64
  0
VERTEX
  5
9DC4E
100
AcDbEntity
  8
0
100
AcDbVertex
100
AcDbPolygonMeshVertex
 10
-2.448
 20
-4.13
 30
4.857
 70
    64
  0
VERTEX
  5
9DC4F
100
AcDbEntity
  8
0
100
AcDbVertex
100
AcDbPolygonMeshVertex
 10
-2.448
 20
-4.13
 30
4.387
 70
    64
  0
VERTEX
  5
9DC50
100
AcDbEntity
  8
0
100
AcDbVertex
100
AcDbPolygonMeshVertex
 10
-2.448
 20
-4.13
 30
4.387
 70
    64
  0
VERTEX
  5
9DC51
100
AcDbEntity
  8
0
100
AcDbVertex
100
AcDbPolygonMeshVertex
 10
-2.448
 20
-3.75
 30
4.857
 70
    64
  0
VERTEX
  5
9DC52
100
AcDbEntity
  8
0
100
AcDbVertex
100
AcDbPolygonMeshVertex
 10
-2.448
 20
-3.75
 30
4.387
 70
    64
  0
VERTEX
  5
9DC53
100
AcDbEntity
  8
0
100
AcDbVertex
100
AcDbPolygonMeshVertex
 10
-2.448
 20
-4.13
 30
4.387
 70
    64
  0
VERTEX
  5
9DC54
100
AcDbEntity
  8
0
100
AcDbVertex
100
AcDbPolygonMeshVertex
 10
-2.008
 20
-3.75
 30
4.857
 70
    64
  0
VERTEX
  5
9DC55
100
AcDbEntity
  8
0
100
AcDbVertex
100
AcDbPolygonMeshVertex
 10
-2.008
 20
-3.75
 30
4.387
 70
    64
  0
VERTEX
  5
9DC56
100
AcDbEntity
  8
0
100
AcDbVertex
100
AcDbPolygonMeshVertex
 10
-2.008
 20
-4.13
 30
4.387
 70
    64
  0
VERTEX
  5
9DC57
100
AcDbEntity
  8
0
100
AcDbVertex
100
AcDbPolygonMeshVertex
 10
-2.008
 20
-3.75
 30
4.857
 70
    64
  0
VERTEX
  5
9DC58
100
AcDbEntity
  8
0
100
AcDbVertex
100
AcDbPolygonMeshVertex
 10
-2.008
 20
-3.75
 30
4.857
 70
    64
  0
VERTEX
  5
9DC59
100
AcDbEntity
  8
0
100
AcDbVertex
100
AcDbPolygonMeshVertex
 10
-2.008
 20
-4.13
 30
4.857
 70
    64
  0
VERTEX
  5
9DC5A
100
AcDbEntity
  8
0
100
AcDbVertex
100
AcDbPolygonMeshVertex
 10
-2.448
 20
-3.75
 30
4.857
 70
    64
  0
VERTEX
  5
9DC5B
100
AcDbEntity
  8
0
100
AcDbVertex
100
AcDbPolygonMeshVertex
 10
-2.448
 20
-3.75
 30
4.857
 70
    64
  0
VERTEX
  5
9DC5C
100
AcDbEntity
  8
0
100
AcDbVertex
100
AcDbPolygonMeshVertex
 10
-2.448
 20
-4.13
 30
4.857
 70
    64
  0
SEQEND
  5
9DC5D
100
AcDbEntity
  8
0
  0
LINE
  5
9DC5E
100
AcDbEntity
  8
0
100
AcDbLine
 10
-3.378
 20
-2.24
 30
4.017
 11
-3.378
 21
-2.24
 31
0.577
  0
POLYLINE
  5
9DC5F
100
AcDbEntity
  8
0
100
AcDbPolygonMesh
 66
     1
 10
0.0
 20
0.0
 30
0.0
 70
    16
 71
     6
 72
     3
  0
VERTEX
  5
9DC60
100
AcDbEntity
  8
0
100
AcDbVertex
100
AcDbPolygonMeshVertex
 10
-0.018
 20
-5.63
 30
4.017
 70
    64
  0
VERTEX
  5
9DC61
100
AcDbEntity
  8
0
100
AcDbVertex
100
AcDbPolygonMeshVertex
 10
-0.018
 20
-5.63
 30
0.577
 70
    64
  0
VERTEX
  5
9DC62
100
AcDbEntity
  8
0
100
AcDbVertex
100
AcDbPolygonMeshVertex
 10
-0.018
 20
-5.63
 30
0.577
 70
    64
  0
VERTEX
  5
9DC63
100
AcDbEntity
  8
0
100
AcDbVertex
100
AcDbPolygonMeshVertex
 10
-3.378
 20
-5.63
 30
4.017
 70
    64
  0
VERTEX
  5
9DC64
100
AcDbEntity
  8
0
100
AcDbVertex
100
AcDbPolygonMeshVertex
 10
-3.378
 20
-5.63
 30
0.577
 70
    64
  0
VERTEX
  5
9DC65
100
AcDbEntity
  8
0
100
AcDbVertex
100
AcDbPolygonMeshVertex
 10
-3.378
 20
-5.63
 30
0.577
 70
    64
  0
VERTEX
  5
9DC66
100
AcDbEntity
  8
0
100
AcDbVertex
100
AcDbPolygonMeshVertex
 10
-3.378
 20
-2.24
 30
4.017
 70
    64
  0
VERTEX
  5
9DC67
100
AcDbEntity
  8
0
100
AcDbVertex
100
AcDbPolygonMeshVertex
 10
-3.378
 20
-2.24
 30
0.577
 70
    64
  0
VERTEX
  5
9DC68
100
AcDbEntity
  8
0
100
AcDbVertex
100
AcDbPolygonMeshVertex
 10
-3.378
 20
-5.63
 30
0.577
 70
    64
  0
VERTEX
  5
9DC69
100
AcDbEntity
  8
0
100
AcDbVertex
100
AcDbPolygonMeshVertex
 10
-0.018
 20
-2.24
 30
4.017
 70
    64
  0
VERTEX
  5
9DC6A
100
AcDbEntity
  8
0
100
AcDbVertex
100
AcDbPolygonMeshVertex
 10
-0.018
 20
-2.24
 30
0.577
 70
    64
  0
VERTEX
  5
9DC6B
100
AcDbEntity
  8
0
100
AcDbVertex
100
AcDbPolygonMeshVertex
 10
-0.018
 20
-5.63
 30
0.577
 70
    64
  0
VERTEX
  5
9DC6C
100
AcDbEntity
  8
0
100
AcDbVertex
100
AcDbPolygonMeshVertex
 10
-0.018
 20
-2.24
 30
4.017
 70
    64
  0
VERTEX
  5
9DC6D
100
AcDbEntity
  8
0
100
AcDbVertex
100
AcDbPolygonMeshVertex
 10
-0.018
 20
-2.24
 30
4.017
 70
    64
  0
VERTEX
  5
9DC6E
100
AcDbEntity
  8
0
100
AcDbVertex
100
AcDbPolygonMeshVertex
 10
-0.018
 20
-5.63
 30
4.017
 70
    64
  0
VERTEX
  5
9DC6F
100
AcDbEntity
  8
0
100
AcDbVertex
100
AcDbPolygonMeshVertex
 10
-3.378
 20
-2.24
 30
4.017
 70
    64
  0
VERTEX
  5
9DC70
100
AcDbEntity
  8
0
100
AcDbVertex
100
AcDbPolygonMeshVertex
 10
-3.378
 20
-2.24
 30
4.017
 70
    64
  0
VERTEX
  5
9DC71
100
AcDbEntity
  8
0
100
AcDbVertex
100
AcDbPolygonMeshVertex
 10
-3.378
 20
-5.63
 30
4.017
 70
    64
  0
SEQEND
  5
9DC72
100
AcDbEntity
  8
0
  0
POLYLINE
  5
9DC73
100
AcDbEntity
  8
0
100
AcDbPolygonMesh
 66
     1
 10
0.0
 20
0.0
 30
0.0
 70
    16
 71
     6
 72
     3
  0
VERTEX
  5
9DC74
100
AcDbEntity
  8
0
100
AcDbVertex
100
AcDbPolygonMeshVertex
 10
-0.018
 20
-5.88
 30
3.237
 70
    64
  0
VERTEX
  5
9DC75
100
AcDbEntity
  8
0
100
AcDbVertex
100
AcDbPolygonMeshVertex
 10
-0.018
 20
-5.88
 30
2.007
 70
    64
  0
VERTEX
  5
9DC76
100
AcDbEntity
  8
0
100
AcDbVertex
100
AcDbPolygonMeshVertex
 10
-0.018
 20
-5.88
 30
2.007
 70
    64
  0
VERTEX
  5
9DC77
100
AcDbEntity
  8
0
100
AcDbVertex
100
AcDbPolygonMeshVertex
 10
-3.378
 20
-5.88
 30
3.237
 70
    64
  0
VERTEX
  5
9DC78
100
AcDbEntity
  8
0
100
AcDbVertex
100
AcDbPolygonMeshVertex
 10
-3.378
 20
-5.88
 30
2.007
 70
    64
  0
VERTEX
  5
9DC79
100
AcDbEntity
  8
0
100
AcDbVertex
100
AcDbPolygonMeshVertex
 10
-3.378
 20
-5.88
 30
2.007
 70
    64
  0
VERTEX
  5
9DC7A
100
AcDbEntity
  8
0
100
AcDbVertex
100
AcDbPolygonMeshVertex
 10
-3.378
 20
-5.63
 30
3.237
 70
    64
  0
VERTEX
  5
9DC7B
100
AcDbEntity
  8
0
100
AcDbVertex
100
AcDbPolygonMeshVertex
 10
-3.378
 20
-5.63
 30
2.007
 70
    64
  0
VERTEX
  5
9DC7C
100
AcDbEntity
  8
0
100
AcDbVertex
100
AcDbPolygonMeshVertex
 10
-3.378
 20
-5.88
 30
2.007
 70
    64
  0
VERTEX
  5
9DC7D
100
AcDbEntity
  8
0
100
AcDbVertex
100
AcDbPolygonMeshVertex
 10
-0.018
 20
-5.63
 30
3.237
 70
    64
  0
VERTEX
  5
9DC7E
100
AcDbEntity
  8
0
100
AcDbVertex
100
AcDbPolygonMeshVertex
 10
-0.018
 20
-5.63
 30
2.007
 70
    64
  0
VERTEX
  5
9DC7F
100
AcDbEntity
  8
0
100
AcDbVertex
100
AcDbPolygonMeshVertex
 10
-0.018
 20
-5.88
 30
2.007
 70
    64
  0
VERTEX
  5
9DC80
100
AcDbEntity
  8
0
100
AcDbVertex
100
AcDbPolygonMeshVertex
 10
-0.018
 20
-5.63
 30
3.237
 70
    64
  0
VERTEX
  5
9DC81
100
AcDbEntity
  8
0
100
AcDbVertex
100
AcDbPolygonMeshVertex
 10
-0.018
 20
-5.63
 30
3.237
 70
    64
  0
VERTEX
  5
9DC82
100
AcDbEntity
  8
0
100
AcDbVertex
100
AcDbPolygonMeshVertex
 10
-0.018
 20
-5.88
 30
3.237
 70
    64
  0
VERTEX
  5
9DC83
100
AcDbEntity
  8
0
100
AcDbVertex
100
AcDbPolygonMeshVertex
 10
-3.378
 20
-5.63
 30
3.237
 70
    64
  0
VERTEX
  5
9DC84
100
AcDbEntity
  8
0
100
AcDbVertex
100
AcDbPolygonMeshVertex
 10
-3.378
 20
-5.63
 30
3.237
 70
    64
  0
VERTEX
  5
9DC85
100
AcDbEntity
  8
0
100
AcDbVertex
100
AcDbPolygonMeshVertex
 10
-3.378
 20
-5.88
 30
3.237
 70
    64
  0
SEQEND
  5
9DC86
100
AcDbEntity
  8
0
  0
POLYLINE
  5
9DC87
100
AcDbEntity
  8
0
100
AcDbPolygonMesh
 66
     1
 10
0.0
 20
0.0
 30
0.0
 70
    16
 71
     6
 72
     3
  0
VERTEX
  5
9DC88
100
AcDbEntity
  8
0
100
AcDbVertex
100
AcDbPolygonMeshVertex
 10
-3.378
 20
-5.63
 30
0.577
 70
    64
  0
VERTEX
  5
9DC89
100
AcDbEntity
  8
0
100
AcDbVertex
100
AcDbPolygonMeshVertex
 10
-3.378
 20
-5.63
 30
0.577
 70
    64
  0
VERTEX
  5
9DC8A
100
AcDbEntity
  8
0
100
AcDbVertex
100
AcDbPolygonMeshVertex
 10
-3.378
 20
-5.63
 30
0.577
 70
    64
  0
VERTEX
  5
9DC8B
100
AcDbEntity
  8
0
100
AcDbVertex
100
AcDbPolygonMeshVertex
 10
-3.378
 20
-5.88
 30
2.007
 70
    64
  0
VERTEX
  5
9DC8C
100
AcDbEntity
  8
0
100
AcDbVertex
100
AcDbPolygonMeshVertex
 10
-3.378
 20
-5.63
 30
2.007
 70
    64
  0
VERTEX
  5
9DC8D
100
AcDbEntity
  8
0
100
AcDbVertex
100
AcDbPolygonMeshVertex
 10
-3.378
 20
-5.63
 30
2.007
 70
    64
  0
VERTEX
  5
9DC8E
100
AcDbEntity
  8
0
100
AcDbVertex
100
AcDbPolygonMeshVertex
 10
-0.018
 20
-5.88
 30
2.007
 70
    64
  0
VERTEX
  5
9DC8F
100
AcDbEntity
  8
0
100
AcDbVertex
100
AcDbPolygonMeshVertex
 10
-0.018
 20
-5.63
 30
2.007
 70
    64
  0
VERTEX
  5
9DC90
100
AcDbEntity
  8
0
100
AcDbVertex
100
AcDbPolygonMeshVertex
 10
-3.378
 20
-5.63
 30
2.007
 70
    64
  0
VERTEX
  5
9DC91
100
AcDbEntity
  8
0
100
AcDbVertex
100
AcDbPolygonMeshVertex
 10
-0.018
 20
-5.63
 30
0.577
 70
    64
  0
VERTEX
  5
9DC92
100
AcDbEntity
  8
0
100
AcDbVertex
100
AcDbPolygonMeshVertex
 10
-0.018
 20
-5.63
 30
0.577
 70
    64
  0
VERTEX
  5
9DC93
100
AcDbEntity
  8
0
100
AcDbVertex
100
AcDbPolygonMeshVertex
 10
-3.378
 20
-5.63
 30
0.577
 70
    64
  0
VERTEX
  5
9DC94
100
AcDbEntity
  8
0
100
AcDbVertex
100
AcDbPolygonMeshVertex
 10
-0.018
 20
-5.63
 30
0.577
 70
    64
  0
VERTEX
  5
9DC95
100
AcDbEntity
  8
0
100
AcDbVertex
100
AcDbPolygonMeshVertex
 10
-0.018
 20
-5.63
 30
0.577
 70
    64
  0
VERTEX
  5
9DC96
100
AcDbEntity
  8
0
100
AcDbVertex
100
AcDbPolygonMeshVertex
 10
-3.378
 20
-5.63
 30
0.577
 70
    64
  0
VERTEX
  5
9DC97
100
AcDbEntity
  8
0
100
AcDbVertex
100
AcDbPolygonMeshVertex
 10
-0.018
 20
-5.88
 30
2.007
 70
    64
  0
VERTEX
  5
9DC98
100
AcDbEntity
  8
0
100
AcDbVertex
100
AcDbPolygonMeshVertex
 10
-0.018
 20
-5.88
 30
2.007
 70
    64
  0
VERTEX
  5
9DC99
100
AcDbEntity
  8
0
100
AcDbVertex
100
AcDbPolygonMeshVertex
 10
-3.378
 20
-5.88
 30
2.007
 70
    64
  0
SEQEND
  5
9DC9A
100
AcDbEntity
  8
0
  0
POLYLINE
  5
9DC9B
100
AcDbEntity
  8
0
100
AcDbPolygonMesh
 66
     1
 10
0.0
 20
0.0
 30
0.0
 70
    16
 71
     6
 72
     3
  0
VERTEX
  5
9DC9C
100
AcDbEntity
  8
0
100
AcDbVertex
100
AcDbPolygonMeshVertex
 10
-0.018
 20
-2.24
 30
4.477
 70
    64
  0
VERTEX
  5
9DC9D
100
AcDbEntity
  8
0
100
AcDbVertex
100
AcDbPolygonMeshVertex
 10
-0.018
 20
-2.24
 30
0.577
 70
    64
  0
VERTEX
  5
9DC9E
100
AcDbEntity
  8
0
100
AcDbVertex
100
AcDbPolygonMeshVertex
 10
-0.018
 20
-2.24
 30
0.577
 70
    64
  0
VERTEX
  5
9DC9F
100
AcDbEntity
  8
0
100
AcDbVertex
100
AcDbPolygonMeshVertex
 10
-3.378
 20
-2.24
 30
4.477
 70
    64
  0
VERTEX
  5
9DCA0
100
AcDbEntity
  8
0
100
AcDbVertex
100
AcDbPolygonMeshVertex
 10
-3.378
 20
-2.24
 30
0.577
 70
    64
  0
VERTEX
  5
9DCA1
100
AcDbEntity
  8
0
100
AcDbVertex
100
AcDbPolygonMeshVertex
 10
-3.378
 20
-2.24
 30
0.577
 70
    64
  0
VERTEX
  5
9DCA2
100
AcDbEntity
  8
0
100
AcDbVertex
100
AcDbPolygonMeshVertex
 10
-3.378
 20
-1.56
 30
4.477
 70
    64
  0
VERTEX
  5
9DCA3
100
AcDbEntity
  8
0
100
AcDbVertex
100
AcDbPolygonMeshVertex
 10
-3.378
 20
-1.56
 30
0.577
 70
    64
  0
VERTEX
  5
9DCA4
100
AcDbEntity
  8
0
100
AcDbVertex
100
AcDbPolygonMeshVertex
 10
-3.378
 20
-2.24
 30
0.577
 70
    64
  0
VERTEX
  5
9DCA5
100
AcDbEntity
  8
0
100
AcDbVertex
100
AcDbPolygonMeshVertex
 10
-0.018
 20
-1.56
 30
4.477
 70
    64
  0
VERTEX
  5
9DCA6
100
AcDbEntity
  8
0
100
AcDbVertex
100
AcDbPolygonMeshVertex
 10
-0.018
 20
-1.56
 30
0.577
 70
    64
  0
VERTEX
  5
9DCA7
100
AcDbEntity
  8
0
100
AcDbVertex
100
AcDbPolygonMeshVertex
 10
-0.018
 20
-2.24
 30
0.577
 70
    64
  0
VERTEX
  5
9DCA8
100
AcDbEntity
  8
0
100
AcDbVertex
100
AcDbPolygonMeshVertex
 10
-0.018
 20
-1.56
 30
4.477
 70
    64
  0
VERTEX
  5
9DCA9
100
AcDbEntity
  8
0
100
AcDbVertex
100
AcDbPolygonMeshVertex
 10
-0.018
 20
-1.56
 30
4.477
 70
    64
  0
VERTEX
  5
9DCAA
100
AcDbEntity
  8
0
100
AcDbVertex
100
AcDbPolygonMeshVertex
 10
-0.018
 20
-2.24
 30
4.477
 70
    64
  0
VERTEX
  5
9DCAB
100
AcDbEntity
  8
0
100
AcDbVertex
100
AcDbPolygonMeshVertex
 10
-3.378
 20
-1.56
 30
4.477
 70
    64
  0
VERTEX
  5
9DCAC
100
AcDbEntity
  8
0
100
AcDbVertex
100
AcDbPolygonMeshVertex
 10
-3.378
 20
-1.56
 30
4.477
 70
    64
  0
VERTEX
  5
9DCAD
100
AcDbEntity
  8
0
100
AcDbVertex
100
AcDbPolygonMeshVertex
 10
-3.378
 20
-2.24
 30
4.477
 70
    64
  0
SEQEND
  5
9DCAE
100
AcDbEntity
  8
0
  0
LINE
  5
9DCAF
100
AcDbEntity
  8
0
100
AcDbLine
 10
-1.078
 20
-1.56
 30
4.477
 11
-1.078
 21
-1.43
 31
4.477
  0
LINE
  5
9DCB0
100
AcDbEntity
  8
0
100
AcDbLine
 10
-1.078
 20
-1.43
 30
4.477
 11
-1.258
 21
-1.43
 31
4.477
  0
POLYLINE
  5
9DCB1
100
AcDbEntity
  8
0
100
AcDbPolygonMesh
 66
     1
 10
0.0
 20
0.0
 30
0.0
 70
    16
 71
     6
 72
     3
  0
VERTEX
  5
9DCB2
100
AcDbEntity
  8
0
100
AcDbVertex
100
AcDbPolygonMeshVertex
 10
-1.258
 20
-1.43
 30
4.857
 70
    64
  0
VERTEX
  5
9DCB3
100
AcDbEntity
  8
0
100
AcDbVertex
100
AcDbPolygonMeshVertex
 10
-1.258
 20
-1.43
 30
4.477
 70
    64
  0
VERTEX
  5
9DCB4
100
AcDbEntity
  8
0
100
AcDbVertex
100
AcDbPolygonMeshVertex
 10
-1.258
 20
-1.43
 30
4.477
 70
    64
  0
VERTEX
  5
9DCB5
100
AcDbEntity
  8
0
100
AcDbVertex
100
AcDbPolygonMeshVertex
 10
-1.078
 20
-1.43
 30
4.857
 70
    64
  0
VERTEX
  5
9DCB6
100
AcDbEntity
  8
0
100
AcDbVertex
100
AcDbPolygonMeshVertex
 10
-1.078
 20
-1.43
 30
4.477
 70
    64
  0
VERTEX
  5
9DCB7
100
AcDbEntity
  8
0
100
AcDbVertex
100
AcDbPolygonMeshVertex
 10
-1.078
 20
-1.43
 30
4.477
 70
    64
  0
VERTEX
  5
9DCB8
100
AcDbEntity
  8
0
100
AcDbVertex
100
AcDbPolygonMeshVertex
 10
-1.078
 20
-2.24
 30
4.857
 70
    64
  0
VERTEX
  5
9DCB9
100
AcDbEntity
  8
0
100
AcDbVertex
100
AcDbPolygonMeshVertex
 10
-1.078
 20
-2.24
 30
4.477
 70
    64
  0
VERTEX
  5
9DCBA
100
AcDbEntity
  8
0
100
AcDbVertex
100
AcDbPolygonMeshVertex
 10
-1.078
 20
-1.43
 30
4.477
 70
    64
  0
VERTEX
  5
9DCBB
100
AcDbEntity
  8
0
100
AcDbVertex
100
AcDbPolygonMeshVertex
 10
-1.258
 20
-2.24
 30
4.857
 70
    64
  0
VERTEX
  5
9DCBC
100
AcDbEntity
  8
0
100
AcDbVertex
100
AcDbPolygonMeshVertex
 10
-1.258
 20
-2.24
 30
4.477
 70
    64
  0
VERTEX
  5
9DCBD
100
AcDbEntity
  8
0
100
AcDbVertex
100
AcDbPolygonMeshVertex
 10
-1.258
 20
-1.43
 30
4.477
 70
    64
  0
VERTEX
  5
9DCBE
100
AcDbEntity
  8
0
100
AcDbVertex
100
AcDbPolygonMeshVertex
 10
-1.258
 20
-2.24
 30
4.857
 70
    64
  0
VERTEX
  5
9DCBF
100
AcDbEntity
  8
0
100
AcDbVertex
100
AcDbPolygonMeshVertex
 10
-1.258
 20
-2.24
 30
4.857
 70
    64
  0
VERTEX
  5
9DCC0
100
AcDbEntity
  8
0
100
AcDbVertex
100
AcDbPolygonMeshVertex
 10
-1.258
 20
-1.43
 30
4.857
 70
    64
  0
VERTEX
  5
9DCC1
100
AcDbEntity
  8
0
100
AcDbVertex
100
AcDbPolygonMeshVertex
 10
-1.078
 20
-2.24
 30
4.857
 70
    64
  0
VERTEX
  5
9DCC2
100
AcDbEntity
  8
0
100
AcDbVertex
100
AcDbPolygonMeshVertex
 10
-1.078
 20
-2.24
 30
4.857
 70
    64
  0
VERTEX
  5
9DCC3
100
AcDbEntity
  8
0
100
AcDbVertex
100
AcDbPolygonMeshVertex
 10
-1.078
 20
-1.43
 30
4.857
 70
    64
  0
SEQEND
  5
9DCC4
100
AcDbEntity
  8
0
  0
POLYLINE
  5
9DCC5
100
AcDbEntity
  8
0
100
AcDbPolygonMesh
 66
     1
 10
0.0
 20
0.0
 30
0.0
 70
    16
 71
     6
 72
     3
  0
VERTEX
  5
9DCC6
100
AcDbEntity
  8
0
100
AcDbVertex
100
AcDbPolygonMeshVertex
 10
-1.258
 20
-1.43
 30
4.477
 70
    64
  0
VERTEX
  5
9DCC7
100
AcDbEntity
  8
0
100
AcDbVertex
100
AcDbPolygonMeshVertex
 10
-1.258
 20
-1.43
 30
3.357
 70
    64
  0
VERTEX
  5
9DCC8
100
AcDbEntity
  8
0
100
AcDbVertex
100
AcDbPolygonMeshVertex
 10
-1.258
 20
-1.43
 30
3.357
 70
    64
  0
VERTEX
  5
9DCC9
100
AcDbEntity
  8
0
100
AcDbVertex
100
AcDbPolygonMeshVertex
 10
-1.078
 20
-1.43
 30
4.477
 70
    64
  0
VERTEX
  5
9DCCA
100
AcDbEntity
  8
0
100
AcDbVertex
100
AcDbPolygonMeshVertex
 10
-1.078
 20
-1.43
 30
3.357
 70
    64
  0
VERTEX
  5
9DCCB
100
AcDbEntity
  8
0
100
AcDbVertex
100
AcDbPolygonMeshVertex
 10
-1.078
 20
-1.43
 30
3.357
 70
    64
  0
VERTEX
  5
9DCCC
100
AcDbEntity
  8
0
100
AcDbVertex
100
AcDbPolygonMeshVertex
 10
-1.078
 20
-1.56
 30
4.477
 70
    64
  0
VERTEX
  5
9DCCD
100
AcDbEntity
  8
0
100
AcDbVertex
100
AcDbPolygonMeshVertex
 10
-1.078
 20
-1.56
 30
3.357
 70
    64
  0
VERTEX
  5
9DCCE
100
AcDbEntity
  8
0
100
AcDbVertex
100
AcDbPolygonMeshVertex
 10
-1.078
 20
-1.43
 30
3.357
 70
    64
  0
VERTEX
  5
9DCCF
100
AcDbEntity
  8
0
100
AcDbVertex
100
AcDbPolygonMeshVertex
 10
-1.258
 20
-1.56
 30
4.477
 70
    64
  0
VERTEX
  5
9DCD0
100
AcDbEntity
  8
0
100
AcDbVertex
100
AcDbPolygonMeshVertex
 10
-1.258
 20
-1.56
 30
3.357
 70
    64
  0
VERTEX
  5
9DCD1
100
AcDbEntity
  8
0
100
AcDbVertex
100
AcDbPolygonMeshVertex
 10
-1.258
 20
-1.43
 30
3.357
 70
    64
  0
VERTEX
  5
9DCD2
100
AcDbEntity
  8
0
100
AcDbVertex
100
AcDbPolygonMeshVertex
 10
-1.258
 20
-1.56
 30
4.477
 70
    64
  0
VERTEX
  5
9DCD3
100
AcDbEntity
  8
0
100
AcDbVertex
100
AcDbPolygonMeshVertex
 10
-1.258
 20
-1.56
 30
4.477
 70
    64
  0
VERTEX
  5
9DCD4
100
AcDbEntity
  8
0
100
AcDbVertex
100
AcDbPolygonMeshVertex
 10
-1.258
 20
-1.43
 30
4.477
 70
    64
  0
VERTEX
  5
9DCD5
100
AcDbEntity
  8
0
100
AcDbVertex
100
AcDbPolygonMeshVertex
 10
-1.078
 20
-1.56
 30
4.477
 70
    64
  0
VERTEX
  5
9DCD6
100
AcDbEntity
  8
0
100
AcDbVertex
100
AcDbPolygonMeshVertex
 10
-1.078
 20
-1.56
 30
4.477
 70
    64
  0
VERTEX
  5
9DCD7
100
AcDbEntity
  8
0
100
AcDbVertex
100
AcDbPolygonMeshVertex
 10
-1.078
 20
-1.43
 30
4.477
 70
    64
  0
SEQEND
  5
9DCD8
100
AcDbEntity
  8
0
  0
POLYLINE
  5
9DCD9
100
AcDbEntity
  8
0
100
AcDbPolygonMesh
 66
     1
 10
0.0
 20
0.0
 30
0.0
 70
    16
 71
     6
 72
     3
  0
VERTEX
  5
9DCDA
100
AcDbEntity
  8
0
100
AcDbVertex
100
AcDbPolygonMeshVertex
 10
-2.318
 20
-1.43
 30
4.857
 70
    64
  0
VERTEX
  5
9DCDB
100
AcDbEntity
  8
0
100
AcDbVertex
100
AcDbPolygonMeshVertex
 10
-2.318
 20
-1.43
 30
4.477
 70
    64
  0
VERTEX
  5
9DCDC
100
AcDbEntity
  8
0
100
AcDbVertex
100
AcDbPolygonMeshVertex
 10
-2.318
 20
-1.43
 30
4.477
 70
    64
  0
VERTEX
  5
9DCDD
100
AcDbEntity
  8
0
100
AcDbVertex
100
AcDbPolygonMeshVertex
 10
-2.138
 20
-1.43
 30
4.857
 70
    64
  0
VERTEX
  5
9DCDE
100
AcDbEntity
  8
0
100
AcDbVertex
100
AcDbPolygonMeshVertex
 10
-2.138
 20
-1.43
 30
4.477
 70
    64
  0
VERTEX
  5
9DCDF
100
AcDbEntity
  8
0
100
AcDbVertex
100
AcDbPolygonMeshVertex
 10
-2.138
 20
-1.43
 30
4.477
 70
    64
  0
VERTEX
  5
9DCE0
100
AcDbEntity
  8
0
100
AcDbVertex
100
AcDbPolygonMeshVertex
 10
-2.138
 20
-2.24
 30
4.857
 70
    64
  0
VERTEX
  5
9DCE1
100
AcDbEntity
  8
0
100
AcDbVertex
100
AcDbPolygonMeshVertex
 10
-2.138
 20
-2.24
 30
4.477
 70
    64
  0
VERTEX
  5
9DCE2
100
AcDbEntity
  8
0
100
AcDbVertex
100
AcDbPolygonMeshVertex
 10
-2.138
 20
-1.43
 30
4.477
 70
    64
  0
VERTEX
  5
9DCE3
100
AcDbEntity
  8
0
100
AcDbVertex
100
AcDbPolygonMeshVertex
 10
-2.318
 20
-2.24
 30
4.857
 70
    64
  0
VERTEX
  5
9DCE4
100
AcDbEntity
  8
0
100
AcDbVertex
100
AcDbPolygonMeshVertex
 10
-2.318
 20
-2.24
 30
4.477
 70
    64
  0
VERTEX
  5
9DCE5
100
AcDbEntity
  8
0
100
AcDbVertex
100
AcDbPolygonMeshVertex
 10
-2.318
 20
-1.43
 30
4.477
 70
    64
  0
VERTEX
  5
9DCE6
100
AcDbEntity
  8
0
100
AcDbVertex
100
AcDbPolygonMeshVertex
 10
-2.318
 20
-2.24
 30
4.857
 70
    64
  0
VERTEX
  5
9DCE7
100
AcDbEntity
  8
0
100
AcDbVertex
100
AcDbPolygonMeshVertex
 10
-2.318
 20
-2.24
 30
4.857
 70
    64
  0
VERTEX
  5
9DCE8
100
AcDbEntity
  8
0
100
AcDbVertex
100
AcDbPolygonMeshVertex
 10
-2.318
 20
-1.43
 30
4.857
 70
    64
  0
VERTEX
  5
9DCE9
100
AcDbEntity
  8
0
100
AcDbVertex
100
AcDbPolygonMeshVertex
 10
-2.138
 20
-2.24
 30
4.857
 70
    64
  0
VERTEX
  5
9DCEA
100
AcDbEntity
  8
0
100
AcDbVertex
100
AcDbPolygonMeshVertex
 10
-2.138
 20
-2.24
 30
4.857
 70
    64
  0
VERTEX
  5
9DCEB
100
AcDbEntity
  8
0
100
AcDbVertex
100
AcDbPolygonMeshVertex
 10
-2.138
 20
-1.43
 30
4.857
 70
    64
  0
SEQEND
  5
9DCEC
100
AcDbEntity
  8
0
  0
POLYLINE
  5
9DCED
100
AcDbEntity
  8
0
100
AcDbPolygonMesh
 66
     1
 10
0.0
 20
0.0
 30
0.0
 70
    16
 71
     6
 72
     3
  0
VERTEX
  5
9DCEE
100
AcDbEntity
  8
0
100
AcDbVertex
100
AcDbPolygonMeshVertex
 10
-2.318
 20
-1.43
 30
4.477
 70
    64
  0
VERTEX
  5
9DCEF
100
AcDbEntity
  8
0
100
AcDbVertex
100
AcDbPolygonMeshVertex
 10
-2.318
 20
-1.43
 30
3.357
 70
    64
  0
VERTEX
  5
9DCF0
100
AcDbEntity
  8
0
100
AcDbVertex
100
AcDbPolygonMeshVertex
 10
-2.318
 20
-1.43
 30
3.357
 70
    64
  0
VERTEX
  5
9DCF1
100
AcDbEntity
  8
0
100
AcDbVertex
100
AcDbPolygonMeshVertex
 10
-2.138
 20
-1.43
 30
4.477
 70
    64
  0
VERTEX
  5
9DCF2
100
AcDbEntity
  8
0
100
AcDbVertex
100
AcDbPolygonMeshVertex
 10
-2.138
 20
-1.43
 30
3.357
 70
    64
  0
VERTEX
  5
9DCF3
100
AcDbEntity
  8
0
100
AcDbVertex
100
AcDbPolygonMeshVertex
 10
-2.138
 20
-1.43
 30
3.357
 70
    64
  0
VERTEX
  5
9DCF4
100
AcDbEntity
  8
0
100
AcDbVertex
100
AcDbPolygonMeshVertex
 10
-2.138
 20
-1.56
 30
4.477
 70
    64
  0
VERTEX
  5
9DCF5
100
AcDbEntity
  8
0
100
AcDbVertex
100
AcDbPolygonMeshVertex
 10
-2.138
 20
-1.56
 30
3.357
 70
    64
  0
VERTEX
  5
9DCF6
100
AcDbEntity
  8
0
100
AcDbVertex
100
AcDbPolygonMeshVertex
 10
-2.138
 20
-1.43
 30
3.357
 70
    64
  0
VERTEX
  5
9DCF7
100
AcDbEntity
  8
0
100
AcDbVertex
100
AcDbPolygonMeshVertex
 10
-2.318
 20
-1.56
 30
4.477
 70
    64
  0
VERTEX
  5
9DCF8
100
AcDbEntity
  8
0
100
AcDbVertex
100
AcDbPolygonMeshVertex
 10
-2.318
 20
-1.56
 30
3.357
 70
    64
  0
VERTEX
  5
9DCF9
100
AcDbEntity
  8
0
100
AcDbVertex
100
AcDbPolygonMeshVertex
 10
-2.318
 20
-1.43
 30
3.357
 70
    64
  0
VERTEX
  5
9DCFA
100
AcDbEntity
  8
0
100
AcDbVertex
100
AcDbPolygonMeshVertex
 10
-2.318
 20
-1.56
 30
4.477
 70
    64
  0
VERTEX
  5
9DCFB
100
AcDbEntity
  8
0
100
AcDbVertex
100
AcDbPolygonMeshVertex
 10
-2.318
 20
-1.56
 30
4.477
 70
    64
  0
VERTEX
  5
9DCFC
100
AcDbEntity
  8
0
100
AcDbVertex
100
AcDbPolygonMeshVertex
 10
-2.318
 20
-1.43
 30
4.477
 70
    64
  0
VERTEX
  5
9DCFD
100
AcDbEntity
  8
0
100
AcDbVertex
100
AcDbPolygonMeshVertex
 10
-2.138
 20
-1.56
 30
4.477
 70
    64
  0
VERTEX
  5
9DCFE
100
AcDbEntity
  8
0
100
AcDbVertex
100
AcDbPolygonMeshVertex
 10
-2.138
 20
-1.56
 30
4.477
 70
    64
  0
VERTEX
  5
9DCFF
100
AcDbEntity
  8
0
100
AcDbVertex
100
AcDbPolygonMeshVertex
 10
-2.138
 20
-1.43
 30
4.477
 70
    64
  0
SEQEND
  5
9DD00
100
AcDbEntity
  8
0
  0
POLYLINE
  5
9DD01
100
AcDbEntity
  8
0
100
AcDbPolygonMesh
 66
     1
 10
0.0
 20
0.0
 30
0.0
 70
    16
 71
     6
 72
     3
  0
VERTEX
  5
9DD02
100
AcDbEntity
  8
0
100
AcDbVertex
100
AcDbPolygonMeshVertex
 10
-0.888
 20
-1.65
 30
4.667
 70
    64
  0
VERTEX
  5
9DD03
100
AcDbEntity
  8
0
100
AcDbVertex
100
AcDbPolygonMeshVertex
 10
-0.888
 20
-1.65
 30
4.477
 70
    64
  0
VERTEX
  5
9DD04
100
AcDbEntity
  8
0
100
AcDbVertex
100
AcDbPolygonMeshVertex
 10
-0.888
 20
-1.65
 30
4.477
 70
    64
  0
VERTEX
  5
9DD05
100
AcDbEntity
  8
0
100
AcDbVertex
100
AcDbPolygonMeshVertex
 10
-0.388
 20
-1.65
 30
4.667
 70
    64
  0
VERTEX
  5
9DD06
100
AcDbEntity
  8
0
100
AcDbVertex
100
AcDbPolygonMeshVertex
 10
-0.388
 20
-1.65
 30
4.477
 70
    64
  0
VERTEX
  5
9DD07
100
AcDbEntity
  8
0
100
AcDbVertex
100
AcDbPolygonMeshVertex
 10
-0.388
 20
-1.65
 30
4.477
 70
    64
  0
VERTEX
  5
9DD08
100
AcDbEntity
  8
0
100
AcDbVertex
100
AcDbPolygonMeshVertex
 10
-0.388
 20
-2.06
 30
4.667
 70
    64
  0
VERTEX
  5
9DD09
100
AcDbEntity
  8
0
100
AcDbVertex
100
AcDbPolygonMeshVertex
 10
-0.388
 20
-2.06
 30
4.477
 70
    64
  0
VERTEX
  5
9DD0A
100
AcDbEntity
  8
0
100
AcDbVertex
100
AcDbPolygonMeshVertex
 10
-0.388
 20
-1.65
 30
4.477
 70
    64
  0
VERTEX
  5
9DD0B
100
AcDbEntity
  8
0
100
AcDbVertex
100
AcDbPolygonMeshVertex
 10
-0.888
 20
-2.06
 30
4.667
 70
    64
  0
VERTEX
  5
9DD0C
100
AcDbEntity
  8
0
100
AcDbVertex
100
AcDbPolygonMeshVertex
 10
-0.888
 20
-2.06
 30
4.477
 70
    64
  0
VERTEX
  5
9DD0D
100
AcDbEntity
  8
0
100
AcDbVertex
100
AcDbPolygonMeshVertex
 10
-0.888
 20
-1.65
 30
4.477
 70
    64
  0
VERTEX
  5
9DD0E
100
AcDbEntity
  8
0
100
AcDbVertex
100
AcDbPolygonMeshVertex
 10
-0.888
 20
-2.06
 30
4.667
 70
    64
  0
VERTEX
  5
9DD0F
100
AcDbEntity
  8
0
100
AcDbVertex
100
AcDbPolygonMeshVertex
 10
-0.888
 20
-2.06
 30
4.667
 70
    64
  0
VERTEX
  5
9DD10
100
AcDbEntity
  8
0
100
AcDbVertex
100
AcDbPolygonMeshVertex
 10
-0.888
 20
-1.65
 30
4.667
 70
    64
  0
VERTEX
  5
9DD11
100
AcDbEntity
  8
0
100
AcDbVertex
100
AcDbPolygonMeshVertex
 10
-0.388
 20
-2.06
 30
4.667
 70
    64
  0
VERTEX
  5
9DD12
100
AcDbEntity
  8
0
100
AcDbVertex
100
AcDbPolygonMeshVertex
 10
-0.388
 20
-2.06
 30
4.667
 70
    64
  0
VERTEX
  5
9DD13
100
AcDbEntity
  8
0
100
AcDbVertex
100
AcDbPolygonMeshVertex
 10
-0.388
 20
-1.65
 30
4.667
 70
    64
  0
SEQEND
  5
9DD14
100
AcDbEntity
  8
0
  0
LINE
  5
9DD15
100
AcDbEntity
  8
0
100
AcDbLine
 10
-1.833722
 20
-1.987964
 30
4.667
 11
-1.602471
 21
-1.690762
 31
4.667
  0
LINE
  5
9DD16
100
AcDbEntity
  8
0
100
AcDbLine
 10
-1.793035
 20
-2.018318
 30
4.667
 11
-1.561784
 21
-1.721115
 31
4.667
  0
CIRCLE
  5
9DD17
100
AcDbEntity
  8
0
100
AcDbCircle
 10
-1.698
 20
-1.855
 30
4.667
 40
0.19
  0
POLYLINE
  5
9DD18
100
AcDbEntity
  8
0
100
AcDbPolygonMesh
 66
     1
 10
0.0
 20
0.0
 30
0.0
 70
    16
 71
     6
 72
     3
  0
VERTEX
  5
9DD19
100
AcDbEntity
  8
0
100
AcDbVertex
100
AcDbPolygonMeshVertex
 10
-1.948
 20
-1.65
 30
4.667
 70
    64
  0
VERTEX
  5
9DD1A
100
AcDbEntity
  8
0
100
AcDbVertex
100
AcDbPolygonMeshVertex
 10
-1.948
 20
-1.65
 30
4.477
 70
    64
  0
VERTEX
  5
9DD1B
100
AcDbEntity
  8
0
100
AcDbVertex
100
AcDbPolygonMeshVertex
 10
-1.948
 20
-1.65
 30
4.477
 70
    64
  0
VERTEX
  5
9DD1C
100
AcDbEntity
  8
0
100
AcDbVertex
100
AcDbPolygonMeshVertex
 10
-1.448
 20
-1.65
 30
4.667
 70
    64
  0
VERTEX
  5
9DD1D
100
AcDbEntity
  8
0
100
AcDbVertex
100
AcDbPolygonMeshVertex
 10
-1.448
 20
-1.65
 30
4.477
 70
    64
  0
VERTEX
  5
9DD1E
100
AcDbEntity
  8
0
100
AcDbVertex
100
AcDbPolygonMeshVertex
 10
-1.448
 20
-1.65
 30
4.477
 70
    64
  0
VERTEX
  5
9DD1F
100
AcDbEntity
  8
0
100
AcDbVertex
100
AcDbPolygonMeshVertex
 10
-1.448
 20
-2.06
 30
4.667
 70
    64
  0
VERTEX
  5
9DD20
100
AcDbEntity
  8
0
100
AcDbVertex
100
AcDbPolygonMeshVertex
 10
-1.448
 20
-2.06
 30
4.477
 70
    64
  0
VERTEX
  5
9DD21
100
AcDbEntity
  8
0
100
AcDbVertex
100
AcDbPolygonMeshVertex
 10
-1.448
 20
-1.65
 30
4.477
 70
    64
  0
VERTEX
  5
9DD22
100
AcDbEntity
  8
0
100
AcDbVertex
100
AcDbPolygonMeshVertex
 10
-1.948
 20
-2.06
 30
4.667
 70
    64
  0
VERTEX
  5
9DD23
100
AcDbEntity
  8
0
100
AcDbVertex
100
AcDbPolygonMeshVertex
 10
-1.948
 20
-2.06
 30
4.477
 70
    64
  0
VERTEX
  5
9DD24
100
AcDbEntity
  8
0
100
AcDbVertex
100
AcDbPolygonMeshVertex
 10
-1.948
 20
-1.65
 30
4.477
 70
    64
  0
VERTEX
  5
9DD25
100
AcDbEntity
  8
0
100
AcDbVertex
100
AcDbPolygonMeshVertex
 10
-1.948
 20
-2.06
 30
4.667
 70
    64
  0
VERTEX
  5
9DD26
100
AcDbEntity
  8
0
100
AcDbVertex
100
AcDbPolygonMeshVertex
 10
-1.948
 20
-2.06
 30
4.667
 70
    64
  0
VERTEX
  5
9DD27
100
AcDbEntity
  8
0
100
AcDbVertex
100
AcDbPolygonMeshVertex
 10
-1.948
 20
-1.65
 30
4.667
 70
    64
  0
VERTEX
  5
9DD28
100
AcDbEntity
  8
0
100
AcDbVertex
100
AcDbPolygonMeshVertex
 10
-1.448
 20
-2.06
 30
4.667
 70
    64
  0
VERTEX
  5
9DD29
100
AcDbEntity
  8
0
100
AcDbVertex
100
AcDbPolygonMeshVertex
 10
-1.448
 20
-2.06
 30
4.667
 70
    64
  0
VERTEX
  5
9DD2A
100
AcDbEntity
  8
0
100
AcDbVertex
100
AcDbPolygonMeshVertex
 10
-1.448
 20
-1.65
 30
4.667
 70
    64
  0
SEQEND
  5
9DD2B
100
AcDbEntity
  8
0
  0
LINE
  5
9DD2C
100
AcDbEntity
  8
0
100
AcDbLine
 10
-2.893722
 20
-1.987964
 30
4.667
 11
-2.662471
 21
-1.690762
 31
4.667
  0
LINE
  5
9DD2D
100
AcDbEntity
  8
0
100
AcDbLine
 10
-2.853035
 20
-2.018318
 30
4.667
 11
-2.621784
 21
-1.721115
 31
4.667
  0
CIRCLE
  5
9DD2E
100
AcDbEntity
  8
0
100
AcDbCircle
 10
-2.758
 20
-1.855
 30
4.667
 40
0.19
  0
POLYLINE
  5
9DD2F
100
AcDbEntity
  8
0
100
AcDbPolygonMesh
 66
     1
 10
0.0
 20
0.0
 30
0.0
 70
    16
 71
     6
 72
     3
  0
VERTEX
  5
9DD30
100
AcDbEntity
  8
0
100
AcDbVertex
100
AcDbPolygonMeshVertex
 10
-3.008
 20
-1.65
 30
4.667
 70
    64
  0
VERTEX
  5
9DD31
100
AcDbEntity
  8
0
100
AcDbVertex
100
AcDbPolygonMeshVertex
 10
-3.008
 20
-1.65
 30
4.477
 70
    64
  0
VERTEX
  5
9DD32
100
AcDbEntity
  8
0
100
AcDbVertex
100
AcDbPolygonMeshVertex
 10
-3.008
 20
-1.65
 30
4.477
 70
    64
  0
VERTEX
  5
9DD33
100
AcDbEntity
  8
0
100
AcDbVertex
100
AcDbPolygonMeshVertex
 10
-2.508
 20
-1.65
 30
4.667
 70
    64
  0
VERTEX
  5
9DD34
100
AcDbEntity
  8
0
100
AcDbVertex
100
AcDbPolygonMeshVertex
 10
-2.508
 20
-1.65
 30
4.477
 70
    64
  0
VERTEX
  5
9DD35
100
AcDbEntity
  8
0
100
AcDbVertex
100
AcDbPolygonMeshVertex
 10
-2.508
 20
-1.65
 30
4.477
 70
    64
  0
VERTEX
  5
9DD36
100
AcDbEntity
  8
0
100
AcDbVertex
100
AcDbPolygonMeshVertex
 10
-2.508
 20
-2.06
 30
4.667
 70
    64
  0
VERTEX
  5
9DD37
100
AcDbEntity
  8
0
100
AcDbVertex
100
AcDbPolygonMeshVertex
 10
-2.508
 20
-2.06
 30
4.477
 70
    64
  0
VERTEX
  5
9DD38
100
AcDbEntity
  8
0
100
AcDbVertex
100
AcDbPolygonMeshVertex
 10
-2.508
 20
-1.65
 30
4.477
 70
    64
  0
VERTEX
  5
9DD39
100
AcDbEntity
  8
0
100
AcDbVertex
100
AcDbPolygonMeshVertex
 10
-3.008
 20
-2.06
 30
4.667
 70
    64
  0
VERTEX
  5
9DD3A
100
AcDbEntity
  8
0
100
AcDbVertex
100
AcDbPolygonMeshVertex
 10
-3.008
 20
-2.06
 30
4.477
 70
    64
  0
VERTEX
  5
9DD3B
100
AcDbEntity
  8
0
100
AcDbVertex
100
AcDbPolygonMeshVertex
 10
-3.008
 20
-1.65
 30
4.477
 70
    64
  0
VERTEX
  5
9DD3C
100
AcDbEntity
  8
0
100
AcDbVertex
100
AcDbPolygonMeshVertex
 10
-3.008
 20
-2.06
 30
4.667
 70
    64
  0
VERTEX
  5
9DD3D
100
AcDbEntity
  8
0
100
AcDbVertex
100
AcDbPolygonMeshVertex
 10
-3.008
 20
-2.06
 30
4.667
 70
    64
  0
VERTEX
  5
9DD3E
100
AcDbEntity
  8
0
100
AcDbVertex
100
AcDbPolygonMeshVertex
 10
-3.008
 20
-1.65
 30
4.667
 70
    64
  0
VERTEX
  5
9DD3F
100
AcDbEntity
  8
0
100
AcDbVertex
100
AcDbPolygonMeshVertex
 10
-2.508
 20
-2.06
 30
4.667
 70
    64
  0
VERTEX
  5
9DD40
100
AcDbEntity
  8
0
100
AcDbVertex
100
AcDbPolygonMeshVertex
 10
-2.508
 20
-2.06
 30
4.667
 70
    64
  0
VERTEX
  5
9DD41
100
AcDbEntity
  8
0
100
AcDbVertex
100
AcDbPolygonMeshVertex
 10
-2.508
 20
-1.65
 30
4.667
 70
    64
  0
SEQEND
  5
9DD42
100
AcDbEntity
  8
0
  0
POLYLINE
  5
9DD43
100
AcDbEntity
  8
0
100
AcDbPolygonMesh
 66
     1
 10
0.0
 20
0.0
 30
0.0
 70
    16
 71
     6
 72
     3
  0
VERTEX
  5
9DD44
100
AcDbEntity
  8
0
100
AcDbVertex
100
AcDbPolygonMeshVertex
 10
-3.008
 20
-1.09
 30
1.857
 70
    64
  0
VERTEX
  5
9DD45
100
AcDbEntity
  8
0
100
AcDbVertex
100
AcDbPolygonMeshVertex
 10
-3.008
 20
-1.09
 30
1.547
 70
    64
  0
VERTEX
  5
9DD46
100
AcDbEntity
  8
0
100
AcDbVertex
100
AcDbPolygonMeshVertex
 10
-3.008
 20
-1.09
 30
1.547
 70
    64
  0
VERTEX
  5
9DD47
100
AcDbEntity
  8
0
100
AcDbVertex
100
AcDbPolygonMeshVertex
 10
-2.508
 20
-1.09
 30
1.857
 70
    64
  0
VERTEX
  5
9DD48
100
AcDbEntity
  8
0
100
AcDbVertex
100
AcDbPolygonMeshVertex
 10
-2.508
 20
-1.09
 30
1.547
 70
    64
  0
VERTEX
  5
9DD49
100
AcDbEntity
  8
0
100
AcDbVertex
100
AcDbPolygonMeshVertex
 10
-2.508
 20
-1.09
 30
1.547
 70
    64
  0
VERTEX
  5
9DD4A
100
AcDbEntity
  8
0
100
AcDbVertex
100
AcDbPolygonMeshVertex
 10
-2.508
 20
-1.56
 30
1.857
 70
    64
  0
VERTEX
  5
9DD4B
100
AcDbEntity
  8
0
100
AcDbVertex
100
AcDbPolygonMeshVertex
 10
-2.508
 20
-1.56
 30
1.547
 70
    64
  0
VERTEX
  5
9DD4C
100
AcDbEntity
  8
0
100
AcDbVertex
100
AcDbPolygonMeshVertex
 10
-2.508
 20
-1.09
 30
1.547
 70
    64
  0
VERTEX
  5
9DD4D
100
AcDbEntity
  8
0
100
AcDbVertex
100
AcDbPolygonMeshVertex
 10
-3.008
 20
-1.56
 30
1.857
 70
    64
  0
VERTEX
  5
9DD4E
100
AcDbEntity
  8
0
100
AcDbVertex
100
AcDbPolygonMeshVertex
 10
-3.008
 20
-1.56
 30
1.547
 70
    64
  0
VERTEX
  5
9DD4F
100
AcDbEntity
  8
0
100
AcDbVertex
100
AcDbPolygonMeshVertex
 10
-3.008
 20
-1.09
 30
1.547
 70
    64
  0
VERTEX
  5
9DD50
100
AcDbEntity
  8
0
100
AcDbVertex
100
AcDbPolygonMeshVertex
 10
-3.008
 20
-1.56
 30
1.857
 70
    64
  0
VERTEX
  5
9DD51
100
AcDbEntity
  8
0
100
AcDbVertex
100
AcDbPolygonMeshVertex
 10
-3.008
 20
-1.56
 30
1.857
 70
    64
  0
VERTEX
  5
9DD52
100
AcDbEntity
  8
0
100
AcDbVertex
100
AcDbPolygonMeshVertex
 10
-3.008
 20
-1.09
 30
1.857
 70
    64
  0
VERTEX
  5
9DD53
100
AcDbEntity
  8
0
100
AcDbVertex
100
AcDbPolygonMeshVertex
 10
-2.508
 20
-1.56
 30
1.857
 70
    64
  0
VERTEX
  5
9DD54
100
AcDbEntity
  8
0
100
AcDbVertex
100
AcDbPolygonMeshVertex
 10
-2.508
 20
-1.56
 30
1.857
 70
    64
  0
VERTEX
  5
9DD55
100
AcDbEntity
  8
0
100
AcDbVertex
100
AcDbPolygonMeshVertex
 10
-2.508
 20
-1.09
 30
1.857
 70
    64
  0
SEQEND
  5
9DD56
100
AcDbEntity
  8
0
  0
POLYLINE
  5
9DD57
100
AcDbEntity
  8
0
100
AcDbPolygonMesh
 66
     1
 10
0.0
 20
0.0
 30
0.0
 70
    16
 71
     6
 72
     3
  0
VERTEX
  5
9DD58
100
AcDbEntity
  8
0
100
AcDbVertex
100
AcDbPolygonMeshVertex
 10
-1.948
 20
-1.09
 30
1.857
 70
    64
  0
VERTEX
  5
9DD59
100
AcDbEntity
  8
0
100
AcDbVertex
100
AcDbPolygonMeshVertex
 10
-1.948
 20
-1.09
 30
1.547
 70
    64
  0
VERTEX
  5
9DD5A
100
AcDbEntity
  8
0
100
AcDbVertex
100
AcDbPolygonMeshVertex
 10
-1.948
 20
-1.09
 30
1.547
 70
    64
  0
VERTEX
  5
9DD5B
100
AcDbEntity
  8
0
100
AcDbVertex
100
AcDbPolygonMeshVertex
 10
-1.448
 20
-1.09
 30
1.857
 70
    64
  0
VERTEX
  5
9DD5C
100
AcDbEntity
  8
0
100
AcDbVertex
100
AcDbPolygonMeshVertex
 10
-1.448
 20
-1.09
 30
1.547
 70
    64
  0
VERTEX
  5
9DD5D
100
AcDbEntity
  8
0
100
AcDbVertex
100
AcDbPolygonMeshVertex
 10
-1.448
 20
-1.09
 30
1.547
 70
    64
  0
VERTEX
  5
9DD5E
100
AcDbEntity
  8
0
100
AcDbVertex
100
AcDbPolygonMeshVertex
 10
-1.448
 20
-1.56
 30
1.857
 70
    64
  0
VERTEX
  5
9DD5F
100
AcDbEntity
  8
0
100
AcDbVertex
100
AcDbPolygonMeshVertex
 10
-1.448
 20
-1.56
 30
1.547
 70
    64
  0
VERTEX
  5
9DD60
100
AcDbEntity
  8
0
100
AcDbVertex
100
AcDbPolygonMeshVertex
 10
-1.448
 20
-1.09
 30
1.547
 70
    64
  0
VERTEX
  5
9DD61
100
AcDbEntity
  8
0
100
AcDbVertex
100
AcDbPolygonMeshVertex
 10
-1.948
 20
-1.56
 30
1.857
 70
    64
  0
VERTEX
  5
9DD62
100
AcDbEntity
  8
0
100
AcDbVertex
100
AcDbPolygonMeshVertex
 10
-1.948
 20
-1.56
 30
1.547
 70
    64
  0
VERTEX
  5
9DD63
100
AcDbEntity
  8
0
100
AcDbVertex
100
AcDbPolygonMeshVertex
 10
-1.948
 20
-1.09
 30
1.547
 70
    64
  0
VERTEX
  5
9DD64
100
AcDbEntity
  8
0
100
AcDbVertex
100
AcDbPolygonMeshVertex
 10
-1.948
 20
-1.56
 30
1.857
 70
    64
  0
VERTEX
  5
9DD65
100
AcDbEntity
  8
0
100
AcDbVertex
100
AcDbPolygonMeshVertex
 10
-1.948
 20
-1.56
 30
1.857
 70
    64
  0
VERTEX
  5
9DD66
100
AcDbEntity
  8
0
100
AcDbVertex
100
AcDbPolygonMeshVertex
 10
-1.948
 20
-1.09
 30
1.857
 70
    64
  0
VERTEX
  5
9DD67
100
AcDbEntity
  8
0
100
AcDbVertex
100
AcDbPolygonMeshVertex
 10
-1.448
 20
-1.56
 30
1.857
 70
    64
  0
VERTEX
  5
9DD68
100
AcDbEntity
  8
0
100
AcDbVertex
100
AcDbPolygonMeshVertex
 10
-1.448
 20
-1.56
 30
1.857
 70
    64
  0
VERTEX
  5
9DD69
100
AcDbEntity
  8
0
100
AcDbVertex
100
AcDbPolygonMeshVertex
 10
-1.448
 20
-1.09
 30
1.857
 70
    64
  0
SEQEND
  5
9DD6A
100
AcDbEntity
  8
0
  0
CIRCLE
  5
9DD6B
100
AcDbEntity
  8
0
100
AcDbCircle
 10
-1.698
 20
-1.325
 30
1.867
 40
0.19
  0
LINE
  5
9DD6C
100
AcDbEntity
  8
0
100
AcDbLine
 10
-1.833722
 20
-1.457964
 30
1.867
 11
-1.602471
 21
-1.160762
 31
1.867
  0
LINE
  5
9DD6D
100
AcDbEntity
  8
0
100
AcDbLine
 10
-1.793035
 20
-1.488318
 30
1.867
 11
-1.561784
 21
-1.191115
 31
1.867
  0
POLYLINE
  5
9DD6E
100
AcDbEntity
  8
0
100
AcDbPolygonMesh
 66
     1
 10
0.0
 20
0.0
 30
0.0
 70
    16
 71
     6
 72
     3
  0
VERTEX
  5
9DD6F
100
AcDbEntity
  8
0
100
AcDbVertex
100
AcDbPolygonMeshVertex
 10
-0.888
 20
-1.09
 30
1.857
 70
    64
  0
VERTEX
  5
9DD70
100
AcDbEntity
  8
0
100
AcDbVertex
100
AcDbPolygonMeshVertex
 10
-0.888
 20
-1.09
 30
1.547
 70
    64
  0
VERTEX
  5
9DD71
100
AcDbEntity
  8
0
100
AcDbVertex
100
AcDbPolygonMeshVertex
 10
-0.888
 20
-1.09
 30
1.547
 70
    64
  0
VERTEX
  5
9DD72
100
AcDbEntity
  8
0
100
AcDbVertex
100
AcDbPolygonMeshVertex
 10
-0.388
 20
-1.09
 30
1.857
 70
    64
  0
VERTEX
  5
9DD73
100
AcDbEntity
  8
0
100
AcDbVertex
100
AcDbPolygonMeshVertex
 10
-0.388
 20
-1.09
 30
1.547
 70
    64
  0
VERTEX
  5
9DD74
100
AcDbEntity
  8
0
100
AcDbVertex
100
AcDbPolygonMeshVertex
 10
-0.388
 20
-1.09
 30
1.547
 70
    64
  0
VERTEX
  5
9DD75
100
AcDbEntity
  8
0
100
AcDbVertex
100
AcDbPolygonMeshVertex
 10
-0.388
 20
-1.56
 30
1.857
 70
    64
  0
VERTEX
  5
9DD76
100
AcDbEntity
  8
0
100
AcDbVertex
100
AcDbPolygonMeshVertex
 10
-0.388
 20
-1.56
 30
1.547
 70
    64
  0
VERTEX
  5
9DD77
100
AcDbEntity
  8
0
100
AcDbVertex
100
AcDbPolygonMeshVertex
 10
-0.388
 20
-1.09
 30
1.547
 70
    64
  0
VERTEX
  5
9DD78
100
AcDbEntity
  8
0
100
AcDbVertex
100
AcDbPolygonMeshVertex
 10
-0.888
 20
-1.56
 30
1.857
 70
    64
  0
VERTEX
  5
9DD79
100
AcDbEntity
  8
0
100
AcDbVertex
100
AcDbPolygonMeshVertex
 10
-0.888
 20
-1.56
 30
1.547
 70
    64
  0
VERTEX
  5
9DD7A
100
AcDbEntity
  8
0
100
AcDbVertex
100
AcDbPolygonMeshVertex
 10
-0.888
 20
-1.09
 30
1.547
 70
    64
  0
VERTEX
  5
9DD7B
100
AcDbEntity
  8
0
100
AcDbVertex
100
AcDbPolygonMeshVertex
 10
-0.888
 20
-1.56
 30
1.857
 70
    64
  0
VERTEX
  5
9DD7C
100
AcDbEntity
  8
0
100
AcDbVertex
100
AcDbPolygonMeshVertex
 10
-0.888
 20
-1.56
 30
1.857
 70
    64
  0
VERTEX
  5
9DD7D
100
AcDbEntity
  8
0
100
AcDbVertex
100
AcDbPolygonMeshVertex
 10
-0.888
 20
-1.09
 30
1.857
 70
    64
  0
VERTEX
  5
9DD7E
100
AcDbEntity
  8
0
100
AcDbVertex
100
AcDbPolygonMeshVertex
 10
-0.388
 20
-1.56
 30
1.857
 70
    64
  0
VERTEX
  5
9DD7F
100
AcDbEntity
  8
0
100
AcDbVertex
100
AcDbPolygonMeshVertex
 10
-0.388
 20
-1.56
 30
1.857
 70
    64
  0
VERTEX
  5
9DD80
100
AcDbEntity
  8
0
100
AcDbVertex
100
AcDbPolygonMeshVertex
 10
-0.388
 20
-1.09
 30
1.857
 70
    64
  0
SEQEND
  5
9DD81
100
AcDbEntity
  8
0
  0
CIRCLE
  5
9DD82
100
AcDbEntity
  8
0
100
AcDbCircle
 10
-0.638
 20
-1.325
 30
1.867
 40
0.19
  0
LINE
  5
9DD83
100
AcDbEntity
  8
0
100
AcDbLine
 10
-0.773722
 20
-1.457964
 30
1.867
 11
-0.542471
 21
-1.160762
 31
1.867
  0
LINE
  5
9DD84
100
AcDbEntity
  8
0
100
AcDbLine
 10
-0.733035
 20
-1.488318
 30
1.867
 11
-0.501784
 21
-1.191115
 31
1.867
  0
POLYLINE
  5
9DD85
100
AcDbEntity
  8
0
100
AcDbPolygonMesh
 66
     1
 10
0.0
 20
0.0
 30
0.0
 70
    16
 71
     6
 72
     3
  0
VERTEX
  5
9DD86
100
AcDbEntity
  8
0
100
AcDbVertex
100
AcDbPolygonMeshVertex
 10
0.077
 20
-8.4
 30
0.577
 70
    64
  0
VERTEX
  5
9DD87
100
AcDbEntity
  8
0
100
AcDbVertex
100
AcDbPolygonMeshVertex
 10
0.077
 20
-8.4
 30
0.387
 70
    64
  0
VERTEX
  5
9DD88
100
AcDbEntity
  8
0
100
AcDbVertex
100
AcDbPolygonMeshVertex
 10
0.077
 20
-8.4
 30
0.387
 70
    64
  0
VERTEX
  5
9DD89
100
AcDbEntity
  8
0
100
AcDbVertex
100
AcDbPolygonMeshVertex
 10
-3.483
 20
-8.4
 30
0.577
 70
    64
  0
VERTEX
  5
9DD8A
100
AcDbEntity
  8
0
100
AcDbVertex
100
AcDbPolygonMeshVertex
 10
-3.483
 20
-8.4
 30
0.387
 70
    64
  0
VERTEX
  5
9DD8B
100
AcDbEntity
  8
0
100
AcDbVertex
100
AcDbPolygonMeshVertex
 10
-3.483
 20
-8.4
 30
0.387
 70
    64
  0
VERTEX
  5
9DD8C
100
AcDbEntity
  8
0
100
AcDbVertex
100
AcDbPolygonMeshVertex
 10
-3.483
 20
-1.4
 30
0.577
 70
    64
  0
VERTEX
  5
9DD8D
100
AcDbEntity
  8
0
100
AcDbVertex
100
AcDbPolygonMeshVertex
 10
-3.483
 20
-1.4
 30
0.387
 70
    64
  0
VERTEX
  5
9DD8E
100
AcDbEntity
  8
0
100
AcDbVertex
100
AcDbPolygonMeshVertex
 10
-3.483
 20
-8.4
 30
0.387
 70
    64
  0
VERTEX
  5
9DD8F
100
AcDbEntity
  8
0
100
AcDbVertex
100
AcDbPolygonMeshVertex
 10
0.077
 20
-1.4
 30
0.577
 70
    64
  0
VERTEX
  5
9DD90
100
AcDbEntity
  8
0
100
AcDbVertex
100
AcDbPolygonMeshVertex
 10
0.077
 20
-1.4
 30
0.387
 70
    64
  0
VERTEX
  5
9DD91
100
AcDbEntity
  8
0
100
AcDbVertex
100
AcDbPolygonMeshVertex
 10
0.077
 20
-8.4
 30
0.387
 70
    64
  0
VERTEX
  5
9DD92
100
AcDbEntity
  8
0
100
AcDbVertex
100
AcDbPolygonMeshVertex
 10
0.077
 20
-1.4
 30
0.577
 70
    64
  0
VERTEX
  5
9DD93
100
AcDbEntity
  8
0
100
AcDbVertex
100
AcDbPolygonMeshVertex
 10
0.077
 20
-1.4
 30
0.577
 70
    64
  0
VERTEX
  5
9DD94
100
AcDbEntity
  8
0
100
AcDbVertex
100
AcDbPolygonMeshVertex
 10
0.077
 20
-8.4
 30
0.577
 70
    64
  0
VERTEX
  5
9DD95
100
AcDbEntity
  8
0
100
AcDbVertex
100
AcDbPolygonMeshVertex
 10
-3.483
 20
-1.4
 30
0.577
 70
    64
  0
VERTEX
  5
9DD96
100
AcDbEntity
  8
0
100
AcDbVertex
100
AcDbPolygonMeshVertex
 10
-3.483
 20
-1.4
 30
0.577
 70
    64
  0
VERTEX
  5
9DD97
100
AcDbEntity
  8
0
100
AcDbVertex
100
AcDbPolygonMeshVertex
 10
-3.483
 20
-8.4
 30
0.577
 70
    64
  0
SEQEND
  5
9DD98
100
AcDbEntity
  8
0
  0
LINE
  5
9DD99
100
AcDbEntity
  8
0
100
AcDbLine
 10
-2.978
 20
-8.4
 30
0.577
 11
-2.978
 21
-8.4
 31
0.387
  0
3DFACE
  5
9DD9A
100
AcDbEntity
  8
0
100
AcDbFace
 10
0.077
 20
-1.4
 30
0.577
 11
-0.543
 21
-0.78
 31
0.577
 12
-1.983
 22
-0.78
 32
0.577
 13
-2.083
 23
-1.06
 33
0.577
 70
     8
  0
3DFACE
  5
9DD9B
100
AcDbEntity
  8
0
100
AcDbFace
 10
-2.573
 20
-1.06
 30
0.577
 11
-2.673
 21
-0.78
 31
0.577
 12
-2.863
 22
-0.78
 32
0.577
 13
-3.483
 23
-1.4
 33
0.577
 70
     8
  0
3DFACE
  5
9DD9C
100
AcDbEntity
  8
0
100
AcDbFace
 10
-2.573
 20
-1.06
 30
0.577
 11
-3.483
 21
-1.4
 31
0.577
 12
0.077
 22
-1.4
 32
0.577
 13
-2.083
 23
-1.06
 33
0.577
 70
    15
  0
3DFACE
  5
9DD9D
100
AcDbEntity
  8
0
100
AcDbFace
 10
-2.573
 20
-1.06
 30
0.387
 11
-3.483
 21
-1.4
 31
0.387
 12
0.077
 22
-1.4
 32
0.387
 13
-2.083
 23
-1.06
 33
0.387
 70
    15
  0
3DFACE
  5
9DD9E
100
AcDbEntity
  8
0
100
AcDbFace
 10
0.077
 20
-1.4
 30
0.387
 11
-0.543
 21
-0.78
 31
0.387
 12
-1.983
 22
-0.78
 32
0.387
 13
-2.083
 23
-1.06
 33
0.387
 70
     8
  0
3DFACE
  5
9DD9F
100
AcDbEntity
  8
0
100
AcDbFace
 10
-2.573
 20
-1.06
 30
0.387
 11
-2.673
 21
-0.78
 31
0.387
 12
-2.863
 22
-0.78
 32
0.387
 13
-3.483
 23
-1.4
 33
0.387
 70
     8
  0
3DFACE
  5
9DDA0
100
AcDbEntity
  8
0
100
AcDbFace
 10
0.077
 20
-1.4
 30
0.387
 11
0.077
 21
-1.4
 31
0.577
 12
-0.543
 22
-0.78
 32
0.577
 13
-0.543
 23
-0.78
 33
0.387
  0
3DFACE
  5
9DDA1
100
AcDbEntity
  8
0
100
AcDbFace
 10
-0.543
 20
-0.78
 30
0.577
 11
-1.983
 21
-0.78
 31
0.577
 12
-1.983
 22
-0.78
 32
0.387
 13
-0.543
 23
-0.78
 33
0.387
  0
3DFACE
  5
9DDA2
100
AcDbEntity
  8
0
100
AcDbFace
 10
-2.573
 20
-1.06
 30
0.577
 11
-2.573
 21
-1.06
 31
0.387
 12
-2.673
 22
-0.78
 32
0.387
 13
-2.673
 23
-0.78
 33
0.577
  0
3DFACE
  5
9DDA3
100
AcDbEntity
  8
0
100
AcDbFace
 10
-2.083
 20
-1.06
 30
0.577
 11
-2.083
 21
-1.06
 31
0.387
 12
-2.573
 22
-1.06
 32
0.387
 13
-2.573
 23
-1.06
 33
0.577
  0
3DFACE
  5
9DDA4
100
AcDbEntity
  8
0
100
AcDbFace
 10
-2.673
 20
-0.78
 30
0.577
 11
-2.673
 21
-0.78
 31
0.387
 12
-2.863
 22
-0.78
 32
0.387
 13
-2.863
 23
-0.78
 33
0.577
  0
3DFACE
  5
9DDA5
100
AcDbEntity
  8
0
100
AcDbFace
 10
-2.083
 20
-1.06
 30
0.577
 11
-2.083
 21
-1.06
 31
0.387
 12
-1.983
 22
-0.78
 32
0.387
 13
-1.983
 23
-0.78
 33
0.577
  0
3DFACE
  5
9DDA6
100
AcDbEntity
  8
0
100
AcDbFace
 10
-2.863
 20
-0.78
 30
0.387
 11
-2.863
 21
-0.78
 31
0.577
 12
-3.483
 22
-1.4
 32
0.577
 13
-3.483
 23
-1.4
 33
0.387
  0
TEXT
  5
9DDA7
100
AcDbEntity
  8
0
100
AcDbText
 10
2.151358
 20
-1.388191
 30
1.867
 40
0.133902
  1
L1
100
AcDbText
  0
TEXT
  5
9DDA8
100
AcDbEntity
  8
0
100
AcDbText
 10
3.205679
 20
-1.389203
 30
1.867
 40
0.133902
  1
L2
100
AcDbText
  0
TEXT
  5
9DDA9
100
AcDbEntity
  8
0
100
AcDbText
 10
4.2543
 20
-1.384518
 30
1.867
 40
0.133902
  1
L3
100
AcDbText
  0
TEXT
  5
9DDAA
100
AcDbEntity
  8
0
100
AcDbText
 10
2.07826
 20
-7.243986
 30
4.027
 40
0.133902
  1
T1
100
AcDbText
  0
TEXT
  5
9DDAB
100
AcDbEntity
  8
0
100
AcDbText
 10
3.111241
 20
-7.257055
 30
4.027
 40
0.133902
  1
T2
100
AcDbText
  0
TEXT
  5
9DDAC
100
AcDbEntity
  8
0
100
AcDbText
 10
4.180257
 20
-7.252115
 30
4.027
 40
0.133902
  1
T3
100
AcDbText
  0
ATTDEF
  5
9DDAD
100
AcDbEntity
  8
ATTRIBUTES
100
AcDbText
 10
-3.264927
 20
-5.193549
 30
0.0
 40
0.210924
  1
ALLEN-BRADLEY
100
AcDbAttributeDefinition
  3
MANUFACTURER NAME?
  2
AC_VND_LABEL
 70
     1
  0
ATTDEF
  5
9DDAE
100
AcDbEntity
  8
ATTRIBUTES
100
AcDbText
 10
-3.264927
 20
-5.632974
 30
0.0
 40
0.210924
  1
520G-A
100
AcDbAttributeDefinition
  3
CATALOG NUMBER?
  2
AC_PART_NO
 70
     1
  0
ATTDEF
  5
9DDAF
100
AcDbEntity
  8
ATTRIBUTES
100
AcDbText
 10
-3.264927
 20
-6.072399
 30
0.0
 40
0.210924
  1
2 SPEED CONSTANT HP w/ EUTECTIC ALLOY OLR; NEMA SIZE 0 & 1
100
AcDbAttributeDefinition
  3
PART DESCRIPTION?
  2
AC_DESCRIPTION
 70
     1
  0
ATTDEF
  5
9DDB0
100
AcDbEntity
  8
ATTRIBUTES
100
AcDbText
 10
-3.264927
 20
-6.511824
 30
0.0
 40
0.210924
  1

100
AcDbAttributeDefinition
  3
DEVICE ID?
  2
DEVICE_ID
 70
     1
  0
ATTDEF
  5
9DDB1
100
AcDbEntity
  8
ATTRIBUTES
100
AcDbText
 10
-3.264927
 20
-6.951249
 30
0.0
 40
0.210924
  1

100
AcDbAttributeDefinition
  3
CUSTOMER PART NUMBER?
  2
AC_CPART_NO
 70
     1
  0
ATTDEF
  5
9DDB2
100
AcDbEntity
  8
ATTRIBUTES
100
AcDbText
 10
-3.264927
 20
-7.390674
 30
0.0
 40
0.210924
  1

100
AcDbAttributeDefinition
  3
CUSTOMER NOTE?
  2
AC_NOTE
 70
     1
  0
ATTDEF
  5
9DDB3
100
AcDbEntity
  8
ATTRIBUTES
100
AcDbText
 10
-3.264927
 20
-7.8301
 30
0.0
 40
0.210924
  1

100
AcDbAttributeDefinition
  3
FASTENER DATA?
  2
FASTENER
 70
     1
  0
ATTDEF
  5
9DDB4
100
AcDbEntity
  8
ATTRIBUTES
100
AcDbText
 10
-3.264927
 20
-8.269525
 30
0.0
 40
0.210924
  1
INCH
100
AcDbAttributeDefinition
  3
UNIT OF SCALE?
  2
AC_SCALE_UNIT
 70
     1
  0
ATTDEF
  5
9DDB5
100
AcDbEntity
  8
ATTRIBUTES
100
AcDbText
 10
-3.264927
 20
-8.70895
 30
0.0
 40
0.210924
  1
0
100
AcDbAttributeDefinition
  3
VIEW CODE?
  2
AC_VIEW_CODE
 70
     1
  0
POINT
  5
9DDB6
100
AcDbEntity
  8
DIMS-MTG-HOLES
100
AcDbPoint
 10
-2.753
 20
-8.748
 30
0.0
  0
POINT
  5
9DDB7
100
AcDbEntity
  8
DIMS-MTG-HOLES
100
AcDbPoint
 10
4.337
 20
-8.748
 30
0.0
  0
POINT
  5
9DDB8
100
AcDbEntity
  8
DIMS-MTG-HOLES
100
AcDbPoint
 10
0.0
 20
-0.09
 30
0.0
  0
DIMENSION
  5
9DDB9
100
AcDbEntity
  8
AREA1
100
AcDbDimension
  2
*D0
 10
-5.320363
 20
-8.969
 30
0.0
 11
-5.320363
 21
-4.450064
 31
0.0
 70
   160
  3
ABECAD_3D
100
AcDbAlignedDimension
 13
-1.0
 23
0.191
 33
0.0
 14
-3.553
 24
-8.969
 34
0.0
 50
90.0
100
AcDbRotatedDimension
  0
DIMENSION
  5
9DDC7
100
AcDbEntity
  8
AREA1
100
AcDbDimension
  2
*D1
 10
5.107
 20
1.306878
 30
0.0
 11
0.390096
 21
1.306878
 31
0.0
 70
   160
  3
ABECAD_3D
100
AcDbAlignedDimension
 13
-4.168
 23
-1.56
 33
0.387
 14
5.107
 24
-0.719
 34
0.0
100
AcDbRotatedDimension
  0
LWPOLYLINE
  5
9DDE4
100
AcDbEntity
  8
SCALE
100
AcDbPolyline
 90
        4
 70
     1
 43
0.0
 10
0.023424
 20
-9.184413
 10
1.159052
 20
-9.184413
 10
1.159052
 20
-10.026022
 10
0.023424
 20
-10.026022
  0
LINE
  5
9DDE5
100
AcDbEntity
  8
SCALE
100
AcDbLine
 10
0.081422
 20
-9.564491
 30
0.0
 11
1.081422
 21
-9.564491
 31
0.0
  0
LINE
  5
9DDE6
100
AcDbEntity
  8
SCALE
100
AcDbLine
 10
0.081422
 20
-9.864491
 30
0.0
 11
0.475122
 21
-9.864491
 31
0.0
  0
LINE
  5
9DDE7
100
AcDbEntity
  8
SCALE
100
AcDbLine
 10
0.081422
 20
-9.664491
 30
0.0
 11
0.081422
 21
-9.464491
 31
0.0
  0
TEXT
  5
9DDE8
100
AcDbEntity
  8
SCALE
100
AcDbText
 10
0.137398
 20
-9.816806
 30
0.0
 40
0.0625
  1
[10mm]
100
AcDbText
  0
LINE
  5
9DDE9
100
AcDbEntity
  8
SCALE
100
AcDbLine
 10
0.081422
 20
-9.964491
 30
0.0
 11
0.081422
 21
-9.764491
 31
0.0
  0
TEXT
  5
9DDEA
100
AcDbEntity
  8
SCALE
100
AcDbText
 10
0.082953
 20
-9.289614
 30
0.0
 40
0.0625
  1
SCALE:
100
AcDbText
  0
LINE
  5
9DDEB
100
AcDbEntity
  8
SCALE
100
AcDbLine
 10
0.475122
 20
-9.964491
 30
0.0
 11
0.475122
 21
-9.764491
 31
0.0
  0
TEXT
  5
9DDEC
100
AcDbEntity
  8
SCALE
100
AcDbText
 10
0.444705
 20
-9.495442
 30
0.0
 40
0.0625
  1
1 Inch
100
AcDbText
  0
LINE
  5
9DDED
100
AcDbEntity
  8
SCALE
100
AcDbLine
 10
1.081422
 20
-9.564491
 30
0.0
 11
1.081422
 21
-9.664491
 31
0.0
  0
LINE
  5
9DDEE
100
AcDbEntity
  8
SCALE
100
AcDbLine
 10
1.081422
 20
-9.664491
 30
0.0
 11
1.081422
 21
-9.464491
 31
0.0
  0
VIEWPORT
  5
5677D
102
{ACAD_XDICTIONARY
360
9DE52
102
}
100
AcDbEntity
 67
     1
  8
0
100
AcDbViewport
 10
5.25
 20
4.0
 30
0.0
 40
16.386862
 41
8.993
 68
    -1
 69
     1
1001
ACAD
1000
MVIEW
1002
{
1070
    16
1010
0.0
1020
0.0
1030
0.0
1010
0.0
1020
0.0
1030
1.0
1040
0.0
1040
8.993
1040
5.25
1040
4.0
1040
50.0
1040
0.0
1040
0.0
1070
     0
1070
 20000
1070
     1
1070
     1
1070
     0
1070
     0
1070
     0
1070
     0
1040
0.0
1040
0.0
1040
0.0
1040
0.5
1040
0.5
1040
0.5
1040
0.5
1070
     0
1002
{
1002
}
1002
}
  0
VIEWPORT
  5
5677F
102
{ACAD_XDICTIONARY
360
9DE54
102
}
100
AcDbEntity
 67
     1
  8
AREA1
100
AcDbViewport
 10
5.25
 20
4.0
 30
0.0
 40
8.4
 41
6.4
 68
     1
 69
     2
1001
ACAD
1000
MVIEW
1002
{
1070
    16
1010
0.563444
1020
-0.880137
1030
1.686493
1010
0.0
1020
0.0
1030
1.0
1040
0.0
1040
4.582914
1040
-1.017175
1040
0.747813
1040
50.0
1040
0.0
1040
0.0
1070
     0
1070
 20000
1070
     1
1070
     1
1070
     0
1070
     0
1070
     0
1070
     0
1040
0.0
1040
0.0
1040
0.0
1040
0.25
1040
0.25
1040
0.25
1040
0.25
1070
     0
1002
{
1002
}
1002
}
  0
ENDSEC
  0
SECTION
  2
OBJECTS
  0
DICTIONARY
  5
458CB
100
AcDbDictionary
  3
ACAD_GROUP
350
458CC
  3
ACAD_LAYOUT
350
458FB
  3
ACAD_MLINESTYLE
350
458D9
  3
ACAD_PLOTSETTINGS
350
458FC
  3
ACAD_PLOTSTYLENAME
350
458F9
  3
ACDBHEADERROUNDTRIPXREC
350
9DE29
  3
ACDBVARIABLEDICTIONARY
350
458E1
  3
DWGPROPS
350
45901
  0
DICTIONARY
  5
9DE27
100
AcDbDictionary
280
     1
  3
ACAD_XREC_ROUNDTRIP
360
9DE28
  0
DICTIONARY
  5
9DE50
100
AcDbDictionary
280
     1
  3
ACAD_XREC_ROUNDTRIP
360
9DE51
  0
DICTIONARY
  5
9DE25
100
AcDbDictionary
280
     1
  3
ACAD_XREC_ROUNDTRIP
360
9DE26
  0
DICTIONARY
  5
9DE4C
100
AcDbDictionary
280
     1
  3
ACAD_XREC_ROUNDTRIP
360
9DE4D
  0
DICTIONARY
  5
4592C
100
AcDbDictionary
280
     1
  3
ACAD_LAYOUTSELFREF
360
9DE4B
  0
DICTIONARY
  5
4592A
100
AcDbDictionary
280
     1
  3
ACAD_LAYOUTSELFREF
360
9DE4A
  0
DICTIONARY
  5
9DE52
100
AcDbDictionary
280
     1
  3
ACAD_XREC_ROUNDTRIP
360
9DE53
  0
DICTIONARY
  5
9DE54
100
AcDbDictionary
280
     1
  3
ACAD_XREC_ROUNDTRIP
360
9DE55
  0
DICTIONARY
  5
458CC
102
{ACAD_REACTORS
330
458CB
102
}
100
AcDbDictionary
  0
DICTIONARY
  5
458FB
102
{ACAD_XDICTIONARY
360
9DE4E
102
}
102
{ACAD_REACTORS
330
458CB
102
}
100
AcDbDictionary
  3
LAYOUT1
350
458FE
  3
MODEL
350
458FD
  0
DICTIONARY
  5
458D9
102
{ACAD_REACTORS
330
458CB
102
}
100
AcDbDictionary
  3
STANDARD
350
458DA
  0
DICTIONARY
  5
458FC
102
{ACAD_REACTORS
330
458CB
102
}
100
AcDbDictionary
  0
ACAD_PROXY_OBJECT
  5
458F9
102
{ACAD_REACTORS
330
458CB
102
}
100
AcDbProxyObject
 90
      499
 91
      501
 93
       86
310
405010041939BDC9B585B0
350
458FA
340
458FA
 94
        0
  0
DICTIONARY
  5
9DE29
102
{ACAD_REACTORS
330
458CB
102
}
100
AcDbDictionary
  3
CEPSNTYPE
350
9DE33
  3
DIMSTYLEDATA
350
9DE37
  3
FINGERPRINTGUID
350
9DE34
  3
HYPERLINKBASE
350
9DE2C
  3
INSUNITS
350
9DE32
  3
LAYOUTDICT
350
9DE2E
  3
LWETCUNION
350
9DE31
  3
PLOTSETDICT
350
9DE2F
  3
PLOTSTYLNAMDICT
350
9DE30
  3
PSVPSCALE
350
9DE36
  3
PUCSBASE
350
9DE3A
  3
PUCSORGBACK
350
9DE40
  3
PUCSORGBOTTOM
350
9DE3C
  3
PUCSORGFRONT
350
9DE3F
  3
PUCSORGLEFT
350
9DE3D
  3
PUCSORGRIGHT
350
9DE3E
  3
PUCSORGTOP
350
9DE3B
  3
PUCSORTHOREF
350
9DE38
  3
PUCSORTHOVIEW
350
9DE39
  3
STYLESHEET
350
9DE2D
  3
TSTACKALIGN
350
9DE2A
  3
TSTACKSIZE
350
9DE2B
  3
UCSBASE
350
9DE43
  3
UCSORGBACK
350
9DE49
  3
UCSORGBOTTOM
350
9DE45
  3
UCSORGFRONT
350
9DE48
  3
UCSORGLEFT
350
9DE46
  3
UCSORGRIGHT
350
9DE47
  3
UCSORGTOP
350
9DE44
  3
UCSORTHOREF
350
9DE41
  3
UCSORTHOVIEW
350
9DE42
  3
VERSIONGUID
350
9DE35
  0
DICTIONARY
  5
458E1
102
{ACAD_REACTORS
330
458CB
102
}
100
AcDbDictionary
  3
DIMADEC
350
458E2
  0
XRECORD
  5
45901
102
{ACAD_REACTORS
330
458CB
102
}
100
AcDbXrecord
  1
DWGPROPS COOKIE
  2

  3

  4

  6

  7

  8
colin
  9

300
=
301
=
302
=
303
=
304
=
305
=
306
=
307
=
308
=
309
=
 40
0.000599
 41
2451670.444777
 42
2451670.445376
  1

 90
        0
  0
XRECORD
  5
9DE28
102
{ACAD_REACTORS
330
9DE27
102
}
100
AcDbXrecord
102
EXTNAMES
  1
*ACTIVE
  2
*Active
102
UCS
 74
     0
 71
     1
 10
0.0
 20
0.0
 30
0.0
 10
1.0
 20
0.0
 30
0.0
 10
0.0
 20
1.0
 30
0.0
146
0.0
 79
     1
102
VIEW
281
     1
  0
XRECORD
  5
9DE51
102
{ACAD_REACTORS
330
9DE50
102
}
100
AcDbXrecord
102
PLOTBIT
280
     0
  0
XRECORD
  5
9DE26
102
{ACAD_REACTORS
330
9DE25
102
}
100
AcDbXrecord
102
EXTNAMES
  1
DEFPOINTS
  2
Defpoints
102
PLOTBIT
280
     0
  0
XRECORD
  5
9DE4D
102
{ACAD_REACTORS
330
9DE4C
102
}
100
AcDbXrecord
102
ACADR14ROUNDTRIP
1000
DSTYLE
1002
{
1070
   276
 70
     2
1070
   277
 70
     5
1070
   279
 70
     2
1070
   289
 70
     2
1002
}
  0
XRECORD
  5
9DE4B
102
{ACAD_REACTORS
330
4592C
102
}
100
AcDbXrecord
340
458D6
  0
XRECORD
  5
9DE4A
102
{ACAD_REACTORS
330
4592A
102
}
100
AcDbXrecord
340
458D3
  0
XRECORD
  5
9DE53
102
{ACAD_REACTORS
330
9DE52
102
}
100
AcDbXrecord
102
UCS
 74
     0
 71
     1
 10
0.0
 20
0.0
 30
0.0
 10
1.0
 20
0.0
 30
0.0
 10
0.0
 20
1.0
 30
0.0
146
0.0
 79
     0
102
VIEW
281
     0
102
NEWVIEWCONTROL
280
     4
  0
XRECORD
  5
9DE55
102
{ACAD_REACTORS
330
9DE54
102
}
100
AcDbXrecord
102
UCS
 74
     0
 71
     1
 10
0.0
 20
0.0
 30
0.0
 10
1.0
 20
0.0
 30
0.0
 10
0.0
 20
1.0
 30
0.0
146
0.0
 79
     1
102
VIEW
281
     1
102
NEWVIEWCONTROL
280
     4
  0
DICTIONARY
  5
9DE4E
100
AcDbDictionary
280
     1
  3
ACAD_XREC_ROUNDTRIP
360
9DE4F
  0
ACAD_PROXY_OBJECT
  5
458FE
102
{ACAD_REACTORS
330
458FB
102
}
100
AcDbProxyObject
 90
      499
 91
      503
 93
     1700
310
90B6E6F6E655F6465766963652C0080000006066661940000000181999865000000000068661940000000001A1986500000000C0CCFC6A4000000018199D9C5011C4C65747465725F28382E35305F785F31312E30305F496E6368657329A901416AA547D11959985D5B1D08148C4D081C195B88185CDCDA59DB9B595B9D1CC
310
B98DD1891069074C61796F75743140501A840201008040342FEFF7FBFDFFFFF3EFDFAFF7FBFFDFC9501008043E3FDFC8102A6A6A0000003033333C0FC000000809999E93F8FFFFFF5766E622403FFFFFEBF333071020
330
458D3
330
5677D
340
0
340
0
 94
        0
  0
ACAD_PROXY_OBJECT
  5
458FD
102
{ACAD_REACTORS
330
458FB
102
}
100
AcDbProxyObject
 90
      499
 91
      503
 93
      924
310
91D4850204C617365724A65742035303030205365726965732050434C20362C01AAAAAAAAA547D11959985D5B1D08148C4D081C195B88185CDCDA59DB9B595B9D1CCB98DD18A69054D6F64656C901A800000000000000000000000000000000000000000000A1000000000000008902A6A6AAAA0
330
458D6
330
0
340
0
340
0
 94
        0
  0
MLINESTYLE
  5
458DA
102
{ACAD_REACTORS
330
458D9
102
}
100
AcDbMlineStyle
  2
STANDARD
 70
     0
  3

 62
   256
 51
90.0
 52
90.0
 71
     2
 49
0.5
 62
   256
  6
BYLAYER
 49
-0.5
 62
   256
  6
BYLAYER
  0
ACAD_PROXY_OBJECT
  5
458FA
102
{ACAD_REACTORS
330
458F9
102
}
100
AcDbProxyObject
 90
      499
 91
      502
 93
        0
 94
        0
  0
XRECORD
  5
9DE33
102
{ACAD_REACTORS
330
9DE29
102
}
100
AcDbXrecord
 90
        0
  0
XRECORD
  5
9DE37
102
{ACAD_REACTORS
330
9DE29
102
}
100
AcDbXrecord
1000
DSTYLE
1002
{
1070
   276
 70
     2
1070
   277
 70
     5
1070
   279
 70
     2
1070
   289
 70
     2
1002
}
  0
XRECORD
  5
9DE34
102
{ACAD_REACTORS
330
9DE29
102
}
100
AcDbXrecord
  1
{6E0CF4B8-225E-11D4-A150-00A0CC3303EC}
  0
XRECORD
  5
9DE2C
102
{ACAD_REACTORS
330
9DE29
102
}
100
AcDbXrecord
  1

  0
XRECORD
  5
9DE32
102
{ACAD_REACTORS
330
9DE29
102
}
100
AcDbXrecord
 90
        0
  0
XRECORD
  5
9DE2E
102
{ACAD_REACTORS
330
9DE29
102
}
100
AcDbXrecord
340
458FB
  0
XRECORD
  5
9DE31
102
{ACAD_REACTORS
330
9DE29
102
}
100
AcDbXrecord
 90
    14877
  0
XRECORD
  5
9DE2F
102
{ACAD_REACTORS
330
9DE29
102
}
100
AcDbXrecord
340
458FC
  0
XRECORD
  5
9DE30
102
{ACAD_REACTORS
330
9DE29
102
}
100
AcDbXrecord
340
458F9
  0
XRECORD
  5
9DE36
102
{ACAD_REACTORS
330
9DE29
102
}
100
AcDbXrecord
 40
0.0
  0
XRECORD
  5
9DE3A
102
{ACAD_REACTORS
330
9DE29
102
}
100
AcDbXrecord
340
0
  0
XRECORD
  5
9DE40
102
{ACAD_REACTORS
330
9DE29
102
}
100
AcDbXrecord
 10
0.0
 20
0.0
 30
0.0
  0
XRECORD
  5
9DE3C
102
{ACAD_REACTORS
330
9DE29
102
}
100
AcDbXrecord
 10
0.0
 20
0.0
 30
0.0
  0
XRECORD
  5
9DE3F
102
{ACAD_REACTORS
330
9DE29
102
}
100
AcDbXrecord
 10
0.0
 20
0.0
 30
0.0
  0
XRECORD
  5
9DE3D
102
{ACAD_REACTORS
330
9DE29
102
}
100
AcDbXrecord
 10
0.0
 20
0.0
 30
0.0
  0
XRECORD
  5
9DE3E
102
{ACAD_REACTORS
330
9DE29
102
}
100
AcDbXrecord
 10
0.0
 20
0.0
 30
0.0
  0
XRECORD
  5
9DE3B
102
{ACAD_REACTORS
330
9DE29
102
}
100
AcDbXrecord
 10
0.0
 20
0.0
 30
0.0
  0
XRECORD
  5
9DE38
102
{ACAD_REACTORS
330
9DE29
102
}
100
AcDbXrecord
340
0
  0
XRECORD
  5
9DE39
102
{ACAD_REACTORS
330
9DE29
102
}
100
AcDbXrecord
 70
     0
  0
XRECORD
  5
9DE2D
102
{ACAD_REACTORS
330
9DE29
102
}
100
AcDbXrecord
  1

  0
XRECORD
  5
9DE2A
102
{ACAD_REACTORS
330
9DE29
102
}
100
AcDbXrecord
 90
        1
  0
XRECORD
  5
9DE2B
102
{ACAD_REACTORS
330
9DE29
102
}
100
AcDbXrecord
 90
       70
  0
XRECORD
  5
9DE43
102
{ACAD_REACTORS
330
9DE29
102
}
100
AcDbXrecord
340
0
  0
XRECORD
  5
9DE49
102
{ACAD_REACTORS
330
9DE29
102
}
100
AcDbXrecord
 10
0.0
 20
0.0
 30
0.0
  0
XRECORD
  5
9DE45
102
{ACAD_REACTORS
330
9DE29
102
}
100
AcDbXrecord
 10
0.0
 20
0.0
 30
0.0
  0
XRECORD
  5
9DE48
102
{ACAD_REACTORS
330
9DE29
102
}
100
AcDbXrecord
 10
0.0
 20
0.0
 30
0.0
  0
XRECORD
  5
9DE46
102
{ACAD_REACTORS
330
9DE29
102
}
100
AcDbXrecord
 10
0.0
 20
0.0
 30
0.0
  0
XRECORD
  5
9DE47
102
{ACAD_REACTORS
330
9DE29
102
}
100
AcDbXrecord
 10
0.0
 20
0.0
 30
0.0
  0
XRECORD
  5
9DE44
102
{ACAD_REACTORS
330
9DE29
102
}
100
AcDbXrecord
 10
0.0
 20
0.0
 30
0.0
  0
XRECORD
  5
9DE41
102
{ACAD_REACTORS
330
9DE29
102
}
100
AcDbXrecord
340
0
  0
XRECORD
  5
9DE42
102
{ACAD_REACTORS
330
9DE29
102
}
100
AcDbXrecord
 70
     1
  0
XRECORD
  5
9DE35
102
{ACAD_REACTORS
330
9DE29
102
}
100
AcDbXrecord
  1
{DA0F8EAB-889C-4F81-8FBB-3664B6E17C4A}
  0
DICTIONARYVAR
  5
458E2
102
{ACAD_REACTORS
330
458E1
102
}
100
DictionaryVariables
280
     0
  1
0
  0
XRECORD
  5
9DE4F
102
{ACAD_REACTORS
330
9DE4E
102
}
100
AcDbXrecord
102
EXTNAMES
  1
LAYOUT1
  2
Layout1
  1
MODEL
  2
Model
  0
ENDSEC
  0
EOF
