  0
SECTION
  2
HEADER
  9
$ACADVER
  1
AC1014
  9
$ACADMAINTVER
 70
     8
  9
$DWGCODEPAGE
  3
ANSI_1252
  9
$INSBASE
 10
0.0
 20
0.0
 30
0.0
  9
$EXTMIN
 10
-4.496146
 20
-13.204523
 30
-1.015272
  9
$EXTMAX
 10
3.06
 20
2.500093
 30
7.515272
  9
$LIMMIN
 10
0.0
 20
0.0
  9
$LIMMAX
 10
12.0
 20
9.0
  9
$ORTHOMODE
 70
     0
  9
$REGENMODE
 70
     1
  9
$FILLMODE
 70
     1
  9
$QTEXTMODE
 70
     0
  9
$MIRRTEXT
 70
     1
  9
$DRAGMODE
 70
     2
  9
$LTSCALE
 40
1.0
  9
$OSMODE
 70
    37
  9
$ATTMODE
 70
     0
  9
$TEXTSIZE
 40
0.2
  9
$TRACEWID
 40
0.05
  9
$TEXTSTYLE
  7
STANDARD
  9
$CLAYER
  8
0
  9
$CELTYPE
  6
BYLAYER
  9
$CECOLOR
 62
   256
  9
$CELTSCALE
 40
1.0
  9
$DELOBJ
 70
     1
  9
$DISPSILH
 70
     0
  9
$DIMSCALE
 40
0.0
  9
$DIMASZ
 40
0.125
  9
$DIMEXO
 40
0.0625
  9
$DIMDLI
 40
0.375
  9
$DIMRND
 40
0.0
  9
$DIMDLE
 40
0.0
  9
$DIMEXE
 40
0.0625
  9
$DIMTP
 40
0.0
  9
$DIMTM
 40
0.0
  9
$DIMTXT
 40
0.125
  9
$DIMCEN
 40
0.09
  9
$DIMTSZ
 40
0.0
  9
$DIMTOL
 70
     0
  9
$DIMLIM
 70
     0
  9
$DIMTIH
 70
     0
  9
$DIMTOH
 70
     1
  9
$DIMSE1
 70
     0
  9
$DIMSE2
 70
     0
  9
$DIMTAD
 70
     0
  9
$DIMZIN
 70
     4
  9
$DIMBLK
  1

  9
$DIMASO
 70
     1
  9
$DIMSHO
 70
     1
  9
$DIMPOST
  1

  9
$DIMAPOST
  1

  9
$DIMALT
 70
     1
  9
$DIMALTD
 70
     2
  9
$DIMALTF
 40
25.4
  9
$DIMLFAC
 40
1.0
  9
$DIMTOFL
 70
     0
  9
$DIMTVP
 40
0.0
  9
$DIMTIX
 70
     0
  9
$DIMSOXD
 70
     0
  9
$DIMSAH
 70
     0
  9
$DIMBLK1
  1

  9
$DIMBLK2
  1

  9
$DIMSTYLE
  2
ABECAD_3V
  9
$DIMCLRD
 70
     0
  9
$DIMCLRE
 70
     0
  9
$DIMCLRT
 70
     0
  9
$DIMTFAC
 40
1.5
  9
$DIMGAP
 40
0.09
  9
$DIMJUST
 70
     0
  9
$DIMSD1
 70
     0
  9
$DIMSD2
 70
     0
  9
$DIMTOLJ
 70
     1
  9
$DIMTZIN
 70
     4
  9
$DIMALTZ
 70
     4
  9
$DIMALTTZ
 70
     4
  9
$DIMFIT
 70
     5
  9
$DIMUPT
 70
     1
  9
$DIMUNIT
 70
     7
  9
$DIMDEC
 70
     6
  9
$DIMTDEC
 70
     6
  9
$DIMALTU
 70
     2
  9
$DIMALTTD
 70
     2
  9
$DIMTXSTY
  7
STANDARD
  9
$DIMAUNIT
 70
     0
  9
$LUNITS
 70
     2
  9
$LUPREC
 70
     6
  9
$SKETCHINC
 40
0.1
  9
$FILLETRAD
 40
0.0
  9
$AUNITS
 70
     0
  9
$AUPREC
 70
     0
  9
$MENU
  1
acad
  9
$ELEVATION
 40
0.0
  9
$PELEVATION
 40
0.0
  9
$THICKNESS
 40
0.0
  9
$LIMCHECK
 70
     0
  9
$BLIPMODE
 70
     0
  9
$CHAMFERA
 40
0.0
  9
$CHAMFERB
 40
0.0
  9
$CHAMFERC
 40
0.0
  9
$CHAMFERD
 40
0.0
  9
$SKPOLY
 70
     0
  9
$TDCREATE
 40
2451726.438362384
  9
$TDUPDATE
 40
2452010.725085069
  9
$TDINDWG
 40
1.1197891204
  9
$TDUSRTIMER
 40
1.1197891204
  9
$USRTIMER
 70
     1
  9
$ANGBASE
 50
0.0
  9
$ANGDIR
 70
     0
  9
$PDMODE
 70
     3
  9
$PDSIZE
 40
0.18
  9
$PLINEWID
 40
0.0
  9
$COORDS
 70
     1
  9
$SPLFRAME
 70
     0
  9
$SPLINETYPE
 70
     6
  9
$SPLINESEGS
 70
     8
  9
$ATTDIA
 70
     0
  9
$ATTREQ
 70
     1
  9
$HANDLING
 70
     1
  9
$HANDSEED
  5
4CB15
  9
$SURFTAB1
 70
     6
  9
$SURFTAB2
 70
     6
  9
$SURFTYPE
 70
     6
  9
$SURFU
 70
     6
  9
$SURFV
 70
     6
  9
$UCSNAME
  2

  9
$UCSORG
 10
0.0
 20
0.0
 30
0.0
  9
$UCSXDIR
 10
1.0
 20
0.0
 30
0.0
  9
$UCSYDIR
 10
0.0
 20
0.0
 30
1.0
  9
$PUCSNAME
  2

  9
$PUCSORG
 10
0.0
 20
0.0
 30
0.0
  9
$PUCSXDIR
 10
1.0
 20
0.0
 30
0.0
  9
$PUCSYDIR
 10
0.0
 20
1.0
 30
0.0
  9
$USERI1
 70
     0
  9
$USERI2
 70
     0
  9
$USERI3
 70
     0
  9
$USERI4
 70
     0
  9
$USERI5
 70
     0
  9
$USERR1
 40
0.0
  9
$USERR2
 40
0.0
  9
$USERR3
 40
0.0
  9
$USERR4
 40
0.0
  9
$USERR5
 40
0.0
  9
$WORLDVIEW
 70
     1
  9
$SHADEDGE
 70
     3
  9
$SHADEDIF
 70
    70
  9
$TILEMODE
 70
     0
  9
$MAXACTVP
 70
    16
  9
$PINSBASE
 10
0.0
 20
0.0
 30
0.0
  9
$PLIMCHECK
 70
     0
  9
$PEXTMIN
 10
0.0
 20
0.0
 30
0.0
  9
$PEXTMAX
 10
10.0
 20
7.5
 30
0.0
  9
$PLIMMIN
 10
-0.187029
 20
-0.186938
  9
$PLIMMAX
 10
10.187518
 20
7.829757
  9
$UNITMODE
 70
     0
  9
$VISRETAIN
 70
     0
  9
$PLINEGEN
 70
     0
  9
$PSLTSCALE
 70
     1
  9
$TREEDEPTH
 70
  3020
  9
$PICKSTYLE
 70
     1
  9
$CMLSTYLE
  2
STANDARD
  9
$CMLJUST
 70
     0
  9
$CMLSCALE
 40
1.0
  9
$PROXYGRAPHICS
 70
     1
  9
$MEASUREMENT
 70
     0
  0
ENDSEC
  0
SECTION
  2
CLASSES
  0
CLASS
  1
DICTIONARYVAR
  2
AcDbDictionaryVar
  3
"AutoCAD"
 90
        0
280
     0
281
     0
  0
CLASS
  1
ACDBDICTIONARYWDFLT
  2
AcDbDictionaryWithDefault
  3
AutoCAD 2000
 90
        0
280
     0
281
     0
  0
CLASS
  1
ACDBPLACEHOLDER
  2
AcDbPlaceHolder
  3
AutoCAD 2000
 90
        0
280
     0
281
     0
  0
CLASS
  1
LAYOUT
  2
AcDbLayout
  3
AutoCAD 2000
 90
        0
280
     0
281
     0
  0
CLASS
  1
LONG_TRANSACTION
  2
AcDbLongTransaction
  3
AutoCAD 2000
 90
        0
280
     0
281
     0
  0
CLASS
  1
LWPOLYLINE
  2
AcDbPolyline
  3
"AutoCAD"
 90
        0
280
     0
281
     1
  0
CLASS
  1
HATCH
  2
AcDbHatch
  3
"ACAD_SEDONA"
 90
        0
280
     0
281
     1
  0
CLASS
  1
XRECORD
  2
AcDbXrecord
  3
"<Built In>"
 90
        0
280
     0
281
     0
  0
CLASS
  1
LONG_TRANSACTION
  2
AcDbLongTransaction
  3
AutoCAD 2000
 90
        0
280
     0
281
     0
  0
CLASS
  1
LWPOLYLINE
  2
AcDbPolyline
  3
"AutoCAD"
 90
        0
280
     0
281
     1
  0
CLASS
  1
HATCH
  2
AcDbHatch
  3
"ACAD_SEDONA"
 90
        0
280
     0
281
     1
  0
CLASS
  1
XRECORD
  2
AcDbXrecord
  3
"<Built In>"
 90
        0
280
     0
281
     0
  0
CLASS
  1
LONG_TRANSACTION
  2
AcDbLongTransaction
  3
AutoCAD 2000
 90
        0
280
     0
281
     0
  0
CLASS
  1
LWPOLYLINE
  2
AcDbPolyline
  3
"AutoCAD"
 90
        0
280
     0
281
     1
  0
CLASS
  1
HATCH
  2
AcDbHatch
  3
"ACAD_SEDONA"
 90
        0
280
     0
281
     1
  0
CLASS
  1
XRECORD
  2
AcDbXrecord
  3
"<Built In>"
 90
        0
280
     0
281
     0
  0
CLASS
  1
LONG_TRANSACTION
  2
AcDbLongTransaction
  3
AutoCAD 2000
 90
        0
280
     0
281
     0
  0
CLASS
  1
LWPOLYLINE
  2
AcDbPolyline
  3
"AutoCAD"
 90
        0
280
     0
281
     1
  0
CLASS
  1
HATCH
  2
AcDbHatch
  3
"ACAD_SEDONA"
 90
        0
280
     0
281
     1
  0
CLASS
  1
XRECORD
  2
AcDbXrecord
  3
"<Built In>"
 90
        0
280
     0
281
     0
  0
CLASS
  1
LONG_TRANSACTION
  2
AcDbLongTransaction
  3
AutoCAD 2000
 90
        0
280
     0
281
     0
  0
CLASS
  1
LWPOLYLINE
  2
AcDbPolyline
  3
"AutoCAD"
 90
        0
280
     0
281
     1
  0
CLASS
  1
HATCH
  2
AcDbHatch
  3
"ACAD_SEDONA"
 90
        0
280
     0
281
     1
  0
CLASS
  1
XRECORD
  2
AcDbXrecord
  3
"<Built In>"
 90
        0
280
     0
281
     0
  0
CLASS
  1
LONG_TRANSACTION
  2
AcDbLongTransaction
  3
AutoCAD 2000
 90
        0
280
     0
281
     0
  0
CLASS
  1
LWPOLYLINE
  2
AcDbPolyline
  3
"AutoCAD"
 90
        0
280
     0
281
     1
  0
CLASS
  1
HATCH
  2
AcDbHatch
  3
"ACAD_SEDONA"
 90
        0
280
     0
281
     1
  0
CLASS
  1
XRECORD
  2
AcDbXrecord
  3
"<Built In>"
 90
        0
280
     0
281
     0
  0
CLASS
  1
LONG_TRANSACTION
  2
AcDbLongTransaction
  3
AutoCAD 2000
 90
        0
280
     0
281
     0
  0
CLASS
  1
LWPOLYLINE
  2
AcDbPolyline
  3
"AutoCAD"
 90
        0
280
     0
281
     1
  0
CLASS
  1
HATCH
  2
AcDbHatch
  3
"ACAD_SEDONA"
 90
        0
280
     0
281
     1
  0
CLASS
  1
XRECORD
  2
AcDbXrecord
  3
"<Built In>"
 90
        0
280
     0
281
     0
  0
CLASS
  1
LONG_TRANSACTION
  2
AcDbLongTransaction
  3
AutoCAD 2000
 90
        0
280
     0
281
     0
  0
CLASS
  1
LWPOLYLINE
  2
AcDbPolyline
  3
"AutoCAD"
 90
        0
280
     0
281
     1
  0
CLASS
  1
HATCH
  2
AcDbHatch
  3
"ACAD_SEDONA"
 90
        0
280
     0
281
     1
  0
CLASS
  1
XRECORD
  2
AcDbXrecord
  3
"<Built In>"
 90
        0
280
     0
281
     0
  0
CLASS
  1
LONG_TRANSACTION
  2
AcDbLongTransaction
  3
AutoCAD 2000
 90
        0
280
     0
281
     0
  0
CLASS
  1
LWPOLYLINE
  2
AcDbPolyline
  3
"AutoCAD"
 90
        0
280
     0
281
     1
  0
CLASS
  1
HATCH
  2
AcDbHatch
  3
"ACAD_SEDONA"
 90
        0
280
     0
281
     1
  0
CLASS
  1
XRECORD
  2
AcDbXrecord
  3
"<Built In>"
 90
        0
280
     0
281
     0
  0
CLASS
  1
LONG_TRANSACTION
  2
AcDbLongTransaction
  3
AutoCAD 2000
 90
        0
280
     0
281
     0
  0
CLASS
  1
LWPOLYLINE
  2
AcDbPolyline
  3
"AutoCAD"
 90
        0
280
     0
281
     1
  0
CLASS
  1
HATCH
  2
AcDbHatch
  3
"ACAD_SEDONA"
 90
        0
280
     0
281
     1
  0
CLASS
  1
XRECORD
  2
AcDbXrecord
  3
"<Built In>"
 90
        0
280
     0
281
     0
  0
CLASS
  1
LONG_TRANSACTION
  2
AcDbLongTransaction
  3
AutoCAD 2000
 90
        0
280
     0
281
     0
  0
CLASS
  1
LWPOLYLINE
  2
AcDbPolyline
  3
"AutoCAD"
 90
        0
280
     0
281
     1
  0
CLASS
  1
HATCH
  2
AcDbHatch
  3
"ACAD_SEDONA"
 90
        0
280
     0
281
     1
  0
CLASS
  1
XRECORD
  2
AcDbXrecord
  3
"<Built In>"
 90
        0
280
     0
281
     0
  0
CLASS
  1
LONG_TRANSACTION
  2
AcDbLongTransaction
  3
AutoCAD 2000
 90
        0
280
     0
281
     0
  0
CLASS
  1
LWPOLYLINE
  2
AcDbPolyline
  3
"AutoCAD"
 90
        0
280
     0
281
     1
  0
CLASS
  1
HATCH
  2
AcDbHatch
  3
"ACAD_SEDONA"
 90
        0
280
     0
281
     1
  0
CLASS
  1
XRECORD
  2
AcDbXrecord
  3
"<Built In>"
 90
        0
280
     0
281
     0
  0
CLASS
  1
LONG_TRANSACTION
  2
AcDbLongTransaction
  3
AutoCAD 2000
 90
        0
280
     0
281
     0
  0
CLASS
  1
LWPOLYLINE
  2
AcDbPolyline
  3
"AutoCAD"
 90
        0
280
     0
281
     1
  0
CLASS
  1
HATCH
  2
AcDbHatch
  3
"ACAD_SEDONA"
 90
        0
280
     0
281
     1
  0
CLASS
  1
XRECORD
  2
AcDbXrecord
  3
"<Built In>"
 90
        0
280
     0
281
     0
  0
CLASS
  1
LONG_TRANSACTION
  2
AcDbLongTransaction
  3
AutoCAD 2000
 90
        0
280
     0
281
     0
  0
CLASS
  1
LWPOLYLINE
  2
AcDbPolyline
  3
"AutoCAD"
 90
        0
280
     0
281
     1
  0
CLASS
  1
HATCH
  2
AcDbHatch
  3
"ACAD_SEDONA"
 90
        0
280
     0
281
     1
  0
CLASS
  1
XRECORD
  2
AcDbXrecord
  3
"<Built In>"
 90
        0
280
     0
281
     0
  0
CLASS
  1
LONG_TRANSACTION
  2
AcDbLongTransaction
  3
AutoCAD 2000
 90
        0
280
     0
281
     0
  0
CLASS
  1
LWPOLYLINE
  2
AcDbPolyline
  3
"AutoCAD"
 90
        0
280
     0
281
     1
  0
CLASS
  1
HATCH
  2
AcDbHatch
  3
"ACAD_SEDONA"
 90
        0
280
     0
281
     1
  0
CLASS
  1
XRECORD
  2
AcDbXrecord
  3
"<Built In>"
 90
        0
280
     0
281
     0
  0
CLASS
  1
LONG_TRANSACTION
  2
AcDbLongTransaction
  3
AutoCAD 2000
 90
        0
280
     0
281
     0
  0
CLASS
  1
LWPOLYLINE
  2
AcDbPolyline
  3
"AutoCAD"
 90
        0
280
     0
281
     1
  0
CLASS
  1
HATCH
  2
AcDbHatch
  3
"ACAD_SEDONA"
 90
        0
280
     0
281
     1
  0
CLASS
  1
XRECORD
  2
AcDbXrecord
  3
"<Built In>"
 90
        0
280
     0
281
     0
  0
CLASS
  1
LONG_TRANSACTION
  2
AcDbLongTransaction
  3
AutoCAD 2000
 90
        0
280
     0
281
     0
  0
CLASS
  1
LWPOLYLINE
  2
AcDbPolyline
  3
"AutoCAD"
 90
        0
280
     0
281
     1
  0
CLASS
  1
HATCH
  2
AcDbHatch
  3
"ACAD_SEDONA"
 90
        0
280
     0
281
     1
  0
CLASS
  1
XRECORD
  2
AcDbXrecord
  3
"<Built In>"
 90
        0
280
     0
281
     0
  0
CLASS
  1
LONG_TRANSACTION
  2
AcDbLongTransaction
  3
AutoCAD 2000
 90
        0
280
     0
281
     0
  0
CLASS
  1
LWPOLYLINE
  2
AcDbPolyline
  3
"AutoCAD"
 90
        0
280
     0
281
     1
  0
CLASS
  1
HATCH
  2
AcDbHatch
  3
"ACAD_SEDONA"
 90
        0
280
     0
281
     1
  0
CLASS
  1
XRECORD
  2
AcDbXrecord
  3
"<Built In>"
 90
        0
280
     0
281
     0
  0
CLASS
  1
LONG_TRANSACTION
  2
AcDbLongTransaction
  3
AutoCAD 2000
 90
        0
280
     0
281
     0
  0
CLASS
  1
LWPOLYLINE
  2
AcDbPolyline
  3
"AutoCAD"
 90
        0
280
     0
281
     1
  0
CLASS
  1
HATCH
  2
AcDbHatch
  3
"ACAD_SEDONA"
 90
        0
280
     0
281
     1
  0
CLASS
  1
XRECORD
  2
AcDbXrecord
  3
"<Built In>"
 90
        0
280
     0
281
     0
  0
CLASS
  1
LONG_TRANSACTION
  2
AcDbLongTransaction
  3
AutoCAD 2000
 90
        0
280
     0
281
     0
  0
CLASS
  1
LWPOLYLINE
  2
AcDbPolyline
  3
"AutoCAD"
 90
        0
280
     0
281
     1
  0
CLASS
  1
HATCH
  2
AcDbHatch
  3
"ACAD_SEDONA"
 90
        0
280
     0
281
     1
  0
CLASS
  1
XRECORD
  2
AcDbXrecord
  3
"<Built In>"
 90
        0
280
     0
281
     0
  0
CLASS
  1
LONG_TRANSACTION
  2
AcDbLongTransaction
  3
AutoCAD 2000
 90
        0
280
     0
281
     0
  0
CLASS
  1
LWPOLYLINE
  2
AcDbPolyline
  3
"AutoCAD"
 90
        0
280
     0
281
     1
  0
CLASS
  1
HATCH
  2
AcDbHatch
  3
"ACAD_SEDONA"
 90
        0
280
     0
281
     1
  0
CLASS
  1
XRECORD
  2
AcDbXrecord
  3
"<Built In>"
 90
        0
280
     0
281
     0
  0
CLASS
  1
LONG_TRANSACTION
  2
AcDbLongTransaction
  3
AutoCAD 2000
 90
        0
280
     0
281
     0
  0
CLASS
  1
LWPOLYLINE
  2
AcDbPolyline
  3
"AutoCAD"
 90
        0
280
     0
281
     1
  0
CLASS
  1
HATCH
  2
AcDbHatch
  3
"ACAD_SEDONA"
 90
        0
280
     0
281
     1
  0
CLASS
  1
XRECORD
  2
AcDbXrecord
  3
"<Built In>"
 90
        0
280
     0
281
     0
  0
CLASS
  1
LONG_TRANSACTION
  2
AcDbLongTransaction
  3
AutoCAD 2000
 90
        0
280
     0
281
     0
  0
CLASS
  1
LWPOLYLINE
  2
AcDbPolyline
  3
"AutoCAD"
 90
        0
280
     0
281
     1
  0
CLASS
  1
HATCH
  2
AcDbHatch
  3
"ACAD_SEDONA"
 90
        0
280
     0
281
     1
  0
CLASS
  1
XRECORD
  2
AcDbXrecord
  3
"<Built In>"
 90
        0
280
     0
281
     0
  0
CLASS
  1
LONG_TRANSACTION
  2
AcDbLongTransaction
  3
AutoCAD 2000
 90
        0
280
     0
281
     0
  0
CLASS
  1
LWPOLYLINE
  2
AcDbPolyline
  3
"AutoCAD"
 90
        0
280
     0
281
     1
  0
CLASS
  1
HATCH
  2
AcDbHatch
  3
"ACAD_SEDONA"
 90
        0
280
     0
281
     1
  0
CLASS
  1
XRECORD
  2
AcDbXrecord
  3
"<Built In>"
 90
        0
280
     0
281
     0
  0
CLASS
  1
LONG_TRANSACTION
  2
AcDbLongTransaction
  3
AutoCAD 2000
 90
        0
280
     0
281
     0
  0
CLASS
  1
LWPOLYLINE
  2
AcDbPolyline
  3
"AutoCAD"
 90
        0
280
     0
281
     1
  0
CLASS
  1
HATCH
  2
AcDbHatch
  3
"ACAD_SEDONA"
 90
        0
280
     0
281
     1
  0
CLASS
  1
XRECORD
  2
AcDbXrecord
  3
"<Built In>"
 90
        0
280
     0
281
     0
  0
CLASS
  1
LONG_TRANSACTION
  2
AcDbLongTransaction
  3
AutoCAD 2000
 90
        0
280
     0
281
     0
  0
CLASS
  1
LWPOLYLINE
  2
AcDbPolyline
  3
"AutoCAD"
 90
        0
280
     0
281
     1
  0
CLASS
  1
HATCH
  2
AcDbHatch
  3
"ACAD_SEDONA"
 90
        0
280
     0
281
     1
  0
CLASS
  1
XRECORD
  2
AcDbXrecord
  3
"<Built In>"
 90
        0
280
     0
281
     0
  0
CLASS
  1
LONG_TRANSACTION
  2
AcDbLongTransaction
  3
AutoCAD 2000
 90
        0
280
     0
281
     0
  0
CLASS
  1
LWPOLYLINE
  2
AcDbPolyline
  3
"AutoCAD"
 90
        0
280
     0
281
     1
  0
CLASS
  1
HATCH
  2
AcDbHatch
  3
"ACAD_SEDONA"
 90
        0
280
     0
281
     1
  0
CLASS
  1
XRECORD
  2
AcDbXrecord
  3
"<Built In>"
 90
        0
280
     0
281
     0
  0
CLASS
  1
LONG_TRANSACTION
  2
AcDbLongTransaction
  3
AutoCAD 2000
 90
        0
280
     0
281
     0
  0
CLASS
  1
LWPOLYLINE
  2
AcDbPolyline
  3
"AutoCAD"
 90
        0
280
     0
281
     1
  0
CLASS
  1
HATCH
  2
AcDbHatch
  3
"ACAD_SEDONA"
 90
        0
280
     0
281
     1
  0
CLASS
  1
XRECORD
  2
AcDbXrecord
  3
"<Built In>"
 90
        0
280
     0
281
     0
  0
CLASS
  1
LONG_TRANSACTION
  2
AcDbLongTransaction
  3
AutoCAD 2000
 90
        0
280
     0
281
     0
  0
CLASS
  1
LWPOLYLINE
  2
AcDbPolyline
  3
"AutoCAD"
 90
        0
280
     0
281
     1
  0
CLASS
  1
HATCH
  2
AcDbHatch
  3
"ACAD_SEDONA"
 90
        0
280
     0
281
     1
  0
CLASS
  1
XRECORD
  2
AcDbXrecord
  3
"<Built In>"
 90
        0
280
     0
281
     0
  0
CLASS
  1
LONG_TRANSACTION
  2
AcDbLongTransaction
  3
AutoCAD 2000
 90
        0
280
     0
281
     0
  0
CLASS
  1
LWPOLYLINE
  2
AcDbPolyline
  3
"AutoCAD"
 90
        0
280
     0
281
     1
  0
CLASS
  1
HATCH
  2
AcDbHatch
  3
"ACAD_SEDONA"
 90
        0
280
     0
281
     1
  0
CLASS
  1
XRECORD
  2
AcDbXrecord
  3
"<Built In>"
 90
        0
280
     0
281
     0
  0
CLASS
  1
LONG_TRANSACTION
  2
AcDbLongTransaction
  3
AutoCAD 2000
 90
        0
280
     0
281
     0
  0
CLASS
  1
LWPOLYLINE
  2
AcDbPolyline
  3
"AutoCAD"
 90
        0
280
     0
281
     1
  0
CLASS
  1
HATCH
  2
AcDbHatch
  3
"ACAD_SEDONA"
 90
        0
280
     0
281
     1
  0
CLASS
  1
XRECORD
  2
AcDbXrecord
  3
"<Built In>"
 90
        0
280
     0
281
     0
  0
CLASS
  1
LONG_TRANSACTION
  2
AcDbLongTransaction
  3
AutoCAD 2000
 90
        0
280
     0
281
     0
  0
CLASS
  1
LWPOLYLINE
  2
AcDbPolyline
  3
"AutoCAD"
 90
        0
280
     0
281
     1
  0
CLASS
  1
HATCH
  2
AcDbHatch
  3
"ACAD_SEDONA"
 90
        0
280
     0
281
     1
  0
CLASS
  1
XRECORD
  2
AcDbXrecord
  3
"<Built In>"
 90
        0
280
     0
281
     0
  0
CLASS
  1
LONG_TRANSACTION
  2
AcDbLongTransaction
  3
AutoCAD 2000
 90
        0
280
     0
281
     0
  0
CLASS
  1
LWPOLYLINE
  2
AcDbPolyline
  3
"AutoCAD"
 90
        0
280
     0
281
     1
  0
CLASS
  1
HATCH
  2
AcDbHatch
  3
"ACAD_SEDONA"
 90
        0
280
     0
281
     1
  0
CLASS
  1
XRECORD
  2
AcDbXrecord
  3
"<Built In>"
 90
        0
280
     0
281
     0
  0
CLASS
  1
LONG_TRANSACTION
  2
AcDbLongTransaction
  3
AutoCAD 2000
 90
        0
280
     0
281
     0
  0
CLASS
  1
LWPOLYLINE
  2
AcDbPolyline
  3
"AutoCAD"
 90
        0
280
     0
281
     1
  0
CLASS
  1
HATCH
  2
AcDbHatch
  3
"ACAD_SEDONA"
 90
        0
280
     0
281
     1
  0
CLASS
  1
XRECORD
  2
AcDbXrecord
  3
"<Built In>"
 90
        0
280
     0
281
     0
  0
CLASS
  1
LONG_TRANSACTION
  2
AcDbLongTransaction
  3
AutoCAD 2000
 90
        0
280
     0
281
     0
  0
CLASS
  1
LWPOLYLINE
  2
AcDbPolyline
  3
"AutoCAD"
 90
        0
280
     0
281
     1
  0
CLASS
  1
HATCH
  2
AcDbHatch
  3
"ACAD_SEDONA"
 90
        0
280
     0
281
     1
  0
CLASS
  1
XRECORD
  2
AcDbXrecord
  3
"<Built In>"
 90
        0
280
     0
281
     0
  0
CLASS
  1
LONG_TRANSACTION
  2
AcDbLongTransaction
  3
AutoCAD 2000
 90
        0
280
     0
281
     0
  0
CLASS
  1
LWPOLYLINE
  2
AcDbPolyline
  3
"AutoCAD"
 90
        0
280
     0
281
     1
  0
CLASS
  1
HATCH
  2
AcDbHatch
  3
"ACAD_SEDONA"
 90
        0
280
     0
281
     1
  0
CLASS
  1
XRECORD
  2
AcDbXrecord
  3
"<Built In>"
 90
        0
280
     0
281
     0
  0
CLASS
  1
LONG_TRANSACTION
  2
AcDbLongTransaction
  3
AutoCAD 2000
 90
        0
280
     0
281
     0
  0
CLASS
  1
LWPOLYLINE
  2
AcDbPolyline
  3
"AutoCAD"
 90
        0
280
     0
281
     1
  0
CLASS
  1
HATCH
  2
AcDbHatch
  3
"ACAD_SEDONA"
 90
        0
280
     0
281
     1
  0
CLASS
  1
XRECORD
  2
AcDbXrecord
  3
"<Built In>"
 90
        0
280
     0
281
     0
  0
ENDSEC
  0
SECTION
  2
TABLES
  0
TABLE
  2
VPORT
  5
469
100
AcDbSymbolTable
 70
     1
  0
VPORT
  5
4CA0E
102
{ACAD_XDICTIONARY
360
4CADD
102
}
100
AcDbSymbolTableRecord
100
AcDbViewportTableRecord
  2
*ACTIVE
 70
     0
 10
0.0
 20
0.0
 11
1.0
 21
1.0
 12
-3.045136
 22
-4.614399
 13
0.0
 23
0.0
 14
1.0
 24
1.0
 15
0.0
 25
0.0
 16
0.0
 26
0.0
 36
1.0
 17
2.363971
 27
-1.157606
 37
0.0
 40
15.035246
 41
1.82218
 42
50.0
 43
0.0
 44
0.0
 50
0.0
 51
0.0
 71
     0
 72
   100
 73
     1
 74
     1
 75
     0
 76
     0
 77
     0
 78
     0
  0
ENDTAB
  0
TABLE
  2
LTYPE
  5
466
100
AcDbSymbolTable
 70
     1
  0
LTYPE
  5
472
100
AcDbSymbolTableRecord
100
AcDbLinetypeTableRecord
  2
BYBLOCK
 70
     0
  3

 72
    65
 73
     0
 40
0.0
  0
LTYPE
  5
473
100
AcDbSymbolTableRecord
100
AcDbLinetypeTableRecord
  2
BYLAYER
 70
     0
  3

 72
    65
 73
     0
 40
0.0
  0
LTYPE
  5
474
100
AcDbSymbolTableRecord
100
AcDbLinetypeTableRecord
  2
CONTINUOUS
 70
     0
  3
Solid line
 72
    65
 73
     0
 40
0.0
  0
ENDTAB
  0
TABLE
  2
LAYER
  5
463
100
AcDbSymbolTable
 70
     8
  0
LAYER
  5
46F
100
AcDbSymbolTableRecord
100
AcDbLayerTableRecord
  2
0
 70
     0
 62
     7
  6
CONTINUOUS
  0
LAYER
  5
485
100
AcDbSymbolTableRecord
100
AcDbLayerTableRecord
  2
AREA1
 70
     0
 62
     7
  6
CONTINUOUS
  0
LAYER
  5
486
100
AcDbSymbolTableRecord
100
AcDbLayerTableRecord
  2
AREA2
 70
     0
 62
     7
  6
CONTINUOUS
  0
LAYER
  5
494
102
{ACAD_XDICTIONARY
360
4CB0A
102
}
100
AcDbSymbolTableRecord
100
AcDbLayerTableRecord
  2
DEFPOINTS
 70
     0
 62
    -7
  6
CONTINUOUS
  0
LAYER
  5
495
100
AcDbSymbolTableRecord
100
AcDbLayerTableRecord
  2
DIMS-MTG-HOLES
 70
     0
 62
    -1
  6
CONTINUOUS
  0
LAYER
  5
4E6
100
AcDbSymbolTableRecord
100
AcDbLayerTableRecord
  2
SCALE
 70
     0
 62
    -7
  6
CONTINUOUS
  0
LAYER
  5
4ED
100
AcDbSymbolTableRecord
100
AcDbLayerTableRecord
  2
SNAP_POINTS
 70
     0
 62
    -1
  6
CONTINUOUS
  0
LAYER
  5
4F1
100
AcDbSymbolTableRecord
100
AcDbLayerTableRecord
  2
ATTRIBUTES
 70
     0
 62
    -7
  6
CONTINUOUS
  0
ENDTAB
  0
TABLE
  2
STYLE
  5
464
100
AcDbSymbolTable
 70
     1
  0
STYLE
  5
470
100
AcDbSymbolTableRecord
100
AcDbTextStyleTableRecord
  2
STANDARD
 70
     0
 40
0.0
 41
1.0
 50
0.0
 71
     0
 42
0.2
  3
txt
  4

  0
ENDTAB
  0
TABLE
  2
VIEW
  5
467
100
AcDbSymbolTable
 70
     0
  0
ENDTAB
  0
TABLE
  2
UCS
  5
468
100
AcDbSymbolTable
 70
     0
  0
ENDTAB
  0
TABLE
  2
APPID
  5
46A
100
AcDbSymbolTable
 70
     2
  0
APPID
  5
471
100
AcDbSymbolTableRecord
100
AcDbRegAppTableRecord
  2
ACAD
 70
     0
  0
APPID
  5
47E
100
AcDbSymbolTableRecord
100
AcDbRegAppTableRecord
  2
AVE_RENDER
 70
     0
  0
ENDTAB
  0
TABLE
  2
DIMSTYLE
  5
46B
100
AcDbSymbolTable
 70
     2
  0
DIMSTYLE
105
49A
102
{ACAD_XDICTIONARY
360
4CB0C
102
}
102
{ACAD_REACTORS
330
4CA00
330
4C9C6
330
4C9C5
102
}
100
AcDbSymbolTableRecord
100
AcDbDimStyleTableRecord
  2
ABECAD_3V
 70
     0
  3

  4

  5

  6

  7

 40
0.0
 41
0.125
 42
0.0625
 43
0.375
 44
0.0625
 45
0.0
 46
0.0
 47
0.0
 48
0.0
140
0.125
141
0.09
142
0.0
143
25.4
144
1.0
145
0.0
146
1.5
147
0.09
 71
     0
 72
     0
 73
     0
 74
     1
 75
     0
 76
     0
 77
     0
 78
     4
170
     1
171
     2
172
     0
173
     0
174
     0
175
     0
176
     0
177
     0
178
     0
270
     7
271
     6
272
     6
273
     2
274
     2
340
470
275
     0
280
     0
281
     0
282
     0
283
     1
284
     4
285
     4
286
     4
287
     5
288
     1
  0
DIMSTYLE
105
512
102
{ACAD_XDICTIONARY
360
4CB10
102
}
100
AcDbSymbolTableRecord
100
AcDbDimStyleTableRecord
  2
ABECAD_3D
 70
     0
  3

  4

  5

  6

  7

 40
1.0
 41
0.18
 42
0.0625
 43
0.375
 44
0.18
 45
0.0
 46
0.0
 47
0.0
 48
0.0
140
0.18
141
0.09
142
0.0
143
25.4
144
1.0
145
0.0
146
1.5
147
0.09
 71
     0
 72
     0
 73
     0
 74
     1
 75
     0
 76
     0
 77
     0
 78
     4
170
     1
171
     2
172
     0
173
     0
174
     0
175
     0
176
     0
177
     0
178
     0
270
     7
271
     6
272
     6
273
     2
274
     2
340
470
275
     0
280
     0
281
     0
282
     0
283
     1
284
     4
285
     4
286
     4
287
     5
288
     1
  0
ENDTAB
  0
TABLE
  2
BLOCK_RECORD
  5
462
100
AcDbSymbolTable
 70
     3
  0
BLOCK_RECORD
  5
478
102
{ACAD_XDICTIONARY
360
4D2
102
}
100
AcDbSymbolTableRecord
100
AcDbBlockTableRecord
  2
*MODEL_SPACE
  0
BLOCK_RECORD
  5
475
102
{ACAD_XDICTIONARY
360
4D0
102
}
100
AcDbSymbolTableRecord
100
AcDbBlockTableRecord
  2
*PAPER_SPACE
  0
BLOCK_RECORD
  5
4C9D2
100
AcDbSymbolTableRecord
100
AcDbBlockTableRecord
  2
*D0
  0
BLOCK_RECORD
  5
4C9DF
100
AcDbSymbolTableRecord
100
AcDbBlockTableRecord
  2
*D1
  0
BLOCK_RECORD
  5
4CA01
100
AcDbSymbolTableRecord
100
AcDbBlockTableRecord
  2
*D2
  0
ENDTAB
  0
ENDSEC
  0
SECTION
  2
BLOCKS
  0
BLOCK
  5
48B
100
AcDbEntity
  8
0
100
AcDbBlockBegin
  2
*MODEL_SPACE
 70
     0
 10
0.0
 20
0.0
 30
0.0
  3
*MODEL_SPACE
  1

  0
ENDBLK
  5
48C
100
AcDbEntity
  8
0
100
AcDbBlockEnd
  0
BLOCK
  5
489
100
AcDbEntity
 67
     1
  8
0
100
AcDbBlockBegin
  2
*PAPER_SPACE
 70
     0
 10
0.0
 20
0.0
 30
0.0
  3
*PAPER_SPACE
  1

  0
ENDBLK
  5
48A
100
AcDbEntity
 67
     1
  8
0
100
AcDbBlockEnd
  0
BLOCK
  5
4C9DD
100
AcDbEntity
  8
0
100
AcDbBlockBegin
  2
*D0
 70
     1
 10
0.0
 20
0.0
 30
0.0
  3
*D0
  1

  0
LINE
  5
4CA22
100
AcDbEntity
  8
AREA1
 62
     0
100
AcDbLine
 10
-1.943818
 20
0.31
 30
0.0
 11
-4.496146
 21
0.31
 31
0.0
1001
ACAD
1000
RTLwPs
1070
   158
  0
LINE
  5
4CA23
100
AcDbEntity
  8
AREA1
 62
     0
100
AcDbLine
 10
-2.218819
 20
-12.140001
 30
0.0
 11
-4.496146
 21
-12.140001
 31
0.0
1001
ACAD
1000
RTLwPs
1070
   158
  0
LINE
  5
4CA24
100
AcDbEntity
  8
AREA1
 62
     0
100
AcDbLine
 10
-4.242328
 20
-0.197636
 30
0.0
 11
-4.242328
 21
-1.915514
 31
0.0
1001
ACAD
1000
RTLwPs
1070
   158
  0
LINE
  5
4CA25
100
AcDbEntity
  8
AREA1
 62
     0
100
AcDbLine
 10
-4.242328
 20
-11.632365
 30
0.0
 11
-4.242328
 21
-10.091837
 31
0.0
1001
ACAD
1000
RTLwPs
1070
   158
  0
MTEXT
  5
4CA26
100
AcDbEntity
  8
AREA1
 62
     0
100
AcDbMText
 10
-4.242328
 20
-6.003676
 30
0.0
 40
0.507636
 41
0.0
 71
     5
 72
     1
  1
\A1;12 29/64 [316.23]
 11
0.0
 21
1.0
 31
0.0
1001
ACAD
1000
MTEXTBEGIN
1070
    73
1070
     1
1070
    44
1040
1.0
1070
    74
1070
     0
1000
MTEXTEND
1000
MTEXTBEGIN
1070
    73
1070
     1
1070
    44
1040
1.0
1070
    74
1070
     0
1000
MTEXTEND
1000
MTEXTBEGIN
1070
    73
1070
     1
1070
    44
1040
1.0
1070
    74
1070
     0
1000
MTEXTEND
1000
MTEXTBEGIN
1070
    73
1070
     1
1070
    44
1040
1.0
1070
    74
1070
     0
1000
MTEXTEND
  0
SOLID
  5
4CA27
100
AcDbEntity
  8
AREA1
 62
     0
100
AcDbTrace
 10
-4.326934
 20
-0.197636
 30
0.0
 11
-4.157722
 21
-0.197636
 31
0.0
 12
-4.242328
 22
0.31
 32
0.0
 13
-4.242328
 23
0.31
 33
0.0
  0
SOLID
  5
4CA28
100
AcDbEntity
  8
AREA1
 62
     0
100
AcDbTrace
 10
-4.326934
 20
-11.632365
 30
0.0
 11
-4.157722
 21
-11.632365
 31
0.0
 12
-4.242328
 22
-12.140001
 32
0.0
 13
-4.242328
 23
-12.140001
 33
0.0
  0
POINT
  5
4CA29
100
AcDbEntity
  8
DEFPOINTS
 62
     0
100
AcDbPoint
 10
-1.69
 20
0.31
 30
0.0
  0
POINT
  5
4CA2A
100
AcDbEntity
  8
DEFPOINTS
 62
     0
100
AcDbPoint
 10
-1.965001
 20
-12.140001
 30
2.81
  0
POINT
  5
4CA2B
100
AcDbEntity
  8
DEFPOINTS
 62
     0
100
AcDbPoint
 10
-4.242328
 20
-12.140001
 30
0.0
  0
ENDBLK
  5
4C9DE
100
AcDbEntity
  8
0
100
AcDbBlockEnd
  0
BLOCK
  5
4C9EA
100
AcDbEntity
  8
0
100
AcDbBlockBegin
  2
*D1
 70
     1
 10
0.0
 20
0.0
 30
0.0
  3
*D1
  1

  0
LINE
  5
4CA2C
100
AcDbEntity
  8
AREA1
 62
     0
100
AcDbLine
 10
-3.06
 20
-7.486182
 30
0.0
 11
-3.06
 21
1.73433
 31
0.0
1001
ACAD
1000
RTLwPs
1070
   158
  0
LINE
  5
4CA2D
100
AcDbEntity
  8
AREA1
 62
     0
100
AcDbLine
 10
3.06
 20
-7.486182
 30
0.0
 11
3.06
 21
1.73433
 31
0.0
1001
ACAD
1000
RTLwPs
1070
   158
  0
LINE
  5
4CA2E
100
AcDbEntity
  8
AREA1
 62
     0
100
AcDbLine
 10
-2.552364
 20
1.480513
 30
0.0
 11
2.552364
 21
1.480513
 31
0.0
1001
ACAD
1000
RTLwPs
1070
   158
  0
MTEXT
  5
4CA2F
100
AcDbEntity
  8
AREA1
 62
     0
100
AcDbMText
 10
-0.053251
 20
2.246275
 30
0.0
 40
0.507636
 41
0.0
 71
     5
 72
     1
  1
\A1;6 1/8 [155.45]
1001
ACAD
1000
MTEXTBEGIN
1070
    73
1070
     1
1070
    44
1040
1.0
1070
    74
1070
     0
1000
MTEXTEND
1000
MTEXTBEGIN
1070
    73
1070
     1
1070
    44
1040
1.0
1070
    74
1070
     0
1000
MTEXTEND
1000
MTEXTBEGIN
1070
    73
1070
     1
1070
    44
1040
1.0
1070
    74
1070
     0
1000
MTEXTEND
1000
MTEXTBEGIN
1070
    73
1070
     1
1070
    44
1040
1.0
1070
    74
1070
     0
1000
MTEXTEND
  0
SOLID
  5
4CA30
100
AcDbEntity
  8
AREA1
 62
     0
100
AcDbTrace
 10
-2.552364
 20
1.565119
 30
0.0
 11
-2.552364
 21
1.395907
 31
0.0
 12
-3.06
 22
1.480513
 32
0.0
 13
-3.06
 23
1.480513
 33
0.0
  0
SOLID
  5
4CA31
100
AcDbEntity
  8
AREA1
 62
     0
100
AcDbTrace
 10
2.552364
 20
1.565119
 30
0.0
 11
2.552364
 21
1.395907
 31
0.0
 12
3.06
 22
1.480513
 32
0.0
 13
3.06
 23
1.480513
 33
0.0
  0
POINT
  5
4CA32
100
AcDbEntity
  8
DEFPOINTS
 62
     0
100
AcDbPoint
 10
-3.06
 20
-7.74
 30
0.0
  0
POINT
  5
4CA33
100
AcDbEntity
  8
DEFPOINTS
 62
     0
100
AcDbPoint
 10
3.06
 20
-7.74
 30
0.0
  0
POINT
  5
4CA34
100
AcDbEntity
  8
DEFPOINTS
 62
     0
100
AcDbPoint
 10
3.06
 20
1.480513
 30
0.0
  0
ENDBLK
  5
4C9EB
100
AcDbEntity
  8
0
100
AcDbBlockEnd
  0
BLOCK
  5
4CA0C
100
AcDbEntity
  8
0
100
AcDbBlockBegin
  2
*D2
 70
     1
 10
0.0
 20
0.0
 30
0.0
  3
*D2
  1

  0
LINE
  5
4CA0F
100
AcDbEntity
  8
AREA2
 62
     0
100
AcDbLine
 10
-2.218818
 20
6.5
 30
0.0
 11
-4.256422
 21
6.5
 31
0.0
1001
ACAD
1000
RTLwPs
1070
   158
  0
LINE
  5
4CA10
100
AcDbEntity
  8
AREA2
 62
     0
100
AcDbLine
 10
-3.313818
 20
0.0
 30
0.0
 11
-4.256422
 21
0.0
 31
0.0
1001
ACAD
1000
RTLwPs
1070
   158
  0
LINE
  5
4CA11
100
AcDbEntity
  8
AREA2
 62
     0
100
AcDbLine
 10
-4.002604
 20
7.007636
 30
0.0
 11
-4.002604
 21
7.515272
 31
0.0
1001
ACAD
1000
RTLwPs
1070
   158
  0
LINE
  5
4CA12
100
AcDbEntity
  8
AREA2
 62
     0
100
AcDbLine
 10
-4.002604
 20
-0.507636
 30
0.0
 11
-4.002604
 21
-1.015272
 31
0.0
1001
ACAD
1000
RTLwPs
1070
   158
  0
MTEXT
  5
4CA13
100
AcDbEntity
  8
AREA2
 62
     0
100
AcDbMText
 10
-4.002604
 20
3.068074
 30
0.0
 40
0.507636
 41
0.0
 71
     5
 72
     1
  1
\A1;6 1/2 [165.10]
 11
0.0
 21
1.0
 31
0.0
1001
ACAD
1000
MTEXTBEGIN
1070
    73
1070
     1
1070
    44
1040
1.0
1070
    74
1070
     0
1000
MTEXTEND
1000
MTEXTBEGIN
1070
    73
1070
     1
1070
    44
1040
1.0
1070
    74
1070
     0
1000
MTEXTEND
1000
MTEXTBEGIN
1070
    73
1070
     1
1070
    44
1040
1.0
1070
    74
1070
     0
1000
MTEXTEND
1000
MTEXTBEGIN
1070
    73
1070
     1
1070
    44
1040
1.0
1070
    74
1070
     0
1000
MTEXTEND
  0
SOLID
  5
4CA14
100
AcDbEntity
  8
AREA2
 62
     0
100
AcDbTrace
 10
-4.08721
 20
7.007636
 30
0.0
 11
-3.917998
 21
7.007636
 31
0.0
 12
-4.002604
 22
6.5
 32
0.0
 13
-4.002604
 23
6.5
 33
0.0
  0
SOLID
  5
4CA15
100
AcDbEntity
  8
AREA2
 62
     0
100
AcDbTrace
 10
-4.08721
 20
-0.507636
 30
0.0
 11
-3.917998
 21
-0.507636
 31
0.0
 12
-4.002604
 22
0.0
 32
0.0
 13
-4.002604
 23
0.0
 33
0.0
  0
POINT
  5
4CA16
100
AcDbEntity
  8
DEFPOINTS
 62
     0
100
AcDbPoint
 10
-1.965
 20
6.5
 30
0.69
  0
POINT
  5
4CA17
100
AcDbEntity
  8
DEFPOINTS
 62
     0
100
AcDbPoint
 10
-3.06
 20
0.0
 30
7.74
  0
POINT
  5
4CA18
100
AcDbEntity
  8
DEFPOINTS
 62
     0
100
AcDbPoint
 10
-4.002604
 20
0.0
 30
0.0
  0
ENDBLK
  5
4CA0D
100
AcDbEntity
  8
0
100
AcDbBlockEnd
  0
ENDSEC
  0
SECTION
  2
ENTITIES
  0
3DFACE
  5
4C6C4
100
AcDbEntity
  8
0
100
AcDbFace
 10
-0.49
 20
-9.475001
 30
6.28
 11
-1.11
 21
-9.475001
 31
6.28
 12
-1.05
 22
-9.350001
 32
5.87
 13
-0.55
 23
-9.350001
 33
5.87
 70
    14
  0
3DFACE
  5
4C6C5
100
AcDbEntity
  8
0
100
AcDbFace
 10
-0.49
 20
-8.725001
 30
6.28
 11
-0.55
 21
-8.850001
 31
5.87
 12
-1.05
 22
-8.850001
 32
5.87
 13
-1.11
 23
-8.725001
 33
6.28
 70
    14
  0
3DFACE
  5
4C6C6
100
AcDbEntity
  8
0
100
AcDbFace
 10
-1.11
 20
-9.475001
 30
6.28
 11
-1.11
 21
-8.725001
 31
6.28
 12
-1.05
 22
-8.850001
 32
5.87
 13
-1.05
 23
-9.350001
 33
5.87
 70
    14
  0
LINE
  5
4C6C7
100
AcDbEntity
  8
0
100
AcDbLine
 10
-1.11
 20
-8.725001
 30
6.28
 11
-1.05
 21
-8.850001
 31
5.870001
  0
LINE
  5
4C6C8
100
AcDbEntity
  8
0
100
AcDbLine
 10
-1.11
 20
-9.475001
 30
6.28
 11
-1.05
 21
-9.350001
 31
5.87
  0
3DFACE
  5
4C6C9
100
AcDbEntity
  8
0
100
AcDbFace
 10
-0.49
 20
-8.725001
 30
6.28
 11
-0.55
 21
-8.850001
 31
5.87
 12
-0.55
 22
-9.350001
 32
5.87
 13
-0.49
 23
-9.475001
 33
6.28
 70
    14
  0
LINE
  5
4C6CA
100
AcDbEntity
  8
0
100
AcDbLine
 10
-0.49
 20
-9.475001
 30
6.28
 11
-0.55
 21
-9.350001
 31
5.87
  0
LINE
  5
4C6CB
100
AcDbEntity
  8
0
100
AcDbLine
 10
-0.49
 20
-8.725001
 30
6.28
 11
-0.55
 21
-8.850001
 31
5.870001
  0
3DFACE
  5
4C6CC
100
AcDbEntity
  8
0
100
AcDbFace
 10
-0.71
 20
-9.010001
 30
5.56
 11
-0.71
 21
-9.010001
 31
4.76
 12
-0.71
 22
-9.190001
 32
4.76
 13
-0.71
 23
-9.190001
 33
5.56
 70
    14
  0
3DFACE
  5
4C6CD
100
AcDbEntity
  8
0
100
AcDbFace
 10
-0.89
 20
-9.010001
 30
5.56
 11
-0.89
 21
-9.010001
 31
4.76
 12
-0.71
 22
-9.010001
 32
4.76
 13
-0.71
 23
-9.010001
 33
5.56
 70
    14
  0
3DFACE
  5
4C6CE
100
AcDbEntity
  8
0
100
AcDbFace
 10
-0.89
 20
-9.010001
 30
5.56
 11
-0.89
 21
-9.010001
 31
4.76
 12
-0.89
 22
-9.190001
 32
4.76
 13
-0.89
 23
-9.190001
 33
5.56
 70
    14
  0
3DFACE
  5
4C6CF
100
AcDbEntity
  8
0
100
AcDbFace
 10
-0.71
 20
-9.190001
 30
5.56
 11
-0.71
 21
-9.190001
 31
4.76
 12
-0.89
 22
-9.190001
 32
4.76
 13
-0.89
 23
-9.190001
 33
5.56
 70
    14
  0
LINE
  5
4C6D0
100
AcDbEntity
  8
0
100
AcDbLine
 10
-0.71
 20
-9.190001
 30
5.56
 11
-0.71
 21
-9.190001
 31
4.76
  0
LINE
  5
4C6D1
100
AcDbEntity
  8
0
100
AcDbLine
 10
-0.89
 20
-9.190001
 30
5.56
 11
-0.89
 21
-9.190001
 31
4.76
  0
LINE
  5
4C6D2
100
AcDbEntity
  8
0
100
AcDbLine
 10
-0.89
 20
-9.010001
 30
5.56
 11
-0.89
 21
-9.010001
 31
4.76
  0
LINE
  5
4C6D3
100
AcDbEntity
  8
0
100
AcDbLine
 10
-0.71
 20
-9.010001
 30
5.56
 11
-0.71
 21
-9.010001
 31
4.76
  0
LINE
  5
4C6D4
100
AcDbEntity
  8
0
100
AcDbLine
 10
-0.71
 20
-9.010001
 30
4.76
 11
-0.89
 21
-9.010001
 31
4.76
  0
LINE
  5
4C6D5
100
AcDbEntity
  8
0
100
AcDbLine
 10
-0.89
 20
-9.190001
 30
4.76
 11
-0.71
 21
-9.190001
 31
4.76
  0
LINE
  5
4C6D6
100
AcDbEntity
  8
0
100
AcDbLine
 10
-0.89
 20
-9.010001
 30
4.76
 11
-0.89
 21
-9.190001
 31
4.76
  0
LINE
  5
4C6D7
100
AcDbEntity
  8
0
100
AcDbLine
 10
-0.71
 20
-9.190001
 30
4.76
 11
-0.71
 21
-9.010001
 31
4.76
  0
3DFACE
  5
4C6D8
100
AcDbEntity
  8
0
100
AcDbFace
 10
-1.05
 20
-9.350001
 30
5.87
 11
-0.55
 21
-9.350001
 31
5.87
 12
-0.55
 22
-9.350001
 32
5.56
 13
-1.05
 23
-9.350001
 33
5.56
 70
    14
  0
3DFACE
  5
4C6D9
100
AcDbEntity
  8
0
100
AcDbFace
 10
-0.55
 20
-8.850001
 30
5.87
 11
-0.55
 21
-8.850001
 31
5.56
 12
-1.05
 22
-8.850001
 32
5.56
 13
-1.05
 23
-8.850001
 33
5.87
 70
    14
  0
LINE
  5
4C6DA
100
AcDbEntity
  8
0
100
AcDbLine
 10
-0.55
 20
-8.850001
 30
5.56
 11
-1.05
 21
-8.850001
 31
5.56
  0
LINE
  5
4C6DB
100
AcDbEntity
  8
0
100
AcDbLine
 10
-1.05
 20
-9.350001
 30
5.56
 11
-0.55
 21
-9.350001
 31
5.56
  0
3DFACE
  5
4C6DC
100
AcDbEntity
  8
0
100
AcDbFace
 10
-0.71
 20
-9.010001
 30
5.56
 11
-0.89
 21
-9.010001
 31
5.56
 12
-0.89
 22
-9.190001
 32
5.56
 13
-0.71
 23
-9.190001
 33
5.56
 70
    14
  0
LINE
  5
4C6DD
100
AcDbEntity
  8
0
100
AcDbLine
 10
-0.71
 20
-9.010001
 30
5.56
 11
-0.89
 21
-9.010001
 31
5.56
  0
LINE
  5
4C6DE
100
AcDbEntity
  8
0
100
AcDbLine
 10
-0.89
 20
-9.190001
 30
5.56
 11
-0.71
 21
-9.190001
 31
5.56
  0
LINE
  5
4C6DF
100
AcDbEntity
  8
0
100
AcDbLine
 10
-0.55
 20
-8.850001
 30
5.87
 11
-1.05
 21
-8.850001
 31
5.87
  0
LINE
  5
4C6E0
100
AcDbEntity
  8
0
100
AcDbLine
 10
-1.05
 20
-9.350001
 30
5.87
 11
-0.55
 21
-9.350001
 31
5.87
  0
3DFACE
  5
4C6E1
100
AcDbEntity
  8
0
100
AcDbFace
 10
-1.05
 20
-9.350001
 30
5.87
 11
-1.05
 21
-9.350001
 31
5.56
 12
-1.05
 22
-8.850001
 32
5.56
 13
-1.05
 23
-8.850001
 33
5.87
 70
    14
  0
LINE
  5
4C6E2
100
AcDbEntity
  8
0
100
AcDbLine
 10
-1.05
 20
-8.850001
 30
5.56
 11
-1.05
 21
-9.350001
 31
5.56
  0
LINE
  5
4C6E3
100
AcDbEntity
  8
0
100
AcDbLine
 10
-1.05
 20
-8.850001
 30
5.87
 11
-1.05
 21
-9.350001
 31
5.87
  0
LINE
  5
4C6E4
100
AcDbEntity
  8
0
100
AcDbLine
 10
-1.05
 20
-9.350001
 30
5.87
 11
-1.05
 21
-9.350001
 31
5.56
  0
LINE
  5
4C6E5
100
AcDbEntity
  8
0
100
AcDbLine
 10
-1.05
 20
-8.850001
 30
5.87
 11
-1.05
 21
-8.850001
 31
5.56
  0
LINE
  5
4C6E6
100
AcDbEntity
  8
0
100
AcDbLine
 10
-0.89
 20
-9.010001
 30
5.56
 11
-0.89
 21
-9.190001
 31
5.56
  0
3DFACE
  5
4C6E7
100
AcDbEntity
  8
0
100
AcDbFace
 10
-0.55
 20
-8.850001
 30
5.87
 11
-0.55
 21
-9.350001
 31
5.87
 12
-0.55
 22
-9.350001
 32
5.56
 13
-0.55
 23
-8.850001
 33
5.56
 70
    14
  0
LINE
  5
4C6E8
100
AcDbEntity
  8
0
100
AcDbLine
 10
-0.55
 20
-9.350001
 30
5.56
 11
-0.55
 21
-8.850001
 31
5.56
  0
LINE
  5
4C6E9
100
AcDbEntity
  8
0
100
AcDbLine
 10
-0.55
 20
-9.350001
 30
5.87
 11
-0.55
 21
-8.850001
 31
5.87
  0
LINE
  5
4C6EA
100
AcDbEntity
  8
0
100
AcDbLine
 10
-0.55
 20
-9.350001
 30
5.87
 11
-0.55
 21
-9.350001
 31
5.56
  0
LINE
  5
4C6EB
100
AcDbEntity
  8
0
100
AcDbLine
 10
-0.55
 20
-8.850001
 30
5.87
 11
-0.55
 21
-8.850001
 31
5.56
  0
LINE
  5
4C6EC
100
AcDbEntity
  8
0
100
AcDbLine
 10
-0.71
 20
-9.190001
 30
5.56
 11
-0.71
 21
-9.010001
 31
5.56
  0
3DFACE
  5
4C6ED
100
AcDbEntity
  8
0
100
AcDbFace
 10
-0.49
 20
-8.725001
 30
6.4
 11
-1.11
 21
-8.725001
 31
6.4
 12
-1.11
 22
-9.475001
 32
6.4
 13
-0.49
 23
-9.475001
 33
6.4
 70
    14
  0
3DFACE
  5
4C6EE
100
AcDbEntity
  8
0
100
AcDbFace
 10
-0.49
 20
-9.475001
 30
6.4
 11
-0.49
 21
-9.475001
 31
6.28
 12
-1.11
 22
-9.475001
 32
6.28
 13
-1.11
 23
-9.475001
 33
6.4
 70
    14
  0
3DFACE
  5
4C6EF
100
AcDbEntity
  8
0
100
AcDbFace
 10
-0.49
 20
-8.725001
 30
6.4
 11
-0.49
 21
-8.725001
 31
6.28
 12
-1.11
 22
-8.725001
 32
6.28
 13
-1.11
 23
-8.725001
 33
6.4
 70
    14
  0
LINE
  5
4C6F0
100
AcDbEntity
  8
0
100
AcDbLine
 10
-0.49
 20
-8.725001
 30
6.4
 11
-1.11
 21
-8.725001
 31
6.4
  0
LINE
  5
4C6F1
100
AcDbEntity
  8
0
100
AcDbLine
 10
-1.11
 20
-9.475001
 30
6.4
 11
-0.49
 21
-9.475001
 31
6.4
  0
LINE
  5
4C6F2
100
AcDbEntity
  8
0
100
AcDbLine
 10
-0.49
 20
-8.725001
 30
6.28
 11
-1.11
 21
-8.725001
 31
6.28
  0
LINE
  5
4C6F3
100
AcDbEntity
  8
0
100
AcDbLine
 10
-1.11
 20
-9.475001
 30
6.28
 11
-0.49
 21
-9.475001
 31
6.28
  0
3DFACE
  5
4C6F4
100
AcDbEntity
  8
0
100
AcDbFace
 10
-1.11
 20
-9.475001
 30
6.4
 11
-1.11
 21
-8.725001
 31
6.4
 12
-1.11
 22
-8.725001
 32
6.28
 13
-1.11
 23
-9.475001
 33
6.28
 70
    14
  0
LINE
  5
4C6F5
100
AcDbEntity
  8
0
100
AcDbLine
 10
-1.11
 20
-8.725001
 30
6.4
 11
-1.11
 21
-9.475001
 31
6.4
  0
LINE
  5
4C6F6
100
AcDbEntity
  8
0
100
AcDbLine
 10
-1.11
 20
-8.725001
 30
6.28
 11
-1.11
 21
-9.475001
 31
6.28
  0
LINE
  5
4C6F7
100
AcDbEntity
  8
0
100
AcDbLine
 10
-1.11
 20
-9.475001
 30
6.4
 11
-1.11
 21
-9.475001
 31
6.28
  0
LINE
  5
4C6F8
100
AcDbEntity
  8
0
100
AcDbLine
 10
-1.11
 20
-8.725001
 30
6.4
 11
-1.11
 21
-8.725001
 31
6.28
  0
3DFACE
  5
4C6F9
100
AcDbEntity
  8
0
100
AcDbFace
 10
-0.49
 20
-8.725001
 30
6.4
 11
-0.49
 21
-8.725001
 31
6.28
 12
-0.49
 22
-9.475001
 32
6.28
 13
-0.49
 23
-9.475001
 33
6.4
 70
    14
  0
LINE
  5
4C6FA
100
AcDbEntity
  8
0
100
AcDbLine
 10
-0.49
 20
-9.475001
 30
6.4
 11
-0.49
 21
-8.725001
 31
6.4
  0
LINE
  5
4C6FB
100
AcDbEntity
  8
0
100
AcDbLine
 10
-0.49
 20
-9.475001
 30
6.28
 11
-0.49
 21
-8.725001
 31
6.28
  0
LINE
  5
4C6FC
100
AcDbEntity
  8
0
100
AcDbLine
 10
-0.49
 20
-9.475001
 30
6.4
 11
-0.49
 21
-9.475001
 31
6.28
  0
LINE
  5
4C6FD
100
AcDbEntity
  8
0
100
AcDbLine
 10
-0.49
 20
-8.725001
 30
6.4
 11
-0.49
 21
-8.725001
 31
6.28
  0
CIRCLE
  5
4C6FE
100
AcDbEntity
  8
0
100
AcDbCircle
 10
-1.590001
 20
-11.765002
 30
3.81
 40
0.22
  0
LINE
  5
4C6FF
100
AcDbEntity
  8
0
100
AcDbLine
 10
-2.56
 20
-11.48
 30
0.25
 11
-2.56
 21
-11.540001
 31
0.25
  0
POLYLINE
  5
4C700
100
AcDbEntity
  8
0
100
AcDbPolygonMesh
 66
     1
 10
0.0
 20
0.0
 30
0.0
 70
    16
 71
     6
 72
     3
  0
VERTEX
  5
4C701
100
AcDbEntity
  8
0
100
AcDbVertex
100
AcDbPolygonMeshVertex
 10
2.559999
 20
-11.540001
 30
0.25
 70
    64
  0
VERTEX
  5
4C702
100
AcDbEntity
  8
0
100
AcDbVertex
100
AcDbPolygonMeshVertex
 10
2.559999
 20
-11.540001
 30
0.19
 70
    64
  0
VERTEX
  5
4C703
100
AcDbEntity
  8
0
100
AcDbVertex
100
AcDbPolygonMeshVertex
 10
2.559999
 20
-11.540001
 30
0.19
 70
    64
  0
VERTEX
  5
4C704
100
AcDbEntity
  8
0
100
AcDbVertex
100
AcDbPolygonMeshVertex
 10
-2.56
 20
-11.540001
 30
0.25
 70
    64
  0
VERTEX
  5
4C705
100
AcDbEntity
  8
0
100
AcDbVertex
100
AcDbPolygonMeshVertex
 10
-2.56
 20
-11.540001
 30
0.19
 70
    64
  0
VERTEX
  5
4C706
100
AcDbEntity
  8
0
100
AcDbVertex
100
AcDbPolygonMeshVertex
 10
-2.56
 20
-11.540001
 30
0.19
 70
    64
  0
VERTEX
  5
4C707
100
AcDbEntity
  8
0
100
AcDbVertex
100
AcDbPolygonMeshVertex
 10
-2.56
 20
-8.500001
 30
0.25
 70
    64
  0
VERTEX
  5
4C708
100
AcDbEntity
  8
0
100
AcDbVertex
100
AcDbPolygonMeshVertex
 10
-2.56
 20
-8.500001
 30
0.19
 70
    64
  0
VERTEX
  5
4C709
100
AcDbEntity
  8
0
100
AcDbVertex
100
AcDbPolygonMeshVertex
 10
-2.56
 20
-11.540001
 30
0.19
 70
    64
  0
VERTEX
  5
4C70A
100
AcDbEntity
  8
0
100
AcDbVertex
100
AcDbPolygonMeshVertex
 10
2.559999
 20
-8.500001
 30
0.25
 70
    64
  0
VERTEX
  5
4C70B
100
AcDbEntity
  8
0
100
AcDbVertex
100
AcDbPolygonMeshVertex
 10
2.559999
 20
-8.500001
 30
0.19
 70
    64
  0
VERTEX
  5
4C70C
100
AcDbEntity
  8
0
100
AcDbVertex
100
AcDbPolygonMeshVertex
 10
2.559999
 20
-11.540001
 30
0.19
 70
    64
  0
VERTEX
  5
4C70D
100
AcDbEntity
  8
0
100
AcDbVertex
100
AcDbPolygonMeshVertex
 10
2.559999
 20
-8.500001
 30
0.25
 70
    64
  0
VERTEX
  5
4C70E
100
AcDbEntity
  8
0
100
AcDbVertex
100
AcDbPolygonMeshVertex
 10
2.559999
 20
-8.500001
 30
0.25
 70
    64
  0
VERTEX
  5
4C70F
100
AcDbEntity
  8
0
100
AcDbVertex
100
AcDbPolygonMeshVertex
 10
2.559999
 20
-11.540001
 30
0.25
 70
    64
  0
VERTEX
  5
4C710
100
AcDbEntity
  8
0
100
AcDbVertex
100
AcDbPolygonMeshVertex
 10
-2.56
 20
-8.500001
 30
0.25
 70
    64
  0
VERTEX
  5
4C711
100
AcDbEntity
  8
0
100
AcDbVertex
100
AcDbPolygonMeshVertex
 10
-2.56
 20
-8.500001
 30
0.25
 70
    64
  0
VERTEX
  5
4C712
100
AcDbEntity
  8
0
100
AcDbVertex
100
AcDbPolygonMeshVertex
 10
-2.56
 20
-11.540001
 30
0.25
 70
    64
  0
SEQEND
  5
4C713
100
AcDbEntity
  8
0
  0
POLYLINE
  5
4C714
100
AcDbEntity
  8
0
100
AcDbPolygonMesh
 66
     1
 10
0.0
 20
0.0
 30
0.0
 70
    16
 71
     6
 72
     3
  0
VERTEX
  5
4C715
100
AcDbEntity
  8
0
100
AcDbVertex
100
AcDbPolygonMeshVertex
 10
2.559999
 20
-11.540001
 30
1.56
 70
    64
  0
VERTEX
  5
4C716
100
AcDbEntity
  8
0
100
AcDbVertex
100
AcDbPolygonMeshVertex
 10
2.559999
 20
-11.540001
 30
0.25
 70
    64
  0
VERTEX
  5
4C717
100
AcDbEntity
  8
0
100
AcDbVertex
100
AcDbPolygonMeshVertex
 10
2.559999
 20
-11.540001
 30
0.25
 70
    64
  0
VERTEX
  5
4C718
100
AcDbEntity
  8
0
100
AcDbVertex
100
AcDbPolygonMeshVertex
 10
-2.56
 20
-11.540001
 30
1.56
 70
    64
  0
VERTEX
  5
4C719
100
AcDbEntity
  8
0
100
AcDbVertex
100
AcDbPolygonMeshVertex
 10
-2.56
 20
-11.540001
 30
0.25
 70
    64
  0
VERTEX
  5
4C71A
100
AcDbEntity
  8
0
100
AcDbVertex
100
AcDbPolygonMeshVertex
 10
-2.56
 20
-11.540001
 30
0.25
 70
    64
  0
VERTEX
  5
4C71B
100
AcDbEntity
  8
0
100
AcDbVertex
100
AcDbPolygonMeshVertex
 10
-2.56
 20
-11.48
 30
1.56
 70
    64
  0
VERTEX
  5
4C71C
100
AcDbEntity
  8
0
100
AcDbVertex
100
AcDbPolygonMeshVertex
 10
-2.56
 20
-11.48
 30
0.25
 70
    64
  0
VERTEX
  5
4C71D
100
AcDbEntity
  8
0
100
AcDbVertex
100
AcDbPolygonMeshVertex
 10
-2.56
 20
-11.540001
 30
0.25
 70
    64
  0
VERTEX
  5
4C71E
100
AcDbEntity
  8
0
100
AcDbVertex
100
AcDbPolygonMeshVertex
 10
2.559999
 20
-11.48
 30
1.56
 70
    64
  0
VERTEX
  5
4C71F
100
AcDbEntity
  8
0
100
AcDbVertex
100
AcDbPolygonMeshVertex
 10
2.559999
 20
-11.48
 30
0.25
 70
    64
  0
VERTEX
  5
4C720
100
AcDbEntity
  8
0
100
AcDbVertex
100
AcDbPolygonMeshVertex
 10
2.559999
 20
-11.540001
 30
0.25
 70
    64
  0
VERTEX
  5
4C721
100
AcDbEntity
  8
0
100
AcDbVertex
100
AcDbPolygonMeshVertex
 10
2.559999
 20
-11.48
 30
1.56
 70
    64
  0
VERTEX
  5
4C722
100
AcDbEntity
  8
0
100
AcDbVertex
100
AcDbPolygonMeshVertex
 10
2.559999
 20
-11.48
 30
1.56
 70
    64
  0
VERTEX
  5
4C723
100
AcDbEntity
  8
0
100
AcDbVertex
100
AcDbPolygonMeshVertex
 10
2.559999
 20
-11.540001
 30
1.56
 70
    64
  0
VERTEX
  5
4C724
100
AcDbEntity
  8
0
100
AcDbVertex
100
AcDbPolygonMeshVertex
 10
-2.56
 20
-11.48
 30
1.56
 70
    64
  0
VERTEX
  5
4C725
100
AcDbEntity
  8
0
100
AcDbVertex
100
AcDbPolygonMeshVertex
 10
-2.56
 20
-11.48
 30
1.56
 70
    64
  0
VERTEX
  5
4C726
100
AcDbEntity
  8
0
100
AcDbVertex
100
AcDbPolygonMeshVertex
 10
-2.56
 20
-11.540001
 30
1.56
 70
    64
  0
SEQEND
  5
4C727
100
AcDbEntity
  8
0
  0
POLYLINE
  5
4C728
100
AcDbEntity
  8
0
100
AcDbPolygonMesh
 66
     1
 10
0.0
 20
0.0
 30
0.0
 70
    16
 71
     6
 72
     3
  0
VERTEX
  5
4C729
100
AcDbEntity
  8
0
100
AcDbVertex
100
AcDbPolygonMeshVertex
 10
2.559999
 20
-11.48
 30
1.56
 70
    64
  0
VERTEX
  5
4C72A
100
AcDbEntity
  8
0
100
AcDbVertex
100
AcDbPolygonMeshVertex
 10
2.559999
 20
-11.48
 30
1.5
 70
    64
  0
VERTEX
  5
4C72B
100
AcDbEntity
  8
0
100
AcDbVertex
100
AcDbPolygonMeshVertex
 10
2.559999
 20
-11.48
 30
1.5
 70
    64
  0
VERTEX
  5
4C72C
100
AcDbEntity
  8
0
100
AcDbVertex
100
AcDbPolygonMeshVertex
 10
-2.56
 20
-11.48
 30
1.56
 70
    64
  0
VERTEX
  5
4C72D
100
AcDbEntity
  8
0
100
AcDbVertex
100
AcDbPolygonMeshVertex
 10
-2.56
 20
-11.48
 30
1.5
 70
    64
  0
VERTEX
  5
4C72E
100
AcDbEntity
  8
0
100
AcDbVertex
100
AcDbPolygonMeshVertex
 10
-2.56
 20
-11.48
 30
1.5
 70
    64
  0
VERTEX
  5
4C72F
100
AcDbEntity
  8
0
100
AcDbVertex
100
AcDbPolygonMeshVertex
 10
-2.56
 20
-9.310001
 30
1.56
 70
    64
  0
VERTEX
  5
4C730
100
AcDbEntity
  8
0
100
AcDbVertex
100
AcDbPolygonMeshVertex
 10
-2.56
 20
-9.310001
 30
1.5
 70
    64
  0
VERTEX
  5
4C731
100
AcDbEntity
  8
0
100
AcDbVertex
100
AcDbPolygonMeshVertex
 10
-2.56
 20
-11.48
 30
1.5
 70
    64
  0
VERTEX
  5
4C732
100
AcDbEntity
  8
0
100
AcDbVertex
100
AcDbPolygonMeshVertex
 10
2.559999
 20
-9.310001
 30
1.56
 70
    64
  0
VERTEX
  5
4C733
100
AcDbEntity
  8
0
100
AcDbVertex
100
AcDbPolygonMeshVertex
 10
2.559999
 20
-9.310001
 30
1.5
 70
    64
  0
VERTEX
  5
4C734
100
AcDbEntity
  8
0
100
AcDbVertex
100
AcDbPolygonMeshVertex
 10
2.559999
 20
-11.48
 30
1.5
 70
    64
  0
VERTEX
  5
4C735
100
AcDbEntity
  8
0
100
AcDbVertex
100
AcDbPolygonMeshVertex
 10
2.559999
 20
-9.310001
 30
1.56
 70
    64
  0
VERTEX
  5
4C736
100
AcDbEntity
  8
0
100
AcDbVertex
100
AcDbPolygonMeshVertex
 10
2.559999
 20
-9.310001
 30
1.56
 70
    64
  0
VERTEX
  5
4C737
100
AcDbEntity
  8
0
100
AcDbVertex
100
AcDbPolygonMeshVertex
 10
2.559999
 20
-11.48
 30
1.56
 70
    64
  0
VERTEX
  5
4C738
100
AcDbEntity
  8
0
100
AcDbVertex
100
AcDbPolygonMeshVertex
 10
-2.56
 20
-9.310001
 30
1.56
 70
    64
  0
VERTEX
  5
4C739
100
AcDbEntity
  8
0
100
AcDbVertex
100
AcDbPolygonMeshVertex
 10
-2.56
 20
-9.310001
 30
1.56
 70
    64
  0
VERTEX
  5
4C73A
100
AcDbEntity
  8
0
100
AcDbVertex
100
AcDbPolygonMeshVertex
 10
-2.56
 20
-11.48
 30
1.56
 70
    64
  0
SEQEND
  5
4C73B
100
AcDbEntity
  8
0
  0
POLYLINE
  5
4C73C
100
AcDbEntity
  8
0
100
AcDbPolygonMesh
 66
     1
 10
0.0
 20
0.0
 30
0.0
 70
    16
 71
     6
 72
     3
  0
VERTEX
  5
4C73D
100
AcDbEntity
  8
0
100
AcDbVertex
100
AcDbPolygonMeshVertex
 10
-1.965001
 20
-10.750001
 30
3.31
 70
    64
  0
VERTEX
  5
4C73E
100
AcDbEntity
  8
0
100
AcDbVertex
100
AcDbPolygonMeshVertex
 10
-1.965001
 20
-10.750001
 30
2.81
 70
    64
  0
VERTEX
  5
4C73F
100
AcDbEntity
  8
0
100
AcDbVertex
100
AcDbPolygonMeshVertex
 10
-1.965001
 20
-10.750001
 30
2.81
 70
    64
  0
VERTEX
  5
4C740
100
AcDbEntity
  8
0
100
AcDbVertex
100
AcDbPolygonMeshVertex
 10
-1.215001
 20
-10.750001
 30
3.31
 70
    64
  0
VERTEX
  5
4C741
100
AcDbEntity
  8
0
100
AcDbVertex
100
AcDbPolygonMeshVertex
 10
-1.215001
 20
-10.750001
 30
2.81
 70
    64
  0
VERTEX
  5
4C742
100
AcDbEntity
  8
0
100
AcDbVertex
100
AcDbPolygonMeshVertex
 10
-1.215001
 20
-10.750001
 30
2.81
 70
    64
  0
VERTEX
  5
4C743
100
AcDbEntity
  8
0
100
AcDbVertex
100
AcDbPolygonMeshVertex
 10
-1.215001
 20
-12.140001
 30
3.31
 70
    64
  0
VERTEX
  5
4C744
100
AcDbEntity
  8
0
100
AcDbVertex
100
AcDbPolygonMeshVertex
 10
-1.215001
 20
-12.140001
 30
2.81
 70
    64
  0
VERTEX
  5
4C745
100
AcDbEntity
  8
0
100
AcDbVertex
100
AcDbPolygonMeshVertex
 10
-1.215001
 20
-10.750001
 30
2.81
 70
    64
  0
VERTEX
  5
4C746
100
AcDbEntity
  8
0
100
AcDbVertex
100
AcDbPolygonMeshVertex
 10
-1.965001
 20
-12.140001
 30
3.31
 70
    64
  0
VERTEX
  5
4C747
100
AcDbEntity
  8
0
100
AcDbVertex
100
AcDbPolygonMeshVertex
 10
-1.965001
 20
-12.140001
 30
2.81
 70
    64
  0
VERTEX
  5
4C748
100
AcDbEntity
  8
0
100
AcDbVertex
100
AcDbPolygonMeshVertex
 10
-1.965001
 20
-10.750001
 30
2.81
 70
    64
  0
VERTEX
  5
4C749
100
AcDbEntity
  8
0
100
AcDbVertex
100
AcDbPolygonMeshVertex
 10
-1.965001
 20
-12.140001
 30
3.31
 70
    64
  0
VERTEX
  5
4C74A
100
AcDbEntity
  8
0
100
AcDbVertex
100
AcDbPolygonMeshVertex
 10
-1.965001
 20
-12.140001
 30
3.31
 70
    64
  0
VERTEX
  5
4C74B
100
AcDbEntity
  8
0
100
AcDbVertex
100
AcDbPolygonMeshVertex
 10
-1.965001
 20
-10.750001
 30
3.31
 70
    64
  0
VERTEX
  5
4C74C
100
AcDbEntity
  8
0
100
AcDbVertex
100
AcDbPolygonMeshVertex
 10
-1.215001
 20
-12.140001
 30
3.31
 70
    64
  0
VERTEX
  5
4C74D
100
AcDbEntity
  8
0
100
AcDbVertex
100
AcDbPolygonMeshVertex
 10
-1.215001
 20
-12.140001
 30
3.31
 70
    64
  0
VERTEX
  5
4C74E
100
AcDbEntity
  8
0
100
AcDbVertex
100
AcDbPolygonMeshVertex
 10
-1.215001
 20
-10.750001
 30
3.31
 70
    64
  0
SEQEND
  5
4C74F
100
AcDbEntity
  8
0
  0
POLYLINE
  5
4C750
100
AcDbEntity
  8
0
100
AcDbPolygonMesh
 66
     1
 10
0.0
 20
0.0
 30
0.0
 70
    16
 71
     6
 72
     3
  0
VERTEX
  5
4C751
100
AcDbEntity
  8
0
100
AcDbVertex
100
AcDbPolygonMeshVertex
 10
-1.215001
 20
-12.140001
 30
3.81
 70
    64
  0
VERTEX
  5
4C752
100
AcDbEntity
  8
0
100
AcDbVertex
100
AcDbPolygonMeshVertex
 10
-1.215001
 20
-12.140001
 30
3.31
 70
    64
  0
VERTEX
  5
4C753
100
AcDbEntity
  8
0
100
AcDbVertex
100
AcDbPolygonMeshVertex
 10
-1.215001
 20
-12.140001
 30
3.31
 70
    64
  0
VERTEX
  5
4C754
100
AcDbEntity
  8
0
100
AcDbVertex
100
AcDbPolygonMeshVertex
 10
-1.965001
 20
-12.140001
 30
3.81
 70
    64
  0
VERTEX
  5
4C755
100
AcDbEntity
  8
0
100
AcDbVertex
100
AcDbPolygonMeshVertex
 10
-1.965001
 20
-12.140001
 30
3.31
 70
    64
  0
VERTEX
  5
4C756
100
AcDbEntity
  8
0
100
AcDbVertex
100
AcDbPolygonMeshVertex
 10
-1.965001
 20
-12.140001
 30
3.31
 70
    64
  0
VERTEX
  5
4C757
100
AcDbEntity
  8
0
100
AcDbVertex
100
AcDbPolygonMeshVertex
 10
-1.965001
 20
-11.390001
 30
3.81
 70
    64
  0
VERTEX
  5
4C758
100
AcDbEntity
  8
0
100
AcDbVertex
100
AcDbPolygonMeshVertex
 10
-1.965001
 20
-11.390001
 30
3.31
 70
    64
  0
VERTEX
  5
4C759
100
AcDbEntity
  8
0
100
AcDbVertex
100
AcDbPolygonMeshVertex
 10
-1.965001
 20
-12.140001
 30
3.31
 70
    64
  0
VERTEX
  5
4C75A
100
AcDbEntity
  8
0
100
AcDbVertex
100
AcDbPolygonMeshVertex
 10
-1.215001
 20
-11.390001
 30
3.81
 70
    64
  0
VERTEX
  5
4C75B
100
AcDbEntity
  8
0
100
AcDbVertex
100
AcDbPolygonMeshVertex
 10
-1.215001
 20
-11.390001
 30
3.31
 70
    64
  0
VERTEX
  5
4C75C
100
AcDbEntity
  8
0
100
AcDbVertex
100
AcDbPolygonMeshVertex
 10
-1.215001
 20
-12.140001
 30
3.31
 70
    64
  0
VERTEX
  5
4C75D
100
AcDbEntity
  8
0
100
AcDbVertex
100
AcDbPolygonMeshVertex
 10
-1.215001
 20
-11.390001
 30
3.81
 70
    64
  0
VERTEX
  5
4C75E
100
AcDbEntity
  8
0
100
AcDbVertex
100
AcDbPolygonMeshVertex
 10
-1.215001
 20
-11.390001
 30
3.81
 70
    64
  0
VERTEX
  5
4C75F
100
AcDbEntity
  8
0
100
AcDbVertex
100
AcDbPolygonMeshVertex
 10
-1.215001
 20
-12.140001
 30
3.81
 70
    64
  0
VERTEX
  5
4C760
100
AcDbEntity
  8
0
100
AcDbVertex
100
AcDbPolygonMeshVertex
 10
-1.965001
 20
-11.390001
 30
3.81
 70
    64
  0
VERTEX
  5
4C761
100
AcDbEntity
  8
0
100
AcDbVertex
100
AcDbPolygonMeshVertex
 10
-1.965001
 20
-11.390001
 30
3.81
 70
    64
  0
VERTEX
  5
4C762
100
AcDbEntity
  8
0
100
AcDbVertex
100
AcDbPolygonMeshVertex
 10
-1.965001
 20
-12.140001
 30
3.81
 70
    64
  0
SEQEND
  5
4C763
100
AcDbEntity
  8
0
  0
LINE
  5
4C764
100
AcDbEntity
  8
0
100
AcDbLine
 10
-2.56
 20
-11.500001
 30
1.87
 11
-2.56
 21
-11.500001
 31
1.56
  0
POLYLINE
  5
4C765
100
AcDbEntity
  8
0
100
AcDbPolygonMesh
 66
     1
 10
0.0
 20
0.0
 30
0.0
 70
    16
 71
     6
 72
     3
  0
VERTEX
  5
4C766
100
AcDbEntity
  8
0
100
AcDbVertex
100
AcDbPolygonMeshVertex
 10
2.559999
 20
-12.000001
 30
1.87
 70
    64
  0
VERTEX
  5
4C767
100
AcDbEntity
  8
0
100
AcDbVertex
100
AcDbPolygonMeshVertex
 10
2.559999
 20
-12.000001
 30
1.56
 70
    64
  0
VERTEX
  5
4C768
100
AcDbEntity
  8
0
100
AcDbVertex
100
AcDbPolygonMeshVertex
 10
2.559999
 20
-12.000001
 30
1.56
 70
    64
  0
VERTEX
  5
4C769
100
AcDbEntity
  8
0
100
AcDbVertex
100
AcDbPolygonMeshVertex
 10
-2.56
 20
-12.000001
 30
1.87
 70
    64
  0
VERTEX
  5
4C76A
100
AcDbEntity
  8
0
100
AcDbVertex
100
AcDbPolygonMeshVertex
 10
-2.56
 20
-12.000001
 30
1.56
 70
    64
  0
VERTEX
  5
4C76B
100
AcDbEntity
  8
0
100
AcDbVertex
100
AcDbPolygonMeshVertex
 10
-2.56
 20
-12.000001
 30
1.56
 70
    64
  0
VERTEX
  5
4C76C
100
AcDbEntity
  8
0
100
AcDbVertex
100
AcDbPolygonMeshVertex
 10
-2.56
 20
-11.500001
 30
1.87
 70
    64
  0
VERTEX
  5
4C76D
100
AcDbEntity
  8
0
100
AcDbVertex
100
AcDbPolygonMeshVertex
 10
-2.56
 20
-11.500001
 30
1.56
 70
    64
  0
VERTEX
  5
4C76E
100
AcDbEntity
  8
0
100
AcDbVertex
100
AcDbPolygonMeshVertex
 10
-2.56
 20
-12.000001
 30
1.56
 70
    64
  0
VERTEX
  5
4C76F
100
AcDbEntity
  8
0
100
AcDbVertex
100
AcDbPolygonMeshVertex
 10
2.559999
 20
-11.500001
 30
1.87
 70
    64
  0
VERTEX
  5
4C770
100
AcDbEntity
  8
0
100
AcDbVertex
100
AcDbPolygonMeshVertex
 10
2.559999
 20
-11.500001
 30
1.56
 70
    64
  0
VERTEX
  5
4C771
100
AcDbEntity
  8
0
100
AcDbVertex
100
AcDbPolygonMeshVertex
 10
2.559999
 20
-12.000001
 30
1.56
 70
    64
  0
VERTEX
  5
4C772
100
AcDbEntity
  8
0
100
AcDbVertex
100
AcDbPolygonMeshVertex
 10
2.559999
 20
-11.500001
 30
1.87
 70
    64
  0
VERTEX
  5
4C773
100
AcDbEntity
  8
0
100
AcDbVertex
100
AcDbPolygonMeshVertex
 10
2.559999
 20
-11.500001
 30
1.87
 70
    64
  0
VERTEX
  5
4C774
100
AcDbEntity
  8
0
100
AcDbVertex
100
AcDbPolygonMeshVertex
 10
2.559999
 20
-12.000001
 30
1.87
 70
    64
  0
VERTEX
  5
4C775
100
AcDbEntity
  8
0
100
AcDbVertex
100
AcDbPolygonMeshVertex
 10
-2.56
 20
-11.500001
 30
1.87
 70
    64
  0
VERTEX
  5
4C776
100
AcDbEntity
  8
0
100
AcDbVertex
100
AcDbPolygonMeshVertex
 10
-2.56
 20
-11.500001
 30
1.87
 70
    64
  0
VERTEX
  5
4C777
100
AcDbEntity
  8
0
100
AcDbVertex
100
AcDbPolygonMeshVertex
 10
-2.56
 20
-12.000001
 30
1.87
 70
    64
  0
SEQEND
  5
4C778
100
AcDbEntity
  8
0
  0
LINE
  5
4C779
100
AcDbEntity
  8
0
100
AcDbLine
 10
-2.56
 20
-10.750001
 30
3.81
 11
-2.56
 21
-10.750001
 31
1.56
  0
POLYLINE
  5
4C77A
100
AcDbEntity
  8
0
100
AcDbPolygonMesh
 66
     1
 10
0.0
 20
0.0
 30
0.0
 70
    16
 71
     6
 72
     3
  0
VERTEX
  5
4C77B
100
AcDbEntity
  8
0
100
AcDbVertex
100
AcDbPolygonMeshVertex
 10
2.559999
 20
-10.750001
 30
4.75
 70
    64
  0
VERTEX
  5
4C77C
100
AcDbEntity
  8
0
100
AcDbVertex
100
AcDbPolygonMeshVertex
 10
2.559999
 20
-10.750001
 30
1.56
 70
    64
  0
VERTEX
  5
4C77D
100
AcDbEntity
  8
0
100
AcDbVertex
100
AcDbPolygonMeshVertex
 10
2.559999
 20
-10.750001
 30
1.56
 70
    64
  0
VERTEX
  5
4C77E
100
AcDbEntity
  8
0
100
AcDbVertex
100
AcDbPolygonMeshVertex
 10
-2.56
 20
-10.750001
 30
4.75
 70
    64
  0
VERTEX
  5
4C77F
100
AcDbEntity
  8
0
100
AcDbVertex
100
AcDbPolygonMeshVertex
 10
-2.56
 20
-10.750001
 30
1.56
 70
    64
  0
VERTEX
  5
4C780
100
AcDbEntity
  8
0
100
AcDbVertex
100
AcDbPolygonMeshVertex
 10
-2.56
 20
-10.750001
 30
1.56
 70
    64
  0
VERTEX
  5
4C781
100
AcDbEntity
  8
0
100
AcDbVertex
100
AcDbPolygonMeshVertex
 10
-2.56
 20
-9.000001
 30
4.75
 70
    64
  0
VERTEX
  5
4C782
100
AcDbEntity
  8
0
100
AcDbVertex
100
AcDbPolygonMeshVertex
 10
-2.56
 20
-9.000001
 30
1.56
 70
    64
  0
VERTEX
  5
4C783
100
AcDbEntity
  8
0
100
AcDbVertex
100
AcDbPolygonMeshVertex
 10
-2.56
 20
-10.750001
 30
1.56
 70
    64
  0
VERTEX
  5
4C784
100
AcDbEntity
  8
0
100
AcDbVertex
100
AcDbPolygonMeshVertex
 10
2.559999
 20
-9.000001
 30
4.75
 70
    64
  0
VERTEX
  5
4C785
100
AcDbEntity
  8
0
100
AcDbVertex
100
AcDbPolygonMeshVertex
 10
2.559999
 20
-9.000001
 30
1.56
 70
    64
  0
VERTEX
  5
4C786
100
AcDbEntity
  8
0
100
AcDbVertex
100
AcDbPolygonMeshVertex
 10
2.559999
 20
-10.750001
 30
1.56
 70
    64
  0
VERTEX
  5
4C787
100
AcDbEntity
  8
0
100
AcDbVertex
100
AcDbPolygonMeshVertex
 10
2.559999
 20
-9.000001
 30
4.75
 70
    64
  0
VERTEX
  5
4C788
100
AcDbEntity
  8
0
100
AcDbVertex
100
AcDbPolygonMeshVertex
 10
2.559999
 20
-9.000001
 30
4.75
 70
    64
  0
VERTEX
  5
4C789
100
AcDbEntity
  8
0
100
AcDbVertex
100
AcDbPolygonMeshVertex
 10
2.559999
 20
-10.750001
 30
4.75
 70
    64
  0
VERTEX
  5
4C78A
100
AcDbEntity
  8
0
100
AcDbVertex
100
AcDbPolygonMeshVertex
 10
-2.56
 20
-9.000001
 30
4.75
 70
    64
  0
VERTEX
  5
4C78B
100
AcDbEntity
  8
0
100
AcDbVertex
100
AcDbPolygonMeshVertex
 10
-2.56
 20
-9.000001
 30
4.75
 70
    64
  0
VERTEX
  5
4C78C
100
AcDbEntity
  8
0
100
AcDbVertex
100
AcDbPolygonMeshVertex
 10
-2.56
 20
-10.750001
 30
4.75
 70
    64
  0
SEQEND
  5
4C78D
100
AcDbEntity
  8
0
  0
LINE
  5
4C78E
100
AcDbEntity
  8
0
100
AcDbLine
 10
-2.56
 20
-11.500001
 30
2.81
 11
-2.56
 21
-10.750001
 31
2.81
  0
LINE
  5
4C78F
100
AcDbEntity
  8
0
100
AcDbLine
 10
-2.56
 20
-11.500001
 30
2.81
 11
2.559999
 21
-11.500001
 31
2.81
  0
POLYLINE
  5
4C790
100
AcDbEntity
  8
0
100
AcDbPolygonMesh
 66
     1
 10
0.0
 20
0.0
 30
0.0
 70
    16
 71
     6
 72
     3
  0
VERTEX
  5
4C791
100
AcDbEntity
  8
0
100
AcDbVertex
100
AcDbPolygonMeshVertex
 10
2.559999
 20
-11.500001
 30
2.81
 70
    64
  0
VERTEX
  5
4C792
100
AcDbEntity
  8
0
100
AcDbVertex
100
AcDbPolygonMeshVertex
 10
2.559999
 20
-11.500001
 30
1.56
 70
    64
  0
VERTEX
  5
4C793
100
AcDbEntity
  8
0
100
AcDbVertex
100
AcDbPolygonMeshVertex
 10
2.559999
 20
-11.500001
 30
1.56
 70
    64
  0
VERTEX
  5
4C794
100
AcDbEntity
  8
0
100
AcDbVertex
100
AcDbPolygonMeshVertex
 10
-2.56
 20
-11.500001
 30
2.81
 70
    64
  0
VERTEX
  5
4C795
100
AcDbEntity
  8
0
100
AcDbVertex
100
AcDbPolygonMeshVertex
 10
-2.56
 20
-11.500001
 30
1.56
 70
    64
  0
VERTEX
  5
4C796
100
AcDbEntity
  8
0
100
AcDbVertex
100
AcDbPolygonMeshVertex
 10
-2.56
 20
-11.500001
 30
1.56
 70
    64
  0
VERTEX
  5
4C797
100
AcDbEntity
  8
0
100
AcDbVertex
100
AcDbPolygonMeshVertex
 10
-2.56
 20
-10.750001
 30
2.81
 70
    64
  0
VERTEX
  5
4C798
100
AcDbEntity
  8
0
100
AcDbVertex
100
AcDbPolygonMeshVertex
 10
-2.56
 20
-10.750001
 30
1.56
 70
    64
  0
VERTEX
  5
4C799
100
AcDbEntity
  8
0
100
AcDbVertex
100
AcDbPolygonMeshVertex
 10
-2.56
 20
-11.500001
 30
1.56
 70
    64
  0
VERTEX
  5
4C79A
100
AcDbEntity
  8
0
100
AcDbVertex
100
AcDbPolygonMeshVertex
 10
2.559999
 20
-10.750001
 30
2.81
 70
    64
  0
VERTEX
  5
4C79B
100
AcDbEntity
  8
0
100
AcDbVertex
100
AcDbPolygonMeshVertex
 10
2.559999
 20
-10.750001
 30
1.56
 70
    64
  0
VERTEX
  5
4C79C
100
AcDbEntity
  8
0
100
AcDbVertex
100
AcDbPolygonMeshVertex
 10
2.559999
 20
-11.500001
 30
1.56
 70
    64
  0
VERTEX
  5
4C79D
100
AcDbEntity
  8
0
100
AcDbVertex
100
AcDbPolygonMeshVertex
 10
2.559999
 20
-10.750001
 30
2.81
 70
    64
  0
VERTEX
  5
4C79E
100
AcDbEntity
  8
0
100
AcDbVertex
100
AcDbPolygonMeshVertex
 10
2.559999
 20
-10.750001
 30
2.81
 70
    64
  0
VERTEX
  5
4C79F
100
AcDbEntity
  8
0
100
AcDbVertex
100
AcDbPolygonMeshVertex
 10
2.559999
 20
-11.500001
 30
2.81
 70
    64
  0
VERTEX
  5
4C7A0
100
AcDbEntity
  8
0
100
AcDbVertex
100
AcDbPolygonMeshVertex
 10
-2.56
 20
-10.750001
 30
2.81
 70
    64
  0
VERTEX
  5
4C7A1
100
AcDbEntity
  8
0
100
AcDbVertex
100
AcDbPolygonMeshVertex
 10
-2.56
 20
-10.750001
 30
2.81
 70
    64
  0
VERTEX
  5
4C7A2
100
AcDbEntity
  8
0
100
AcDbVertex
100
AcDbPolygonMeshVertex
 10
-2.56
 20
-11.500001
 30
2.81
 70
    64
  0
SEQEND
  5
4C7A3
100
AcDbEntity
  8
0
  0
CIRCLE
  5
4C7A4
100
AcDbEntity
  8
0
100
AcDbCircle
 10
0.0
 20
-11.765002
 30
3.81
 40
0.22
  0
POLYLINE
  5
4C7A5
100
AcDbEntity
  8
0
100
AcDbPolygonMesh
 66
     1
 10
0.0
 20
0.0
 30
0.0
 70
    16
 71
     6
 72
     3
  0
VERTEX
  5
4C7A6
100
AcDbEntity
  8
0
100
AcDbVertex
100
AcDbPolygonMeshVertex
 10
0.375
 20
-12.140001
 30
3.81
 70
    64
  0
VERTEX
  5
4C7A7
100
AcDbEntity
  8
0
100
AcDbVertex
100
AcDbPolygonMeshVertex
 10
0.375
 20
-12.140001
 30
3.31
 70
    64
  0
VERTEX
  5
4C7A8
100
AcDbEntity
  8
0
100
AcDbVertex
100
AcDbPolygonMeshVertex
 10
0.375
 20
-12.140001
 30
3.31
 70
    64
  0
VERTEX
  5
4C7A9
100
AcDbEntity
  8
0
100
AcDbVertex
100
AcDbPolygonMeshVertex
 10
-0.375
 20
-12.140001
 30
3.81
 70
    64
  0
VERTEX
  5
4C7AA
100
AcDbEntity
  8
0
100
AcDbVertex
100
AcDbPolygonMeshVertex
 10
-0.375
 20
-12.140001
 30
3.31
 70
    64
  0
VERTEX
  5
4C7AB
100
AcDbEntity
  8
0
100
AcDbVertex
100
AcDbPolygonMeshVertex
 10
-0.375
 20
-12.140001
 30
3.31
 70
    64
  0
VERTEX
  5
4C7AC
100
AcDbEntity
  8
0
100
AcDbVertex
100
AcDbPolygonMeshVertex
 10
-0.375
 20
-11.390001
 30
3.81
 70
    64
  0
VERTEX
  5
4C7AD
100
AcDbEntity
  8
0
100
AcDbVertex
100
AcDbPolygonMeshVertex
 10
-0.375
 20
-11.390001
 30
3.31
 70
    64
  0
VERTEX
  5
4C7AE
100
AcDbEntity
  8
0
100
AcDbVertex
100
AcDbPolygonMeshVertex
 10
-0.375
 20
-12.140001
 30
3.31
 70
    64
  0
VERTEX
  5
4C7AF
100
AcDbEntity
  8
0
100
AcDbVertex
100
AcDbPolygonMeshVertex
 10
0.375
 20
-11.390001
 30
3.81
 70
    64
  0
VERTEX
  5
4C7B0
100
AcDbEntity
  8
0
100
AcDbVertex
100
AcDbPolygonMeshVertex
 10
0.375
 20
-11.390001
 30
3.31
 70
    64
  0
VERTEX
  5
4C7B1
100
AcDbEntity
  8
0
100
AcDbVertex
100
AcDbPolygonMeshVertex
 10
0.375
 20
-12.140001
 30
3.31
 70
    64
  0
VERTEX
  5
4C7B2
100
AcDbEntity
  8
0
100
AcDbVertex
100
AcDbPolygonMeshVertex
 10
0.375
 20
-11.390001
 30
3.81
 70
    64
  0
VERTEX
  5
4C7B3
100
AcDbEntity
  8
0
100
AcDbVertex
100
AcDbPolygonMeshVertex
 10
0.375
 20
-11.390001
 30
3.81
 70
    64
  0
VERTEX
  5
4C7B4
100
AcDbEntity
  8
0
100
AcDbVertex
100
AcDbPolygonMeshVertex
 10
0.375
 20
-12.140001
 30
3.81
 70
    64
  0
VERTEX
  5
4C7B5
100
AcDbEntity
  8
0
100
AcDbVertex
100
AcDbPolygonMeshVertex
 10
-0.375
 20
-11.390001
 30
3.81
 70
    64
  0
VERTEX
  5
4C7B6
100
AcDbEntity
  8
0
100
AcDbVertex
100
AcDbPolygonMeshVertex
 10
-0.375
 20
-11.390001
 30
3.81
 70
    64
  0
VERTEX
  5
4C7B7
100
AcDbEntity
  8
0
100
AcDbVertex
100
AcDbPolygonMeshVertex
 10
-0.375
 20
-12.140001
 30
3.81
 70
    64
  0
SEQEND
  5
4C7B8
100
AcDbEntity
  8
0
  0
POLYLINE
  5
4C7B9
100
AcDbEntity
  8
0
100
AcDbPolygonMesh
 66
     1
 10
0.0
 20
0.0
 30
0.0
 70
    16
 71
     6
 72
     3
  0
VERTEX
  5
4C7BA
100
AcDbEntity
  8
0
100
AcDbVertex
100
AcDbPolygonMeshVertex
 10
-0.375
 20
-10.750001
 30
3.31
 70
    64
  0
VERTEX
  5
4C7BB
100
AcDbEntity
  8
0
100
AcDbVertex
100
AcDbPolygonMeshVertex
 10
-0.375
 20
-10.750001
 30
2.81
 70
    64
  0
VERTEX
  5
4C7BC
100
AcDbEntity
  8
0
100
AcDbVertex
100
AcDbPolygonMeshVertex
 10
-0.375
 20
-10.750001
 30
2.81
 70
    64
  0
VERTEX
  5
4C7BD
100
AcDbEntity
  8
0
100
AcDbVertex
100
AcDbPolygonMeshVertex
 10
0.375
 20
-10.750001
 30
3.31
 70
    64
  0
VERTEX
  5
4C7BE
100
AcDbEntity
  8
0
100
AcDbVertex
100
AcDbPolygonMeshVertex
 10
0.375
 20
-10.750001
 30
2.81
 70
    64
  0
VERTEX
  5
4C7BF
100
AcDbEntity
  8
0
100
AcDbVertex
100
AcDbPolygonMeshVertex
 10
0.375
 20
-10.750001
 30
2.81
 70
    64
  0
VERTEX
  5
4C7C0
100
AcDbEntity
  8
0
100
AcDbVertex
100
AcDbPolygonMeshVertex
 10
0.375
 20
-12.140001
 30
3.31
 70
    64
  0
VERTEX
  5
4C7C1
100
AcDbEntity
  8
0
100
AcDbVertex
100
AcDbPolygonMeshVertex
 10
0.375
 20
-12.140001
 30
2.81
 70
    64
  0
VERTEX
  5
4C7C2
100
AcDbEntity
  8
0
100
AcDbVertex
100
AcDbPolygonMeshVertex
 10
0.375
 20
-10.750001
 30
2.81
 70
    64
  0
VERTEX
  5
4C7C3
100
AcDbEntity
  8
0
100
AcDbVertex
100
AcDbPolygonMeshVertex
 10
-0.375
 20
-12.140001
 30
3.31
 70
    64
  0
VERTEX
  5
4C7C4
100
AcDbEntity
  8
0
100
AcDbVertex
100
AcDbPolygonMeshVertex
 10
-0.375
 20
-12.140001
 30
2.81
 70
    64
  0
VERTEX
  5
4C7C5
100
AcDbEntity
  8
0
100
AcDbVertex
100
AcDbPolygonMeshVertex
 10
-0.375
 20
-10.750001
 30
2.81
 70
    64
  0
VERTEX
  5
4C7C6
100
AcDbEntity
  8
0
100
AcDbVertex
100
AcDbPolygonMeshVertex
 10
-0.375
 20
-12.140001
 30
3.31
 70
    64
  0
VERTEX
  5
4C7C7
100
AcDbEntity
  8
0
100
AcDbVertex
100
AcDbPolygonMeshVertex
 10
-0.375
 20
-12.140001
 30
3.31
 70
    64
  0
VERTEX
  5
4C7C8
100
AcDbEntity
  8
0
100
AcDbVertex
100
AcDbPolygonMeshVertex
 10
-0.375
 20
-10.750001
 30
3.31
 70
    64
  0
VERTEX
  5
4C7C9
100
AcDbEntity
  8
0
100
AcDbVertex
100
AcDbPolygonMeshVertex
 10
0.375
 20
-12.140001
 30
3.31
 70
    64
  0
VERTEX
  5
4C7CA
100
AcDbEntity
  8
0
100
AcDbVertex
100
AcDbPolygonMeshVertex
 10
0.375
 20
-12.140001
 30
3.31
 70
    64
  0
VERTEX
  5
4C7CB
100
AcDbEntity
  8
0
100
AcDbVertex
100
AcDbPolygonMeshVertex
 10
0.375
 20
-10.750001
 30
3.31
 70
    64
  0
SEQEND
  5
4C7CC
100
AcDbEntity
  8
0
  0
CIRCLE
  5
4C7CD
100
AcDbEntity
  8
0
100
AcDbCircle
 10
1.59
 20
-11.765002
 30
3.81
 40
0.22
  0
POLYLINE
  5
4C7CE
100
AcDbEntity
  8
0
100
AcDbPolygonMesh
 66
     1
 10
0.0
 20
0.0
 30
0.0
 70
    16
 71
     6
 72
     3
  0
VERTEX
  5
4C7CF
100
AcDbEntity
  8
0
100
AcDbVertex
100
AcDbPolygonMeshVertex
 10
1.965
 20
-12.140001
 30
3.81
 70
    64
  0
VERTEX
  5
4C7D0
100
AcDbEntity
  8
0
100
AcDbVertex
100
AcDbPolygonMeshVertex
 10
1.965
 20
-12.140001
 30
3.31
 70
    64
  0
VERTEX
  5
4C7D1
100
AcDbEntity
  8
0
100
AcDbVertex
100
AcDbPolygonMeshVertex
 10
1.965
 20
-12.140001
 30
3.31
 70
    64
  0
VERTEX
  5
4C7D2
100
AcDbEntity
  8
0
100
AcDbVertex
100
AcDbPolygonMeshVertex
 10
1.215
 20
-12.140001
 30
3.81
 70
    64
  0
VERTEX
  5
4C7D3
100
AcDbEntity
  8
0
100
AcDbVertex
100
AcDbPolygonMeshVertex
 10
1.215
 20
-12.140001
 30
3.31
 70
    64
  0
VERTEX
  5
4C7D4
100
AcDbEntity
  8
0
100
AcDbVertex
100
AcDbPolygonMeshVertex
 10
1.215
 20
-12.140001
 30
3.31
 70
    64
  0
VERTEX
  5
4C7D5
100
AcDbEntity
  8
0
100
AcDbVertex
100
AcDbPolygonMeshVertex
 10
1.215
 20
-11.390001
 30
3.81
 70
    64
  0
VERTEX
  5
4C7D6
100
AcDbEntity
  8
0
100
AcDbVertex
100
AcDbPolygonMeshVertex
 10
1.215
 20
-11.390001
 30
3.31
 70
    64
  0
VERTEX
  5
4C7D7
100
AcDbEntity
  8
0
100
AcDbVertex
100
AcDbPolygonMeshVertex
 10
1.215
 20
-12.140001
 30
3.31
 70
    64
  0
VERTEX
  5
4C7D8
100
AcDbEntity
  8
0
100
AcDbVertex
100
AcDbPolygonMeshVertex
 10
1.965
 20
-11.390001
 30
3.81
 70
    64
  0
VERTEX
  5
4C7D9
100
AcDbEntity
  8
0
100
AcDbVertex
100
AcDbPolygonMeshVertex
 10
1.965
 20
-11.390001
 30
3.31
 70
    64
  0
VERTEX
  5
4C7DA
100
AcDbEntity
  8
0
100
AcDbVertex
100
AcDbPolygonMeshVertex
 10
1.965
 20
-12.140001
 30
3.31
 70
    64
  0
VERTEX
  5
4C7DB
100
AcDbEntity
  8
0
100
AcDbVertex
100
AcDbPolygonMeshVertex
 10
1.965
 20
-11.390001
 30
3.81
 70
    64
  0
VERTEX
  5
4C7DC
100
AcDbEntity
  8
0
100
AcDbVertex
100
AcDbPolygonMeshVertex
 10
1.965
 20
-11.390001
 30
3.81
 70
    64
  0
VERTEX
  5
4C7DD
100
AcDbEntity
  8
0
100
AcDbVertex
100
AcDbPolygonMeshVertex
 10
1.965
 20
-12.140001
 30
3.81
 70
    64
  0
VERTEX
  5
4C7DE
100
AcDbEntity
  8
0
100
AcDbVertex
100
AcDbPolygonMeshVertex
 10
1.215
 20
-11.390001
 30
3.81
 70
    64
  0
VERTEX
  5
4C7DF
100
AcDbEntity
  8
0
100
AcDbVertex
100
AcDbPolygonMeshVertex
 10
1.215
 20
-11.390001
 30
3.81
 70
    64
  0
VERTEX
  5
4C7E0
100
AcDbEntity
  8
0
100
AcDbVertex
100
AcDbPolygonMeshVertex
 10
1.215
 20
-12.140001
 30
3.81
 70
    64
  0
SEQEND
  5
4C7E1
100
AcDbEntity
  8
0
  0
POLYLINE
  5
4C7E2
100
AcDbEntity
  8
0
100
AcDbPolygonMesh
 66
     1
 10
0.0
 20
0.0
 30
0.0
 70
    16
 71
     6
 72
     3
  0
VERTEX
  5
4C7E3
100
AcDbEntity
  8
0
100
AcDbVertex
100
AcDbPolygonMeshVertex
 10
1.215
 20
-10.750001
 30
3.31
 70
    64
  0
VERTEX
  5
4C7E4
100
AcDbEntity
  8
0
100
AcDbVertex
100
AcDbPolygonMeshVertex
 10
1.215
 20
-10.750001
 30
2.81
 70
    64
  0
VERTEX
  5
4C7E5
100
AcDbEntity
  8
0
100
AcDbVertex
100
AcDbPolygonMeshVertex
 10
1.215
 20
-10.750001
 30
2.81
 70
    64
  0
VERTEX
  5
4C7E6
100
AcDbEntity
  8
0
100
AcDbVertex
100
AcDbPolygonMeshVertex
 10
1.965
 20
-10.750001
 30
3.31
 70
    64
  0
VERTEX
  5
4C7E7
100
AcDbEntity
  8
0
100
AcDbVertex
100
AcDbPolygonMeshVertex
 10
1.965
 20
-10.750001
 30
2.81
 70
    64
  0
VERTEX
  5
4C7E8
100
AcDbEntity
  8
0
100
AcDbVertex
100
AcDbPolygonMeshVertex
 10
1.965
 20
-10.750001
 30
2.81
 70
    64
  0
VERTEX
  5
4C7E9
100
AcDbEntity
  8
0
100
AcDbVertex
100
AcDbPolygonMeshVertex
 10
1.965
 20
-12.140001
 30
3.31
 70
    64
  0
VERTEX
  5
4C7EA
100
AcDbEntity
  8
0
100
AcDbVertex
100
AcDbPolygonMeshVertex
 10
1.965
 20
-12.140001
 30
2.81
 70
    64
  0
VERTEX
  5
4C7EB
100
AcDbEntity
  8
0
100
AcDbVertex
100
AcDbPolygonMeshVertex
 10
1.965
 20
-10.750001
 30
2.81
 70
    64
  0
VERTEX
  5
4C7EC
100
AcDbEntity
  8
0
100
AcDbVertex
100
AcDbPolygonMeshVertex
 10
1.215
 20
-12.140001
 30
3.31
 70
    64
  0
VERTEX
  5
4C7ED
100
AcDbEntity
  8
0
100
AcDbVertex
100
AcDbPolygonMeshVertex
 10
1.215
 20
-12.140001
 30
2.81
 70
    64
  0
VERTEX
  5
4C7EE
100
AcDbEntity
  8
0
100
AcDbVertex
100
AcDbPolygonMeshVertex
 10
1.215
 20
-10.750001
 30
2.81
 70
    64
  0
VERTEX
  5
4C7EF
100
AcDbEntity
  8
0
100
AcDbVertex
100
AcDbPolygonMeshVertex
 10
1.215
 20
-12.140001
 30
3.31
 70
    64
  0
VERTEX
  5
4C7F0
100
AcDbEntity
  8
0
100
AcDbVertex
100
AcDbPolygonMeshVertex
 10
1.215
 20
-12.140001
 30
3.31
 70
    64
  0
VERTEX
  5
4C7F1
100
AcDbEntity
  8
0
100
AcDbVertex
100
AcDbPolygonMeshVertex
 10
1.215
 20
-10.750001
 30
3.31
 70
    64
  0
VERTEX
  5
4C7F2
100
AcDbEntity
  8
0
100
AcDbVertex
100
AcDbPolygonMeshVertex
 10
1.965
 20
-12.140001
 30
3.31
 70
    64
  0
VERTEX
  5
4C7F3
100
AcDbEntity
  8
0
100
AcDbVertex
100
AcDbPolygonMeshVertex
 10
1.965
 20
-12.140001
 30
3.31
 70
    64
  0
VERTEX
  5
4C7F4
100
AcDbEntity
  8
0
100
AcDbVertex
100
AcDbPolygonMeshVertex
 10
1.965
 20
-10.750001
 30
3.31
 70
    64
  0
SEQEND
  5
4C7F5
100
AcDbEntity
  8
0
  0
POLYLINE
  5
4C7F6
100
AcDbEntity
  8
0
100
AcDbPolygonMesh
 66
     1
 10
0.0
 20
0.0
 30
0.0
 70
    16
 71
     6
 72
     3
  0
VERTEX
  5
4C7F7
100
AcDbEntity
  8
0
100
AcDbVertex
100
AcDbPolygonMeshVertex
 10
2.72
 20
-9.74
 30
0.19
 70
    64
  0
VERTEX
  5
4C7F8
100
AcDbEntity
  8
0
100
AcDbVertex
100
AcDbPolygonMeshVertex
 10
2.72
 20
-9.74
 30
0.0
 70
    64
  0
VERTEX
  5
4C7F9
100
AcDbEntity
  8
0
100
AcDbVertex
100
AcDbPolygonMeshVertex
 10
2.72
 20
-9.74
 30
0.0
 70
    64
  0
VERTEX
  5
4C7FA
100
AcDbEntity
  8
0
100
AcDbVertex
100
AcDbPolygonMeshVertex
 10
-2.72
 20
-9.74
 30
0.19
 70
    64
  0
VERTEX
  5
4C7FB
100
AcDbEntity
  8
0
100
AcDbVertex
100
AcDbPolygonMeshVertex
 10
-2.72
 20
-9.74
 30
0.0
 70
    64
  0
VERTEX
  5
4C7FC
100
AcDbEntity
  8
0
100
AcDbVertex
100
AcDbPolygonMeshVertex
 10
-2.72
 20
-9.74
 30
0.0
 70
    64
  0
VERTEX
  5
4C7FD
100
AcDbEntity
  8
0
100
AcDbVertex
100
AcDbPolygonMeshVertex
 10
-2.72
 20
-1.16
 30
0.19
 70
    64
  0
VERTEX
  5
4C7FE
100
AcDbEntity
  8
0
100
AcDbVertex
100
AcDbPolygonMeshVertex
 10
-2.72
 20
-1.16
 30
0.0
 70
    64
  0
VERTEX
  5
4C7FF
100
AcDbEntity
  8
0
100
AcDbVertex
100
AcDbPolygonMeshVertex
 10
-2.72
 20
-9.74
 30
0.0
 70
    64
  0
VERTEX
  5
4C800
100
AcDbEntity
  8
0
100
AcDbVertex
100
AcDbPolygonMeshVertex
 10
2.72
 20
-1.16
 30
0.19
 70
    64
  0
VERTEX
  5
4C801
100
AcDbEntity
  8
0
100
AcDbVertex
100
AcDbPolygonMeshVertex
 10
2.72
 20
-1.16
 30
0.0
 70
    64
  0
VERTEX
  5
4C802
100
AcDbEntity
  8
0
100
AcDbVertex
100
AcDbPolygonMeshVertex
 10
2.72
 20
-9.74
 30
0.0
 70
    64
  0
VERTEX
  5
4C803
100
AcDbEntity
  8
0
100
AcDbVertex
100
AcDbPolygonMeshVertex
 10
2.72
 20
-1.16
 30
0.19
 70
    64
  0
VERTEX
  5
4C804
100
AcDbEntity
  8
0
100
AcDbVertex
100
AcDbPolygonMeshVertex
 10
2.72
 20
-1.16
 30
0.19
 70
    64
  0
VERTEX
  5
4C805
100
AcDbEntity
  8
0
100
AcDbVertex
100
AcDbPolygonMeshVertex
 10
2.72
 20
-9.74
 30
0.19
 70
    64
  0
VERTEX
  5
4C806
100
AcDbEntity
  8
0
100
AcDbVertex
100
AcDbPolygonMeshVertex
 10
-2.72
 20
-1.16
 30
0.19
 70
    64
  0
VERTEX
  5
4C807
100
AcDbEntity
  8
0
100
AcDbVertex
100
AcDbPolygonMeshVertex
 10
-2.72
 20
-1.16
 30
0.19
 70
    64
  0
VERTEX
  5
4C808
100
AcDbEntity
  8
0
100
AcDbVertex
100
AcDbPolygonMeshVertex
 10
-2.72
 20
-9.74
 30
0.19
 70
    64
  0
SEQEND
  5
4C809
100
AcDbEntity
  8
0
  0
POLYLINE
  5
4C80A
100
AcDbEntity
  8
0
100
AcDbPolygonMesh
 66
     1
 10
0.0
 20
0.0
 30
0.0
 70
    16
 71
     6
 72
     3
  0
VERTEX
  5
4C80B
100
AcDbEntity
  8
0
100
AcDbVertex
100
AcDbPolygonMeshVertex
 10
2.44
 20
-4.5
 30
4.88
 70
    64
  0
VERTEX
  5
4C80C
100
AcDbEntity
  8
0
100
AcDbVertex
100
AcDbPolygonMeshVertex
 10
2.44
 20
-4.5
 30
0.19
 70
    64
  0
VERTEX
  5
4C80D
100
AcDbEntity
  8
0
100
AcDbVertex
100
AcDbPolygonMeshVertex
 10
2.44
 20
-4.5
 30
0.19
 70
    64
  0
VERTEX
  5
4C80E
100
AcDbEntity
  8
0
100
AcDbVertex
100
AcDbPolygonMeshVertex
 10
-2.44
 20
-4.5
 30
4.88
 70
    64
  0
VERTEX
  5
4C80F
100
AcDbEntity
  8
0
100
AcDbVertex
100
AcDbPolygonMeshVertex
 10
-2.44
 20
-4.5
 30
0.19
 70
    64
  0
VERTEX
  5
4C810
100
AcDbEntity
  8
0
100
AcDbVertex
100
AcDbPolygonMeshVertex
 10
-2.44
 20
-4.5
 30
0.19
 70
    64
  0
VERTEX
  5
4C811
100
AcDbEntity
  8
0
100
AcDbVertex
100
AcDbPolygonMeshVertex
 10
-2.44
 20
-2.32
 30
4.88
 70
    64
  0
VERTEX
  5
4C812
100
AcDbEntity
  8
0
100
AcDbVertex
100
AcDbPolygonMeshVertex
 10
-2.44
 20
-2.32
 30
0.19
 70
    64
  0
VERTEX
  5
4C813
100
AcDbEntity
  8
0
100
AcDbVertex
100
AcDbPolygonMeshVertex
 10
-2.44
 20
-4.5
 30
0.19
 70
    64
  0
VERTEX
  5
4C814
100
AcDbEntity
  8
0
100
AcDbVertex
100
AcDbPolygonMeshVertex
 10
2.44
 20
-2.32
 30
4.88
 70
    64
  0
VERTEX
  5
4C815
100
AcDbEntity
  8
0
100
AcDbVertex
100
AcDbPolygonMeshVertex
 10
2.44
 20
-2.32
 30
0.19
 70
    64
  0
VERTEX
  5
4C816
100
AcDbEntity
  8
0
100
AcDbVertex
100
AcDbPolygonMeshVertex
 10
2.44
 20
-4.5
 30
0.19
 70
    64
  0
VERTEX
  5
4C817
100
AcDbEntity
  8
0
100
AcDbVertex
100
AcDbPolygonMeshVertex
 10
2.44
 20
-2.32
 30
4.88
 70
    64
  0
VERTEX
  5
4C818
100
AcDbEntity
  8
0
100
AcDbVertex
100
AcDbPolygonMeshVertex
 10
2.44
 20
-2.32
 30
4.88
 70
    64
  0
VERTEX
  5
4C819
100
AcDbEntity
  8
0
100
AcDbVertex
100
AcDbPolygonMeshVertex
 10
2.44
 20
-4.5
 30
4.88
 70
    64
  0
VERTEX
  5
4C81A
100
AcDbEntity
  8
0
100
AcDbVertex
100
AcDbPolygonMeshVertex
 10
-2.44
 20
-2.32
 30
4.88
 70
    64
  0
VERTEX
  5
4C81B
100
AcDbEntity
  8
0
100
AcDbVertex
100
AcDbPolygonMeshVertex
 10
-2.44
 20
-2.32
 30
4.88
 70
    64
  0
VERTEX
  5
4C81C
100
AcDbEntity
  8
0
100
AcDbVertex
100
AcDbPolygonMeshVertex
 10
-2.44
 20
-4.5
 30
4.88
 70
    64
  0
SEQEND
  5
4C81D
100
AcDbEntity
  8
0
  0
POLYLINE
  5
4C81E
100
AcDbEntity
  8
0
100
AcDbPolygonMesh
 66
     1
 10
0.0
 20
0.0
 30
0.0
 70
    16
 71
     6
 72
     3
  0
VERTEX
  5
4C81F
100
AcDbEntity
  8
0
100
AcDbVertex
100
AcDbPolygonMeshVertex
 10
2.75
 20
-8.5
 30
4.88
 70
    64
  0
VERTEX
  5
4C820
100
AcDbEntity
  8
0
100
AcDbVertex
100
AcDbPolygonMeshVertex
 10
2.75
 20
-8.5
 30
2.0
 70
    64
  0
VERTEX
  5
4C821
100
AcDbEntity
  8
0
100
AcDbVertex
100
AcDbPolygonMeshVertex
 10
2.75
 20
-8.5
 30
2.0
 70
    64
  0
VERTEX
  5
4C822
100
AcDbEntity
  8
0
100
AcDbVertex
100
AcDbPolygonMeshVertex
 10
-2.75
 20
-8.5
 30
4.88
 70
    64
  0
VERTEX
  5
4C823
100
AcDbEntity
  8
0
100
AcDbVertex
100
AcDbPolygonMeshVertex
 10
-2.75
 20
-8.5
 30
2.0
 70
    64
  0
VERTEX
  5
4C824
100
AcDbEntity
  8
0
100
AcDbVertex
100
AcDbPolygonMeshVertex
 10
-2.75
 20
-8.5
 30
2.0
 70
    64
  0
VERTEX
  5
4C825
100
AcDbEntity
  8
0
100
AcDbVertex
100
AcDbPolygonMeshVertex
 10
-2.75
 20
-4.56
 30
4.88
 70
    64
  0
VERTEX
  5
4C826
100
AcDbEntity
  8
0
100
AcDbVertex
100
AcDbPolygonMeshVertex
 10
-2.75
 20
-4.56
 30
2.0
 70
    64
  0
VERTEX
  5
4C827
100
AcDbEntity
  8
0
100
AcDbVertex
100
AcDbPolygonMeshVertex
 10
-2.75
 20
-8.5
 30
2.0
 70
    64
  0
VERTEX
  5
4C828
100
AcDbEntity
  8
0
100
AcDbVertex
100
AcDbPolygonMeshVertex
 10
2.75
 20
-4.56
 30
4.88
 70
    64
  0
VERTEX
  5
4C829
100
AcDbEntity
  8
0
100
AcDbVertex
100
AcDbPolygonMeshVertex
 10
2.75
 20
-4.56
 30
2.0
 70
    64
  0
VERTEX
  5
4C82A
100
AcDbEntity
  8
0
100
AcDbVertex
100
AcDbPolygonMeshVertex
 10
2.75
 20
-8.5
 30
2.0
 70
    64
  0
VERTEX
  5
4C82B
100
AcDbEntity
  8
0
100
AcDbVertex
100
AcDbPolygonMeshVertex
 10
2.75
 20
-4.56
 30
4.88
 70
    64
  0
VERTEX
  5
4C82C
100
AcDbEntity
  8
0
100
AcDbVertex
100
AcDbPolygonMeshVertex
 10
2.75
 20
-4.56
 30
4.88
 70
    64
  0
VERTEX
  5
4C82D
100
AcDbEntity
  8
0
100
AcDbVertex
100
AcDbPolygonMeshVertex
 10
2.75
 20
-8.5
 30
4.88
 70
    64
  0
VERTEX
  5
4C82E
100
AcDbEntity
  8
0
100
AcDbVertex
100
AcDbPolygonMeshVertex
 10
-2.75
 20
-4.56
 30
4.88
 70
    64
  0
VERTEX
  5
4C82F
100
AcDbEntity
  8
0
100
AcDbVertex
100
AcDbPolygonMeshVertex
 10
-2.75
 20
-4.56
 30
4.88
 70
    64
  0
VERTEX
  5
4C830
100
AcDbEntity
  8
0
100
AcDbVertex
100
AcDbPolygonMeshVertex
 10
-2.75
 20
-8.5
 30
4.88
 70
    64
  0
SEQEND
  5
4C831
100
AcDbEntity
  8
0
  0
POLYLINE
  5
4C832
100
AcDbEntity
  8
0
100
AcDbPolygonMesh
 66
     1
 10
0.0
 20
0.0
 30
0.0
 70
    16
 71
     6
 72
     3
  0
VERTEX
  5
4C833
100
AcDbEntity
  8
0
100
AcDbVertex
100
AcDbPolygonMeshVertex
 10
2.44
 20
-9.88
 30
1.0
 70
    64
  0
VERTEX
  5
4C834
100
AcDbEntity
  8
0
100
AcDbVertex
100
AcDbPolygonMeshVertex
 10
2.44
 20
-9.88
 30
0.19
 70
    64
  0
VERTEX
  5
4C835
100
AcDbEntity
  8
0
100
AcDbVertex
100
AcDbPolygonMeshVertex
 10
2.44
 20
-9.88
 30
0.19
 70
    64
  0
VERTEX
  5
4C836
100
AcDbEntity
  8
0
100
AcDbVertex
100
AcDbPolygonMeshVertex
 10
-2.44
 20
-9.88
 30
1.0
 70
    64
  0
VERTEX
  5
4C837
100
AcDbEntity
  8
0
100
AcDbVertex
100
AcDbPolygonMeshVertex
 10
-2.44
 20
-9.88
 30
0.19
 70
    64
  0
VERTEX
  5
4C838
100
AcDbEntity
  8
0
100
AcDbVertex
100
AcDbPolygonMeshVertex
 10
-2.44
 20
-9.88
 30
0.19
 70
    64
  0
VERTEX
  5
4C839
100
AcDbEntity
  8
0
100
AcDbVertex
100
AcDbPolygonMeshVertex
 10
-2.44
 20
-9.25
 30
1.0
 70
    64
  0
VERTEX
  5
4C83A
100
AcDbEntity
  8
0
100
AcDbVertex
100
AcDbPolygonMeshVertex
 10
-2.44
 20
-9.25
 30
0.19
 70
    64
  0
VERTEX
  5
4C83B
100
AcDbEntity
  8
0
100
AcDbVertex
100
AcDbPolygonMeshVertex
 10
-2.44
 20
-9.88
 30
0.19
 70
    64
  0
VERTEX
  5
4C83C
100
AcDbEntity
  8
0
100
AcDbVertex
100
AcDbPolygonMeshVertex
 10
2.44
 20
-9.25
 30
1.0
 70
    64
  0
VERTEX
  5
4C83D
100
AcDbEntity
  8
0
100
AcDbVertex
100
AcDbPolygonMeshVertex
 10
2.44
 20
-9.25
 30
0.19
 70
    64
  0
VERTEX
  5
4C83E
100
AcDbEntity
  8
0
100
AcDbVertex
100
AcDbPolygonMeshVertex
 10
2.44
 20
-9.88
 30
0.19
 70
    64
  0
VERTEX
  5
4C83F
100
AcDbEntity
  8
0
100
AcDbVertex
100
AcDbPolygonMeshVertex
 10
2.44
 20
-9.25
 30
1.0
 70
    64
  0
VERTEX
  5
4C840
100
AcDbEntity
  8
0
100
AcDbVertex
100
AcDbPolygonMeshVertex
 10
2.44
 20
-9.25
 30
1.0
 70
    64
  0
VERTEX
  5
4C841
100
AcDbEntity
  8
0
100
AcDbVertex
100
AcDbPolygonMeshVertex
 10
2.44
 20
-9.88
 30
1.0
 70
    64
  0
VERTEX
  5
4C842
100
AcDbEntity
  8
0
100
AcDbVertex
100
AcDbPolygonMeshVertex
 10
-2.44
 20
-9.25
 30
1.0
 70
    64
  0
VERTEX
  5
4C843
100
AcDbEntity
  8
0
100
AcDbVertex
100
AcDbPolygonMeshVertex
 10
-2.44
 20
-9.25
 30
1.0
 70
    64
  0
VERTEX
  5
4C844
100
AcDbEntity
  8
0
100
AcDbVertex
100
AcDbPolygonMeshVertex
 10
-2.44
 20
-9.88
 30
1.0
 70
    64
  0
SEQEND
  5
4C845
100
AcDbEntity
  8
0
  0
POLYLINE
  5
4C846
100
AcDbEntity
  8
0
100
AcDbPolygonMesh
 66
     1
 10
0.0
 20
0.0
 30
0.0
 70
    16
 71
     6
 72
     3
  0
VERTEX
  5
4C847
100
AcDbEntity
  8
0
100
AcDbVertex
100
AcDbPolygonMeshVertex
 10
2.44
 20
-9.25
 30
1.56
 70
    64
  0
VERTEX
  5
4C848
100
AcDbEntity
  8
0
100
AcDbVertex
100
AcDbPolygonMeshVertex
 10
2.44
 20
-9.25
 30
0.19
 70
    64
  0
VERTEX
  5
4C849
100
AcDbEntity
  8
0
100
AcDbVertex
100
AcDbPolygonMeshVertex
 10
2.44
 20
-9.25
 30
0.19
 70
    64
  0
VERTEX
  5
4C84A
100
AcDbEntity
  8
0
100
AcDbVertex
100
AcDbPolygonMeshVertex
 10
-2.44
 20
-9.25
 30
1.56
 70
    64
  0
VERTEX
  5
4C84B
100
AcDbEntity
  8
0
100
AcDbVertex
100
AcDbPolygonMeshVertex
 10
-2.44
 20
-9.25
 30
0.19
 70
    64
  0
VERTEX
  5
4C84C
100
AcDbEntity
  8
0
100
AcDbVertex
100
AcDbPolygonMeshVertex
 10
-2.44
 20
-9.25
 30
0.19
 70
    64
  0
VERTEX
  5
4C84D
100
AcDbEntity
  8
0
100
AcDbVertex
100
AcDbPolygonMeshVertex
 10
-2.44
 20
-8.94
 30
1.56
 70
    64
  0
VERTEX
  5
4C84E
100
AcDbEntity
  8
0
100
AcDbVertex
100
AcDbPolygonMeshVertex
 10
-2.44
 20
-8.94
 30
0.19
 70
    64
  0
VERTEX
  5
4C84F
100
AcDbEntity
  8
0
100
AcDbVertex
100
AcDbPolygonMeshVertex
 10
-2.44
 20
-9.25
 30
0.19
 70
    64
  0
VERTEX
  5
4C850
100
AcDbEntity
  8
0
100
AcDbVertex
100
AcDbPolygonMeshVertex
 10
2.44
 20
-8.94
 30
1.56
 70
    64
  0
VERTEX
  5
4C851
100
AcDbEntity
  8
0
100
AcDbVertex
100
AcDbPolygonMeshVertex
 10
2.44
 20
-8.94
 30
0.19
 70
    64
  0
VERTEX
  5
4C852
100
AcDbEntity
  8
0
100
AcDbVertex
100
AcDbPolygonMeshVertex
 10
2.44
 20
-9.25
 30
0.19
 70
    64
  0
VERTEX
  5
4C853
100
AcDbEntity
  8
0
100
AcDbVertex
100
AcDbPolygonMeshVertex
 10
2.44
 20
-8.94
 30
1.56
 70
    64
  0
VERTEX
  5
4C854
100
AcDbEntity
  8
0
100
AcDbVertex
100
AcDbPolygonMeshVertex
 10
2.44
 20
-8.94
 30
1.56
 70
    64
  0
VERTEX
  5
4C855
100
AcDbEntity
  8
0
100
AcDbVertex
100
AcDbPolygonMeshVertex
 10
2.44
 20
-9.25
 30
1.56
 70
    64
  0
VERTEX
  5
4C856
100
AcDbEntity
  8
0
100
AcDbVertex
100
AcDbPolygonMeshVertex
 10
-2.44
 20
-8.94
 30
1.56
 70
    64
  0
VERTEX
  5
4C857
100
AcDbEntity
  8
0
100
AcDbVertex
100
AcDbPolygonMeshVertex
 10
-2.44
 20
-8.94
 30
1.56
 70
    64
  0
VERTEX
  5
4C858
100
AcDbEntity
  8
0
100
AcDbVertex
100
AcDbPolygonMeshVertex
 10
-2.44
 20
-9.25
 30
1.56
 70
    64
  0
SEQEND
  5
4C859
100
AcDbEntity
  8
0
  0
POLYLINE
  5
4C85A
100
AcDbEntity
  8
0
100
AcDbPolygonMesh
 66
     1
 10
0.0
 20
0.0
 30
0.0
 70
    16
 71
     6
 72
     3
  0
VERTEX
  5
4C85B
100
AcDbEntity
  8
0
100
AcDbVertex
100
AcDbPolygonMeshVertex
 10
2.44
 20
-8.94
 30
2.0
 70
    64
  0
VERTEX
  5
4C85C
100
AcDbEntity
  8
0
100
AcDbVertex
100
AcDbPolygonMeshVertex
 10
2.44
 20
-8.94
 30
0.19
 70
    64
  0
VERTEX
  5
4C85D
100
AcDbEntity
  8
0
100
AcDbVertex
100
AcDbPolygonMeshVertex
 10
2.44
 20
-8.94
 30
0.19
 70
    64
  0
VERTEX
  5
4C85E
100
AcDbEntity
  8
0
100
AcDbVertex
100
AcDbPolygonMeshVertex
 10
-2.44
 20
-8.94
 30
2.0
 70
    64
  0
VERTEX
  5
4C85F
100
AcDbEntity
  8
0
100
AcDbVertex
100
AcDbPolygonMeshVertex
 10
-2.44
 20
-8.94
 30
0.19
 70
    64
  0
VERTEX
  5
4C860
100
AcDbEntity
  8
0
100
AcDbVertex
100
AcDbPolygonMeshVertex
 10
-2.44
 20
-8.94
 30
0.19
 70
    64
  0
VERTEX
  5
4C861
100
AcDbEntity
  8
0
100
AcDbVertex
100
AcDbPolygonMeshVertex
 10
-2.44
 20
-4.5
 30
2.0
 70
    64
  0
VERTEX
  5
4C862
100
AcDbEntity
  8
0
100
AcDbVertex
100
AcDbPolygonMeshVertex
 10
-2.44
 20
-4.5
 30
0.19
 70
    64
  0
VERTEX
  5
4C863
100
AcDbEntity
  8
0
100
AcDbVertex
100
AcDbPolygonMeshVertex
 10
-2.44
 20
-8.94
 30
0.19
 70
    64
  0
VERTEX
  5
4C864
100
AcDbEntity
  8
0
100
AcDbVertex
100
AcDbPolygonMeshVertex
 10
2.44
 20
-4.5
 30
2.0
 70
    64
  0
VERTEX
  5
4C865
100
AcDbEntity
  8
0
100
AcDbVertex
100
AcDbPolygonMeshVertex
 10
2.44
 20
-4.5
 30
0.19
 70
    64
  0
VERTEX
  5
4C866
100
AcDbEntity
  8
0
100
AcDbVertex
100
AcDbPolygonMeshVertex
 10
2.44
 20
-8.94
 30
0.19
 70
    64
  0
VERTEX
  5
4C867
100
AcDbEntity
  8
0
100
AcDbVertex
100
AcDbPolygonMeshVertex
 10
2.44
 20
-4.5
 30
2.0
 70
    64
  0
VERTEX
  5
4C868
100
AcDbEntity
  8
0
100
AcDbVertex
100
AcDbPolygonMeshVertex
 10
2.44
 20
-4.5
 30
2.0
 70
    64
  0
VERTEX
  5
4C869
100
AcDbEntity
  8
0
100
AcDbVertex
100
AcDbPolygonMeshVertex
 10
2.44
 20
-8.94
 30
2.0
 70
    64
  0
VERTEX
  5
4C86A
100
AcDbEntity
  8
0
100
AcDbVertex
100
AcDbPolygonMeshVertex
 10
-2.44
 20
-4.5
 30
2.0
 70
    64
  0
VERTEX
  5
4C86B
100
AcDbEntity
  8
0
100
AcDbVertex
100
AcDbPolygonMeshVertex
 10
-2.44
 20
-4.5
 30
2.0
 70
    64
  0
VERTEX
  5
4C86C
100
AcDbEntity
  8
0
100
AcDbVertex
100
AcDbPolygonMeshVertex
 10
-2.44
 20
-8.94
 30
2.0
 70
    64
  0
SEQEND
  5
4C86D
100
AcDbEntity
  8
0
  0
LINE
  5
4C86E
100
AcDbEntity
  8
0
100
AcDbLine
 10
-2.44
 20
-8.94
 30
1.56
 11
-2.44
 21
-8.94
 31
0.19
  0
3DFACE
  5
4C86F
100
AcDbEntity
  8
0
100
AcDbFace
 10
-3.06
 20
-7.74
 30
0.19
 11
-2.72
 21
-7.15
 31
0.19
 12
-2.72
 22
-7.15
 32
0.0
 13
-3.06
 23
-7.74
 33
0.0
  0
3DFACE
  5
4C870
100
AcDbEntity
  8
0
100
AcDbFace
 10
-2.72
 20
-7.15
 30
0.0
 11
-3.06
 21
-7.74
 31
0.0
 12
-3.06
 22
-8.98
 32
0.0
 13
-2.72
 23
-9.74
 33
0.0
  0
3DFACE
  5
4C871
100
AcDbEntity
  8
0
100
AcDbFace
 10
-2.72
 20
-7.15
 30
0.19
 11
-3.06
 21
-7.74
 31
0.19
 12
-3.06
 22
-8.98
 32
0.19
 13
-2.72
 23
-9.74
 33
0.19
  0
LINE
  5
4C872
100
AcDbEntity
  8
0
100
AcDbLine
 10
-2.72
 20
-7.15
 30
0.19
 11
-2.72
 21
-9.74
 31
0.19
  0
LINE
  5
4C873
100
AcDbEntity
  8
0
100
AcDbLine
 10
-2.72
 20
-7.15
 30
0.0
 11
-2.72
 21
-9.74
 31
0.0
  0
3DFACE
  5
4C874
100
AcDbEntity
  8
0
100
AcDbFace
 10
-3.06
 20
-8.98
 30
0.0
 11
-3.06
 21
-8.98
 31
0.19
 12
-3.06
 22
-7.74
 32
0.19
 13
-3.06
 23
-7.74
 33
0.0
  0
LINE
  5
4C875
100
AcDbEntity
  8
0
100
AcDbLine
 10
-2.44
 20
-8.5
 30
0.19
 11
-2.44
 21
-9.88
 31
0.19
  0
CIRCLE
  5
4C876
100
AcDbEntity
  8
0
100
AcDbCircle
 10
-2.76
 20
-8.66
 30
0.19
 40
0.14
  0
CIRCLE
  5
4C877
100
AcDbEntity
  8
0
100
AcDbCircle
 10
-2.76
 20
-8.66
 30
0.0
 40
0.14
  0
3DFACE
  5
4C878
100
AcDbEntity
  8
0
100
AcDbFace
 10
-2.72
 20
-9.74
 30
0.0
 11
-3.06
 21
-8.98
 31
0.0
 12
-3.06
 22
-8.98
 32
0.19
 13
-2.72
 23
-9.74
 33
0.19
  0
LINE
  5
4C879
100
AcDbEntity
  8
0
100
AcDbLine
 10
-2.62
 20
-8.66
 30
0.0
 11
-2.62
 21
-8.66
 31
0.19
  0
3DFACE
  5
4C87A
100
AcDbEntity
  8
0
100
AcDbFace
 10
3.06
 20
-7.74
 30
0.19
 11
2.72
 21
-7.15
 31
0.19
 12
2.72
 22
-7.15
 32
0.0
 13
3.06
 23
-7.74
 33
0.0
  0
3DFACE
  5
4C87B
100
AcDbEntity
  8
0
100
AcDbFace
 10
2.72
 20
-9.74
 30
0.0
 11
2.72
 21
-7.15
 31
0.0
 12
3.06
 22
-7.74
 32
0.0
 13
3.06
 23
-8.98
 33
0.0
  0
3DFACE
  5
4C87C
100
AcDbEntity
  8
0
100
AcDbFace
 10
2.72
 20
-9.74
 30
0.19
 11
2.72
 21
-7.15
 31
0.19
 12
3.06
 22
-7.74
 32
0.19
 13
3.06
 23
-8.98
 33
0.19
  0
LINE
  5
4C87D
100
AcDbEntity
  8
0
100
AcDbLine
 10
2.72
 20
-7.15
 30
0.0
 11
2.72
 21
-9.74
 31
0.0
  0
3DFACE
  5
4C87E
100
AcDbEntity
  8
0
100
AcDbFace
 10
3.06
 20
-8.98
 30
0.0
 11
3.06
 21
-8.98
 31
0.19
 12
3.06
 22
-7.74
 32
0.19
 13
3.06
 23
-7.74
 33
0.0
  0
LINE
  5
4C87F
100
AcDbEntity
  8
0
100
AcDbLine
 10
2.44
 20
-8.5
 30
0.19
 11
2.44
 21
-9.88
 31
0.19
  0
CIRCLE
  5
4C880
100
AcDbEntity
  8
0
100
AcDbCircle
 10
2.76
 20
-8.66
 30
0.19
 40
0.14
  0
CIRCLE
  5
4C881
100
AcDbEntity
  8
0
100
AcDbCircle
 10
2.76
 20
-8.66
 30
0.0
 40
0.14
  0
3DFACE
  5
4C882
100
AcDbEntity
  8
0
100
AcDbFace
 10
2.72
 20
-9.74
 30
0.0
 11
3.06
 21
-8.98
 31
0.0
 12
3.06
 22
-8.98
 32
0.19
 13
2.72
 23
-9.74
 33
0.19
  0
LINE
  5
4C883
100
AcDbEntity
  8
0
100
AcDbLine
 10
2.9
 20
-8.66
 30
0.0
 11
2.9
 21
-8.66
 31
0.19
  0
POLYLINE
  5
4C884
100
AcDbEntity
  8
0
100
AcDbPolygonMesh
 66
     1
 10
0.0
 20
0.0
 30
0.0
 70
    16
 71
     6
 72
     3
  0
VERTEX
  5
4C885
100
AcDbEntity
  8
0
100
AcDbVertex
100
AcDbPolygonMeshVertex
 10
1.0
 20
-6.5
 30
5.25
 70
    64
  0
VERTEX
  5
4C886
100
AcDbEntity
  8
0
100
AcDbVertex
100
AcDbPolygonMeshVertex
 10
1.0
 20
-6.5
 30
4.88
 70
    64
  0
VERTEX
  5
4C887
100
AcDbEntity
  8
0
100
AcDbVertex
100
AcDbPolygonMeshVertex
 10
1.0
 20
-6.5
 30
4.88
 70
    64
  0
VERTEX
  5
4C888
100
AcDbEntity
  8
0
100
AcDbVertex
100
AcDbPolygonMeshVertex
 10
-1.0
 20
-6.5
 30
5.25
 70
    64
  0
VERTEX
  5
4C889
100
AcDbEntity
  8
0
100
AcDbVertex
100
AcDbPolygonMeshVertex
 10
-1.0
 20
-6.5
 30
4.88
 70
    64
  0
VERTEX
  5
4C88A
100
AcDbEntity
  8
0
100
AcDbVertex
100
AcDbPolygonMeshVertex
 10
-1.0
 20
-6.5
 30
4.88
 70
    64
  0
VERTEX
  5
4C88B
100
AcDbEntity
  8
0
100
AcDbVertex
100
AcDbPolygonMeshVertex
 10
-1.0
 20
-5.5
 30
5.25
 70
    64
  0
VERTEX
  5
4C88C
100
AcDbEntity
  8
0
100
AcDbVertex
100
AcDbPolygonMeshVertex
 10
-1.0
 20
-5.5
 30
4.88
 70
    64
  0
VERTEX
  5
4C88D
100
AcDbEntity
  8
0
100
AcDbVertex
100
AcDbPolygonMeshVertex
 10
-1.0
 20
-6.5
 30
4.88
 70
    64
  0
VERTEX
  5
4C88E
100
AcDbEntity
  8
0
100
AcDbVertex
100
AcDbPolygonMeshVertex
 10
1.0
 20
-5.5
 30
5.25
 70
    64
  0
VERTEX
  5
4C88F
100
AcDbEntity
  8
0
100
AcDbVertex
100
AcDbPolygonMeshVertex
 10
1.0
 20
-5.5
 30
4.88
 70
    64
  0
VERTEX
  5
4C890
100
AcDbEntity
  8
0
100
AcDbVertex
100
AcDbPolygonMeshVertex
 10
1.0
 20
-6.5
 30
4.88
 70
    64
  0
VERTEX
  5
4C891
100
AcDbEntity
  8
0
100
AcDbVertex
100
AcDbPolygonMeshVertex
 10
1.0
 20
-5.5
 30
5.25
 70
    64
  0
VERTEX
  5
4C892
100
AcDbEntity
  8
0
100
AcDbVertex
100
AcDbPolygonMeshVertex
 10
1.0
 20
-5.5
 30
5.25
 70
    64
  0
VERTEX
  5
4C893
100
AcDbEntity
  8
0
100
AcDbVertex
100
AcDbPolygonMeshVertex
 10
1.0
 20
-6.5
 30
5.25
 70
    64
  0
VERTEX
  5
4C894
100
AcDbEntity
  8
0
100
AcDbVertex
100
AcDbPolygonMeshVertex
 10
-1.0
 20
-5.5
 30
5.25
 70
    64
  0
VERTEX
  5
4C895
100
AcDbEntity
  8
0
100
AcDbVertex
100
AcDbPolygonMeshVertex
 10
-1.0
 20
-5.5
 30
5.25
 70
    64
  0
VERTEX
  5
4C896
100
AcDbEntity
  8
0
100
AcDbVertex
100
AcDbPolygonMeshVertex
 10
-1.0
 20
-6.5
 30
5.25
 70
    64
  0
SEQEND
  5
4C897
100
AcDbEntity
  8
0
  0
LINE
  5
4C898
100
AcDbEntity
  8
0
100
AcDbLine
 10
-0.537299
 20
-5.821797
 30
5.69
 11
-0.452914
 21
-6.056818
 31
5.69
  0
LINE
  5
4C899
100
AcDbEntity
  8
0
100
AcDbLine
 10
-0.552263
 20
-5.827579
 30
5.69
 11
-0.467878
 21
-6.0626
 31
5.69
  0
POLYLINE
  5
4C89A
100
AcDbEntity
  8
0
100
AcDbPolygonMesh
 66
     1
 10
0.0
 20
0.0
 30
0.0
 70
    16
 71
     6
 72
     3
  0
VERTEX
  5
4C89B
100
AcDbEntity
  8
0
100
AcDbVertex
100
AcDbPolygonMeshVertex
 10
-0.31
 20
-6.1
 30
5.69
 70
    64
  0
VERTEX
  5
4C89C
100
AcDbEntity
  8
0
100
AcDbVertex
100
AcDbPolygonMeshVertex
 10
-0.31
 20
-6.1
 30
5.25
 70
    64
  0
VERTEX
  5
4C89D
100
AcDbEntity
  8
0
100
AcDbVertex
100
AcDbPolygonMeshVertex
 10
-0.31
 20
-6.1
 30
5.25
 70
    64
  0
VERTEX
  5
4C89E
100
AcDbEntity
  8
0
100
AcDbVertex
100
AcDbPolygonMeshVertex
 10
-0.69
 20
-6.1
 30
5.69
 70
    64
  0
VERTEX
  5
4C89F
100
AcDbEntity
  8
0
100
AcDbVertex
100
AcDbPolygonMeshVertex
 10
-0.69
 20
-6.1
 30
5.25
 70
    64
  0
VERTEX
  5
4C8A0
100
AcDbEntity
  8
0
100
AcDbVertex
100
AcDbPolygonMeshVertex
 10
-0.69
 20
-6.1
 30
5.25
 70
    64
  0
VERTEX
  5
4C8A1
100
AcDbEntity
  8
0
100
AcDbVertex
100
AcDbPolygonMeshVertex
 10
-0.69
 20
-5.6
 30
5.69
 70
    64
  0
VERTEX
  5
4C8A2
100
AcDbEntity
  8
0
100
AcDbVertex
100
AcDbPolygonMeshVertex
 10
-0.69
 20
-5.6
 30
5.25
 70
    64
  0
VERTEX
  5
4C8A3
100
AcDbEntity
  8
0
100
AcDbVertex
100
AcDbPolygonMeshVertex
 10
-0.69
 20
-6.1
 30
5.25
 70
    64
  0
VERTEX
  5
4C8A4
100
AcDbEntity
  8
0
100
AcDbVertex
100
AcDbPolygonMeshVertex
 10
-0.31
 20
-5.6
 30
5.69
 70
    64
  0
VERTEX
  5
4C8A5
100
AcDbEntity
  8
0
100
AcDbVertex
100
AcDbPolygonMeshVertex
 10
-0.31
 20
-5.6
 30
5.25
 70
    64
  0
VERTEX
  5
4C8A6
100
AcDbEntity
  8
0
100
AcDbVertex
100
AcDbPolygonMeshVertex
 10
-0.31
 20
-6.1
 30
5.25
 70
    64
  0
VERTEX
  5
4C8A7
100
AcDbEntity
  8
0
100
AcDbVertex
100
AcDbPolygonMeshVertex
 10
-0.31
 20
-5.6
 30
5.69
 70
    64
  0
VERTEX
  5
4C8A8
100
AcDbEntity
  8
0
100
AcDbVertex
100
AcDbPolygonMeshVertex
 10
-0.31
 20
-5.6
 30
5.69
 70
    64
  0
VERTEX
  5
4C8A9
100
AcDbEntity
  8
0
100
AcDbVertex
100
AcDbPolygonMeshVertex
 10
-0.31
 20
-6.1
 30
5.69
 70
    64
  0
VERTEX
  5
4C8AA
100
AcDbEntity
  8
0
100
AcDbVertex
100
AcDbPolygonMeshVertex
 10
-0.69
 20
-5.6
 30
5.69
 70
    64
  0
VERTEX
  5
4C8AB
100
AcDbEntity
  8
0
100
AcDbVertex
100
AcDbPolygonMeshVertex
 10
-0.69
 20
-5.6
 30
5.69
 70
    64
  0
VERTEX
  5
4C8AC
100
AcDbEntity
  8
0
100
AcDbVertex
100
AcDbPolygonMeshVertex
 10
-0.69
 20
-6.1
 30
5.69
 70
    64
  0
SEQEND
  5
4C8AD
100
AcDbEntity
  8
0
  0
CIRCLE
  5
4C8AE
100
AcDbEntity
  8
0
100
AcDbCircle
 10
-0.5
 20
-5.94
 30
5.69
 40
0.125
  0
POLYLINE
  5
4C8AF
100
AcDbEntity
  8
0
100
AcDbPolygonMesh
 66
     1
 10
0.0
 20
0.0
 30
0.0
 70
    16
 71
     6
 72
     3
  0
VERTEX
  5
4C8B0
100
AcDbEntity
  8
0
100
AcDbVertex
100
AcDbPolygonMeshVertex
 10
0.69
 20
-6.1
 30
5.69
 70
    64
  0
VERTEX
  5
4C8B1
100
AcDbEntity
  8
0
100
AcDbVertex
100
AcDbPolygonMeshVertex
 10
0.69
 20
-6.1
 30
5.25
 70
    64
  0
VERTEX
  5
4C8B2
100
AcDbEntity
  8
0
100
AcDbVertex
100
AcDbPolygonMeshVertex
 10
0.69
 20
-6.1
 30
5.25
 70
    64
  0
VERTEX
  5
4C8B3
100
AcDbEntity
  8
0
100
AcDbVertex
100
AcDbPolygonMeshVertex
 10
0.31
 20
-6.1
 30
5.69
 70
    64
  0
VERTEX
  5
4C8B4
100
AcDbEntity
  8
0
100
AcDbVertex
100
AcDbPolygonMeshVertex
 10
0.31
 20
-6.1
 30
5.25
 70
    64
  0
VERTEX
  5
4C8B5
100
AcDbEntity
  8
0
100
AcDbVertex
100
AcDbPolygonMeshVertex
 10
0.31
 20
-6.1
 30
5.25
 70
    64
  0
VERTEX
  5
4C8B6
100
AcDbEntity
  8
0
100
AcDbVertex
100
AcDbPolygonMeshVertex
 10
0.31
 20
-5.6
 30
5.69
 70
    64
  0
VERTEX
  5
4C8B7
100
AcDbEntity
  8
0
100
AcDbVertex
100
AcDbPolygonMeshVertex
 10
0.31
 20
-5.6
 30
5.25
 70
    64
  0
VERTEX
  5
4C8B8
100
AcDbEntity
  8
0
100
AcDbVertex
100
AcDbPolygonMeshVertex
 10
0.31
 20
-6.1
 30
5.25
 70
    64
  0
VERTEX
  5
4C8B9
100
AcDbEntity
  8
0
100
AcDbVertex
100
AcDbPolygonMeshVertex
 10
0.69
 20
-5.6
 30
5.69
 70
    64
  0
VERTEX
  5
4C8BA
100
AcDbEntity
  8
0
100
AcDbVertex
100
AcDbPolygonMeshVertex
 10
0.69
 20
-5.6
 30
5.25
 70
    64
  0
VERTEX
  5
4C8BB
100
AcDbEntity
  8
0
100
AcDbVertex
100
AcDbPolygonMeshVertex
 10
0.69
 20
-6.1
 30
5.25
 70
    64
  0
VERTEX
  5
4C8BC
100
AcDbEntity
  8
0
100
AcDbVertex
100
AcDbPolygonMeshVertex
 10
0.69
 20
-5.6
 30
5.69
 70
    64
  0
VERTEX
  5
4C8BD
100
AcDbEntity
  8
0
100
AcDbVertex
100
AcDbPolygonMeshVertex
 10
0.69
 20
-5.6
 30
5.69
 70
    64
  0
VERTEX
  5
4C8BE
100
AcDbEntity
  8
0
100
AcDbVertex
100
AcDbPolygonMeshVertex
 10
0.69
 20
-6.1
 30
5.69
 70
    64
  0
VERTEX
  5
4C8BF
100
AcDbEntity
  8
0
100
AcDbVertex
100
AcDbPolygonMeshVertex
 10
0.31
 20
-5.6
 30
5.69
 70
    64
  0
VERTEX
  5
4C8C0
100
AcDbEntity
  8
0
100
AcDbVertex
100
AcDbPolygonMeshVertex
 10
0.31
 20
-5.6
 30
5.69
 70
    64
  0
VERTEX
  5
4C8C1
100
AcDbEntity
  8
0
100
AcDbVertex
100
AcDbPolygonMeshVertex
 10
0.31
 20
-6.1
 30
5.69
 70
    64
  0
SEQEND
  5
4C8C2
100
AcDbEntity
  8
0
  0
LINE
  5
4C8C3
100
AcDbEntity
  8
0
100
AcDbLine
 10
0.447737
 20
-5.827579
 30
5.69
 11
0.532122
 21
-6.0626
 31
5.69
  0
CIRCLE
  5
4C8C4
100
AcDbEntity
  8
0
100
AcDbCircle
 10
0.5
 20
-5.94
 30
5.69
 40
0.125
  0
LINE
  5
4C8C5
100
AcDbEntity
  8
0
100
AcDbLine
 10
0.462701
 20
-5.821797
 30
5.69
 11
0.547086
 21
-6.056818
 31
5.69
  0
POLYLINE
  5
4C8C6
100
AcDbEntity
  8
0
100
AcDbPolygonMesh
 66
     1
 10
0.0
 20
0.0
 30
0.0
 70
    16
 71
     6
 72
     3
  0
VERTEX
  5
4C8C7
100
AcDbEntity
  8
0
100
AcDbVertex
100
AcDbPolygonMeshVertex
 10
2.5
 20
-2.32
 30
5.5
 70
    64
  0
VERTEX
  5
4C8C8
100
AcDbEntity
  8
0
100
AcDbVertex
100
AcDbPolygonMeshVertex
 10
2.5
 20
-2.32
 30
0.19
 70
    64
  0
VERTEX
  5
4C8C9
100
AcDbEntity
  8
0
100
AcDbVertex
100
AcDbPolygonMeshVertex
 10
2.5
 20
-2.32
 30
0.19
 70
    64
  0
VERTEX
  5
4C8CA
100
AcDbEntity
  8
0
100
AcDbVertex
100
AcDbPolygonMeshVertex
 10
-2.5
 20
-2.32
 30
5.5
 70
    64
  0
VERTEX
  5
4C8CB
100
AcDbEntity
  8
0
100
AcDbVertex
100
AcDbPolygonMeshVertex
 10
-2.5
 20
-2.32
 30
0.19
 70
    64
  0
VERTEX
  5
4C8CC
100
AcDbEntity
  8
0
100
AcDbVertex
100
AcDbPolygonMeshVertex
 10
-2.5
 20
-2.32
 30
0.19
 70
    64
  0
VERTEX
  5
4C8CD
100
AcDbEntity
  8
0
100
AcDbVertex
100
AcDbPolygonMeshVertex
 10
-2.5
 20
-1.32
 30
5.5
 70
    64
  0
VERTEX
  5
4C8CE
100
AcDbEntity
  8
0
100
AcDbVertex
100
AcDbPolygonMeshVertex
 10
-2.5
 20
-1.32
 30
0.19
 70
    64
  0
VERTEX
  5
4C8CF
100
AcDbEntity
  8
0
100
AcDbVertex
100
AcDbPolygonMeshVertex
 10
-2.5
 20
-2.32
 30
0.19
 70
    64
  0
VERTEX
  5
4C8D0
100
AcDbEntity
  8
0
100
AcDbVertex
100
AcDbPolygonMeshVertex
 10
2.5
 20
-1.32
 30
5.5
 70
    64
  0
VERTEX
  5
4C8D1
100
AcDbEntity
  8
0
100
AcDbVertex
100
AcDbPolygonMeshVertex
 10
2.5
 20
-1.32
 30
0.19
 70
    64
  0
VERTEX
  5
4C8D2
100
AcDbEntity
  8
0
100
AcDbVertex
100
AcDbPolygonMeshVertex
 10
2.5
 20
-2.32
 30
0.19
 70
    64
  0
VERTEX
  5
4C8D3
100
AcDbEntity
  8
0
100
AcDbVertex
100
AcDbPolygonMeshVertex
 10
2.5
 20
-1.32
 30
5.5
 70
    64
  0
VERTEX
  5
4C8D4
100
AcDbEntity
  8
0
100
AcDbVertex
100
AcDbPolygonMeshVertex
 10
2.5
 20
-1.32
 30
5.5
 70
    64
  0
VERTEX
  5
4C8D5
100
AcDbEntity
  8
0
100
AcDbVertex
100
AcDbPolygonMeshVertex
 10
2.5
 20
-2.32
 30
5.5
 70
    64
  0
VERTEX
  5
4C8D6
100
AcDbEntity
  8
0
100
AcDbVertex
100
AcDbPolygonMeshVertex
 10
-2.5
 20
-1.32
 30
5.5
 70
    64
  0
VERTEX
  5
4C8D7
100
AcDbEntity
  8
0
100
AcDbVertex
100
AcDbPolygonMeshVertex
 10
-2.5
 20
-1.32
 30
5.5
 70
    64
  0
VERTEX
  5
4C8D8
100
AcDbEntity
  8
0
100
AcDbVertex
100
AcDbPolygonMeshVertex
 10
-2.5
 20
-2.32
 30
5.5
 70
    64
  0
SEQEND
  5
4C8D9
100
AcDbEntity
  8
0
  0
3DFACE
  5
4C8DA
100
AcDbEntity
  8
0
100
AcDbFace
 10
1.69
 20
0.31
 30
0.19
 11
-1.69
 21
0.31
 31
0.19
 12
-1.69
 22
0.31
 32
0.0
 13
1.69
 23
0.31
 33
0.0
  0
3DFACE
  5
4C8DB
100
AcDbEntity
  8
0
100
AcDbFace
 10
2.72
 20
-1.16
 30
0.0
 11
1.69
 21
0.31
 31
0.0
 12
-1.69
 22
0.31
 32
0.0
 13
-2.72
 23
-1.16
 33
0.0
  0
3DFACE
  5
4C8DC
100
AcDbEntity
  8
0
100
AcDbFace
 10
2.72
 20
-1.16
 30
0.19
 11
1.69
 21
0.31
 31
0.19
 12
-1.69
 22
0.31
 32
0.19
 13
-2.72
 23
-1.16
 33
0.19
  0
POLYLINE
  5
4C8DD
100
AcDbEntity
  8
0
100
AcDbPolygonMesh
 66
     1
 10
0.0
 20
0.0
 30
0.0
 70
    16
 71
     6
 72
     3
  0
VERTEX
  5
4C8DE
100
AcDbEntity
  8
0
100
AcDbVertex
100
AcDbPolygonMeshVertex
 10
2.5
 20
-1.32
 30
0.84
 70
    64
  0
VERTEX
  5
4C8DF
100
AcDbEntity
  8
0
100
AcDbVertex
100
AcDbPolygonMeshVertex
 10
2.5
 20
-1.32
 30
0.19
 70
    64
  0
VERTEX
  5
4C8E0
100
AcDbEntity
  8
0
100
AcDbVertex
100
AcDbPolygonMeshVertex
 10
2.5
 20
-1.32
 30
0.19
 70
    64
  0
VERTEX
  5
4C8E1
100
AcDbEntity
  8
0
100
AcDbVertex
100
AcDbPolygonMeshVertex
 10
-2.5
 20
-1.32
 30
0.84
 70
    64
  0
VERTEX
  5
4C8E2
100
AcDbEntity
  8
0
100
AcDbVertex
100
AcDbPolygonMeshVertex
 10
-2.5
 20
-1.32
 30
0.19
 70
    64
  0
VERTEX
  5
4C8E3
100
AcDbEntity
  8
0
100
AcDbVertex
100
AcDbPolygonMeshVertex
 10
-2.5
 20
-1.32
 30
0.19
 70
    64
  0
VERTEX
  5
4C8E4
100
AcDbEntity
  8
0
100
AcDbVertex
100
AcDbPolygonMeshVertex
 10
-2.5
 20
-0.94
 30
0.84
 70
    64
  0
VERTEX
  5
4C8E5
100
AcDbEntity
  8
0
100
AcDbVertex
100
AcDbPolygonMeshVertex
 10
-2.5
 20
-0.94
 30
0.19
 70
    64
  0
VERTEX
  5
4C8E6
100
AcDbEntity
  8
0
100
AcDbVertex
100
AcDbPolygonMeshVertex
 10
-2.5
 20
-1.32
 30
0.19
 70
    64
  0
VERTEX
  5
4C8E7
100
AcDbEntity
  8
0
100
AcDbVertex
100
AcDbPolygonMeshVertex
 10
2.5
 20
-0.94
 30
0.84
 70
    64
  0
VERTEX
  5
4C8E8
100
AcDbEntity
  8
0
100
AcDbVertex
100
AcDbPolygonMeshVertex
 10
2.5
 20
-0.94
 30
0.19
 70
    64
  0
VERTEX
  5
4C8E9
100
AcDbEntity
  8
0
100
AcDbVertex
100
AcDbPolygonMeshVertex
 10
2.5
 20
-1.32
 30
0.19
 70
    64
  0
VERTEX
  5
4C8EA
100
AcDbEntity
  8
0
100
AcDbVertex
100
AcDbPolygonMeshVertex
 10
2.5
 20
-0.94
 30
0.84
 70
    64
  0
VERTEX
  5
4C8EB
100
AcDbEntity
  8
0
100
AcDbVertex
100
AcDbPolygonMeshVertex
 10
2.5
 20
-0.94
 30
0.84
 70
    64
  0
VERTEX
  5
4C8EC
100
AcDbEntity
  8
0
100
AcDbVertex
100
AcDbPolygonMeshVertex
 10
2.5
 20
-1.32
 30
0.84
 70
    64
  0
VERTEX
  5
4C8ED
100
AcDbEntity
  8
0
100
AcDbVertex
100
AcDbPolygonMeshVertex
 10
-2.5
 20
-0.94
 30
0.84
 70
    64
  0
VERTEX
  5
4C8EE
100
AcDbEntity
  8
0
100
AcDbVertex
100
AcDbPolygonMeshVertex
 10
-2.5
 20
-0.94
 30
0.84
 70
    64
  0
VERTEX
  5
4C8EF
100
AcDbEntity
  8
0
100
AcDbVertex
100
AcDbPolygonMeshVertex
 10
-2.5
 20
-1.32
 30
0.84
 70
    64
  0
SEQEND
  5
4C8F0
100
AcDbEntity
  8
0
  0
3DFACE
  5
4C8F1
100
AcDbEntity
  8
0
100
AcDbFace
 10
-1.69
 20
0.31
 30
0.0
 11
-1.69
 21
0.31
 31
0.19
 12
-2.72
 22
-1.16
 32
0.19
 13
-2.72
 23
-1.16
 33
0.0
  0
ARC
  5
4C8F2
100
AcDbEntity
  8
0
100
AcDbCircle
 10
0.0
 20
0.0
 30
0.19
 40
0.14
100
AcDbArc
 50
0.0
 51
179.999985
  0
ARC
  5
4C8F3
100
AcDbEntity
  8
0
100
AcDbCircle
 10
0.0
 20
0.0
 30
0.0
 40
0.14
100
AcDbArc
 50
0.0
 51
179.999985
  0
CIRCLE
  5
4C8F4
100
AcDbEntity
  8
0
100
AcDbCircle
 10
0.78
 20
0.0
 30
0.19
 40
0.14
  0
CIRCLE
  5
4C8F5
100
AcDbEntity
  8
0
100
AcDbCircle
 10
0.78
 20
0.0
 30
0.0
 40
0.14
  0
LINE
  5
4C8F6
100
AcDbEntity
  8
0
100
AcDbLine
 10
0.28
 20
-0.44
 30
0.19
 11
0.28
 21
-0.75
 31
0.19
  0
LINE
  5
4C8F7
100
AcDbEntity
  8
0
100
AcDbLine
 10
0.28
 20
-0.44
 30
0.0
 11
0.28
 21
-0.75
 31
0.0
  0
LINE
  5
4C8F8
100
AcDbEntity
  8
0
100
AcDbLine
 10
-0.28
 20
-0.44
 30
0.19
 11
-0.28
 21
-0.75
 31
0.19
  0
LINE
  5
4C8F9
100
AcDbEntity
  8
0
100
AcDbLine
 10
-0.28
 20
-0.44
 30
0.0
 11
-0.28
 21
-0.75
 31
0.0
  0
LINE
  5
4C8FA
100
AcDbEntity
  8
0
100
AcDbLine
 10
0.28
 20
-0.75
 30
0.0
 11
0.28
 21
-0.75
 31
0.19
  0
LINE
  5
4C8FB
100
AcDbEntity
  8
0
100
AcDbLine
 10
-0.28
 20
-0.75
 30
0.0
 11
-0.28
 21
-0.75
 31
0.19
  0
LINE
  5
4C8FC
100
AcDbEntity
  8
0
100
AcDbLine
 10
-0.28
 20
-0.75
 30
0.0
 11
0.28
 21
-0.75
 31
0.0
  0
LINE
  5
4C8FD
100
AcDbEntity
  8
0
100
AcDbLine
 10
-0.28
 20
-0.75
 30
0.19
 11
0.28
 21
-0.75
 31
0.19
  0
LINE
  5
4C8FE
100
AcDbEntity
  8
0
100
AcDbLine
 10
0.14
 20
0.0
 30
0.0
 11
0.14
 21
0.0
 31
0.19
  0
LINE
  5
4C8FF
100
AcDbEntity
  8
0
100
AcDbLine
 10
0.139682
 20
0.008359
 30
0.0
 11
0.139682
 21
0.008359
 31
0.19
  0
LINE
  5
4C900
100
AcDbEntity
  8
0
100
AcDbLine
 10
-0.14
 20
0.0
 30
0.0
 11
-0.14
 21
0.0
 31
0.19
  0
LINE
  5
4C901
100
AcDbEntity
  8
0
100
AcDbLine
 10
0.28
 20
-0.44
 30
0.0
 11
0.28
 21
-0.44
 31
0.19
  0
LINE
  5
4C902
100
AcDbEntity
  8
0
100
AcDbLine
 10
0.139682
 20
-0.197329
 30
0.0
 11
0.139682
 21
-0.197329
 31
0.19
  0
LINE
  5
4C903
100
AcDbEntity
  8
0
100
AcDbLine
 10
-0.14
 20
-0.197513
 30
0.0
 11
-0.14
 21
-0.197513
 31
0.19
  0
LINE
  5
4C904
100
AcDbEntity
  8
0
100
AcDbLine
 10
-0.28
 20
-0.44
 30
0.0
 11
-0.28
 21
-0.44
 31
0.19
  0
ARC
  5
4C905
100
AcDbEntity
  8
0
100
AcDbCircle
 10
0.0
 20
-0.44
 30
0.0
 40
0.28
100
AcDbArc
 50
120.0
 51
179.999985
  0
LINE
  5
4C906
100
AcDbEntity
  8
0
100
AcDbLine
 10
-0.14
 20
0.0
 30
0.0
 11
-0.14
 21
-0.197513
 31
0.0
  0
ARC
  5
4C907
100
AcDbEntity
  8
0
100
AcDbCircle
 10
0.0
 20
-0.44
 30
0.0
 40
0.28
100
AcDbArc
 50
0.0
 51
60.075146
  0
LINE
  5
4C908
100
AcDbEntity
  8
0
100
AcDbLine
 10
0.139682
 20
0.008359
 30
0.0
 11
0.139682
 21
-0.197329
 31
0.0
  0
ARC
  5
4C909
100
AcDbEntity
  8
0
100
AcDbCircle
 10
0.0
 20
-0.44
 30
0.19
 40
0.28
100
AcDbArc
 50
120.0
 51
179.999985
  0
LINE
  5
4C90A
100
AcDbEntity
  8
0
100
AcDbLine
 10
-0.14
 20
0.0
 30
0.19
 11
-0.14
 21
-0.197513
 31
0.19
  0
ARC
  5
4C90B
100
AcDbEntity
  8
0
100
AcDbCircle
 10
0.0
 20
-0.44
 30
0.19
 40
0.28
100
AcDbArc
 50
0.0
 51
60.075146
  0
LINE
  5
4C90C
100
AcDbEntity
  8
0
100
AcDbLine
 10
0.139682
 20
0.008359
 30
0.19
 11
0.139682
 21
-0.197329
 31
0.19
  0
LINE
  5
4C90D
100
AcDbEntity
  8
0
100
AcDbLine
 10
0.92
 20
0.0
 30
0.0
 11
0.92
 21
0.0
 31
0.19
  0
3DFACE
  5
4C90E
100
AcDbEntity
  8
0
100
AcDbFace
 10
2.72
 20
-1.16
 30
0.0
 11
2.72
 21
-1.16
 31
0.19
 12
1.69
 22
0.31
 32
0.19
 13
1.69
 23
0.31
 33
0.0
  0
CIRCLE
  5
4C90F
100
AcDbEntity
  8
0
100
AcDbCircle
 10
1.59
 20
-1.065
 30
6.5
 40
0.22
  0
POLYLINE
  5
4C910
100
AcDbEntity
  8
0
100
AcDbPolygonMesh
 66
     1
 10
0.0
 20
0.0
 30
0.0
 70
    16
 71
     6
 72
     3
  0
VERTEX
  5
4C911
100
AcDbEntity
  8
0
100
AcDbVertex
100
AcDbPolygonMeshVertex
 10
1.965
 20
-2.32
 30
6.0
 70
    64
  0
VERTEX
  5
4C912
100
AcDbEntity
  8
0
100
AcDbVertex
100
AcDbPolygonMeshVertex
 10
1.965
 20
-2.32
 30
5.5
 70
    64
  0
VERTEX
  5
4C913
100
AcDbEntity
  8
0
100
AcDbVertex
100
AcDbPolygonMeshVertex
 10
1.965
 20
-2.32
 30
5.5
 70
    64
  0
VERTEX
  5
4C914
100
AcDbEntity
  8
0
100
AcDbVertex
100
AcDbPolygonMeshVertex
 10
1.215
 20
-2.32
 30
6.0
 70
    64
  0
VERTEX
  5
4C915
100
AcDbEntity
  8
0
100
AcDbVertex
100
AcDbPolygonMeshVertex
 10
1.215
 20
-2.32
 30
5.5
 70
    64
  0
VERTEX
  5
4C916
100
AcDbEntity
  8
0
100
AcDbVertex
100
AcDbPolygonMeshVertex
 10
1.215
 20
-2.32
 30
5.5
 70
    64
  0
VERTEX
  5
4C917
100
AcDbEntity
  8
0
100
AcDbVertex
100
AcDbPolygonMeshVertex
 10
1.215
 20
-0.69
 30
6.0
 70
    64
  0
VERTEX
  5
4C918
100
AcDbEntity
  8
0
100
AcDbVertex
100
AcDbPolygonMeshVertex
 10
1.215
 20
-0.69
 30
5.5
 70
    64
  0
VERTEX
  5
4C919
100
AcDbEntity
  8
0
100
AcDbVertex
100
AcDbPolygonMeshVertex
 10
1.215
 20
-2.32
 30
5.5
 70
    64
  0
VERTEX
  5
4C91A
100
AcDbEntity
  8
0
100
AcDbVertex
100
AcDbPolygonMeshVertex
 10
1.965
 20
-0.69
 30
6.0
 70
    64
  0
VERTEX
  5
4C91B
100
AcDbEntity
  8
0
100
AcDbVertex
100
AcDbPolygonMeshVertex
 10
1.965
 20
-0.69
 30
5.5
 70
    64
  0
VERTEX
  5
4C91C
100
AcDbEntity
  8
0
100
AcDbVertex
100
AcDbPolygonMeshVertex
 10
1.965
 20
-2.32
 30
5.5
 70
    64
  0
VERTEX
  5
4C91D
100
AcDbEntity
  8
0
100
AcDbVertex
100
AcDbPolygonMeshVertex
 10
1.965
 20
-0.69
 30
6.0
 70
    64
  0
VERTEX
  5
4C91E
100
AcDbEntity
  8
0
100
AcDbVertex
100
AcDbPolygonMeshVertex
 10
1.965
 20
-0.69
 30
6.0
 70
    64
  0
VERTEX
  5
4C91F
100
AcDbEntity
  8
0
100
AcDbVertex
100
AcDbPolygonMeshVertex
 10
1.965
 20
-2.32
 30
6.0
 70
    64
  0
VERTEX
  5
4C920
100
AcDbEntity
  8
0
100
AcDbVertex
100
AcDbPolygonMeshVertex
 10
1.215
 20
-0.69
 30
6.0
 70
    64
  0
VERTEX
  5
4C921
100
AcDbEntity
  8
0
100
AcDbVertex
100
AcDbPolygonMeshVertex
 10
1.215
 20
-0.69
 30
6.0
 70
    64
  0
VERTEX
  5
4C922
100
AcDbEntity
  8
0
100
AcDbVertex
100
AcDbPolygonMeshVertex
 10
1.215
 20
-2.32
 30
6.0
 70
    64
  0
SEQEND
  5
4C923
100
AcDbEntity
  8
0
  0
POLYLINE
  5
4C924
100
AcDbEntity
  8
0
100
AcDbPolygonMesh
 66
     1
 10
0.0
 20
0.0
 30
0.0
 70
    16
 71
     6
 72
     3
  0
VERTEX
  5
4C925
100
AcDbEntity
  8
0
100
AcDbVertex
100
AcDbPolygonMeshVertex
 10
1.965
 20
-1.44
 30
6.5
 70
    64
  0
VERTEX
  5
4C926
100
AcDbEntity
  8
0
100
AcDbVertex
100
AcDbPolygonMeshVertex
 10
1.965
 20
-1.44
 30
6.0
 70
    64
  0
VERTEX
  5
4C927
100
AcDbEntity
  8
0
100
AcDbVertex
100
AcDbPolygonMeshVertex
 10
1.965
 20
-1.44
 30
6.0
 70
    64
  0
VERTEX
  5
4C928
100
AcDbEntity
  8
0
100
AcDbVertex
100
AcDbPolygonMeshVertex
 10
1.215
 20
-1.44
 30
6.5
 70
    64
  0
VERTEX
  5
4C929
100
AcDbEntity
  8
0
100
AcDbVertex
100
AcDbPolygonMeshVertex
 10
1.215
 20
-1.44
 30
6.0
 70
    64
  0
VERTEX
  5
4C92A
100
AcDbEntity
  8
0
100
AcDbVertex
100
AcDbPolygonMeshVertex
 10
1.215
 20
-1.44
 30
6.0
 70
    64
  0
VERTEX
  5
4C92B
100
AcDbEntity
  8
0
100
AcDbVertex
100
AcDbPolygonMeshVertex
 10
1.215
 20
-0.69
 30
6.5
 70
    64
  0
VERTEX
  5
4C92C
100
AcDbEntity
  8
0
100
AcDbVertex
100
AcDbPolygonMeshVertex
 10
1.215
 20
-0.69
 30
6.0
 70
    64
  0
VERTEX
  5
4C92D
100
AcDbEntity
  8
0
100
AcDbVertex
100
AcDbPolygonMeshVertex
 10
1.215
 20
-1.44
 30
6.0
 70
    64
  0
VERTEX
  5
4C92E
100
AcDbEntity
  8
0
100
AcDbVertex
100
AcDbPolygonMeshVertex
 10
1.965
 20
-0.69
 30
6.5
 70
    64
  0
VERTEX
  5
4C92F
100
AcDbEntity
  8
0
100
AcDbVertex
100
AcDbPolygonMeshVertex
 10
1.965
 20
-0.69
 30
6.0
 70
    64
  0
VERTEX
  5
4C930
100
AcDbEntity
  8
0
100
AcDbVertex
100
AcDbPolygonMeshVertex
 10
1.965
 20
-1.44
 30
6.0
 70
    64
  0
VERTEX
  5
4C931
100
AcDbEntity
  8
0
100
AcDbVertex
100
AcDbPolygonMeshVertex
 10
1.965
 20
-0.69
 30
6.5
 70
    64
  0
VERTEX
  5
4C932
100
AcDbEntity
  8
0
100
AcDbVertex
100
AcDbPolygonMeshVertex
 10
1.965
 20
-0.69
 30
6.5
 70
    64
  0
VERTEX
  5
4C933
100
AcDbEntity
  8
0
100
AcDbVertex
100
AcDbPolygonMeshVertex
 10
1.965
 20
-1.44
 30
6.5
 70
    64
  0
VERTEX
  5
4C934
100
AcDbEntity
  8
0
100
AcDbVertex
100
AcDbPolygonMeshVertex
 10
1.215
 20
-0.69
 30
6.5
 70
    64
  0
VERTEX
  5
4C935
100
AcDbEntity
  8
0
100
AcDbVertex
100
AcDbPolygonMeshVertex
 10
1.215
 20
-0.69
 30
6.5
 70
    64
  0
VERTEX
  5
4C936
100
AcDbEntity
  8
0
100
AcDbVertex
100
AcDbPolygonMeshVertex
 10
1.215
 20
-1.44
 30
6.5
 70
    64
  0
SEQEND
  5
4C937
100
AcDbEntity
  8
0
  0
POLYLINE
  5
4C938
100
AcDbEntity
  8
0
100
AcDbPolygonMesh
 66
     1
 10
0.0
 20
0.0
 30
0.0
 70
    16
 71
     6
 72
     3
  0
VERTEX
  5
4C939
100
AcDbEntity
  8
0
100
AcDbVertex
100
AcDbPolygonMeshVertex
 10
0.375
 20
-1.44
 30
6.5
 70
    64
  0
VERTEX
  5
4C93A
100
AcDbEntity
  8
0
100
AcDbVertex
100
AcDbPolygonMeshVertex
 10
0.375
 20
-1.44
 30
6.0
 70
    64
  0
VERTEX
  5
4C93B
100
AcDbEntity
  8
0
100
AcDbVertex
100
AcDbPolygonMeshVertex
 10
0.375
 20
-1.44
 30
6.0
 70
    64
  0
VERTEX
  5
4C93C
100
AcDbEntity
  8
0
100
AcDbVertex
100
AcDbPolygonMeshVertex
 10
-0.375
 20
-1.44
 30
6.5
 70
    64
  0
VERTEX
  5
4C93D
100
AcDbEntity
  8
0
100
AcDbVertex
100
AcDbPolygonMeshVertex
 10
-0.375
 20
-1.44
 30
6.0
 70
    64
  0
VERTEX
  5
4C93E
100
AcDbEntity
  8
0
100
AcDbVertex
100
AcDbPolygonMeshVertex
 10
-0.375
 20
-1.44
 30
6.0
 70
    64
  0
VERTEX
  5
4C93F
100
AcDbEntity
  8
0
100
AcDbVertex
100
AcDbPolygonMeshVertex
 10
-0.375
 20
-0.69
 30
6.5
 70
    64
  0
VERTEX
  5
4C940
100
AcDbEntity
  8
0
100
AcDbVertex
100
AcDbPolygonMeshVertex
 10
-0.375
 20
-0.69
 30
6.0
 70
    64
  0
VERTEX
  5
4C941
100
AcDbEntity
  8
0
100
AcDbVertex
100
AcDbPolygonMeshVertex
 10
-0.375
 20
-1.44
 30
6.0
 70
    64
  0
VERTEX
  5
4C942
100
AcDbEntity
  8
0
100
AcDbVertex
100
AcDbPolygonMeshVertex
 10
0.375
 20
-0.69
 30
6.5
 70
    64
  0
VERTEX
  5
4C943
100
AcDbEntity
  8
0
100
AcDbVertex
100
AcDbPolygonMeshVertex
 10
0.375
 20
-0.69
 30
6.0
 70
    64
  0
VERTEX
  5
4C944
100
AcDbEntity
  8
0
100
AcDbVertex
100
AcDbPolygonMeshVertex
 10
0.375
 20
-1.44
 30
6.0
 70
    64
  0
VERTEX
  5
4C945
100
AcDbEntity
  8
0
100
AcDbVertex
100
AcDbPolygonMeshVertex
 10
0.375
 20
-0.69
 30
6.5
 70
    64
  0
VERTEX
  5
4C946
100
AcDbEntity
  8
0
100
AcDbVertex
100
AcDbPolygonMeshVertex
 10
0.375
 20
-0.69
 30
6.5
 70
    64
  0
VERTEX
  5
4C947
100
AcDbEntity
  8
0
100
AcDbVertex
100
AcDbPolygonMeshVertex
 10
0.375
 20
-1.44
 30
6.5
 70
    64
  0
VERTEX
  5
4C948
100
AcDbEntity
  8
0
100
AcDbVertex
100
AcDbPolygonMeshVertex
 10
-0.375
 20
-0.69
 30
6.5
 70
    64
  0
VERTEX
  5
4C949
100
AcDbEntity
  8
0
100
AcDbVertex
100
AcDbPolygonMeshVertex
 10
-0.375
 20
-0.69
 30
6.5
 70
    64
  0
VERTEX
  5
4C94A
100
AcDbEntity
  8
0
100
AcDbVertex
100
AcDbPolygonMeshVertex
 10
-0.375
 20
-1.44
 30
6.5
 70
    64
  0
SEQEND
  5
4C94B
100
AcDbEntity
  8
0
  0
POLYLINE
  5
4C94C
100
AcDbEntity
  8
0
100
AcDbPolygonMesh
 66
     1
 10
0.0
 20
0.0
 30
0.0
 70
    16
 71
     6
 72
     3
  0
VERTEX
  5
4C94D
100
AcDbEntity
  8
0
100
AcDbVertex
100
AcDbPolygonMeshVertex
 10
-1.215
 20
-1.44
 30
6.5
 70
    64
  0
VERTEX
  5
4C94E
100
AcDbEntity
  8
0
100
AcDbVertex
100
AcDbPolygonMeshVertex
 10
-1.215
 20
-1.44
 30
6.0
 70
    64
  0
VERTEX
  5
4C94F
100
AcDbEntity
  8
0
100
AcDbVertex
100
AcDbPolygonMeshVertex
 10
-1.215
 20
-1.44
 30
6.0
 70
    64
  0
VERTEX
  5
4C950
100
AcDbEntity
  8
0
100
AcDbVertex
100
AcDbPolygonMeshVertex
 10
-1.965
 20
-1.44
 30
6.5
 70
    64
  0
VERTEX
  5
4C951
100
AcDbEntity
  8
0
100
AcDbVertex
100
AcDbPolygonMeshVertex
 10
-1.965
 20
-1.44
 30
6.0
 70
    64
  0
VERTEX
  5
4C952
100
AcDbEntity
  8
0
100
AcDbVertex
100
AcDbPolygonMeshVertex
 10
-1.965
 20
-1.44
 30
6.0
 70
    64
  0
VERTEX
  5
4C953
100
AcDbEntity
  8
0
100
AcDbVertex
100
AcDbPolygonMeshVertex
 10
-1.965
 20
-0.69
 30
6.5
 70
    64
  0
VERTEX
  5
4C954
100
AcDbEntity
  8
0
100
AcDbVertex
100
AcDbPolygonMeshVertex
 10
-1.965
 20
-0.69
 30
6.0
 70
    64
  0
VERTEX
  5
4C955
100
AcDbEntity
  8
0
100
AcDbVertex
100
AcDbPolygonMeshVertex
 10
-1.965
 20
-1.44
 30
6.0
 70
    64
  0
VERTEX
  5
4C956
100
AcDbEntity
  8
0
100
AcDbVertex
100
AcDbPolygonMeshVertex
 10
-1.215
 20
-0.69
 30
6.5
 70
    64
  0
VERTEX
  5
4C957
100
AcDbEntity
  8
0
100
AcDbVertex
100
AcDbPolygonMeshVertex
 10
-1.215
 20
-0.69
 30
6.0
 70
    64
  0
VERTEX
  5
4C958
100
AcDbEntity
  8
0
100
AcDbVertex
100
AcDbPolygonMeshVertex
 10
-1.215
 20
-1.44
 30
6.0
 70
    64
  0
VERTEX
  5
4C959
100
AcDbEntity
  8
0
100
AcDbVertex
100
AcDbPolygonMeshVertex
 10
-1.215
 20
-0.69
 30
6.5
 70
    64
  0
VERTEX
  5
4C95A
100
AcDbEntity
  8
0
100
AcDbVertex
100
AcDbPolygonMeshVertex
 10
-1.215
 20
-0.69
 30
6.5
 70
    64
  0
VERTEX
  5
4C95B
100
AcDbEntity
  8
0
100
AcDbVertex
100
AcDbPolygonMeshVertex
 10
-1.215
 20
-1.44
 30
6.5
 70
    64
  0
VERTEX
  5
4C95C
100
AcDbEntity
  8
0
100
AcDbVertex
100
AcDbPolygonMeshVertex
 10
-1.965
 20
-0.69
 30
6.5
 70
    64
  0
VERTEX
  5
4C95D
100
AcDbEntity
  8
0
100
AcDbVertex
100
AcDbPolygonMeshVertex
 10
-1.965
 20
-0.69
 30
6.5
 70
    64
  0
VERTEX
  5
4C95E
100
AcDbEntity
  8
0
100
AcDbVertex
100
AcDbPolygonMeshVertex
 10
-1.965
 20
-1.44
 30
6.5
 70
    64
  0
SEQEND
  5
4C95F
100
AcDbEntity
  8
0
  0
POLYLINE
  5
4C960
100
AcDbEntity
  8
0
100
AcDbPolygonMesh
 66
     1
 10
0.0
 20
0.0
 30
0.0
 70
    16
 71
     6
 72
     3
  0
VERTEX
  5
4C961
100
AcDbEntity
  8
0
100
AcDbVertex
100
AcDbPolygonMeshVertex
 10
-0.89
 20
-1.32
 30
6.31
 70
    64
  0
VERTEX
  5
4C962
100
AcDbEntity
  8
0
100
AcDbVertex
100
AcDbPolygonMeshVertex
 10
-0.89
 20
-1.32
 30
5.5
 70
    64
  0
VERTEX
  5
4C963
100
AcDbEntity
  8
0
100
AcDbVertex
100
AcDbPolygonMeshVertex
 10
-0.89
 20
-1.32
 30
5.5
 70
    64
  0
VERTEX
  5
4C964
100
AcDbEntity
  8
0
100
AcDbVertex
100
AcDbPolygonMeshVertex
 10
-0.7
 20
-1.32
 30
6.31
 70
    64
  0
VERTEX
  5
4C965
100
AcDbEntity
  8
0
100
AcDbVertex
100
AcDbPolygonMeshVertex
 10
-0.7
 20
-1.32
 30
5.5
 70
    64
  0
VERTEX
  5
4C966
100
AcDbEntity
  8
0
100
AcDbVertex
100
AcDbPolygonMeshVertex
 10
-0.7
 20
-1.32
 30
5.5
 70
    64
  0
VERTEX
  5
4C967
100
AcDbEntity
  8
0
100
AcDbVertex
100
AcDbPolygonMeshVertex
 10
-0.7
 20
-2.32
 30
6.31
 70
    64
  0
VERTEX
  5
4C968
100
AcDbEntity
  8
0
100
AcDbVertex
100
AcDbPolygonMeshVertex
 10
-0.7
 20
-2.32
 30
5.5
 70
    64
  0
VERTEX
  5
4C969
100
AcDbEntity
  8
0
100
AcDbVertex
100
AcDbPolygonMeshVertex
 10
-0.7
 20
-1.32
 30
5.5
 70
    64
  0
VERTEX
  5
4C96A
100
AcDbEntity
  8
0
100
AcDbVertex
100
AcDbPolygonMeshVertex
 10
-0.89
 20
-2.32
 30
6.31
 70
    64
  0
VERTEX
  5
4C96B
100
AcDbEntity
  8
0
100
AcDbVertex
100
AcDbPolygonMeshVertex
 10
-0.89
 20
-2.32
 30
5.5
 70
    64
  0
VERTEX
  5
4C96C
100
AcDbEntity
  8
0
100
AcDbVertex
100
AcDbPolygonMeshVertex
 10
-0.89
 20
-1.32
 30
5.5
 70
    64
  0
VERTEX
  5
4C96D
100
AcDbEntity
  8
0
100
AcDbVertex
100
AcDbPolygonMeshVertex
 10
-0.89
 20
-2.32
 30
6.31
 70
    64
  0
VERTEX
  5
4C96E
100
AcDbEntity
  8
0
100
AcDbVertex
100
AcDbPolygonMeshVertex
 10
-0.89
 20
-2.32
 30
6.31
 70
    64
  0
VERTEX
  5
4C96F
100
AcDbEntity
  8
0
100
AcDbVertex
100
AcDbPolygonMeshVertex
 10
-0.89
 20
-1.32
 30
6.31
 70
    64
  0
VERTEX
  5
4C970
100
AcDbEntity
  8
0
100
AcDbVertex
100
AcDbPolygonMeshVertex
 10
-0.7
 20
-2.32
 30
6.31
 70
    64
  0
VERTEX
  5
4C971
100
AcDbEntity
  8
0
100
AcDbVertex
100
AcDbPolygonMeshVertex
 10
-0.7
 20
-2.32
 30
6.31
 70
    64
  0
VERTEX
  5
4C972
100
AcDbEntity
  8
0
100
AcDbVertex
100
AcDbPolygonMeshVertex
 10
-0.7
 20
-1.32
 30
6.31
 70
    64
  0
SEQEND
  5
4C973
100
AcDbEntity
  8
0
  0
POLYLINE
  5
4C974
100
AcDbEntity
  8
0
100
AcDbPolygonMesh
 66
     1
 10
0.0
 20
0.0
 30
0.0
 70
    16
 71
     6
 72
     3
  0
VERTEX
  5
4C975
100
AcDbEntity
  8
0
100
AcDbVertex
100
AcDbPolygonMeshVertex
 10
0.375
 20
-2.32
 30
6.0
 70
    64
  0
VERTEX
  5
4C976
100
AcDbEntity
  8
0
100
AcDbVertex
100
AcDbPolygonMeshVertex
 10
0.375
 20
-2.32
 30
5.5
 70
    64
  0
VERTEX
  5
4C977
100
AcDbEntity
  8
0
100
AcDbVertex
100
AcDbPolygonMeshVertex
 10
0.375
 20
-2.32
 30
5.5
 70
    64
  0
VERTEX
  5
4C978
100
AcDbEntity
  8
0
100
AcDbVertex
100
AcDbPolygonMeshVertex
 10
-0.375
 20
-2.32
 30
6.0
 70
    64
  0
VERTEX
  5
4C979
100
AcDbEntity
  8
0
100
AcDbVertex
100
AcDbPolygonMeshVertex
 10
-0.375
 20
-2.32
 30
5.5
 70
    64
  0
VERTEX
  5
4C97A
100
AcDbEntity
  8
0
100
AcDbVertex
100
AcDbPolygonMeshVertex
 10
-0.375
 20
-2.32
 30
5.5
 70
    64
  0
VERTEX
  5
4C97B
100
AcDbEntity
  8
0
100
AcDbVertex
100
AcDbPolygonMeshVertex
 10
-0.375
 20
-0.69
 30
6.0
 70
    64
  0
VERTEX
  5
4C97C
100
AcDbEntity
  8
0
100
AcDbVertex
100
AcDbPolygonMeshVertex
 10
-0.375
 20
-0.69
 30
5.5
 70
    64
  0
VERTEX
  5
4C97D
100
AcDbEntity
  8
0
100
AcDbVertex
100
AcDbPolygonMeshVertex
 10
-0.375
 20
-2.32
 30
5.5
 70
    64
  0
VERTEX
  5
4C97E
100
AcDbEntity
  8
0
100
AcDbVertex
100
AcDbPolygonMeshVertex
 10
0.375
 20
-0.69
 30
6.0
 70
    64
  0
VERTEX
  5
4C97F
100
AcDbEntity
  8
0
100
AcDbVertex
100
AcDbPolygonMeshVertex
 10
0.375
 20
-0.69
 30
5.5
 70
    64
  0
VERTEX
  5
4C980
100
AcDbEntity
  8
0
100
AcDbVertex
100
AcDbPolygonMeshVertex
 10
0.375
 20
-2.32
 30
5.5
 70
    64
  0
VERTEX
  5
4C981
100
AcDbEntity
  8
0
100
AcDbVertex
100
AcDbPolygonMeshVertex
 10
0.375
 20
-0.69
 30
6.0
 70
    64
  0
VERTEX
  5
4C982
100
AcDbEntity
  8
0
100
AcDbVertex
100
AcDbPolygonMeshVertex
 10
0.375
 20
-0.69
 30
6.0
 70
    64
  0
VERTEX
  5
4C983
100
AcDbEntity
  8
0
100
AcDbVertex
100
AcDbPolygonMeshVertex
 10
0.375
 20
-2.32
 30
6.0
 70
    64
  0
VERTEX
  5
4C984
100
AcDbEntity
  8
0
100
AcDbVertex
100
AcDbPolygonMeshVertex
 10
-0.375
 20
-0.69
 30
6.0
 70
    64
  0
VERTEX
  5
4C985
100
AcDbEntity
  8
0
100
AcDbVertex
100
AcDbPolygonMeshVertex
 10
-0.375
 20
-0.69
 30
6.0
 70
    64
  0
VERTEX
  5
4C986
100
AcDbEntity
  8
0
100
AcDbVertex
100
AcDbPolygonMeshVertex
 10
-0.375
 20
-2.32
 30
6.0
 70
    64
  0
SEQEND
  5
4C987
100
AcDbEntity
  8
0
  0
POLYLINE
  5
4C988
100
AcDbEntity
  8
0
100
AcDbPolygonMesh
 66
     1
 10
0.0
 20
0.0
 30
0.0
 70
    16
 71
     6
 72
     3
  0
VERTEX
  5
4C989
100
AcDbEntity
  8
0
100
AcDbVertex
100
AcDbPolygonMeshVertex
 10
-1.215
 20
-2.32
 30
6.0
 70
    64
  0
VERTEX
  5
4C98A
100
AcDbEntity
  8
0
100
AcDbVertex
100
AcDbPolygonMeshVertex
 10
-1.215
 20
-2.32
 30
5.5
 70
    64
  0
VERTEX
  5
4C98B
100
AcDbEntity
  8
0
100
AcDbVertex
100
AcDbPolygonMeshVertex
 10
-1.215
 20
-2.32
 30
5.5
 70
    64
  0
VERTEX
  5
4C98C
100
AcDbEntity
  8
0
100
AcDbVertex
100
AcDbPolygonMeshVertex
 10
-1.965
 20
-2.32
 30
6.0
 70
    64
  0
VERTEX
  5
4C98D
100
AcDbEntity
  8
0
100
AcDbVertex
100
AcDbPolygonMeshVertex
 10
-1.965
 20
-2.32
 30
5.5
 70
    64
  0
VERTEX
  5
4C98E
100
AcDbEntity
  8
0
100
AcDbVertex
100
AcDbPolygonMeshVertex
 10
-1.965
 20
-2.32
 30
5.5
 70
    64
  0
VERTEX
  5
4C98F
100
AcDbEntity
  8
0
100
AcDbVertex
100
AcDbPolygonMeshVertex
 10
-1.965
 20
-0.69
 30
6.0
 70
    64
  0
VERTEX
  5
4C990
100
AcDbEntity
  8
0
100
AcDbVertex
100
AcDbPolygonMeshVertex
 10
-1.965
 20
-0.69
 30
5.5
 70
    64
  0
VERTEX
  5
4C991
100
AcDbEntity
  8
0
100
AcDbVertex
100
AcDbPolygonMeshVertex
 10
-1.965
 20
-2.32
 30
5.5
 70
    64
  0
VERTEX
  5
4C992
100
AcDbEntity
  8
0
100
AcDbVertex
100
AcDbPolygonMeshVertex
 10
-1.215
 20
-0.69
 30
6.0
 70
    64
  0
VERTEX
  5
4C993
100
AcDbEntity
  8
0
100
AcDbVertex
100
AcDbPolygonMeshVertex
 10
-1.215
 20
-0.69
 30
5.5
 70
    64
  0
VERTEX
  5
4C994
100
AcDbEntity
  8
0
100
AcDbVertex
100
AcDbPolygonMeshVertex
 10
-1.215
 20
-2.32
 30
5.5
 70
    64
  0
VERTEX
  5
4C995
100
AcDbEntity
  8
0
100
AcDbVertex
100
AcDbPolygonMeshVertex
 10
-1.215
 20
-0.69
 30
6.0
 70
    64
  0
VERTEX
  5
4C996
100
AcDbEntity
  8
0
100
AcDbVertex
100
AcDbPolygonMeshVertex
 10
-1.215
 20
-0.69
 30
6.0
 70
    64
  0
VERTEX
  5
4C997
100
AcDbEntity
  8
0
100
AcDbVertex
100
AcDbPolygonMeshVertex
 10
-1.215
 20
-2.32
 30
6.0
 70
    64
  0
VERTEX
  5
4C998
100
AcDbEntity
  8
0
100
AcDbVertex
100
AcDbPolygonMeshVertex
 10
-1.965
 20
-0.69
 30
6.0
 70
    64
  0
VERTEX
  5
4C999
100
AcDbEntity
  8
0
100
AcDbVertex
100
AcDbPolygonMeshVertex
 10
-1.965
 20
-0.69
 30
6.0
 70
    64
  0
VERTEX
  5
4C99A
100
AcDbEntity
  8
0
100
AcDbVertex
100
AcDbPolygonMeshVertex
 10
-1.965
 20
-2.32
 30
6.0
 70
    64
  0
SEQEND
  5
4C99B
100
AcDbEntity
  8
0
  0
POLYLINE
  5
4C99C
100
AcDbEntity
  8
0
100
AcDbPolygonMesh
 66
     1
 10
0.0
 20
0.0
 30
0.0
 70
    16
 71
     6
 72
     3
  0
VERTEX
  5
4C99D
100
AcDbEntity
  8
0
100
AcDbVertex
100
AcDbPolygonMeshVertex
 10
0.7
 20
-1.32
 30
6.31
 70
    64
  0
VERTEX
  5
4C99E
100
AcDbEntity
  8
0
100
AcDbVertex
100
AcDbPolygonMeshVertex
 10
0.7
 20
-1.32
 30
5.5
 70
    64
  0
VERTEX
  5
4C99F
100
AcDbEntity
  8
0
100
AcDbVertex
100
AcDbPolygonMeshVertex
 10
0.7
 20
-1.32
 30
5.5
 70
    64
  0
VERTEX
  5
4C9A0
100
AcDbEntity
  8
0
100
AcDbVertex
100
AcDbPolygonMeshVertex
 10
0.89
 20
-1.32
 30
6.31
 70
    64
  0
VERTEX
  5
4C9A1
100
AcDbEntity
  8
0
100
AcDbVertex
100
AcDbPolygonMeshVertex
 10
0.89
 20
-1.32
 30
5.5
 70
    64
  0
VERTEX
  5
4C9A2
100
AcDbEntity
  8
0
100
AcDbVertex
100
AcDbPolygonMeshVertex
 10
0.89
 20
-1.32
 30
5.5
 70
    64
  0
VERTEX
  5
4C9A3
100
AcDbEntity
  8
0
100
AcDbVertex
100
AcDbPolygonMeshVertex
 10
0.89
 20
-2.32
 30
6.31
 70
    64
  0
VERTEX
  5
4C9A4
100
AcDbEntity
  8
0
100
AcDbVertex
100
AcDbPolygonMeshVertex
 10
0.89
 20
-2.32
 30
5.5
 70
    64
  0
VERTEX
  5
4C9A5
100
AcDbEntity
  8
0
100
AcDbVertex
100
AcDbPolygonMeshVertex
 10
0.89
 20
-1.32
 30
5.5
 70
    64
  0
VERTEX
  5
4C9A6
100
AcDbEntity
  8
0
100
AcDbVertex
100
AcDbPolygonMeshVertex
 10
0.7
 20
-2.32
 30
6.31
 70
    64
  0
VERTEX
  5
4C9A7
100
AcDbEntity
  8
0
100
AcDbVertex
100
AcDbPolygonMeshVertex
 10
0.7
 20
-2.32
 30
5.5
 70
    64
  0
VERTEX
  5
4C9A8
100
AcDbEntity
  8
0
100
AcDbVertex
100
AcDbPolygonMeshVertex
 10
0.7
 20
-1.32
 30
5.5
 70
    64
  0
VERTEX
  5
4C9A9
100
AcDbEntity
  8
0
100
AcDbVertex
100
AcDbPolygonMeshVertex
 10
0.7
 20
-2.32
 30
6.31
 70
    64
  0
VERTEX
  5
4C9AA
100
AcDbEntity
  8
0
100
AcDbVertex
100
AcDbPolygonMeshVertex
 10
0.7
 20
-2.32
 30
6.31
 70
    64
  0
VERTEX
  5
4C9AB
100
AcDbEntity
  8
0
100
AcDbVertex
100
AcDbPolygonMeshVertex
 10
0.7
 20
-1.32
 30
6.31
 70
    64
  0
VERTEX
  5
4C9AC
100
AcDbEntity
  8
0
100
AcDbVertex
100
AcDbPolygonMeshVertex
 10
0.89
 20
-2.32
 30
6.31
 70
    64
  0
VERTEX
  5
4C9AD
100
AcDbEntity
  8
0
100
AcDbVertex
100
AcDbPolygonMeshVertex
 10
0.89
 20
-2.32
 30
6.31
 70
    64
  0
VERTEX
  5
4C9AE
100
AcDbEntity
  8
0
100
AcDbVertex
100
AcDbPolygonMeshVertex
 10
0.89
 20
-1.32
 30
6.31
 70
    64
  0
SEQEND
  5
4C9AF
100
AcDbEntity
  8
0
  0
CIRCLE
  5
4C9B0
100
AcDbEntity
  8
0
100
AcDbCircle
 10
-1.59
 20
-1.065
 30
6.5
 40
0.22
  0
TEXT
  5
4C9B1
100
AcDbEntity
  8
0
100
AcDbText
 10
-1.716841
 20
-1.150259
 30
6.5
 40
0.172605
  1
L1
100
AcDbText
  0
CIRCLE
  5
4C9B2
100
AcDbEntity
  8
0
100
AcDbCircle
 10
0.0
 20
-1.065
 30
6.5
 40
0.22
  0
TEXT
  5
4C9B3
100
AcDbEntity
  8
0
100
AcDbText
 10
-0.127402
 20
-1.147433
 30
6.5
 40
0.172605
  1
L2
100
AcDbText
  0
TEXT
  5
4C9B4
100
AcDbEntity
  8
0
100
AcDbText
 10
1.462038
 20
-1.153685
 30
6.5
 40
0.172605
  1
L3
100
AcDbText
  0
TEXT
  5
4C9B5
100
AcDbEntity
  8
0
100
AcDbText
 10
-1.736981
 20
-11.858551
 30
3.81
 40
0.200501
  1
T1
100
AcDbText
  0
TEXT
  5
4C9B6
100
AcDbEntity
  8
0
100
AcDbText
 10
-0.155297
 20
-11.876536
 30
3.81
 40
0.200501
  1
T2
100
AcDbText
  0
TEXT
  5
4C9B7
100
AcDbEntity
  8
0
100
AcDbText
 10
1.441101
 20
-11.879815
 30
3.81
 40
0.200501
  1
T3
100
AcDbText
  0
ATTDEF
  5
4C9B8
100
AcDbEntity
  8
ATTRIBUTES
100
AcDbText
 10
-2.433514
 20
-5.239531
 30
0.0
 40
0.223287
  1
ALLEN-BRADLEY
100
AcDbAttributeDefinition
  3
MANUFACTURER NAME?
  2
AC_VND_LABEL
 70
     1
  0
ATTDEF
  5
4C9B9
100
AcDbEntity
  8
ATTRIBUTES
100
AcDbText
 10
-2.433514
 20
-5.704713
 30
0.0
 40
0.223287
  1
509-D
100
AcDbAttributeDefinition
  3
CATALOG NUMBER?
  2
AC_PART_NO
 70
     1
  0
ATTDEF
  5
4C9BA
100
AcDbEntity
  8
ATTRIBUTES
100
AcDbText
 10
-2.433514
 20
-6.169895
 30
0.0
 40
0.223287
  1
NON-REVERSING STARTER w/ EUTECTIC ALLOY OLR; SIZE 3; 3P
100
AcDbAttributeDefinition
  3
PART DESCRIPTION?
  2
AC_DESCRIPTION
 70
     1
  0
ATTDEF
  5
4C9BB
100
AcDbEntity
  8
ATTRIBUTES
100
AcDbText
 10
-2.433514
 20
-6.635076
 30
0.0
 40
0.223287
  1

100
AcDbAttributeDefinition
  3
DEVICE ID?
  2
DEVICE_ID
 70
     1
  0
ATTDEF
  5
4C9BC
100
AcDbEntity
  8
ATTRIBUTES
100
AcDbText
 10
-2.433514
 20
-7.100258
 30
0.0
 40
0.223287
  1

100
AcDbAttributeDefinition
  3
CUSTOMER PART NUMBER?
  2
AC_CPART_NO
 70
     1
  0
ATTDEF
  5
4C9BD
100
AcDbEntity
  8
ATTRIBUTES
100
AcDbText
 10
-2.433514
 20
-7.56544
 30
0.0
 40
0.223287
  1

100
AcDbAttributeDefinition
  3
CUSTOMER NOTE?
  2
AC_NOTE
 70
     1
  0
ATTDEF
  5
4C9BE
100
AcDbEntity
  8
ATTRIBUTES
100
AcDbText
 10
-2.433514
 20
-8.030622
 30
0.0
 40
0.223287
  1

100
AcDbAttributeDefinition
  3
FASTENER DATA?
  2
FASTENER
 70
     1
  0
ATTDEF
  5
4C9BF
100
AcDbEntity
  8
ATTRIBUTES
100
AcDbText
 10
-2.433514
 20
-8.495804
 30
0.0
 40
0.223287
  1
INCH
100
AcDbAttributeDefinition
  3
UNIT OF SCALE?
  2
AC_SCALE_UNIT
 70
     1
  0
ATTDEF
  5
4C9C0
100
AcDbEntity
  8
ATTRIBUTES
100
AcDbText
 10
-2.433514
 20
-8.960985
 30
0.0
 40
0.223287
  1
0
100
AcDbAttributeDefinition
  3
VIEW CODE?
  2
AC_VIEW_CODE
 70
     1
  0
POINT
  5
4C9C1
100
AcDbEntity
  8
DIMS-MTG-HOLES
100
AcDbPoint
 10
-2.76
 20
-8.66
 30
0.0
  0
POINT
  5
4C9C2
100
AcDbEntity
  8
DIMS-MTG-HOLES
100
AcDbPoint
 10
2.76
 20
-8.66
 30
0.0
  0
POINT
  5
4C9C3
100
AcDbEntity
  8
DIMS-MTG-HOLES
100
AcDbPoint
 10
0.0
 20
0.0
 30
0.0
  0
POINT
  5
4C9C4
100
AcDbEntity
  8
DIMS-MTG-HOLES
100
AcDbPoint
 10
0.78
 20
0.0
 30
0.0
  0
DIMENSION
  5
4C9C5
100
AcDbEntity
  8
AREA1
100
AcDbDimension
  2
*D0
 10
-4.242328
 20
-12.140001
 30
0.0
 11
-4.242328
 21
-6.003676
 31
0.0
 70
   160
  3
ABECAD_3V
100
AcDbAlignedDimension
 13
-1.69
 23
0.31
 33
0.0
 14
-1.965001
 24
-12.140001
 34
2.81
 50
90.0
100
AcDbRotatedDimension
1001
ACAD
1000
DSTYLE
1002
{
1070
    40
1040
4.061087
1002
}
  0
DIMENSION
  5
4C9C6
100
AcDbEntity
  8
AREA1
100
AcDbDimension
  2
*D1
 10
3.06
 20
1.480513
 30
0.0
 11
-0.053251
 21
2.246275
 31
0.0
 70
   160
  3
ABECAD_3V
100
AcDbAlignedDimension
 13
-3.06
 23
-7.74
 33
0.0
 14
3.06
 24
-7.74
 34
0.0
100
AcDbRotatedDimension
1001
ACAD
1000
DSTYLE
1002
{
1070
    40
1040
4.061087
1002
}
  0
LWPOLYLINE
  5
4C9C7
100
AcDbEntity
  8
SCALE
100
AcDbPolyline
 90
        4
 70
     1
 43
0.0
 10
-0.572758
 20
-12.362914
 10
0.562871
 20
-12.362914
 10
0.562871
 20
-13.204523
 10
-0.572758
 20
-13.204523
  0
LINE
  5
4C9C8
100
AcDbEntity
  8
SCALE
100
AcDbLine
 10
-0.514759
 20
-12.742992
 30
0.0
 11
0.485241
 21
-12.742992
 31
0.0
  0
LINE
  5
4C9C9
100
AcDbEntity
  8
SCALE
100
AcDbLine
 10
-0.514759
 20
-13.042992
 30
0.0
 11
-0.121059
 21
-13.042992
 31
0.0
  0
LINE
  5
4C9CA
100
AcDbEntity
  8
SCALE
100
AcDbLine
 10
-0.514759
 20
-12.842992
 30
0.0
 11
-0.514759
 21
-12.642992
 31
0.0
  0
TEXT
  5
4C9CB
100
AcDbEntity
  8
SCALE
100
AcDbText
 10
-0.458784
 20
-12.995307
 30
0.0
 40
0.0625
  1
[10mm]
100
AcDbText
  0
LINE
  5
4C9CC
100
AcDbEntity
  8
SCALE
100
AcDbLine
 10
-0.514759
 20
-13.142992
 30
0.0
 11
-0.514759
 21
-12.942992
 31
0.0
  0
TEXT
  5
4C9CD
100
AcDbEntity
  8
SCALE
100
AcDbText
 10
-0.513229
 20
-12.468115
 30
0.0
 40
0.0625
  1
SCALE:
100
AcDbText
  0
LINE
  5
4C9CE
100
AcDbEntity
  8
SCALE
100
AcDbLine
 10
-0.121059
 20
-13.142992
 30
0.0
 11
-0.121059
 21
-12.942992
 31
0.0
  0
TEXT
  5
4C9CF
100
AcDbEntity
  8
SCALE
100
AcDbText
 10
-0.151476
 20
-12.673943
 30
0.0
 40
0.0625
  1
1 Inch
100
AcDbText
  0
LINE
  5
4C9D0
100
AcDbEntity
  8
SCALE
100
AcDbLine
 10
0.485241
 20
-12.742992
 30
0.0
 11
0.485241
 21
-12.842992
 31
0.0
  0
LINE
  5
4C9D1
100
AcDbEntity
  8
SCALE
100
AcDbLine
 10
0.485241
 20
-12.842992
 30
0.0
 11
0.485241
 21
-12.642992
 31
0.0
  0
DIMENSION
  5
4CA00
100
AcDbEntity
  8
AREA2
100
AcDbDimension
  2
*D2
 10
-4.002604
 20
0.0
 30
0.0
 11
-4.002604
 21
3.068074
 31
0.0
 70
   160
210
0.0
220
-1.0
230
0.0
  3
ABECAD_3V
100
AcDbAlignedDimension
 13
-1.965
 23
-0.69
 33
6.5
 14
-3.06
 24
-7.74
 34
0.0
 50
90.0
100
AcDbRotatedDimension
1001
ACAD
1000
DSTYLE
1002
{
1070
    40
1040
4.061087
1002
}
  0
VIEWPORT
  5
2C
102
{ACAD_XDICTIONARY
360
4CB00
102
}
100
AcDbEntity
 67
     1
  8
0
100
AcDbViewport
 10
4.999849
 20
3.750155
 30
0.0
 40
15.434
 41
7.617554
 68
     1
 69
     1
1001
ACAD
1000
MVIEW
1002
{
1070
    16
1010
0.0
1020
0.0
1030
0.0
1010
0.0
1020
0.0
1030
1.0
1040
0.0
1040
7.617554
1040
4.999849
1040
3.750155
1040
50.0
1040
0.0
1040
0.0
1070
     0
1070
   100
1070
     1
1070
     1
1070
     0
1070
     0
1070
     0
1070
     0
1040
0.0
1040
0.0
1040
0.0
1040
1.0
1040
1.0
1040
0.0
1040
0.0
1070
     0
1002
{
1002
}
1002
}
  0
VIEWPORT
  5
2D
102
{ACAD_XDICTIONARY
360
4CB02
102
}
100
AcDbEntity
 67
     1
  8
0
100
AcDbViewport
 10
2.5
 20
5.625
 30
0.0
 40
5.0
 41
3.75
 68
     3
 69
     2
1001
ACAD
1000
MVIEW
1002
{
1070
    16
1010
0.0
1020
0.0
1030
0.0
1010
0.0
1020
0.0
1030
1.0
1040
0.0
1040
15.229078
1040
-0.619258
1040
-4.967221
1040
50.0
1040
0.0
1040
0.0
1070
     0
1070
   100
1070
     1
1070
     0
1070
     0
1070
     0
1070
     0
1070
     0
1040
0.0
1040
0.0
1040
0.0
1040
1.0
1040
1.0
1040
0.0
1040
0.0
1070
     0
1002
{
1003
AREA2
1002
}
1002
}
  0
VIEWPORT
  5
2E
102
{ACAD_XDICTIONARY
360
4CB04
102
}
100
AcDbEntity
 67
     1
  8
0
100
AcDbViewport
 10
2.5
 20
1.875
 30
0.0
 40
5.0
 41
3.75
 68
     2
 69
     3
1001
ACAD
1000
MVIEW
1002
{
1070
    16
1010
0.0
1020
0.0
1030
0.0
1010
0.0
1020
-1.0
1030
0.0
1040
0.0
1040
13.87437
1040
-0.681164
1040
3.25
1040
50.0
1040
0.0
1040
0.0
1070
     0
1070
   100
1070
     1
1070
     0
1070
     0
1070
     0
1070
     0
1070
     0
1040
0.0
1040
0.0
1040
0.0
1040
1.0
1040
1.0
1040
0.0
1040
0.0
1070
     0
1002
{
1003
AREA1
1002
}
1002
}
  0
VIEWPORT
  5
2F
102
{ACAD_XDICTIONARY
360
4CB06
102
}
100
AcDbEntity
 67
     1
  8
0
100
AcDbViewport
 10
7.5
 20
3.75
 30
0.0
 40
5.0
 41
7.5
 68
     4
 69
     4
1001
ACAD
1000
MVIEW
1002
{
1070
    16
1010
0.0
1020
0.0
1030
0.0
1010
-1.0
1020
-1.0
1030
1.0
1040
0.0
1040
18.692996
1040
4.360245
1040
0.730536
1040
50.0
1040
0.0
1040
0.0
1070
     0
1070
   100
1070
     1
1070
     0
1070
     0
1070
     0
1070
     0
1070
     0
1040
0.0
1040
0.0
1040
0.0
1040
1.0
1040
1.0
1040
0.0
1040
0.0
1070
     0
1002
{
1003
AREA1
1003
AREA2
1002
}
1002
}
  0
TEXT
  5
42D
100
AcDbEntity
 67
     1
  8
0
100
AcDbText
 10
5.253785
 20
7.092701
 30
0.0
 40
0.2
  1

100
AcDbText
  0
TEXT
  5
431
100
AcDbEntity
 67
     1
  8
0
100
AcDbText
 10
5.253785
 20
6.759368
 30
0.0
 40
0.2
  1

100
AcDbText
1001
ACAD
1000
R13OBJECT
1002
{
1005
42D
1002
}
  0
TEXT
  5
11D16
100
AcDbEntity
 67
     1
  8
AREA2
100
AcDbText
 10
5.101109
 20
7.152637
 30
0.0
 40
0.2
  1
509-D
100
AcDbText
  0
TEXT
  5
24C0A
100
AcDbEntity
 67
     1
  8
AREA2
100
AcDbText
 10
5.101109
 20
6.881437
 30
0.0
 40
0.2
  1
NON-REVERSING STARTER 
100
AcDbText
  0
TEXT
  5
2F662
100
AcDbEntity
 67
     1
  8
AREA2
100
AcDbText
 10
5.101109
 20
6.599834
 30
0.0
 40
0.2
  1
w/EUTECTIC ALLOY OLR, 
100
AcDbText
  0
TEXT
  5
4B785
100
AcDbEntity
 67
     1
  8
AREA2
100
AcDbText
 10
5.101109
 20
6.310076
 30
0.0
 40
0.2
  1
SIZE 3; 3P
100
AcDbText
  0
ENDSEC
  0
SECTION
  2
OBJECTS
  0
DICTIONARY
  5
46D
100
AcDbDictionary
  3
ACAD_GROUP
350
46E
  3
ACAD_LAYOUT
350
49E
  3
ACAD_MLINESTYLE
350
47B
  3
ACAD_PLOTSETTINGS
350
49F
  3
ACAD_PLOTSTYLENAME
350
49C
  3
ACDBHEADERROUNDTRIPXREC
350
4CADF
  3
ACDBVARIABLEDICTIONARY
350
48D
  0
DICTIONARY
  5
4CADD
100
AcDbDictionary
280
     1
  3
ACAD_XREC_ROUNDTRIP
360
4CADE
  0
DICTIONARY
  5
4CB0A
100
AcDbDictionary
280
     1
  3
ACAD_XREC_ROUNDTRIP
360
4CB0B
  0
DICTIONARY
  5
4CB0C
100
AcDbDictionary
280
     1
  3
ACAD_XREC_ROUNDTRIP
360
4CB0D
  0
DICTIONARY
  5
4CB10
100
AcDbDictionary
280
     1
  3
ACAD_XREC_ROUNDTRIP
360
4CB11
  0
DICTIONARY
  5
4D2
100
AcDbDictionary
280
     1
  3
ACAD_LAYOUTSELFREF
360
4CB09
  0
DICTIONARY
  5
4D0
100
AcDbDictionary
280
     1
  3
ACAD_LAYOUTSELFREF
360
4CB08
  0
DICTIONARY
  5
4CB00
100
AcDbDictionary
280
     1
  3
ACAD_XREC_ROUNDTRIP
360
4CB01
  0
DICTIONARY
  5
4CB02
100
AcDbDictionary
280
     1
  3
ACAD_XREC_ROUNDTRIP
360
4CB03
  0
DICTIONARY
  5
4CB04
100
AcDbDictionary
280
     1
  3
ACAD_XREC_ROUNDTRIP
360
4CB05
  0
DICTIONARY
  5
4CB06
100
AcDbDictionary
280
     1
  3
ACAD_XREC_ROUNDTRIP
360
4CB07
  0
DICTIONARY
  5
46E
102
{ACAD_REACTORS
330
46D
102
}
100
AcDbDictionary
  0
DICTIONARY
  5
49E
102
{ACAD_XDICTIONARY
360
4CB0E
102
}
102
{ACAD_REACTORS
330
46D
102
}
100
AcDbDictionary
  3
LAYOUT1
350
4A1
  3
MODEL
350
4A0
  0
DICTIONARY
  5
47B
102
{ACAD_REACTORS
330
46D
102
}
100
AcDbDictionary
  3
STANDARD
350
47C
  0
DICTIONARY
  5
49F
102
{ACAD_REACTORS
330
46D
102
}
100
AcDbDictionary
  0
ACAD_PROXY_OBJECT
  5
49C
102
{ACAD_REACTORS
330
46D
102
}
100
AcDbProxyObject
 90
      499
 91
      501
 93
       86
310
405010041939BDC9B585B0
350
49D
340
49D
 94
        0
  0
DICTIONARY
  5
4CADF
102
{ACAD_REACTORS
330
46D
102
}
100
AcDbDictionary
  3
CEPSNTYPE
350
4CAE9
  3
DIMSTYLEDATA
350
4CAED
  3
FINGERPRINTGUID
350
4CAEA
  3
HYPERLINKBASE
350
4CAE2
  3
INSUNITS
350
4CAE8
  3
LAYOUTDICT
350
4CAE4
  3
LWETCUNION
350
4CAE7
  3
PLOTSETDICT
350
4CAE5
  3
PLOTSTYLNAMDICT
350
4CAE6
  3
PSVPSCALE
350
4CAEC
  3
PUCSBASE
350
4CAF0
  3
PUCSORGBACK
350
4CAF6
  3
PUCSORGBOTTOM
350
4CAF2
  3
PUCSORGFRONT
350
4CAF5
  3
PUCSORGLEFT
350
4CAF3
  3
PUCSORGRIGHT
350
4CAF4
  3
PUCSORGTOP
350
4CAF1
  3
PUCSORTHOREF
350
4CAEE
  3
PUCSORTHOVIEW
350
4CAEF
  3
STYLESHEET
350
4CAE3
  3
TSTACKALIGN
350
4CAE0
  3
TSTACKSIZE
350
4CAE1
  3
UCSBASE
350
4CAF9
  3
UCSORGBACK
350
4CAFF
  3
UCSORGBOTTOM
350
4CAFB
  3
UCSORGFRONT
350
4CAFE
  3
UCSORGLEFT
350
4CAFC
  3
UCSORGRIGHT
350
4CAFD
  3
UCSORGTOP
350
4CAFA
  3
UCSORTHOREF
350
4CAF7
  3
UCSORTHOVIEW
350
4CAF8
  3
VERSIONGUID
350
4CAEB
  0
DICTIONARY
  5
48D
102
{ACAD_REACTORS
330
46D
102
}
100
AcDbDictionary
  3
DIMADEC
350
48E
  0
XRECORD
  5
4CADE
102
{ACAD_REACTORS
330
4CADD
102
}
100
AcDbXrecord
102
EXTNAMES
  1
*ACTIVE
  2
*Active
102
UCS
 74
     0
 71
     1
 10
0.0
 20
0.0
 30
0.0
 10
1.0
 20
0.0
 30
0.0
 10
0.0
 20
1.0
 30
0.0
146
0.0
 79
     1
102
VIEW
281
     1
  0
XRECORD
  5
4CB0B
102
{ACAD_REACTORS
330
4CB0A
102
}
100
AcDbXrecord
102
PLOTBIT
280
     0
  0
XRECORD
  5
4CB0D
102
{ACAD_REACTORS
330
4CB0C
102
}
100
AcDbXrecord
102
ACADR14ROUNDTRIP
1000
DSTYLE
1002
{
1070
   276
 70
     2
1070
   277
 70
     5
1070
   279
 70
     2
1002
}
  0
XRECORD
  5
4CB11
102
{ACAD_REACTORS
330
4CB10
102
}
100
AcDbXrecord
102
ACADR14ROUNDTRIP
1000
DSTYLE
1002
{
1070
   276
 70
     2
1070
   277
 70
     5
1070
   279
 70
     2
1070
   289
 70
     2
1002
}
  0
XRECORD
  5
4CB09
102
{ACAD_REACTORS
330
4D2
102
}
100
AcDbXrecord
340
478
  0
XRECORD
  5
4CB08
102
{ACAD_REACTORS
330
4D0
102
}
100
AcDbXrecord
340
475
  0
XRECORD
  5
4CB01
102
{ACAD_REACTORS
330
4CB00
102
}
100
AcDbXrecord
102
UCS
 74
     0
 71
     1
 10
0.0
 20
0.0
 30
0.0
 10
1.0
 20
0.0
 30
0.0
 10
0.0
 20
1.0
 30
0.0
146
0.0
 79
     0
102
VIEW
281
     0
102
NEWVIEWCONTROL
280
     4
  0
XRECORD
  5
4CB03
102
{ACAD_REACTORS
330
4CB02
102
}
100
AcDbXrecord
102
UCS
 74
     0
 71
     1
 10
0.0
 20
0.0
 30
0.0
 10
1.0
 20
0.0
 30
0.0
 10
0.0
 20
1.0
 30
0.0
146
0.0
 79
     1
102
VIEW
281
     0
102
NEWVIEWCONTROL
280
     4
  0
XRECORD
  5
4CB05
102
{ACAD_REACTORS
330
4CB04
102
}
100
AcDbXrecord
102
UCS
 74
     0
 71
     1
 10
0.0
 20
0.0
 30
0.0
 10
1.0
 20
0.0
 30
0.0
 10
0.0
 20
0.0
 30
1.0
146
0.0
 79
     3
102
VIEW
281
     0
102
NEWVIEWCONTROL
280
     4
  0
XRECORD
  5
4CB07
102
{ACAD_REACTORS
330
4CB06
102
}
100
AcDbXrecord
102
UCS
 74
     0
 71
     1
 10
0.0
 20
0.0
 30
0.0
 10
1.0
 20
0.0
 30
0.0
 10
0.0
 20
1.0
 30
0.0
146
0.0
 79
     0
102
VIEW
281
     0
102
NEWVIEWCONTROL
280
     4
  0
DICTIONARY
  5
4CB0E
100
AcDbDictionary
280
     1
  3
ACAD_XREC_ROUNDTRIP
360
4CB0F
  0
ACAD_PROXY_OBJECT
  5
4A1
102
{ACAD_REACTORS
330
49E
102
}
100
AcDbProxyObject
 90
      499
 91
      503
 93
     2044
310
91D4850204C617365724A65742035303030205365726965732050434C20362C008000000C0BB1B1440000000102F06C510000000000BC1B1440000000002E06C5100000000C0CCFC6A4000000018199D9C501064C6574746572A901406AA427D84144352EEE3F47D11959985D5B1D08148C4D081C195B88185CDCDA59DB9B5
310
95B9D1CCB98DD18A30EDE3B1BBFDBC0FC1D572C8D6D0C833F1A2B3054E9249F0FD074C61796F75743140501A97D7DB4AA43C31EFF91E46EBA53B71EFD1B32A15809809100B2537F8EAD447D02A6A6A00200C0093BD106FC0000F06EE366FABE0000032E846F6A2F44424FF2920002440160B7F435600079000000D00CEECC5
310
43D0
330
475
330
2C
340
0
340
0
 94
        0
  0
ACAD_PROXY_OBJECT
  5
4A0
102
{ACAD_REACTORS
330
49E
102
}
100
AcDbProxyObject
 90
      499
 91
      503
 93
      924
310
91D4850204C617365724A65742035303030205365726965732050434C20362C01AAAAAAAAA547D11959985D5B1D08148C4D081C195B88185CDCDA59DB9B595B9D1CCB98DD18A69054D6F64656C901A800000000000000000000000000000000000000000000A1000000000000008902A6A6AAAA0
330
478
330
0
340
0
340
0
 94
        0
  0
MLINESTYLE
  5
47C
102
{ACAD_REACTORS
330
47B
102
}
100
AcDbMlineStyle
  2
STANDARD
 70
     0
  3

 62
   256
 51
90.0
 52
90.0
 71
     2
 49
0.5
 62
   256
  6
BYLAYER
 49
-0.5
 62
   256
  6
BYLAYER
  0
ACAD_PROXY_OBJECT
  5
49D
102
{ACAD_REACTORS
330
49C
102
}
100
AcDbProxyObject
 90
      499
 91
      502
 93
        0
 94
        0
  0
XRECORD
  5
4CAE9
102
{ACAD_REACTORS
330
4CADF
102
}
100
AcDbXrecord
 90
        0
  0
XRECORD
  5
4CAED
102
{ACAD_REACTORS
330
4CADF
102
}
100
AcDbXrecord
1000
DSTYLE
1002
{
1070
   276
 70
     2
1070
   277
 70
     5
1070
   279
 70
     2
1002
}
  0
XRECORD
  5
4CAEA
102
{ACAD_REACTORS
330
4CADF
102
}
100
AcDbXrecord
  1
{6E0CF4B5-225E-11D4-A150-00A0CC3303EC}
  0
XRECORD
  5
4CAE2
102
{ACAD_REACTORS
330
4CADF
102
}
100
AcDbXrecord
  1

  0
XRECORD
  5
4CAE8
102
{ACAD_REACTORS
330
4CADF
102
}
100
AcDbXrecord
 90
        0
  0
XRECORD
  5
4CAE4
102
{ACAD_REACTORS
330
4CADF
102
}
100
AcDbXrecord
340
49E
  0
XRECORD
  5
4CAE7
102
{ACAD_REACTORS
330
4CADF
102
}
100
AcDbXrecord
 90
    14877
  0
XRECORD
  5
4CAE5
102
{ACAD_REACTORS
330
4CADF
102
}
100
AcDbXrecord
340
49F
  0
XRECORD
  5
4CAE6
102
{ACAD_REACTORS
330
4CADF
102
}
100
AcDbXrecord
340
49C
  0
XRECORD
  5
4CAEC
102
{ACAD_REACTORS
330
4CADF
102
}
100
AcDbXrecord
 40
0.0
  0
XRECORD
  5
4CAF0
102
{ACAD_REACTORS
330
4CADF
102
}
100
AcDbXrecord
340
0
  0
XRECORD
  5
4CAF6
102
{ACAD_REACTORS
330
4CADF
102
}
100
AcDbXrecord
 10
0.0
 20
0.0
 30
0.0
  0
XRECORD
  5
4CAF2
102
{ACAD_REACTORS
330
4CADF
102
}
100
AcDbXrecord
 10
0.0
 20
0.0
 30
0.0
  0
XRECORD
  5
4CAF5
102
{ACAD_REACTORS
330
4CADF
102
}
100
AcDbXrecord
 10
0.0
 20
0.0
 30
0.0
  0
XRECORD
  5
4CAF3
102
{ACAD_REACTORS
330
4CADF
102
}
100
AcDbXrecord
 10
0.0
 20
0.0
 30
0.0
  0
XRECORD
  5
4CAF4
102
{ACAD_REACTORS
330
4CADF
102
}
100
AcDbXrecord
 10
0.0
 20
0.0
 30
0.0
  0
XRECORD
  5
4CAF1
102
{ACAD_REACTORS
330
4CADF
102
}
100
AcDbXrecord
 10
0.0
 20
0.0
 30
0.0
  0
XRECORD
  5
4CAEE
102
{ACAD_REACTORS
330
4CADF
102
}
100
AcDbXrecord
340
0
  0
XRECORD
  5
4CAEF
102
{ACAD_REACTORS
330
4CADF
102
}
100
AcDbXrecord
 70
     0
  0
XRECORD
  5
4CAE3
102
{ACAD_REACTORS
330
4CADF
102
}
100
AcDbXrecord
  1

  0
XRECORD
  5
4CAE0
102
{ACAD_REACTORS
330
4CADF
102
}
100
AcDbXrecord
 90
        1
  0
XRECORD
  5
4CAE1
102
{ACAD_REACTORS
330
4CADF
102
}
100
AcDbXrecord
 90
       70
  0
XRECORD
  5
4CAF9
102
{ACAD_REACTORS
330
4CADF
102
}
100
AcDbXrecord
340
0
  0
XRECORD
  5
4CAFF
102
{ACAD_REACTORS
330
4CADF
102
}
100
AcDbXrecord
 10
0.0
 20
0.0
 30
0.0
  0
XRECORD
  5
4CAFB
102
{ACAD_REACTORS
330
4CADF
102
}
100
AcDbXrecord
 10
0.0
 20
0.0
 30
0.0
  0
XRECORD
  5
4CAFE
102
{ACAD_REACTORS
330
4CADF
102
}
100
AcDbXrecord
 10
0.0
 20
0.0
 30
0.0
  0
XRECORD
  5
4CAFC
102
{ACAD_REACTORS
330
4CADF
102
}
100
AcDbXrecord
 10
0.0
 20
0.0
 30
0.0
  0
XRECORD
  5
4CAFD
102
{ACAD_REACTORS
330
4CADF
102
}
100
AcDbXrecord
 10
0.0
 20
0.0
 30
0.0
  0
XRECORD
  5
4CAFA
102
{ACAD_REACTORS
330
4CADF
102
}
100
AcDbXrecord
 10
0.0
 20
0.0
 30
0.0
  0
XRECORD
  5
4CAF7
102
{ACAD_REACTORS
330
4CADF
102
}
100
AcDbXrecord
340
0
  0
XRECORD
  5
4CAF8
102
{ACAD_REACTORS
330
4CADF
102
}
100
AcDbXrecord
 70
     3
  0
XRECORD
  5
4CAEB
102
{ACAD_REACTORS
330
4CADF
102
}
100
AcDbXrecord
  1
{5C28F8DC-2C8D-4750-BF95-8AA87CC7BB60}
  0
DICTIONARYVAR
  5
48E
102
{ACAD_REACTORS
330
48D
102
}
100
DictionaryVariables
280
     0
  1
0
  0
XRECORD
  5
4CB0F
102
{ACAD_REACTORS
330
4CB0E
102
}
100
AcDbXrecord
102
EXTNAMES
  1
LAYOUT1
  2
Layout1
  1
MODEL
  2
Model
  0
ENDSEC
  0
EOF
