  0
SECTION
  2
HEADER
  9
$ACADVER
  1
AC1014
  9
$ACADMAINTVER
 70
     8
  9
$DWGCODEPAGE
  3
ANSI_1252
  9
$INSBASE
 10
0.0
 20
0.0
 30
0.0
  9
$EXTMIN
 10
-4.392328
 20
-13.204523
 30
0.0
  9
$EXTMAX
 10
3.06
 20
1.630513
 30
6.5
  9
$LIMMIN
 10
0.0
 20
0.0
  9
$LIMMAX
 10
12.0
 20
9.0
  9
$ORTHOMODE
 70
     0
  9
$REGENMODE
 70
     1
  9
$FILLMODE
 70
     1
  9
$QTEXTMODE
 70
     0
  9
$MIRRTEXT
 70
     1
  9
$DRAGMODE
 70
     2
  9
$LTSCALE
 40
1.0
  9
$OSMODE
 70
    37
  9
$ATTMODE
 70
     1
  9
$TEXTSIZE
 40
0.12
  9
$TRACEWID
 40
0.05
  9
$TEXTSTYLE
  7
STANDARD
  9
$CLAYER
  8
0
  9
$CELTYPE
  6
BYLAYER
  9
$CECOLOR
 62
   256
  9
$CELTSCALE
 40
1.0
  9
$DELOBJ
 70
     1
  9
$DISPSILH
 70
     0
  9
$DIMSCALE
 40
1.0
  9
$DIMASZ
 40
0.3
  9
$DIMEXO
 40
0.1
  9
$DIMDLI
 40
0.375
  9
$DIMRND
 40
0.0
  9
$DIMDLE
 40
0.0
  9
$DIMEXE
 40
0.1
  9
$DIMTP
 40
0.0
  9
$DIMTM
 40
0.0
  9
$DIMTXT
 40
0.3
  9
$DIMCEN
 40
0.09
  9
$DIMTSZ
 40
0.0
  9
$DIMTOL
 70
     0
  9
$DIMLIM
 70
     0
  9
$DIMTIH
 70
     0
  9
$DIMTOH
 70
     1
  9
$DIMSE1
 70
     0
  9
$DIMSE2
 70
     0
  9
$DIMTAD
 70
     0
  9
$DIMZIN
 70
     4
  9
$DIMBLK
  1

  9
$DIMASO
 70
     1
  9
$DIMSHO
 70
     1
  9
$DIMPOST
  1

  9
$DIMAPOST
  1

  9
$DIMALT
 70
     1
  9
$DIMALTD
 70
     2
  9
$DIMALTF
 40
25.4
  9
$DIMLFAC
 40
1.0
  9
$DIMTOFL
 70
     0
  9
$DIMTVP
 40
0.0
  9
$DIMTIX
 70
     0
  9
$DIMSOXD
 70
     0
  9
$DIMSAH
 70
     0
  9
$DIMBLK1
  1

  9
$DIMBLK2
  1

  9
$DIMSTYLE
  2
ABECAD_3D
  9
$DIMCLRD
 70
     0
  9
$DIMCLRE
 70
     0
  9
$DIMCLRT
 70
     0
  9
$DIMTFAC
 40
1.5
  9
$DIMGAP
 40
0.09
  9
$DIMJUST
 70
     0
  9
$DIMSD1
 70
     0
  9
$DIMSD2
 70
     0
  9
$DIMTOLJ
 70
     1
  9
$DIMTZIN
 70
     4
  9
$DIMALTZ
 70
     4
  9
$DIMALTTZ
 70
     4
  9
$DIMFIT
 70
     5
  9
$DIMUPT
 70
     1
  9
$DIMUNIT
 70
     7
  9
$DIMDEC
 70
     6
  9
$DIMTDEC
 70
     6
  9
$DIMALTU
 70
     2
  9
$DIMALTTD
 70
     2
  9
$DIMTXSTY
  7
STANDARD
  9
$DIMAUNIT
 70
     0
  9
$LUNITS
 70
     2
  9
$LUPREC
 70
     4
  9
$SKETCHINC
 40
0.1
  9
$FILLETRAD
 40
0.0
  9
$AUNITS
 70
     0
  9
$AUPREC
 70
     0
  9
$MENU
  1
ACAD
  9
$ELEVATION
 40
0.0
  9
$PELEVATION
 40
0.0
  9
$THICKNESS
 40
0.0
  9
$LIMCHECK
 70
     0
  9
$BLIPMODE
 70
     0
  9
$CHAMFERA
 40
0.0
  9
$CHAMFERB
 40
0.0
  9
$CHAMFERC
 40
0.0
  9
$CHAMFERD
 40
0.0
  9
$SKPOLY
 70
     0
  9
$TDCREATE
 40
2451726.438389120
  9
$TDUPDATE
 40
2452010.490892708
  9
$TDINDWG
 40
1.0914255787
  9
$TDUSRTIMER
 40
1.0914255787
  9
$USRTIMER
 70
     1
  9
$ANGBASE
 50
0.0
  9
$ANGDIR
 70
     0
  9
$PDMODE
 70
     3
  9
$PDSIZE
 40
0.09
  9
$PLINEWID
 40
0.0
  9
$COORDS
 70
     1
  9
$SPLFRAME
 70
     1
  9
$SPLINETYPE
 70
     6
  9
$SPLINESEGS
 70
     8
  9
$ATTDIA
 70
     0
  9
$ATTREQ
 70
     1
  9
$HANDLING
 70
     1
  9
$HANDSEED
  5
8AAEC
  9
$SURFTAB1
 70
     6
  9
$SURFTAB2
 70
     6
  9
$SURFTYPE
 70
     6
  9
$SURFU
 70
     6
  9
$SURFV
 70
     6
  9
$UCSNAME
  2

  9
$UCSORG
 10
0.0
 20
0.0
 30
0.0
  9
$UCSXDIR
 10
1.0
 20
0.0
 30
0.0
  9
$UCSYDIR
 10
0.0
 20
1.0
 30
0.0
  9
$PUCSNAME
  2

  9
$PUCSORG
 10
0.0
 20
0.0
 30
0.0
  9
$PUCSXDIR
 10
1.0
 20
0.0
 30
0.0
  9
$PUCSYDIR
 10
0.0
 20
1.0
 30
0.0
  9
$USERI1
 70
     0
  9
$USERI2
 70
     0
  9
$USERI3
 70
     0
  9
$USERI4
 70
     0
  9
$USERI5
 70
     0
  9
$USERR1
 40
0.0
  9
$USERR2
 40
0.0
  9
$USERR3
 40
0.0
  9
$USERR4
 40
0.0
  9
$USERR5
 40
0.0
  9
$WORLDVIEW
 70
     1
  9
$SHADEDGE
 70
     3
  9
$SHADEDIF
 70
    70
  9
$TILEMODE
 70
     1
  9
$MAXACTVP
 70
    16
  9
$PINSBASE
 10
0.0
 20
0.0
 30
0.0
  9
$PLIMCHECK
 70
     0
  9
$PEXTMIN
 10
1.05
 20
0.8
 30
0.0
  9
$PEXTMAX
 10
9.45
 20
7.2
 30
0.0
  9
$PLIMMIN
 10
-0.25
 20
-0.25
  9
$PLIMMAX
 10
10.75
 20
8.25
  9
$UNITMODE
 70
     0
  9
$VISRETAIN
 70
     0
  9
$PLINEGEN
 70
     0
  9
$PSLTSCALE
 70
     1
  9
$TREEDEPTH
 70
  3020
  9
$PICKSTYLE
 70
     1
  9
$CMLSTYLE
  2
STANDARD
  9
$CMLJUST
 70
     0
  9
$CMLSCALE
 40
1.0
  9
$PROXYGRAPHICS
 70
     1
  9
$MEASUREMENT
 70
     0
  0
ENDSEC
  0
SECTION
  2
CLASSES
  0
CLASS
  1
DICTIONARYVAR
  2
AcDbDictionaryVar
  3
"AutoCAD"
 90
        0
280
     0
281
     0
  0
CLASS
  1
ACDBDICTIONARYWDFLT
  2
AcDbDictionaryWithDefault
  3
AutoCAD 2000
 90
        0
280
     0
281
     0
  0
CLASS
  1
ACDBPLACEHOLDER
  2
AcDbPlaceHolder
  3
AutoCAD 2000
 90
        0
280
     0
281
     0
  0
CLASS
  1
LAYOUT
  2
AcDbLayout
  3
AutoCAD 2000
 90
        0
280
     0
281
     0
  0
CLASS
  1
LONG_TRANSACTION
  2
AcDbLongTransaction
  3
AutoCAD 2000
 90
        0
280
     0
281
     0
  0
CLASS
  1
LWPOLYLINE
  2
AcDbPolyline
  3
"AutoCAD"
 90
        0
280
     0
281
     1
  0
CLASS
  1
HATCH
  2
AcDbHatch
  3
"ACAD_SEDONA"
 90
        0
280
     0
281
     1
  0
CLASS
  1
XRECORD
  2
AcDbXrecord
  3
"<Built In>"
 90
        0
280
     0
281
     0
  0
CLASS
  1
LONG_TRANSACTION
  2
AcDbLongTransaction
  3
AutoCAD 2000
 90
        0
280
     0
281
     0
  0
CLASS
  1
LWPOLYLINE
  2
AcDbPolyline
  3
"AutoCAD"
 90
        0
280
     0
281
     1
  0
CLASS
  1
HATCH
  2
AcDbHatch
  3
"ACAD_SEDONA"
 90
        0
280
     0
281
     1
  0
CLASS
  1
XRECORD
  2
AcDbXrecord
  3
"<Built In>"
 90
        0
280
     0
281
     0
  0
CLASS
  1
LONG_TRANSACTION
  2
AcDbLongTransaction
  3
AutoCAD 2000
 90
        0
280
     0
281
     0
  0
CLASS
  1
LWPOLYLINE
  2
AcDbPolyline
  3
"AutoCAD"
 90
        0
280
     0
281
     1
  0
CLASS
  1
HATCH
  2
AcDbHatch
  3
"ACAD_SEDONA"
 90
        0
280
     0
281
     1
  0
CLASS
  1
XRECORD
  2
AcDbXrecord
  3
"<Built In>"
 90
        0
280
     0
281
     0
  0
CLASS
  1
LONG_TRANSACTION
  2
AcDbLongTransaction
  3
AutoCAD 2000
 90
        0
280
     0
281
     0
  0
CLASS
  1
LWPOLYLINE
  2
AcDbPolyline
  3
"AutoCAD"
 90
        0
280
     0
281
     1
  0
CLASS
  1
HATCH
  2
AcDbHatch
  3
"ACAD_SEDONA"
 90
        0
280
     0
281
     1
  0
CLASS
  1
XRECORD
  2
AcDbXrecord
  3
"<Built In>"
 90
        0
280
     0
281
     0
  0
CLASS
  1
LONG_TRANSACTION
  2
AcDbLongTransaction
  3
AutoCAD 2000
 90
        0
280
     0
281
     0
  0
CLASS
  1
LWPOLYLINE
  2
AcDbPolyline
  3
"AutoCAD"
 90
        0
280
     0
281
     1
  0
CLASS
  1
HATCH
  2
AcDbHatch
  3
"ACAD_SEDONA"
 90
        0
280
     0
281
     1
  0
CLASS
  1
XRECORD
  2
AcDbXrecord
  3
"<Built In>"
 90
        0
280
     0
281
     0
  0
CLASS
  1
LONG_TRANSACTION
  2
AcDbLongTransaction
  3
AutoCAD 2000
 90
        0
280
     0
281
     0
  0
CLASS
  1
LWPOLYLINE
  2
AcDbPolyline
  3
"AutoCAD"
 90
        0
280
     0
281
     1
  0
CLASS
  1
HATCH
  2
AcDbHatch
  3
"ACAD_SEDONA"
 90
        0
280
     0
281
     1
  0
CLASS
  1
XRECORD
  2
AcDbXrecord
  3
"<Built In>"
 90
        0
280
     0
281
     0
  0
CLASS
  1
LONG_TRANSACTION
  2
AcDbLongTransaction
  3
AutoCAD 2000
 90
        0
280
     0
281
     0
  0
CLASS
  1
LWPOLYLINE
  2
AcDbPolyline
  3
"AutoCAD"
 90
        0
280
     0
281
     1
  0
CLASS
  1
HATCH
  2
AcDbHatch
  3
"ACAD_SEDONA"
 90
        0
280
     0
281
     1
  0
CLASS
  1
XRECORD
  2
AcDbXrecord
  3
"<Built In>"
 90
        0
280
     0
281
     0
  0
CLASS
  1
LONG_TRANSACTION
  2
AcDbLongTransaction
  3
AutoCAD 2000
 90
        0
280
     0
281
     0
  0
CLASS
  1
LWPOLYLINE
  2
AcDbPolyline
  3
"AutoCAD"
 90
        0
280
     0
281
     1
  0
CLASS
  1
HATCH
  2
AcDbHatch
  3
"ACAD_SEDONA"
 90
        0
280
     0
281
     1
  0
CLASS
  1
XRECORD
  2
AcDbXrecord
  3
"<Built In>"
 90
        0
280
     0
281
     0
  0
CLASS
  1
LONG_TRANSACTION
  2
AcDbLongTransaction
  3
AutoCAD 2000
 90
        0
280
     0
281
     0
  0
CLASS
  1
LWPOLYLINE
  2
AcDbPolyline
  3
"AutoCAD"
 90
        0
280
     0
281
     1
  0
CLASS
  1
HATCH
  2
AcDbHatch
  3
"ACAD_SEDONA"
 90
        0
280
     0
281
     1
  0
CLASS
  1
XRECORD
  2
AcDbXrecord
  3
"<Built In>"
 90
        0
280
     0
281
     0
  0
CLASS
  1
LONG_TRANSACTION
  2
AcDbLongTransaction
  3
AutoCAD 2000
 90
        0
280
     0
281
     0
  0
CLASS
  1
LWPOLYLINE
  2
AcDbPolyline
  3
"AutoCAD"
 90
        0
280
     0
281
     1
  0
CLASS
  1
HATCH
  2
AcDbHatch
  3
"ACAD_SEDONA"
 90
        0
280
     0
281
     1
  0
CLASS
  1
XRECORD
  2
AcDbXrecord
  3
"<Built In>"
 90
        0
280
     0
281
     0
  0
CLASS
  1
LONG_TRANSACTION
  2
AcDbLongTransaction
  3
AutoCAD 2000
 90
        0
280
     0
281
     0
  0
CLASS
  1
LWPOLYLINE
  2
AcDbPolyline
  3
"AutoCAD"
 90
        0
280
     0
281
     1
  0
CLASS
  1
HATCH
  2
AcDbHatch
  3
"ACAD_SEDONA"
 90
        0
280
     0
281
     1
  0
CLASS
  1
XRECORD
  2
AcDbXrecord
  3
"<Built In>"
 90
        0
280
     0
281
     0
  0
CLASS
  1
LONG_TRANSACTION
  2
AcDbLongTransaction
  3
AutoCAD 2000
 90
        0
280
     0
281
     0
  0
CLASS
  1
LWPOLYLINE
  2
AcDbPolyline
  3
"AutoCAD"
 90
        0
280
     0
281
     1
  0
CLASS
  1
HATCH
  2
AcDbHatch
  3
"ACAD_SEDONA"
 90
        0
280
     0
281
     1
  0
CLASS
  1
XRECORD
  2
AcDbXrecord
  3
"<Built In>"
 90
        0
280
     0
281
     0
  0
CLASS
  1
LONG_TRANSACTION
  2
AcDbLongTransaction
  3
AutoCAD 2000
 90
        0
280
     0
281
     0
  0
CLASS
  1
LWPOLYLINE
  2
AcDbPolyline
  3
"AutoCAD"
 90
        0
280
     0
281
     1
  0
CLASS
  1
HATCH
  2
AcDbHatch
  3
"ACAD_SEDONA"
 90
        0
280
     0
281
     1
  0
CLASS
  1
XRECORD
  2
AcDbXrecord
  3
"<Built In>"
 90
        0
280
     0
281
     0
  0
CLASS
  1
LONG_TRANSACTION
  2
AcDbLongTransaction
  3
AutoCAD 2000
 90
        0
280
     0
281
     0
  0
CLASS
  1
LWPOLYLINE
  2
AcDbPolyline
  3
"AutoCAD"
 90
        0
280
     0
281
     1
  0
CLASS
  1
HATCH
  2
AcDbHatch
  3
"ACAD_SEDONA"
 90
        0
280
     0
281
     1
  0
CLASS
  1
XRECORD
  2
AcDbXrecord
  3
"<Built In>"
 90
        0
280
     0
281
     0
  0
CLASS
  1
LONG_TRANSACTION
  2
AcDbLongTransaction
  3
AutoCAD 2000
 90
        0
280
     0
281
     0
  0
CLASS
  1
LWPOLYLINE
  2
AcDbPolyline
  3
"AutoCAD"
 90
        0
280
     0
281
     1
  0
CLASS
  1
HATCH
  2
AcDbHatch
  3
"ACAD_SEDONA"
 90
        0
280
     0
281
     1
  0
CLASS
  1
XRECORD
  2
AcDbXrecord
  3
"<Built In>"
 90
        0
280
     0
281
     0
  0
CLASS
  1
LONG_TRANSACTION
  2
AcDbLongTransaction
  3
AutoCAD 2000
 90
        0
280
     0
281
     0
  0
CLASS
  1
LWPOLYLINE
  2
AcDbPolyline
  3
"AutoCAD"
 90
        0
280
     0
281
     1
  0
CLASS
  1
HATCH
  2
AcDbHatch
  3
"ACAD_SEDONA"
 90
        0
280
     0
281
     1
  0
CLASS
  1
XRECORD
  2
AcDbXrecord
  3
"<Built In>"
 90
        0
280
     0
281
     0
  0
CLASS
  1
LONG_TRANSACTION
  2
AcDbLongTransaction
  3
AutoCAD 2000
 90
        0
280
     0
281
     0
  0
CLASS
  1
LWPOLYLINE
  2
AcDbPolyline
  3
"AutoCAD"
 90
        0
280
     0
281
     1
  0
CLASS
  1
HATCH
  2
AcDbHatch
  3
"ACAD_SEDONA"
 90
        0
280
     0
281
     1
  0
CLASS
  1
XRECORD
  2
AcDbXrecord
  3
"<Built In>"
 90
        0
280
     0
281
     0
  0
CLASS
  1
LONG_TRANSACTION
  2
AcDbLongTransaction
  3
AutoCAD 2000
 90
        0
280
     0
281
     0
  0
CLASS
  1
LWPOLYLINE
  2
AcDbPolyline
  3
"AutoCAD"
 90
        0
280
     0
281
     1
  0
CLASS
  1
HATCH
  2
AcDbHatch
  3
"ACAD_SEDONA"
 90
        0
280
     0
281
     1
  0
CLASS
  1
XRECORD
  2
AcDbXrecord
  3
"<Built In>"
 90
        0
280
     0
281
     0
  0
CLASS
  1
LONG_TRANSACTION
  2
AcDbLongTransaction
  3
AutoCAD 2000
 90
        0
280
     0
281
     0
  0
CLASS
  1
LWPOLYLINE
  2
AcDbPolyline
  3
"AutoCAD"
 90
        0
280
     0
281
     1
  0
CLASS
  1
HATCH
  2
AcDbHatch
  3
"ACAD_SEDONA"
 90
        0
280
     0
281
     1
  0
CLASS
  1
XRECORD
  2
AcDbXrecord
  3
"<Built In>"
 90
        0
280
     0
281
     0
  0
CLASS
  1
LONG_TRANSACTION
  2
AcDbLongTransaction
  3
AutoCAD 2000
 90
        0
280
     0
281
     0
  0
CLASS
  1
LWPOLYLINE
  2
AcDbPolyline
  3
"AutoCAD"
 90
        0
280
     0
281
     1
  0
CLASS
  1
HATCH
  2
AcDbHatch
  3
"ACAD_SEDONA"
 90
        0
280
     0
281
     1
  0
CLASS
  1
XRECORD
  2
AcDbXrecord
  3
"<Built In>"
 90
        0
280
     0
281
     0
  0
CLASS
  1
LONG_TRANSACTION
  2
AcDbLongTransaction
  3
AutoCAD 2000
 90
        0
280
     0
281
     0
  0
CLASS
  1
LWPOLYLINE
  2
AcDbPolyline
  3
"AutoCAD"
 90
        0
280
     0
281
     1
  0
CLASS
  1
HATCH
  2
AcDbHatch
  3
"ACAD_SEDONA"
 90
        0
280
     0
281
     1
  0
CLASS
  1
XRECORD
  2
AcDbXrecord
  3
"<Built In>"
 90
        0
280
     0
281
     0
  0
CLASS
  1
LONG_TRANSACTION
  2
AcDbLongTransaction
  3
AutoCAD 2000
 90
        0
280
     0
281
     0
  0
CLASS
  1
LWPOLYLINE
  2
AcDbPolyline
  3
"AutoCAD"
 90
        0
280
     0
281
     1
  0
CLASS
  1
HATCH
  2
AcDbHatch
  3
"ACAD_SEDONA"
 90
        0
280
     0
281
     1
  0
CLASS
  1
XRECORD
  2
AcDbXrecord
  3
"<Built In>"
 90
        0
280
     0
281
     0
  0
CLASS
  1
LONG_TRANSACTION
  2
AcDbLongTransaction
  3
AutoCAD 2000
 90
        0
280
     0
281
     0
  0
CLASS
  1
LWPOLYLINE
  2
AcDbPolyline
  3
"AutoCAD"
 90
        0
280
     0
281
     1
  0
CLASS
  1
HATCH
  2
AcDbHatch
  3
"ACAD_SEDONA"
 90
        0
280
     0
281
     1
  0
CLASS
  1
XRECORD
  2
AcDbXrecord
  3
"<Built In>"
 90
        0
280
     0
281
     0
  0
CLASS
  1
LONG_TRANSACTION
  2
AcDbLongTransaction
  3
AutoCAD 2000
 90
        0
280
     0
281
     0
  0
CLASS
  1
LWPOLYLINE
  2
AcDbPolyline
  3
"AutoCAD"
 90
        0
280
     0
281
     1
  0
CLASS
  1
HATCH
  2
AcDbHatch
  3
"ACAD_SEDONA"
 90
        0
280
     0
281
     1
  0
CLASS
  1
XRECORD
  2
AcDbXrecord
  3
"<Built In>"
 90
        0
280
     0
281
     0
  0
CLASS
  1
LONG_TRANSACTION
  2
AcDbLongTransaction
  3
AutoCAD 2000
 90
        0
280
     0
281
     0
  0
CLASS
  1
LWPOLYLINE
  2
AcDbPolyline
  3
"AutoCAD"
 90
        0
280
     0
281
     1
  0
CLASS
  1
HATCH
  2
AcDbHatch
  3
"ACAD_SEDONA"
 90
        0
280
     0
281
     1
  0
CLASS
  1
XRECORD
  2
AcDbXrecord
  3
"<Built In>"
 90
        0
280
     0
281
     0
  0
CLASS
  1
LONG_TRANSACTION
  2
AcDbLongTransaction
  3
AutoCAD 2000
 90
        0
280
     0
281
     0
  0
CLASS
  1
LWPOLYLINE
  2
AcDbPolyline
  3
"AutoCAD"
 90
        0
280
     0
281
     1
  0
CLASS
  1
HATCH
  2
AcDbHatch
  3
"ACAD_SEDONA"
 90
        0
280
     0
281
     1
  0
CLASS
  1
XRECORD
  2
AcDbXrecord
  3
"<Built In>"
 90
        0
280
     0
281
     0
  0
CLASS
  1
LONG_TRANSACTION
  2
AcDbLongTransaction
  3
AutoCAD 2000
 90
        0
280
     0
281
     0
  0
CLASS
  1
LWPOLYLINE
  2
AcDbPolyline
  3
"AutoCAD"
 90
        0
280
     0
281
     1
  0
CLASS
  1
HATCH
  2
AcDbHatch
  3
"ACAD_SEDONA"
 90
        0
280
     0
281
     1
  0
CLASS
  1
XRECORD
  2
AcDbXrecord
  3
"<Built In>"
 90
        0
280
     0
281
     0
  0
CLASS
  1
LONG_TRANSACTION
  2
AcDbLongTransaction
  3
AutoCAD 2000
 90
        0
280
     0
281
     0
  0
CLASS
  1
LWPOLYLINE
  2
AcDbPolyline
  3
"AutoCAD"
 90
        0
280
     0
281
     1
  0
CLASS
  1
HATCH
  2
AcDbHatch
  3
"ACAD_SEDONA"
 90
        0
280
     0
281
     1
  0
CLASS
  1
XRECORD
  2
AcDbXrecord
  3
"<Built In>"
 90
        0
280
     0
281
     0
  0
CLASS
  1
LONG_TRANSACTION
  2
AcDbLongTransaction
  3
AutoCAD 2000
 90
        0
280
     0
281
     0
  0
CLASS
  1
LWPOLYLINE
  2
AcDbPolyline
  3
"AutoCAD"
 90
        0
280
     0
281
     1
  0
CLASS
  1
HATCH
  2
AcDbHatch
  3
"ACAD_SEDONA"
 90
        0
280
     0
281
     1
  0
CLASS
  1
XRECORD
  2
AcDbXrecord
  3
"<Built In>"
 90
        0
280
     0
281
     0
  0
CLASS
  1
LONG_TRANSACTION
  2
AcDbLongTransaction
  3
AutoCAD 2000
 90
        0
280
     0
281
     0
  0
CLASS
  1
LWPOLYLINE
  2
AcDbPolyline
  3
"AutoCAD"
 90
        0
280
     0
281
     1
  0
CLASS
  1
HATCH
  2
AcDbHatch
  3
"ACAD_SEDONA"
 90
        0
280
     0
281
     1
  0
CLASS
  1
XRECORD
  2
AcDbXrecord
  3
"<Built In>"
 90
        0
280
     0
281
     0
  0
ENDSEC
  0
SECTION
  2
TABLES
  0
TABLE
  2
VPORT
  5
458C7
100
AcDbSymbolTable
 70
     1
  0
VPORT
  5
8AAB7
102
{ACAD_XDICTIONARY
360
8AABA
102
}
100
AcDbSymbolTableRecord
100
AcDbViewportTableRecord
  2
*ACTIVE
 70
     0
 10
0.0
 20
0.0
 11
1.0
 21
1.0
 12
-7.285837
 22
-2.28565
 13
0.0
 23
0.0
 14
0.25
 24
0.25
 15
0.25
 25
0.25
 16
0.0
 26
0.0
 36
1.0
 17
6.619902
 27
-3.501216
 37
4.043999
 40
15.086027
 41
1.960674
 42
50.0
 43
0.0
 44
0.0
 50
0.0
 51
0.0
 71
     0
 72
 20000
 73
     1
 74
     1
 75
     0
 76
     0
 77
     0
 78
     0
  0
ENDTAB
  0
TABLE
  2
LTYPE
  5
458C4
100
AcDbSymbolTable
 70
     1
  0
LTYPE
  5
458D0
100
AcDbSymbolTableRecord
100
AcDbLinetypeTableRecord
  2
BYBLOCK
 70
     0
  3

 72
    65
 73
     0
 40
0.0
  0
LTYPE
  5
458D1
100
AcDbSymbolTableRecord
100
AcDbLinetypeTableRecord
  2
BYLAYER
 70
     0
  3

 72
    65
 73
     0
 40
0.0
  0
LTYPE
  5
458D2
100
AcDbSymbolTableRecord
100
AcDbLinetypeTableRecord
  2
CONTINUOUS
 70
     0
  3
Solid line
 72
    65
 73
     0
 40
0.0
  0
ENDTAB
  0
TABLE
  2
LAYER
  5
458C1
100
AcDbSymbolTable
 70
     7
  0
LAYER
  5
458CD
100
AcDbSymbolTableRecord
100
AcDbLayerTableRecord
  2
0
 70
     0
 62
     7
  6
CONTINUOUS
  0
LAYER
  5
458EA
100
AcDbSymbolTableRecord
100
AcDbLayerTableRecord
  2
DIMS-MTG-HOLES
 70
     0
 62
     1
  6
CONTINUOUS
  0
LAYER
  5
458EB
100
AcDbSymbolTableRecord
100
AcDbLayerTableRecord
  2
ATTRIBUTES
 70
     0
 62
     7
  6
CONTINUOUS
  0
LAYER
  5
4593B
102
{ACAD_XDICTIONARY
360
8AAE3
102
}
100
AcDbSymbolTableRecord
100
AcDbLayerTableRecord
  2
AREA1
 70
     0
 62
    -7
  6
CONTINUOUS
  0
LAYER
  5
45940
102
{ACAD_XDICTIONARY
360
8AAB8
102
}
100
AcDbSymbolTableRecord
100
AcDbLayerTableRecord
  2
DEFPOINTS
 70
     0
 62
    -7
  6
CONTINUOUS
  0
LAYER
  5
45954
100
AcDbSymbolTableRecord
100
AcDbLayerTableRecord
  2
SCALE
 70
     0
 62
    -7
  6
CONTINUOUS
  0
LAYER
  5
4D59A
100
AcDbSymbolTableRecord
100
AcDbLayerTableRecord
  2
SNAP_POINTS
 70
     0
 62
    -1
  6
CONTINUOUS
  0
ENDTAB
  0
TABLE
  2
STYLE
  5
458C2
100
AcDbSymbolTable
 70
     1
  0
STYLE
  5
458CE
100
AcDbSymbolTableRecord
100
AcDbTextStyleTableRecord
  2
STANDARD
 70
     0
 40
0.0
 41
1.0
 50
0.0
 71
     0
 42
0.12
  3
txt
  4

  0
ENDTAB
  0
TABLE
  2
VIEW
  5
458C5
100
AcDbSymbolTable
 70
     0
  0
ENDTAB
  0
TABLE
  2
UCS
  5
458C6
100
AcDbSymbolTable
 70
     0
  0
ENDTAB
  0
TABLE
  2
APPID
  5
458C8
100
AcDbSymbolTable
 70
     2
  0
APPID
  5
458CF
100
AcDbSymbolTableRecord
100
AcDbRegAppTableRecord
  2
ACAD
 70
     0
  0
APPID
  5
5FD5B
100
AcDbSymbolTableRecord
100
AcDbRegAppTableRecord
  2
AVE_RENDER
 70
     0
  0
ENDTAB
  0
TABLE
  2
DIMSTYLE
  5
458C9
100
AcDbSymbolTable
 70
     1
  0
DIMSTYLE
105
458F6
102
{ACAD_XDICTIONARY
360
8AADF
102
}
102
{ACAD_REACTORS
330
8AA38
330
8AA46
102
}
100
AcDbSymbolTableRecord
100
AcDbDimStyleTableRecord
  2
ABECAD_3D
 70
     0
  3

  4

  5

  6

  7

 40
1.0
 41
0.3
 42
0.1
 43
0.375
 44
0.1
 45
0.0
 46
0.0
 47
0.0
 48
0.0
140
0.3
141
0.09
142
0.0
143
25.4
144
1.0
145
0.0
146
1.5
147
0.09
 71
     0
 72
     0
 73
     0
 74
     1
 75
     0
 76
     0
 77
     0
 78
     4
170
     1
171
     2
172
     0
173
     0
174
     0
175
     0
176
     0
177
     0
178
     0
270
     7
271
     6
272
     6
273
     2
274
     2
340
458CE
275
     0
280
     0
281
     0
282
     0
283
     1
284
     4
285
     4
286
     4
287
     5
288
     1
  0
ENDTAB
  0
TABLE
  2
BLOCK_RECORD
  5
458C0
100
AcDbSymbolTable
 70
     2
  0
BLOCK_RECORD
  5
458D6
102
{ACAD_XDICTIONARY
360
4592C
102
}
100
AcDbSymbolTableRecord
100
AcDbBlockTableRecord
  2
*MODEL_SPACE
  0
BLOCK_RECORD
  5
458D3
102
{ACAD_XDICTIONARY
360
4592A
102
}
100
AcDbSymbolTableRecord
100
AcDbBlockTableRecord
  2
*PAPER_SPACE
  0
BLOCK_RECORD
  5
8AA39
100
AcDbSymbolTableRecord
100
AcDbBlockTableRecord
  2
*D0
  0
BLOCK_RECORD
  5
8AA47
100
AcDbSymbolTableRecord
100
AcDbBlockTableRecord
  2
*D1
  0
ENDTAB
  0
ENDSEC
  0
SECTION
  2
BLOCKS
  0
BLOCK
  5
458DF
100
AcDbEntity
  8
0
100
AcDbBlockBegin
  2
*MODEL_SPACE
 70
     0
 10
0.0
 20
0.0
 30
0.0
  3
*MODEL_SPACE
  1

  0
ENDBLK
  5
458E0
100
AcDbEntity
  8
0
100
AcDbBlockEnd
  0
BLOCK
  5
458DD
100
AcDbEntity
 67
     1
  8
0
100
AcDbBlockBegin
  2
*PAPER_SPACE
 70
     0
 10
0.0
 20
0.0
 30
0.0
  3
*PAPER_SPACE
  1

  0
ENDBLK
  5
458DE
100
AcDbEntity
 67
     1
  8
0
100
AcDbBlockEnd
  0
BLOCK
  5
8AA44
100
AcDbEntity
  8
0
100
AcDbBlockBegin
  2
*D0
 70
     1
 10
0.0
 20
0.0
 30
0.0
  3
*D0
  1

  0
LINE
  5
8AA6E
100
AcDbEntity
  8
AREA1
 62
     0
100
AcDbLine
 10
-1.79
 20
0.31
 30
0.0
 11
-4.342328
 21
0.31
 31
0.0
1001
ACAD
1000
RTLwPs
1070
   158
  0
LINE
  5
8AA6F
100
AcDbEntity
  8
AREA1
 62
     0
100
AcDbLine
 10
-2.065001
 20
-12.140001
 30
0.0
 11
-4.342328
 21
-12.140001
 31
0.0
1001
ACAD
1000
RTLwPs
1070
   158
  0
LINE
  5
8AA70
100
AcDbEntity
  8
AREA1
 62
     0
100
AcDbLine
 10
-4.242328
 20
0.01
 30
0.0
 11
-4.242328
 21
-3.713676
 31
0.0
1001
ACAD
1000
RTLwPs
1070
   158
  0
LINE
  5
8AA71
100
AcDbEntity
  8
AREA1
 62
     0
100
AcDbLine
 10
-4.242328
 20
-11.840001
 30
0.0
 11
-4.242328
 21
-8.293676
 31
0.0
1001
ACAD
1000
RTLwPs
1070
   158
  0
MTEXT
  5
8AA72
100
AcDbEntity
  8
AREA1
 62
     0
100
AcDbMText
 10
-4.242328
 20
-6.003676
 30
0.0
 40
0.3
 41
0.0
 71
     5
 72
     1
  1
\A1;12 29/64 [316.23]
 11
0.0
 21
1.0
 31
0.0
1001
ACAD
1000
MTEXTBEGIN
1070
    73
1070
     1
1070
    44
1040
1.0
1070
    74
1070
     0
1000
MTEXTEND
1000
MTEXTBEGIN
1070
    73
1070
     1
1070
    44
1040
1.0
1070
    74
1070
     0
1000
MTEXTEND
  0
SOLID
  5
8AA73
100
AcDbEntity
  8
AREA1
 62
     0
100
AcDbTrace
 10
-4.292328
 20
0.01
 30
0.0
 11
-4.192328
 21
0.01
 31
0.0
 12
-4.242328
 22
0.31
 32
0.0
 13
-4.242328
 23
0.31
 33
0.0
  0
SOLID
  5
8AA74
100
AcDbEntity
  8
AREA1
 62
     0
100
AcDbTrace
 10
-4.292328
 20
-11.840001
 30
0.0
 11
-4.192328
 21
-11.840001
 31
0.0
 12
-4.242328
 22
-12.140001
 32
0.0
 13
-4.242328
 23
-12.140001
 33
0.0
  0
POINT
  5
8AA75
100
AcDbEntity
  8
DEFPOINTS
 62
     0
100
AcDbPoint
 10
-1.69
 20
0.31
 30
0.0
  0
POINT
  5
8AA76
100
AcDbEntity
  8
DEFPOINTS
 62
     0
100
AcDbPoint
 10
-1.965001
 20
-12.140001
 30
2.81
  0
POINT
  5
8AA77
100
AcDbEntity
  8
DEFPOINTS
 62
     0
100
AcDbPoint
 10
-4.242328
 20
-12.140001
 30
0.0
  0
ENDBLK
  5
8AA45
100
AcDbEntity
  8
0
100
AcDbBlockEnd
  0
BLOCK
  5
8AA52
100
AcDbEntity
  8
0
100
AcDbBlockBegin
  2
*D1
 70
     1
 10
0.0
 20
0.0
 30
0.0
  3
*D1
  1

  0
LINE
  5
8AA78
100
AcDbEntity
  8
AREA1
 62
     0
100
AcDbLine
 10
-3.06
 20
-7.64
 30
0.0
 11
-3.06
 21
1.580513
 31
0.0
1001
ACAD
1000
RTLwPs
1070
   158
  0
LINE
  5
8AA79
100
AcDbEntity
  8
AREA1
 62
     0
100
AcDbLine
 10
3.06
 20
-7.64
 30
0.0
 11
3.06
 21
1.580513
 31
0.0
1001
ACAD
1000
RTLwPs
1070
   158
  0
LINE
  5
8AA7A
100
AcDbEntity
  8
AREA1
 62
     0
100
AcDbLine
 10
-2.76
 20
1.480513
 30
0.0
 11
-1.893251
 21
1.480513
 31
0.0
1001
ACAD
1000
RTLwPs
1070
   158
  0
LINE
  5
8AA7B
100
AcDbEntity
  8
AREA1
 62
     0
100
AcDbLine
 10
2.76
 20
1.480513
 30
0.0
 11
1.786749
 21
1.480513
 31
0.0
1001
ACAD
1000
RTLwPs
1070
   158
  0
MTEXT
  5
8AA7C
100
AcDbEntity
  8
AREA1
 62
     0
100
AcDbMText
 10
-0.053251
 20
1.480513
 30
0.0
 40
0.3
 41
0.0
 71
     5
 72
     1
  1
\A1;6 1/8 [155.45]
1001
ACAD
1000
MTEXTBEGIN
1070
    73
1070
     1
1070
    44
1040
1.0
1070
    74
1070
     0
1000
MTEXTEND
1000
MTEXTBEGIN
1070
    73
1070
     1
1070
    44
1040
1.0
1070
    74
1070
     0
1000
MTEXTEND
  0
SOLID
  5
8AA7D
100
AcDbEntity
  8
AREA1
 62
     0
100
AcDbTrace
 10
-2.76
 20
1.530513
 30
0.0
 11
-2.76
 21
1.430513
 31
0.0
 12
-3.06
 22
1.480513
 32
0.0
 13
-3.06
 23
1.480513
 33
0.0
  0
SOLID
  5
8AA7E
100
AcDbEntity
  8
AREA1
 62
     0
100
AcDbTrace
 10
2.76
 20
1.530513
 30
0.0
 11
2.76
 21
1.430513
 31
0.0
 12
3.06
 22
1.480513
 32
0.0
 13
3.06
 23
1.480513
 33
0.0
  0
POINT
  5
8AA7F
100
AcDbEntity
  8
DEFPOINTS
 62
     0
100
AcDbPoint
 10
-3.06
 20
-7.74
 30
0.0
  0
POINT
  5
8AA80
100
AcDbEntity
  8
DEFPOINTS
 62
     0
100
AcDbPoint
 10
3.06
 20
-7.74
 30
0.0
  0
POINT
  5
8AA81
100
AcDbEntity
  8
DEFPOINTS
 62
     0
100
AcDbPoint
 10
3.06
 20
1.480513
 30
0.0
  0
ENDBLK
  5
8AA53
100
AcDbEntity
  8
0
100
AcDbBlockEnd
  0
ENDSEC
  0
SECTION
  2
ENTITIES
  0
3DFACE
  5
8A737
100
AcDbEntity
  8
0
100
AcDbFace
 10
-0.49
 20
-9.475001
 30
6.28
 11
-1.11
 21
-9.475001
 31
6.28
 12
-1.05
 22
-9.350001
 32
5.87
 13
-0.55
 23
-9.350001
 33
5.87
 70
    14
  0
3DFACE
  5
8A738
100
AcDbEntity
  8
0
100
AcDbFace
 10
-0.49
 20
-8.725001
 30
6.28
 11
-0.55
 21
-8.850001
 31
5.87
 12
-1.05
 22
-8.850001
 32
5.87
 13
-1.11
 23
-8.725001
 33
6.28
 70
    14
  0
3DFACE
  5
8A739
100
AcDbEntity
  8
0
100
AcDbFace
 10
-1.11
 20
-9.475001
 30
6.28
 11
-1.11
 21
-8.725001
 31
6.28
 12
-1.05
 22
-8.850001
 32
5.87
 13
-1.05
 23
-9.350001
 33
5.87
 70
    14
  0
LINE
  5
8A73A
100
AcDbEntity
  8
0
100
AcDbLine
 10
-1.11
 20
-8.725001
 30
6.28
 11
-1.05
 21
-8.850001
 31
5.870001
  0
LINE
  5
8A73B
100
AcDbEntity
  8
0
100
AcDbLine
 10
-1.11
 20
-9.475001
 30
6.28
 11
-1.05
 21
-9.350001
 31
5.87
  0
3DFACE
  5
8A73C
100
AcDbEntity
  8
0
100
AcDbFace
 10
-0.49
 20
-8.725001
 30
6.28
 11
-0.55
 21
-8.850001
 31
5.87
 12
-0.55
 22
-9.350001
 32
5.87
 13
-0.49
 23
-9.475001
 33
6.28
 70
    14
  0
LINE
  5
8A73D
100
AcDbEntity
  8
0
100
AcDbLine
 10
-0.49
 20
-9.475001
 30
6.28
 11
-0.55
 21
-9.350001
 31
5.87
  0
LINE
  5
8A73E
100
AcDbEntity
  8
0
100
AcDbLine
 10
-0.49
 20
-8.725001
 30
6.28
 11
-0.55
 21
-8.850001
 31
5.870001
  0
3DFACE
  5
8A73F
100
AcDbEntity
  8
0
100
AcDbFace
 10
-0.71
 20
-9.010001
 30
5.56
 11
-0.71
 21
-9.010001
 31
4.76
 12
-0.71
 22
-9.190001
 32
4.76
 13
-0.71
 23
-9.190001
 33
5.56
 70
    14
  0
3DFACE
  5
8A740
100
AcDbEntity
  8
0
100
AcDbFace
 10
-0.89
 20
-9.010001
 30
5.56
 11
-0.89
 21
-9.010001
 31
4.76
 12
-0.71
 22
-9.010001
 32
4.76
 13
-0.71
 23
-9.010001
 33
5.56
 70
    14
  0
3DFACE
  5
8A741
100
AcDbEntity
  8
0
100
AcDbFace
 10
-0.89
 20
-9.010001
 30
5.56
 11
-0.89
 21
-9.010001
 31
4.76
 12
-0.89
 22
-9.190001
 32
4.76
 13
-0.89
 23
-9.190001
 33
5.56
 70
    14
  0
3DFACE
  5
8A742
100
AcDbEntity
  8
0
100
AcDbFace
 10
-0.71
 20
-9.190001
 30
5.56
 11
-0.71
 21
-9.190001
 31
4.76
 12
-0.89
 22
-9.190001
 32
4.76
 13
-0.89
 23
-9.190001
 33
5.56
 70
    14
  0
LINE
  5
8A743
100
AcDbEntity
  8
0
100
AcDbLine
 10
-0.71
 20
-9.190001
 30
5.56
 11
-0.71
 21
-9.190001
 31
4.76
  0
LINE
  5
8A744
100
AcDbEntity
  8
0
100
AcDbLine
 10
-0.89
 20
-9.190001
 30
5.56
 11
-0.89
 21
-9.190001
 31
4.76
  0
LINE
  5
8A745
100
AcDbEntity
  8
0
100
AcDbLine
 10
-0.89
 20
-9.010001
 30
5.56
 11
-0.89
 21
-9.010001
 31
4.76
  0
LINE
  5
8A746
100
AcDbEntity
  8
0
100
AcDbLine
 10
-0.71
 20
-9.010001
 30
5.56
 11
-0.71
 21
-9.010001
 31
4.76
  0
LINE
  5
8A747
100
AcDbEntity
  8
0
100
AcDbLine
 10
-0.71
 20
-9.010001
 30
4.76
 11
-0.89
 21
-9.010001
 31
4.76
  0
LINE
  5
8A748
100
AcDbEntity
  8
0
100
AcDbLine
 10
-0.89
 20
-9.190001
 30
4.76
 11
-0.71
 21
-9.190001
 31
4.76
  0
LINE
  5
8A749
100
AcDbEntity
  8
0
100
AcDbLine
 10
-0.89
 20
-9.010001
 30
4.76
 11
-0.89
 21
-9.190001
 31
4.76
  0
LINE
  5
8A74A
100
AcDbEntity
  8
0
100
AcDbLine
 10
-0.71
 20
-9.190001
 30
4.76
 11
-0.71
 21
-9.010001
 31
4.76
  0
3DFACE
  5
8A74B
100
AcDbEntity
  8
0
100
AcDbFace
 10
-1.05
 20
-9.350001
 30
5.87
 11
-0.55
 21
-9.350001
 31
5.87
 12
-0.55
 22
-9.350001
 32
5.56
 13
-1.05
 23
-9.350001
 33
5.56
 70
    14
  0
3DFACE
  5
8A74C
100
AcDbEntity
  8
0
100
AcDbFace
 10
-0.55
 20
-8.850001
 30
5.87
 11
-0.55
 21
-8.850001
 31
5.56
 12
-1.05
 22
-8.850001
 32
5.56
 13
-1.05
 23
-8.850001
 33
5.87
 70
    14
  0
LINE
  5
8A74D
100
AcDbEntity
  8
0
100
AcDbLine
 10
-0.55
 20
-8.850001
 30
5.56
 11
-1.05
 21
-8.850001
 31
5.56
  0
LINE
  5
8A74E
100
AcDbEntity
  8
0
100
AcDbLine
 10
-1.05
 20
-9.350001
 30
5.56
 11
-0.55
 21
-9.350001
 31
5.56
  0
3DFACE
  5
8A74F
100
AcDbEntity
  8
0
100
AcDbFace
 10
-0.71
 20
-9.010001
 30
5.56
 11
-0.89
 21
-9.010001
 31
5.56
 12
-0.89
 22
-9.190001
 32
5.56
 13
-0.71
 23
-9.190001
 33
5.56
 70
    14
  0
LINE
  5
8A750
100
AcDbEntity
  8
0
100
AcDbLine
 10
-0.71
 20
-9.010001
 30
5.56
 11
-0.89
 21
-9.010001
 31
5.56
  0
LINE
  5
8A751
100
AcDbEntity
  8
0
100
AcDbLine
 10
-0.89
 20
-9.190001
 30
5.56
 11
-0.71
 21
-9.190001
 31
5.56
  0
LINE
  5
8A752
100
AcDbEntity
  8
0
100
AcDbLine
 10
-0.55
 20
-8.850001
 30
5.87
 11
-1.05
 21
-8.850001
 31
5.87
  0
LINE
  5
8A753
100
AcDbEntity
  8
0
100
AcDbLine
 10
-1.05
 20
-9.350001
 30
5.87
 11
-0.55
 21
-9.350001
 31
5.87
  0
3DFACE
  5
8A754
100
AcDbEntity
  8
0
100
AcDbFace
 10
-1.05
 20
-9.350001
 30
5.87
 11
-1.05
 21
-9.350001
 31
5.56
 12
-1.05
 22
-8.850001
 32
5.56
 13
-1.05
 23
-8.850001
 33
5.87
 70
    14
  0
LINE
  5
8A755
100
AcDbEntity
  8
0
100
AcDbLine
 10
-1.05
 20
-8.850001
 30
5.56
 11
-1.05
 21
-9.350001
 31
5.56
  0
LINE
  5
8A756
100
AcDbEntity
  8
0
100
AcDbLine
 10
-1.05
 20
-8.850001
 30
5.87
 11
-1.05
 21
-9.350001
 31
5.87
  0
LINE
  5
8A757
100
AcDbEntity
  8
0
100
AcDbLine
 10
-1.05
 20
-9.350001
 30
5.87
 11
-1.05
 21
-9.350001
 31
5.56
  0
LINE
  5
8A758
100
AcDbEntity
  8
0
100
AcDbLine
 10
-1.05
 20
-8.850001
 30
5.87
 11
-1.05
 21
-8.850001
 31
5.56
  0
LINE
  5
8A759
100
AcDbEntity
  8
0
100
AcDbLine
 10
-0.89
 20
-9.010001
 30
5.56
 11
-0.89
 21
-9.190001
 31
5.56
  0
3DFACE
  5
8A75A
100
AcDbEntity
  8
0
100
AcDbFace
 10
-0.55
 20
-8.850001
 30
5.87
 11
-0.55
 21
-9.350001
 31
5.87
 12
-0.55
 22
-9.350001
 32
5.56
 13
-0.55
 23
-8.850001
 33
5.56
 70
    14
  0
LINE
  5
8A75B
100
AcDbEntity
  8
0
100
AcDbLine
 10
-0.55
 20
-9.350001
 30
5.56
 11
-0.55
 21
-8.850001
 31
5.56
  0
LINE
  5
8A75C
100
AcDbEntity
  8
0
100
AcDbLine
 10
-0.55
 20
-9.350001
 30
5.87
 11
-0.55
 21
-8.850001
 31
5.87
  0
LINE
  5
8A75D
100
AcDbEntity
  8
0
100
AcDbLine
 10
-0.55
 20
-9.350001
 30
5.87
 11
-0.55
 21
-9.350001
 31
5.56
  0
LINE
  5
8A75E
100
AcDbEntity
  8
0
100
AcDbLine
 10
-0.55
 20
-8.850001
 30
5.87
 11
-0.55
 21
-8.850001
 31
5.56
  0
LINE
  5
8A75F
100
AcDbEntity
  8
0
100
AcDbLine
 10
-0.71
 20
-9.190001
 30
5.56
 11
-0.71
 21
-9.010001
 31
5.56
  0
3DFACE
  5
8A760
100
AcDbEntity
  8
0
100
AcDbFace
 10
-0.49
 20
-8.725001
 30
6.4
 11
-1.11
 21
-8.725001
 31
6.4
 12
-1.11
 22
-9.475001
 32
6.4
 13
-0.49
 23
-9.475001
 33
6.4
 70
    14
  0
3DFACE
  5
8A761
100
AcDbEntity
  8
0
100
AcDbFace
 10
-0.49
 20
-9.475001
 30
6.4
 11
-0.49
 21
-9.475001
 31
6.28
 12
-1.11
 22
-9.475001
 32
6.28
 13
-1.11
 23
-9.475001
 33
6.4
 70
    14
  0
3DFACE
  5
8A762
100
AcDbEntity
  8
0
100
AcDbFace
 10
-0.49
 20
-8.725001
 30
6.4
 11
-0.49
 21
-8.725001
 31
6.28
 12
-1.11
 22
-8.725001
 32
6.28
 13
-1.11
 23
-8.725001
 33
6.4
 70
    14
  0
LINE
  5
8A763
100
AcDbEntity
  8
0
100
AcDbLine
 10
-0.49
 20
-8.725001
 30
6.4
 11
-1.11
 21
-8.725001
 31
6.4
  0
LINE
  5
8A764
100
AcDbEntity
  8
0
100
AcDbLine
 10
-1.11
 20
-9.475001
 30
6.4
 11
-0.49
 21
-9.475001
 31
6.4
  0
LINE
  5
8A765
100
AcDbEntity
  8
0
100
AcDbLine
 10
-0.49
 20
-8.725001
 30
6.28
 11
-1.11
 21
-8.725001
 31
6.28
  0
LINE
  5
8A766
100
AcDbEntity
  8
0
100
AcDbLine
 10
-1.11
 20
-9.475001
 30
6.28
 11
-0.49
 21
-9.475001
 31
6.28
  0
3DFACE
  5
8A767
100
AcDbEntity
  8
0
100
AcDbFace
 10
-1.11
 20
-9.475001
 30
6.4
 11
-1.11
 21
-8.725001
 31
6.4
 12
-1.11
 22
-8.725001
 32
6.28
 13
-1.11
 23
-9.475001
 33
6.28
 70
    14
  0
LINE
  5
8A768
100
AcDbEntity
  8
0
100
AcDbLine
 10
-1.11
 20
-8.725001
 30
6.4
 11
-1.11
 21
-9.475001
 31
6.4
  0
LINE
  5
8A769
100
AcDbEntity
  8
0
100
AcDbLine
 10
-1.11
 20
-8.725001
 30
6.28
 11
-1.11
 21
-9.475001
 31
6.28
  0
LINE
  5
8A76A
100
AcDbEntity
  8
0
100
AcDbLine
 10
-1.11
 20
-9.475001
 30
6.4
 11
-1.11
 21
-9.475001
 31
6.28
  0
LINE
  5
8A76B
100
AcDbEntity
  8
0
100
AcDbLine
 10
-1.11
 20
-8.725001
 30
6.4
 11
-1.11
 21
-8.725001
 31
6.28
  0
3DFACE
  5
8A76C
100
AcDbEntity
  8
0
100
AcDbFace
 10
-0.49
 20
-8.725001
 30
6.4
 11
-0.49
 21
-8.725001
 31
6.28
 12
-0.49
 22
-9.475001
 32
6.28
 13
-0.49
 23
-9.475001
 33
6.4
 70
    14
  0
LINE
  5
8A76D
100
AcDbEntity
  8
0
100
AcDbLine
 10
-0.49
 20
-9.475001
 30
6.4
 11
-0.49
 21
-8.725001
 31
6.4
  0
LINE
  5
8A76E
100
AcDbEntity
  8
0
100
AcDbLine
 10
-0.49
 20
-9.475001
 30
6.28
 11
-0.49
 21
-8.725001
 31
6.28
  0
LINE
  5
8A76F
100
AcDbEntity
  8
0
100
AcDbLine
 10
-0.49
 20
-9.475001
 30
6.4
 11
-0.49
 21
-9.475001
 31
6.28
  0
LINE
  5
8A770
100
AcDbEntity
  8
0
100
AcDbLine
 10
-0.49
 20
-8.725001
 30
6.4
 11
-0.49
 21
-8.725001
 31
6.28
  0
CIRCLE
  5
8A771
100
AcDbEntity
  8
0
100
AcDbCircle
 10
-1.590001
 20
-11.765002
 30
3.81
 40
0.22
  0
LINE
  5
8A772
100
AcDbEntity
  8
0
100
AcDbLine
 10
-2.56
 20
-11.48
 30
0.25
 11
-2.56
 21
-11.540001
 31
0.25
  0
POLYLINE
  5
8A773
100
AcDbEntity
  8
0
100
AcDbPolygonMesh
 66
     1
 10
0.0
 20
0.0
 30
0.0
 70
    16
 71
     6
 72
     3
  0
VERTEX
  5
8A774
100
AcDbEntity
  8
0
100
AcDbVertex
100
AcDbPolygonMeshVertex
 10
2.559999
 20
-11.540001
 30
0.25
 70
    64
  0
VERTEX
  5
8A775
100
AcDbEntity
  8
0
100
AcDbVertex
100
AcDbPolygonMeshVertex
 10
2.559999
 20
-11.540001
 30
0.19
 70
    64
  0
VERTEX
  5
8A776
100
AcDbEntity
  8
0
100
AcDbVertex
100
AcDbPolygonMeshVertex
 10
2.559999
 20
-11.540001
 30
0.19
 70
    64
  0
VERTEX
  5
8A777
100
AcDbEntity
  8
0
100
AcDbVertex
100
AcDbPolygonMeshVertex
 10
-2.56
 20
-11.540001
 30
0.25
 70
    64
  0
VERTEX
  5
8A778
100
AcDbEntity
  8
0
100
AcDbVertex
100
AcDbPolygonMeshVertex
 10
-2.56
 20
-11.540001
 30
0.19
 70
    64
  0
VERTEX
  5
8A779
100
AcDbEntity
  8
0
100
AcDbVertex
100
AcDbPolygonMeshVertex
 10
-2.56
 20
-11.540001
 30
0.19
 70
    64
  0
VERTEX
  5
8A77A
100
AcDbEntity
  8
0
100
AcDbVertex
100
AcDbPolygonMeshVertex
 10
-2.56
 20
-8.500001
 30
0.25
 70
    64
  0
VERTEX
  5
8A77B
100
AcDbEntity
  8
0
100
AcDbVertex
100
AcDbPolygonMeshVertex
 10
-2.56
 20
-8.500001
 30
0.19
 70
    64
  0
VERTEX
  5
8A77C
100
AcDbEntity
  8
0
100
AcDbVertex
100
AcDbPolygonMeshVertex
 10
-2.56
 20
-11.540001
 30
0.19
 70
    64
  0
VERTEX
  5
8A77D
100
AcDbEntity
  8
0
100
AcDbVertex
100
AcDbPolygonMeshVertex
 10
2.559999
 20
-8.500001
 30
0.25
 70
    64
  0
VERTEX
  5
8A77E
100
AcDbEntity
  8
0
100
AcDbVertex
100
AcDbPolygonMeshVertex
 10
2.559999
 20
-8.500001
 30
0.19
 70
    64
  0
VERTEX
  5
8A77F
100
AcDbEntity
  8
0
100
AcDbVertex
100
AcDbPolygonMeshVertex
 10
2.559999
 20
-11.540001
 30
0.19
 70
    64
  0
VERTEX
  5
8A780
100
AcDbEntity
  8
0
100
AcDbVertex
100
AcDbPolygonMeshVertex
 10
2.559999
 20
-8.500001
 30
0.25
 70
    64
  0
VERTEX
  5
8A781
100
AcDbEntity
  8
0
100
AcDbVertex
100
AcDbPolygonMeshVertex
 10
2.559999
 20
-8.500001
 30
0.25
 70
    64
  0
VERTEX
  5
8A782
100
AcDbEntity
  8
0
100
AcDbVertex
100
AcDbPolygonMeshVertex
 10
2.559999
 20
-11.540001
 30
0.25
 70
    64
  0
VERTEX
  5
8A783
100
AcDbEntity
  8
0
100
AcDbVertex
100
AcDbPolygonMeshVertex
 10
-2.56
 20
-8.500001
 30
0.25
 70
    64
  0
VERTEX
  5
8A784
100
AcDbEntity
  8
0
100
AcDbVertex
100
AcDbPolygonMeshVertex
 10
-2.56
 20
-8.500001
 30
0.25
 70
    64
  0
VERTEX
  5
8A785
100
AcDbEntity
  8
0
100
AcDbVertex
100
AcDbPolygonMeshVertex
 10
-2.56
 20
-11.540001
 30
0.25
 70
    64
  0
SEQEND
  5
8A786
100
AcDbEntity
  8
0
  0
POLYLINE
  5
8A787
100
AcDbEntity
  8
0
100
AcDbPolygonMesh
 66
     1
 10
0.0
 20
0.0
 30
0.0
 70
    16
 71
     6
 72
     3
  0
VERTEX
  5
8A788
100
AcDbEntity
  8
0
100
AcDbVertex
100
AcDbPolygonMeshVertex
 10
2.559999
 20
-11.540001
 30
1.56
 70
    64
  0
VERTEX
  5
8A789
100
AcDbEntity
  8
0
100
AcDbVertex
100
AcDbPolygonMeshVertex
 10
2.559999
 20
-11.540001
 30
0.25
 70
    64
  0
VERTEX
  5
8A78A
100
AcDbEntity
  8
0
100
AcDbVertex
100
AcDbPolygonMeshVertex
 10
2.559999
 20
-11.540001
 30
0.25
 70
    64
  0
VERTEX
  5
8A78B
100
AcDbEntity
  8
0
100
AcDbVertex
100
AcDbPolygonMeshVertex
 10
-2.56
 20
-11.540001
 30
1.56
 70
    64
  0
VERTEX
  5
8A78C
100
AcDbEntity
  8
0
100
AcDbVertex
100
AcDbPolygonMeshVertex
 10
-2.56
 20
-11.540001
 30
0.25
 70
    64
  0
VERTEX
  5
8A78D
100
AcDbEntity
  8
0
100
AcDbVertex
100
AcDbPolygonMeshVertex
 10
-2.56
 20
-11.540001
 30
0.25
 70
    64
  0
VERTEX
  5
8A78E
100
AcDbEntity
  8
0
100
AcDbVertex
100
AcDbPolygonMeshVertex
 10
-2.56
 20
-11.48
 30
1.56
 70
    64
  0
VERTEX
  5
8A78F
100
AcDbEntity
  8
0
100
AcDbVertex
100
AcDbPolygonMeshVertex
 10
-2.56
 20
-11.48
 30
0.25
 70
    64
  0
VERTEX
  5
8A790
100
AcDbEntity
  8
0
100
AcDbVertex
100
AcDbPolygonMeshVertex
 10
-2.56
 20
-11.540001
 30
0.25
 70
    64
  0
VERTEX
  5
8A791
100
AcDbEntity
  8
0
100
AcDbVertex
100
AcDbPolygonMeshVertex
 10
2.559999
 20
-11.48
 30
1.56
 70
    64
  0
VERTEX
  5
8A792
100
AcDbEntity
  8
0
100
AcDbVertex
100
AcDbPolygonMeshVertex
 10
2.559999
 20
-11.48
 30
0.25
 70
    64
  0
VERTEX
  5
8A793
100
AcDbEntity
  8
0
100
AcDbVertex
100
AcDbPolygonMeshVertex
 10
2.559999
 20
-11.540001
 30
0.25
 70
    64
  0
VERTEX
  5
8A794
100
AcDbEntity
  8
0
100
AcDbVertex
100
AcDbPolygonMeshVertex
 10
2.559999
 20
-11.48
 30
1.56
 70
    64
  0
VERTEX
  5
8A795
100
AcDbEntity
  8
0
100
AcDbVertex
100
AcDbPolygonMeshVertex
 10
2.559999
 20
-11.48
 30
1.56
 70
    64
  0
VERTEX
  5
8A796
100
AcDbEntity
  8
0
100
AcDbVertex
100
AcDbPolygonMeshVertex
 10
2.559999
 20
-11.540001
 30
1.56
 70
    64
  0
VERTEX
  5
8A797
100
AcDbEntity
  8
0
100
AcDbVertex
100
AcDbPolygonMeshVertex
 10
-2.56
 20
-11.48
 30
1.56
 70
    64
  0
VERTEX
  5
8A798
100
AcDbEntity
  8
0
100
AcDbVertex
100
AcDbPolygonMeshVertex
 10
-2.56
 20
-11.48
 30
1.56
 70
    64
  0
VERTEX
  5
8A799
100
AcDbEntity
  8
0
100
AcDbVertex
100
AcDbPolygonMeshVertex
 10
-2.56
 20
-11.540001
 30
1.56
 70
    64
  0
SEQEND
  5
8A79A
100
AcDbEntity
  8
0
  0
POLYLINE
  5
8A79B
100
AcDbEntity
  8
0
100
AcDbPolygonMesh
 66
     1
 10
0.0
 20
0.0
 30
0.0
 70
    16
 71
     6
 72
     3
  0
VERTEX
  5
8A79C
100
AcDbEntity
  8
0
100
AcDbVertex
100
AcDbPolygonMeshVertex
 10
2.559999
 20
-11.48
 30
1.56
 70
    64
  0
VERTEX
  5
8A79D
100
AcDbEntity
  8
0
100
AcDbVertex
100
AcDbPolygonMeshVertex
 10
2.559999
 20
-11.48
 30
1.5
 70
    64
  0
VERTEX
  5
8A79E
100
AcDbEntity
  8
0
100
AcDbVertex
100
AcDbPolygonMeshVertex
 10
2.559999
 20
-11.48
 30
1.5
 70
    64
  0
VERTEX
  5
8A79F
100
AcDbEntity
  8
0
100
AcDbVertex
100
AcDbPolygonMeshVertex
 10
-2.56
 20
-11.48
 30
1.56
 70
    64
  0
VERTEX
  5
8A7A0
100
AcDbEntity
  8
0
100
AcDbVertex
100
AcDbPolygonMeshVertex
 10
-2.56
 20
-11.48
 30
1.5
 70
    64
  0
VERTEX
  5
8A7A1
100
AcDbEntity
  8
0
100
AcDbVertex
100
AcDbPolygonMeshVertex
 10
-2.56
 20
-11.48
 30
1.5
 70
    64
  0
VERTEX
  5
8A7A2
100
AcDbEntity
  8
0
100
AcDbVertex
100
AcDbPolygonMeshVertex
 10
-2.56
 20
-9.310001
 30
1.56
 70
    64
  0
VERTEX
  5
8A7A3
100
AcDbEntity
  8
0
100
AcDbVertex
100
AcDbPolygonMeshVertex
 10
-2.56
 20
-9.310001
 30
1.5
 70
    64
  0
VERTEX
  5
8A7A4
100
AcDbEntity
  8
0
100
AcDbVertex
100
AcDbPolygonMeshVertex
 10
-2.56
 20
-11.48
 30
1.5
 70
    64
  0
VERTEX
  5
8A7A5
100
AcDbEntity
  8
0
100
AcDbVertex
100
AcDbPolygonMeshVertex
 10
2.559999
 20
-9.310001
 30
1.56
 70
    64
  0
VERTEX
  5
8A7A6
100
AcDbEntity
  8
0
100
AcDbVertex
100
AcDbPolygonMeshVertex
 10
2.559999
 20
-9.310001
 30
1.5
 70
    64
  0
VERTEX
  5
8A7A7
100
AcDbEntity
  8
0
100
AcDbVertex
100
AcDbPolygonMeshVertex
 10
2.559999
 20
-11.48
 30
1.5
 70
    64
  0
VERTEX
  5
8A7A8
100
AcDbEntity
  8
0
100
AcDbVertex
100
AcDbPolygonMeshVertex
 10
2.559999
 20
-9.310001
 30
1.56
 70
    64
  0
VERTEX
  5
8A7A9
100
AcDbEntity
  8
0
100
AcDbVertex
100
AcDbPolygonMeshVertex
 10
2.559999
 20
-9.310001
 30
1.56
 70
    64
  0
VERTEX
  5
8A7AA
100
AcDbEntity
  8
0
100
AcDbVertex
100
AcDbPolygonMeshVertex
 10
2.559999
 20
-11.48
 30
1.56
 70
    64
  0
VERTEX
  5
8A7AB
100
AcDbEntity
  8
0
100
AcDbVertex
100
AcDbPolygonMeshVertex
 10
-2.56
 20
-9.310001
 30
1.56
 70
    64
  0
VERTEX
  5
8A7AC
100
AcDbEntity
  8
0
100
AcDbVertex
100
AcDbPolygonMeshVertex
 10
-2.56
 20
-9.310001
 30
1.56
 70
    64
  0
VERTEX
  5
8A7AD
100
AcDbEntity
  8
0
100
AcDbVertex
100
AcDbPolygonMeshVertex
 10
-2.56
 20
-11.48
 30
1.56
 70
    64
  0
SEQEND
  5
8A7AE
100
AcDbEntity
  8
0
  0
POLYLINE
  5
8A7AF
100
AcDbEntity
  8
0
100
AcDbPolygonMesh
 66
     1
 10
0.0
 20
0.0
 30
0.0
 70
    16
 71
     6
 72
     3
  0
VERTEX
  5
8A7B0
100
AcDbEntity
  8
0
100
AcDbVertex
100
AcDbPolygonMeshVertex
 10
-1.965001
 20
-10.750001
 30
3.31
 70
    64
  0
VERTEX
  5
8A7B1
100
AcDbEntity
  8
0
100
AcDbVertex
100
AcDbPolygonMeshVertex
 10
-1.965001
 20
-10.750001
 30
2.81
 70
    64
  0
VERTEX
  5
8A7B2
100
AcDbEntity
  8
0
100
AcDbVertex
100
AcDbPolygonMeshVertex
 10
-1.965001
 20
-10.750001
 30
2.81
 70
    64
  0
VERTEX
  5
8A7B3
100
AcDbEntity
  8
0
100
AcDbVertex
100
AcDbPolygonMeshVertex
 10
-1.215001
 20
-10.750001
 30
3.31
 70
    64
  0
VERTEX
  5
8A7B4
100
AcDbEntity
  8
0
100
AcDbVertex
100
AcDbPolygonMeshVertex
 10
-1.215001
 20
-10.750001
 30
2.81
 70
    64
  0
VERTEX
  5
8A7B5
100
AcDbEntity
  8
0
100
AcDbVertex
100
AcDbPolygonMeshVertex
 10
-1.215001
 20
-10.750001
 30
2.81
 70
    64
  0
VERTEX
  5
8A7B6
100
AcDbEntity
  8
0
100
AcDbVertex
100
AcDbPolygonMeshVertex
 10
-1.215001
 20
-12.140001
 30
3.31
 70
    64
  0
VERTEX
  5
8A7B7
100
AcDbEntity
  8
0
100
AcDbVertex
100
AcDbPolygonMeshVertex
 10
-1.215001
 20
-12.140001
 30
2.81
 70
    64
  0
VERTEX
  5
8A7B8
100
AcDbEntity
  8
0
100
AcDbVertex
100
AcDbPolygonMeshVertex
 10
-1.215001
 20
-10.750001
 30
2.81
 70
    64
  0
VERTEX
  5
8A7B9
100
AcDbEntity
  8
0
100
AcDbVertex
100
AcDbPolygonMeshVertex
 10
-1.965001
 20
-12.140001
 30
3.31
 70
    64
  0
VERTEX
  5
8A7BA
100
AcDbEntity
  8
0
100
AcDbVertex
100
AcDbPolygonMeshVertex
 10
-1.965001
 20
-12.140001
 30
2.81
 70
    64
  0
VERTEX
  5
8A7BB
100
AcDbEntity
  8
0
100
AcDbVertex
100
AcDbPolygonMeshVertex
 10
-1.965001
 20
-10.750001
 30
2.81
 70
    64
  0
VERTEX
  5
8A7BC
100
AcDbEntity
  8
0
100
AcDbVertex
100
AcDbPolygonMeshVertex
 10
-1.965001
 20
-12.140001
 30
3.31
 70
    64
  0
VERTEX
  5
8A7BD
100
AcDbEntity
  8
0
100
AcDbVertex
100
AcDbPolygonMeshVertex
 10
-1.965001
 20
-12.140001
 30
3.31
 70
    64
  0
VERTEX
  5
8A7BE
100
AcDbEntity
  8
0
100
AcDbVertex
100
AcDbPolygonMeshVertex
 10
-1.965001
 20
-10.750001
 30
3.31
 70
    64
  0
VERTEX
  5
8A7BF
100
AcDbEntity
  8
0
100
AcDbVertex
100
AcDbPolygonMeshVertex
 10
-1.215001
 20
-12.140001
 30
3.31
 70
    64
  0
VERTEX
  5
8A7C0
100
AcDbEntity
  8
0
100
AcDbVertex
100
AcDbPolygonMeshVertex
 10
-1.215001
 20
-12.140001
 30
3.31
 70
    64
  0
VERTEX
  5
8A7C1
100
AcDbEntity
  8
0
100
AcDbVertex
100
AcDbPolygonMeshVertex
 10
-1.215001
 20
-10.750001
 30
3.31
 70
    64
  0
SEQEND
  5
8A7C2
100
AcDbEntity
  8
0
  0
POLYLINE
  5
8A7C3
100
AcDbEntity
  8
0
100
AcDbPolygonMesh
 66
     1
 10
0.0
 20
0.0
 30
0.0
 70
    16
 71
     6
 72
     3
  0
VERTEX
  5
8A7C4
100
AcDbEntity
  8
0
100
AcDbVertex
100
AcDbPolygonMeshVertex
 10
-1.215001
 20
-12.140001
 30
3.81
 70
    64
  0
VERTEX
  5
8A7C5
100
AcDbEntity
  8
0
100
AcDbVertex
100
AcDbPolygonMeshVertex
 10
-1.215001
 20
-12.140001
 30
3.31
 70
    64
  0
VERTEX
  5
8A7C6
100
AcDbEntity
  8
0
100
AcDbVertex
100
AcDbPolygonMeshVertex
 10
-1.215001
 20
-12.140001
 30
3.31
 70
    64
  0
VERTEX
  5
8A7C7
100
AcDbEntity
  8
0
100
AcDbVertex
100
AcDbPolygonMeshVertex
 10
-1.965001
 20
-12.140001
 30
3.81
 70
    64
  0
VERTEX
  5
8A7C8
100
AcDbEntity
  8
0
100
AcDbVertex
100
AcDbPolygonMeshVertex
 10
-1.965001
 20
-12.140001
 30
3.31
 70
    64
  0
VERTEX
  5
8A7C9
100
AcDbEntity
  8
0
100
AcDbVertex
100
AcDbPolygonMeshVertex
 10
-1.965001
 20
-12.140001
 30
3.31
 70
    64
  0
VERTEX
  5
8A7CA
100
AcDbEntity
  8
0
100
AcDbVertex
100
AcDbPolygonMeshVertex
 10
-1.965001
 20
-11.390001
 30
3.81
 70
    64
  0
VERTEX
  5
8A7CB
100
AcDbEntity
  8
0
100
AcDbVertex
100
AcDbPolygonMeshVertex
 10
-1.965001
 20
-11.390001
 30
3.31
 70
    64
  0
VERTEX
  5
8A7CC
100
AcDbEntity
  8
0
100
AcDbVertex
100
AcDbPolygonMeshVertex
 10
-1.965001
 20
-12.140001
 30
3.31
 70
    64
  0
VERTEX
  5
8A7CD
100
AcDbEntity
  8
0
100
AcDbVertex
100
AcDbPolygonMeshVertex
 10
-1.215001
 20
-11.390001
 30
3.81
 70
    64
  0
VERTEX
  5
8A7CE
100
AcDbEntity
  8
0
100
AcDbVertex
100
AcDbPolygonMeshVertex
 10
-1.215001
 20
-11.390001
 30
3.31
 70
    64
  0
VERTEX
  5
8A7CF
100
AcDbEntity
  8
0
100
AcDbVertex
100
AcDbPolygonMeshVertex
 10
-1.215001
 20
-12.140001
 30
3.31
 70
    64
  0
VERTEX
  5
8A7D0
100
AcDbEntity
  8
0
100
AcDbVertex
100
AcDbPolygonMeshVertex
 10
-1.215001
 20
-11.390001
 30
3.81
 70
    64
  0
VERTEX
  5
8A7D1
100
AcDbEntity
  8
0
100
AcDbVertex
100
AcDbPolygonMeshVertex
 10
-1.215001
 20
-11.390001
 30
3.81
 70
    64
  0
VERTEX
  5
8A7D2
100
AcDbEntity
  8
0
100
AcDbVertex
100
AcDbPolygonMeshVertex
 10
-1.215001
 20
-12.140001
 30
3.81
 70
    64
  0
VERTEX
  5
8A7D3
100
AcDbEntity
  8
0
100
AcDbVertex
100
AcDbPolygonMeshVertex
 10
-1.965001
 20
-11.390001
 30
3.81
 70
    64
  0
VERTEX
  5
8A7D4
100
AcDbEntity
  8
0
100
AcDbVertex
100
AcDbPolygonMeshVertex
 10
-1.965001
 20
-11.390001
 30
3.81
 70
    64
  0
VERTEX
  5
8A7D5
100
AcDbEntity
  8
0
100
AcDbVertex
100
AcDbPolygonMeshVertex
 10
-1.965001
 20
-12.140001
 30
3.81
 70
    64
  0
SEQEND
  5
8A7D6
100
AcDbEntity
  8
0
  0
LINE
  5
8A7D7
100
AcDbEntity
  8
0
100
AcDbLine
 10
-2.56
 20
-11.500001
 30
1.87
 11
-2.56
 21
-11.500001
 31
1.56
  0
POLYLINE
  5
8A7D8
100
AcDbEntity
  8
0
100
AcDbPolygonMesh
 66
     1
 10
0.0
 20
0.0
 30
0.0
 70
    16
 71
     6
 72
     3
  0
VERTEX
  5
8A7D9
100
AcDbEntity
  8
0
100
AcDbVertex
100
AcDbPolygonMeshVertex
 10
2.559999
 20
-12.000001
 30
1.87
 70
    64
  0
VERTEX
  5
8A7DA
100
AcDbEntity
  8
0
100
AcDbVertex
100
AcDbPolygonMeshVertex
 10
2.559999
 20
-12.000001
 30
1.56
 70
    64
  0
VERTEX
  5
8A7DB
100
AcDbEntity
  8
0
100
AcDbVertex
100
AcDbPolygonMeshVertex
 10
2.559999
 20
-12.000001
 30
1.56
 70
    64
  0
VERTEX
  5
8A7DC
100
AcDbEntity
  8
0
100
AcDbVertex
100
AcDbPolygonMeshVertex
 10
-2.56
 20
-12.000001
 30
1.87
 70
    64
  0
VERTEX
  5
8A7DD
100
AcDbEntity
  8
0
100
AcDbVertex
100
AcDbPolygonMeshVertex
 10
-2.56
 20
-12.000001
 30
1.56
 70
    64
  0
VERTEX
  5
8A7DE
100
AcDbEntity
  8
0
100
AcDbVertex
100
AcDbPolygonMeshVertex
 10
-2.56
 20
-12.000001
 30
1.56
 70
    64
  0
VERTEX
  5
8A7DF
100
AcDbEntity
  8
0
100
AcDbVertex
100
AcDbPolygonMeshVertex
 10
-2.56
 20
-11.500001
 30
1.87
 70
    64
  0
VERTEX
  5
8A7E0
100
AcDbEntity
  8
0
100
AcDbVertex
100
AcDbPolygonMeshVertex
 10
-2.56
 20
-11.500001
 30
1.56
 70
    64
  0
VERTEX
  5
8A7E1
100
AcDbEntity
  8
0
100
AcDbVertex
100
AcDbPolygonMeshVertex
 10
-2.56
 20
-12.000001
 30
1.56
 70
    64
  0
VERTEX
  5
8A7E2
100
AcDbEntity
  8
0
100
AcDbVertex
100
AcDbPolygonMeshVertex
 10
2.559999
 20
-11.500001
 30
1.87
 70
    64
  0
VERTEX
  5
8A7E3
100
AcDbEntity
  8
0
100
AcDbVertex
100
AcDbPolygonMeshVertex
 10
2.559999
 20
-11.500001
 30
1.56
 70
    64
  0
VERTEX
  5
8A7E4
100
AcDbEntity
  8
0
100
AcDbVertex
100
AcDbPolygonMeshVertex
 10
2.559999
 20
-12.000001
 30
1.56
 70
    64
  0
VERTEX
  5
8A7E5
100
AcDbEntity
  8
0
100
AcDbVertex
100
AcDbPolygonMeshVertex
 10
2.559999
 20
-11.500001
 30
1.87
 70
    64
  0
VERTEX
  5
8A7E6
100
AcDbEntity
  8
0
100
AcDbVertex
100
AcDbPolygonMeshVertex
 10
2.559999
 20
-11.500001
 30
1.87
 70
    64
  0
VERTEX
  5
8A7E7
100
AcDbEntity
  8
0
100
AcDbVertex
100
AcDbPolygonMeshVertex
 10
2.559999
 20
-12.000001
 30
1.87
 70
    64
  0
VERTEX
  5
8A7E8
100
AcDbEntity
  8
0
100
AcDbVertex
100
AcDbPolygonMeshVertex
 10
-2.56
 20
-11.500001
 30
1.87
 70
    64
  0
VERTEX
  5
8A7E9
100
AcDbEntity
  8
0
100
AcDbVertex
100
AcDbPolygonMeshVertex
 10
-2.56
 20
-11.500001
 30
1.87
 70
    64
  0
VERTEX
  5
8A7EA
100
AcDbEntity
  8
0
100
AcDbVertex
100
AcDbPolygonMeshVertex
 10
-2.56
 20
-12.000001
 30
1.87
 70
    64
  0
SEQEND
  5
8A7EB
100
AcDbEntity
  8
0
  0
LINE
  5
8A7EC
100
AcDbEntity
  8
0
100
AcDbLine
 10
-2.56
 20
-10.750001
 30
3.81
 11
-2.56
 21
-10.750001
 31
1.56
  0
POLYLINE
  5
8A7ED
100
AcDbEntity
  8
0
100
AcDbPolygonMesh
 66
     1
 10
0.0
 20
0.0
 30
0.0
 70
    16
 71
     6
 72
     3
  0
VERTEX
  5
8A7EE
100
AcDbEntity
  8
0
100
AcDbVertex
100
AcDbPolygonMeshVertex
 10
2.559999
 20
-10.750001
 30
4.75
 70
    64
  0
VERTEX
  5
8A7EF
100
AcDbEntity
  8
0
100
AcDbVertex
100
AcDbPolygonMeshVertex
 10
2.559999
 20
-10.750001
 30
1.56
 70
    64
  0
VERTEX
  5
8A7F0
100
AcDbEntity
  8
0
100
AcDbVertex
100
AcDbPolygonMeshVertex
 10
2.559999
 20
-10.750001
 30
1.56
 70
    64
  0
VERTEX
  5
8A7F1
100
AcDbEntity
  8
0
100
AcDbVertex
100
AcDbPolygonMeshVertex
 10
-2.56
 20
-10.750001
 30
4.75
 70
    64
  0
VERTEX
  5
8A7F2
100
AcDbEntity
  8
0
100
AcDbVertex
100
AcDbPolygonMeshVertex
 10
-2.56
 20
-10.750001
 30
1.56
 70
    64
  0
VERTEX
  5
8A7F3
100
AcDbEntity
  8
0
100
AcDbVertex
100
AcDbPolygonMeshVertex
 10
-2.56
 20
-10.750001
 30
1.56
 70
    64
  0
VERTEX
  5
8A7F4
100
AcDbEntity
  8
0
100
AcDbVertex
100
AcDbPolygonMeshVertex
 10
-2.56
 20
-9.000001
 30
4.75
 70
    64
  0
VERTEX
  5
8A7F5
100
AcDbEntity
  8
0
100
AcDbVertex
100
AcDbPolygonMeshVertex
 10
-2.56
 20
-9.000001
 30
1.56
 70
    64
  0
VERTEX
  5
8A7F6
100
AcDbEntity
  8
0
100
AcDbVertex
100
AcDbPolygonMeshVertex
 10
-2.56
 20
-10.750001
 30
1.56
 70
    64
  0
VERTEX
  5
8A7F7
100
AcDbEntity
  8
0
100
AcDbVertex
100
AcDbPolygonMeshVertex
 10
2.559999
 20
-9.000001
 30
4.75
 70
    64
  0
VERTEX
  5
8A7F8
100
AcDbEntity
  8
0
100
AcDbVertex
100
AcDbPolygonMeshVertex
 10
2.559999
 20
-9.000001
 30
1.56
 70
    64
  0
VERTEX
  5
8A7F9
100
AcDbEntity
  8
0
100
AcDbVertex
100
AcDbPolygonMeshVertex
 10
2.559999
 20
-10.750001
 30
1.56
 70
    64
  0
VERTEX
  5
8A7FA
100
AcDbEntity
  8
0
100
AcDbVertex
100
AcDbPolygonMeshVertex
 10
2.559999
 20
-9.000001
 30
4.75
 70
    64
  0
VERTEX
  5
8A7FB
100
AcDbEntity
  8
0
100
AcDbVertex
100
AcDbPolygonMeshVertex
 10
2.559999
 20
-9.000001
 30
4.75
 70
    64
  0
VERTEX
  5
8A7FC
100
AcDbEntity
  8
0
100
AcDbVertex
100
AcDbPolygonMeshVertex
 10
2.559999
 20
-10.750001
 30
4.75
 70
    64
  0
VERTEX
  5
8A7FD
100
AcDbEntity
  8
0
100
AcDbVertex
100
AcDbPolygonMeshVertex
 10
-2.56
 20
-9.000001
 30
4.75
 70
    64
  0
VERTEX
  5
8A7FE
100
AcDbEntity
  8
0
100
AcDbVertex
100
AcDbPolygonMeshVertex
 10
-2.56
 20
-9.000001
 30
4.75
 70
    64
  0
VERTEX
  5
8A7FF
100
AcDbEntity
  8
0
100
AcDbVertex
100
AcDbPolygonMeshVertex
 10
-2.56
 20
-10.750001
 30
4.75
 70
    64
  0
SEQEND
  5
8A800
100
AcDbEntity
  8
0
  0
LINE
  5
8A801
100
AcDbEntity
  8
0
100
AcDbLine
 10
-2.56
 20
-11.500001
 30
2.81
 11
-2.56
 21
-10.750001
 31
2.81
  0
LINE
  5
8A802
100
AcDbEntity
  8
0
100
AcDbLine
 10
-2.56
 20
-11.500001
 30
2.81
 11
2.559999
 21
-11.500001
 31
2.81
  0
POLYLINE
  5
8A803
100
AcDbEntity
  8
0
100
AcDbPolygonMesh
 66
     1
 10
0.0
 20
0.0
 30
0.0
 70
    16
 71
     6
 72
     3
  0
VERTEX
  5
8A804
100
AcDbEntity
  8
0
100
AcDbVertex
100
AcDbPolygonMeshVertex
 10
2.559999
 20
-11.500001
 30
2.81
 70
    64
  0
VERTEX
  5
8A805
100
AcDbEntity
  8
0
100
AcDbVertex
100
AcDbPolygonMeshVertex
 10
2.559999
 20
-11.500001
 30
1.56
 70
    64
  0
VERTEX
  5
8A806
100
AcDbEntity
  8
0
100
AcDbVertex
100
AcDbPolygonMeshVertex
 10
2.559999
 20
-11.500001
 30
1.56
 70
    64
  0
VERTEX
  5
8A807
100
AcDbEntity
  8
0
100
AcDbVertex
100
AcDbPolygonMeshVertex
 10
-2.56
 20
-11.500001
 30
2.81
 70
    64
  0
VERTEX
  5
8A808
100
AcDbEntity
  8
0
100
AcDbVertex
100
AcDbPolygonMeshVertex
 10
-2.56
 20
-11.500001
 30
1.56
 70
    64
  0
VERTEX
  5
8A809
100
AcDbEntity
  8
0
100
AcDbVertex
100
AcDbPolygonMeshVertex
 10
-2.56
 20
-11.500001
 30
1.56
 70
    64
  0
VERTEX
  5
8A80A
100
AcDbEntity
  8
0
100
AcDbVertex
100
AcDbPolygonMeshVertex
 10
-2.56
 20
-10.750001
 30
2.81
 70
    64
  0
VERTEX
  5
8A80B
100
AcDbEntity
  8
0
100
AcDbVertex
100
AcDbPolygonMeshVertex
 10
-2.56
 20
-10.750001
 30
1.56
 70
    64
  0
VERTEX
  5
8A80C
100
AcDbEntity
  8
0
100
AcDbVertex
100
AcDbPolygonMeshVertex
 10
-2.56
 20
-11.500001
 30
1.56
 70
    64
  0
VERTEX
  5
8A80D
100
AcDbEntity
  8
0
100
AcDbVertex
100
AcDbPolygonMeshVertex
 10
2.559999
 20
-10.750001
 30
2.81
 70
    64
  0
VERTEX
  5
8A80E
100
AcDbEntity
  8
0
100
AcDbVertex
100
AcDbPolygonMeshVertex
 10
2.559999
 20
-10.750001
 30
1.56
 70
    64
  0
VERTEX
  5
8A80F
100
AcDbEntity
  8
0
100
AcDbVertex
100
AcDbPolygonMeshVertex
 10
2.559999
 20
-11.500001
 30
1.56
 70
    64
  0
VERTEX
  5
8A810
100
AcDbEntity
  8
0
100
AcDbVertex
100
AcDbPolygonMeshVertex
 10
2.559999
 20
-10.750001
 30
2.81
 70
    64
  0
VERTEX
  5
8A811
100
AcDbEntity
  8
0
100
AcDbVertex
100
AcDbPolygonMeshVertex
 10
2.559999
 20
-10.750001
 30
2.81
 70
    64
  0
VERTEX
  5
8A812
100
AcDbEntity
  8
0
100
AcDbVertex
100
AcDbPolygonMeshVertex
 10
2.559999
 20
-11.500001
 30
2.81
 70
    64
  0
VERTEX
  5
8A813
100
AcDbEntity
  8
0
100
AcDbVertex
100
AcDbPolygonMeshVertex
 10
-2.56
 20
-10.750001
 30
2.81
 70
    64
  0
VERTEX
  5
8A814
100
AcDbEntity
  8
0
100
AcDbVertex
100
AcDbPolygonMeshVertex
 10
-2.56
 20
-10.750001
 30
2.81
 70
    64
  0
VERTEX
  5
8A815
100
AcDbEntity
  8
0
100
AcDbVertex
100
AcDbPolygonMeshVertex
 10
-2.56
 20
-11.500001
 30
2.81
 70
    64
  0
SEQEND
  5
8A816
100
AcDbEntity
  8
0
  0
CIRCLE
  5
8A817
100
AcDbEntity
  8
0
100
AcDbCircle
 10
0.0
 20
-11.765002
 30
3.81
 40
0.22
  0
POLYLINE
  5
8A818
100
AcDbEntity
  8
0
100
AcDbPolygonMesh
 66
     1
 10
0.0
 20
0.0
 30
0.0
 70
    16
 71
     6
 72
     3
  0
VERTEX
  5
8A819
100
AcDbEntity
  8
0
100
AcDbVertex
100
AcDbPolygonMeshVertex
 10
0.375
 20
-12.140001
 30
3.81
 70
    64
  0
VERTEX
  5
8A81A
100
AcDbEntity
  8
0
100
AcDbVertex
100
AcDbPolygonMeshVertex
 10
0.375
 20
-12.140001
 30
3.31
 70
    64
  0
VERTEX
  5
8A81B
100
AcDbEntity
  8
0
100
AcDbVertex
100
AcDbPolygonMeshVertex
 10
0.375
 20
-12.140001
 30
3.31
 70
    64
  0
VERTEX
  5
8A81C
100
AcDbEntity
  8
0
100
AcDbVertex
100
AcDbPolygonMeshVertex
 10
-0.375
 20
-12.140001
 30
3.81
 70
    64
  0
VERTEX
  5
8A81D
100
AcDbEntity
  8
0
100
AcDbVertex
100
AcDbPolygonMeshVertex
 10
-0.375
 20
-12.140001
 30
3.31
 70
    64
  0
VERTEX
  5
8A81E
100
AcDbEntity
  8
0
100
AcDbVertex
100
AcDbPolygonMeshVertex
 10
-0.375
 20
-12.140001
 30
3.31
 70
    64
  0
VERTEX
  5
8A81F
100
AcDbEntity
  8
0
100
AcDbVertex
100
AcDbPolygonMeshVertex
 10
-0.375
 20
-11.390001
 30
3.81
 70
    64
  0
VERTEX
  5
8A820
100
AcDbEntity
  8
0
100
AcDbVertex
100
AcDbPolygonMeshVertex
 10
-0.375
 20
-11.390001
 30
3.31
 70
    64
  0
VERTEX
  5
8A821
100
AcDbEntity
  8
0
100
AcDbVertex
100
AcDbPolygonMeshVertex
 10
-0.375
 20
-12.140001
 30
3.31
 70
    64
  0
VERTEX
  5
8A822
100
AcDbEntity
  8
0
100
AcDbVertex
100
AcDbPolygonMeshVertex
 10
0.375
 20
-11.390001
 30
3.81
 70
    64
  0
VERTEX
  5
8A823
100
AcDbEntity
  8
0
100
AcDbVertex
100
AcDbPolygonMeshVertex
 10
0.375
 20
-11.390001
 30
3.31
 70
    64
  0
VERTEX
  5
8A824
100
AcDbEntity
  8
0
100
AcDbVertex
100
AcDbPolygonMeshVertex
 10
0.375
 20
-12.140001
 30
3.31
 70
    64
  0
VERTEX
  5
8A825
100
AcDbEntity
  8
0
100
AcDbVertex
100
AcDbPolygonMeshVertex
 10
0.375
 20
-11.390001
 30
3.81
 70
    64
  0
VERTEX
  5
8A826
100
AcDbEntity
  8
0
100
AcDbVertex
100
AcDbPolygonMeshVertex
 10
0.375
 20
-11.390001
 30
3.81
 70
    64
  0
VERTEX
  5
8A827
100
AcDbEntity
  8
0
100
AcDbVertex
100
AcDbPolygonMeshVertex
 10
0.375
 20
-12.140001
 30
3.81
 70
    64
  0
VERTEX
  5
8A828
100
AcDbEntity
  8
0
100
AcDbVertex
100
AcDbPolygonMeshVertex
 10
-0.375
 20
-11.390001
 30
3.81
 70
    64
  0
VERTEX
  5
8A829
100
AcDbEntity
  8
0
100
AcDbVertex
100
AcDbPolygonMeshVertex
 10
-0.375
 20
-11.390001
 30
3.81
 70
    64
  0
VERTEX
  5
8A82A
100
AcDbEntity
  8
0
100
AcDbVertex
100
AcDbPolygonMeshVertex
 10
-0.375
 20
-12.140001
 30
3.81
 70
    64
  0
SEQEND
  5
8A82B
100
AcDbEntity
  8
0
  0
POLYLINE
  5
8A82C
100
AcDbEntity
  8
0
100
AcDbPolygonMesh
 66
     1
 10
0.0
 20
0.0
 30
0.0
 70
    16
 71
     6
 72
     3
  0
VERTEX
  5
8A82D
100
AcDbEntity
  8
0
100
AcDbVertex
100
AcDbPolygonMeshVertex
 10
-0.375
 20
-10.750001
 30
3.31
 70
    64
  0
VERTEX
  5
8A82E
100
AcDbEntity
  8
0
100
AcDbVertex
100
AcDbPolygonMeshVertex
 10
-0.375
 20
-10.750001
 30
2.81
 70
    64
  0
VERTEX
  5
8A82F
100
AcDbEntity
  8
0
100
AcDbVertex
100
AcDbPolygonMeshVertex
 10
-0.375
 20
-10.750001
 30
2.81
 70
    64
  0
VERTEX
  5
8A830
100
AcDbEntity
  8
0
100
AcDbVertex
100
AcDbPolygonMeshVertex
 10
0.375
 20
-10.750001
 30
3.31
 70
    64
  0
VERTEX
  5
8A831
100
AcDbEntity
  8
0
100
AcDbVertex
100
AcDbPolygonMeshVertex
 10
0.375
 20
-10.750001
 30
2.81
 70
    64
  0
VERTEX
  5
8A832
100
AcDbEntity
  8
0
100
AcDbVertex
100
AcDbPolygonMeshVertex
 10
0.375
 20
-10.750001
 30
2.81
 70
    64
  0
VERTEX
  5
8A833
100
AcDbEntity
  8
0
100
AcDbVertex
100
AcDbPolygonMeshVertex
 10
0.375
 20
-12.140001
 30
3.31
 70
    64
  0
VERTEX
  5
8A834
100
AcDbEntity
  8
0
100
AcDbVertex
100
AcDbPolygonMeshVertex
 10
0.375
 20
-12.140001
 30
2.81
 70
    64
  0
VERTEX
  5
8A835
100
AcDbEntity
  8
0
100
AcDbVertex
100
AcDbPolygonMeshVertex
 10
0.375
 20
-10.750001
 30
2.81
 70
    64
  0
VERTEX
  5
8A836
100
AcDbEntity
  8
0
100
AcDbVertex
100
AcDbPolygonMeshVertex
 10
-0.375
 20
-12.140001
 30
3.31
 70
    64
  0
VERTEX
  5
8A837
100
AcDbEntity
  8
0
100
AcDbVertex
100
AcDbPolygonMeshVertex
 10
-0.375
 20
-12.140001
 30
2.81
 70
    64
  0
VERTEX
  5
8A838
100
AcDbEntity
  8
0
100
AcDbVertex
100
AcDbPolygonMeshVertex
 10
-0.375
 20
-10.750001
 30
2.81
 70
    64
  0
VERTEX
  5
8A839
100
AcDbEntity
  8
0
100
AcDbVertex
100
AcDbPolygonMeshVertex
 10
-0.375
 20
-12.140001
 30
3.31
 70
    64
  0
VERTEX
  5
8A83A
100
AcDbEntity
  8
0
100
AcDbVertex
100
AcDbPolygonMeshVertex
 10
-0.375
 20
-12.140001
 30
3.31
 70
    64
  0
VERTEX
  5
8A83B
100
AcDbEntity
  8
0
100
AcDbVertex
100
AcDbPolygonMeshVertex
 10
-0.375
 20
-10.750001
 30
3.31
 70
    64
  0
VERTEX
  5
8A83C
100
AcDbEntity
  8
0
100
AcDbVertex
100
AcDbPolygonMeshVertex
 10
0.375
 20
-12.140001
 30
3.31
 70
    64
  0
VERTEX
  5
8A83D
100
AcDbEntity
  8
0
100
AcDbVertex
100
AcDbPolygonMeshVertex
 10
0.375
 20
-12.140001
 30
3.31
 70
    64
  0
VERTEX
  5
8A83E
100
AcDbEntity
  8
0
100
AcDbVertex
100
AcDbPolygonMeshVertex
 10
0.375
 20
-10.750001
 30
3.31
 70
    64
  0
SEQEND
  5
8A83F
100
AcDbEntity
  8
0
  0
CIRCLE
  5
8A840
100
AcDbEntity
  8
0
100
AcDbCircle
 10
1.59
 20
-11.765002
 30
3.81
 40
0.22
  0
POLYLINE
  5
8A841
100
AcDbEntity
  8
0
100
AcDbPolygonMesh
 66
     1
 10
0.0
 20
0.0
 30
0.0
 70
    16
 71
     6
 72
     3
  0
VERTEX
  5
8A842
100
AcDbEntity
  8
0
100
AcDbVertex
100
AcDbPolygonMeshVertex
 10
1.965
 20
-12.140001
 30
3.81
 70
    64
  0
VERTEX
  5
8A843
100
AcDbEntity
  8
0
100
AcDbVertex
100
AcDbPolygonMeshVertex
 10
1.965
 20
-12.140001
 30
3.31
 70
    64
  0
VERTEX
  5
8A844
100
AcDbEntity
  8
0
100
AcDbVertex
100
AcDbPolygonMeshVertex
 10
1.965
 20
-12.140001
 30
3.31
 70
    64
  0
VERTEX
  5
8A845
100
AcDbEntity
  8
0
100
AcDbVertex
100
AcDbPolygonMeshVertex
 10
1.215
 20
-12.140001
 30
3.81
 70
    64
  0
VERTEX
  5
8A846
100
AcDbEntity
  8
0
100
AcDbVertex
100
AcDbPolygonMeshVertex
 10
1.215
 20
-12.140001
 30
3.31
 70
    64
  0
VERTEX
  5
8A847
100
AcDbEntity
  8
0
100
AcDbVertex
100
AcDbPolygonMeshVertex
 10
1.215
 20
-12.140001
 30
3.31
 70
    64
  0
VERTEX
  5
8A848
100
AcDbEntity
  8
0
100
AcDbVertex
100
AcDbPolygonMeshVertex
 10
1.215
 20
-11.390001
 30
3.81
 70
    64
  0
VERTEX
  5
8A849
100
AcDbEntity
  8
0
100
AcDbVertex
100
AcDbPolygonMeshVertex
 10
1.215
 20
-11.390001
 30
3.31
 70
    64
  0
VERTEX
  5
8A84A
100
AcDbEntity
  8
0
100
AcDbVertex
100
AcDbPolygonMeshVertex
 10
1.215
 20
-12.140001
 30
3.31
 70
    64
  0
VERTEX
  5
8A84B
100
AcDbEntity
  8
0
100
AcDbVertex
100
AcDbPolygonMeshVertex
 10
1.965
 20
-11.390001
 30
3.81
 70
    64
  0
VERTEX
  5
8A84C
100
AcDbEntity
  8
0
100
AcDbVertex
100
AcDbPolygonMeshVertex
 10
1.965
 20
-11.390001
 30
3.31
 70
    64
  0
VERTEX
  5
8A84D
100
AcDbEntity
  8
0
100
AcDbVertex
100
AcDbPolygonMeshVertex
 10
1.965
 20
-12.140001
 30
3.31
 70
    64
  0
VERTEX
  5
8A84E
100
AcDbEntity
  8
0
100
AcDbVertex
100
AcDbPolygonMeshVertex
 10
1.965
 20
-11.390001
 30
3.81
 70
    64
  0
VERTEX
  5
8A84F
100
AcDbEntity
  8
0
100
AcDbVertex
100
AcDbPolygonMeshVertex
 10
1.965
 20
-11.390001
 30
3.81
 70
    64
  0
VERTEX
  5
8A850
100
AcDbEntity
  8
0
100
AcDbVertex
100
AcDbPolygonMeshVertex
 10
1.965
 20
-12.140001
 30
3.81
 70
    64
  0
VERTEX
  5
8A851
100
AcDbEntity
  8
0
100
AcDbVertex
100
AcDbPolygonMeshVertex
 10
1.215
 20
-11.390001
 30
3.81
 70
    64
  0
VERTEX
  5
8A852
100
AcDbEntity
  8
0
100
AcDbVertex
100
AcDbPolygonMeshVertex
 10
1.215
 20
-11.390001
 30
3.81
 70
    64
  0
VERTEX
  5
8A853
100
AcDbEntity
  8
0
100
AcDbVertex
100
AcDbPolygonMeshVertex
 10
1.215
 20
-12.140001
 30
3.81
 70
    64
  0
SEQEND
  5
8A854
100
AcDbEntity
  8
0
  0
POLYLINE
  5
8A855
100
AcDbEntity
  8
0
100
AcDbPolygonMesh
 66
     1
 10
0.0
 20
0.0
 30
0.0
 70
    16
 71
     6
 72
     3
  0
VERTEX
  5
8A856
100
AcDbEntity
  8
0
100
AcDbVertex
100
AcDbPolygonMeshVertex
 10
1.215
 20
-10.750001
 30
3.31
 70
    64
  0
VERTEX
  5
8A857
100
AcDbEntity
  8
0
100
AcDbVertex
100
AcDbPolygonMeshVertex
 10
1.215
 20
-10.750001
 30
2.81
 70
    64
  0
VERTEX
  5
8A858
100
AcDbEntity
  8
0
100
AcDbVertex
100
AcDbPolygonMeshVertex
 10
1.215
 20
-10.750001
 30
2.81
 70
    64
  0
VERTEX
  5
8A859
100
AcDbEntity
  8
0
100
AcDbVertex
100
AcDbPolygonMeshVertex
 10
1.965
 20
-10.750001
 30
3.31
 70
    64
  0
VERTEX
  5
8A85A
100
AcDbEntity
  8
0
100
AcDbVertex
100
AcDbPolygonMeshVertex
 10
1.965
 20
-10.750001
 30
2.81
 70
    64
  0
VERTEX
  5
8A85B
100
AcDbEntity
  8
0
100
AcDbVertex
100
AcDbPolygonMeshVertex
 10
1.965
 20
-10.750001
 30
2.81
 70
    64
  0
VERTEX
  5
8A85C
100
AcDbEntity
  8
0
100
AcDbVertex
100
AcDbPolygonMeshVertex
 10
1.965
 20
-12.140001
 30
3.31
 70
    64
  0
VERTEX
  5
8A85D
100
AcDbEntity
  8
0
100
AcDbVertex
100
AcDbPolygonMeshVertex
 10
1.965
 20
-12.140001
 30
2.81
 70
    64
  0
VERTEX
  5
8A85E
100
AcDbEntity
  8
0
100
AcDbVertex
100
AcDbPolygonMeshVertex
 10
1.965
 20
-10.750001
 30
2.81
 70
    64
  0
VERTEX
  5
8A85F
100
AcDbEntity
  8
0
100
AcDbVertex
100
AcDbPolygonMeshVertex
 10
1.215
 20
-12.140001
 30
3.31
 70
    64
  0
VERTEX
  5
8A860
100
AcDbEntity
  8
0
100
AcDbVertex
100
AcDbPolygonMeshVertex
 10
1.215
 20
-12.140001
 30
2.81
 70
    64
  0
VERTEX
  5
8A861
100
AcDbEntity
  8
0
100
AcDbVertex
100
AcDbPolygonMeshVertex
 10
1.215
 20
-10.750001
 30
2.81
 70
    64
  0
VERTEX
  5
8A862
100
AcDbEntity
  8
0
100
AcDbVertex
100
AcDbPolygonMeshVertex
 10
1.215
 20
-12.140001
 30
3.31
 70
    64
  0
VERTEX
  5
8A863
100
AcDbEntity
  8
0
100
AcDbVertex
100
AcDbPolygonMeshVertex
 10
1.215
 20
-12.140001
 30
3.31
 70
    64
  0
VERTEX
  5
8A864
100
AcDbEntity
  8
0
100
AcDbVertex
100
AcDbPolygonMeshVertex
 10
1.215
 20
-10.750001
 30
3.31
 70
    64
  0
VERTEX
  5
8A865
100
AcDbEntity
  8
0
100
AcDbVertex
100
AcDbPolygonMeshVertex
 10
1.965
 20
-12.140001
 30
3.31
 70
    64
  0
VERTEX
  5
8A866
100
AcDbEntity
  8
0
100
AcDbVertex
100
AcDbPolygonMeshVertex
 10
1.965
 20
-12.140001
 30
3.31
 70
    64
  0
VERTEX
  5
8A867
100
AcDbEntity
  8
0
100
AcDbVertex
100
AcDbPolygonMeshVertex
 10
1.965
 20
-10.750001
 30
3.31
 70
    64
  0
SEQEND
  5
8A868
100
AcDbEntity
  8
0
  0
POLYLINE
  5
8A869
100
AcDbEntity
  8
0
100
AcDbPolygonMesh
 66
     1
 10
0.0
 20
0.0
 30
0.0
 70
    16
 71
     6
 72
     3
  0
VERTEX
  5
8A86A
100
AcDbEntity
  8
0
100
AcDbVertex
100
AcDbPolygonMeshVertex
 10
2.72
 20
-9.74
 30
0.19
 70
    64
  0
VERTEX
  5
8A86B
100
AcDbEntity
  8
0
100
AcDbVertex
100
AcDbPolygonMeshVertex
 10
2.72
 20
-9.74
 30
0.0
 70
    64
  0
VERTEX
  5
8A86C
100
AcDbEntity
  8
0
100
AcDbVertex
100
AcDbPolygonMeshVertex
 10
2.72
 20
-9.74
 30
0.0
 70
    64
  0
VERTEX
  5
8A86D
100
AcDbEntity
  8
0
100
AcDbVertex
100
AcDbPolygonMeshVertex
 10
-2.72
 20
-9.74
 30
0.19
 70
    64
  0
VERTEX
  5
8A86E
100
AcDbEntity
  8
0
100
AcDbVertex
100
AcDbPolygonMeshVertex
 10
-2.72
 20
-9.74
 30
0.0
 70
    64
  0
VERTEX
  5
8A86F
100
AcDbEntity
  8
0
100
AcDbVertex
100
AcDbPolygonMeshVertex
 10
-2.72
 20
-9.74
 30
0.0
 70
    64
  0
VERTEX
  5
8A870
100
AcDbEntity
  8
0
100
AcDbVertex
100
AcDbPolygonMeshVertex
 10
-2.72
 20
-1.16
 30
0.19
 70
    64
  0
VERTEX
  5
8A871
100
AcDbEntity
  8
0
100
AcDbVertex
100
AcDbPolygonMeshVertex
 10
-2.72
 20
-1.16
 30
0.0
 70
    64
  0
VERTEX
  5
8A872
100
AcDbEntity
  8
0
100
AcDbVertex
100
AcDbPolygonMeshVertex
 10
-2.72
 20
-9.74
 30
0.0
 70
    64
  0
VERTEX
  5
8A873
100
AcDbEntity
  8
0
100
AcDbVertex
100
AcDbPolygonMeshVertex
 10
2.72
 20
-1.16
 30
0.19
 70
    64
  0
VERTEX
  5
8A874
100
AcDbEntity
  8
0
100
AcDbVertex
100
AcDbPolygonMeshVertex
 10
2.72
 20
-1.16
 30
0.0
 70
    64
  0
VERTEX
  5
8A875
100
AcDbEntity
  8
0
100
AcDbVertex
100
AcDbPolygonMeshVertex
 10
2.72
 20
-9.74
 30
0.0
 70
    64
  0
VERTEX
  5
8A876
100
AcDbEntity
  8
0
100
AcDbVertex
100
AcDbPolygonMeshVertex
 10
2.72
 20
-1.16
 30
0.19
 70
    64
  0
VERTEX
  5
8A877
100
AcDbEntity
  8
0
100
AcDbVertex
100
AcDbPolygonMeshVertex
 10
2.72
 20
-1.16
 30
0.19
 70
    64
  0
VERTEX
  5
8A878
100
AcDbEntity
  8
0
100
AcDbVertex
100
AcDbPolygonMeshVertex
 10
2.72
 20
-9.74
 30
0.19
 70
    64
  0
VERTEX
  5
8A879
100
AcDbEntity
  8
0
100
AcDbVertex
100
AcDbPolygonMeshVertex
 10
-2.72
 20
-1.16
 30
0.19
 70
    64
  0
VERTEX
  5
8A87A
100
AcDbEntity
  8
0
100
AcDbVertex
100
AcDbPolygonMeshVertex
 10
-2.72
 20
-1.16
 30
0.19
 70
    64
  0
VERTEX
  5
8A87B
100
AcDbEntity
  8
0
100
AcDbVertex
100
AcDbPolygonMeshVertex
 10
-2.72
 20
-9.74
 30
0.19
 70
    64
  0
SEQEND
  5
8A87C
100
AcDbEntity
  8
0
  0
POLYLINE
  5
8A87D
100
AcDbEntity
  8
0
100
AcDbPolygonMesh
 66
     1
 10
0.0
 20
0.0
 30
0.0
 70
    16
 71
     6
 72
     3
  0
VERTEX
  5
8A87E
100
AcDbEntity
  8
0
100
AcDbVertex
100
AcDbPolygonMeshVertex
 10
2.44
 20
-4.5
 30
4.88
 70
    64
  0
VERTEX
  5
8A87F
100
AcDbEntity
  8
0
100
AcDbVertex
100
AcDbPolygonMeshVertex
 10
2.44
 20
-4.5
 30
0.19
 70
    64
  0
VERTEX
  5
8A880
100
AcDbEntity
  8
0
100
AcDbVertex
100
AcDbPolygonMeshVertex
 10
2.44
 20
-4.5
 30
0.19
 70
    64
  0
VERTEX
  5
8A881
100
AcDbEntity
  8
0
100
AcDbVertex
100
AcDbPolygonMeshVertex
 10
-2.44
 20
-4.5
 30
4.88
 70
    64
  0
VERTEX
  5
8A882
100
AcDbEntity
  8
0
100
AcDbVertex
100
AcDbPolygonMeshVertex
 10
-2.44
 20
-4.5
 30
0.19
 70
    64
  0
VERTEX
  5
8A883
100
AcDbEntity
  8
0
100
AcDbVertex
100
AcDbPolygonMeshVertex
 10
-2.44
 20
-4.5
 30
0.19
 70
    64
  0
VERTEX
  5
8A884
100
AcDbEntity
  8
0
100
AcDbVertex
100
AcDbPolygonMeshVertex
 10
-2.44
 20
-2.32
 30
4.88
 70
    64
  0
VERTEX
  5
8A885
100
AcDbEntity
  8
0
100
AcDbVertex
100
AcDbPolygonMeshVertex
 10
-2.44
 20
-2.32
 30
0.19
 70
    64
  0
VERTEX
  5
8A886
100
AcDbEntity
  8
0
100
AcDbVertex
100
AcDbPolygonMeshVertex
 10
-2.44
 20
-4.5
 30
0.19
 70
    64
  0
VERTEX
  5
8A887
100
AcDbEntity
  8
0
100
AcDbVertex
100
AcDbPolygonMeshVertex
 10
2.44
 20
-2.32
 30
4.88
 70
    64
  0
VERTEX
  5
8A888
100
AcDbEntity
  8
0
100
AcDbVertex
100
AcDbPolygonMeshVertex
 10
2.44
 20
-2.32
 30
0.19
 70
    64
  0
VERTEX
  5
8A889
100
AcDbEntity
  8
0
100
AcDbVertex
100
AcDbPolygonMeshVertex
 10
2.44
 20
-4.5
 30
0.19
 70
    64
  0
VERTEX
  5
8A88A
100
AcDbEntity
  8
0
100
AcDbVertex
100
AcDbPolygonMeshVertex
 10
2.44
 20
-2.32
 30
4.88
 70
    64
  0
VERTEX
  5
8A88B
100
AcDbEntity
  8
0
100
AcDbVertex
100
AcDbPolygonMeshVertex
 10
2.44
 20
-2.32
 30
4.88
 70
    64
  0
VERTEX
  5
8A88C
100
AcDbEntity
  8
0
100
AcDbVertex
100
AcDbPolygonMeshVertex
 10
2.44
 20
-4.5
 30
4.88
 70
    64
  0
VERTEX
  5
8A88D
100
AcDbEntity
  8
0
100
AcDbVertex
100
AcDbPolygonMeshVertex
 10
-2.44
 20
-2.32
 30
4.88
 70
    64
  0
VERTEX
  5
8A88E
100
AcDbEntity
  8
0
100
AcDbVertex
100
AcDbPolygonMeshVertex
 10
-2.44
 20
-2.32
 30
4.88
 70
    64
  0
VERTEX
  5
8A88F
100
AcDbEntity
  8
0
100
AcDbVertex
100
AcDbPolygonMeshVertex
 10
-2.44
 20
-4.5
 30
4.88
 70
    64
  0
SEQEND
  5
8A890
100
AcDbEntity
  8
0
  0
POLYLINE
  5
8A891
100
AcDbEntity
  8
0
100
AcDbPolygonMesh
 66
     1
 10
0.0
 20
0.0
 30
0.0
 70
    16
 71
     6
 72
     3
  0
VERTEX
  5
8A892
100
AcDbEntity
  8
0
100
AcDbVertex
100
AcDbPolygonMeshVertex
 10
2.75
 20
-8.5
 30
4.88
 70
    64
  0
VERTEX
  5
8A893
100
AcDbEntity
  8
0
100
AcDbVertex
100
AcDbPolygonMeshVertex
 10
2.75
 20
-8.5
 30
2.0
 70
    64
  0
VERTEX
  5
8A894
100
AcDbEntity
  8
0
100
AcDbVertex
100
AcDbPolygonMeshVertex
 10
2.75
 20
-8.5
 30
2.0
 70
    64
  0
VERTEX
  5
8A895
100
AcDbEntity
  8
0
100
AcDbVertex
100
AcDbPolygonMeshVertex
 10
-2.75
 20
-8.5
 30
4.88
 70
    64
  0
VERTEX
  5
8A896
100
AcDbEntity
  8
0
100
AcDbVertex
100
AcDbPolygonMeshVertex
 10
-2.75
 20
-8.5
 30
2.0
 70
    64
  0
VERTEX
  5
8A897
100
AcDbEntity
  8
0
100
AcDbVertex
100
AcDbPolygonMeshVertex
 10
-2.75
 20
-8.5
 30
2.0
 70
    64
  0
VERTEX
  5
8A898
100
AcDbEntity
  8
0
100
AcDbVertex
100
AcDbPolygonMeshVertex
 10
-2.75
 20
-4.56
 30
4.88
 70
    64
  0
VERTEX
  5
8A899
100
AcDbEntity
  8
0
100
AcDbVertex
100
AcDbPolygonMeshVertex
 10
-2.75
 20
-4.56
 30
2.0
 70
    64
  0
VERTEX
  5
8A89A
100
AcDbEntity
  8
0
100
AcDbVertex
100
AcDbPolygonMeshVertex
 10
-2.75
 20
-8.5
 30
2.0
 70
    64
  0
VERTEX
  5
8A89B
100
AcDbEntity
  8
0
100
AcDbVertex
100
AcDbPolygonMeshVertex
 10
2.75
 20
-4.56
 30
4.88
 70
    64
  0
VERTEX
  5
8A89C
100
AcDbEntity
  8
0
100
AcDbVertex
100
AcDbPolygonMeshVertex
 10
2.75
 20
-4.56
 30
2.0
 70
    64
  0
VERTEX
  5
8A89D
100
AcDbEntity
  8
0
100
AcDbVertex
100
AcDbPolygonMeshVertex
 10
2.75
 20
-8.5
 30
2.0
 70
    64
  0
VERTEX
  5
8A89E
100
AcDbEntity
  8
0
100
AcDbVertex
100
AcDbPolygonMeshVertex
 10
2.75
 20
-4.56
 30
4.88
 70
    64
  0
VERTEX
  5
8A89F
100
AcDbEntity
  8
0
100
AcDbVertex
100
AcDbPolygonMeshVertex
 10
2.75
 20
-4.56
 30
4.88
 70
    64
  0
VERTEX
  5
8A8A0
100
AcDbEntity
  8
0
100
AcDbVertex
100
AcDbPolygonMeshVertex
 10
2.75
 20
-8.5
 30
4.88
 70
    64
  0
VERTEX
  5
8A8A1
100
AcDbEntity
  8
0
100
AcDbVertex
100
AcDbPolygonMeshVertex
 10
-2.75
 20
-4.56
 30
4.88
 70
    64
  0
VERTEX
  5
8A8A2
100
AcDbEntity
  8
0
100
AcDbVertex
100
AcDbPolygonMeshVertex
 10
-2.75
 20
-4.56
 30
4.88
 70
    64
  0
VERTEX
  5
8A8A3
100
AcDbEntity
  8
0
100
AcDbVertex
100
AcDbPolygonMeshVertex
 10
-2.75
 20
-8.5
 30
4.88
 70
    64
  0
SEQEND
  5
8A8A4
100
AcDbEntity
  8
0
  0
POLYLINE
  5
8A8A5
100
AcDbEntity
  8
0
100
AcDbPolygonMesh
 66
     1
 10
0.0
 20
0.0
 30
0.0
 70
    16
 71
     6
 72
     3
  0
VERTEX
  5
8A8A6
100
AcDbEntity
  8
0
100
AcDbVertex
100
AcDbPolygonMeshVertex
 10
2.44
 20
-9.88
 30
1.0
 70
    64
  0
VERTEX
  5
8A8A7
100
AcDbEntity
  8
0
100
AcDbVertex
100
AcDbPolygonMeshVertex
 10
2.44
 20
-9.88
 30
0.19
 70
    64
  0
VERTEX
  5
8A8A8
100
AcDbEntity
  8
0
100
AcDbVertex
100
AcDbPolygonMeshVertex
 10
2.44
 20
-9.88
 30
0.19
 70
    64
  0
VERTEX
  5
8A8A9
100
AcDbEntity
  8
0
100
AcDbVertex
100
AcDbPolygonMeshVertex
 10
-2.44
 20
-9.88
 30
1.0
 70
    64
  0
VERTEX
  5
8A8AA
100
AcDbEntity
  8
0
100
AcDbVertex
100
AcDbPolygonMeshVertex
 10
-2.44
 20
-9.88
 30
0.19
 70
    64
  0
VERTEX
  5
8A8AB
100
AcDbEntity
  8
0
100
AcDbVertex
100
AcDbPolygonMeshVertex
 10
-2.44
 20
-9.88
 30
0.19
 70
    64
  0
VERTEX
  5
8A8AC
100
AcDbEntity
  8
0
100
AcDbVertex
100
AcDbPolygonMeshVertex
 10
-2.44
 20
-9.25
 30
1.0
 70
    64
  0
VERTEX
  5
8A8AD
100
AcDbEntity
  8
0
100
AcDbVertex
100
AcDbPolygonMeshVertex
 10
-2.44
 20
-9.25
 30
0.19
 70
    64
  0
VERTEX
  5
8A8AE
100
AcDbEntity
  8
0
100
AcDbVertex
100
AcDbPolygonMeshVertex
 10
-2.44
 20
-9.88
 30
0.19
 70
    64
  0
VERTEX
  5
8A8AF
100
AcDbEntity
  8
0
100
AcDbVertex
100
AcDbPolygonMeshVertex
 10
2.44
 20
-9.25
 30
1.0
 70
    64
  0
VERTEX
  5
8A8B0
100
AcDbEntity
  8
0
100
AcDbVertex
100
AcDbPolygonMeshVertex
 10
2.44
 20
-9.25
 30
0.19
 70
    64
  0
VERTEX
  5
8A8B1
100
AcDbEntity
  8
0
100
AcDbVertex
100
AcDbPolygonMeshVertex
 10
2.44
 20
-9.88
 30
0.19
 70
    64
  0
VERTEX
  5
8A8B2
100
AcDbEntity
  8
0
100
AcDbVertex
100
AcDbPolygonMeshVertex
 10
2.44
 20
-9.25
 30
1.0
 70
    64
  0
VERTEX
  5
8A8B3
100
AcDbEntity
  8
0
100
AcDbVertex
100
AcDbPolygonMeshVertex
 10
2.44
 20
-9.25
 30
1.0
 70
    64
  0
VERTEX
  5
8A8B4
100
AcDbEntity
  8
0
100
AcDbVertex
100
AcDbPolygonMeshVertex
 10
2.44
 20
-9.88
 30
1.0
 70
    64
  0
VERTEX
  5
8A8B5
100
AcDbEntity
  8
0
100
AcDbVertex
100
AcDbPolygonMeshVertex
 10
-2.44
 20
-9.25
 30
1.0
 70
    64
  0
VERTEX
  5
8A8B6
100
AcDbEntity
  8
0
100
AcDbVertex
100
AcDbPolygonMeshVertex
 10
-2.44
 20
-9.25
 30
1.0
 70
    64
  0
VERTEX
  5
8A8B7
100
AcDbEntity
  8
0
100
AcDbVertex
100
AcDbPolygonMeshVertex
 10
-2.44
 20
-9.88
 30
1.0
 70
    64
  0
SEQEND
  5
8A8B8
100
AcDbEntity
  8
0
  0
POLYLINE
  5
8A8B9
100
AcDbEntity
  8
0
100
AcDbPolygonMesh
 66
     1
 10
0.0
 20
0.0
 30
0.0
 70
    16
 71
     6
 72
     3
  0
VERTEX
  5
8A8BA
100
AcDbEntity
  8
0
100
AcDbVertex
100
AcDbPolygonMeshVertex
 10
2.44
 20
-9.25
 30
1.56
 70
    64
  0
VERTEX
  5
8A8BB
100
AcDbEntity
  8
0
100
AcDbVertex
100
AcDbPolygonMeshVertex
 10
2.44
 20
-9.25
 30
0.19
 70
    64
  0
VERTEX
  5
8A8BC
100
AcDbEntity
  8
0
100
AcDbVertex
100
AcDbPolygonMeshVertex
 10
2.44
 20
-9.25
 30
0.19
 70
    64
  0
VERTEX
  5
8A8BD
100
AcDbEntity
  8
0
100
AcDbVertex
100
AcDbPolygonMeshVertex
 10
-2.44
 20
-9.25
 30
1.56
 70
    64
  0
VERTEX
  5
8A8BE
100
AcDbEntity
  8
0
100
AcDbVertex
100
AcDbPolygonMeshVertex
 10
-2.44
 20
-9.25
 30
0.19
 70
    64
  0
VERTEX
  5
8A8BF
100
AcDbEntity
  8
0
100
AcDbVertex
100
AcDbPolygonMeshVertex
 10
-2.44
 20
-9.25
 30
0.19
 70
    64
  0
VERTEX
  5
8A8C0
100
AcDbEntity
  8
0
100
AcDbVertex
100
AcDbPolygonMeshVertex
 10
-2.44
 20
-8.94
 30
1.56
 70
    64
  0
VERTEX
  5
8A8C1
100
AcDbEntity
  8
0
100
AcDbVertex
100
AcDbPolygonMeshVertex
 10
-2.44
 20
-8.94
 30
0.19
 70
    64
  0
VERTEX
  5
8A8C2
100
AcDbEntity
  8
0
100
AcDbVertex
100
AcDbPolygonMeshVertex
 10
-2.44
 20
-9.25
 30
0.19
 70
    64
  0
VERTEX
  5
8A8C3
100
AcDbEntity
  8
0
100
AcDbVertex
100
AcDbPolygonMeshVertex
 10
2.44
 20
-8.94
 30
1.56
 70
    64
  0
VERTEX
  5
8A8C4
100
AcDbEntity
  8
0
100
AcDbVertex
100
AcDbPolygonMeshVertex
 10
2.44
 20
-8.94
 30
0.19
 70
    64
  0
VERTEX
  5
8A8C5
100
AcDbEntity
  8
0
100
AcDbVertex
100
AcDbPolygonMeshVertex
 10
2.44
 20
-9.25
 30
0.19
 70
    64
  0
VERTEX
  5
8A8C6
100
AcDbEntity
  8
0
100
AcDbVertex
100
AcDbPolygonMeshVertex
 10
2.44
 20
-8.94
 30
1.56
 70
    64
  0
VERTEX
  5
8A8C7
100
AcDbEntity
  8
0
100
AcDbVertex
100
AcDbPolygonMeshVertex
 10
2.44
 20
-8.94
 30
1.56
 70
    64
  0
VERTEX
  5
8A8C8
100
AcDbEntity
  8
0
100
AcDbVertex
100
AcDbPolygonMeshVertex
 10
2.44
 20
-9.25
 30
1.56
 70
    64
  0
VERTEX
  5
8A8C9
100
AcDbEntity
  8
0
100
AcDbVertex
100
AcDbPolygonMeshVertex
 10
-2.44
 20
-8.94
 30
1.56
 70
    64
  0
VERTEX
  5
8A8CA
100
AcDbEntity
  8
0
100
AcDbVertex
100
AcDbPolygonMeshVertex
 10
-2.44
 20
-8.94
 30
1.56
 70
    64
  0
VERTEX
  5
8A8CB
100
AcDbEntity
  8
0
100
AcDbVertex
100
AcDbPolygonMeshVertex
 10
-2.44
 20
-9.25
 30
1.56
 70
    64
  0
SEQEND
  5
8A8CC
100
AcDbEntity
  8
0
  0
POLYLINE
  5
8A8CD
100
AcDbEntity
  8
0
100
AcDbPolygonMesh
 66
     1
 10
0.0
 20
0.0
 30
0.0
 70
    16
 71
     6
 72
     3
  0
VERTEX
  5
8A8CE
100
AcDbEntity
  8
0
100
AcDbVertex
100
AcDbPolygonMeshVertex
 10
2.44
 20
-8.94
 30
2.0
 70
    64
  0
VERTEX
  5
8A8CF
100
AcDbEntity
  8
0
100
AcDbVertex
100
AcDbPolygonMeshVertex
 10
2.44
 20
-8.94
 30
0.19
 70
    64
  0
VERTEX
  5
8A8D0
100
AcDbEntity
  8
0
100
AcDbVertex
100
AcDbPolygonMeshVertex
 10
2.44
 20
-8.94
 30
0.19
 70
    64
  0
VERTEX
  5
8A8D1
100
AcDbEntity
  8
0
100
AcDbVertex
100
AcDbPolygonMeshVertex
 10
-2.44
 20
-8.94
 30
2.0
 70
    64
  0
VERTEX
  5
8A8D2
100
AcDbEntity
  8
0
100
AcDbVertex
100
AcDbPolygonMeshVertex
 10
-2.44
 20
-8.94
 30
0.19
 70
    64
  0
VERTEX
  5
8A8D3
100
AcDbEntity
  8
0
100
AcDbVertex
100
AcDbPolygonMeshVertex
 10
-2.44
 20
-8.94
 30
0.19
 70
    64
  0
VERTEX
  5
8A8D4
100
AcDbEntity
  8
0
100
AcDbVertex
100
AcDbPolygonMeshVertex
 10
-2.44
 20
-4.5
 30
2.0
 70
    64
  0
VERTEX
  5
8A8D5
100
AcDbEntity
  8
0
100
AcDbVertex
100
AcDbPolygonMeshVertex
 10
-2.44
 20
-4.5
 30
0.19
 70
    64
  0
VERTEX
  5
8A8D6
100
AcDbEntity
  8
0
100
AcDbVertex
100
AcDbPolygonMeshVertex
 10
-2.44
 20
-8.94
 30
0.19
 70
    64
  0
VERTEX
  5
8A8D7
100
AcDbEntity
  8
0
100
AcDbVertex
100
AcDbPolygonMeshVertex
 10
2.44
 20
-4.5
 30
2.0
 70
    64
  0
VERTEX
  5
8A8D8
100
AcDbEntity
  8
0
100
AcDbVertex
100
AcDbPolygonMeshVertex
 10
2.44
 20
-4.5
 30
0.19
 70
    64
  0
VERTEX
  5
8A8D9
100
AcDbEntity
  8
0
100
AcDbVertex
100
AcDbPolygonMeshVertex
 10
2.44
 20
-8.94
 30
0.19
 70
    64
  0
VERTEX
  5
8A8DA
100
AcDbEntity
  8
0
100
AcDbVertex
100
AcDbPolygonMeshVertex
 10
2.44
 20
-4.5
 30
2.0
 70
    64
  0
VERTEX
  5
8A8DB
100
AcDbEntity
  8
0
100
AcDbVertex
100
AcDbPolygonMeshVertex
 10
2.44
 20
-4.5
 30
2.0
 70
    64
  0
VERTEX
  5
8A8DC
100
AcDbEntity
  8
0
100
AcDbVertex
100
AcDbPolygonMeshVertex
 10
2.44
 20
-8.94
 30
2.0
 70
    64
  0
VERTEX
  5
8A8DD
100
AcDbEntity
  8
0
100
AcDbVertex
100
AcDbPolygonMeshVertex
 10
-2.44
 20
-4.5
 30
2.0
 70
    64
  0
VERTEX
  5
8A8DE
100
AcDbEntity
  8
0
100
AcDbVertex
100
AcDbPolygonMeshVertex
 10
-2.44
 20
-4.5
 30
2.0
 70
    64
  0
VERTEX
  5
8A8DF
100
AcDbEntity
  8
0
100
AcDbVertex
100
AcDbPolygonMeshVertex
 10
-2.44
 20
-8.94
 30
2.0
 70
    64
  0
SEQEND
  5
8A8E0
100
AcDbEntity
  8
0
  0
LINE
  5
8A8E1
100
AcDbEntity
  8
0
100
AcDbLine
 10
-2.44
 20
-8.94
 30
1.56
 11
-2.44
 21
-8.94
 31
0.19
  0
3DFACE
  5
8A8E2
100
AcDbEntity
  8
0
100
AcDbFace
 10
-3.06
 20
-7.74
 30
0.19
 11
-2.72
 21
-7.15
 31
0.19
 12
-2.72
 22
-7.15
 32
0.0
 13
-3.06
 23
-7.74
 33
0.0
  0
3DFACE
  5
8A8E3
100
AcDbEntity
  8
0
100
AcDbFace
 10
-2.72
 20
-7.15
 30
0.0
 11
-3.06
 21
-7.74
 31
0.0
 12
-3.06
 22
-8.98
 32
0.0
 13
-2.72
 23
-9.74
 33
0.0
  0
3DFACE
  5
8A8E4
100
AcDbEntity
  8
0
100
AcDbFace
 10
-2.72
 20
-7.15
 30
0.19
 11
-3.06
 21
-7.74
 31
0.19
 12
-3.06
 22
-8.98
 32
0.19
 13
-2.72
 23
-9.74
 33
0.19
  0
LINE
  5
8A8E5
100
AcDbEntity
  8
0
100
AcDbLine
 10
-2.72
 20
-7.15
 30
0.19
 11
-2.72
 21
-9.74
 31
0.19
  0
LINE
  5
8A8E6
100
AcDbEntity
  8
0
100
AcDbLine
 10
-2.72
 20
-7.15
 30
0.0
 11
-2.72
 21
-9.74
 31
0.0
  0
3DFACE
  5
8A8E7
100
AcDbEntity
  8
0
100
AcDbFace
 10
-3.06
 20
-8.98
 30
0.0
 11
-3.06
 21
-8.98
 31
0.19
 12
-3.06
 22
-7.74
 32
0.19
 13
-3.06
 23
-7.74
 33
0.0
  0
LINE
  5
8A8E8
100
AcDbEntity
  8
0
100
AcDbLine
 10
-2.44
 20
-8.5
 30
0.19
 11
-2.44
 21
-9.88
 31
0.19
  0
CIRCLE
  5
8A8E9
100
AcDbEntity
  8
0
100
AcDbCircle
 10
-2.76
 20
-8.66
 30
0.19
 40
0.14
  0
CIRCLE
  5
8A8EA
100
AcDbEntity
  8
0
100
AcDbCircle
 10
-2.76
 20
-8.66
 30
0.0
 40
0.14
  0
3DFACE
  5
8A8EB
100
AcDbEntity
  8
0
100
AcDbFace
 10
-2.72
 20
-9.74
 30
0.0
 11
-3.06
 21
-8.98
 31
0.0
 12
-3.06
 22
-8.98
 32
0.19
 13
-2.72
 23
-9.74
 33
0.19
  0
LINE
  5
8A8EC
100
AcDbEntity
  8
0
100
AcDbLine
 10
-2.62
 20
-8.66
 30
0.0
 11
-2.62
 21
-8.66
 31
0.19
  0
3DFACE
  5
8A8ED
100
AcDbEntity
  8
0
100
AcDbFace
 10
3.06
 20
-7.74
 30
0.19
 11
2.72
 21
-7.15
 31
0.19
 12
2.72
 22
-7.15
 32
0.0
 13
3.06
 23
-7.74
 33
0.0
  0
3DFACE
  5
8A8EE
100
AcDbEntity
  8
0
100
AcDbFace
 10
2.72
 20
-9.74
 30
0.0
 11
2.72
 21
-7.15
 31
0.0
 12
3.06
 22
-7.74
 32
0.0
 13
3.06
 23
-8.98
 33
0.0
  0
3DFACE
  5
8A8EF
100
AcDbEntity
  8
0
100
AcDbFace
 10
2.72
 20
-9.74
 30
0.19
 11
2.72
 21
-7.15
 31
0.19
 12
3.06
 22
-7.74
 32
0.19
 13
3.06
 23
-8.98
 33
0.19
  0
LINE
  5
8A8F0
100
AcDbEntity
  8
0
100
AcDbLine
 10
2.72
 20
-7.15
 30
0.0
 11
2.72
 21
-9.74
 31
0.0
  0
3DFACE
  5
8A8F1
100
AcDbEntity
  8
0
100
AcDbFace
 10
3.06
 20
-8.98
 30
0.0
 11
3.06
 21
-8.98
 31
0.19
 12
3.06
 22
-7.74
 32
0.19
 13
3.06
 23
-7.74
 33
0.0
  0
LINE
  5
8A8F2
100
AcDbEntity
  8
0
100
AcDbLine
 10
2.44
 20
-8.5
 30
0.19
 11
2.44
 21
-9.88
 31
0.19
  0
CIRCLE
  5
8A8F3
100
AcDbEntity
  8
0
100
AcDbCircle
 10
2.76
 20
-8.66
 30
0.19
 40
0.14
  0
CIRCLE
  5
8A8F4
100
AcDbEntity
  8
0
100
AcDbCircle
 10
2.76
 20
-8.66
 30
0.0
 40
0.14
  0
3DFACE
  5
8A8F5
100
AcDbEntity
  8
0
100
AcDbFace
 10
2.72
 20
-9.74
 30
0.0
 11
3.06
 21
-8.98
 31
0.0
 12
3.06
 22
-8.98
 32
0.19
 13
2.72
 23
-9.74
 33
0.19
  0
LINE
  5
8A8F6
100
AcDbEntity
  8
0
100
AcDbLine
 10
2.9
 20
-8.66
 30
0.0
 11
2.9
 21
-8.66
 31
0.19
  0
POLYLINE
  5
8A8F7
100
AcDbEntity
  8
0
100
AcDbPolygonMesh
 66
     1
 10
0.0
 20
0.0
 30
0.0
 70
    16
 71
     6
 72
     3
  0
VERTEX
  5
8A8F8
100
AcDbEntity
  8
0
100
AcDbVertex
100
AcDbPolygonMeshVertex
 10
1.0
 20
-6.5
 30
5.25
 70
    64
  0
VERTEX
  5
8A8F9
100
AcDbEntity
  8
0
100
AcDbVertex
100
AcDbPolygonMeshVertex
 10
1.0
 20
-6.5
 30
4.88
 70
    64
  0
VERTEX
  5
8A8FA
100
AcDbEntity
  8
0
100
AcDbVertex
100
AcDbPolygonMeshVertex
 10
1.0
 20
-6.5
 30
4.88
 70
    64
  0
VERTEX
  5
8A8FB
100
AcDbEntity
  8
0
100
AcDbVertex
100
AcDbPolygonMeshVertex
 10
-1.0
 20
-6.5
 30
5.25
 70
    64
  0
VERTEX
  5
8A8FC
100
AcDbEntity
  8
0
100
AcDbVertex
100
AcDbPolygonMeshVertex
 10
-1.0
 20
-6.5
 30
4.88
 70
    64
  0
VERTEX
  5
8A8FD
100
AcDbEntity
  8
0
100
AcDbVertex
100
AcDbPolygonMeshVertex
 10
-1.0
 20
-6.5
 30
4.88
 70
    64
  0
VERTEX
  5
8A8FE
100
AcDbEntity
  8
0
100
AcDbVertex
100
AcDbPolygonMeshVertex
 10
-1.0
 20
-5.5
 30
5.25
 70
    64
  0
VERTEX
  5
8A8FF
100
AcDbEntity
  8
0
100
AcDbVertex
100
AcDbPolygonMeshVertex
 10
-1.0
 20
-5.5
 30
4.88
 70
    64
  0
VERTEX
  5
8A900
100
AcDbEntity
  8
0
100
AcDbVertex
100
AcDbPolygonMeshVertex
 10
-1.0
 20
-6.5
 30
4.88
 70
    64
  0
VERTEX
  5
8A901
100
AcDbEntity
  8
0
100
AcDbVertex
100
AcDbPolygonMeshVertex
 10
1.0
 20
-5.5
 30
5.25
 70
    64
  0
VERTEX
  5
8A902
100
AcDbEntity
  8
0
100
AcDbVertex
100
AcDbPolygonMeshVertex
 10
1.0
 20
-5.5
 30
4.88
 70
    64
  0
VERTEX
  5
8A903
100
AcDbEntity
  8
0
100
AcDbVertex
100
AcDbPolygonMeshVertex
 10
1.0
 20
-6.5
 30
4.88
 70
    64
  0
VERTEX
  5
8A904
100
AcDbEntity
  8
0
100
AcDbVertex
100
AcDbPolygonMeshVertex
 10
1.0
 20
-5.5
 30
5.25
 70
    64
  0
VERTEX
  5
8A905
100
AcDbEntity
  8
0
100
AcDbVertex
100
AcDbPolygonMeshVertex
 10
1.0
 20
-5.5
 30
5.25
 70
    64
  0
VERTEX
  5
8A906
100
AcDbEntity
  8
0
100
AcDbVertex
100
AcDbPolygonMeshVertex
 10
1.0
 20
-6.5
 30
5.25
 70
    64
  0
VERTEX
  5
8A907
100
AcDbEntity
  8
0
100
AcDbVertex
100
AcDbPolygonMeshVertex
 10
-1.0
 20
-5.5
 30
5.25
 70
    64
  0
VERTEX
  5
8A908
100
AcDbEntity
  8
0
100
AcDbVertex
100
AcDbPolygonMeshVertex
 10
-1.0
 20
-5.5
 30
5.25
 70
    64
  0
VERTEX
  5
8A909
100
AcDbEntity
  8
0
100
AcDbVertex
100
AcDbPolygonMeshVertex
 10
-1.0
 20
-6.5
 30
5.25
 70
    64
  0
SEQEND
  5
8A90A
100
AcDbEntity
  8
0
  0
LINE
  5
8A90B
100
AcDbEntity
  8
0
100
AcDbLine
 10
-0.537299
 20
-5.821797
 30
5.69
 11
-0.452914
 21
-6.056818
 31
5.69
  0
LINE
  5
8A90C
100
AcDbEntity
  8
0
100
AcDbLine
 10
-0.552263
 20
-5.827579
 30
5.69
 11
-0.467878
 21
-6.0626
 31
5.69
  0
POLYLINE
  5
8A90D
100
AcDbEntity
  8
0
100
AcDbPolygonMesh
 66
     1
 10
0.0
 20
0.0
 30
0.0
 70
    16
 71
     6
 72
     3
  0
VERTEX
  5
8A90E
100
AcDbEntity
  8
0
100
AcDbVertex
100
AcDbPolygonMeshVertex
 10
-0.31
 20
-6.1
 30
5.69
 70
    64
  0
VERTEX
  5
8A90F
100
AcDbEntity
  8
0
100
AcDbVertex
100
AcDbPolygonMeshVertex
 10
-0.31
 20
-6.1
 30
5.25
 70
    64
  0
VERTEX
  5
8A910
100
AcDbEntity
  8
0
100
AcDbVertex
100
AcDbPolygonMeshVertex
 10
-0.31
 20
-6.1
 30
5.25
 70
    64
  0
VERTEX
  5
8A911
100
AcDbEntity
  8
0
100
AcDbVertex
100
AcDbPolygonMeshVertex
 10
-0.69
 20
-6.1
 30
5.69
 70
    64
  0
VERTEX
  5
8A912
100
AcDbEntity
  8
0
100
AcDbVertex
100
AcDbPolygonMeshVertex
 10
-0.69
 20
-6.1
 30
5.25
 70
    64
  0
VERTEX
  5
8A913
100
AcDbEntity
  8
0
100
AcDbVertex
100
AcDbPolygonMeshVertex
 10
-0.69
 20
-6.1
 30
5.25
 70
    64
  0
VERTEX
  5
8A914
100
AcDbEntity
  8
0
100
AcDbVertex
100
AcDbPolygonMeshVertex
 10
-0.69
 20
-5.6
 30
5.69
 70
    64
  0
VERTEX
  5
8A915
100
AcDbEntity
  8
0
100
AcDbVertex
100
AcDbPolygonMeshVertex
 10
-0.69
 20
-5.6
 30
5.25
 70
    64
  0
VERTEX
  5
8A916
100
AcDbEntity
  8
0
100
AcDbVertex
100
AcDbPolygonMeshVertex
 10
-0.69
 20
-6.1
 30
5.25
 70
    64
  0
VERTEX
  5
8A917
100
AcDbEntity
  8
0
100
AcDbVertex
100
AcDbPolygonMeshVertex
 10
-0.31
 20
-5.6
 30
5.69
 70
    64
  0
VERTEX
  5
8A918
100
AcDbEntity
  8
0
100
AcDbVertex
100
AcDbPolygonMeshVertex
 10
-0.31
 20
-5.6
 30
5.25
 70
    64
  0
VERTEX
  5
8A919
100
AcDbEntity
  8
0
100
AcDbVertex
100
AcDbPolygonMeshVertex
 10
-0.31
 20
-6.1
 30
5.25
 70
    64
  0
VERTEX
  5
8A91A
100
AcDbEntity
  8
0
100
AcDbVertex
100
AcDbPolygonMeshVertex
 10
-0.31
 20
-5.6
 30
5.69
 70
    64
  0
VERTEX
  5
8A91B
100
AcDbEntity
  8
0
100
AcDbVertex
100
AcDbPolygonMeshVertex
 10
-0.31
 20
-5.6
 30
5.69
 70
    64
  0
VERTEX
  5
8A91C
100
AcDbEntity
  8
0
100
AcDbVertex
100
AcDbPolygonMeshVertex
 10
-0.31
 20
-6.1
 30
5.69
 70
    64
  0
VERTEX
  5
8A91D
100
AcDbEntity
  8
0
100
AcDbVertex
100
AcDbPolygonMeshVertex
 10
-0.69
 20
-5.6
 30
5.69
 70
    64
  0
VERTEX
  5
8A91E
100
AcDbEntity
  8
0
100
AcDbVertex
100
AcDbPolygonMeshVertex
 10
-0.69
 20
-5.6
 30
5.69
 70
    64
  0
VERTEX
  5
8A91F
100
AcDbEntity
  8
0
100
AcDbVertex
100
AcDbPolygonMeshVertex
 10
-0.69
 20
-6.1
 30
5.69
 70
    64
  0
SEQEND
  5
8A920
100
AcDbEntity
  8
0
  0
CIRCLE
  5
8A921
100
AcDbEntity
  8
0
100
AcDbCircle
 10
-0.5
 20
-5.94
 30
5.69
 40
0.125
  0
POLYLINE
  5
8A922
100
AcDbEntity
  8
0
100
AcDbPolygonMesh
 66
     1
 10
0.0
 20
0.0
 30
0.0
 70
    16
 71
     6
 72
     3
  0
VERTEX
  5
8A923
100
AcDbEntity
  8
0
100
AcDbVertex
100
AcDbPolygonMeshVertex
 10
0.69
 20
-6.1
 30
5.69
 70
    64
  0
VERTEX
  5
8A924
100
AcDbEntity
  8
0
100
AcDbVertex
100
AcDbPolygonMeshVertex
 10
0.69
 20
-6.1
 30
5.25
 70
    64
  0
VERTEX
  5
8A925
100
AcDbEntity
  8
0
100
AcDbVertex
100
AcDbPolygonMeshVertex
 10
0.69
 20
-6.1
 30
5.25
 70
    64
  0
VERTEX
  5
8A926
100
AcDbEntity
  8
0
100
AcDbVertex
100
AcDbPolygonMeshVertex
 10
0.31
 20
-6.1
 30
5.69
 70
    64
  0
VERTEX
  5
8A927
100
AcDbEntity
  8
0
100
AcDbVertex
100
AcDbPolygonMeshVertex
 10
0.31
 20
-6.1
 30
5.25
 70
    64
  0
VERTEX
  5
8A928
100
AcDbEntity
  8
0
100
AcDbVertex
100
AcDbPolygonMeshVertex
 10
0.31
 20
-6.1
 30
5.25
 70
    64
  0
VERTEX
  5
8A929
100
AcDbEntity
  8
0
100
AcDbVertex
100
AcDbPolygonMeshVertex
 10
0.31
 20
-5.6
 30
5.69
 70
    64
  0
VERTEX
  5
8A92A
100
AcDbEntity
  8
0
100
AcDbVertex
100
AcDbPolygonMeshVertex
 10
0.31
 20
-5.6
 30
5.25
 70
    64
  0
VERTEX
  5
8A92B
100
AcDbEntity
  8
0
100
AcDbVertex
100
AcDbPolygonMeshVertex
 10
0.31
 20
-6.1
 30
5.25
 70
    64
  0
VERTEX
  5
8A92C
100
AcDbEntity
  8
0
100
AcDbVertex
100
AcDbPolygonMeshVertex
 10
0.69
 20
-5.6
 30
5.69
 70
    64
  0
VERTEX
  5
8A92D
100
AcDbEntity
  8
0
100
AcDbVertex
100
AcDbPolygonMeshVertex
 10
0.69
 20
-5.6
 30
5.25
 70
    64
  0
VERTEX
  5
8A92E
100
AcDbEntity
  8
0
100
AcDbVertex
100
AcDbPolygonMeshVertex
 10
0.69
 20
-6.1
 30
5.25
 70
    64
  0
VERTEX
  5
8A92F
100
AcDbEntity
  8
0
100
AcDbVertex
100
AcDbPolygonMeshVertex
 10
0.69
 20
-5.6
 30
5.69
 70
    64
  0
VERTEX
  5
8A930
100
AcDbEntity
  8
0
100
AcDbVertex
100
AcDbPolygonMeshVertex
 10
0.69
 20
-5.6
 30
5.69
 70
    64
  0
VERTEX
  5
8A931
100
AcDbEntity
  8
0
100
AcDbVertex
100
AcDbPolygonMeshVertex
 10
0.69
 20
-6.1
 30
5.69
 70
    64
  0
VERTEX
  5
8A932
100
AcDbEntity
  8
0
100
AcDbVertex
100
AcDbPolygonMeshVertex
 10
0.31
 20
-5.6
 30
5.69
 70
    64
  0
VERTEX
  5
8A933
100
AcDbEntity
  8
0
100
AcDbVertex
100
AcDbPolygonMeshVertex
 10
0.31
 20
-5.6
 30
5.69
 70
    64
  0
VERTEX
  5
8A934
100
AcDbEntity
  8
0
100
AcDbVertex
100
AcDbPolygonMeshVertex
 10
0.31
 20
-6.1
 30
5.69
 70
    64
  0
SEQEND
  5
8A935
100
AcDbEntity
  8
0
  0
LINE
  5
8A936
100
AcDbEntity
  8
0
100
AcDbLine
 10
0.447737
 20
-5.827579
 30
5.69
 11
0.532122
 21
-6.0626
 31
5.69
  0
CIRCLE
  5
8A937
100
AcDbEntity
  8
0
100
AcDbCircle
 10
0.5
 20
-5.94
 30
5.69
 40
0.125
  0
LINE
  5
8A938
100
AcDbEntity
  8
0
100
AcDbLine
 10
0.462701
 20
-5.821797
 30
5.69
 11
0.547086
 21
-6.056818
 31
5.69
  0
POLYLINE
  5
8A939
100
AcDbEntity
  8
0
100
AcDbPolygonMesh
 66
     1
 10
0.0
 20
0.0
 30
0.0
 70
    16
 71
     6
 72
     3
  0
VERTEX
  5
8A93A
100
AcDbEntity
  8
0
100
AcDbVertex
100
AcDbPolygonMeshVertex
 10
2.5
 20
-2.32
 30
5.5
 70
    64
  0
VERTEX
  5
8A93B
100
AcDbEntity
  8
0
100
AcDbVertex
100
AcDbPolygonMeshVertex
 10
2.5
 20
-2.32
 30
0.19
 70
    64
  0
VERTEX
  5
8A93C
100
AcDbEntity
  8
0
100
AcDbVertex
100
AcDbPolygonMeshVertex
 10
2.5
 20
-2.32
 30
0.19
 70
    64
  0
VERTEX
  5
8A93D
100
AcDbEntity
  8
0
100
AcDbVertex
100
AcDbPolygonMeshVertex
 10
-2.5
 20
-2.32
 30
5.5
 70
    64
  0
VERTEX
  5
8A93E
100
AcDbEntity
  8
0
100
AcDbVertex
100
AcDbPolygonMeshVertex
 10
-2.5
 20
-2.32
 30
0.19
 70
    64
  0
VERTEX
  5
8A93F
100
AcDbEntity
  8
0
100
AcDbVertex
100
AcDbPolygonMeshVertex
 10
-2.5
 20
-2.32
 30
0.19
 70
    64
  0
VERTEX
  5
8A940
100
AcDbEntity
  8
0
100
AcDbVertex
100
AcDbPolygonMeshVertex
 10
-2.5
 20
-1.32
 30
5.5
 70
    64
  0
VERTEX
  5
8A941
100
AcDbEntity
  8
0
100
AcDbVertex
100
AcDbPolygonMeshVertex
 10
-2.5
 20
-1.32
 30
0.19
 70
    64
  0
VERTEX
  5
8A942
100
AcDbEntity
  8
0
100
AcDbVertex
100
AcDbPolygonMeshVertex
 10
-2.5
 20
-2.32
 30
0.19
 70
    64
  0
VERTEX
  5
8A943
100
AcDbEntity
  8
0
100
AcDbVertex
100
AcDbPolygonMeshVertex
 10
2.5
 20
-1.32
 30
5.5
 70
    64
  0
VERTEX
  5
8A944
100
AcDbEntity
  8
0
100
AcDbVertex
100
AcDbPolygonMeshVertex
 10
2.5
 20
-1.32
 30
0.19
 70
    64
  0
VERTEX
  5
8A945
100
AcDbEntity
  8
0
100
AcDbVertex
100
AcDbPolygonMeshVertex
 10
2.5
 20
-2.32
 30
0.19
 70
    64
  0
VERTEX
  5
8A946
100
AcDbEntity
  8
0
100
AcDbVertex
100
AcDbPolygonMeshVertex
 10
2.5
 20
-1.32
 30
5.5
 70
    64
  0
VERTEX
  5
8A947
100
AcDbEntity
  8
0
100
AcDbVertex
100
AcDbPolygonMeshVertex
 10
2.5
 20
-1.32
 30
5.5
 70
    64
  0
VERTEX
  5
8A948
100
AcDbEntity
  8
0
100
AcDbVertex
100
AcDbPolygonMeshVertex
 10
2.5
 20
-2.32
 30
5.5
 70
    64
  0
VERTEX
  5
8A949
100
AcDbEntity
  8
0
100
AcDbVertex
100
AcDbPolygonMeshVertex
 10
-2.5
 20
-1.32
 30
5.5
 70
    64
  0
VERTEX
  5
8A94A
100
AcDbEntity
  8
0
100
AcDbVertex
100
AcDbPolygonMeshVertex
 10
-2.5
 20
-1.32
 30
5.5
 70
    64
  0
VERTEX
  5
8A94B
100
AcDbEntity
  8
0
100
AcDbVertex
100
AcDbPolygonMeshVertex
 10
-2.5
 20
-2.32
 30
5.5
 70
    64
  0
SEQEND
  5
8A94C
100
AcDbEntity
  8
0
  0
3DFACE
  5
8A94D
100
AcDbEntity
  8
0
100
AcDbFace
 10
1.69
 20
0.31
 30
0.19
 11
-1.69
 21
0.31
 31
0.19
 12
-1.69
 22
0.31
 32
0.0
 13
1.69
 23
0.31
 33
0.0
  0
3DFACE
  5
8A94E
100
AcDbEntity
  8
0
100
AcDbFace
 10
2.72
 20
-1.16
 30
0.0
 11
1.69
 21
0.31
 31
0.0
 12
-1.69
 22
0.31
 32
0.0
 13
-2.72
 23
-1.16
 33
0.0
  0
3DFACE
  5
8A94F
100
AcDbEntity
  8
0
100
AcDbFace
 10
2.72
 20
-1.16
 30
0.19
 11
1.69
 21
0.31
 31
0.19
 12
-1.69
 22
0.31
 32
0.19
 13
-2.72
 23
-1.16
 33
0.19
  0
POLYLINE
  5
8A950
100
AcDbEntity
  8
0
100
AcDbPolygonMesh
 66
     1
 10
0.0
 20
0.0
 30
0.0
 70
    16
 71
     6
 72
     3
  0
VERTEX
  5
8A951
100
AcDbEntity
  8
0
100
AcDbVertex
100
AcDbPolygonMeshVertex
 10
2.5
 20
-1.32
 30
0.84
 70
    64
  0
VERTEX
  5
8A952
100
AcDbEntity
  8
0
100
AcDbVertex
100
AcDbPolygonMeshVertex
 10
2.5
 20
-1.32
 30
0.19
 70
    64
  0
VERTEX
  5
8A953
100
AcDbEntity
  8
0
100
AcDbVertex
100
AcDbPolygonMeshVertex
 10
2.5
 20
-1.32
 30
0.19
 70
    64
  0
VERTEX
  5
8A954
100
AcDbEntity
  8
0
100
AcDbVertex
100
AcDbPolygonMeshVertex
 10
-2.5
 20
-1.32
 30
0.84
 70
    64
  0
VERTEX
  5
8A955
100
AcDbEntity
  8
0
100
AcDbVertex
100
AcDbPolygonMeshVertex
 10
-2.5
 20
-1.32
 30
0.19
 70
    64
  0
VERTEX
  5
8A956
100
AcDbEntity
  8
0
100
AcDbVertex
100
AcDbPolygonMeshVertex
 10
-2.5
 20
-1.32
 30
0.19
 70
    64
  0
VERTEX
  5
8A957
100
AcDbEntity
  8
0
100
AcDbVertex
100
AcDbPolygonMeshVertex
 10
-2.5
 20
-0.94
 30
0.84
 70
    64
  0
VERTEX
  5
8A958
100
AcDbEntity
  8
0
100
AcDbVertex
100
AcDbPolygonMeshVertex
 10
-2.5
 20
-0.94
 30
0.19
 70
    64
  0
VERTEX
  5
8A959
100
AcDbEntity
  8
0
100
AcDbVertex
100
AcDbPolygonMeshVertex
 10
-2.5
 20
-1.32
 30
0.19
 70
    64
  0
VERTEX
  5
8A95A
100
AcDbEntity
  8
0
100
AcDbVertex
100
AcDbPolygonMeshVertex
 10
2.5
 20
-0.94
 30
0.84
 70
    64
  0
VERTEX
  5
8A95B
100
AcDbEntity
  8
0
100
AcDbVertex
100
AcDbPolygonMeshVertex
 10
2.5
 20
-0.94
 30
0.19
 70
    64
  0
VERTEX
  5
8A95C
100
AcDbEntity
  8
0
100
AcDbVertex
100
AcDbPolygonMeshVertex
 10
2.5
 20
-1.32
 30
0.19
 70
    64
  0
VERTEX
  5
8A95D
100
AcDbEntity
  8
0
100
AcDbVertex
100
AcDbPolygonMeshVertex
 10
2.5
 20
-0.94
 30
0.84
 70
    64
  0
VERTEX
  5
8A95E
100
AcDbEntity
  8
0
100
AcDbVertex
100
AcDbPolygonMeshVertex
 10
2.5
 20
-0.94
 30
0.84
 70
    64
  0
VERTEX
  5
8A95F
100
AcDbEntity
  8
0
100
AcDbVertex
100
AcDbPolygonMeshVertex
 10
2.5
 20
-1.32
 30
0.84
 70
    64
  0
VERTEX
  5
8A960
100
AcDbEntity
  8
0
100
AcDbVertex
100
AcDbPolygonMeshVertex
 10
-2.5
 20
-0.94
 30
0.84
 70
    64
  0
VERTEX
  5
8A961
100
AcDbEntity
  8
0
100
AcDbVertex
100
AcDbPolygonMeshVertex
 10
-2.5
 20
-0.94
 30
0.84
 70
    64
  0
VERTEX
  5
8A962
100
AcDbEntity
  8
0
100
AcDbVertex
100
AcDbPolygonMeshVertex
 10
-2.5
 20
-1.32
 30
0.84
 70
    64
  0
SEQEND
  5
8A963
100
AcDbEntity
  8
0
  0
3DFACE
  5
8A964
100
AcDbEntity
  8
0
100
AcDbFace
 10
-1.69
 20
0.31
 30
0.0
 11
-1.69
 21
0.31
 31
0.19
 12
-2.72
 22
-1.16
 32
0.19
 13
-2.72
 23
-1.16
 33
0.0
  0
ARC
  5
8A965
100
AcDbEntity
  8
0
100
AcDbCircle
 10
0.0
 20
0.0
 30
0.19
 40
0.14
100
AcDbArc
 50
0.0
 51
179.999985
  0
ARC
  5
8A966
100
AcDbEntity
  8
0
100
AcDbCircle
 10
0.0
 20
0.0
 30
0.0
 40
0.14
100
AcDbArc
 50
0.0
 51
179.999985
  0
CIRCLE
  5
8A967
100
AcDbEntity
  8
0
100
AcDbCircle
 10
0.78
 20
0.0
 30
0.19
 40
0.14
  0
CIRCLE
  5
8A968
100
AcDbEntity
  8
0
100
AcDbCircle
 10
0.78
 20
0.0
 30
0.0
 40
0.14
  0
LINE
  5
8A969
100
AcDbEntity
  8
0
100
AcDbLine
 10
0.28
 20
-0.44
 30
0.19
 11
0.28
 21
-0.75
 31
0.19
  0
LINE
  5
8A96A
100
AcDbEntity
  8
0
100
AcDbLine
 10
0.28
 20
-0.44
 30
0.0
 11
0.28
 21
-0.75
 31
0.0
  0
LINE
  5
8A96B
100
AcDbEntity
  8
0
100
AcDbLine
 10
-0.28
 20
-0.44
 30
0.19
 11
-0.28
 21
-0.75
 31
0.19
  0
LINE
  5
8A96C
100
AcDbEntity
  8
0
100
AcDbLine
 10
-0.28
 20
-0.44
 30
0.0
 11
-0.28
 21
-0.75
 31
0.0
  0
LINE
  5
8A96D
100
AcDbEntity
  8
0
100
AcDbLine
 10
0.28
 20
-0.75
 30
0.0
 11
0.28
 21
-0.75
 31
0.19
  0
LINE
  5
8A96E
100
AcDbEntity
  8
0
100
AcDbLine
 10
-0.28
 20
-0.75
 30
0.0
 11
-0.28
 21
-0.75
 31
0.19
  0
LINE
  5
8A96F
100
AcDbEntity
  8
0
100
AcDbLine
 10
-0.28
 20
-0.75
 30
0.0
 11
0.28
 21
-0.75
 31
0.0
  0
LINE
  5
8A970
100
AcDbEntity
  8
0
100
AcDbLine
 10
-0.28
 20
-0.75
 30
0.19
 11
0.28
 21
-0.75
 31
0.19
  0
LINE
  5
8A971
100
AcDbEntity
  8
0
100
AcDbLine
 10
0.14
 20
0.0
 30
0.0
 11
0.14
 21
0.0
 31
0.19
  0
LINE
  5
8A972
100
AcDbEntity
  8
0
100
AcDbLine
 10
0.139682
 20
0.008359
 30
0.0
 11
0.139682
 21
0.008359
 31
0.19
  0
LINE
  5
8A973
100
AcDbEntity
  8
0
100
AcDbLine
 10
-0.14
 20
0.0
 30
0.0
 11
-0.14
 21
0.0
 31
0.19
  0
LINE
  5
8A974
100
AcDbEntity
  8
0
100
AcDbLine
 10
0.28
 20
-0.44
 30
0.0
 11
0.28
 21
-0.44
 31
0.19
  0
LINE
  5
8A975
100
AcDbEntity
  8
0
100
AcDbLine
 10
0.139682
 20
-0.197329
 30
0.0
 11
0.139682
 21
-0.197329
 31
0.19
  0
LINE
  5
8A976
100
AcDbEntity
  8
0
100
AcDbLine
 10
-0.14
 20
-0.197513
 30
0.0
 11
-0.14
 21
-0.197513
 31
0.19
  0
LINE
  5
8A977
100
AcDbEntity
  8
0
100
AcDbLine
 10
-0.28
 20
-0.44
 30
0.0
 11
-0.28
 21
-0.44
 31
0.19
  0
ARC
  5
8A978
100
AcDbEntity
  8
0
100
AcDbCircle
 10
0.0
 20
-0.44
 30
0.0
 40
0.28
100
AcDbArc
 50
120.0
 51
179.999985
  0
LINE
  5
8A979
100
AcDbEntity
  8
0
100
AcDbLine
 10
-0.14
 20
0.0
 30
0.0
 11
-0.14
 21
-0.197513
 31
0.0
  0
ARC
  5
8A97A
100
AcDbEntity
  8
0
100
AcDbCircle
 10
0.0
 20
-0.44
 30
0.0
 40
0.28
100
AcDbArc
 50
0.0
 51
60.075146
  0
LINE
  5
8A97B
100
AcDbEntity
  8
0
100
AcDbLine
 10
0.139682
 20
0.008359
 30
0.0
 11
0.139682
 21
-0.197329
 31
0.0
  0
ARC
  5
8A97C
100
AcDbEntity
  8
0
100
AcDbCircle
 10
0.0
 20
-0.44
 30
0.19
 40
0.28
100
AcDbArc
 50
120.0
 51
179.999985
  0
LINE
  5
8A97D
100
AcDbEntity
  8
0
100
AcDbLine
 10
-0.14
 20
0.0
 30
0.19
 11
-0.14
 21
-0.197513
 31
0.19
  0
ARC
  5
8A97E
100
AcDbEntity
  8
0
100
AcDbCircle
 10
0.0
 20
-0.44
 30
0.19
 40
0.28
100
AcDbArc
 50
0.0
 51
60.075146
  0
LINE
  5
8A97F
100
AcDbEntity
  8
0
100
AcDbLine
 10
0.139682
 20
0.008359
 30
0.19
 11
0.139682
 21
-0.197329
 31
0.19
  0
LINE
  5
8A980
100
AcDbEntity
  8
0
100
AcDbLine
 10
0.92
 20
0.0
 30
0.0
 11
0.92
 21
0.0
 31
0.19
  0
3DFACE
  5
8A981
100
AcDbEntity
  8
0
100
AcDbFace
 10
2.72
 20
-1.16
 30
0.0
 11
2.72
 21
-1.16
 31
0.19
 12
1.69
 22
0.31
 32
0.19
 13
1.69
 23
0.31
 33
0.0
  0
CIRCLE
  5
8A982
100
AcDbEntity
  8
0
100
AcDbCircle
 10
1.59
 20
-1.065
 30
6.5
 40
0.22
  0
POLYLINE
  5
8A983
100
AcDbEntity
  8
0
100
AcDbPolygonMesh
 66
     1
 10
0.0
 20
0.0
 30
0.0
 70
    16
 71
     6
 72
     3
  0
VERTEX
  5
8A984
100
AcDbEntity
  8
0
100
AcDbVertex
100
AcDbPolygonMeshVertex
 10
1.965
 20
-2.32
 30
6.0
 70
    64
  0
VERTEX
  5
8A985
100
AcDbEntity
  8
0
100
AcDbVertex
100
AcDbPolygonMeshVertex
 10
1.965
 20
-2.32
 30
5.5
 70
    64
  0
VERTEX
  5
8A986
100
AcDbEntity
  8
0
100
AcDbVertex
100
AcDbPolygonMeshVertex
 10
1.965
 20
-2.32
 30
5.5
 70
    64
  0
VERTEX
  5
8A987
100
AcDbEntity
  8
0
100
AcDbVertex
100
AcDbPolygonMeshVertex
 10
1.215
 20
-2.32
 30
6.0
 70
    64
  0
VERTEX
  5
8A988
100
AcDbEntity
  8
0
100
AcDbVertex
100
AcDbPolygonMeshVertex
 10
1.215
 20
-2.32
 30
5.5
 70
    64
  0
VERTEX
  5
8A989
100
AcDbEntity
  8
0
100
AcDbVertex
100
AcDbPolygonMeshVertex
 10
1.215
 20
-2.32
 30
5.5
 70
    64
  0
VERTEX
  5
8A98A
100
AcDbEntity
  8
0
100
AcDbVertex
100
AcDbPolygonMeshVertex
 10
1.215
 20
-0.69
 30
6.0
 70
    64
  0
VERTEX
  5
8A98B
100
AcDbEntity
  8
0
100
AcDbVertex
100
AcDbPolygonMeshVertex
 10
1.215
 20
-0.69
 30
5.5
 70
    64
  0
VERTEX
  5
8A98C
100
AcDbEntity
  8
0
100
AcDbVertex
100
AcDbPolygonMeshVertex
 10
1.215
 20
-2.32
 30
5.5
 70
    64
  0
VERTEX
  5
8A98D
100
AcDbEntity
  8
0
100
AcDbVertex
100
AcDbPolygonMeshVertex
 10
1.965
 20
-0.69
 30
6.0
 70
    64
  0
VERTEX
  5
8A98E
100
AcDbEntity
  8
0
100
AcDbVertex
100
AcDbPolygonMeshVertex
 10
1.965
 20
-0.69
 30
5.5
 70
    64
  0
VERTEX
  5
8A98F
100
AcDbEntity
  8
0
100
AcDbVertex
100
AcDbPolygonMeshVertex
 10
1.965
 20
-2.32
 30
5.5
 70
    64
  0
VERTEX
  5
8A990
100
AcDbEntity
  8
0
100
AcDbVertex
100
AcDbPolygonMeshVertex
 10
1.965
 20
-0.69
 30
6.0
 70
    64
  0
VERTEX
  5
8A991
100
AcDbEntity
  8
0
100
AcDbVertex
100
AcDbPolygonMeshVertex
 10
1.965
 20
-0.69
 30
6.0
 70
    64
  0
VERTEX
  5
8A992
100
AcDbEntity
  8
0
100
AcDbVertex
100
AcDbPolygonMeshVertex
 10
1.965
 20
-2.32
 30
6.0
 70
    64
  0
VERTEX
  5
8A993
100
AcDbEntity
  8
0
100
AcDbVertex
100
AcDbPolygonMeshVertex
 10
1.215
 20
-0.69
 30
6.0
 70
    64
  0
VERTEX
  5
8A994
100
AcDbEntity
  8
0
100
AcDbVertex
100
AcDbPolygonMeshVertex
 10
1.215
 20
-0.69
 30
6.0
 70
    64
  0
VERTEX
  5
8A995
100
AcDbEntity
  8
0
100
AcDbVertex
100
AcDbPolygonMeshVertex
 10
1.215
 20
-2.32
 30
6.0
 70
    64
  0
SEQEND
  5
8A996
100
AcDbEntity
  8
0
  0
POLYLINE
  5
8A997
100
AcDbEntity
  8
0
100
AcDbPolygonMesh
 66
     1
 10
0.0
 20
0.0
 30
0.0
 70
    16
 71
     6
 72
     3
  0
VERTEX
  5
8A998
100
AcDbEntity
  8
0
100
AcDbVertex
100
AcDbPolygonMeshVertex
 10
1.965
 20
-1.44
 30
6.5
 70
    64
  0
VERTEX
  5
8A999
100
AcDbEntity
  8
0
100
AcDbVertex
100
AcDbPolygonMeshVertex
 10
1.965
 20
-1.44
 30
6.0
 70
    64
  0
VERTEX
  5
8A99A
100
AcDbEntity
  8
0
100
AcDbVertex
100
AcDbPolygonMeshVertex
 10
1.965
 20
-1.44
 30
6.0
 70
    64
  0
VERTEX
  5
8A99B
100
AcDbEntity
  8
0
100
AcDbVertex
100
AcDbPolygonMeshVertex
 10
1.215
 20
-1.44
 30
6.5
 70
    64
  0
VERTEX
  5
8A99C
100
AcDbEntity
  8
0
100
AcDbVertex
100
AcDbPolygonMeshVertex
 10
1.215
 20
-1.44
 30
6.0
 70
    64
  0
VERTEX
  5
8A99D
100
AcDbEntity
  8
0
100
AcDbVertex
100
AcDbPolygonMeshVertex
 10
1.215
 20
-1.44
 30
6.0
 70
    64
  0
VERTEX
  5
8A99E
100
AcDbEntity
  8
0
100
AcDbVertex
100
AcDbPolygonMeshVertex
 10
1.215
 20
-0.69
 30
6.5
 70
    64
  0
VERTEX
  5
8A99F
100
AcDbEntity
  8
0
100
AcDbVertex
100
AcDbPolygonMeshVertex
 10
1.215
 20
-0.69
 30
6.0
 70
    64
  0
VERTEX
  5
8A9A0
100
AcDbEntity
  8
0
100
AcDbVertex
100
AcDbPolygonMeshVertex
 10
1.215
 20
-1.44
 30
6.0
 70
    64
  0
VERTEX
  5
8A9A1
100
AcDbEntity
  8
0
100
AcDbVertex
100
AcDbPolygonMeshVertex
 10
1.965
 20
-0.69
 30
6.5
 70
    64
  0
VERTEX
  5
8A9A2
100
AcDbEntity
  8
0
100
AcDbVertex
100
AcDbPolygonMeshVertex
 10
1.965
 20
-0.69
 30
6.0
 70
    64
  0
VERTEX
  5
8A9A3
100
AcDbEntity
  8
0
100
AcDbVertex
100
AcDbPolygonMeshVertex
 10
1.965
 20
-1.44
 30
6.0
 70
    64
  0
VERTEX
  5
8A9A4
100
AcDbEntity
  8
0
100
AcDbVertex
100
AcDbPolygonMeshVertex
 10
1.965
 20
-0.69
 30
6.5
 70
    64
  0
VERTEX
  5
8A9A5
100
AcDbEntity
  8
0
100
AcDbVertex
100
AcDbPolygonMeshVertex
 10
1.965
 20
-0.69
 30
6.5
 70
    64
  0
VERTEX
  5
8A9A6
100
AcDbEntity
  8
0
100
AcDbVertex
100
AcDbPolygonMeshVertex
 10
1.965
 20
-1.44
 30
6.5
 70
    64
  0
VERTEX
  5
8A9A7
100
AcDbEntity
  8
0
100
AcDbVertex
100
AcDbPolygonMeshVertex
 10
1.215
 20
-0.69
 30
6.5
 70
    64
  0
VERTEX
  5
8A9A8
100
AcDbEntity
  8
0
100
AcDbVertex
100
AcDbPolygonMeshVertex
 10
1.215
 20
-0.69
 30
6.5
 70
    64
  0
VERTEX
  5
8A9A9
100
AcDbEntity
  8
0
100
AcDbVertex
100
AcDbPolygonMeshVertex
 10
1.215
 20
-1.44
 30
6.5
 70
    64
  0
SEQEND
  5
8A9AA
100
AcDbEntity
  8
0
  0
POLYLINE
  5
8A9AB
100
AcDbEntity
  8
0
100
AcDbPolygonMesh
 66
     1
 10
0.0
 20
0.0
 30
0.0
 70
    16
 71
     6
 72
     3
  0
VERTEX
  5
8A9AC
100
AcDbEntity
  8
0
100
AcDbVertex
100
AcDbPolygonMeshVertex
 10
0.375
 20
-1.44
 30
6.5
 70
    64
  0
VERTEX
  5
8A9AD
100
AcDbEntity
  8
0
100
AcDbVertex
100
AcDbPolygonMeshVertex
 10
0.375
 20
-1.44
 30
6.0
 70
    64
  0
VERTEX
  5
8A9AE
100
AcDbEntity
  8
0
100
AcDbVertex
100
AcDbPolygonMeshVertex
 10
0.375
 20
-1.44
 30
6.0
 70
    64
  0
VERTEX
  5
8A9AF
100
AcDbEntity
  8
0
100
AcDbVertex
100
AcDbPolygonMeshVertex
 10
-0.375
 20
-1.44
 30
6.5
 70
    64
  0
VERTEX
  5
8A9B0
100
AcDbEntity
  8
0
100
AcDbVertex
100
AcDbPolygonMeshVertex
 10
-0.375
 20
-1.44
 30
6.0
 70
    64
  0
VERTEX
  5
8A9B1
100
AcDbEntity
  8
0
100
AcDbVertex
100
AcDbPolygonMeshVertex
 10
-0.375
 20
-1.44
 30
6.0
 70
    64
  0
VERTEX
  5
8A9B2
100
AcDbEntity
  8
0
100
AcDbVertex
100
AcDbPolygonMeshVertex
 10
-0.375
 20
-0.69
 30
6.5
 70
    64
  0
VERTEX
  5
8A9B3
100
AcDbEntity
  8
0
100
AcDbVertex
100
AcDbPolygonMeshVertex
 10
-0.375
 20
-0.69
 30
6.0
 70
    64
  0
VERTEX
  5
8A9B4
100
AcDbEntity
  8
0
100
AcDbVertex
100
AcDbPolygonMeshVertex
 10
-0.375
 20
-1.44
 30
6.0
 70
    64
  0
VERTEX
  5
8A9B5
100
AcDbEntity
  8
0
100
AcDbVertex
100
AcDbPolygonMeshVertex
 10
0.375
 20
-0.69
 30
6.5
 70
    64
  0
VERTEX
  5
8A9B6
100
AcDbEntity
  8
0
100
AcDbVertex
100
AcDbPolygonMeshVertex
 10
0.375
 20
-0.69
 30
6.0
 70
    64
  0
VERTEX
  5
8A9B7
100
AcDbEntity
  8
0
100
AcDbVertex
100
AcDbPolygonMeshVertex
 10
0.375
 20
-1.44
 30
6.0
 70
    64
  0
VERTEX
  5
8A9B8
100
AcDbEntity
  8
0
100
AcDbVertex
100
AcDbPolygonMeshVertex
 10
0.375
 20
-0.69
 30
6.5
 70
    64
  0
VERTEX
  5
8A9B9
100
AcDbEntity
  8
0
100
AcDbVertex
100
AcDbPolygonMeshVertex
 10
0.375
 20
-0.69
 30
6.5
 70
    64
  0
VERTEX
  5
8A9BA
100
AcDbEntity
  8
0
100
AcDbVertex
100
AcDbPolygonMeshVertex
 10
0.375
 20
-1.44
 30
6.5
 70
    64
  0
VERTEX
  5
8A9BB
100
AcDbEntity
  8
0
100
AcDbVertex
100
AcDbPolygonMeshVertex
 10
-0.375
 20
-0.69
 30
6.5
 70
    64
  0
VERTEX
  5
8A9BC
100
AcDbEntity
  8
0
100
AcDbVertex
100
AcDbPolygonMeshVertex
 10
-0.375
 20
-0.69
 30
6.5
 70
    64
  0
VERTEX
  5
8A9BD
100
AcDbEntity
  8
0
100
AcDbVertex
100
AcDbPolygonMeshVertex
 10
-0.375
 20
-1.44
 30
6.5
 70
    64
  0
SEQEND
  5
8A9BE
100
AcDbEntity
  8
0
  0
POLYLINE
  5
8A9BF
100
AcDbEntity
  8
0
100
AcDbPolygonMesh
 66
     1
 10
0.0
 20
0.0
 30
0.0
 70
    16
 71
     6
 72
     3
  0
VERTEX
  5
8A9C0
100
AcDbEntity
  8
0
100
AcDbVertex
100
AcDbPolygonMeshVertex
 10
-1.215
 20
-1.44
 30
6.5
 70
    64
  0
VERTEX
  5
8A9C1
100
AcDbEntity
  8
0
100
AcDbVertex
100
AcDbPolygonMeshVertex
 10
-1.215
 20
-1.44
 30
6.0
 70
    64
  0
VERTEX
  5
8A9C2
100
AcDbEntity
  8
0
100
AcDbVertex
100
AcDbPolygonMeshVertex
 10
-1.215
 20
-1.44
 30
6.0
 70
    64
  0
VERTEX
  5
8A9C3
100
AcDbEntity
  8
0
100
AcDbVertex
100
AcDbPolygonMeshVertex
 10
-1.965
 20
-1.44
 30
6.5
 70
    64
  0
VERTEX
  5
8A9C4
100
AcDbEntity
  8
0
100
AcDbVertex
100
AcDbPolygonMeshVertex
 10
-1.965
 20
-1.44
 30
6.0
 70
    64
  0
VERTEX
  5
8A9C5
100
AcDbEntity
  8
0
100
AcDbVertex
100
AcDbPolygonMeshVertex
 10
-1.965
 20
-1.44
 30
6.0
 70
    64
  0
VERTEX
  5
8A9C6
100
AcDbEntity
  8
0
100
AcDbVertex
100
AcDbPolygonMeshVertex
 10
-1.965
 20
-0.69
 30
6.5
 70
    64
  0
VERTEX
  5
8A9C7
100
AcDbEntity
  8
0
100
AcDbVertex
100
AcDbPolygonMeshVertex
 10
-1.965
 20
-0.69
 30
6.0
 70
    64
  0
VERTEX
  5
8A9C8
100
AcDbEntity
  8
0
100
AcDbVertex
100
AcDbPolygonMeshVertex
 10
-1.965
 20
-1.44
 30
6.0
 70
    64
  0
VERTEX
  5
8A9C9
100
AcDbEntity
  8
0
100
AcDbVertex
100
AcDbPolygonMeshVertex
 10
-1.215
 20
-0.69
 30
6.5
 70
    64
  0
VERTEX
  5
8A9CA
100
AcDbEntity
  8
0
100
AcDbVertex
100
AcDbPolygonMeshVertex
 10
-1.215
 20
-0.69
 30
6.0
 70
    64
  0
VERTEX
  5
8A9CB
100
AcDbEntity
  8
0
100
AcDbVertex
100
AcDbPolygonMeshVertex
 10
-1.215
 20
-1.44
 30
6.0
 70
    64
  0
VERTEX
  5
8A9CC
100
AcDbEntity
  8
0
100
AcDbVertex
100
AcDbPolygonMeshVertex
 10
-1.215
 20
-0.69
 30
6.5
 70
    64
  0
VERTEX
  5
8A9CD
100
AcDbEntity
  8
0
100
AcDbVertex
100
AcDbPolygonMeshVertex
 10
-1.215
 20
-0.69
 30
6.5
 70
    64
  0
VERTEX
  5
8A9CE
100
AcDbEntity
  8
0
100
AcDbVertex
100
AcDbPolygonMeshVertex
 10
-1.215
 20
-1.44
 30
6.5
 70
    64
  0
VERTEX
  5
8A9CF
100
AcDbEntity
  8
0
100
AcDbVertex
100
AcDbPolygonMeshVertex
 10
-1.965
 20
-0.69
 30
6.5
 70
    64
  0
VERTEX
  5
8A9D0
100
AcDbEntity
  8
0
100
AcDbVertex
100
AcDbPolygonMeshVertex
 10
-1.965
 20
-0.69
 30
6.5
 70
    64
  0
VERTEX
  5
8A9D1
100
AcDbEntity
  8
0
100
AcDbVertex
100
AcDbPolygonMeshVertex
 10
-1.965
 20
-1.44
 30
6.5
 70
    64
  0
SEQEND
  5
8A9D2
100
AcDbEntity
  8
0
  0
POLYLINE
  5
8A9D3
100
AcDbEntity
  8
0
100
AcDbPolygonMesh
 66
     1
 10
0.0
 20
0.0
 30
0.0
 70
    16
 71
     6
 72
     3
  0
VERTEX
  5
8A9D4
100
AcDbEntity
  8
0
100
AcDbVertex
100
AcDbPolygonMeshVertex
 10
-0.89
 20
-1.32
 30
6.31
 70
    64
  0
VERTEX
  5
8A9D5
100
AcDbEntity
  8
0
100
AcDbVertex
100
AcDbPolygonMeshVertex
 10
-0.89
 20
-1.32
 30
5.5
 70
    64
  0
VERTEX
  5
8A9D6
100
AcDbEntity
  8
0
100
AcDbVertex
100
AcDbPolygonMeshVertex
 10
-0.89
 20
-1.32
 30
5.5
 70
    64
  0
VERTEX
  5
8A9D7
100
AcDbEntity
  8
0
100
AcDbVertex
100
AcDbPolygonMeshVertex
 10
-0.7
 20
-1.32
 30
6.31
 70
    64
  0
VERTEX
  5
8A9D8
100
AcDbEntity
  8
0
100
AcDbVertex
100
AcDbPolygonMeshVertex
 10
-0.7
 20
-1.32
 30
5.5
 70
    64
  0
VERTEX
  5
8A9D9
100
AcDbEntity
  8
0
100
AcDbVertex
100
AcDbPolygonMeshVertex
 10
-0.7
 20
-1.32
 30
5.5
 70
    64
  0
VERTEX
  5
8A9DA
100
AcDbEntity
  8
0
100
AcDbVertex
100
AcDbPolygonMeshVertex
 10
-0.7
 20
-2.32
 30
6.31
 70
    64
  0
VERTEX
  5
8A9DB
100
AcDbEntity
  8
0
100
AcDbVertex
100
AcDbPolygonMeshVertex
 10
-0.7
 20
-2.32
 30
5.5
 70
    64
  0
VERTEX
  5
8A9DC
100
AcDbEntity
  8
0
100
AcDbVertex
100
AcDbPolygonMeshVertex
 10
-0.7
 20
-1.32
 30
5.5
 70
    64
  0
VERTEX
  5
8A9DD
100
AcDbEntity
  8
0
100
AcDbVertex
100
AcDbPolygonMeshVertex
 10
-0.89
 20
-2.32
 30
6.31
 70
    64
  0
VERTEX
  5
8A9DE
100
AcDbEntity
  8
0
100
AcDbVertex
100
AcDbPolygonMeshVertex
 10
-0.89
 20
-2.32
 30
5.5
 70
    64
  0
VERTEX
  5
8A9DF
100
AcDbEntity
  8
0
100
AcDbVertex
100
AcDbPolygonMeshVertex
 10
-0.89
 20
-1.32
 30
5.5
 70
    64
  0
VERTEX
  5
8A9E0
100
AcDbEntity
  8
0
100
AcDbVertex
100
AcDbPolygonMeshVertex
 10
-0.89
 20
-2.32
 30
6.31
 70
    64
  0
VERTEX
  5
8A9E1
100
AcDbEntity
  8
0
100
AcDbVertex
100
AcDbPolygonMeshVertex
 10
-0.89
 20
-2.32
 30
6.31
 70
    64
  0
VERTEX
  5
8A9E2
100
AcDbEntity
  8
0
100
AcDbVertex
100
AcDbPolygonMeshVertex
 10
-0.89
 20
-1.32
 30
6.31
 70
    64
  0
VERTEX
  5
8A9E3
100
AcDbEntity
  8
0
100
AcDbVertex
100
AcDbPolygonMeshVertex
 10
-0.7
 20
-2.32
 30
6.31
 70
    64
  0
VERTEX
  5
8A9E4
100
AcDbEntity
  8
0
100
AcDbVertex
100
AcDbPolygonMeshVertex
 10
-0.7
 20
-2.32
 30
6.31
 70
    64
  0
VERTEX
  5
8A9E5
100
AcDbEntity
  8
0
100
AcDbVertex
100
AcDbPolygonMeshVertex
 10
-0.7
 20
-1.32
 30
6.31
 70
    64
  0
SEQEND
  5
8A9E6
100
AcDbEntity
  8
0
  0
POLYLINE
  5
8A9E7
100
AcDbEntity
  8
0
100
AcDbPolygonMesh
 66
     1
 10
0.0
 20
0.0
 30
0.0
 70
    16
 71
     6
 72
     3
  0
VERTEX
  5
8A9E8
100
AcDbEntity
  8
0
100
AcDbVertex
100
AcDbPolygonMeshVertex
 10
0.375
 20
-2.32
 30
6.0
 70
    64
  0
VERTEX
  5
8A9E9
100
AcDbEntity
  8
0
100
AcDbVertex
100
AcDbPolygonMeshVertex
 10
0.375
 20
-2.32
 30
5.5
 70
    64
  0
VERTEX
  5
8A9EA
100
AcDbEntity
  8
0
100
AcDbVertex
100
AcDbPolygonMeshVertex
 10
0.375
 20
-2.32
 30
5.5
 70
    64
  0
VERTEX
  5
8A9EB
100
AcDbEntity
  8
0
100
AcDbVertex
100
AcDbPolygonMeshVertex
 10
-0.375
 20
-2.32
 30
6.0
 70
    64
  0
VERTEX
  5
8A9EC
100
AcDbEntity
  8
0
100
AcDbVertex
100
AcDbPolygonMeshVertex
 10
-0.375
 20
-2.32
 30
5.5
 70
    64
  0
VERTEX
  5
8A9ED
100
AcDbEntity
  8
0
100
AcDbVertex
100
AcDbPolygonMeshVertex
 10
-0.375
 20
-2.32
 30
5.5
 70
    64
  0
VERTEX
  5
8A9EE
100
AcDbEntity
  8
0
100
AcDbVertex
100
AcDbPolygonMeshVertex
 10
-0.375
 20
-0.69
 30
6.0
 70
    64
  0
VERTEX
  5
8A9EF
100
AcDbEntity
  8
0
100
AcDbVertex
100
AcDbPolygonMeshVertex
 10
-0.375
 20
-0.69
 30
5.5
 70
    64
  0
VERTEX
  5
8A9F0
100
AcDbEntity
  8
0
100
AcDbVertex
100
AcDbPolygonMeshVertex
 10
-0.375
 20
-2.32
 30
5.5
 70
    64
  0
VERTEX
  5
8A9F1
100
AcDbEntity
  8
0
100
AcDbVertex
100
AcDbPolygonMeshVertex
 10
0.375
 20
-0.69
 30
6.0
 70
    64
  0
VERTEX
  5
8A9F2
100
AcDbEntity
  8
0
100
AcDbVertex
100
AcDbPolygonMeshVertex
 10
0.375
 20
-0.69
 30
5.5
 70
    64
  0
VERTEX
  5
8A9F3
100
AcDbEntity
  8
0
100
AcDbVertex
100
AcDbPolygonMeshVertex
 10
0.375
 20
-2.32
 30
5.5
 70
    64
  0
VERTEX
  5
8A9F4
100
AcDbEntity
  8
0
100
AcDbVertex
100
AcDbPolygonMeshVertex
 10
0.375
 20
-0.69
 30
6.0
 70
    64
  0
VERTEX
  5
8A9F5
100
AcDbEntity
  8
0
100
AcDbVertex
100
AcDbPolygonMeshVertex
 10
0.375
 20
-0.69
 30
6.0
 70
    64
  0
VERTEX
  5
8A9F6
100
AcDbEntity
  8
0
100
AcDbVertex
100
AcDbPolygonMeshVertex
 10
0.375
 20
-2.32
 30
6.0
 70
    64
  0
VERTEX
  5
8A9F7
100
AcDbEntity
  8
0
100
AcDbVertex
100
AcDbPolygonMeshVertex
 10
-0.375
 20
-0.69
 30
6.0
 70
    64
  0
VERTEX
  5
8A9F8
100
AcDbEntity
  8
0
100
AcDbVertex
100
AcDbPolygonMeshVertex
 10
-0.375
 20
-0.69
 30
6.0
 70
    64
  0
VERTEX
  5
8A9F9
100
AcDbEntity
  8
0
100
AcDbVertex
100
AcDbPolygonMeshVertex
 10
-0.375
 20
-2.32
 30
6.0
 70
    64
  0
SEQEND
  5
8A9FA
100
AcDbEntity
  8
0
  0
POLYLINE
  5
8A9FB
100
AcDbEntity
  8
0
100
AcDbPolygonMesh
 66
     1
 10
0.0
 20
0.0
 30
0.0
 70
    16
 71
     6
 72
     3
  0
VERTEX
  5
8A9FC
100
AcDbEntity
  8
0
100
AcDbVertex
100
AcDbPolygonMeshVertex
 10
-1.215
 20
-2.32
 30
6.0
 70
    64
  0
VERTEX
  5
8A9FD
100
AcDbEntity
  8
0
100
AcDbVertex
100
AcDbPolygonMeshVertex
 10
-1.215
 20
-2.32
 30
5.5
 70
    64
  0
VERTEX
  5
8A9FE
100
AcDbEntity
  8
0
100
AcDbVertex
100
AcDbPolygonMeshVertex
 10
-1.215
 20
-2.32
 30
5.5
 70
    64
  0
VERTEX
  5
8A9FF
100
AcDbEntity
  8
0
100
AcDbVertex
100
AcDbPolygonMeshVertex
 10
-1.965
 20
-2.32
 30
6.0
 70
    64
  0
VERTEX
  5
8AA00
100
AcDbEntity
  8
0
100
AcDbVertex
100
AcDbPolygonMeshVertex
 10
-1.965
 20
-2.32
 30
5.5
 70
    64
  0
VERTEX
  5
8AA01
100
AcDbEntity
  8
0
100
AcDbVertex
100
AcDbPolygonMeshVertex
 10
-1.965
 20
-2.32
 30
5.5
 70
    64
  0
VERTEX
  5
8AA02
100
AcDbEntity
  8
0
100
AcDbVertex
100
AcDbPolygonMeshVertex
 10
-1.965
 20
-0.69
 30
6.0
 70
    64
  0
VERTEX
  5
8AA03
100
AcDbEntity
  8
0
100
AcDbVertex
100
AcDbPolygonMeshVertex
 10
-1.965
 20
-0.69
 30
5.5
 70
    64
  0
VERTEX
  5
8AA04
100
AcDbEntity
  8
0
100
AcDbVertex
100
AcDbPolygonMeshVertex
 10
-1.965
 20
-2.32
 30
5.5
 70
    64
  0
VERTEX
  5
8AA05
100
AcDbEntity
  8
0
100
AcDbVertex
100
AcDbPolygonMeshVertex
 10
-1.215
 20
-0.69
 30
6.0
 70
    64
  0
VERTEX
  5
8AA06
100
AcDbEntity
  8
0
100
AcDbVertex
100
AcDbPolygonMeshVertex
 10
-1.215
 20
-0.69
 30
5.5
 70
    64
  0
VERTEX
  5
8AA07
100
AcDbEntity
  8
0
100
AcDbVertex
100
AcDbPolygonMeshVertex
 10
-1.215
 20
-2.32
 30
5.5
 70
    64
  0
VERTEX
  5
8AA08
100
AcDbEntity
  8
0
100
AcDbVertex
100
AcDbPolygonMeshVertex
 10
-1.215
 20
-0.69
 30
6.0
 70
    64
  0
VERTEX
  5
8AA09
100
AcDbEntity
  8
0
100
AcDbVertex
100
AcDbPolygonMeshVertex
 10
-1.215
 20
-0.69
 30
6.0
 70
    64
  0
VERTEX
  5
8AA0A
100
AcDbEntity
  8
0
100
AcDbVertex
100
AcDbPolygonMeshVertex
 10
-1.215
 20
-2.32
 30
6.0
 70
    64
  0
VERTEX
  5
8AA0B
100
AcDbEntity
  8
0
100
AcDbVertex
100
AcDbPolygonMeshVertex
 10
-1.965
 20
-0.69
 30
6.0
 70
    64
  0
VERTEX
  5
8AA0C
100
AcDbEntity
  8
0
100
AcDbVertex
100
AcDbPolygonMeshVertex
 10
-1.965
 20
-0.69
 30
6.0
 70
    64
  0
VERTEX
  5
8AA0D
100
AcDbEntity
  8
0
100
AcDbVertex
100
AcDbPolygonMeshVertex
 10
-1.965
 20
-2.32
 30
6.0
 70
    64
  0
SEQEND
  5
8AA0E
100
AcDbEntity
  8
0
  0
POLYLINE
  5
8AA0F
100
AcDbEntity
  8
0
100
AcDbPolygonMesh
 66
     1
 10
0.0
 20
0.0
 30
0.0
 70
    16
 71
     6
 72
     3
  0
VERTEX
  5
8AA10
100
AcDbEntity
  8
0
100
AcDbVertex
100
AcDbPolygonMeshVertex
 10
0.7
 20
-1.32
 30
6.31
 70
    64
  0
VERTEX
  5
8AA11
100
AcDbEntity
  8
0
100
AcDbVertex
100
AcDbPolygonMeshVertex
 10
0.7
 20
-1.32
 30
5.5
 70
    64
  0
VERTEX
  5
8AA12
100
AcDbEntity
  8
0
100
AcDbVertex
100
AcDbPolygonMeshVertex
 10
0.7
 20
-1.32
 30
5.5
 70
    64
  0
VERTEX
  5
8AA13
100
AcDbEntity
  8
0
100
AcDbVertex
100
AcDbPolygonMeshVertex
 10
0.89
 20
-1.32
 30
6.31
 70
    64
  0
VERTEX
  5
8AA14
100
AcDbEntity
  8
0
100
AcDbVertex
100
AcDbPolygonMeshVertex
 10
0.89
 20
-1.32
 30
5.5
 70
    64
  0
VERTEX
  5
8AA15
100
AcDbEntity
  8
0
100
AcDbVertex
100
AcDbPolygonMeshVertex
 10
0.89
 20
-1.32
 30
5.5
 70
    64
  0
VERTEX
  5
8AA16
100
AcDbEntity
  8
0
100
AcDbVertex
100
AcDbPolygonMeshVertex
 10
0.89
 20
-2.32
 30
6.31
 70
    64
  0
VERTEX
  5
8AA17
100
AcDbEntity
  8
0
100
AcDbVertex
100
AcDbPolygonMeshVertex
 10
0.89
 20
-2.32
 30
5.5
 70
    64
  0
VERTEX
  5
8AA18
100
AcDbEntity
  8
0
100
AcDbVertex
100
AcDbPolygonMeshVertex
 10
0.89
 20
-1.32
 30
5.5
 70
    64
  0
VERTEX
  5
8AA19
100
AcDbEntity
  8
0
100
AcDbVertex
100
AcDbPolygonMeshVertex
 10
0.7
 20
-2.32
 30
6.31
 70
    64
  0
VERTEX
  5
8AA1A
100
AcDbEntity
  8
0
100
AcDbVertex
100
AcDbPolygonMeshVertex
 10
0.7
 20
-2.32
 30
5.5
 70
    64
  0
VERTEX
  5
8AA1B
100
AcDbEntity
  8
0
100
AcDbVertex
100
AcDbPolygonMeshVertex
 10
0.7
 20
-1.32
 30
5.5
 70
    64
  0
VERTEX
  5
8AA1C
100
AcDbEntity
  8
0
100
AcDbVertex
100
AcDbPolygonMeshVertex
 10
0.7
 20
-2.32
 30
6.31
 70
    64
  0
VERTEX
  5
8AA1D
100
AcDbEntity
  8
0
100
AcDbVertex
100
AcDbPolygonMeshVertex
 10
0.7
 20
-2.32
 30
6.31
 70
    64
  0
VERTEX
  5
8AA1E
100
AcDbEntity
  8
0
100
AcDbVertex
100
AcDbPolygonMeshVertex
 10
0.7
 20
-1.32
 30
6.31
 70
    64
  0
VERTEX
  5
8AA1F
100
AcDbEntity
  8
0
100
AcDbVertex
100
AcDbPolygonMeshVertex
 10
0.89
 20
-2.32
 30
6.31
 70
    64
  0
VERTEX
  5
8AA20
100
AcDbEntity
  8
0
100
AcDbVertex
100
AcDbPolygonMeshVertex
 10
0.89
 20
-2.32
 30
6.31
 70
    64
  0
VERTEX
  5
8AA21
100
AcDbEntity
  8
0
100
AcDbVertex
100
AcDbPolygonMeshVertex
 10
0.89
 20
-1.32
 30
6.31
 70
    64
  0
SEQEND
  5
8AA22
100
AcDbEntity
  8
0
  0
CIRCLE
  5
8AA23
100
AcDbEntity
  8
0
100
AcDbCircle
 10
-1.59
 20
-1.065
 30
6.5
 40
0.22
  0
TEXT
  5
8AA24
100
AcDbEntity
  8
0
100
AcDbText
 10
-1.716841
 20
-1.150259
 30
6.5
 40
0.172605
  1
L1
100
AcDbText
  0
CIRCLE
  5
8AA25
100
AcDbEntity
  8
0
100
AcDbCircle
 10
0.0
 20
-1.065
 30
6.5
 40
0.22
  0
TEXT
  5
8AA26
100
AcDbEntity
  8
0
100
AcDbText
 10
-0.127402
 20
-1.147433
 30
6.5
 40
0.172605
  1
L2
100
AcDbText
  0
TEXT
  5
8AA27
100
AcDbEntity
  8
0
100
AcDbText
 10
1.462038
 20
-1.153685
 30
6.5
 40
0.172605
  1
L3
100
AcDbText
  0
TEXT
  5
8AA28
100
AcDbEntity
  8
0
100
AcDbText
 10
-1.736981
 20
-11.858551
 30
3.81
 40
0.200501
  1
T1
100
AcDbText
  0
TEXT
  5
8AA29
100
AcDbEntity
  8
0
100
AcDbText
 10
-0.155297
 20
-11.876536
 30
3.81
 40
0.200501
  1
T2
100
AcDbText
  0
TEXT
  5
8AA2A
100
AcDbEntity
  8
0
100
AcDbText
 10
1.441101
 20
-11.879815
 30
3.81
 40
0.200501
  1
T3
100
AcDbText
  0
ATTDEF
  5
8AA2B
100
AcDbEntity
  8
ATTRIBUTES
100
AcDbText
 10
-2.433514
 20
-5.239531
 30
0.0
 40
0.223287
  1
ALLEN-BRADLEY
100
AcDbAttributeDefinition
  3
MANUFACTURER NAME?
  2
AC_VND_LABEL
 70
     1
  0
ATTDEF
  5
8AA2C
100
AcDbEntity
  8
ATTRIBUTES
100
AcDbText
 10
-2.433514
 20
-5.704713
 30
0.0
 40
0.223287
  1
509-D
100
AcDbAttributeDefinition
  3
CATALOG NUMBER?
  2
AC_PART_NO
 70
     1
  0
ATTDEF
  5
8AA2D
100
AcDbEntity
  8
ATTRIBUTES
100
AcDbText
 10
-2.433514
 20
-6.169895
 30
0.0
 40
0.223287
  1
NON-REVERSING STARTER w/ EUTECTIC ALLOY OLR; SIZE 3; 3P
100
AcDbAttributeDefinition
  3
PART DESCRIPTION?
  2
AC_DESCRIPTION
 70
     1
  0
ATTDEF
  5
8AA2E
100
AcDbEntity
  8
ATTRIBUTES
100
AcDbText
 10
-2.433514
 20
-6.635076
 30
0.0
 40
0.223287
  1

100
AcDbAttributeDefinition
  3
DEVICE ID?
  2
DEVICE_ID
 70
     1
  0
ATTDEF
  5
8AA2F
100
AcDbEntity
  8
ATTRIBUTES
100
AcDbText
 10
-2.433514
 20
-7.100258
 30
0.0
 40
0.223287
  1

100
AcDbAttributeDefinition
  3
CUSTOMER PART NUMBER?
  2
AC_CPART_NO
 70
     1
  0
ATTDEF
  5
8AA30
100
AcDbEntity
  8
ATTRIBUTES
100
AcDbText
 10
-2.433514
 20
-7.56544
 30
0.0
 40
0.223287
  1

100
AcDbAttributeDefinition
  3
CUSTOMER NOTE?
  2
AC_NOTE
 70
     1
  0
ATTDEF
  5
8AA31
100
AcDbEntity
  8
ATTRIBUTES
100
AcDbText
 10
-2.433514
 20
-8.030622
 30
0.0
 40
0.223287
  1

100
AcDbAttributeDefinition
  3
FASTENER DATA?
  2
FASTENER
 70
     1
  0
ATTDEF
  5
8AA32
100
AcDbEntity
  8
ATTRIBUTES
100
AcDbText
 10
-2.433514
 20
-8.495804
 30
0.0
 40
0.223287
  1
INCH
100
AcDbAttributeDefinition
  3
UNIT OF SCALE?
  2
AC_SCALE_UNIT
 70
     1
  0
ATTDEF
  5
8AA33
100
AcDbEntity
  8
ATTRIBUTES
100
AcDbText
 10
-2.433514
 20
-8.960985
 30
0.0
 40
0.223287
  1
0
100
AcDbAttributeDefinition
  3
VIEW CODE?
  2
AC_VIEW_CODE
 70
     1
  0
POINT
  5
8AA34
100
AcDbEntity
  8
DIMS-MTG-HOLES
100
AcDbPoint
 10
-2.76
 20
-8.66
 30
0.0
  0
POINT
  5
8AA35
100
AcDbEntity
  8
DIMS-MTG-HOLES
100
AcDbPoint
 10
2.76
 20
-8.66
 30
0.0
  0
POINT
  5
8AA36
100
AcDbEntity
  8
DIMS-MTG-HOLES
100
AcDbPoint
 10
0.0
 20
0.0
 30
0.0
  0
POINT
  5
8AA37
100
AcDbEntity
  8
DIMS-MTG-HOLES
100
AcDbPoint
 10
0.78
 20
0.0
 30
0.0
  0
DIMENSION
  5
8AA38
100
AcDbEntity
  8
AREA1
100
AcDbDimension
  2
*D0
 10
-4.242328
 20
-12.140001
 30
0.0
 11
-4.242328
 21
-6.003676
 31
0.0
 70
   160
  3
ABECAD_3D
100
AcDbAlignedDimension
 13
-1.69
 23
0.31
 33
0.0
 14
-1.965001
 24
-12.140001
 34
2.81
 50
90.0
100
AcDbRotatedDimension
  0
DIMENSION
  5
8AA46
100
AcDbEntity
  8
AREA1
100
AcDbDimension
  2
*D1
 10
3.06
 20
1.480513
 30
0.0
 11
-0.053251
 21
1.480513
 31
0.0
 70
   160
  3
ABECAD_3D
100
AcDbAlignedDimension
 13
-3.06
 23
-7.74
 33
0.0
 14
3.06
 24
-7.74
 34
0.0
100
AcDbRotatedDimension
  0
LWPOLYLINE
  5
8AA63
100
AcDbEntity
  8
SCALE
100
AcDbPolyline
 90
        4
 70
     1
 43
0.0
 10
-0.572758
 20
-12.362914
 10
0.562871
 20
-12.362914
 10
0.562871
 20
-13.204523
 10
-0.572758
 20
-13.204523
  0
LINE
  5
8AA64
100
AcDbEntity
  8
SCALE
100
AcDbLine
 10
-0.514759
 20
-12.742992
 30
0.0
 11
0.485241
 21
-12.742992
 31
0.0
  0
LINE
  5
8AA65
100
AcDbEntity
  8
SCALE
100
AcDbLine
 10
-0.514759
 20
-13.042992
 30
0.0
 11
-0.121059
 21
-13.042992
 31
0.0
  0
LINE
  5
8AA66
100
AcDbEntity
  8
SCALE
100
AcDbLine
 10
-0.514759
 20
-12.842992
 30
0.0
 11
-0.514759
 21
-12.642992
 31
0.0
  0
TEXT
  5
8AA67
100
AcDbEntity
  8
SCALE
100
AcDbText
 10
-0.458784
 20
-12.995307
 30
0.0
 40
0.0625
  1
[10mm]
100
AcDbText
  0
LINE
  5
8AA68
100
AcDbEntity
  8
SCALE
100
AcDbLine
 10
-0.514759
 20
-13.142992
 30
0.0
 11
-0.514759
 21
-12.942992
 31
0.0
  0
TEXT
  5
8AA69
100
AcDbEntity
  8
SCALE
100
AcDbText
 10
-0.513229
 20
-12.468115
 30
0.0
 40
0.0625
  1
SCALE:
100
AcDbText
  0
LINE
  5
8AA6A
100
AcDbEntity
  8
SCALE
100
AcDbLine
 10
-0.121059
 20
-13.142992
 30
0.0
 11
-0.121059
 21
-12.942992
 31
0.0
  0
TEXT
  5
8AA6B
100
AcDbEntity
  8
SCALE
100
AcDbText
 10
-0.151476
 20
-12.673943
 30
0.0
 40
0.0625
  1
1 Inch
100
AcDbText
  0
LINE
  5
8AA6C
100
AcDbEntity
  8
SCALE
100
AcDbLine
 10
0.485241
 20
-12.742992
 30
0.0
 11
0.485241
 21
-12.842992
 31
0.0
  0
LINE
  5
8AA6D
100
AcDbEntity
  8
SCALE
100
AcDbLine
 10
0.485241
 20
-12.842992
 30
0.0
 11
0.485241
 21
-12.642992
 31
0.0
  0
VIEWPORT
  5
5677D
102
{ACAD_XDICTIONARY
360
8AAE5
102
}
100
AcDbEntity
 67
     1
  8
0
100
AcDbViewport
 10
5.25
 20
4.0
 30
0.0
 40
16.386862
 41
8.993
 68
    -1
 69
     1
1001
ACAD
1000
MVIEW
1002
{
1070
    16
1010
0.0
1020
0.0
1030
0.0
1010
0.0
1020
0.0
1030
1.0
1040
0.0
1040
8.993
1040
5.25
1040
4.0
1040
50.0
1040
0.0
1040
0.0
1070
     0
1070
 20000
1070
     1
1070
     1
1070
     0
1070
     0
1070
     0
1070
     0
1040
0.0
1040
0.0
1040
0.0
1040
0.5
1040
0.5
1040
0.5
1040
0.5
1070
     0
1002
{
1002
}
1002
}
  0
VIEWPORT
  5
5677F
102
{ACAD_XDICTIONARY
360
8AAE7
102
}
100
AcDbEntity
 67
     1
  8
AREA1
100
AcDbViewport
 10
5.25
 20
4.0
 30
0.0
 40
8.4
 41
6.4
 68
     1
 69
     2
1001
ACAD
1000
MVIEW
1002
{
1070
    16
1010
0.563444
1020
-0.880137
1030
1.686493
1010
0.0
1020
0.0
1030
1.0
1040
0.0
1040
4.582914
1040
-1.017175
1040
0.747813
1040
50.0
1040
0.0
1040
0.0
1070
     0
1070
 20000
1070
     1
1070
     1
1070
     0
1070
     0
1070
     0
1070
     0
1040
0.0
1040
0.0
1040
0.0
1040
0.25
1040
0.25
1040
0.25
1040
0.25
1070
     0
1002
{
1002
}
1002
}
  0
ENDSEC
  0
SECTION
  2
OBJECTS
  0
DICTIONARY
  5
458CB
100
AcDbDictionary
  3
ACAD_GROUP
350
458CC
  3
ACAD_LAYOUT
350
458FB
  3
ACAD_MLINESTYLE
350
458D9
  3
ACAD_PLOTSETTINGS
350
458FC
  3
ACAD_PLOTSTYLENAME
350
458F9
  3
ACDBHEADERROUNDTRIPXREC
350
8AABC
  3
ACDBVARIABLEDICTIONARY
350
458E1
  3
DWGPROPS
350
45901
  0
DICTIONARY
  5
8AABA
100
AcDbDictionary
280
     1
  3
ACAD_XREC_ROUNDTRIP
360
8AABB
  0
DICTIONARY
  5
8AAE3
100
AcDbDictionary
280
     1
  3
ACAD_XREC_ROUNDTRIP
360
8AAE4
  0
DICTIONARY
  5
8AAB8
100
AcDbDictionary
280
     1
  3
ACAD_XREC_ROUNDTRIP
360
8AAB9
  0
DICTIONARY
  5
8AADF
100
AcDbDictionary
280
     1
  3
ACAD_XREC_ROUNDTRIP
360
8AAE0
  0
DICTIONARY
  5
4592C
100
AcDbDictionary
280
     1
  3
ACAD_LAYOUTSELFREF
360
8AADE
  0
DICTIONARY
  5
4592A
100
AcDbDictionary
280
     1
  3
ACAD_LAYOUTSELFREF
360
8AADD
  0
DICTIONARY
  5
8AAE5
100
AcDbDictionary
280
     1
  3
ACAD_XREC_ROUNDTRIP
360
8AAE6
  0
DICTIONARY
  5
8AAE7
100
AcDbDictionary
280
     1
  3
ACAD_XREC_ROUNDTRIP
360
8AAE8
  0
DICTIONARY
  5
458CC
102
{ACAD_REACTORS
330
458CB
102
}
100
AcDbDictionary
  0
DICTIONARY
  5
458FB
102
{ACAD_XDICTIONARY
360
8AAE1
102
}
102
{ACAD_REACTORS
330
458CB
102
}
100
AcDbDictionary
  3
LAYOUT1
350
458FE
  3
MODEL
350
458FD
  0
DICTIONARY
  5
458D9
102
{ACAD_REACTORS
330
458CB
102
}
100
AcDbDictionary
  3
STANDARD
350
458DA
  0
DICTIONARY
  5
458FC
102
{ACAD_REACTORS
330
458CB
102
}
100
AcDbDictionary
  0
ACAD_PROXY_OBJECT
  5
458F9
102
{ACAD_REACTORS
330
458CB
102
}
100
AcDbProxyObject
 90
      499
 91
      501
 93
       86
310
405010041939BDC9B585B0
350
458FA
340
458FA
 94
        0
  0
DICTIONARY
  5
8AABC
102
{ACAD_REACTORS
330
458CB
102
}
100
AcDbDictionary
  3
CEPSNTYPE
350
8AAC6
  3
DIMSTYLEDATA
350
8AACA
  3
FINGERPRINTGUID
350
8AAC7
  3
HYPERLINKBASE
350
8AABF
  3
INSUNITS
350
8AAC5
  3
LAYOUTDICT
350
8AAC1
  3
LWETCUNION
350
8AAC4
  3
PLOTSETDICT
350
8AAC2
  3
PLOTSTYLNAMDICT
350
8AAC3
  3
PSVPSCALE
350
8AAC9
  3
PUCSBASE
350
8AACD
  3
PUCSORGBACK
350
8AAD3
  3
PUCSORGBOTTOM
350
8AACF
  3
PUCSORGFRONT
350
8AAD2
  3
PUCSORGLEFT
350
8AAD0
  3
PUCSORGRIGHT
350
8AAD1
  3
PUCSORGTOP
350
8AACE
  3
PUCSORTHOREF
350
8AACB
  3
PUCSORTHOVIEW
350
8AACC
  3
STYLESHEET
350
8AAC0
  3
TSTACKALIGN
350
8AABD
  3
TSTACKSIZE
350
8AABE
  3
UCSBASE
350
8AAD6
  3
UCSORGBACK
350
8AADC
  3
UCSORGBOTTOM
350
8AAD8
  3
UCSORGFRONT
350
8AADB
  3
UCSORGLEFT
350
8AAD9
  3
UCSORGRIGHT
350
8AADA
  3
UCSORGTOP
350
8AAD7
  3
UCSORTHOREF
350
8AAD4
  3
UCSORTHOVIEW
350
8AAD5
  3
VERSIONGUID
350
8AAC8
  0
DICTIONARY
  5
458E1
102
{ACAD_REACTORS
330
458CB
102
}
100
AcDbDictionary
  3
DIMADEC
350
458E2
  0
XRECORD
  5
45901
102
{ACAD_REACTORS
330
458CB
102
}
100
AcDbXrecord
  1
DWGPROPS COOKIE
  2

  3

  4

  6

  7

  8
colin
  9

300
=
301
=
302
=
303
=
304
=
305
=
306
=
307
=
308
=
309
=
 40
0.000599
 41
2451670.444777
 42
2451670.445376
  1

 90
        0
  0
XRECORD
  5
8AABB
102
{ACAD_REACTORS
330
8AABA
102
}
100
AcDbXrecord
102
EXTNAMES
  1
*ACTIVE
  2
*Active
102
UCS
 74
     0
 71
     1
 10
0.0
 20
0.0
 30
0.0
 10
1.0
 20
0.0
 30
0.0
 10
0.0
 20
1.0
 30
0.0
146
0.0
 79
     1
102
VIEW
281
     1
  0
XRECORD
  5
8AAE4
102
{ACAD_REACTORS
330
8AAE3
102
}
100
AcDbXrecord
102
PLOTBIT
280
     0
  0
XRECORD
  5
8AAB9
102
{ACAD_REACTORS
330
8AAB8
102
}
100
AcDbXrecord
102
EXTNAMES
  1
DEFPOINTS
  2
Defpoints
102
PLOTBIT
280
     0
  0
XRECORD
  5
8AAE0
102
{ACAD_REACTORS
330
8AADF
102
}
100
AcDbXrecord
102
ACADR14ROUNDTRIP
1000
DSTYLE
1002
{
1070
   276
 70
     2
1070
   277
 70
     5
1070
   279
 70
     2
1070
   289
 70
     2
1002
}
  0
XRECORD
  5
8AADE
102
{ACAD_REACTORS
330
4592C
102
}
100
AcDbXrecord
340
458D6
  0
XRECORD
  5
8AADD
102
{ACAD_REACTORS
330
4592A
102
}
100
AcDbXrecord
340
458D3
  0
XRECORD
  5
8AAE6
102
{ACAD_REACTORS
330
8AAE5
102
}
100
AcDbXrecord
102
UCS
 74
     0
 71
     1
 10
0.0
 20
0.0
 30
0.0
 10
1.0
 20
0.0
 30
0.0
 10
0.0
 20
1.0
 30
0.0
146
0.0
 79
     0
102
VIEW
281
     0
102
NEWVIEWCONTROL
280
     4
  0
XRECORD
  5
8AAE8
102
{ACAD_REACTORS
330
8AAE7
102
}
100
AcDbXrecord
102
UCS
 74
     0
 71
     1
 10
0.0
 20
0.0
 30
0.0
 10
1.0
 20
0.0
 30
0.0
 10
0.0
 20
1.0
 30
0.0
146
0.0
 79
     1
102
VIEW
281
     1
102
NEWVIEWCONTROL
280
     4
  0
DICTIONARY
  5
8AAE1
100
AcDbDictionary
280
     1
  3
ACAD_XREC_ROUNDTRIP
360
8AAE2
  0
ACAD_PROXY_OBJECT
  5
458FE
102
{ACAD_REACTORS
330
458FB
102
}
100
AcDbProxyObject
 90
      499
 91
      503
 93
     1700
310
90B6E6F6E655F6465766963652C0080000006066661940000000181999865000000000068661940000000001A1986500000000C0CCFC6A4000000018199D9C5011C4C65747465725F28382E35305F785F31312E30305F496E6368657329A901416AA547D11959985D5B1D08148C4D081C195B88185CDCDA59DB9B595B9D1CC
310
B98DD1891069074C61796F75743140501A840201008040342FEFF7FBFDFFFFF3EFDFAFF7FBFFDFC9501008043E3FDFC8102A6A6A0000003033333C0FC000000809999E93F8FFFFFF5766E622403FFFFFEBF333071020
330
458D3
330
5677D
340
0
340
0
 94
        0
  0
ACAD_PROXY_OBJECT
  5
458FD
102
{ACAD_REACTORS
330
458FB
102
}
100
AcDbProxyObject
 90
      499
 91
      503
 93
      924
310
91D4850204C617365724A65742035303030205365726965732050434C20362C01AAAAAAAAA547D11959985D5B1D08148C4D081C195B88185CDCDA59DB9B595B9D1CCB98DD18A69054D6F64656C901A800000000000000000000000000000000000000000000A1000000000000008902A6A6AAAA0
330
458D6
330
0
340
0
340
0
 94
        0
  0
MLINESTYLE
  5
458DA
102
{ACAD_REACTORS
330
458D9
102
}
100
AcDbMlineStyle
  2
STANDARD
 70
     0
  3

 62
   256
 51
90.0
 52
90.0
 71
     2
 49
0.5
 62
   256
  6
BYLAYER
 49
-0.5
 62
   256
  6
BYLAYER
  0
ACAD_PROXY_OBJECT
  5
458FA
102
{ACAD_REACTORS
330
458F9
102
}
100
AcDbProxyObject
 90
      499
 91
      502
 93
        0
 94
        0
  0
XRECORD
  5
8AAC6
102
{ACAD_REACTORS
330
8AABC
102
}
100
AcDbXrecord
 90
        0
  0
XRECORD
  5
8AACA
102
{ACAD_REACTORS
330
8AABC
102
}
100
AcDbXrecord
1000
DSTYLE
1002
{
1070
   276
 70
     2
1070
   277
 70
     5
1070
   279
 70
     2
1070
   289
 70
     2
1002
}
  0
XRECORD
  5
8AAC7
102
{ACAD_REACTORS
330
8AABC
102
}
100
AcDbXrecord
  1
{6E0CF4B8-225E-11D4-A150-00A0CC3303EC}
  0
XRECORD
  5
8AABF
102
{ACAD_REACTORS
330
8AABC
102
}
100
AcDbXrecord
  1

  0
XRECORD
  5
8AAC5
102
{ACAD_REACTORS
330
8AABC
102
}
100
AcDbXrecord
 90
        0
  0
XRECORD
  5
8AAC1
102
{ACAD_REACTORS
330
8AABC
102
}
100
AcDbXrecord
340
458FB
  0
XRECORD
  5
8AAC4
102
{ACAD_REACTORS
330
8AABC
102
}
100
AcDbXrecord
 90
    14877
  0
XRECORD
  5
8AAC2
102
{ACAD_REACTORS
330
8AABC
102
}
100
AcDbXrecord
340
458FC
  0
XRECORD
  5
8AAC3
102
{ACAD_REACTORS
330
8AABC
102
}
100
AcDbXrecord
340
458F9
  0
XRECORD
  5
8AAC9
102
{ACAD_REACTORS
330
8AABC
102
}
100
AcDbXrecord
 40
0.0
  0
XRECORD
  5
8AACD
102
{ACAD_REACTORS
330
8AABC
102
}
100
AcDbXrecord
340
0
  0
XRECORD
  5
8AAD3
102
{ACAD_REACTORS
330
8AABC
102
}
100
AcDbXrecord
 10
0.0
 20
0.0
 30
0.0
  0
XRECORD
  5
8AACF
102
{ACAD_REACTORS
330
8AABC
102
}
100
AcDbXrecord
 10
0.0
 20
0.0
 30
0.0
  0
XRECORD
  5
8AAD2
102
{ACAD_REACTORS
330
8AABC
102
}
100
AcDbXrecord
 10
0.0
 20
0.0
 30
0.0
  0
XRECORD
  5
8AAD0
102
{ACAD_REACTORS
330
8AABC
102
}
100
AcDbXrecord
 10
0.0
 20
0.0
 30
0.0
  0
XRECORD
  5
8AAD1
102
{ACAD_REACTORS
330
8AABC
102
}
100
AcDbXrecord
 10
0.0
 20
0.0
 30
0.0
  0
XRECORD
  5
8AACE
102
{ACAD_REACTORS
330
8AABC
102
}
100
AcDbXrecord
 10
0.0
 20
0.0
 30
0.0
  0
XRECORD
  5
8AACB
102
{ACAD_REACTORS
330
8AABC
102
}
100
AcDbXrecord
340
0
  0
XRECORD
  5
8AACC
102
{ACAD_REACTORS
330
8AABC
102
}
100
AcDbXrecord
 70
     0
  0
XRECORD
  5
8AAC0
102
{ACAD_REACTORS
330
8AABC
102
}
100
AcDbXrecord
  1

  0
XRECORD
  5
8AABD
102
{ACAD_REACTORS
330
8AABC
102
}
100
AcDbXrecord
 90
        1
  0
XRECORD
  5
8AABE
102
{ACAD_REACTORS
330
8AABC
102
}
100
AcDbXrecord
 90
       70
  0
XRECORD
  5
8AAD6
102
{ACAD_REACTORS
330
8AABC
102
}
100
AcDbXrecord
340
0
  0
XRECORD
  5
8AADC
102
{ACAD_REACTORS
330
8AABC
102
}
100
AcDbXrecord
 10
0.0
 20
0.0
 30
0.0
  0
XRECORD
  5
8AAD8
102
{ACAD_REACTORS
330
8AABC
102
}
100
AcDbXrecord
 10
0.0
 20
0.0
 30
0.0
  0
XRECORD
  5
8AADB
102
{ACAD_REACTORS
330
8AABC
102
}
100
AcDbXrecord
 10
0.0
 20
0.0
 30
0.0
  0
XRECORD
  5
8AAD9
102
{ACAD_REACTORS
330
8AABC
102
}
100
AcDbXrecord
 10
0.0
 20
0.0
 30
0.0
  0
XRECORD
  5
8AADA
102
{ACAD_REACTORS
330
8AABC
102
}
100
AcDbXrecord
 10
0.0
 20
0.0
 30
0.0
  0
XRECORD
  5
8AAD7
102
{ACAD_REACTORS
330
8AABC
102
}
100
AcDbXrecord
 10
0.0
 20
0.0
 30
0.0
  0
XRECORD
  5
8AAD4
102
{ACAD_REACTORS
330
8AABC
102
}
100
AcDbXrecord
340
0
  0
XRECORD
  5
8AAD5
102
{ACAD_REACTORS
330
8AABC
102
}
100
AcDbXrecord
 70
     1
  0
XRECORD
  5
8AAC8
102
{ACAD_REACTORS
330
8AABC
102
}
100
AcDbXrecord
  1
{C49D53AD-B290-4C24-9D16-9F0068908BBB}
  0
DICTIONARYVAR
  5
458E2
102
{ACAD_REACTORS
330
458E1
102
}
100
DictionaryVariables
280
     0
  1
0
  0
XRECORD
  5
8AAE2
102
{ACAD_REACTORS
330
8AAE1
102
}
100
AcDbXrecord
102
EXTNAMES
  1
LAYOUT1
  2
Layout1
  1
MODEL
  2
Model
  0
ENDSEC
  0
EOF
