  0
SECTION
  2
HEADER
  9
$ACADVER
  1
AC1014
  9
$ACADMAINTVER
 70
     8
  9
$DWGCODEPAGE
  3
ANSI_1252
  9
$INSBASE
 10
0.0
 20
0.0
 30
0.0
  9
$EXTMIN
 10
-4.373678
 20
-8.297649
 30
0.0
  9
$EXTMAX
 10
4.727
 20
1.388893
 30
4.857
  9
$LIMMIN
 10
0.0
 20
0.0
  9
$LIMMAX
 10
12.0
 20
9.0
  9
$ORTHOMODE
 70
     0
  9
$REGENMODE
 70
     1
  9
$FILLMODE
 70
     1
  9
$QTEXTMODE
 70
     0
  9
$MIRRTEXT
 70
     1
  9
$DRAGMODE
 70
     2
  9
$LTSCALE
 40
1.0
  9
$OSMODE
 70
    37
  9
$ATTMODE
 70
     1
  9
$TEXTSIZE
 40
0.12
  9
$TRACEWID
 40
0.05
  9
$TEXTSTYLE
  7
STANDARD
  9
$CLAYER
  8
0
  9
$CELTYPE
  6
BYLAYER
  9
$CECOLOR
 62
   256
  9
$CELTSCALE
 40
1.0
  9
$DELOBJ
 70
     1
  9
$DISPSILH
 70
     0
  9
$DIMSCALE
 40
1.0
  9
$DIMASZ
 40
0.3
  9
$DIMEXO
 40
0.1
  9
$DIMDLI
 40
0.375
  9
$DIMRND
 40
0.0
  9
$DIMDLE
 40
0.0
  9
$DIMEXE
 40
0.1
  9
$DIMTP
 40
0.0
  9
$DIMTM
 40
0.0
  9
$DIMTXT
 40
0.3
  9
$DIMCEN
 40
0.09
  9
$DIMTSZ
 40
0.0
  9
$DIMTOL
 70
     0
  9
$DIMLIM
 70
     0
  9
$DIMTIH
 70
     0
  9
$DIMTOH
 70
     1
  9
$DIMSE1
 70
     0
  9
$DIMSE2
 70
     0
  9
$DIMTAD
 70
     0
  9
$DIMZIN
 70
     4
  9
$DIMBLK
  1

  9
$DIMASO
 70
     1
  9
$DIMSHO
 70
     1
  9
$DIMPOST
  1

  9
$DIMAPOST
  1

  9
$DIMALT
 70
     1
  9
$DIMALTD
 70
     2
  9
$DIMALTF
 40
25.4
  9
$DIMLFAC
 40
1.0
  9
$DIMTOFL
 70
     0
  9
$DIMTVP
 40
0.0
  9
$DIMTIX
 70
     0
  9
$DIMSOXD
 70
     0
  9
$DIMSAH
 70
     0
  9
$DIMBLK1
  1

  9
$DIMBLK2
  1

  9
$DIMSTYLE
  2
ABECAD_3D
  9
$DIMCLRD
 70
     0
  9
$DIMCLRE
 70
     0
  9
$DIMCLRT
 70
     0
  9
$DIMTFAC
 40
1.5
  9
$DIMGAP
 40
0.09
  9
$DIMJUST
 70
     0
  9
$DIMSD1
 70
     0
  9
$DIMSD2
 70
     0
  9
$DIMTOLJ
 70
     1
  9
$DIMTZIN
 70
     4
  9
$DIMALTZ
 70
     4
  9
$DIMALTTZ
 70
     4
  9
$DIMFIT
 70
     5
  9
$DIMUPT
 70
     1
  9
$DIMUNIT
 70
     7
  9
$DIMDEC
 70
     6
  9
$DIMTDEC
 70
     6
  9
$DIMALTU
 70
     2
  9
$DIMALTTD
 70
     2
  9
$DIMTXSTY
  7
STANDARD
  9
$DIMAUNIT
 70
     0
  9
$LUNITS
 70
     2
  9
$LUPREC
 70
     4
  9
$SKETCHINC
 40
0.1
  9
$FILLETRAD
 40
0.0
  9
$AUNITS
 70
     0
  9
$AUPREC
 70
     0
  9
$MENU
  1
ACAD
  9
$ELEVATION
 40
0.0
  9
$PELEVATION
 40
0.0
  9
$THICKNESS
 40
0.0
  9
$LIMCHECK
 70
     0
  9
$BLIPMODE
 70
     0
  9
$CHAMFERA
 40
0.0
  9
$CHAMFERB
 40
0.0
  9
$CHAMFERC
 40
0.0
  9
$CHAMFERD
 40
0.0
  9
$SKPOLY
 70
     0
  9
$TDCREATE
 40
2451726.438389120
  9
$TDUPDATE
 40
2452010.490821527
  9
$TDINDWG
 40
1.0683486111
  9
$TDUSRTIMER
 40
1.0683486111
  9
$USRTIMER
 70
     1
  9
$ANGBASE
 50
0.0
  9
$ANGDIR
 70
     0
  9
$PDMODE
 70
     3
  9
$PDSIZE
 40
0.09
  9
$PLINEWID
 40
0.0
  9
$COORDS
 70
     1
  9
$SPLFRAME
 70
     1
  9
$SPLINETYPE
 70
     6
  9
$SPLINESEGS
 70
     8
  9
$ATTDIA
 70
     0
  9
$ATTREQ
 70
     1
  9
$HANDLING
 70
     1
  9
$HANDSEED
  5
8774D
  9
$SURFTAB1
 70
     6
  9
$SURFTAB2
 70
     6
  9
$SURFTYPE
 70
     6
  9
$SURFU
 70
     6
  9
$SURFV
 70
     6
  9
$UCSNAME
  2

  9
$UCSORG
 10
0.0
 20
0.0
 30
0.0
  9
$UCSXDIR
 10
1.0
 20
0.0
 30
0.0
  9
$UCSYDIR
 10
0.0
 20
1.0
 30
0.0
  9
$PUCSNAME
  2

  9
$PUCSORG
 10
0.0
 20
0.0
 30
0.0
  9
$PUCSXDIR
 10
1.0
 20
0.0
 30
0.0
  9
$PUCSYDIR
 10
0.0
 20
1.0
 30
0.0
  9
$USERI1
 70
     0
  9
$USERI2
 70
     0
  9
$USERI3
 70
     0
  9
$USERI4
 70
     0
  9
$USERI5
 70
     0
  9
$USERR1
 40
0.0
  9
$USERR2
 40
0.0
  9
$USERR3
 40
0.0
  9
$USERR4
 40
0.0
  9
$USERR5
 40
0.0
  9
$WORLDVIEW
 70
     1
  9
$SHADEDGE
 70
     3
  9
$SHADEDIF
 70
    70
  9
$TILEMODE
 70
     1
  9
$MAXACTVP
 70
    16
  9
$PINSBASE
 10
0.0
 20
0.0
 30
0.0
  9
$PLIMCHECK
 70
     0
  9
$PEXTMIN
 10
1.05
 20
0.8
 30
0.0
  9
$PEXTMAX
 10
9.45
 20
7.2
 30
0.0
  9
$PLIMMIN
 10
-0.25
 20
-0.25
  9
$PLIMMAX
 10
10.75
 20
8.25
  9
$UNITMODE
 70
     0
  9
$VISRETAIN
 70
     0
  9
$PLINEGEN
 70
     0
  9
$PSLTSCALE
 70
     1
  9
$TREEDEPTH
 70
  3020
  9
$PICKSTYLE
 70
     1
  9
$CMLSTYLE
  2
STANDARD
  9
$CMLJUST
 70
     0
  9
$CMLSCALE
 40
1.0
  9
$PROXYGRAPHICS
 70
     1
  9
$MEASUREMENT
 70
     0
  0
ENDSEC
  0
SECTION
  2
CLASSES
  0
CLASS
  1
DICTIONARYVAR
  2
AcDbDictionaryVar
  3
"AutoCAD"
 90
        0
280
     0
281
     0
  0
CLASS
  1
ACDBDICTIONARYWDFLT
  2
AcDbDictionaryWithDefault
  3
AutoCAD 2000
 90
        0
280
     0
281
     0
  0
CLASS
  1
ACDBPLACEHOLDER
  2
AcDbPlaceHolder
  3
AutoCAD 2000
 90
        0
280
     0
281
     0
  0
CLASS
  1
LAYOUT
  2
AcDbLayout
  3
AutoCAD 2000
 90
        0
280
     0
281
     0
  0
CLASS
  1
LONG_TRANSACTION
  2
AcDbLongTransaction
  3
AutoCAD 2000
 90
        0
280
     0
281
     0
  0
CLASS
  1
LWPOLYLINE
  2
AcDbPolyline
  3
"AutoCAD"
 90
        0
280
     0
281
     1
  0
CLASS
  1
HATCH
  2
AcDbHatch
  3
"ACAD_SEDONA"
 90
        0
280
     0
281
     1
  0
CLASS
  1
XRECORD
  2
AcDbXrecord
  3
"<Built In>"
 90
        0
280
     0
281
     0
  0
CLASS
  1
LONG_TRANSACTION
  2
AcDbLongTransaction
  3
AutoCAD 2000
 90
        0
280
     0
281
     0
  0
CLASS
  1
LWPOLYLINE
  2
AcDbPolyline
  3
"AutoCAD"
 90
        0
280
     0
281
     1
  0
CLASS
  1
HATCH
  2
AcDbHatch
  3
"ACAD_SEDONA"
 90
        0
280
     0
281
     1
  0
CLASS
  1
XRECORD
  2
AcDbXrecord
  3
"<Built In>"
 90
        0
280
     0
281
     0
  0
CLASS
  1
LONG_TRANSACTION
  2
AcDbLongTransaction
  3
AutoCAD 2000
 90
        0
280
     0
281
     0
  0
CLASS
  1
LWPOLYLINE
  2
AcDbPolyline
  3
"AutoCAD"
 90
        0
280
     0
281
     1
  0
CLASS
  1
HATCH
  2
AcDbHatch
  3
"ACAD_SEDONA"
 90
        0
280
     0
281
     1
  0
CLASS
  1
XRECORD
  2
AcDbXrecord
  3
"<Built In>"
 90
        0
280
     0
281
     0
  0
CLASS
  1
LONG_TRANSACTION
  2
AcDbLongTransaction
  3
AutoCAD 2000
 90
        0
280
     0
281
     0
  0
CLASS
  1
LWPOLYLINE
  2
AcDbPolyline
  3
"AutoCAD"
 90
        0
280
     0
281
     1
  0
CLASS
  1
HATCH
  2
AcDbHatch
  3
"ACAD_SEDONA"
 90
        0
280
     0
281
     1
  0
CLASS
  1
XRECORD
  2
AcDbXrecord
  3
"<Built In>"
 90
        0
280
     0
281
     0
  0
CLASS
  1
LONG_TRANSACTION
  2
AcDbLongTransaction
  3
AutoCAD 2000
 90
        0
280
     0
281
     0
  0
CLASS
  1
LWPOLYLINE
  2
AcDbPolyline
  3
"AutoCAD"
 90
        0
280
     0
281
     1
  0
CLASS
  1
HATCH
  2
AcDbHatch
  3
"ACAD_SEDONA"
 90
        0
280
     0
281
     1
  0
CLASS
  1
XRECORD
  2
AcDbXrecord
  3
"<Built In>"
 90
        0
280
     0
281
     0
  0
CLASS
  1
LONG_TRANSACTION
  2
AcDbLongTransaction
  3
AutoCAD 2000
 90
        0
280
     0
281
     0
  0
CLASS
  1
LWPOLYLINE
  2
AcDbPolyline
  3
"AutoCAD"
 90
        0
280
     0
281
     1
  0
CLASS
  1
HATCH
  2
AcDbHatch
  3
"ACAD_SEDONA"
 90
        0
280
     0
281
     1
  0
CLASS
  1
XRECORD
  2
AcDbXrecord
  3
"<Built In>"
 90
        0
280
     0
281
     0
  0
CLASS
  1
LONG_TRANSACTION
  2
AcDbLongTransaction
  3
AutoCAD 2000
 90
        0
280
     0
281
     0
  0
CLASS
  1
LWPOLYLINE
  2
AcDbPolyline
  3
"AutoCAD"
 90
        0
280
     0
281
     1
  0
CLASS
  1
HATCH
  2
AcDbHatch
  3
"ACAD_SEDONA"
 90
        0
280
     0
281
     1
  0
CLASS
  1
XRECORD
  2
AcDbXrecord
  3
"<Built In>"
 90
        0
280
     0
281
     0
  0
CLASS
  1
LONG_TRANSACTION
  2
AcDbLongTransaction
  3
AutoCAD 2000
 90
        0
280
     0
281
     0
  0
CLASS
  1
LWPOLYLINE
  2
AcDbPolyline
  3
"AutoCAD"
 90
        0
280
     0
281
     1
  0
CLASS
  1
HATCH
  2
AcDbHatch
  3
"ACAD_SEDONA"
 90
        0
280
     0
281
     1
  0
CLASS
  1
XRECORD
  2
AcDbXrecord
  3
"<Built In>"
 90
        0
280
     0
281
     0
  0
CLASS
  1
LONG_TRANSACTION
  2
AcDbLongTransaction
  3
AutoCAD 2000
 90
        0
280
     0
281
     0
  0
CLASS
  1
LWPOLYLINE
  2
AcDbPolyline
  3
"AutoCAD"
 90
        0
280
     0
281
     1
  0
CLASS
  1
HATCH
  2
AcDbHatch
  3
"ACAD_SEDONA"
 90
        0
280
     0
281
     1
  0
CLASS
  1
XRECORD
  2
AcDbXrecord
  3
"<Built In>"
 90
        0
280
     0
281
     0
  0
CLASS
  1
LONG_TRANSACTION
  2
AcDbLongTransaction
  3
AutoCAD 2000
 90
        0
280
     0
281
     0
  0
CLASS
  1
LWPOLYLINE
  2
AcDbPolyline
  3
"AutoCAD"
 90
        0
280
     0
281
     1
  0
CLASS
  1
HATCH
  2
AcDbHatch
  3
"ACAD_SEDONA"
 90
        0
280
     0
281
     1
  0
CLASS
  1
XRECORD
  2
AcDbXrecord
  3
"<Built In>"
 90
        0
280
     0
281
     0
  0
CLASS
  1
LONG_TRANSACTION
  2
AcDbLongTransaction
  3
AutoCAD 2000
 90
        0
280
     0
281
     0
  0
CLASS
  1
LWPOLYLINE
  2
AcDbPolyline
  3
"AutoCAD"
 90
        0
280
     0
281
     1
  0
CLASS
  1
HATCH
  2
AcDbHatch
  3
"ACAD_SEDONA"
 90
        0
280
     0
281
     1
  0
CLASS
  1
XRECORD
  2
AcDbXrecord
  3
"<Built In>"
 90
        0
280
     0
281
     0
  0
CLASS
  1
LONG_TRANSACTION
  2
AcDbLongTransaction
  3
AutoCAD 2000
 90
        0
280
     0
281
     0
  0
CLASS
  1
LWPOLYLINE
  2
AcDbPolyline
  3
"AutoCAD"
 90
        0
280
     0
281
     1
  0
CLASS
  1
HATCH
  2
AcDbHatch
  3
"ACAD_SEDONA"
 90
        0
280
     0
281
     1
  0
CLASS
  1
XRECORD
  2
AcDbXrecord
  3
"<Built In>"
 90
        0
280
     0
281
     0
  0
CLASS
  1
LONG_TRANSACTION
  2
AcDbLongTransaction
  3
AutoCAD 2000
 90
        0
280
     0
281
     0
  0
CLASS
  1
LWPOLYLINE
  2
AcDbPolyline
  3
"AutoCAD"
 90
        0
280
     0
281
     1
  0
CLASS
  1
HATCH
  2
AcDbHatch
  3
"ACAD_SEDONA"
 90
        0
280
     0
281
     1
  0
CLASS
  1
XRECORD
  2
AcDbXrecord
  3
"<Built In>"
 90
        0
280
     0
281
     0
  0
CLASS
  1
LONG_TRANSACTION
  2
AcDbLongTransaction
  3
AutoCAD 2000
 90
        0
280
     0
281
     0
  0
CLASS
  1
LWPOLYLINE
  2
AcDbPolyline
  3
"AutoCAD"
 90
        0
280
     0
281
     1
  0
CLASS
  1
HATCH
  2
AcDbHatch
  3
"ACAD_SEDONA"
 90
        0
280
     0
281
     1
  0
CLASS
  1
XRECORD
  2
AcDbXrecord
  3
"<Built In>"
 90
        0
280
     0
281
     0
  0
CLASS
  1
LONG_TRANSACTION
  2
AcDbLongTransaction
  3
AutoCAD 2000
 90
        0
280
     0
281
     0
  0
CLASS
  1
LWPOLYLINE
  2
AcDbPolyline
  3
"AutoCAD"
 90
        0
280
     0
281
     1
  0
CLASS
  1
HATCH
  2
AcDbHatch
  3
"ACAD_SEDONA"
 90
        0
280
     0
281
     1
  0
CLASS
  1
XRECORD
  2
AcDbXrecord
  3
"<Built In>"
 90
        0
280
     0
281
     0
  0
CLASS
  1
LONG_TRANSACTION
  2
AcDbLongTransaction
  3
AutoCAD 2000
 90
        0
280
     0
281
     0
  0
CLASS
  1
LWPOLYLINE
  2
AcDbPolyline
  3
"AutoCAD"
 90
        0
280
     0
281
     1
  0
CLASS
  1
HATCH
  2
AcDbHatch
  3
"ACAD_SEDONA"
 90
        0
280
     0
281
     1
  0
CLASS
  1
XRECORD
  2
AcDbXrecord
  3
"<Built In>"
 90
        0
280
     0
281
     0
  0
CLASS
  1
LONG_TRANSACTION
  2
AcDbLongTransaction
  3
AutoCAD 2000
 90
        0
280
     0
281
     0
  0
CLASS
  1
LWPOLYLINE
  2
AcDbPolyline
  3
"AutoCAD"
 90
        0
280
     0
281
     1
  0
CLASS
  1
HATCH
  2
AcDbHatch
  3
"ACAD_SEDONA"
 90
        0
280
     0
281
     1
  0
CLASS
  1
XRECORD
  2
AcDbXrecord
  3
"<Built In>"
 90
        0
280
     0
281
     0
  0
CLASS
  1
LONG_TRANSACTION
  2
AcDbLongTransaction
  3
AutoCAD 2000
 90
        0
280
     0
281
     0
  0
CLASS
  1
LWPOLYLINE
  2
AcDbPolyline
  3
"AutoCAD"
 90
        0
280
     0
281
     1
  0
CLASS
  1
HATCH
  2
AcDbHatch
  3
"ACAD_SEDONA"
 90
        0
280
     0
281
     1
  0
CLASS
  1
XRECORD
  2
AcDbXrecord
  3
"<Built In>"
 90
        0
280
     0
281
     0
  0
CLASS
  1
LONG_TRANSACTION
  2
AcDbLongTransaction
  3
AutoCAD 2000
 90
        0
280
     0
281
     0
  0
CLASS
  1
LWPOLYLINE
  2
AcDbPolyline
  3
"AutoCAD"
 90
        0
280
     0
281
     1
  0
CLASS
  1
HATCH
  2
AcDbHatch
  3
"ACAD_SEDONA"
 90
        0
280
     0
281
     1
  0
CLASS
  1
XRECORD
  2
AcDbXrecord
  3
"<Built In>"
 90
        0
280
     0
281
     0
  0
CLASS
  1
LONG_TRANSACTION
  2
AcDbLongTransaction
  3
AutoCAD 2000
 90
        0
280
     0
281
     0
  0
CLASS
  1
LWPOLYLINE
  2
AcDbPolyline
  3
"AutoCAD"
 90
        0
280
     0
281
     1
  0
CLASS
  1
HATCH
  2
AcDbHatch
  3
"ACAD_SEDONA"
 90
        0
280
     0
281
     1
  0
CLASS
  1
XRECORD
  2
AcDbXrecord
  3
"<Built In>"
 90
        0
280
     0
281
     0
  0
CLASS
  1
LONG_TRANSACTION
  2
AcDbLongTransaction
  3
AutoCAD 2000
 90
        0
280
     0
281
     0
  0
CLASS
  1
LWPOLYLINE
  2
AcDbPolyline
  3
"AutoCAD"
 90
        0
280
     0
281
     1
  0
CLASS
  1
HATCH
  2
AcDbHatch
  3
"ACAD_SEDONA"
 90
        0
280
     0
281
     1
  0
CLASS
  1
XRECORD
  2
AcDbXrecord
  3
"<Built In>"
 90
        0
280
     0
281
     0
  0
CLASS
  1
LONG_TRANSACTION
  2
AcDbLongTransaction
  3
AutoCAD 2000
 90
        0
280
     0
281
     0
  0
CLASS
  1
LWPOLYLINE
  2
AcDbPolyline
  3
"AutoCAD"
 90
        0
280
     0
281
     1
  0
CLASS
  1
HATCH
  2
AcDbHatch
  3
"ACAD_SEDONA"
 90
        0
280
     0
281
     1
  0
CLASS
  1
XRECORD
  2
AcDbXrecord
  3
"<Built In>"
 90
        0
280
     0
281
     0
  0
CLASS
  1
LONG_TRANSACTION
  2
AcDbLongTransaction
  3
AutoCAD 2000
 90
        0
280
     0
281
     0
  0
CLASS
  1
LWPOLYLINE
  2
AcDbPolyline
  3
"AutoCAD"
 90
        0
280
     0
281
     1
  0
CLASS
  1
HATCH
  2
AcDbHatch
  3
"ACAD_SEDONA"
 90
        0
280
     0
281
     1
  0
CLASS
  1
XRECORD
  2
AcDbXrecord
  3
"<Built In>"
 90
        0
280
     0
281
     0
  0
CLASS
  1
LONG_TRANSACTION
  2
AcDbLongTransaction
  3
AutoCAD 2000
 90
        0
280
     0
281
     0
  0
CLASS
  1
LWPOLYLINE
  2
AcDbPolyline
  3
"AutoCAD"
 90
        0
280
     0
281
     1
  0
CLASS
  1
HATCH
  2
AcDbHatch
  3
"ACAD_SEDONA"
 90
        0
280
     0
281
     1
  0
CLASS
  1
XRECORD
  2
AcDbXrecord
  3
"<Built In>"
 90
        0
280
     0
281
     0
  0
CLASS
  1
LONG_TRANSACTION
  2
AcDbLongTransaction
  3
AutoCAD 2000
 90
        0
280
     0
281
     0
  0
CLASS
  1
LWPOLYLINE
  2
AcDbPolyline
  3
"AutoCAD"
 90
        0
280
     0
281
     1
  0
CLASS
  1
HATCH
  2
AcDbHatch
  3
"ACAD_SEDONA"
 90
        0
280
     0
281
     1
  0
CLASS
  1
XRECORD
  2
AcDbXrecord
  3
"<Built In>"
 90
        0
280
     0
281
     0
  0
CLASS
  1
LONG_TRANSACTION
  2
AcDbLongTransaction
  3
AutoCAD 2000
 90
        0
280
     0
281
     0
  0
CLASS
  1
LWPOLYLINE
  2
AcDbPolyline
  3
"AutoCAD"
 90
        0
280
     0
281
     1
  0
CLASS
  1
HATCH
  2
AcDbHatch
  3
"ACAD_SEDONA"
 90
        0
280
     0
281
     1
  0
CLASS
  1
XRECORD
  2
AcDbXrecord
  3
"<Built In>"
 90
        0
280
     0
281
     0
  0
CLASS
  1
LONG_TRANSACTION
  2
AcDbLongTransaction
  3
AutoCAD 2000
 90
        0
280
     0
281
     0
  0
CLASS
  1
LWPOLYLINE
  2
AcDbPolyline
  3
"AutoCAD"
 90
        0
280
     0
281
     1
  0
CLASS
  1
HATCH
  2
AcDbHatch
  3
"ACAD_SEDONA"
 90
        0
280
     0
281
     1
  0
CLASS
  1
XRECORD
  2
AcDbXrecord
  3
"<Built In>"
 90
        0
280
     0
281
     0
  0
CLASS
  1
LONG_TRANSACTION
  2
AcDbLongTransaction
  3
AutoCAD 2000
 90
        0
280
     0
281
     0
  0
CLASS
  1
LWPOLYLINE
  2
AcDbPolyline
  3
"AutoCAD"
 90
        0
280
     0
281
     1
  0
CLASS
  1
HATCH
  2
AcDbHatch
  3
"ACAD_SEDONA"
 90
        0
280
     0
281
     1
  0
CLASS
  1
XRECORD
  2
AcDbXrecord
  3
"<Built In>"
 90
        0
280
     0
281
     0
  0
CLASS
  1
LONG_TRANSACTION
  2
AcDbLongTransaction
  3
AutoCAD 2000
 90
        0
280
     0
281
     0
  0
CLASS
  1
LWPOLYLINE
  2
AcDbPolyline
  3
"AutoCAD"
 90
        0
280
     0
281
     1
  0
CLASS
  1
HATCH
  2
AcDbHatch
  3
"ACAD_SEDONA"
 90
        0
280
     0
281
     1
  0
CLASS
  1
XRECORD
  2
AcDbXrecord
  3
"<Built In>"
 90
        0
280
     0
281
     0
  0
ENDSEC
  0
SECTION
  2
TABLES
  0
TABLE
  2
VPORT
  5
458C7
100
AcDbSymbolTable
 70
     1
  0
VPORT
  5
87718
102
{ACAD_XDICTIONARY
360
8771B
102
}
100
AcDbSymbolTableRecord
100
AcDbViewportTableRecord
  2
*ACTIVE
 70
     0
 10
0.0
 20
0.0
 11
1.0
 21
1.0
 12
-6.443198
 22
0.047019
 13
0.0
 23
0.0
 14
0.25
 24
0.25
 15
0.25
 25
0.25
 16
0.0
 26
0.0
 36
1.0
 17
6.619902
 27
-3.501216
 37
4.043999
 40
9.850784
 41
1.960674
 42
50.0
 43
0.0
 44
0.0
 50
0.0
 51
0.0
 71
     0
 72
 20000
 73
     1
 74
     1
 75
     0
 76
     0
 77
     0
 78
     0
  0
ENDTAB
  0
TABLE
  2
LTYPE
  5
458C4
100
AcDbSymbolTable
 70
     1
  0
LTYPE
  5
458D0
100
AcDbSymbolTableRecord
100
AcDbLinetypeTableRecord
  2
BYBLOCK
 70
     0
  3

 72
    65
 73
     0
 40
0.0
  0
LTYPE
  5
458D1
100
AcDbSymbolTableRecord
100
AcDbLinetypeTableRecord
  2
BYLAYER
 70
     0
  3

 72
    65
 73
     0
 40
0.0
  0
LTYPE
  5
458D2
100
AcDbSymbolTableRecord
100
AcDbLinetypeTableRecord
  2
CONTINUOUS
 70
     0
  3
Solid line
 72
    65
 73
     0
 40
0.0
  0
ENDTAB
  0
TABLE
  2
LAYER
  5
458C1
100
AcDbSymbolTable
 70
     7
  0
LAYER
  5
458CD
100
AcDbSymbolTableRecord
100
AcDbLayerTableRecord
  2
0
 70
     0
 62
     7
  6
CONTINUOUS
  0
LAYER
  5
458EA
100
AcDbSymbolTableRecord
100
AcDbLayerTableRecord
  2
DIMS-MTG-HOLES
 70
     0
 62
     1
  6
CONTINUOUS
  0
LAYER
  5
458EB
100
AcDbSymbolTableRecord
100
AcDbLayerTableRecord
  2
ATTRIBUTES
 70
     0
 62
     7
  6
CONTINUOUS
  0
LAYER
  5
4593B
102
{ACAD_XDICTIONARY
360
87744
102
}
100
AcDbSymbolTableRecord
100
AcDbLayerTableRecord
  2
AREA1
 70
     0
 62
    -7
  6
CONTINUOUS
  0
LAYER
  5
45940
102
{ACAD_XDICTIONARY
360
87719
102
}
100
AcDbSymbolTableRecord
100
AcDbLayerTableRecord
  2
DEFPOINTS
 70
     0
 62
    -7
  6
CONTINUOUS
  0
LAYER
  5
45954
100
AcDbSymbolTableRecord
100
AcDbLayerTableRecord
  2
SCALE
 70
     0
 62
    -7
  6
CONTINUOUS
  0
LAYER
  5
4D59A
100
AcDbSymbolTableRecord
100
AcDbLayerTableRecord
  2
SNAP_POINTS
 70
     0
 62
    -1
  6
CONTINUOUS
  0
ENDTAB
  0
TABLE
  2
STYLE
  5
458C2
100
AcDbSymbolTable
 70
     1
  0
STYLE
  5
458CE
100
AcDbSymbolTableRecord
100
AcDbTextStyleTableRecord
  2
STANDARD
 70
     0
 40
0.0
 41
1.0
 50
0.0
 71
     0
 42
0.12
  3
txt
  4

  0
ENDTAB
  0
TABLE
  2
VIEW
  5
458C5
100
AcDbSymbolTable
 70
     0
  0
ENDTAB
  0
TABLE
  2
UCS
  5
458C6
100
AcDbSymbolTable
 70
     0
  0
ENDTAB
  0
TABLE
  2
APPID
  5
458C8
100
AcDbSymbolTable
 70
     2
  0
APPID
  5
458CF
100
AcDbSymbolTableRecord
100
AcDbRegAppTableRecord
  2
ACAD
 70
     0
  0
APPID
  5
5FD5B
100
AcDbSymbolTableRecord
100
AcDbRegAppTableRecord
  2
AVE_RENDER
 70
     0
  0
ENDTAB
  0
TABLE
  2
DIMSTYLE
  5
458C9
100
AcDbSymbolTable
 70
     1
  0
DIMSTYLE
105
458F6
102
{ACAD_XDICTIONARY
360
87740
102
}
102
{ACAD_REACTORS
330
876AD
330
876BB
102
}
100
AcDbSymbolTableRecord
100
AcDbDimStyleTableRecord
  2
ABECAD_3D
 70
     0
  3

  4

  5

  6

  7

 40
1.0
 41
0.3
 42
0.1
 43
0.375
 44
0.1
 45
0.0
 46
0.0
 47
0.0
 48
0.0
140
0.3
141
0.09
142
0.0
143
25.4
144
1.0
145
0.0
146
1.5
147
0.09
 71
     0
 72
     0
 73
     0
 74
     1
 75
     0
 76
     0
 77
     0
 78
     4
170
     1
171
     2
172
     0
173
     0
174
     0
175
     0
176
     0
177
     0
178
     0
270
     7
271
     6
272
     6
273
     2
274
     2
340
458CE
275
     0
280
     0
281
     0
282
     0
283
     1
284
     4
285
     4
286
     4
287
     5
288
     1
  0
ENDTAB
  0
TABLE
  2
BLOCK_RECORD
  5
458C0
100
AcDbSymbolTable
 70
     2
  0
BLOCK_RECORD
  5
458D6
102
{ACAD_XDICTIONARY
360
4592C
102
}
100
AcDbSymbolTableRecord
100
AcDbBlockTableRecord
  2
*MODEL_SPACE
  0
BLOCK_RECORD
  5
458D3
102
{ACAD_XDICTIONARY
360
4592A
102
}
100
AcDbSymbolTableRecord
100
AcDbBlockTableRecord
  2
*PAPER_SPACE
  0
BLOCK_RECORD
  5
876AE
100
AcDbSymbolTableRecord
100
AcDbBlockTableRecord
  2
*D0
  0
BLOCK_RECORD
  5
876BC
100
AcDbSymbolTableRecord
100
AcDbBlockTableRecord
  2
*D1
  0
ENDTAB
  0
ENDSEC
  0
SECTION
  2
BLOCKS
  0
BLOCK
  5
458DF
100
AcDbEntity
  8
0
100
AcDbBlockBegin
  2
*MODEL_SPACE
 70
     0
 10
0.0
 20
0.0
 30
0.0
  3
*MODEL_SPACE
  1

  0
ENDBLK
  5
458E0
100
AcDbEntity
  8
0
100
AcDbBlockEnd
  0
BLOCK
  5
458DD
100
AcDbEntity
 67
     1
  8
0
100
AcDbBlockBegin
  2
*PAPER_SPACE
 70
     0
 10
0.0
 20
0.0
 30
0.0
  3
*PAPER_SPACE
  1

  0
ENDBLK
  5
458DE
100
AcDbEntity
 67
     1
  8
0
100
AcDbBlockEnd
  0
BLOCK
  5
876B9
100
AcDbEntity
  8
0
100
AcDbBlockBegin
  2
*D0
 70
     1
 10
0.0
 20
0.0
 30
0.0
  3
*D0
  1

  0
LINE
  5
876AF
100
AcDbEntity
  8
AREA1
 62
     0
100
AcDbLine
 10
-1.1
 20
0.281
 30
0.0
 11
-4.323678
 21
0.281
 31
0.0
1001
ACAD
1000
RTLwPs
1070
   158
  0
LINE
  5
876B0
100
AcDbEntity
  8
AREA1
 62
     0
100
AcDbLine
 10
-3.243
 20
-7.309
 30
0.0
 11
-4.323678
 21
-7.309
 31
0.0
1001
ACAD
1000
RTLwPs
1070
   158
  0
LINE
  5
876B1
100
AcDbEntity
  8
AREA1
 62
     0
100
AcDbLine
 10
-4.223678
 20
-0.019
 30
0.0
 11
-4.223678
 21
-1.474514
 31
0.0
1001
ACAD
1000
RTLwPs
1070
   158
  0
LINE
  5
876B2
100
AcDbEntity
  8
AREA1
 62
     0
100
AcDbLine
 10
-4.223678
 20
-7.009
 30
0.0
 11
-4.223678
 21
-5.754514
 31
0.0
1001
ACAD
1000
RTLwPs
1070
   158
  0
MTEXT
  5
876B3
100
AcDbEntity
  8
AREA1
 62
     0
100
AcDbMText
 10
-4.223678
 20
-3.614514
 30
0.0
 40
0.3
 41
0.0
 71
     5
 72
     1
  1
\A1;7 19/32 [192.79]
 11
0.0
 21
1.0
 31
0.0
1001
ACAD
1000
MTEXTBEGIN
1070
    73
1070
     1
1070
    44
1040
1.0
1070
    74
1070
     0
1000
MTEXTEND
1000
MTEXTBEGIN
1070
    73
1070
     1
1070
    44
1040
1.0
1070
    74
1070
     0
1000
MTEXTEND
  0
SOLID
  5
876B4
100
AcDbEntity
  8
AREA1
 62
     0
100
AcDbTrace
 10
-4.273678
 20
-0.019
 30
0.0
 11
-4.173678
 21
-0.019
 31
0.0
 12
-4.223678
 22
0.281
 32
0.0
 13
-4.223678
 23
0.281
 33
0.0
  0
SOLID
  5
876B5
100
AcDbEntity
  8
AREA1
 62
     0
100
AcDbTrace
 10
-4.273678
 20
-7.009
 30
0.0
 11
-4.173678
 21
-7.009
 31
0.0
 12
-4.223678
 22
-7.309
 32
0.0
 13
-4.223678
 23
-7.309
 33
0.0
  0
POINT
  5
876B6
100
AcDbEntity
  8
DEFPOINTS
 62
     0
100
AcDbPoint
 10
-1.0
 20
0.281
 30
0.0
  0
POINT
  5
876B7
100
AcDbEntity
  8
DEFPOINTS
 62
     0
100
AcDbPoint
 10
-3.143
 20
-7.309
 30
0.0
  0
POINT
  5
876B8
100
AcDbEntity
  8
DEFPOINTS
 62
     0
100
AcDbPoint
 10
-4.223678
 20
-7.309
 30
0.0
  0
ENDBLK
  5
876BA
100
AcDbEntity
  8
0
100
AcDbBlockEnd
  0
BLOCK
  5
876C7
100
AcDbEntity
  8
0
100
AcDbBlockBegin
  2
*D1
 70
     1
 10
0.0
 20
0.0
 30
0.0
  3
*D1
  1

  0
LINE
  5
876BD
100
AcDbEntity
  8
AREA1
 62
     0
100
AcDbLine
 10
-3.143
 20
-0.529
 30
0.0
 11
-3.143
 21
1.338893
 31
0.0
1001
ACAD
1000
RTLwPs
1070
   158
  0
LINE
  5
876BE
100
AcDbEntity
  8
AREA1
 62
     0
100
AcDbLine
 10
4.727
 20
-0.529
 30
0.0
 11
4.727
 21
1.338893
 31
0.0
1001
ACAD
1000
RTLwPs
1070
   158
  0
LINE
  5
876BF
100
AcDbEntity
  8
AREA1
 62
     0
100
AcDbLine
 10
-2.843
 20
1.238893
 30
0.0
 11
-1.116115
 21
1.238893
 31
0.0
1001
ACAD
1000
RTLwPs
1070
   158
  0
LINE
  5
876C0
100
AcDbEntity
  8
AREA1
 62
     0
100
AcDbLine
 10
4.427
 20
1.238893
 30
0.0
 11
2.613885
 21
1.238893
 31
0.0
1001
ACAD
1000
RTLwPs
1070
   158
  0
MTEXT
  5
876C1
100
AcDbEntity
  8
AREA1
 62
     0
100
AcDbMText
 10
0.748885
 20
1.238893
 30
0.0
 40
0.3
 41
0.0
 71
     5
 72
     1
  1
\A1;7 7/8 [199.90]
1001
ACAD
1000
MTEXTBEGIN
1070
    73
1070
     1
1070
    44
1040
1.0
1070
    74
1070
     0
1000
MTEXTEND
1000
MTEXTBEGIN
1070
    73
1070
     1
1070
    44
1040
1.0
1070
    74
1070
     0
1000
MTEXTEND
  0
SOLID
  5
876C2
100
AcDbEntity
  8
AREA1
 62
     0
100
AcDbTrace
 10
-2.843
 20
1.288893
 30
0.0
 11
-2.843
 21
1.188893
 31
0.0
 12
-3.143
 22
1.238893
 32
0.0
 13
-3.143
 23
1.238893
 33
0.0
  0
SOLID
  5
876C3
100
AcDbEntity
  8
AREA1
 62
     0
100
AcDbTrace
 10
4.427
 20
1.288893
 30
0.0
 11
4.427
 21
1.188893
 31
0.0
 12
4.727
 22
1.238893
 32
0.0
 13
4.727
 23
1.238893
 33
0.0
  0
POINT
  5
876C4
100
AcDbEntity
  8
DEFPOINTS
 62
     0
100
AcDbPoint
 10
-3.143
 20
-0.629
 30
0.0
  0
POINT
  5
876C5
100
AcDbEntity
  8
DEFPOINTS
 62
     0
100
AcDbPoint
 10
4.727
 20
-0.629
 30
0.0
  0
POINT
  5
876C6
100
AcDbEntity
  8
DEFPOINTS
 62
     0
100
AcDbPoint
 10
4.727
 20
1.238893
 30
0.0
  0
ENDBLK
  5
876C8
100
AcDbEntity
  8
0
100
AcDbBlockEnd
  0
ENDSEC
  0
SECTION
  2
ENTITIES
  0
3DFACE
  5
87370
100
AcDbEntity
  8
0
100
AcDbFace
 10
-2.853
 20
-7.309
 30
0.197
 11
-2.853
 21
-7.309
 31
0.0
 12
-3.013
 22
-7.309
 32
0.0
 13
-3.013
 23
-7.309
 33
0.197
 70
    14
  0
ARC
  5
87371
100
AcDbEntity
  8
0
100
AcDbCircle
 10
-2.753
 20
-7.09
 30
0.0
 40
0.1
100
AcDbArc
 50
0.0
 51
179.999985
  0
ARC
  5
87372
100
AcDbEntity
  8
0
100
AcDbCircle
 10
-2.753
 20
-7.09
 30
0.197
 40
0.1
100
AcDbArc
 50
0.0
 51
179.999985
  0
LINE
  5
87373
100
AcDbEntity
  8
0
100
AcDbLine
 10
-2.653
 20
-7.309
 30
0.0
 11
-2.653
 21
-7.309
 31
0.197
  0
LINE
  5
87374
100
AcDbEntity
  8
0
100
AcDbLine
 10
-2.853
 20
-7.309
 30
0.0
 11
-2.853
 21
-7.309
 31
0.197
  0
LINE
  5
87375
100
AcDbEntity
  8
0
100
AcDbLine
 10
-2.653
 20
-7.09
 30
0.0
 11
-2.653
 21
-7.09
 31
0.197
  0
LINE
  5
87376
100
AcDbEntity
  8
0
100
AcDbLine
 10
-2.853
 20
-7.09
 30
0.0
 11
-2.853
 21
-7.09
 31
0.197
  0
LINE
  5
87377
100
AcDbEntity
  8
0
100
AcDbLine
 10
-2.853
 20
-7.09
 30
0.0
 11
-2.853
 21
-7.309
 31
0.0
  0
LINE
  5
87378
100
AcDbEntity
  8
0
100
AcDbLine
 10
-2.653
 20
-7.309
 30
0.0
 11
-2.653
 21
-7.09
 31
0.0
  0
LINE
  5
87379
100
AcDbEntity
  8
0
100
AcDbLine
 10
-2.853
 20
-7.09
 30
0.197
 11
-2.853
 21
-7.309
 31
0.197
  0
LINE
  5
8737A
100
AcDbEntity
  8
0
100
AcDbLine
 10
-2.653
 20
-7.309
 30
0.197
 11
-2.653
 21
-7.09
 31
0.197
  0
ARC
  5
8737B
100
AcDbEntity
  8
0
100
AcDbCircle
 10
0.0
 20
0.0
 30
0.0
 40
0.1
100
AcDbArc
 50
0.0
 51
179.999985
  0
ARC
  5
8737C
100
AcDbEntity
  8
0
100
AcDbCircle
 10
0.0
 20
0.0
 30
0.197
 40
0.1
100
AcDbArc
 50
0.0
 51
179.999985
  0
LINE
  5
8737D
100
AcDbEntity
  8
0
100
AcDbLine
 10
-0.1
 20
-0.131891
 30
0.0
 11
-0.1
 21
-0.131891
 31
0.197
  0
LINE
  5
8737E
100
AcDbEntity
  8
0
100
AcDbLine
 10
0.1
 20
-0.131891
 30
0.0
 11
0.1
 21
-0.131891
 31
0.197
  0
LINE
  5
8737F
100
AcDbEntity
  8
0
100
AcDbLine
 10
0.1
 20
0.0
 30
0.0
 11
0.1
 21
0.0
 31
0.197
  0
LINE
  5
87380
100
AcDbEntity
  8
0
100
AcDbLine
 10
-0.1
 20
0.0
 30
0.0
 11
-0.1
 21
0.0
 31
0.197
  0
ARC
  5
87381
100
AcDbEntity
  8
0
100
AcDbCircle
 10
0.0
 20
-0.344
 30
0.0
 40
0.2345
100
AcDbArc
 50
115.241821
 51
64.758209
  0
LINE
  5
87382
100
AcDbEntity
  8
0
100
AcDbLine
 10
-0.1
 20
0.0
 30
0.0
 11
-0.1
 21
-0.131891
 31
0.0
  0
LINE
  5
87383
100
AcDbEntity
  8
0
100
AcDbLine
 10
0.1
 20
0.0
 30
0.0
 11
0.1
 21
-0.131891
 31
0.0
  0
ARC
  5
87384
100
AcDbEntity
  8
0
100
AcDbCircle
 10
0.0
 20
-0.344
 30
0.197
 40
0.2345
100
AcDbArc
 50
115.241821
 51
64.758209
  0
LINE
  5
87385
100
AcDbEntity
  8
0
100
AcDbLine
 10
-0.1
 20
0.0
 30
0.197
 11
-0.1
 21
-0.131891
 31
0.197
  0
LINE
  5
87386
100
AcDbEntity
  8
0
100
AcDbLine
 10
0.1
 20
0.0
 30
0.197
 11
0.1
 21
-0.131891
 31
0.197
  0
3DFACE
  5
87387
100
AcDbEntity
  8
0
100
AcDbFace
 10
4.437
 20
-7.309
 30
0.197
 11
4.437
 21
-7.309
 31
0.0
 12
4.597
 22
-7.309
 32
0.0
 13
4.597
 23
-7.309
 33
0.197
 70
    14
  0
ARC
  5
87388
100
AcDbEntity
  8
0
100
AcDbCircle
 10
4.337
 20
-7.09
 30
0.0
 40
0.1
100
AcDbArc
 50
0.0
 51
179.999985
  0
ARC
  5
87389
100
AcDbEntity
  8
0
100
AcDbCircle
 10
4.337
 20
-7.09
 30
0.197
 40
0.1
100
AcDbArc
 50
0.0
 51
179.999985
  0
LINE
  5
8738A
100
AcDbEntity
  8
0
100
AcDbLine
 10
4.437
 20
-7.309
 30
0.0
 11
4.437
 21
-7.309
 31
0.197
  0
LINE
  5
8738B
100
AcDbEntity
  8
0
100
AcDbLine
 10
4.237
 20
-7.309
 30
0.0
 11
4.237
 21
-7.309
 31
0.197
  0
LINE
  5
8738C
100
AcDbEntity
  8
0
100
AcDbLine
 10
4.437
 20
-7.09
 30
0.0
 11
4.437
 21
-7.09
 31
0.197
  0
LINE
  5
8738D
100
AcDbEntity
  8
0
100
AcDbLine
 10
4.237
 20
-7.09
 30
0.0
 11
4.237
 21
-7.09
 31
0.197
  0
LINE
  5
8738E
100
AcDbEntity
  8
0
100
AcDbLine
 10
4.237
 20
-7.09
 30
0.0
 11
4.237
 21
-7.309
 31
0.0
  0
LINE
  5
8738F
100
AcDbEntity
  8
0
100
AcDbLine
 10
4.437
 20
-7.309
 30
0.0
 11
4.437
 21
-7.09
 31
0.0
  0
LINE
  5
87390
100
AcDbEntity
  8
0
100
AcDbLine
 10
4.237
 20
-7.09
 30
0.197
 11
4.237
 21
-7.309
 31
0.197
  0
LINE
  5
87391
100
AcDbEntity
  8
0
100
AcDbLine
 10
4.437
 20
-7.309
 30
0.197
 11
4.437
 21
-7.09
 31
0.197
  0
POLYLINE
  5
87398
100
AcDbEntity
  8
0
100
AcDbPolygonMesh
 66
     1
 10
0.0
 20
0.0
 30
0.0
 70
    16
 71
     6
 72
     3
  0
VERTEX
  5
87399
100
AcDbEntity
  8
0
100
AcDbVertex
100
AcDbPolygonMeshVertex
 10
4.727
 20
-7.309
 30
0.197
 70
    64
  0
VERTEX
  5
8739A
100
AcDbEntity
  8
0
100
AcDbVertex
100
AcDbPolygonMeshVertex
 10
4.727
 20
-7.309
 30
0.0
 70
    64
  0
VERTEX
  5
8739B
100
AcDbEntity
  8
0
100
AcDbVertex
100
AcDbPolygonMeshVertex
 10
4.727
 20
-7.309
 30
0.0
 70
    64
  0
VERTEX
  5
8739C
100
AcDbEntity
  8
0
100
AcDbVertex
100
AcDbPolygonMeshVertex
 10
-3.143
 20
-7.309
 30
0.197
 70
    64
  0
VERTEX
  5
8739D
100
AcDbEntity
  8
0
100
AcDbVertex
100
AcDbPolygonMeshVertex
 10
-3.143
 20
-7.309
 30
0.0
 70
    64
  0
VERTEX
  5
8739E
100
AcDbEntity
  8
0
100
AcDbVertex
100
AcDbPolygonMeshVertex
 10
-3.143
 20
-7.309
 30
0.0
 70
    64
  0
VERTEX
  5
8739F
100
AcDbEntity
  8
0
100
AcDbVertex
100
AcDbPolygonMeshVertex
 10
-3.143
 20
-0.629
 30
0.197
 70
    64
  0
VERTEX
  5
873A0
100
AcDbEntity
  8
0
100
AcDbVertex
100
AcDbPolygonMeshVertex
 10
-3.143
 20
-0.629
 30
0.0
 70
    64
  0
VERTEX
  5
873A1
100
AcDbEntity
  8
0
100
AcDbVertex
100
AcDbPolygonMeshVertex
 10
-3.143
 20
-7.309
 30
0.0
 70
    64
  0
VERTEX
  5
873A2
100
AcDbEntity
  8
0
100
AcDbVertex
100
AcDbPolygonMeshVertex
 10
4.727
 20
-0.629
 30
0.197
 70
    64
  0
VERTEX
  5
873A3
100
AcDbEntity
  8
0
100
AcDbVertex
100
AcDbPolygonMeshVertex
 10
4.727
 20
-0.629
 30
0.0
 70
    64
  0
VERTEX
  5
873A4
100
AcDbEntity
  8
0
100
AcDbVertex
100
AcDbPolygonMeshVertex
 10
4.727
 20
-7.309
 30
0.0
 70
    64
  0
VERTEX
  5
873A5
100
AcDbEntity
  8
0
100
AcDbVertex
100
AcDbPolygonMeshVertex
 10
4.727
 20
-0.629
 30
0.197
 70
    64
  0
VERTEX
  5
873A6
100
AcDbEntity
  8
0
100
AcDbVertex
100
AcDbPolygonMeshVertex
 10
4.727
 20
-0.629
 30
0.197
 70
    64
  0
VERTEX
  5
873A7
100
AcDbEntity
  8
0
100
AcDbVertex
100
AcDbPolygonMeshVertex
 10
4.727
 20
-7.309
 30
0.197
 70
    64
  0
VERTEX
  5
873A8
100
AcDbEntity
  8
0
100
AcDbVertex
100
AcDbPolygonMeshVertex
 10
-3.143
 20
-0.629
 30
0.197
 70
    64
  0
VERTEX
  5
873A9
100
AcDbEntity
  8
0
100
AcDbVertex
100
AcDbPolygonMeshVertex
 10
-3.143
 20
-0.629
 30
0.197
 70
    64
  0
VERTEX
  5
873AA
100
AcDbEntity
  8
0
100
AcDbVertex
100
AcDbPolygonMeshVertex
 10
-3.143
 20
-7.309
 30
0.197
 70
    64
  0
SEQEND
  5
873AB
100
AcDbEntity
  8
0
  0
POLYLINE
  5
873AC
100
AcDbEntity
  8
0
100
AcDbPolygonMesh
 66
     1
 10
0.0
 20
0.0
 30
0.0
 70
    16
 71
     6
 72
     3
  0
VERTEX
  5
873AD
100
AcDbEntity
  8
0
100
AcDbVertex
100
AcDbPolygonMeshVertex
 10
1.118
 20
-5.16
 30
4.667
 70
    64
  0
VERTEX
  5
873AE
100
AcDbEntity
  8
0
100
AcDbVertex
100
AcDbPolygonMeshVertex
 10
1.118
 20
-5.16
 30
0.387
 70
    64
  0
VERTEX
  5
873AF
100
AcDbEntity
  8
0
100
AcDbVertex
100
AcDbPolygonMeshVertex
 10
1.118
 20
-5.16
 30
0.387
 70
    64
  0
VERTEX
  5
873B0
100
AcDbEntity
  8
0
100
AcDbVertex
100
AcDbPolygonMeshVertex
 10
0.486
 20
-5.16
 30
4.667
 70
    64
  0
VERTEX
  5
873B1
100
AcDbEntity
  8
0
100
AcDbVertex
100
AcDbPolygonMeshVertex
 10
0.486
 20
-5.16
 30
0.387
 70
    64
  0
VERTEX
  5
873B2
100
AcDbEntity
  8
0
100
AcDbVertex
100
AcDbPolygonMeshVertex
 10
0.486
 20
-5.16
 30
0.387
 70
    64
  0
VERTEX
  5
873B3
100
AcDbEntity
  8
0
100
AcDbVertex
100
AcDbPolygonMeshVertex
 10
0.486
 20
-3.1
 30
4.667
 70
    64
  0
VERTEX
  5
873B4
100
AcDbEntity
  8
0
100
AcDbVertex
100
AcDbPolygonMeshVertex
 10
0.486
 20
-3.1
 30
0.387
 70
    64
  0
VERTEX
  5
873B5
100
AcDbEntity
  8
0
100
AcDbVertex
100
AcDbPolygonMeshVertex
 10
0.486
 20
-5.16
 30
0.387
 70
    64
  0
VERTEX
  5
873B6
100
AcDbEntity
  8
0
100
AcDbVertex
100
AcDbPolygonMeshVertex
 10
1.118
 20
-3.1
 30
4.667
 70
    64
  0
VERTEX
  5
873B7
100
AcDbEntity
  8
0
100
AcDbVertex
100
AcDbPolygonMeshVertex
 10
1.118
 20
-3.1
 30
0.387
 70
    64
  0
VERTEX
  5
873B8
100
AcDbEntity
  8
0
100
AcDbVertex
100
AcDbPolygonMeshVertex
 10
1.118
 20
-5.16
 30
0.387
 70
    64
  0
VERTEX
  5
873B9
100
AcDbEntity
  8
0
100
AcDbVertex
100
AcDbPolygonMeshVertex
 10
1.118
 20
-3.1
 30
4.667
 70
    64
  0
VERTEX
  5
873BA
100
AcDbEntity
  8
0
100
AcDbVertex
100
AcDbPolygonMeshVertex
 10
1.118
 20
-3.1
 30
4.667
 70
    64
  0
VERTEX
  5
873BB
100
AcDbEntity
  8
0
100
AcDbVertex
100
AcDbPolygonMeshVertex
 10
1.118
 20
-5.16
 30
4.667
 70
    64
  0
VERTEX
  5
873BC
100
AcDbEntity
  8
0
100
AcDbVertex
100
AcDbPolygonMeshVertex
 10
0.486
 20
-3.1
 30
4.667
 70
    64
  0
VERTEX
  5
873BD
100
AcDbEntity
  8
0
100
AcDbVertex
100
AcDbPolygonMeshVertex
 10
0.486
 20
-3.1
 30
4.667
 70
    64
  0
VERTEX
  5
873BE
100
AcDbEntity
  8
0
100
AcDbVertex
100
AcDbPolygonMeshVertex
 10
0.486
 20
-5.16
 30
4.667
 70
    64
  0
SEQEND
  5
873BF
100
AcDbEntity
  8
0
  0
3DFACE
  5
873C0
100
AcDbEntity
  8
0
100
AcDbFace
 10
-1.91
 20
-0.629
 30
0.197
 11
-1.0
 21
0.281
 31
0.197
 12
1.0
 22
0.281
 32
0.197
 13
1.91
 23
-0.629
 33
0.197
  0
3DFACE
  5
873C1
100
AcDbEntity
  8
0
100
AcDbFace
 10
-1.91
 20
-0.629
 30
0.0
 11
-1.0
 21
0.281
 31
0.0
 12
1.0
 22
0.281
 32
0.0
 13
1.91
 23
-0.629
 33
0.0
  0
3DFACE
  5
873C2
100
AcDbEntity
  8
0
100
AcDbFace
 10
1.0
 20
0.281
 30
0.197
 11
1.0
 21
0.281
 31
0.0
 12
1.91
 22
-0.629
 32
0.0
 13
1.91
 23
-0.629
 33
0.197
  0
3DFACE
  5
873C3
100
AcDbEntity
  8
0
100
AcDbFace
 10
-1.0
 20
0.281
 30
0.0
 11
-1.0
 21
0.281
 31
0.197
 12
1.0
 22
0.281
 32
0.197
 13
1.0
 23
0.281
 33
0.0
  0
3DFACE
  5
873C4
100
AcDbEntity
  8
0
100
AcDbFace
 10
-1.0
 20
0.281
 30
0.197
 11
-1.0
 21
0.281
 31
0.0
 12
-1.91
 22
-0.629
 32
0.0
 13
-1.91
 23
-0.629
 33
0.197
  0
LINE
  5
873C5
100
AcDbEntity
  8
0
100
AcDbLine
 10
-2.452
 20
-0.69
 30
0.577
 11
-2.262
 21
-0.69
 31
0.577
  0
LINE
  5
873C6
100
AcDbEntity
  8
0
100
AcDbLine
 10
-2.452
 20
-0.69
 30
0.387
 11
-2.262
 21
-0.69
 31
0.387
  0
3DFACE
  5
873C7
100
AcDbEntity
  8
0
100
AcDbFace
 10
-2.262
 20
-0.69
 30
0.577
 11
-2.452
 21
-0.69
 31
0.577
 12
-2.452
 22
-0.69
 32
0.387
 13
-2.262
 23
-0.69
 33
0.387
 70
    14
  0
POLYLINE
  5
873C8
100
AcDbEntity
  8
0
100
AcDbPolygonMesh
 66
     1
 10
0.0
 20
0.0
 30
0.0
 70
    16
 71
     6
 72
     3
  0
VERTEX
  5
873C9
100
AcDbEntity
  8
0
100
AcDbVertex
100
AcDbPolygonMeshVertex
 10
0.488
 20
-6.69
 30
0.577
 70
    64
  0
VERTEX
  5
873CA
100
AcDbEntity
  8
0
100
AcDbVertex
100
AcDbPolygonMeshVertex
 10
0.488
 20
-6.69
 30
0.387
 70
    64
  0
VERTEX
  5
873CB
100
AcDbEntity
  8
0
100
AcDbVertex
100
AcDbPolygonMeshVertex
 10
0.488
 20
-6.69
 30
0.387
 70
    64
  0
VERTEX
  5
873CC
100
AcDbEntity
  8
0
100
AcDbVertex
100
AcDbPolygonMeshVertex
 10
-3.072
 20
-6.69
 30
0.577
 70
    64
  0
VERTEX
  5
873CD
100
AcDbEntity
  8
0
100
AcDbVertex
100
AcDbPolygonMeshVertex
 10
-3.072
 20
-6.69
 30
0.387
 70
    64
  0
VERTEX
  5
873CE
100
AcDbEntity
  8
0
100
AcDbVertex
100
AcDbPolygonMeshVertex
 10
-3.072
 20
-6.69
 30
0.387
 70
    64
  0
VERTEX
  5
873CF
100
AcDbEntity
  8
0
100
AcDbVertex
100
AcDbPolygonMeshVertex
 10
-3.072
 20
-1.31
 30
0.577
 70
    64
  0
VERTEX
  5
873D0
100
AcDbEntity
  8
0
100
AcDbVertex
100
AcDbPolygonMeshVertex
 10
-3.072
 20
-1.31
 30
0.387
 70
    64
  0
VERTEX
  5
873D1
100
AcDbEntity
  8
0
100
AcDbVertex
100
AcDbPolygonMeshVertex
 10
-3.072
 20
-6.69
 30
0.387
 70
    64
  0
VERTEX
  5
873D2
100
AcDbEntity
  8
0
100
AcDbVertex
100
AcDbPolygonMeshVertex
 10
0.488
 20
-1.31
 30
0.577
 70
    64
  0
VERTEX
  5
873D3
100
AcDbEntity
  8
0
100
AcDbVertex
100
AcDbPolygonMeshVertex
 10
0.488
 20
-1.31
 30
0.387
 70
    64
  0
VERTEX
  5
873D4
100
AcDbEntity
  8
0
100
AcDbVertex
100
AcDbPolygonMeshVertex
 10
0.488
 20
-6.69
 30
0.387
 70
    64
  0
VERTEX
  5
873D5
100
AcDbEntity
  8
0
100
AcDbVertex
100
AcDbPolygonMeshVertex
 10
0.488
 20
-1.31
 30
0.577
 70
    64
  0
VERTEX
  5
873D6
100
AcDbEntity
  8
0
100
AcDbVertex
100
AcDbPolygonMeshVertex
 10
0.488
 20
-1.31
 30
0.577
 70
    64
  0
VERTEX
  5
873D7
100
AcDbEntity
  8
0
100
AcDbVertex
100
AcDbPolygonMeshVertex
 10
0.488
 20
-6.69
 30
0.577
 70
    64
  0
VERTEX
  5
873D8
100
AcDbEntity
  8
0
100
AcDbVertex
100
AcDbPolygonMeshVertex
 10
-3.072
 20
-1.31
 30
0.577
 70
    64
  0
VERTEX
  5
873D9
100
AcDbEntity
  8
0
100
AcDbVertex
100
AcDbPolygonMeshVertex
 10
-3.072
 20
-1.31
 30
0.577
 70
    64
  0
VERTEX
  5
873DA
100
AcDbEntity
  8
0
100
AcDbVertex
100
AcDbPolygonMeshVertex
 10
-3.072
 20
-6.69
 30
0.577
 70
    64
  0
SEQEND
  5
873DB
100
AcDbEntity
  8
0
  0
LINE
  5
873DC
100
AcDbEntity
  8
0
100
AcDbLine
 10
0.488
 20
-1.31
 30
0.577
 11
-3.072
 21
-1.31
 31
0.577
  0
POLYLINE
  5
873DD
100
AcDbEntity
  8
0
100
AcDbPolygonMesh
 66
     1
 10
0.0
 20
0.0
 30
0.0
 70
    16
 71
     6
 72
     3
  0
VERTEX
  5
873DE
100
AcDbEntity
  8
0
100
AcDbVertex
100
AcDbPolygonMeshVertex
 10
-2.972
 20
-5.54
 30
0.577
 70
    64
  0
VERTEX
  5
873DF
100
AcDbEntity
  8
0
100
AcDbVertex
100
AcDbPolygonMeshVertex
 10
-2.972
 20
-5.54
 30
0.577
 70
    64
  0
VERTEX
  5
873E0
100
AcDbEntity
  8
0
100
AcDbVertex
100
AcDbPolygonMeshVertex
 10
-2.972
 20
-5.54
 30
0.577
 70
    64
  0
VERTEX
  5
873E1
100
AcDbEntity
  8
0
100
AcDbVertex
100
AcDbPolygonMeshVertex
 10
-2.972
 20
-5.79
 30
2.007
 70
    64
  0
VERTEX
  5
873E2
100
AcDbEntity
  8
0
100
AcDbVertex
100
AcDbPolygonMeshVertex
 10
-2.972
 20
-5.54
 30
2.007
 70
    64
  0
VERTEX
  5
873E3
100
AcDbEntity
  8
0
100
AcDbVertex
100
AcDbPolygonMeshVertex
 10
-2.972
 20
-5.54
 30
2.007
 70
    64
  0
VERTEX
  5
873E4
100
AcDbEntity
  8
0
100
AcDbVertex
100
AcDbPolygonMeshVertex
 10
0.388
 20
-5.79
 30
2.007
 70
    64
  0
VERTEX
  5
873E5
100
AcDbEntity
  8
0
100
AcDbVertex
100
AcDbPolygonMeshVertex
 10
0.388
 20
-5.54
 30
2.007
 70
    64
  0
VERTEX
  5
873E6
100
AcDbEntity
  8
0
100
AcDbVertex
100
AcDbPolygonMeshVertex
 10
-2.972
 20
-5.54
 30
2.007
 70
    64
  0
VERTEX
  5
873E7
100
AcDbEntity
  8
0
100
AcDbVertex
100
AcDbPolygonMeshVertex
 10
0.388
 20
-5.54
 30
0.577
 70
    64
  0
VERTEX
  5
873E8
100
AcDbEntity
  8
0
100
AcDbVertex
100
AcDbPolygonMeshVertex
 10
0.388
 20
-5.54
 30
0.577
 70
    64
  0
VERTEX
  5
873E9
100
AcDbEntity
  8
0
100
AcDbVertex
100
AcDbPolygonMeshVertex
 10
-2.972
 20
-5.54
 30
0.577
 70
    64
  0
VERTEX
  5
873EA
100
AcDbEntity
  8
0
100
AcDbVertex
100
AcDbPolygonMeshVertex
 10
0.388
 20
-5.54
 30
0.577
 70
    64
  0
VERTEX
  5
873EB
100
AcDbEntity
  8
0
100
AcDbVertex
100
AcDbPolygonMeshVertex
 10
0.388
 20
-5.54
 30
0.577
 70
    64
  0
VERTEX
  5
873EC
100
AcDbEntity
  8
0
100
AcDbVertex
100
AcDbPolygonMeshVertex
 10
-2.972
 20
-5.54
 30
0.577
 70
    64
  0
VERTEX
  5
873ED
100
AcDbEntity
  8
0
100
AcDbVertex
100
AcDbPolygonMeshVertex
 10
0.388
 20
-5.79
 30
2.007
 70
    64
  0
VERTEX
  5
873EE
100
AcDbEntity
  8
0
100
AcDbVertex
100
AcDbPolygonMeshVertex
 10
0.388
 20
-5.79
 30
2.007
 70
    64
  0
VERTEX
  5
873EF
100
AcDbEntity
  8
0
100
AcDbVertex
100
AcDbPolygonMeshVertex
 10
-2.972
 20
-5.79
 30
2.007
 70
    64
  0
SEQEND
  5
873F0
100
AcDbEntity
  8
0
  0
POLYLINE
  5
873F1
100
AcDbEntity
  8
0
100
AcDbPolygonMesh
 66
     1
 10
0.0
 20
0.0
 30
0.0
 70
    16
 71
     6
 72
     3
  0
VERTEX
  5
873F2
100
AcDbEntity
  8
0
100
AcDbVertex
100
AcDbPolygonMeshVertex
 10
0.388
 20
-2.15
 30
4.477
 70
    64
  0
VERTEX
  5
873F3
100
AcDbEntity
  8
0
100
AcDbVertex
100
AcDbPolygonMeshVertex
 10
0.388
 20
-2.15
 30
0.577
 70
    64
  0
VERTEX
  5
873F4
100
AcDbEntity
  8
0
100
AcDbVertex
100
AcDbPolygonMeshVertex
 10
0.388
 20
-2.15
 30
0.577
 70
    64
  0
VERTEX
  5
873F5
100
AcDbEntity
  8
0
100
AcDbVertex
100
AcDbPolygonMeshVertex
 10
-2.972
 20
-2.15
 30
4.477
 70
    64
  0
VERTEX
  5
873F6
100
AcDbEntity
  8
0
100
AcDbVertex
100
AcDbPolygonMeshVertex
 10
-2.972
 20
-2.15
 30
0.577
 70
    64
  0
VERTEX
  5
873F7
100
AcDbEntity
  8
0
100
AcDbVertex
100
AcDbPolygonMeshVertex
 10
-2.972
 20
-2.15
 30
0.577
 70
    64
  0
VERTEX
  5
873F8
100
AcDbEntity
  8
0
100
AcDbVertex
100
AcDbPolygonMeshVertex
 10
-2.972
 20
-1.47
 30
4.477
 70
    64
  0
VERTEX
  5
873F9
100
AcDbEntity
  8
0
100
AcDbVertex
100
AcDbPolygonMeshVertex
 10
-2.972
 20
-1.47
 30
0.577
 70
    64
  0
VERTEX
  5
873FA
100
AcDbEntity
  8
0
100
AcDbVertex
100
AcDbPolygonMeshVertex
 10
-2.972
 20
-2.15
 30
0.577
 70
    64
  0
VERTEX
  5
873FB
100
AcDbEntity
  8
0
100
AcDbVertex
100
AcDbPolygonMeshVertex
 10
0.388
 20
-1.47
 30
4.477
 70
    64
  0
VERTEX
  5
873FC
100
AcDbEntity
  8
0
100
AcDbVertex
100
AcDbPolygonMeshVertex
 10
0.388
 20
-1.47
 30
0.577
 70
    64
  0
VERTEX
  5
873FD
100
AcDbEntity
  8
0
100
AcDbVertex
100
AcDbPolygonMeshVertex
 10
0.388
 20
-2.15
 30
0.577
 70
    64
  0
VERTEX
  5
873FE
100
AcDbEntity
  8
0
100
AcDbVertex
100
AcDbPolygonMeshVertex
 10
0.388
 20
-1.47
 30
4.477
 70
    64
  0
VERTEX
  5
873FF
100
AcDbEntity
  8
0
100
AcDbVertex
100
AcDbPolygonMeshVertex
 10
0.388
 20
-1.47
 30
4.477
 70
    64
  0
VERTEX
  5
87400
100
AcDbEntity
  8
0
100
AcDbVertex
100
AcDbPolygonMeshVertex
 10
0.388
 20
-2.15
 30
4.477
 70
    64
  0
VERTEX
  5
87401
100
AcDbEntity
  8
0
100
AcDbVertex
100
AcDbPolygonMeshVertex
 10
-2.972
 20
-1.47
 30
4.477
 70
    64
  0
VERTEX
  5
87402
100
AcDbEntity
  8
0
100
AcDbVertex
100
AcDbPolygonMeshVertex
 10
-2.972
 20
-1.47
 30
4.477
 70
    64
  0
VERTEX
  5
87403
100
AcDbEntity
  8
0
100
AcDbVertex
100
AcDbPolygonMeshVertex
 10
-2.972
 20
-2.15
 30
4.477
 70
    64
  0
SEQEND
  5
87404
100
AcDbEntity
  8
0
  0
POLYLINE
  5
87405
100
AcDbEntity
  8
0
100
AcDbPolygonMesh
 66
     1
 10
0.0
 20
0.0
 30
0.0
 70
    16
 71
     6
 72
     3
  0
VERTEX
  5
87406
100
AcDbEntity
  8
0
100
AcDbVertex
100
AcDbPolygonMeshVertex
 10
0.388
 20
-5.79
 30
3.237
 70
    64
  0
VERTEX
  5
87407
100
AcDbEntity
  8
0
100
AcDbVertex
100
AcDbPolygonMeshVertex
 10
0.388
 20
-5.79
 30
2.007
 70
    64
  0
VERTEX
  5
87408
100
AcDbEntity
  8
0
100
AcDbVertex
100
AcDbPolygonMeshVertex
 10
0.388
 20
-5.79
 30
2.007
 70
    64
  0
VERTEX
  5
87409
100
AcDbEntity
  8
0
100
AcDbVertex
100
AcDbPolygonMeshVertex
 10
-2.972
 20
-5.79
 30
3.237
 70
    64
  0
VERTEX
  5
8740A
100
AcDbEntity
  8
0
100
AcDbVertex
100
AcDbPolygonMeshVertex
 10
-2.972
 20
-5.79
 30
2.007
 70
    64
  0
VERTEX
  5
8740B
100
AcDbEntity
  8
0
100
AcDbVertex
100
AcDbPolygonMeshVertex
 10
-2.972
 20
-5.79
 30
2.007
 70
    64
  0
VERTEX
  5
8740C
100
AcDbEntity
  8
0
100
AcDbVertex
100
AcDbPolygonMeshVertex
 10
-2.972
 20
-5.54
 30
3.237
 70
    64
  0
VERTEX
  5
8740D
100
AcDbEntity
  8
0
100
AcDbVertex
100
AcDbPolygonMeshVertex
 10
-2.972
 20
-5.54
 30
2.007
 70
    64
  0
VERTEX
  5
8740E
100
AcDbEntity
  8
0
100
AcDbVertex
100
AcDbPolygonMeshVertex
 10
-2.972
 20
-5.79
 30
2.007
 70
    64
  0
VERTEX
  5
8740F
100
AcDbEntity
  8
0
100
AcDbVertex
100
AcDbPolygonMeshVertex
 10
0.388
 20
-5.54
 30
3.237
 70
    64
  0
VERTEX
  5
87410
100
AcDbEntity
  8
0
100
AcDbVertex
100
AcDbPolygonMeshVertex
 10
0.388
 20
-5.54
 30
2.007
 70
    64
  0
VERTEX
  5
87411
100
AcDbEntity
  8
0
100
AcDbVertex
100
AcDbPolygonMeshVertex
 10
0.388
 20
-5.79
 30
2.007
 70
    64
  0
VERTEX
  5
87412
100
AcDbEntity
  8
0
100
AcDbVertex
100
AcDbPolygonMeshVertex
 10
0.388
 20
-5.54
 30
3.237
 70
    64
  0
VERTEX
  5
87413
100
AcDbEntity
  8
0
100
AcDbVertex
100
AcDbPolygonMeshVertex
 10
0.388
 20
-5.54
 30
3.237
 70
    64
  0
VERTEX
  5
87414
100
AcDbEntity
  8
0
100
AcDbVertex
100
AcDbPolygonMeshVertex
 10
0.388
 20
-5.79
 30
3.237
 70
    64
  0
VERTEX
  5
87415
100
AcDbEntity
  8
0
100
AcDbVertex
100
AcDbPolygonMeshVertex
 10
-2.972
 20
-5.54
 30
3.237
 70
    64
  0
VERTEX
  5
87416
100
AcDbEntity
  8
0
100
AcDbVertex
100
AcDbPolygonMeshVertex
 10
-2.972
 20
-5.54
 30
3.237
 70
    64
  0
VERTEX
  5
87417
100
AcDbEntity
  8
0
100
AcDbVertex
100
AcDbPolygonMeshVertex
 10
-2.972
 20
-5.79
 30
3.237
 70
    64
  0
SEQEND
  5
87418
100
AcDbEntity
  8
0
  0
POLYLINE
  5
87419
100
AcDbEntity
  8
0
100
AcDbPolygonMesh
 66
     1
 10
0.0
 20
0.0
 30
0.0
 70
    16
 71
     6
 72
     3
  0
VERTEX
  5
8741A
100
AcDbEntity
  8
0
100
AcDbVertex
100
AcDbPolygonMeshVertex
 10
0.388
 20
-5.54
 30
4.017
 70
    64
  0
VERTEX
  5
8741B
100
AcDbEntity
  8
0
100
AcDbVertex
100
AcDbPolygonMeshVertex
 10
0.388
 20
-5.54
 30
0.577
 70
    64
  0
VERTEX
  5
8741C
100
AcDbEntity
  8
0
100
AcDbVertex
100
AcDbPolygonMeshVertex
 10
0.388
 20
-5.54
 30
0.577
 70
    64
  0
VERTEX
  5
8741D
100
AcDbEntity
  8
0
100
AcDbVertex
100
AcDbPolygonMeshVertex
 10
-2.972
 20
-5.54
 30
4.017
 70
    64
  0
VERTEX
  5
8741E
100
AcDbEntity
  8
0
100
AcDbVertex
100
AcDbPolygonMeshVertex
 10
-2.972
 20
-5.54
 30
0.577
 70
    64
  0
VERTEX
  5
8741F
100
AcDbEntity
  8
0
100
AcDbVertex
100
AcDbPolygonMeshVertex
 10
-2.972
 20
-5.54
 30
0.577
 70
    64
  0
VERTEX
  5
87420
100
AcDbEntity
  8
0
100
AcDbVertex
100
AcDbPolygonMeshVertex
 10
-2.972
 20
-2.15
 30
4.017
 70
    64
  0
VERTEX
  5
87421
100
AcDbEntity
  8
0
100
AcDbVertex
100
AcDbPolygonMeshVertex
 10
-2.972
 20
-2.15
 30
0.577
 70
    64
  0
VERTEX
  5
87422
100
AcDbEntity
  8
0
100
AcDbVertex
100
AcDbPolygonMeshVertex
 10
-2.972
 20
-5.54
 30
0.577
 70
    64
  0
VERTEX
  5
87423
100
AcDbEntity
  8
0
100
AcDbVertex
100
AcDbPolygonMeshVertex
 10
0.388
 20
-2.15
 30
4.017
 70
    64
  0
VERTEX
  5
87424
100
AcDbEntity
  8
0
100
AcDbVertex
100
AcDbPolygonMeshVertex
 10
0.388
 20
-2.15
 30
0.577
 70
    64
  0
VERTEX
  5
87425
100
AcDbEntity
  8
0
100
AcDbVertex
100
AcDbPolygonMeshVertex
 10
0.388
 20
-5.54
 30
0.577
 70
    64
  0
VERTEX
  5
87426
100
AcDbEntity
  8
0
100
AcDbVertex
100
AcDbPolygonMeshVertex
 10
0.388
 20
-2.15
 30
4.017
 70
    64
  0
VERTEX
  5
87427
100
AcDbEntity
  8
0
100
AcDbVertex
100
AcDbPolygonMeshVertex
 10
0.388
 20
-2.15
 30
4.017
 70
    64
  0
VERTEX
  5
87428
100
AcDbEntity
  8
0
100
AcDbVertex
100
AcDbPolygonMeshVertex
 10
0.388
 20
-5.54
 30
4.017
 70
    64
  0
VERTEX
  5
87429
100
AcDbEntity
  8
0
100
AcDbVertex
100
AcDbPolygonMeshVertex
 10
-2.972
 20
-2.15
 30
4.017
 70
    64
  0
VERTEX
  5
8742A
100
AcDbEntity
  8
0
100
AcDbVertex
100
AcDbPolygonMeshVertex
 10
-2.972
 20
-2.15
 30
4.017
 70
    64
  0
VERTEX
  5
8742B
100
AcDbEntity
  8
0
100
AcDbVertex
100
AcDbPolygonMeshVertex
 10
-2.972
 20
-5.54
 30
4.017
 70
    64
  0
SEQEND
  5
8742C
100
AcDbEntity
  8
0
  0
LINE
  5
8742D
100
AcDbEntity
  8
0
100
AcDbLine
 10
-2.972
 20
-2.15
 30
4.017
 11
-2.972
 21
-2.15
 31
0.577
  0
LINE
  5
8742E
100
AcDbEntity
  8
0
100
AcDbLine
 10
-2.567
 20
-6.47
 30
0.387
 11
-2.567
 21
-6.47
 31
0.577
  0
LINE
  5
8742F
100
AcDbEntity
  8
0
100
AcDbLine
 10
-2.767
 20
-6.47
 30
0.387
 11
-2.767
 21
-6.47
 31
0.577
  0
LINE
  5
87430
100
AcDbEntity
  8
0
100
AcDbLine
 10
-2.767
 20
-6.69
 30
0.387
 11
-2.767
 21
-6.69
 31
0.577
  0
LINE
  5
87431
100
AcDbEntity
  8
0
100
AcDbLine
 10
-2.567
 20
-6.69
 30
0.387
 11
-2.567
 21
-6.69
 31
0.577
  0
ARC
  5
87432
100
AcDbEntity
  8
0
100
AcDbCircle
 10
-2.667
 20
-6.47
 30
0.387
 40
0.1
100
AcDbArc
 50
0.0
 51
179.999985
  0
LINE
  5
87433
100
AcDbEntity
  8
0
100
AcDbLine
 10
-2.767
 20
-6.47
 30
0.387
 11
-2.767
 21
-6.69
 31
0.387
  0
LINE
  5
87434
100
AcDbEntity
  8
0
100
AcDbLine
 10
-2.567
 20
-6.69
 30
0.387
 11
-2.567
 21
-6.47
 31
0.387
  0
ARC
  5
87435
100
AcDbEntity
  8
0
100
AcDbCircle
 10
-2.667
 20
-6.47
 30
0.577
 40
0.1
100
AcDbArc
 50
0.0
 51
179.999985
  0
LINE
  5
87436
100
AcDbEntity
  8
0
100
AcDbLine
 10
-2.767
 20
-6.47
 30
0.577
 11
-2.767
 21
-6.69
 31
0.577
  0
LINE
  5
87437
100
AcDbEntity
  8
0
100
AcDbLine
 10
-2.567
 20
-6.69
 30
0.577
 11
-2.567
 21
-6.47
 31
0.577
  0
LINE
  5
87438
100
AcDbEntity
  8
0
100
AcDbLine
 10
-3.072
 20
-1.31
 30
0.387
 11
-3.072
 21
-1.31
 31
0.577
  0
3DFACE
  5
87439
100
AcDbEntity
  8
0
100
AcDbFace
 10
-2.452
 20
-0.69
 30
0.387
 11
-2.452
 21
-0.69
 31
0.577
 12
-3.072
 22
-1.31
 32
0.577
 13
-3.072
 23
-1.31
 33
0.387
  0
ARC
  5
8743A
100
AcDbEntity
  8
0
100
AcDbCircle
 10
0.083
 20
-6.47
 30
0.577
 40
0.1
100
AcDbArc
 50
0.0
 51
179.999985
  0
ARC
  5
8743B
100
AcDbEntity
  8
0
100
AcDbCircle
 10
0.083
 20
-6.47
 30
0.387
 40
0.1
100
AcDbArc
 50
0.0
 51
179.999985
  0
ARC
  5
8743C
100
AcDbEntity
  8
0
100
AcDbCircle
 10
0.083
 20
-6.47
 30
0.387
 40
0.1
100
AcDbArc
 50
0.0
 51
179.999985
  0
LINE
  5
8743D
100
AcDbEntity
  8
0
100
AcDbLine
 10
-0.017
 20
-6.47
 30
0.387
 11
-0.017
 21
-6.47
 31
0.577
  0
LINE
  5
8743E
100
AcDbEntity
  8
0
100
AcDbLine
 10
-0.017
 20
-6.69
 30
0.387
 11
-0.017
 21
-6.69
 31
0.577
  0
LINE
  5
8743F
100
AcDbEntity
  8
0
100
AcDbLine
 10
-0.017
 20
-6.47
 30
0.387
 11
-0.017
 21
-6.69
 31
0.387
  0
LINE
  5
87440
100
AcDbEntity
  8
0
100
AcDbLine
 10
-0.017
 20
-6.47
 30
0.577
 11
-0.017
 21
-6.69
 31
0.577
  0
LINE
  5
87441
100
AcDbEntity
  8
0
100
AcDbLine
 10
0.183
 20
-6.47
 30
0.387
 11
0.183
 21
-6.47
 31
0.577
  0
LINE
  5
87442
100
AcDbEntity
  8
0
100
AcDbLine
 10
0.183
 20
-6.69
 30
0.387
 11
0.183
 21
-6.69
 31
0.577
  0
3DFACE
  5
87443
100
AcDbEntity
  8
0
100
AcDbFace
 10
0.183
 20
-6.47
 30
0.577
 11
0.183
 21
-6.69
 31
0.577
 12
0.183
 22
-6.69
 32
0.387
 13
0.183
 23
-6.47
 33
0.387
 70
    14
  0
LINE
  5
87444
100
AcDbEntity
  8
0
100
AcDbLine
 10
0.183
 20
-6.69
 30
0.387
 11
0.183
 21
-6.47
 31
0.387
  0
LINE
  5
87445
100
AcDbEntity
  8
0
100
AcDbLine
 10
0.183
 20
-6.69
 30
0.577
 11
0.183
 21
-6.47
 31
0.577
  0
3DFACE
  5
87446
100
AcDbEntity
  8
0
100
AcDbFace
 10
0.488
 20
-1.31
 30
0.387
 11
0.488
 21
-1.31
 31
0.577
 12
-0.132
 22
-0.69
 32
0.577
 13
-0.132
 23
-0.69
 33
0.387
  0
LINE
  5
87447
100
AcDbEntity
  8
0
100
AcDbLine
 10
-1.1905
 20
-1.102159
 30
0.387
 11
-1.1905
 21
-1.102159
 31
0.577
  0
LINE
  5
87448
100
AcDbEntity
  8
0
100
AcDbLine
 10
-1.1905
 20
-0.97
 30
0.387
 11
-1.1905
 21
-0.97
 31
0.577
  0
LINE
  5
87449
100
AcDbEntity
  8
0
100
AcDbLine
 10
-0.812
 20
-0.97
 30
0.387
 11
-0.812
 21
-0.97
 31
0.577
  0
LINE
  5
8744A
100
AcDbEntity
  8
0
100
AcDbLine
 10
-1.3935
 20
-1.102159
 30
0.387
 11
-1.3935
 21
-1.102159
 31
0.577
  0
LINE
  5
8744B
100
AcDbEntity
  8
0
100
AcDbLine
 10
-1.3935
 20
-0.97
 30
0.387
 11
-1.3935
 21
-0.97
 31
0.577
  0
LINE
  5
8744C
100
AcDbEntity
  8
0
100
AcDbLine
 10
-1.672
 20
-0.97
 30
0.387
 11
-1.672
 21
-0.97
 31
0.577
  0
LINE
  5
8744D
100
AcDbEntity
  8
0
100
AcDbLine
 10
-2.262
 20
-0.69
 30
0.387
 11
-2.262
 21
-0.69
 31
0.577
  0
LINE
  5
8744E
100
AcDbEntity
  8
0
100
AcDbLine
 10
-2.162
 20
-0.97
 30
0.387
 11
-2.162
 21
-0.97
 31
0.577
  0
3DFACE
  5
8744F
100
AcDbEntity
  8
0
100
AcDbFace
 10
-2.162
 20
-0.97
 30
0.577
 11
-2.262
 21
-0.69
 31
0.577
 12
-2.262
 22
-0.69
 32
0.387
 13
-2.162
 23
-0.97
 33
0.387
 70
    14
  0
3DFACE
  5
87450
100
AcDbEntity
  8
0
100
AcDbFace
 10
-1.672
 20
-0.97
 30
0.577
 11
-2.162
 21
-0.97
 31
0.577
 12
-2.162
 22
-0.97
 32
0.387
 13
-1.672
 23
-0.97
 33
0.387
 70
    14
  0
3DFACE
  5
87451
100
AcDbEntity
  8
0
100
AcDbFace
 10
-0.132
 20
-0.69
 30
0.387
 11
-0.132
 21
-0.69
 31
0.577
 12
-1.572
 22
-0.69
 32
0.577
 13
-1.572
 23
-0.69
 33
0.387
  0
ARC
  5
87452
100
AcDbEntity
  8
0
100
AcDbCircle
 10
-1.292
 20
-1.313
 30
0.387
 40
0.234
100
AcDbArc
 50
115.70649
 51
64.293579
  0
LINE
  5
87453
100
AcDbEntity
  8
0
100
AcDbLine
 10
-2.162
 20
-0.97
 30
0.387
 11
-1.672
 21
-0.97
 31
0.387
  0
LINE
  5
87454
100
AcDbEntity
  8
0
100
AcDbLine
 10
-2.262
 20
-0.69
 30
0.387
 11
-2.162
 21
-0.97
 31
0.387
  0
LINE
  5
87455
100
AcDbEntity
  8
0
100
AcDbLine
 10
-1.1905
 20
-0.97
 30
0.387
 11
-1.1905
 21
-1.102159
 31
0.387
  0
LINE
  5
87456
100
AcDbEntity
  8
0
100
AcDbLine
 10
-1.3935
 20
-0.97
 30
0.387
 11
-1.3935
 21
-1.102159
 31
0.387
  0
LINE
  5
87457
100
AcDbEntity
  8
0
100
AcDbLine
 10
-1.672
 20
-0.97
 30
0.387
 11
-1.572
 21
-0.69
 31
0.387
  0
ARC
  5
87458
100
AcDbEntity
  8
0
100
AcDbCircle
 10
-1.292
 20
-0.97
 30
0.387
 40
0.1015
100
AcDbArc
 50
0.0
 51
179.999985
  0
CIRCLE
  5
87459
100
AcDbEntity
  8
0
100
AcDbCircle
 10
-0.912
 20
-0.97
 30
0.387
 40
0.1
  0
ARC
  5
8745A
100
AcDbEntity
  8
0
100
AcDbCircle
 10
-1.292
 20
-1.313
 30
0.577
 40
0.234
100
AcDbArc
 50
115.70649
 51
64.293579
  0
LINE
  5
8745B
100
AcDbEntity
  8
0
100
AcDbLine
 10
-2.162
 20
-0.97
 30
0.577
 11
-1.672
 21
-0.97
 31
0.577
  0
LINE
  5
8745C
100
AcDbEntity
  8
0
100
AcDbLine
 10
-2.262
 20
-0.69
 30
0.577
 11
-2.162
 21
-0.97
 31
0.577
  0
LINE
  5
8745D
100
AcDbEntity
  8
0
100
AcDbLine
 10
-1.1905
 20
-0.97
 30
0.577
 11
-1.1905
 21
-1.102159
 31
0.577
  0
LINE
  5
8745E
100
AcDbEntity
  8
0
100
AcDbLine
 10
-1.3935
 20
-0.97
 30
0.577
 11
-1.3935
 21
-1.102159
 31
0.577
  0
LINE
  5
8745F
100
AcDbEntity
  8
0
100
AcDbLine
 10
-1.672
 20
-0.97
 30
0.577
 11
-1.572
 21
-0.69
 31
0.577
  0
ARC
  5
87460
100
AcDbEntity
  8
0
100
AcDbCircle
 10
-1.292
 20
-0.97
 30
0.577
 40
0.1015
100
AcDbArc
 50
0.0
 51
179.999985
  0
CIRCLE
  5
87461
100
AcDbEntity
  8
0
100
AcDbCircle
 10
-0.912
 20
-0.97
 30
0.577
 40
0.1
  0
POLYLINE
  5
87462
100
AcDbEntity
  8
0
100
AcDbPolygonMesh
 66
     1
 10
0.0
 20
0.0
 30
0.0
 70
    16
 71
     6
 72
     3
  0
VERTEX
  5
87463
100
AcDbEntity
  8
0
100
AcDbVertex
100
AcDbPolygonMeshVertex
 10
-0.852
 20
-1.34
 30
4.857
 70
    64
  0
VERTEX
  5
87464
100
AcDbEntity
  8
0
100
AcDbVertex
100
AcDbPolygonMeshVertex
 10
-0.852
 20
-1.34
 30
4.477
 70
    64
  0
VERTEX
  5
87465
100
AcDbEntity
  8
0
100
AcDbVertex
100
AcDbPolygonMeshVertex
 10
-0.852
 20
-1.34
 30
4.477
 70
    64
  0
VERTEX
  5
87466
100
AcDbEntity
  8
0
100
AcDbVertex
100
AcDbPolygonMeshVertex
 10
-0.672
 20
-1.34
 30
4.857
 70
    64
  0
VERTEX
  5
87467
100
AcDbEntity
  8
0
100
AcDbVertex
100
AcDbPolygonMeshVertex
 10
-0.672
 20
-1.34
 30
4.477
 70
    64
  0
VERTEX
  5
87468
100
AcDbEntity
  8
0
100
AcDbVertex
100
AcDbPolygonMeshVertex
 10
-0.672
 20
-1.34
 30
4.477
 70
    64
  0
VERTEX
  5
87469
100
AcDbEntity
  8
0
100
AcDbVertex
100
AcDbPolygonMeshVertex
 10
-0.672
 20
-2.15
 30
4.857
 70
    64
  0
VERTEX
  5
8746A
100
AcDbEntity
  8
0
100
AcDbVertex
100
AcDbPolygonMeshVertex
 10
-0.672
 20
-2.15
 30
4.477
 70
    64
  0
VERTEX
  5
8746B
100
AcDbEntity
  8
0
100
AcDbVertex
100
AcDbPolygonMeshVertex
 10
-0.672
 20
-1.34
 30
4.477
 70
    64
  0
VERTEX
  5
8746C
100
AcDbEntity
  8
0
100
AcDbVertex
100
AcDbPolygonMeshVertex
 10
-0.852
 20
-2.15
 30
4.857
 70
    64
  0
VERTEX
  5
8746D
100
AcDbEntity
  8
0
100
AcDbVertex
100
AcDbPolygonMeshVertex
 10
-0.852
 20
-2.15
 30
4.477
 70
    64
  0
VERTEX
  5
8746E
100
AcDbEntity
  8
0
100
AcDbVertex
100
AcDbPolygonMeshVertex
 10
-0.852
 20
-1.34
 30
4.477
 70
    64
  0
VERTEX
  5
8746F
100
AcDbEntity
  8
0
100
AcDbVertex
100
AcDbPolygonMeshVertex
 10
-0.852
 20
-2.15
 30
4.857
 70
    64
  0
VERTEX
  5
87470
100
AcDbEntity
  8
0
100
AcDbVertex
100
AcDbPolygonMeshVertex
 10
-0.852
 20
-2.15
 30
4.857
 70
    64
  0
VERTEX
  5
87471
100
AcDbEntity
  8
0
100
AcDbVertex
100
AcDbPolygonMeshVertex
 10
-0.852
 20
-1.34
 30
4.857
 70
    64
  0
VERTEX
  5
87472
100
AcDbEntity
  8
0
100
AcDbVertex
100
AcDbPolygonMeshVertex
 10
-0.672
 20
-2.15
 30
4.857
 70
    64
  0
VERTEX
  5
87473
100
AcDbEntity
  8
0
100
AcDbVertex
100
AcDbPolygonMeshVertex
 10
-0.672
 20
-2.15
 30
4.857
 70
    64
  0
VERTEX
  5
87474
100
AcDbEntity
  8
0
100
AcDbVertex
100
AcDbPolygonMeshVertex
 10
-0.672
 20
-1.34
 30
4.857
 70
    64
  0
SEQEND
  5
87475
100
AcDbEntity
  8
0
  0
POLYLINE
  5
87476
100
AcDbEntity
  8
0
100
AcDbPolygonMesh
 66
     1
 10
0.0
 20
0.0
 30
0.0
 70
    16
 71
     6
 72
     3
  0
VERTEX
  5
87477
100
AcDbEntity
  8
0
100
AcDbVertex
100
AcDbPolygonMeshVertex
 10
-1.912
 20
-1.34
 30
4.857
 70
    64
  0
VERTEX
  5
87478
100
AcDbEntity
  8
0
100
AcDbVertex
100
AcDbPolygonMeshVertex
 10
-1.912
 20
-1.34
 30
4.477
 70
    64
  0
VERTEX
  5
87479
100
AcDbEntity
  8
0
100
AcDbVertex
100
AcDbPolygonMeshVertex
 10
-1.912
 20
-1.34
 30
4.477
 70
    64
  0
VERTEX
  5
8747A
100
AcDbEntity
  8
0
100
AcDbVertex
100
AcDbPolygonMeshVertex
 10
-1.732
 20
-1.34
 30
4.857
 70
    64
  0
VERTEX
  5
8747B
100
AcDbEntity
  8
0
100
AcDbVertex
100
AcDbPolygonMeshVertex
 10
-1.732
 20
-1.34
 30
4.477
 70
    64
  0
VERTEX
  5
8747C
100
AcDbEntity
  8
0
100
AcDbVertex
100
AcDbPolygonMeshVertex
 10
-1.732
 20
-1.34
 30
4.477
 70
    64
  0
VERTEX
  5
8747D
100
AcDbEntity
  8
0
100
AcDbVertex
100
AcDbPolygonMeshVertex
 10
-1.732
 20
-2.15
 30
4.857
 70
    64
  0
VERTEX
  5
8747E
100
AcDbEntity
  8
0
100
AcDbVertex
100
AcDbPolygonMeshVertex
 10
-1.732
 20
-2.15
 30
4.477
 70
    64
  0
VERTEX
  5
8747F
100
AcDbEntity
  8
0
100
AcDbVertex
100
AcDbPolygonMeshVertex
 10
-1.732
 20
-1.34
 30
4.477
 70
    64
  0
VERTEX
  5
87480
100
AcDbEntity
  8
0
100
AcDbVertex
100
AcDbPolygonMeshVertex
 10
-1.912
 20
-2.15
 30
4.857
 70
    64
  0
VERTEX
  5
87481
100
AcDbEntity
  8
0
100
AcDbVertex
100
AcDbPolygonMeshVertex
 10
-1.912
 20
-2.15
 30
4.477
 70
    64
  0
VERTEX
  5
87482
100
AcDbEntity
  8
0
100
AcDbVertex
100
AcDbPolygonMeshVertex
 10
-1.912
 20
-1.34
 30
4.477
 70
    64
  0
VERTEX
  5
87483
100
AcDbEntity
  8
0
100
AcDbVertex
100
AcDbPolygonMeshVertex
 10
-1.912
 20
-2.15
 30
4.857
 70
    64
  0
VERTEX
  5
87484
100
AcDbEntity
  8
0
100
AcDbVertex
100
AcDbPolygonMeshVertex
 10
-1.912
 20
-2.15
 30
4.857
 70
    64
  0
VERTEX
  5
87485
100
AcDbEntity
  8
0
100
AcDbVertex
100
AcDbPolygonMeshVertex
 10
-1.912
 20
-1.34
 30
4.857
 70
    64
  0
VERTEX
  5
87486
100
AcDbEntity
  8
0
100
AcDbVertex
100
AcDbPolygonMeshVertex
 10
-1.732
 20
-2.15
 30
4.857
 70
    64
  0
VERTEX
  5
87487
100
AcDbEntity
  8
0
100
AcDbVertex
100
AcDbPolygonMeshVertex
 10
-1.732
 20
-2.15
 30
4.857
 70
    64
  0
VERTEX
  5
87488
100
AcDbEntity
  8
0
100
AcDbVertex
100
AcDbPolygonMeshVertex
 10
-1.732
 20
-1.34
 30
4.857
 70
    64
  0
SEQEND
  5
87489
100
AcDbEntity
  8
0
  0
POLYLINE
  5
8748A
100
AcDbEntity
  8
0
100
AcDbPolygonMesh
 66
     1
 10
0.0
 20
0.0
 30
0.0
 70
    16
 71
     6
 72
     3
  0
VERTEX
  5
8748B
100
AcDbEntity
  8
0
100
AcDbVertex
100
AcDbPolygonMeshVertex
 10
-0.352
 20
-4.44
 30
4.387
 70
    64
  0
VERTEX
  5
8748C
100
AcDbEntity
  8
0
100
AcDbVertex
100
AcDbPolygonMeshVertex
 10
-0.352
 20
-4.44
 30
4.017
 70
    64
  0
VERTEX
  5
8748D
100
AcDbEntity
  8
0
100
AcDbVertex
100
AcDbPolygonMeshVertex
 10
-0.352
 20
-4.44
 30
4.017
 70
    64
  0
VERTEX
  5
8748E
100
AcDbEntity
  8
0
100
AcDbVertex
100
AcDbPolygonMeshVertex
 10
-2.232
 20
-4.44
 30
4.387
 70
    64
  0
VERTEX
  5
8748F
100
AcDbEntity
  8
0
100
AcDbVertex
100
AcDbPolygonMeshVertex
 10
-2.232
 20
-4.44
 30
4.017
 70
    64
  0
VERTEX
  5
87490
100
AcDbEntity
  8
0
100
AcDbVertex
100
AcDbPolygonMeshVertex
 10
-2.232
 20
-4.44
 30
4.017
 70
    64
  0
VERTEX
  5
87491
100
AcDbEntity
  8
0
100
AcDbVertex
100
AcDbPolygonMeshVertex
 10
-2.232
 20
-3.6
 30
4.387
 70
    64
  0
VERTEX
  5
87492
100
AcDbEntity
  8
0
100
AcDbVertex
100
AcDbPolygonMeshVertex
 10
-2.232
 20
-3.6
 30
4.017
 70
    64
  0
VERTEX
  5
87493
100
AcDbEntity
  8
0
100
AcDbVertex
100
AcDbPolygonMeshVertex
 10
-2.232
 20
-4.44
 30
4.017
 70
    64
  0
VERTEX
  5
87494
100
AcDbEntity
  8
0
100
AcDbVertex
100
AcDbPolygonMeshVertex
 10
-0.352
 20
-3.6
 30
4.387
 70
    64
  0
VERTEX
  5
87495
100
AcDbEntity
  8
0
100
AcDbVertex
100
AcDbPolygonMeshVertex
 10
-0.352
 20
-3.6
 30
4.017
 70
    64
  0
VERTEX
  5
87496
100
AcDbEntity
  8
0
100
AcDbVertex
100
AcDbPolygonMeshVertex
 10
-0.352
 20
-4.44
 30
4.017
 70
    64
  0
VERTEX
  5
87497
100
AcDbEntity
  8
0
100
AcDbVertex
100
AcDbPolygonMeshVertex
 10
-0.352
 20
-3.6
 30
4.387
 70
    64
  0
VERTEX
  5
87498
100
AcDbEntity
  8
0
100
AcDbVertex
100
AcDbPolygonMeshVertex
 10
-0.352
 20
-3.6
 30
4.387
 70
    64
  0
VERTEX
  5
87499
100
AcDbEntity
  8
0
100
AcDbVertex
100
AcDbPolygonMeshVertex
 10
-0.352
 20
-4.44
 30
4.387
 70
    64
  0
VERTEX
  5
8749A
100
AcDbEntity
  8
0
100
AcDbVertex
100
AcDbPolygonMeshVertex
 10
-2.232
 20
-3.6
 30
4.387
 70
    64
  0
VERTEX
  5
8749B
100
AcDbEntity
  8
0
100
AcDbVertex
100
AcDbPolygonMeshVertex
 10
-2.232
 20
-3.6
 30
4.387
 70
    64
  0
VERTEX
  5
8749C
100
AcDbEntity
  8
0
100
AcDbVertex
100
AcDbPolygonMeshVertex
 10
-2.232
 20
-4.44
 30
4.387
 70
    64
  0
SEQEND
  5
8749D
100
AcDbEntity
  8
0
  0
CIRCLE
  5
8749E
100
AcDbEntity
  8
0
100
AcDbCircle
 10
-1.822
 20
-3.91
 30
4.857
 40
0.095
  0
LINE
  5
8749F
100
AcDbEntity
  8
0
100
AcDbLine
 10
-1.887515
 20
-3.841205
 30
4.857
 11
-1.772899
 21
-3.991327
 31
4.857
  0
LINE
  5
874A0
100
AcDbEntity
  8
0
100
AcDbLine
 10
-1.871326
 20
-3.825015
 30
4.857
 11
-1.75671
 21
-3.975138
 31
4.857
  0
POLYLINE
  5
874A1
100
AcDbEntity
  8
0
100
AcDbPolygonMesh
 66
     1
 10
0.0
 20
0.0
 30
0.0
 70
    16
 71
     6
 72
     3
  0
VERTEX
  5
874A2
100
AcDbEntity
  8
0
100
AcDbVertex
100
AcDbPolygonMeshVertex
 10
-1.602
 20
-4.04
 30
4.857
 70
    64
  0
VERTEX
  5
874A3
100
AcDbEntity
  8
0
100
AcDbVertex
100
AcDbPolygonMeshVertex
 10
-1.602
 20
-4.04
 30
4.387
 70
    64
  0
VERTEX
  5
874A4
100
AcDbEntity
  8
0
100
AcDbVertex
100
AcDbPolygonMeshVertex
 10
-1.602
 20
-4.04
 30
4.387
 70
    64
  0
VERTEX
  5
874A5
100
AcDbEntity
  8
0
100
AcDbVertex
100
AcDbPolygonMeshVertex
 10
-2.042
 20
-4.04
 30
4.857
 70
    64
  0
VERTEX
  5
874A6
100
AcDbEntity
  8
0
100
AcDbVertex
100
AcDbPolygonMeshVertex
 10
-2.042
 20
-4.04
 30
4.387
 70
    64
  0
VERTEX
  5
874A7
100
AcDbEntity
  8
0
100
AcDbVertex
100
AcDbPolygonMeshVertex
 10
-2.042
 20
-4.04
 30
4.387
 70
    64
  0
VERTEX
  5
874A8
100
AcDbEntity
  8
0
100
AcDbVertex
100
AcDbPolygonMeshVertex
 10
-2.042
 20
-3.66
 30
4.857
 70
    64
  0
VERTEX
  5
874A9
100
AcDbEntity
  8
0
100
AcDbVertex
100
AcDbPolygonMeshVertex
 10
-2.042
 20
-3.66
 30
4.387
 70
    64
  0
VERTEX
  5
874AA
100
AcDbEntity
  8
0
100
AcDbVertex
100
AcDbPolygonMeshVertex
 10
-2.042
 20
-4.04
 30
4.387
 70
    64
  0
VERTEX
  5
874AB
100
AcDbEntity
  8
0
100
AcDbVertex
100
AcDbPolygonMeshVertex
 10
-1.602
 20
-3.66
 30
4.857
 70
    64
  0
VERTEX
  5
874AC
100
AcDbEntity
  8
0
100
AcDbVertex
100
AcDbPolygonMeshVertex
 10
-1.602
 20
-3.66
 30
4.387
 70
    64
  0
VERTEX
  5
874AD
100
AcDbEntity
  8
0
100
AcDbVertex
100
AcDbPolygonMeshVertex
 10
-1.602
 20
-4.04
 30
4.387
 70
    64
  0
VERTEX
  5
874AE
100
AcDbEntity
  8
0
100
AcDbVertex
100
AcDbPolygonMeshVertex
 10
-1.602
 20
-3.66
 30
4.857
 70
    64
  0
VERTEX
  5
874AF
100
AcDbEntity
  8
0
100
AcDbVertex
100
AcDbPolygonMeshVertex
 10
-1.602
 20
-3.66
 30
4.857
 70
    64
  0
VERTEX
  5
874B0
100
AcDbEntity
  8
0
100
AcDbVertex
100
AcDbPolygonMeshVertex
 10
-1.602
 20
-4.04
 30
4.857
 70
    64
  0
VERTEX
  5
874B1
100
AcDbEntity
  8
0
100
AcDbVertex
100
AcDbPolygonMeshVertex
 10
-2.042
 20
-3.66
 30
4.857
 70
    64
  0
VERTEX
  5
874B2
100
AcDbEntity
  8
0
100
AcDbVertex
100
AcDbPolygonMeshVertex
 10
-2.042
 20
-3.66
 30
4.857
 70
    64
  0
VERTEX
  5
874B3
100
AcDbEntity
  8
0
100
AcDbVertex
100
AcDbPolygonMeshVertex
 10
-2.042
 20
-4.04
 30
4.857
 70
    64
  0
SEQEND
  5
874B4
100
AcDbEntity
  8
0
  0
CIRCLE
  5
874B5
100
AcDbEntity
  8
0
100
AcDbCircle
 10
-0.762
 20
-3.91
 30
4.857
 40
0.095
  0
LINE
  5
874B6
100
AcDbEntity
  8
0
100
AcDbLine
 10
-0.827515
 20
-3.841205
 30
4.857
 11
-0.7129
 21
-3.991327
 31
4.857
  0
LINE
  5
874B7
100
AcDbEntity
  8
0
100
AcDbLine
 10
-0.811326
 20
-3.825015
 30
4.857
 11
-0.69671
 21
-3.975138
 31
4.857
  0
POLYLINE
  5
874B8
100
AcDbEntity
  8
0
100
AcDbPolygonMesh
 66
     1
 10
0.0
 20
0.0
 30
0.0
 70
    16
 71
     6
 72
     3
  0
VERTEX
  5
874B9
100
AcDbEntity
  8
0
100
AcDbVertex
100
AcDbPolygonMeshVertex
 10
-0.542
 20
-4.04
 30
4.857
 70
    64
  0
VERTEX
  5
874BA
100
AcDbEntity
  8
0
100
AcDbVertex
100
AcDbPolygonMeshVertex
 10
-0.542
 20
-4.04
 30
4.387
 70
    64
  0
VERTEX
  5
874BB
100
AcDbEntity
  8
0
100
AcDbVertex
100
AcDbPolygonMeshVertex
 10
-0.542
 20
-4.04
 30
4.387
 70
    64
  0
VERTEX
  5
874BC
100
AcDbEntity
  8
0
100
AcDbVertex
100
AcDbPolygonMeshVertex
 10
-0.982
 20
-4.04
 30
4.857
 70
    64
  0
VERTEX
  5
874BD
100
AcDbEntity
  8
0
100
AcDbVertex
100
AcDbPolygonMeshVertex
 10
-0.982
 20
-4.04
 30
4.387
 70
    64
  0
VERTEX
  5
874BE
100
AcDbEntity
  8
0
100
AcDbVertex
100
AcDbPolygonMeshVertex
 10
-0.982
 20
-4.04
 30
4.387
 70
    64
  0
VERTEX
  5
874BF
100
AcDbEntity
  8
0
100
AcDbVertex
100
AcDbPolygonMeshVertex
 10
-0.982
 20
-3.66
 30
4.857
 70
    64
  0
VERTEX
  5
874C0
100
AcDbEntity
  8
0
100
AcDbVertex
100
AcDbPolygonMeshVertex
 10
-0.982
 20
-3.66
 30
4.387
 70
    64
  0
VERTEX
  5
874C1
100
AcDbEntity
  8
0
100
AcDbVertex
100
AcDbPolygonMeshVertex
 10
-0.982
 20
-4.04
 30
4.387
 70
    64
  0
VERTEX
  5
874C2
100
AcDbEntity
  8
0
100
AcDbVertex
100
AcDbPolygonMeshVertex
 10
-0.542
 20
-3.66
 30
4.857
 70
    64
  0
VERTEX
  5
874C3
100
AcDbEntity
  8
0
100
AcDbVertex
100
AcDbPolygonMeshVertex
 10
-0.542
 20
-3.66
 30
4.387
 70
    64
  0
VERTEX
  5
874C4
100
AcDbEntity
  8
0
100
AcDbVertex
100
AcDbPolygonMeshVertex
 10
-0.542
 20
-4.04
 30
4.387
 70
    64
  0
VERTEX
  5
874C5
100
AcDbEntity
  8
0
100
AcDbVertex
100
AcDbPolygonMeshVertex
 10
-0.542
 20
-3.66
 30
4.857
 70
    64
  0
VERTEX
  5
874C6
100
AcDbEntity
  8
0
100
AcDbVertex
100
AcDbPolygonMeshVertex
 10
-0.542
 20
-3.66
 30
4.857
 70
    64
  0
VERTEX
  5
874C7
100
AcDbEntity
  8
0
100
AcDbVertex
100
AcDbPolygonMeshVertex
 10
-0.542
 20
-4.04
 30
4.857
 70
    64
  0
VERTEX
  5
874C8
100
AcDbEntity
  8
0
100
AcDbVertex
100
AcDbPolygonMeshVertex
 10
-0.982
 20
-3.66
 30
4.857
 70
    64
  0
VERTEX
  5
874C9
100
AcDbEntity
  8
0
100
AcDbVertex
100
AcDbPolygonMeshVertex
 10
-0.982
 20
-3.66
 30
4.857
 70
    64
  0
VERTEX
  5
874CA
100
AcDbEntity
  8
0
100
AcDbVertex
100
AcDbPolygonMeshVertex
 10
-0.982
 20
-4.04
 30
4.857
 70
    64
  0
SEQEND
  5
874CB
100
AcDbEntity
  8
0
  0
POLYLINE
  5
874CC
100
AcDbEntity
  8
0
100
AcDbPolygonMesh
 66
     1
 10
0.0
 20
0.0
 30
0.0
 70
    16
 71
     6
 72
     3
  0
VERTEX
  5
874CD
100
AcDbEntity
  8
0
100
AcDbVertex
100
AcDbPolygonMeshVertex
 10
-0.852
 20
-1.34
 30
4.477
 70
    64
  0
VERTEX
  5
874CE
100
AcDbEntity
  8
0
100
AcDbVertex
100
AcDbPolygonMeshVertex
 10
-0.852
 20
-1.34
 30
3.357
 70
    64
  0
VERTEX
  5
874CF
100
AcDbEntity
  8
0
100
AcDbVertex
100
AcDbPolygonMeshVertex
 10
-0.852
 20
-1.34
 30
3.357
 70
    64
  0
VERTEX
  5
874D0
100
AcDbEntity
  8
0
100
AcDbVertex
100
AcDbPolygonMeshVertex
 10
-0.672
 20
-1.34
 30
4.477
 70
    64
  0
VERTEX
  5
874D1
100
AcDbEntity
  8
0
100
AcDbVertex
100
AcDbPolygonMeshVertex
 10
-0.672
 20
-1.34
 30
3.357
 70
    64
  0
VERTEX
  5
874D2
100
AcDbEntity
  8
0
100
AcDbVertex
100
AcDbPolygonMeshVertex
 10
-0.672
 20
-1.34
 30
3.357
 70
    64
  0
VERTEX
  5
874D3
100
AcDbEntity
  8
0
100
AcDbVertex
100
AcDbPolygonMeshVertex
 10
-0.672
 20
-1.47
 30
4.477
 70
    64
  0
VERTEX
  5
874D4
100
AcDbEntity
  8
0
100
AcDbVertex
100
AcDbPolygonMeshVertex
 10
-0.672
 20
-1.47
 30
3.357
 70
    64
  0
VERTEX
  5
874D5
100
AcDbEntity
  8
0
100
AcDbVertex
100
AcDbPolygonMeshVertex
 10
-0.672
 20
-1.34
 30
3.357
 70
    64
  0
VERTEX
  5
874D6
100
AcDbEntity
  8
0
100
AcDbVertex
100
AcDbPolygonMeshVertex
 10
-0.852
 20
-1.47
 30
4.477
 70
    64
  0
VERTEX
  5
874D7
100
AcDbEntity
  8
0
100
AcDbVertex
100
AcDbPolygonMeshVertex
 10
-0.852
 20
-1.47
 30
3.357
 70
    64
  0
VERTEX
  5
874D8
100
AcDbEntity
  8
0
100
AcDbVertex
100
AcDbPolygonMeshVertex
 10
-0.852
 20
-1.34
 30
3.357
 70
    64
  0
VERTEX
  5
874D9
100
AcDbEntity
  8
0
100
AcDbVertex
100
AcDbPolygonMeshVertex
 10
-0.852
 20
-1.47
 30
4.477
 70
    64
  0
VERTEX
  5
874DA
100
AcDbEntity
  8
0
100
AcDbVertex
100
AcDbPolygonMeshVertex
 10
-0.852
 20
-1.47
 30
4.477
 70
    64
  0
VERTEX
  5
874DB
100
AcDbEntity
  8
0
100
AcDbVertex
100
AcDbPolygonMeshVertex
 10
-0.852
 20
-1.34
 30
4.477
 70
    64
  0
VERTEX
  5
874DC
100
AcDbEntity
  8
0
100
AcDbVertex
100
AcDbPolygonMeshVertex
 10
-0.672
 20
-1.47
 30
4.477
 70
    64
  0
VERTEX
  5
874DD
100
AcDbEntity
  8
0
100
AcDbVertex
100
AcDbPolygonMeshVertex
 10
-0.672
 20
-1.47
 30
4.477
 70
    64
  0
VERTEX
  5
874DE
100
AcDbEntity
  8
0
100
AcDbVertex
100
AcDbPolygonMeshVertex
 10
-0.672
 20
-1.34
 30
4.477
 70
    64
  0
SEQEND
  5
874DF
100
AcDbEntity
  8
0
  0
POLYLINE
  5
874E0
100
AcDbEntity
  8
0
100
AcDbPolygonMesh
 66
     1
 10
0.0
 20
0.0
 30
0.0
 70
    16
 71
     6
 72
     3
  0
VERTEX
  5
874E1
100
AcDbEntity
  8
0
100
AcDbVertex
100
AcDbPolygonMeshVertex
 10
-1.912
 20
-1.34
 30
4.477
 70
    64
  0
VERTEX
  5
874E2
100
AcDbEntity
  8
0
100
AcDbVertex
100
AcDbPolygonMeshVertex
 10
-1.912
 20
-1.34
 30
3.357
 70
    64
  0
VERTEX
  5
874E3
100
AcDbEntity
  8
0
100
AcDbVertex
100
AcDbPolygonMeshVertex
 10
-1.912
 20
-1.34
 30
3.357
 70
    64
  0
VERTEX
  5
874E4
100
AcDbEntity
  8
0
100
AcDbVertex
100
AcDbPolygonMeshVertex
 10
-1.732
 20
-1.34
 30
4.477
 70
    64
  0
VERTEX
  5
874E5
100
AcDbEntity
  8
0
100
AcDbVertex
100
AcDbPolygonMeshVertex
 10
-1.732
 20
-1.34
 30
3.357
 70
    64
  0
VERTEX
  5
874E6
100
AcDbEntity
  8
0
100
AcDbVertex
100
AcDbPolygonMeshVertex
 10
-1.732
 20
-1.34
 30
3.357
 70
    64
  0
VERTEX
  5
874E7
100
AcDbEntity
  8
0
100
AcDbVertex
100
AcDbPolygonMeshVertex
 10
-1.732
 20
-1.47
 30
4.477
 70
    64
  0
VERTEX
  5
874E8
100
AcDbEntity
  8
0
100
AcDbVertex
100
AcDbPolygonMeshVertex
 10
-1.732
 20
-1.47
 30
3.357
 70
    64
  0
VERTEX
  5
874E9
100
AcDbEntity
  8
0
100
AcDbVertex
100
AcDbPolygonMeshVertex
 10
-1.732
 20
-1.34
 30
3.357
 70
    64
  0
VERTEX
  5
874EA
100
AcDbEntity
  8
0
100
AcDbVertex
100
AcDbPolygonMeshVertex
 10
-1.912
 20
-1.47
 30
4.477
 70
    64
  0
VERTEX
  5
874EB
100
AcDbEntity
  8
0
100
AcDbVertex
100
AcDbPolygonMeshVertex
 10
-1.912
 20
-1.47
 30
3.357
 70
    64
  0
VERTEX
  5
874EC
100
AcDbEntity
  8
0
100
AcDbVertex
100
AcDbPolygonMeshVertex
 10
-1.912
 20
-1.34
 30
3.357
 70
    64
  0
VERTEX
  5
874ED
100
AcDbEntity
  8
0
100
AcDbVertex
100
AcDbPolygonMeshVertex
 10
-1.912
 20
-1.47
 30
4.477
 70
    64
  0
VERTEX
  5
874EE
100
AcDbEntity
  8
0
100
AcDbVertex
100
AcDbPolygonMeshVertex
 10
-1.912
 20
-1.47
 30
4.477
 70
    64
  0
VERTEX
  5
874EF
100
AcDbEntity
  8
0
100
AcDbVertex
100
AcDbPolygonMeshVertex
 10
-1.912
 20
-1.34
 30
4.477
 70
    64
  0
VERTEX
  5
874F0
100
AcDbEntity
  8
0
100
AcDbVertex
100
AcDbPolygonMeshVertex
 10
-1.732
 20
-1.47
 30
4.477
 70
    64
  0
VERTEX
  5
874F1
100
AcDbEntity
  8
0
100
AcDbVertex
100
AcDbPolygonMeshVertex
 10
-1.732
 20
-1.47
 30
4.477
 70
    64
  0
VERTEX
  5
874F2
100
AcDbEntity
  8
0
100
AcDbVertex
100
AcDbPolygonMeshVertex
 10
-1.732
 20
-1.34
 30
4.477
 70
    64
  0
SEQEND
  5
874F3
100
AcDbEntity
  8
0
  0
LINE
  5
874F4
100
AcDbEntity
  8
0
100
AcDbLine
 10
-0.672
 20
-1.34
 30
4.477
 11
-0.852
 21
-1.34
 31
4.477
  0
LINE
  5
874F5
100
AcDbEntity
  8
0
100
AcDbLine
 10
-0.672
 20
-1.47
 30
4.477
 11
-0.672
 21
-1.34
 31
4.477
  0
TEXT
  5
874F6
100
AcDbEntity
  8
0
100
AcDbText
 10
1.757738
 20
-1.827169
 30
4.667
 40
0.12
  1
T1
100
AcDbText
  0
CIRCLE
  5
874F7
100
AcDbEntity
  8
0
100
AcDbCircle
 10
1.836
 20
-1.765
 30
4.667
 40
0.19
  0
POLYLINE
  5
874F8
100
AcDbEntity
  8
0
100
AcDbPolygonMesh
 66
     1
 10
0.0
 20
0.0
 30
0.0
 70
    16
 71
     6
 72
     3
  0
VERTEX
  5
874F9
100
AcDbEntity
  8
0
100
AcDbVertex
100
AcDbPolygonMeshVertex
 10
1.586
 20
-1.56
 30
4.667
 70
    64
  0
VERTEX
  5
874FA
100
AcDbEntity
  8
0
100
AcDbVertex
100
AcDbPolygonMeshVertex
 10
1.586
 20
-1.56
 30
4.477
 70
    64
  0
VERTEX
  5
874FB
100
AcDbEntity
  8
0
100
AcDbVertex
100
AcDbPolygonMeshVertex
 10
1.586
 20
-1.56
 30
4.477
 70
    64
  0
VERTEX
  5
874FC
100
AcDbEntity
  8
0
100
AcDbVertex
100
AcDbPolygonMeshVertex
 10
2.086
 20
-1.56
 30
4.667
 70
    64
  0
VERTEX
  5
874FD
100
AcDbEntity
  8
0
100
AcDbVertex
100
AcDbPolygonMeshVertex
 10
2.086
 20
-1.56
 30
4.477
 70
    64
  0
VERTEX
  5
874FE
100
AcDbEntity
  8
0
100
AcDbVertex
100
AcDbPolygonMeshVertex
 10
2.086
 20
-1.56
 30
4.477
 70
    64
  0
VERTEX
  5
874FF
100
AcDbEntity
  8
0
100
AcDbVertex
100
AcDbPolygonMeshVertex
 10
2.086
 20
-1.97
 30
4.667
 70
    64
  0
VERTEX
  5
87500
100
AcDbEntity
  8
0
100
AcDbVertex
100
AcDbPolygonMeshVertex
 10
2.086
 20
-1.97
 30
4.477
 70
    64
  0
VERTEX
  5
87501
100
AcDbEntity
  8
0
100
AcDbVertex
100
AcDbPolygonMeshVertex
 10
2.086
 20
-1.56
 30
4.477
 70
    64
  0
VERTEX
  5
87502
100
AcDbEntity
  8
0
100
AcDbVertex
100
AcDbPolygonMeshVertex
 10
1.586
 20
-1.97
 30
4.667
 70
    64
  0
VERTEX
  5
87503
100
AcDbEntity
  8
0
100
AcDbVertex
100
AcDbPolygonMeshVertex
 10
1.586
 20
-1.97
 30
4.477
 70
    64
  0
VERTEX
  5
87504
100
AcDbEntity
  8
0
100
AcDbVertex
100
AcDbPolygonMeshVertex
 10
1.586
 20
-1.56
 30
4.477
 70
    64
  0
VERTEX
  5
87505
100
AcDbEntity
  8
0
100
AcDbVertex
100
AcDbPolygonMeshVertex
 10
1.586
 20
-1.97
 30
4.667
 70
    64
  0
VERTEX
  5
87506
100
AcDbEntity
  8
0
100
AcDbVertex
100
AcDbPolygonMeshVertex
 10
1.586
 20
-1.97
 30
4.667
 70
    64
  0
VERTEX
  5
87507
100
AcDbEntity
  8
0
100
AcDbVertex
100
AcDbPolygonMeshVertex
 10
1.586
 20
-1.56
 30
4.667
 70
    64
  0
VERTEX
  5
87508
100
AcDbEntity
  8
0
100
AcDbVertex
100
AcDbPolygonMeshVertex
 10
2.086
 20
-1.97
 30
4.667
 70
    64
  0
VERTEX
  5
87509
100
AcDbEntity
  8
0
100
AcDbVertex
100
AcDbPolygonMeshVertex
 10
2.086
 20
-1.97
 30
4.667
 70
    64
  0
VERTEX
  5
8750A
100
AcDbEntity
  8
0
100
AcDbVertex
100
AcDbPolygonMeshVertex
 10
2.086
 20
-1.56
 30
4.667
 70
    64
  0
SEQEND
  5
8750B
100
AcDbEntity
  8
0
  0
LINE
  5
8750C
100
AcDbEntity
  8
0
100
AcDbLine
 10
1.736
 20
-0.69
 30
0.577
 11
1.926
 21
-0.69
 31
0.577
  0
LINE
  5
8750D
100
AcDbEntity
  8
0
100
AcDbLine
 10
1.736
 20
-0.69
 30
0.387
 11
1.926
 21
-0.69
 31
0.387
  0
3DFACE
  5
8750E
100
AcDbEntity
  8
0
100
AcDbFace
 10
1.926
 20
-0.69
 30
0.577
 11
1.736
 21
-0.69
 31
0.577
 12
1.736
 22
-0.69
 32
0.387
 13
1.926
 23
-0.69
 33
0.387
 70
    14
  0
POLYLINE
  5
8750F
100
AcDbEntity
  8
0
100
AcDbPolygonMesh
 66
     1
 10
0.0
 20
0.0
 30
0.0
 70
    16
 71
     6
 72
     3
  0
VERTEX
  5
87510
100
AcDbEntity
  8
0
100
AcDbVertex
100
AcDbPolygonMeshVertex
 10
4.676
 20
-6.69
 30
0.577
 70
    64
  0
VERTEX
  5
87511
100
AcDbEntity
  8
0
100
AcDbVertex
100
AcDbPolygonMeshVertex
 10
4.676
 20
-6.69
 30
0.387
 70
    64
  0
VERTEX
  5
87512
100
AcDbEntity
  8
0
100
AcDbVertex
100
AcDbPolygonMeshVertex
 10
4.676
 20
-6.69
 30
0.387
 70
    64
  0
VERTEX
  5
87513
100
AcDbEntity
  8
0
100
AcDbVertex
100
AcDbPolygonMeshVertex
 10
1.116
 20
-6.69
 30
0.577
 70
    64
  0
VERTEX
  5
87514
100
AcDbEntity
  8
0
100
AcDbVertex
100
AcDbPolygonMeshVertex
 10
1.116
 20
-6.69
 30
0.387
 70
    64
  0
VERTEX
  5
87515
100
AcDbEntity
  8
0
100
AcDbVertex
100
AcDbPolygonMeshVertex
 10
1.116
 20
-6.69
 30
0.387
 70
    64
  0
VERTEX
  5
87516
100
AcDbEntity
  8
0
100
AcDbVertex
100
AcDbPolygonMeshVertex
 10
1.116
 20
-1.31
 30
0.577
 70
    64
  0
VERTEX
  5
87517
100
AcDbEntity
  8
0
100
AcDbVertex
100
AcDbPolygonMeshVertex
 10
1.116
 20
-1.31
 30
0.387
 70
    64
  0
VERTEX
  5
87518
100
AcDbEntity
  8
0
100
AcDbVertex
100
AcDbPolygonMeshVertex
 10
1.116
 20
-6.69
 30
0.387
 70
    64
  0
VERTEX
  5
87519
100
AcDbEntity
  8
0
100
AcDbVertex
100
AcDbPolygonMeshVertex
 10
4.676
 20
-1.31
 30
0.577
 70
    64
  0
VERTEX
  5
8751A
100
AcDbEntity
  8
0
100
AcDbVertex
100
AcDbPolygonMeshVertex
 10
4.676
 20
-1.31
 30
0.387
 70
    64
  0
VERTEX
  5
8751B
100
AcDbEntity
  8
0
100
AcDbVertex
100
AcDbPolygonMeshVertex
 10
4.676
 20
-6.69
 30
0.387
 70
    64
  0
VERTEX
  5
8751C
100
AcDbEntity
  8
0
100
AcDbVertex
100
AcDbPolygonMeshVertex
 10
4.676
 20
-1.31
 30
0.577
 70
    64
  0
VERTEX
  5
8751D
100
AcDbEntity
  8
0
100
AcDbVertex
100
AcDbPolygonMeshVertex
 10
4.676
 20
-1.31
 30
0.577
 70
    64
  0
VERTEX
  5
8751E
100
AcDbEntity
  8
0
100
AcDbVertex
100
AcDbPolygonMeshVertex
 10
4.676
 20
-6.69
 30
0.577
 70
    64
  0
VERTEX
  5
8751F
100
AcDbEntity
  8
0
100
AcDbVertex
100
AcDbPolygonMeshVertex
 10
1.116
 20
-1.31
 30
0.577
 70
    64
  0
VERTEX
  5
87520
100
AcDbEntity
  8
0
100
AcDbVertex
100
AcDbPolygonMeshVertex
 10
1.116
 20
-1.31
 30
0.577
 70
    64
  0
VERTEX
  5
87521
100
AcDbEntity
  8
0
100
AcDbVertex
100
AcDbPolygonMeshVertex
 10
1.116
 20
-6.69
 30
0.577
 70
    64
  0
SEQEND
  5
87522
100
AcDbEntity
  8
0
  0
LINE
  5
87523
100
AcDbEntity
  8
0
100
AcDbLine
 10
4.676
 20
-1.31
 30
0.577
 11
1.116
 21
-1.31
 31
0.577
  0
POLYLINE
  5
87524
100
AcDbEntity
  8
0
100
AcDbPolygonMesh
 66
     1
 10
0.0
 20
0.0
 30
0.0
 70
    16
 71
     6
 72
     3
  0
VERTEX
  5
87525
100
AcDbEntity
  8
0
100
AcDbVertex
100
AcDbPolygonMeshVertex
 10
1.216
 20
-5.54
 30
0.577
 70
    64
  0
VERTEX
  5
87526
100
AcDbEntity
  8
0
100
AcDbVertex
100
AcDbPolygonMeshVertex
 10
1.216
 20
-5.54
 30
0.577
 70
    64
  0
VERTEX
  5
87527
100
AcDbEntity
  8
0
100
AcDbVertex
100
AcDbPolygonMeshVertex
 10
1.216
 20
-5.54
 30
0.577
 70
    64
  0
VERTEX
  5
87528
100
AcDbEntity
  8
0
100
AcDbVertex
100
AcDbPolygonMeshVertex
 10
1.216
 20
-5.79
 30
2.007
 70
    64
  0
VERTEX
  5
87529
100
AcDbEntity
  8
0
100
AcDbVertex
100
AcDbPolygonMeshVertex
 10
1.216
 20
-5.54
 30
2.007
 70
    64
  0
VERTEX
  5
8752A
100
AcDbEntity
  8
0
100
AcDbVertex
100
AcDbPolygonMeshVertex
 10
1.216
 20
-5.54
 30
2.007
 70
    64
  0
VERTEX
  5
8752B
100
AcDbEntity
  8
0
100
AcDbVertex
100
AcDbPolygonMeshVertex
 10
4.576
 20
-5.79
 30
2.007
 70
    64
  0
VERTEX
  5
8752C
100
AcDbEntity
  8
0
100
AcDbVertex
100
AcDbPolygonMeshVertex
 10
4.576
 20
-5.54
 30
2.007
 70
    64
  0
VERTEX
  5
8752D
100
AcDbEntity
  8
0
100
AcDbVertex
100
AcDbPolygonMeshVertex
 10
1.216
 20
-5.54
 30
2.007
 70
    64
  0
VERTEX
  5
8752E
100
AcDbEntity
  8
0
100
AcDbVertex
100
AcDbPolygonMeshVertex
 10
4.576
 20
-5.54
 30
0.577
 70
    64
  0
VERTEX
  5
8752F
100
AcDbEntity
  8
0
100
AcDbVertex
100
AcDbPolygonMeshVertex
 10
4.576
 20
-5.54
 30
0.577
 70
    64
  0
VERTEX
  5
87530
100
AcDbEntity
  8
0
100
AcDbVertex
100
AcDbPolygonMeshVertex
 10
1.216
 20
-5.54
 30
0.577
 70
    64
  0
VERTEX
  5
87531
100
AcDbEntity
  8
0
100
AcDbVertex
100
AcDbPolygonMeshVertex
 10
4.576
 20
-5.54
 30
0.577
 70
    64
  0
VERTEX
  5
87532
100
AcDbEntity
  8
0
100
AcDbVertex
100
AcDbPolygonMeshVertex
 10
4.576
 20
-5.54
 30
0.577
 70
    64
  0
VERTEX
  5
87533
100
AcDbEntity
  8
0
100
AcDbVertex
100
AcDbPolygonMeshVertex
 10
1.216
 20
-5.54
 30
0.577
 70
    64
  0
VERTEX
  5
87534
100
AcDbEntity
  8
0
100
AcDbVertex
100
AcDbPolygonMeshVertex
 10
4.576
 20
-5.79
 30
2.007
 70
    64
  0
VERTEX
  5
87535
100
AcDbEntity
  8
0
100
AcDbVertex
100
AcDbPolygonMeshVertex
 10
4.576
 20
-5.79
 30
2.007
 70
    64
  0
VERTEX
  5
87536
100
AcDbEntity
  8
0
100
AcDbVertex
100
AcDbPolygonMeshVertex
 10
1.216
 20
-5.79
 30
2.007
 70
    64
  0
SEQEND
  5
87537
100
AcDbEntity
  8
0
  0
POLYLINE
  5
87538
100
AcDbEntity
  8
0
100
AcDbPolygonMesh
 66
     1
 10
0.0
 20
0.0
 30
0.0
 70
    16
 71
     6
 72
     3
  0
VERTEX
  5
87539
100
AcDbEntity
  8
0
100
AcDbVertex
100
AcDbPolygonMeshVertex
 10
4.576
 20
-2.15
 30
4.477
 70
    64
  0
VERTEX
  5
8753A
100
AcDbEntity
  8
0
100
AcDbVertex
100
AcDbPolygonMeshVertex
 10
4.576
 20
-2.15
 30
0.577
 70
    64
  0
VERTEX
  5
8753B
100
AcDbEntity
  8
0
100
AcDbVertex
100
AcDbPolygonMeshVertex
 10
4.576
 20
-2.15
 30
0.577
 70
    64
  0
VERTEX
  5
8753C
100
AcDbEntity
  8
0
100
AcDbVertex
100
AcDbPolygonMeshVertex
 10
1.216
 20
-2.15
 30
4.477
 70
    64
  0
VERTEX
  5
8753D
100
AcDbEntity
  8
0
100
AcDbVertex
100
AcDbPolygonMeshVertex
 10
1.216
 20
-2.15
 30
0.577
 70
    64
  0
VERTEX
  5
8753E
100
AcDbEntity
  8
0
100
AcDbVertex
100
AcDbPolygonMeshVertex
 10
1.216
 20
-2.15
 30
0.577
 70
    64
  0
VERTEX
  5
8753F
100
AcDbEntity
  8
0
100
AcDbVertex
100
AcDbPolygonMeshVertex
 10
1.216
 20
-1.47
 30
4.477
 70
    64
  0
VERTEX
  5
87540
100
AcDbEntity
  8
0
100
AcDbVertex
100
AcDbPolygonMeshVertex
 10
1.216
 20
-1.47
 30
0.577
 70
    64
  0
VERTEX
  5
87541
100
AcDbEntity
  8
0
100
AcDbVertex
100
AcDbPolygonMeshVertex
 10
1.216
 20
-2.15
 30
0.577
 70
    64
  0
VERTEX
  5
87542
100
AcDbEntity
  8
0
100
AcDbVertex
100
AcDbPolygonMeshVertex
 10
4.576
 20
-1.47
 30
4.477
 70
    64
  0
VERTEX
  5
87543
100
AcDbEntity
  8
0
100
AcDbVertex
100
AcDbPolygonMeshVertex
 10
4.576
 20
-1.47
 30
0.577
 70
    64
  0
VERTEX
  5
87544
100
AcDbEntity
  8
0
100
AcDbVertex
100
AcDbPolygonMeshVertex
 10
4.576
 20
-2.15
 30
0.577
 70
    64
  0
VERTEX
  5
87545
100
AcDbEntity
  8
0
100
AcDbVertex
100
AcDbPolygonMeshVertex
 10
4.576
 20
-1.47
 30
4.477
 70
    64
  0
VERTEX
  5
87546
100
AcDbEntity
  8
0
100
AcDbVertex
100
AcDbPolygonMeshVertex
 10
4.576
 20
-1.47
 30
4.477
 70
    64
  0
VERTEX
  5
87547
100
AcDbEntity
  8
0
100
AcDbVertex
100
AcDbPolygonMeshVertex
 10
4.576
 20
-2.15
 30
4.477
 70
    64
  0
VERTEX
  5
87548
100
AcDbEntity
  8
0
100
AcDbVertex
100
AcDbPolygonMeshVertex
 10
1.216
 20
-1.47
 30
4.477
 70
    64
  0
VERTEX
  5
87549
100
AcDbEntity
  8
0
100
AcDbVertex
100
AcDbPolygonMeshVertex
 10
1.216
 20
-1.47
 30
4.477
 70
    64
  0
VERTEX
  5
8754A
100
AcDbEntity
  8
0
100
AcDbVertex
100
AcDbPolygonMeshVertex
 10
1.216
 20
-2.15
 30
4.477
 70
    64
  0
SEQEND
  5
8754B
100
AcDbEntity
  8
0
  0
POLYLINE
  5
8754C
100
AcDbEntity
  8
0
100
AcDbPolygonMesh
 66
     1
 10
0.0
 20
0.0
 30
0.0
 70
    16
 71
     6
 72
     3
  0
VERTEX
  5
8754D
100
AcDbEntity
  8
0
100
AcDbVertex
100
AcDbPolygonMeshVertex
 10
4.576
 20
-5.79
 30
3.237
 70
    64
  0
VERTEX
  5
8754E
100
AcDbEntity
  8
0
100
AcDbVertex
100
AcDbPolygonMeshVertex
 10
4.576
 20
-5.79
 30
2.007
 70
    64
  0
VERTEX
  5
8754F
100
AcDbEntity
  8
0
100
AcDbVertex
100
AcDbPolygonMeshVertex
 10
4.576
 20
-5.79
 30
2.007
 70
    64
  0
VERTEX
  5
87550
100
AcDbEntity
  8
0
100
AcDbVertex
100
AcDbPolygonMeshVertex
 10
1.216
 20
-5.79
 30
3.237
 70
    64
  0
VERTEX
  5
87551
100
AcDbEntity
  8
0
100
AcDbVertex
100
AcDbPolygonMeshVertex
 10
1.216
 20
-5.79
 30
2.007
 70
    64
  0
VERTEX
  5
87552
100
AcDbEntity
  8
0
100
AcDbVertex
100
AcDbPolygonMeshVertex
 10
1.216
 20
-5.79
 30
2.007
 70
    64
  0
VERTEX
  5
87553
100
AcDbEntity
  8
0
100
AcDbVertex
100
AcDbPolygonMeshVertex
 10
1.216
 20
-5.54
 30
3.237
 70
    64
  0
VERTEX
  5
87554
100
AcDbEntity
  8
0
100
AcDbVertex
100
AcDbPolygonMeshVertex
 10
1.216
 20
-5.54
 30
2.007
 70
    64
  0
VERTEX
  5
87555
100
AcDbEntity
  8
0
100
AcDbVertex
100
AcDbPolygonMeshVertex
 10
1.216
 20
-5.79
 30
2.007
 70
    64
  0
VERTEX
  5
87556
100
AcDbEntity
  8
0
100
AcDbVertex
100
AcDbPolygonMeshVertex
 10
4.576
 20
-5.54
 30
3.237
 70
    64
  0
VERTEX
  5
87557
100
AcDbEntity
  8
0
100
AcDbVertex
100
AcDbPolygonMeshVertex
 10
4.576
 20
-5.54
 30
2.007
 70
    64
  0
VERTEX
  5
87558
100
AcDbEntity
  8
0
100
AcDbVertex
100
AcDbPolygonMeshVertex
 10
4.576
 20
-5.79
 30
2.007
 70
    64
  0
VERTEX
  5
87559
100
AcDbEntity
  8
0
100
AcDbVertex
100
AcDbPolygonMeshVertex
 10
4.576
 20
-5.54
 30
3.237
 70
    64
  0
VERTEX
  5
8755A
100
AcDbEntity
  8
0
100
AcDbVertex
100
AcDbPolygonMeshVertex
 10
4.576
 20
-5.54
 30
3.237
 70
    64
  0
VERTEX
  5
8755B
100
AcDbEntity
  8
0
100
AcDbVertex
100
AcDbPolygonMeshVertex
 10
4.576
 20
-5.79
 30
3.237
 70
    64
  0
VERTEX
  5
8755C
100
AcDbEntity
  8
0
100
AcDbVertex
100
AcDbPolygonMeshVertex
 10
1.216
 20
-5.54
 30
3.237
 70
    64
  0
VERTEX
  5
8755D
100
AcDbEntity
  8
0
100
AcDbVertex
100
AcDbPolygonMeshVertex
 10
1.216
 20
-5.54
 30
3.237
 70
    64
  0
VERTEX
  5
8755E
100
AcDbEntity
  8
0
100
AcDbVertex
100
AcDbPolygonMeshVertex
 10
1.216
 20
-5.79
 30
3.237
 70
    64
  0
SEQEND
  5
8755F
100
AcDbEntity
  8
0
  0
POLYLINE
  5
87560
100
AcDbEntity
  8
0
100
AcDbPolygonMesh
 66
     1
 10
0.0
 20
0.0
 30
0.0
 70
    16
 71
     6
 72
     3
  0
VERTEX
  5
87561
100
AcDbEntity
  8
0
100
AcDbVertex
100
AcDbPolygonMeshVertex
 10
4.576
 20
-5.54
 30
4.017
 70
    64
  0
VERTEX
  5
87562
100
AcDbEntity
  8
0
100
AcDbVertex
100
AcDbPolygonMeshVertex
 10
4.576
 20
-5.54
 30
0.577
 70
    64
  0
VERTEX
  5
87563
100
AcDbEntity
  8
0
100
AcDbVertex
100
AcDbPolygonMeshVertex
 10
4.576
 20
-5.54
 30
0.577
 70
    64
  0
VERTEX
  5
87564
100
AcDbEntity
  8
0
100
AcDbVertex
100
AcDbPolygonMeshVertex
 10
1.216
 20
-5.54
 30
4.017
 70
    64
  0
VERTEX
  5
87565
100
AcDbEntity
  8
0
100
AcDbVertex
100
AcDbPolygonMeshVertex
 10
1.216
 20
-5.54
 30
0.577
 70
    64
  0
VERTEX
  5
87566
100
AcDbEntity
  8
0
100
AcDbVertex
100
AcDbPolygonMeshVertex
 10
1.216
 20
-5.54
 30
0.577
 70
    64
  0
VERTEX
  5
87567
100
AcDbEntity
  8
0
100
AcDbVertex
100
AcDbPolygonMeshVertex
 10
1.216
 20
-2.15
 30
4.017
 70
    64
  0
VERTEX
  5
87568
100
AcDbEntity
  8
0
100
AcDbVertex
100
AcDbPolygonMeshVertex
 10
1.216
 20
-2.15
 30
0.577
 70
    64
  0
VERTEX
  5
87569
100
AcDbEntity
  8
0
100
AcDbVertex
100
AcDbPolygonMeshVertex
 10
1.216
 20
-5.54
 30
0.577
 70
    64
  0
VERTEX
  5
8756A
100
AcDbEntity
  8
0
100
AcDbVertex
100
AcDbPolygonMeshVertex
 10
4.576
 20
-2.15
 30
4.017
 70
    64
  0
VERTEX
  5
8756B
100
AcDbEntity
  8
0
100
AcDbVertex
100
AcDbPolygonMeshVertex
 10
4.576
 20
-2.15
 30
0.577
 70
    64
  0
VERTEX
  5
8756C
100
AcDbEntity
  8
0
100
AcDbVertex
100
AcDbPolygonMeshVertex
 10
4.576
 20
-5.54
 30
0.577
 70
    64
  0
VERTEX
  5
8756D
100
AcDbEntity
  8
0
100
AcDbVertex
100
AcDbPolygonMeshVertex
 10
4.576
 20
-2.15
 30
4.017
 70
    64
  0
VERTEX
  5
8756E
100
AcDbEntity
  8
0
100
AcDbVertex
100
AcDbPolygonMeshVertex
 10
4.576
 20
-2.15
 30
4.017
 70
    64
  0
VERTEX
  5
8756F
100
AcDbEntity
  8
0
100
AcDbVertex
100
AcDbPolygonMeshVertex
 10
4.576
 20
-5.54
 30
4.017
 70
    64
  0
VERTEX
  5
87570
100
AcDbEntity
  8
0
100
AcDbVertex
100
AcDbPolygonMeshVertex
 10
1.216
 20
-2.15
 30
4.017
 70
    64
  0
VERTEX
  5
87571
100
AcDbEntity
  8
0
100
AcDbVertex
100
AcDbPolygonMeshVertex
 10
1.216
 20
-2.15
 30
4.017
 70
    64
  0
VERTEX
  5
87572
100
AcDbEntity
  8
0
100
AcDbVertex
100
AcDbPolygonMeshVertex
 10
1.216
 20
-5.54
 30
4.017
 70
    64
  0
SEQEND
  5
87573
100
AcDbEntity
  8
0
  0
LINE
  5
87574
100
AcDbEntity
  8
0
100
AcDbLine
 10
1.216
 20
-2.15
 30
4.017
 11
1.216
 21
-2.15
 31
0.577
  0
LINE
  5
87575
100
AcDbEntity
  8
0
100
AcDbLine
 10
1.621
 20
-6.47
 30
0.387
 11
1.621
 21
-6.47
 31
0.577
  0
LINE
  5
87576
100
AcDbEntity
  8
0
100
AcDbLine
 10
1.421
 20
-6.47
 30
0.387
 11
1.421
 21
-6.47
 31
0.577
  0
LINE
  5
87577
100
AcDbEntity
  8
0
100
AcDbLine
 10
1.421
 20
-6.69
 30
0.387
 11
1.421
 21
-6.69
 31
0.577
  0
LINE
  5
87578
100
AcDbEntity
  8
0
100
AcDbLine
 10
1.621
 20
-6.69
 30
0.387
 11
1.621
 21
-6.69
 31
0.577
  0
ARC
  5
87579
100
AcDbEntity
  8
0
100
AcDbCircle
 10
1.521
 20
-6.47
 30
0.387
 40
0.1
100
AcDbArc
 50
0.0
 51
179.999985
  0
LINE
  5
8757A
100
AcDbEntity
  8
0
100
AcDbLine
 10
1.421
 20
-6.47
 30
0.387
 11
1.421
 21
-6.69
 31
0.387
  0
LINE
  5
8757B
100
AcDbEntity
  8
0
100
AcDbLine
 10
1.621
 20
-6.69
 30
0.387
 11
1.621
 21
-6.47
 31
0.387
  0
ARC
  5
8757C
100
AcDbEntity
  8
0
100
AcDbCircle
 10
1.521
 20
-6.47
 30
0.577
 40
0.1
100
AcDbArc
 50
0.0
 51
179.999985
  0
LINE
  5
8757D
100
AcDbEntity
  8
0
100
AcDbLine
 10
1.421
 20
-6.47
 30
0.577
 11
1.421
 21
-6.69
 31
0.577
  0
LINE
  5
8757E
100
AcDbEntity
  8
0
100
AcDbLine
 10
1.621
 20
-6.69
 30
0.577
 11
1.621
 21
-6.47
 31
0.577
  0
LINE
  5
8757F
100
AcDbEntity
  8
0
100
AcDbLine
 10
1.116
 20
-1.31
 30
0.387
 11
1.116
 21
-1.31
 31
0.577
  0
3DFACE
  5
87580
100
AcDbEntity
  8
0
100
AcDbFace
 10
1.736
 20
-0.69
 30
0.387
 11
1.736
 21
-0.69
 31
0.577
 12
1.116
 22
-1.31
 32
0.577
 13
1.116
 23
-1.31
 33
0.387
  0
ARC
  5
87581
100
AcDbEntity
  8
0
100
AcDbCircle
 10
4.271
 20
-6.47
 30
0.577
 40
0.1
100
AcDbArc
 50
0.0
 51
179.999985
  0
ARC
  5
87582
100
AcDbEntity
  8
0
100
AcDbCircle
 10
4.271
 20
-6.47
 30
0.387
 40
0.1
100
AcDbArc
 50
0.0
 51
179.999985
  0
ARC
  5
87583
100
AcDbEntity
  8
0
100
AcDbCircle
 10
4.271
 20
-6.47
 30
0.387
 40
0.1
100
AcDbArc
 50
0.0
 51
179.999985
  0
LINE
  5
87584
100
AcDbEntity
  8
0
100
AcDbLine
 10
4.171
 20
-6.47
 30
0.387
 11
4.171
 21
-6.47
 31
0.577
  0
LINE
  5
87585
100
AcDbEntity
  8
0
100
AcDbLine
 10
4.171
 20
-6.69
 30
0.387
 11
4.171
 21
-6.69
 31
0.577
  0
LINE
  5
87586
100
AcDbEntity
  8
0
100
AcDbLine
 10
4.171
 20
-6.47
 30
0.387
 11
4.171
 21
-6.69
 31
0.387
  0
LINE
  5
87587
100
AcDbEntity
  8
0
100
AcDbLine
 10
4.171
 20
-6.47
 30
0.577
 11
4.171
 21
-6.69
 31
0.577
  0
LINE
  5
87588
100
AcDbEntity
  8
0
100
AcDbLine
 10
4.371
 20
-6.47
 30
0.387
 11
4.371
 21
-6.47
 31
0.577
  0
LINE
  5
87589
100
AcDbEntity
  8
0
100
AcDbLine
 10
4.371
 20
-6.69
 30
0.387
 11
4.371
 21
-6.69
 31
0.577
  0
3DFACE
  5
8758A
100
AcDbEntity
  8
0
100
AcDbFace
 10
4.371
 20
-6.47
 30
0.577
 11
4.371
 21
-6.69
 31
0.577
 12
4.371
 22
-6.69
 32
0.387
 13
4.371
 23
-6.47
 33
0.387
 70
    14
  0
LINE
  5
8758B
100
AcDbEntity
  8
0
100
AcDbLine
 10
4.371
 20
-6.69
 30
0.387
 11
4.371
 21
-6.47
 31
0.387
  0
LINE
  5
8758C
100
AcDbEntity
  8
0
100
AcDbLine
 10
4.371
 20
-6.69
 30
0.577
 11
4.371
 21
-6.47
 31
0.577
  0
3DFACE
  5
8758D
100
AcDbEntity
  8
0
100
AcDbFace
 10
4.676
 20
-1.31
 30
0.387
 11
4.676
 21
-1.31
 31
0.577
 12
4.056
 22
-0.69
 32
0.577
 13
4.056
 23
-0.69
 33
0.387
  0
LINE
  5
8758E
100
AcDbEntity
  8
0
100
AcDbLine
 10
2.9975
 20
-1.102159
 30
0.387
 11
2.9975
 21
-1.102159
 31
0.577
  0
LINE
  5
8758F
100
AcDbEntity
  8
0
100
AcDbLine
 10
2.9975
 20
-0.97
 30
0.387
 11
2.9975
 21
-0.97
 31
0.577
  0
LINE
  5
87590
100
AcDbEntity
  8
0
100
AcDbLine
 10
3.376
 20
-0.97
 30
0.387
 11
3.376
 21
-0.97
 31
0.577
  0
LINE
  5
87591
100
AcDbEntity
  8
0
100
AcDbLine
 10
2.7945
 20
-1.102159
 30
0.387
 11
2.7945
 21
-1.102159
 31
0.577
  0
LINE
  5
87592
100
AcDbEntity
  8
0
100
AcDbLine
 10
2.7945
 20
-0.97
 30
0.387
 11
2.7945
 21
-0.97
 31
0.577
  0
LINE
  5
87593
100
AcDbEntity
  8
0
100
AcDbLine
 10
2.516
 20
-0.97
 30
0.387
 11
2.516
 21
-0.97
 31
0.577
  0
LINE
  5
87594
100
AcDbEntity
  8
0
100
AcDbLine
 10
1.926
 20
-0.69
 30
0.387
 11
1.926
 21
-0.69
 31
0.577
  0
LINE
  5
87595
100
AcDbEntity
  8
0
100
AcDbLine
 10
2.026
 20
-0.97
 30
0.387
 11
2.026
 21
-0.97
 31
0.577
  0
3DFACE
  5
87596
100
AcDbEntity
  8
0
100
AcDbFace
 10
2.026
 20
-0.97
 30
0.577
 11
1.926
 21
-0.69
 31
0.577
 12
1.926
 22
-0.69
 32
0.387
 13
2.026
 23
-0.97
 33
0.387
 70
    14
  0
3DFACE
  5
87597
100
AcDbEntity
  8
0
100
AcDbFace
 10
2.516
 20
-0.97
 30
0.577
 11
2.026
 21
-0.97
 31
0.577
 12
2.026
 22
-0.97
 32
0.387
 13
2.516
 23
-0.97
 33
0.387
 70
    14
  0
3DFACE
  5
87598
100
AcDbEntity
  8
0
100
AcDbFace
 10
4.056
 20
-0.69
 30
0.387
 11
4.056
 21
-0.69
 31
0.577
 12
2.616
 22
-0.69
 32
0.577
 13
2.616
 23
-0.69
 33
0.387
  0
ARC
  5
87599
100
AcDbEntity
  8
0
100
AcDbCircle
 10
2.896
 20
-1.313
 30
0.387
 40
0.234
100
AcDbArc
 50
115.70649
 51
64.293579
  0
LINE
  5
8759A
100
AcDbEntity
  8
0
100
AcDbLine
 10
2.026
 20
-0.97
 30
0.387
 11
2.516
 21
-0.97
 31
0.387
  0
LINE
  5
8759B
100
AcDbEntity
  8
0
100
AcDbLine
 10
1.926
 20
-0.69
 30
0.387
 11
2.026
 21
-0.97
 31
0.387
  0
LINE
  5
8759C
100
AcDbEntity
  8
0
100
AcDbLine
 10
2.9975
 20
-0.97
 30
0.387
 11
2.9975
 21
-1.102159
 31
0.387
  0
LINE
  5
8759D
100
AcDbEntity
  8
0
100
AcDbLine
 10
2.7945
 20
-0.97
 30
0.387
 11
2.7945
 21
-1.102159
 31
0.387
  0
LINE
  5
8759E
100
AcDbEntity
  8
0
100
AcDbLine
 10
2.516
 20
-0.97
 30
0.387
 11
2.616
 21
-0.69
 31
0.387
  0
ARC
  5
8759F
100
AcDbEntity
  8
0
100
AcDbCircle
 10
2.896
 20
-0.97
 30
0.387
 40
0.1015
100
AcDbArc
 50
0.0
 51
179.999985
  0
CIRCLE
  5
875A0
100
AcDbEntity
  8
0
100
AcDbCircle
 10
3.276
 20
-0.97
 30
0.387
 40
0.1
  0
ARC
  5
875A1
100
AcDbEntity
  8
0
100
AcDbCircle
 10
2.896
 20
-1.313
 30
0.577
 40
0.234
100
AcDbArc
 50
115.70649
 51
64.293579
  0
LINE
  5
875A2
100
AcDbEntity
  8
0
100
AcDbLine
 10
2.026
 20
-0.97
 30
0.577
 11
2.516
 21
-0.97
 31
0.577
  0
LINE
  5
875A3
100
AcDbEntity
  8
0
100
AcDbLine
 10
1.926
 20
-0.69
 30
0.577
 11
2.026
 21
-0.97
 31
0.577
  0
LINE
  5
875A4
100
AcDbEntity
  8
0
100
AcDbLine
 10
2.9975
 20
-0.97
 30
0.577
 11
2.9975
 21
-1.102159
 31
0.577
  0
LINE
  5
875A5
100
AcDbEntity
  8
0
100
AcDbLine
 10
2.7945
 20
-0.97
 30
0.577
 11
2.7945
 21
-1.102159
 31
0.577
  0
LINE
  5
875A6
100
AcDbEntity
  8
0
100
AcDbLine
 10
2.516
 20
-0.97
 30
0.577
 11
2.616
 21
-0.69
 31
0.577
  0
ARC
  5
875A7
100
AcDbEntity
  8
0
100
AcDbCircle
 10
2.896
 20
-0.97
 30
0.577
 40
0.1015
100
AcDbArc
 50
0.0
 51
179.999985
  0
CIRCLE
  5
875A8
100
AcDbEntity
  8
0
100
AcDbCircle
 10
3.276
 20
-0.97
 30
0.577
 40
0.1
  0
POLYLINE
  5
875A9
100
AcDbEntity
  8
0
100
AcDbPolygonMesh
 66
     1
 10
0.0
 20
0.0
 30
0.0
 70
    16
 71
     6
 72
     3
  0
VERTEX
  5
875AA
100
AcDbEntity
  8
0
100
AcDbVertex
100
AcDbPolygonMeshVertex
 10
3.336
 20
-1.34
 30
4.857
 70
    64
  0
VERTEX
  5
875AB
100
AcDbEntity
  8
0
100
AcDbVertex
100
AcDbPolygonMeshVertex
 10
3.336
 20
-1.34
 30
4.477
 70
    64
  0
VERTEX
  5
875AC
100
AcDbEntity
  8
0
100
AcDbVertex
100
AcDbPolygonMeshVertex
 10
3.336
 20
-1.34
 30
4.477
 70
    64
  0
VERTEX
  5
875AD
100
AcDbEntity
  8
0
100
AcDbVertex
100
AcDbPolygonMeshVertex
 10
3.516
 20
-1.34
 30
4.857
 70
    64
  0
VERTEX
  5
875AE
100
AcDbEntity
  8
0
100
AcDbVertex
100
AcDbPolygonMeshVertex
 10
3.516
 20
-1.34
 30
4.477
 70
    64
  0
VERTEX
  5
875AF
100
AcDbEntity
  8
0
100
AcDbVertex
100
AcDbPolygonMeshVertex
 10
3.516
 20
-1.34
 30
4.477
 70
    64
  0
VERTEX
  5
875B0
100
AcDbEntity
  8
0
100
AcDbVertex
100
AcDbPolygonMeshVertex
 10
3.516
 20
-2.15
 30
4.857
 70
    64
  0
VERTEX
  5
875B1
100
AcDbEntity
  8
0
100
AcDbVertex
100
AcDbPolygonMeshVertex
 10
3.516
 20
-2.15
 30
4.477
 70
    64
  0
VERTEX
  5
875B2
100
AcDbEntity
  8
0
100
AcDbVertex
100
AcDbPolygonMeshVertex
 10
3.516
 20
-1.34
 30
4.477
 70
    64
  0
VERTEX
  5
875B3
100
AcDbEntity
  8
0
100
AcDbVertex
100
AcDbPolygonMeshVertex
 10
3.336
 20
-2.15
 30
4.857
 70
    64
  0
VERTEX
  5
875B4
100
AcDbEntity
  8
0
100
AcDbVertex
100
AcDbPolygonMeshVertex
 10
3.336
 20
-2.15
 30
4.477
 70
    64
  0
VERTEX
  5
875B5
100
AcDbEntity
  8
0
100
AcDbVertex
100
AcDbPolygonMeshVertex
 10
3.336
 20
-1.34
 30
4.477
 70
    64
  0
VERTEX
  5
875B6
100
AcDbEntity
  8
0
100
AcDbVertex
100
AcDbPolygonMeshVertex
 10
3.336
 20
-2.15
 30
4.857
 70
    64
  0
VERTEX
  5
875B7
100
AcDbEntity
  8
0
100
AcDbVertex
100
AcDbPolygonMeshVertex
 10
3.336
 20
-2.15
 30
4.857
 70
    64
  0
VERTEX
  5
875B8
100
AcDbEntity
  8
0
100
AcDbVertex
100
AcDbPolygonMeshVertex
 10
3.336
 20
-1.34
 30
4.857
 70
    64
  0
VERTEX
  5
875B9
100
AcDbEntity
  8
0
100
AcDbVertex
100
AcDbPolygonMeshVertex
 10
3.516
 20
-2.15
 30
4.857
 70
    64
  0
VERTEX
  5
875BA
100
AcDbEntity
  8
0
100
AcDbVertex
100
AcDbPolygonMeshVertex
 10
3.516
 20
-2.15
 30
4.857
 70
    64
  0
VERTEX
  5
875BB
100
AcDbEntity
  8
0
100
AcDbVertex
100
AcDbPolygonMeshVertex
 10
3.516
 20
-1.34
 30
4.857
 70
    64
  0
SEQEND
  5
875BC
100
AcDbEntity
  8
0
  0
POLYLINE
  5
875BD
100
AcDbEntity
  8
0
100
AcDbPolygonMesh
 66
     1
 10
0.0
 20
0.0
 30
0.0
 70
    16
 71
     6
 72
     3
  0
VERTEX
  5
875BE
100
AcDbEntity
  8
0
100
AcDbVertex
100
AcDbPolygonMeshVertex
 10
2.276
 20
-1.34
 30
4.857
 70
    64
  0
VERTEX
  5
875BF
100
AcDbEntity
  8
0
100
AcDbVertex
100
AcDbPolygonMeshVertex
 10
2.276
 20
-1.34
 30
4.477
 70
    64
  0
VERTEX
  5
875C0
100
AcDbEntity
  8
0
100
AcDbVertex
100
AcDbPolygonMeshVertex
 10
2.276
 20
-1.34
 30
4.477
 70
    64
  0
VERTEX
  5
875C1
100
AcDbEntity
  8
0
100
AcDbVertex
100
AcDbPolygonMeshVertex
 10
2.456
 20
-1.34
 30
4.857
 70
    64
  0
VERTEX
  5
875C2
100
AcDbEntity
  8
0
100
AcDbVertex
100
AcDbPolygonMeshVertex
 10
2.456
 20
-1.34
 30
4.477
 70
    64
  0
VERTEX
  5
875C3
100
AcDbEntity
  8
0
100
AcDbVertex
100
AcDbPolygonMeshVertex
 10
2.456
 20
-1.34
 30
4.477
 70
    64
  0
VERTEX
  5
875C4
100
AcDbEntity
  8
0
100
AcDbVertex
100
AcDbPolygonMeshVertex
 10
2.456
 20
-2.15
 30
4.857
 70
    64
  0
VERTEX
  5
875C5
100
AcDbEntity
  8
0
100
AcDbVertex
100
AcDbPolygonMeshVertex
 10
2.456
 20
-2.15
 30
4.477
 70
    64
  0
VERTEX
  5
875C6
100
AcDbEntity
  8
0
100
AcDbVertex
100
AcDbPolygonMeshVertex
 10
2.456
 20
-1.34
 30
4.477
 70
    64
  0
VERTEX
  5
875C7
100
AcDbEntity
  8
0
100
AcDbVertex
100
AcDbPolygonMeshVertex
 10
2.276
 20
-2.15
 30
4.857
 70
    64
  0
VERTEX
  5
875C8
100
AcDbEntity
  8
0
100
AcDbVertex
100
AcDbPolygonMeshVertex
 10
2.276
 20
-2.15
 30
4.477
 70
    64
  0
VERTEX
  5
875C9
100
AcDbEntity
  8
0
100
AcDbVertex
100
AcDbPolygonMeshVertex
 10
2.276
 20
-1.34
 30
4.477
 70
    64
  0
VERTEX
  5
875CA
100
AcDbEntity
  8
0
100
AcDbVertex
100
AcDbPolygonMeshVertex
 10
2.276
 20
-2.15
 30
4.857
 70
    64
  0
VERTEX
  5
875CB
100
AcDbEntity
  8
0
100
AcDbVertex
100
AcDbPolygonMeshVertex
 10
2.276
 20
-2.15
 30
4.857
 70
    64
  0
VERTEX
  5
875CC
100
AcDbEntity
  8
0
100
AcDbVertex
100
AcDbPolygonMeshVertex
 10
2.276
 20
-1.34
 30
4.857
 70
    64
  0
VERTEX
  5
875CD
100
AcDbEntity
  8
0
100
AcDbVertex
100
AcDbPolygonMeshVertex
 10
2.456
 20
-2.15
 30
4.857
 70
    64
  0
VERTEX
  5
875CE
100
AcDbEntity
  8
0
100
AcDbVertex
100
AcDbPolygonMeshVertex
 10
2.456
 20
-2.15
 30
4.857
 70
    64
  0
VERTEX
  5
875CF
100
AcDbEntity
  8
0
100
AcDbVertex
100
AcDbPolygonMeshVertex
 10
2.456
 20
-1.34
 30
4.857
 70
    64
  0
SEQEND
  5
875D0
100
AcDbEntity
  8
0
  0
POLYLINE
  5
875D1
100
AcDbEntity
  8
0
100
AcDbPolygonMesh
 66
     1
 10
0.0
 20
0.0
 30
0.0
 70
    16
 71
     6
 72
     3
  0
VERTEX
  5
875D2
100
AcDbEntity
  8
0
100
AcDbVertex
100
AcDbPolygonMeshVertex
 10
3.836
 20
-4.44
 30
4.387
 70
    64
  0
VERTEX
  5
875D3
100
AcDbEntity
  8
0
100
AcDbVertex
100
AcDbPolygonMeshVertex
 10
3.836
 20
-4.44
 30
4.017
 70
    64
  0
VERTEX
  5
875D4
100
AcDbEntity
  8
0
100
AcDbVertex
100
AcDbPolygonMeshVertex
 10
3.836
 20
-4.44
 30
4.017
 70
    64
  0
VERTEX
  5
875D5
100
AcDbEntity
  8
0
100
AcDbVertex
100
AcDbPolygonMeshVertex
 10
1.956
 20
-4.44
 30
4.387
 70
    64
  0
VERTEX
  5
875D6
100
AcDbEntity
  8
0
100
AcDbVertex
100
AcDbPolygonMeshVertex
 10
1.956
 20
-4.44
 30
4.017
 70
    64
  0
VERTEX
  5
875D7
100
AcDbEntity
  8
0
100
AcDbVertex
100
AcDbPolygonMeshVertex
 10
1.956
 20
-4.44
 30
4.017
 70
    64
  0
VERTEX
  5
875D8
100
AcDbEntity
  8
0
100
AcDbVertex
100
AcDbPolygonMeshVertex
 10
1.956
 20
-3.6
 30
4.387
 70
    64
  0
VERTEX
  5
875D9
100
AcDbEntity
  8
0
100
AcDbVertex
100
AcDbPolygonMeshVertex
 10
1.956
 20
-3.6
 30
4.017
 70
    64
  0
VERTEX
  5
875DA
100
AcDbEntity
  8
0
100
AcDbVertex
100
AcDbPolygonMeshVertex
 10
1.956
 20
-4.44
 30
4.017
 70
    64
  0
VERTEX
  5
875DB
100
AcDbEntity
  8
0
100
AcDbVertex
100
AcDbPolygonMeshVertex
 10
3.836
 20
-3.6
 30
4.387
 70
    64
  0
VERTEX
  5
875DC
100
AcDbEntity
  8
0
100
AcDbVertex
100
AcDbPolygonMeshVertex
 10
3.836
 20
-3.6
 30
4.017
 70
    64
  0
VERTEX
  5
875DD
100
AcDbEntity
  8
0
100
AcDbVertex
100
AcDbPolygonMeshVertex
 10
3.836
 20
-4.44
 30
4.017
 70
    64
  0
VERTEX
  5
875DE
100
AcDbEntity
  8
0
100
AcDbVertex
100
AcDbPolygonMeshVertex
 10
3.836
 20
-3.6
 30
4.387
 70
    64
  0
VERTEX
  5
875DF
100
AcDbEntity
  8
0
100
AcDbVertex
100
AcDbPolygonMeshVertex
 10
3.836
 20
-3.6
 30
4.387
 70
    64
  0
VERTEX
  5
875E0
100
AcDbEntity
  8
0
100
AcDbVertex
100
AcDbPolygonMeshVertex
 10
3.836
 20
-4.44
 30
4.387
 70
    64
  0
VERTEX
  5
875E1
100
AcDbEntity
  8
0
100
AcDbVertex
100
AcDbPolygonMeshVertex
 10
1.956
 20
-3.6
 30
4.387
 70
    64
  0
VERTEX
  5
875E2
100
AcDbEntity
  8
0
100
AcDbVertex
100
AcDbPolygonMeshVertex
 10
1.956
 20
-3.6
 30
4.387
 70
    64
  0
VERTEX
  5
875E3
100
AcDbEntity
  8
0
100
AcDbVertex
100
AcDbPolygonMeshVertex
 10
1.956
 20
-4.44
 30
4.387
 70
    64
  0
SEQEND
  5
875E4
100
AcDbEntity
  8
0
  0
CIRCLE
  5
875E5
100
AcDbEntity
  8
0
100
AcDbCircle
 10
2.366
 20
-3.91
 30
4.857
 40
0.095
  0
LINE
  5
875E6
100
AcDbEntity
  8
0
100
AcDbLine
 10
2.300485
 20
-3.841205
 30
4.857
 11
2.415101
 21
-3.991327
 31
4.857
  0
LINE
  5
875E7
100
AcDbEntity
  8
0
100
AcDbLine
 10
2.316674
 20
-3.825015
 30
4.857
 11
2.43129
 21
-3.975138
 31
4.857
  0
POLYLINE
  5
875E8
100
AcDbEntity
  8
0
100
AcDbPolygonMesh
 66
     1
 10
0.0
 20
0.0
 30
0.0
 70
    16
 71
     6
 72
     3
  0
VERTEX
  5
875E9
100
AcDbEntity
  8
0
100
AcDbVertex
100
AcDbPolygonMeshVertex
 10
2.586
 20
-4.04
 30
4.857
 70
    64
  0
VERTEX
  5
875EA
100
AcDbEntity
  8
0
100
AcDbVertex
100
AcDbPolygonMeshVertex
 10
2.586
 20
-4.04
 30
4.387
 70
    64
  0
VERTEX
  5
875EB
100
AcDbEntity
  8
0
100
AcDbVertex
100
AcDbPolygonMeshVertex
 10
2.586
 20
-4.04
 30
4.387
 70
    64
  0
VERTEX
  5
875EC
100
AcDbEntity
  8
0
100
AcDbVertex
100
AcDbPolygonMeshVertex
 10
2.146
 20
-4.04
 30
4.857
 70
    64
  0
VERTEX
  5
875ED
100
AcDbEntity
  8
0
100
AcDbVertex
100
AcDbPolygonMeshVertex
 10
2.146
 20
-4.04
 30
4.387
 70
    64
  0
VERTEX
  5
875EE
100
AcDbEntity
  8
0
100
AcDbVertex
100
AcDbPolygonMeshVertex
 10
2.146
 20
-4.04
 30
4.387
 70
    64
  0
VERTEX
  5
875EF
100
AcDbEntity
  8
0
100
AcDbVertex
100
AcDbPolygonMeshVertex
 10
2.146
 20
-3.66
 30
4.857
 70
    64
  0
VERTEX
  5
875F0
100
AcDbEntity
  8
0
100
AcDbVertex
100
AcDbPolygonMeshVertex
 10
2.146
 20
-3.66
 30
4.387
 70
    64
  0
VERTEX
  5
875F1
100
AcDbEntity
  8
0
100
AcDbVertex
100
AcDbPolygonMeshVertex
 10
2.146
 20
-4.04
 30
4.387
 70
    64
  0
VERTEX
  5
875F2
100
AcDbEntity
  8
0
100
AcDbVertex
100
AcDbPolygonMeshVertex
 10
2.586
 20
-3.66
 30
4.857
 70
    64
  0
VERTEX
  5
875F3
100
AcDbEntity
  8
0
100
AcDbVertex
100
AcDbPolygonMeshVertex
 10
2.586
 20
-3.66
 30
4.387
 70
    64
  0
VERTEX
  5
875F4
100
AcDbEntity
  8
0
100
AcDbVertex
100
AcDbPolygonMeshVertex
 10
2.586
 20
-4.04
 30
4.387
 70
    64
  0
VERTEX
  5
875F5
100
AcDbEntity
  8
0
100
AcDbVertex
100
AcDbPolygonMeshVertex
 10
2.586
 20
-3.66
 30
4.857
 70
    64
  0
VERTEX
  5
875F6
100
AcDbEntity
  8
0
100
AcDbVertex
100
AcDbPolygonMeshVertex
 10
2.586
 20
-3.66
 30
4.857
 70
    64
  0
VERTEX
  5
875F7
100
AcDbEntity
  8
0
100
AcDbVertex
100
AcDbPolygonMeshVertex
 10
2.586
 20
-4.04
 30
4.857
 70
    64
  0
VERTEX
  5
875F8
100
AcDbEntity
  8
0
100
AcDbVertex
100
AcDbPolygonMeshVertex
 10
2.146
 20
-3.66
 30
4.857
 70
    64
  0
VERTEX
  5
875F9
100
AcDbEntity
  8
0
100
AcDbVertex
100
AcDbPolygonMeshVertex
 10
2.146
 20
-3.66
 30
4.857
 70
    64
  0
VERTEX
  5
875FA
100
AcDbEntity
  8
0
100
AcDbVertex
100
AcDbPolygonMeshVertex
 10
2.146
 20
-4.04
 30
4.857
 70
    64
  0
SEQEND
  5
875FB
100
AcDbEntity
  8
0
  0
CIRCLE
  5
875FC
100
AcDbEntity
  8
0
100
AcDbCircle
 10
3.426
 20
-3.91
 30
4.857
 40
0.095
  0
LINE
  5
875FD
100
AcDbEntity
  8
0
100
AcDbLine
 10
3.360485
 20
-3.841205
 30
4.857
 11
3.4751
 21
-3.991327
 31
4.857
  0
LINE
  5
875FE
100
AcDbEntity
  8
0
100
AcDbLine
 10
3.376674
 20
-3.825015
 30
4.857
 11
3.49129
 21
-3.975138
 31
4.857
  0
POLYLINE
  5
875FF
100
AcDbEntity
  8
0
100
AcDbPolygonMesh
 66
     1
 10
0.0
 20
0.0
 30
0.0
 70
    16
 71
     6
 72
     3
  0
VERTEX
  5
87600
100
AcDbEntity
  8
0
100
AcDbVertex
100
AcDbPolygonMeshVertex
 10
3.646
 20
-4.04
 30
4.857
 70
    64
  0
VERTEX
  5
87601
100
AcDbEntity
  8
0
100
AcDbVertex
100
AcDbPolygonMeshVertex
 10
3.646
 20
-4.04
 30
4.387
 70
    64
  0
VERTEX
  5
87602
100
AcDbEntity
  8
0
100
AcDbVertex
100
AcDbPolygonMeshVertex
 10
3.646
 20
-4.04
 30
4.387
 70
    64
  0
VERTEX
  5
87603
100
AcDbEntity
  8
0
100
AcDbVertex
100
AcDbPolygonMeshVertex
 10
3.206
 20
-4.04
 30
4.857
 70
    64
  0
VERTEX
  5
87604
100
AcDbEntity
  8
0
100
AcDbVertex
100
AcDbPolygonMeshVertex
 10
3.206
 20
-4.04
 30
4.387
 70
    64
  0
VERTEX
  5
87605
100
AcDbEntity
  8
0
100
AcDbVertex
100
AcDbPolygonMeshVertex
 10
3.206
 20
-4.04
 30
4.387
 70
    64
  0
VERTEX
  5
87606
100
AcDbEntity
  8
0
100
AcDbVertex
100
AcDbPolygonMeshVertex
 10
3.206
 20
-3.66
 30
4.857
 70
    64
  0
VERTEX
  5
87607
100
AcDbEntity
  8
0
100
AcDbVertex
100
AcDbPolygonMeshVertex
 10
3.206
 20
-3.66
 30
4.387
 70
    64
  0
VERTEX
  5
87608
100
AcDbEntity
  8
0
100
AcDbVertex
100
AcDbPolygonMeshVertex
 10
3.206
 20
-4.04
 30
4.387
 70
    64
  0
VERTEX
  5
87609
100
AcDbEntity
  8
0
100
AcDbVertex
100
AcDbPolygonMeshVertex
 10
3.646
 20
-3.66
 30
4.857
 70
    64
  0
VERTEX
  5
8760A
100
AcDbEntity
  8
0
100
AcDbVertex
100
AcDbPolygonMeshVertex
 10
3.646
 20
-3.66
 30
4.387
 70
    64
  0
VERTEX
  5
8760B
100
AcDbEntity
  8
0
100
AcDbVertex
100
AcDbPolygonMeshVertex
 10
3.646
 20
-4.04
 30
4.387
 70
    64
  0
VERTEX
  5
8760C
100
AcDbEntity
  8
0
100
AcDbVertex
100
AcDbPolygonMeshVertex
 10
3.646
 20
-3.66
 30
4.857
 70
    64
  0
VERTEX
  5
8760D
100
AcDbEntity
  8
0
100
AcDbVertex
100
AcDbPolygonMeshVertex
 10
3.646
 20
-3.66
 30
4.857
 70
    64
  0
VERTEX
  5
8760E
100
AcDbEntity
  8
0
100
AcDbVertex
100
AcDbPolygonMeshVertex
 10
3.646
 20
-4.04
 30
4.857
 70
    64
  0
VERTEX
  5
8760F
100
AcDbEntity
  8
0
100
AcDbVertex
100
AcDbPolygonMeshVertex
 10
3.206
 20
-3.66
 30
4.857
 70
    64
  0
VERTEX
  5
87610
100
AcDbEntity
  8
0
100
AcDbVertex
100
AcDbPolygonMeshVertex
 10
3.206
 20
-3.66
 30
4.857
 70
    64
  0
VERTEX
  5
87611
100
AcDbEntity
  8
0
100
AcDbVertex
100
AcDbPolygonMeshVertex
 10
3.206
 20
-4.04
 30
4.857
 70
    64
  0
SEQEND
  5
87612
100
AcDbEntity
  8
0
  0
POLYLINE
  5
87613
100
AcDbEntity
  8
0
100
AcDbPolygonMesh
 66
     1
 10
0.0
 20
0.0
 30
0.0
 70
    16
 71
     6
 72
     3
  0
VERTEX
  5
87614
100
AcDbEntity
  8
0
100
AcDbVertex
100
AcDbPolygonMeshVertex
 10
3.336
 20
-1.34
 30
4.477
 70
    64
  0
VERTEX
  5
87615
100
AcDbEntity
  8
0
100
AcDbVertex
100
AcDbPolygonMeshVertex
 10
3.336
 20
-1.34
 30
3.357
 70
    64
  0
VERTEX
  5
87616
100
AcDbEntity
  8
0
100
AcDbVertex
100
AcDbPolygonMeshVertex
 10
3.336
 20
-1.34
 30
3.357
 70
    64
  0
VERTEX
  5
87617
100
AcDbEntity
  8
0
100
AcDbVertex
100
AcDbPolygonMeshVertex
 10
3.516
 20
-1.34
 30
4.477
 70
    64
  0
VERTEX
  5
87618
100
AcDbEntity
  8
0
100
AcDbVertex
100
AcDbPolygonMeshVertex
 10
3.516
 20
-1.34
 30
3.357
 70
    64
  0
VERTEX
  5
87619
100
AcDbEntity
  8
0
100
AcDbVertex
100
AcDbPolygonMeshVertex
 10
3.516
 20
-1.34
 30
3.357
 70
    64
  0
VERTEX
  5
8761A
100
AcDbEntity
  8
0
100
AcDbVertex
100
AcDbPolygonMeshVertex
 10
3.516
 20
-1.47
 30
4.477
 70
    64
  0
VERTEX
  5
8761B
100
AcDbEntity
  8
0
100
AcDbVertex
100
AcDbPolygonMeshVertex
 10
3.516
 20
-1.47
 30
3.357
 70
    64
  0
VERTEX
  5
8761C
100
AcDbEntity
  8
0
100
AcDbVertex
100
AcDbPolygonMeshVertex
 10
3.516
 20
-1.34
 30
3.357
 70
    64
  0
VERTEX
  5
8761D
100
AcDbEntity
  8
0
100
AcDbVertex
100
AcDbPolygonMeshVertex
 10
3.336
 20
-1.47
 30
4.477
 70
    64
  0
VERTEX
  5
8761E
100
AcDbEntity
  8
0
100
AcDbVertex
100
AcDbPolygonMeshVertex
 10
3.336
 20
-1.47
 30
3.357
 70
    64
  0
VERTEX
  5
8761F
100
AcDbEntity
  8
0
100
AcDbVertex
100
AcDbPolygonMeshVertex
 10
3.336
 20
-1.34
 30
3.357
 70
    64
  0
VERTEX
  5
87620
100
AcDbEntity
  8
0
100
AcDbVertex
100
AcDbPolygonMeshVertex
 10
3.336
 20
-1.47
 30
4.477
 70
    64
  0
VERTEX
  5
87621
100
AcDbEntity
  8
0
100
AcDbVertex
100
AcDbPolygonMeshVertex
 10
3.336
 20
-1.47
 30
4.477
 70
    64
  0
VERTEX
  5
87622
100
AcDbEntity
  8
0
100
AcDbVertex
100
AcDbPolygonMeshVertex
 10
3.336
 20
-1.34
 30
4.477
 70
    64
  0
VERTEX
  5
87623
100
AcDbEntity
  8
0
100
AcDbVertex
100
AcDbPolygonMeshVertex
 10
3.516
 20
-1.47
 30
4.477
 70
    64
  0
VERTEX
  5
87624
100
AcDbEntity
  8
0
100
AcDbVertex
100
AcDbPolygonMeshVertex
 10
3.516
 20
-1.47
 30
4.477
 70
    64
  0
VERTEX
  5
87625
100
AcDbEntity
  8
0
100
AcDbVertex
100
AcDbPolygonMeshVertex
 10
3.516
 20
-1.34
 30
4.477
 70
    64
  0
SEQEND
  5
87626
100
AcDbEntity
  8
0
  0
POLYLINE
  5
87627
100
AcDbEntity
  8
0
100
AcDbPolygonMesh
 66
     1
 10
0.0
 20
0.0
 30
0.0
 70
    16
 71
     6
 72
     3
  0
VERTEX
  5
87628
100
AcDbEntity
  8
0
100
AcDbVertex
100
AcDbPolygonMeshVertex
 10
2.276
 20
-1.34
 30
4.477
 70
    64
  0
VERTEX
  5
87629
100
AcDbEntity
  8
0
100
AcDbVertex
100
AcDbPolygonMeshVertex
 10
2.276
 20
-1.34
 30
3.357
 70
    64
  0
VERTEX
  5
8762A
100
AcDbEntity
  8
0
100
AcDbVertex
100
AcDbPolygonMeshVertex
 10
2.276
 20
-1.34
 30
3.357
 70
    64
  0
VERTEX
  5
8762B
100
AcDbEntity
  8
0
100
AcDbVertex
100
AcDbPolygonMeshVertex
 10
2.456
 20
-1.34
 30
4.477
 70
    64
  0
VERTEX
  5
8762C
100
AcDbEntity
  8
0
100
AcDbVertex
100
AcDbPolygonMeshVertex
 10
2.456
 20
-1.34
 30
3.357
 70
    64
  0
VERTEX
  5
8762D
100
AcDbEntity
  8
0
100
AcDbVertex
100
AcDbPolygonMeshVertex
 10
2.456
 20
-1.34
 30
3.357
 70
    64
  0
VERTEX
  5
8762E
100
AcDbEntity
  8
0
100
AcDbVertex
100
AcDbPolygonMeshVertex
 10
2.456
 20
-1.47
 30
4.477
 70
    64
  0
VERTEX
  5
8762F
100
AcDbEntity
  8
0
100
AcDbVertex
100
AcDbPolygonMeshVertex
 10
2.456
 20
-1.47
 30
3.357
 70
    64
  0
VERTEX
  5
87630
100
AcDbEntity
  8
0
100
AcDbVertex
100
AcDbPolygonMeshVertex
 10
2.456
 20
-1.34
 30
3.357
 70
    64
  0
VERTEX
  5
87631
100
AcDbEntity
  8
0
100
AcDbVertex
100
AcDbPolygonMeshVertex
 10
2.276
 20
-1.47
 30
4.477
 70
    64
  0
VERTEX
  5
87632
100
AcDbEntity
  8
0
100
AcDbVertex
100
AcDbPolygonMeshVertex
 10
2.276
 20
-1.47
 30
3.357
 70
    64
  0
VERTEX
  5
87633
100
AcDbEntity
  8
0
100
AcDbVertex
100
AcDbPolygonMeshVertex
 10
2.276
 20
-1.34
 30
3.357
 70
    64
  0
VERTEX
  5
87634
100
AcDbEntity
  8
0
100
AcDbVertex
100
AcDbPolygonMeshVertex
 10
2.276
 20
-1.47
 30
4.477
 70
    64
  0
VERTEX
  5
87635
100
AcDbEntity
  8
0
100
AcDbVertex
100
AcDbPolygonMeshVertex
 10
2.276
 20
-1.47
 30
4.477
 70
    64
  0
VERTEX
  5
87636
100
AcDbEntity
  8
0
100
AcDbVertex
100
AcDbPolygonMeshVertex
 10
2.276
 20
-1.34
 30
4.477
 70
    64
  0
VERTEX
  5
87637
100
AcDbEntity
  8
0
100
AcDbVertex
100
AcDbPolygonMeshVertex
 10
2.456
 20
-1.47
 30
4.477
 70
    64
  0
VERTEX
  5
87638
100
AcDbEntity
  8
0
100
AcDbVertex
100
AcDbPolygonMeshVertex
 10
2.456
 20
-1.47
 30
4.477
 70
    64
  0
VERTEX
  5
87639
100
AcDbEntity
  8
0
100
AcDbVertex
100
AcDbPolygonMeshVertex
 10
2.456
 20
-1.34
 30
4.477
 70
    64
  0
SEQEND
  5
8763A
100
AcDbEntity
  8
0
  0
CIRCLE
  5
8763B
100
AcDbEntity
  8
0
100
AcDbCircle
 10
2.896
 20
-1.765
 30
4.667
 40
0.19
  0
POLYLINE
  5
8763C
100
AcDbEntity
  8
0
100
AcDbPolygonMesh
 66
     1
 10
0.0
 20
0.0
 30
0.0
 70
    16
 71
     6
 72
     3
  0
VERTEX
  5
8763D
100
AcDbEntity
  8
0
100
AcDbVertex
100
AcDbPolygonMeshVertex
 10
2.646
 20
-1.56
 30
4.667
 70
    64
  0
VERTEX
  5
8763E
100
AcDbEntity
  8
0
100
AcDbVertex
100
AcDbPolygonMeshVertex
 10
2.646
 20
-1.56
 30
4.477
 70
    64
  0
VERTEX
  5
8763F
100
AcDbEntity
  8
0
100
AcDbVertex
100
AcDbPolygonMeshVertex
 10
2.646
 20
-1.56
 30
4.477
 70
    64
  0
VERTEX
  5
87640
100
AcDbEntity
  8
0
100
AcDbVertex
100
AcDbPolygonMeshVertex
 10
3.146
 20
-1.56
 30
4.667
 70
    64
  0
VERTEX
  5
87641
100
AcDbEntity
  8
0
100
AcDbVertex
100
AcDbPolygonMeshVertex
 10
3.146
 20
-1.56
 30
4.477
 70
    64
  0
VERTEX
  5
87642
100
AcDbEntity
  8
0
100
AcDbVertex
100
AcDbPolygonMeshVertex
 10
3.146
 20
-1.56
 30
4.477
 70
    64
  0
VERTEX
  5
87643
100
AcDbEntity
  8
0
100
AcDbVertex
100
AcDbPolygonMeshVertex
 10
3.146
 20
-1.97
 30
4.667
 70
    64
  0
VERTEX
  5
87644
100
AcDbEntity
  8
0
100
AcDbVertex
100
AcDbPolygonMeshVertex
 10
3.146
 20
-1.97
 30
4.477
 70
    64
  0
VERTEX
  5
87645
100
AcDbEntity
  8
0
100
AcDbVertex
100
AcDbPolygonMeshVertex
 10
3.146
 20
-1.56
 30
4.477
 70
    64
  0
VERTEX
  5
87646
100
AcDbEntity
  8
0
100
AcDbVertex
100
AcDbPolygonMeshVertex
 10
2.646
 20
-1.97
 30
4.667
 70
    64
  0
VERTEX
  5
87647
100
AcDbEntity
  8
0
100
AcDbVertex
100
AcDbPolygonMeshVertex
 10
2.646
 20
-1.97
 30
4.477
 70
    64
  0
VERTEX
  5
87648
100
AcDbEntity
  8
0
100
AcDbVertex
100
AcDbPolygonMeshVertex
 10
2.646
 20
-1.56
 30
4.477
 70
    64
  0
VERTEX
  5
87649
100
AcDbEntity
  8
0
100
AcDbVertex
100
AcDbPolygonMeshVertex
 10
2.646
 20
-1.97
 30
4.667
 70
    64
  0
VERTEX
  5
8764A
100
AcDbEntity
  8
0
100
AcDbVertex
100
AcDbPolygonMeshVertex
 10
2.646
 20
-1.97
 30
4.667
 70
    64
  0
VERTEX
  5
8764B
100
AcDbEntity
  8
0
100
AcDbVertex
100
AcDbPolygonMeshVertex
 10
2.646
 20
-1.56
 30
4.667
 70
    64
  0
VERTEX
  5
8764C
100
AcDbEntity
  8
0
100
AcDbVertex
100
AcDbPolygonMeshVertex
 10
3.146
 20
-1.97
 30
4.667
 70
    64
  0
VERTEX
  5
8764D
100
AcDbEntity
  8
0
100
AcDbVertex
100
AcDbPolygonMeshVertex
 10
3.146
 20
-1.97
 30
4.667
 70
    64
  0
VERTEX
  5
8764E
100
AcDbEntity
  8
0
100
AcDbVertex
100
AcDbPolygonMeshVertex
 10
3.146
 20
-1.56
 30
4.667
 70
    64
  0
SEQEND
  5
8764F
100
AcDbEntity
  8
0
  0
TEXT
  5
87650
100
AcDbEntity
  8
0
100
AcDbText
 10
2.801011
 20
-1.823148
 30
4.667
 40
0.12
  1
T2
100
AcDbText
  0
LINE
  5
87651
100
AcDbEntity
  8
0
100
AcDbLine
 10
3.516
 20
-1.34
 30
4.477
 11
3.336
 21
-1.34
 31
4.477
  0
LINE
  5
87652
100
AcDbEntity
  8
0
100
AcDbLine
 10
3.516
 20
-1.47
 30
4.477
 11
3.516
 21
-1.34
 31
4.477
  0
POLYLINE
  5
87653
100
AcDbEntity
  8
0
100
AcDbPolygonMesh
 66
     1
 10
0.0
 20
0.0
 30
0.0
 70
    16
 71
     6
 72
     3
  0
VERTEX
  5
87654
100
AcDbEntity
  8
0
100
AcDbVertex
100
AcDbPolygonMeshVertex
 10
3.706
 20
-1.56
 30
4.667
 70
    64
  0
VERTEX
  5
87655
100
AcDbEntity
  8
0
100
AcDbVertex
100
AcDbPolygonMeshVertex
 10
3.706
 20
-1.56
 30
4.477
 70
    64
  0
VERTEX
  5
87656
100
AcDbEntity
  8
0
100
AcDbVertex
100
AcDbPolygonMeshVertex
 10
3.706
 20
-1.56
 30
4.477
 70
    64
  0
VERTEX
  5
87657
100
AcDbEntity
  8
0
100
AcDbVertex
100
AcDbPolygonMeshVertex
 10
4.206
 20
-1.56
 30
4.667
 70
    64
  0
VERTEX
  5
87658
100
AcDbEntity
  8
0
100
AcDbVertex
100
AcDbPolygonMeshVertex
 10
4.206
 20
-1.56
 30
4.477
 70
    64
  0
VERTEX
  5
87659
100
AcDbEntity
  8
0
100
AcDbVertex
100
AcDbPolygonMeshVertex
 10
4.206
 20
-1.56
 30
4.477
 70
    64
  0
VERTEX
  5
8765A
100
AcDbEntity
  8
0
100
AcDbVertex
100
AcDbPolygonMeshVertex
 10
4.206
 20
-1.97
 30
4.667
 70
    64
  0
VERTEX
  5
8765B
100
AcDbEntity
  8
0
100
AcDbVertex
100
AcDbPolygonMeshVertex
 10
4.206
 20
-1.97
 30
4.477
 70
    64
  0
VERTEX
  5
8765C
100
AcDbEntity
  8
0
100
AcDbVertex
100
AcDbPolygonMeshVertex
 10
4.206
 20
-1.56
 30
4.477
 70
    64
  0
VERTEX
  5
8765D
100
AcDbEntity
  8
0
100
AcDbVertex
100
AcDbPolygonMeshVertex
 10
3.706
 20
-1.97
 30
4.667
 70
    64
  0
VERTEX
  5
8765E
100
AcDbEntity
  8
0
100
AcDbVertex
100
AcDbPolygonMeshVertex
 10
3.706
 20
-1.97
 30
4.477
 70
    64
  0
VERTEX
  5
8765F
100
AcDbEntity
  8
0
100
AcDbVertex
100
AcDbPolygonMeshVertex
 10
3.706
 20
-1.56
 30
4.477
 70
    64
  0
VERTEX
  5
87660
100
AcDbEntity
  8
0
100
AcDbVertex
100
AcDbPolygonMeshVertex
 10
3.706
 20
-1.97
 30
4.667
 70
    64
  0
VERTEX
  5
87661
100
AcDbEntity
  8
0
100
AcDbVertex
100
AcDbPolygonMeshVertex
 10
3.706
 20
-1.97
 30
4.667
 70
    64
  0
VERTEX
  5
87662
100
AcDbEntity
  8
0
100
AcDbVertex
100
AcDbPolygonMeshVertex
 10
3.706
 20
-1.56
 30
4.667
 70
    64
  0
VERTEX
  5
87663
100
AcDbEntity
  8
0
100
AcDbVertex
100
AcDbPolygonMeshVertex
 10
4.206
 20
-1.97
 30
4.667
 70
    64
  0
VERTEX
  5
87664
100
AcDbEntity
  8
0
100
AcDbVertex
100
AcDbPolygonMeshVertex
 10
4.206
 20
-1.97
 30
4.667
 70
    64
  0
VERTEX
  5
87665
100
AcDbEntity
  8
0
100
AcDbVertex
100
AcDbPolygonMeshVertex
 10
4.206
 20
-1.56
 30
4.667
 70
    64
  0
SEQEND
  5
87666
100
AcDbEntity
  8
0
  0
TEXT
  5
87667
100
AcDbEntity
  8
0
100
AcDbText
 10
3.866965
 20
-1.830461
 30
4.667
 40
0.12
  1
T3
100
AcDbText
  0
CIRCLE
  5
87668
100
AcDbEntity
  8
0
100
AcDbCircle
 10
3.956
 20
-1.765
 30
4.667
 40
0.19
  0
CIRCLE
  5
87669
100
AcDbEntity
  8
0
100
AcDbCircle
 10
1.836
 20
-5.995
 30
2.197
 40
0.19
  0
LINE
  5
8766A
100
AcDbEntity
  8
0
100
AcDbLine
 10
1.586
 20
-5.79
 30
2.007
 11
2.086
 21
-5.79
 31
2.007
  0
LINE
  5
8766B
100
AcDbEntity
  8
0
100
AcDbLine
 10
2.086
 20
-6.2
 30
2.007
 11
1.586
 21
-6.2
 31
2.007
  0
LINE
  5
8766C
100
AcDbEntity
  8
0
100
AcDbLine
 10
2.086
 20
-6.2
 30
2.197
 11
1.586
 21
-6.2
 31
2.197
  0
3DFACE
  5
8766D
100
AcDbEntity
  8
0
100
AcDbFace
 10
2.086
 20
-6.2
 30
2.197
 11
2.086
 21
-6.2
 31
2.007
 12
1.586
 22
-6.2
 32
2.007
 13
1.586
 23
-6.2
 33
2.197
  0
3DFACE
  5
8766E
100
AcDbEntity
  8
0
100
AcDbFace
 10
2.086
 20
-5.79
 30
2.197
 11
1.586
 21
-5.79
 31
2.197
 12
1.586
 22
-6.2
 32
2.197
 13
2.086
 23
-6.2
 33
2.197
  0
LINE
  5
8766F
100
AcDbEntity
  8
0
100
AcDbLine
 10
1.586
 20
-6.2
 30
2.197
 11
1.586
 21
-5.79
 31
2.197
  0
LINE
  5
87670
100
AcDbEntity
  8
0
100
AcDbLine
 10
1.586
 20
-6.2
 30
2.007
 11
1.586
 21
-5.79
 31
2.007
  0
3DFACE
  5
87671
100
AcDbEntity
  8
0
100
AcDbFace
 10
1.586
 20
-5.79
 30
2.197
 11
1.586
 21
-6.2
 31
2.197
 12
1.586
 22
-6.2
 32
2.007
 13
1.586
 23
-5.79
 33
2.007
  0
3DFACE
  5
87672
100
AcDbEntity
  8
0
100
AcDbFace
 10
1.586
 20
-6.2
 30
2.197
 11
1.586
 21
-5.79
 31
2.197
 12
1.586
 22
-5.79
 32
2.007
 13
1.586
 23
-6.2
 33
2.007
 70
    14
  0
LINE
  5
87673
100
AcDbEntity
  8
0
100
AcDbLine
 10
1.586
 20
-6.2
 30
2.007
 11
1.586
 21
-6.2
 31
2.197
  0
CIRCLE
  5
87674
100
AcDbEntity
  8
0
100
AcDbCircle
 10
2.896
 20
-5.995
 30
2.197
 40
0.19
  0
LINE
  5
87675
100
AcDbEntity
  8
0
100
AcDbLine
 10
2.646
 20
-5.79
 30
2.197
 11
3.146
 21
-5.79
 31
2.197
  0
LINE
  5
87676
100
AcDbEntity
  8
0
100
AcDbLine
 10
3.146
 20
-6.2
 30
2.197
 11
2.646
 21
-6.2
 31
2.197
  0
3DFACE
  5
87677
100
AcDbEntity
  8
0
100
AcDbFace
 10
2.646
 20
-6.2
 30
2.197
 11
2.646
 21
-5.79
 31
2.197
 12
3.146
 22
-5.79
 32
2.197
 13
3.146
 23
-6.2
 33
2.197
  0
LINE
  5
87678
100
AcDbEntity
  8
0
100
AcDbLine
 10
3.146
 20
-6.2
 30
2.007
 11
2.646
 21
-6.2
 31
2.007
  0
LINE
  5
87679
100
AcDbEntity
  8
0
100
AcDbLine
 10
2.646
 20
-5.79
 30
2.007
 11
3.146
 21
-5.79
 31
2.007
  0
3DFACE
  5
8767A
100
AcDbEntity
  8
0
100
AcDbFace
 10
2.646
 20
-6.2
 30
2.197
 11
3.146
 21
-6.2
 31
2.197
 12
3.146
 22
-6.2
 32
2.007
 13
2.646
 23
-6.2
 33
2.007
  0
3DFACE
  5
8767B
100
AcDbEntity
  8
0
100
AcDbFace
 10
2.086
 20
-6.2
 30
2.197
 11
2.086
 21
-5.79
 31
2.197
 12
2.086
 22
-5.79
 32
2.007
 13
2.086
 23
-6.2
 33
2.007
  0
LINE
  5
8767C
100
AcDbEntity
  8
0
100
AcDbLine
 10
2.646
 20
-6.2
 30
2.197
 11
2.646
 21
-5.79
 31
2.197
  0
LINE
  5
8767D
100
AcDbEntity
  8
0
100
AcDbLine
 10
2.646
 20
-6.2
 30
2.007
 11
2.646
 21
-5.79
 31
2.007
  0
3DFACE
  5
8767E
100
AcDbEntity
  8
0
100
AcDbFace
 10
2.646
 20
-5.79
 30
2.197
 11
2.646
 21
-6.2
 31
2.197
 12
2.646
 22
-6.2
 32
2.007
 13
2.646
 23
-5.79
 33
2.007
  0
LINE
  5
8767F
100
AcDbEntity
  8
0
100
AcDbLine
 10
2.646
 20
-6.2
 30
2.007
 11
2.646
 21
-6.2
 31
2.197
  0
LINE
  5
87680
100
AcDbEntity
  8
0
100
AcDbLine
 10
2.646
 20
-6.2
 30
2.007
 11
2.646
 21
-6.2
 31
2.197
  0
LINE
  5
87681
100
AcDbEntity
  8
0
100
AcDbLine
 10
2.646
 20
-5.79
 30
2.007
 11
2.646
 21
-5.79
 31
2.197
  0
LINE
  5
87682
100
AcDbEntity
  8
0
100
AcDbLine
 10
2.646
 20
-5.79
 30
2.007
 11
2.646
 21
-5.79
 31
2.197
  0
LINE
  5
87683
100
AcDbEntity
  8
0
100
AcDbLine
 10
3.146
 20
-5.79
 30
2.197
 11
3.146
 21
-6.2
 31
2.197
  0
LINE
  5
87684
100
AcDbEntity
  8
0
100
AcDbLine
 10
3.146
 20
-5.79
 30
2.007
 11
3.146
 21
-6.2
 31
2.007
  0
LINE
  5
87685
100
AcDbEntity
  8
0
100
AcDbLine
 10
3.146
 20
-6.2
 30
2.007
 11
3.146
 21
-6.2
 31
2.197
  0
LINE
  5
87686
100
AcDbEntity
  8
0
100
AcDbLine
 10
3.146
 20
-5.79
 30
2.007
 11
3.146
 21
-5.79
 31
2.197
  0
CIRCLE
  5
87687
100
AcDbEntity
  8
0
100
AcDbCircle
 10
3.956
 20
-5.995
 30
2.197
 40
0.19
  0
LINE
  5
87688
100
AcDbEntity
  8
0
100
AcDbLine
 10
3.706
 20
-5.79
 30
2.197
 11
4.206
 21
-5.79
 31
2.197
  0
LINE
  5
87689
100
AcDbEntity
  8
0
100
AcDbLine
 10
4.206
 20
-6.2
 30
2.197
 11
3.706
 21
-6.2
 31
2.197
  0
3DFACE
  5
8768A
100
AcDbEntity
  8
0
100
AcDbFace
 10
3.706
 20
-6.2
 30
2.197
 11
4.206
 21
-6.2
 31
2.197
 12
4.206
 22
-5.79
 32
2.197
 13
3.706
 23
-5.79
 33
2.197
  0
LINE
  5
8768B
100
AcDbEntity
  8
0
100
AcDbLine
 10
3.706
 20
-5.79
 30
2.007
 11
4.206
 21
-5.79
 31
2.007
  0
LINE
  5
8768C
100
AcDbEntity
  8
0
100
AcDbLine
 10
4.206
 20
-6.2
 30
2.007
 11
3.706
 21
-6.2
 31
2.007
  0
3DFACE
  5
8768D
100
AcDbEntity
  8
0
100
AcDbFace
 10
4.206
 20
-6.2
 30
2.197
 11
3.706
 21
-6.2
 31
2.197
 12
3.706
 22
-6.2
 32
2.007
 13
4.206
 23
-6.2
 33
2.007
  0
LINE
  5
8768E
100
AcDbEntity
  8
0
100
AcDbLine
 10
3.706
 20
-6.2
 30
2.197
 11
3.706
 21
-5.79
 31
2.197
  0
LINE
  5
8768F
100
AcDbEntity
  8
0
100
AcDbLine
 10
3.706
 20
-6.2
 30
2.007
 11
3.706
 21
-5.79
 31
2.007
  0
3DFACE
  5
87690
100
AcDbEntity
  8
0
100
AcDbFace
 10
3.706
 20
-5.79
 30
2.197
 11
3.706
 21
-6.2
 31
2.197
 12
3.706
 22
-6.2
 32
2.007
 13
3.706
 23
-5.79
 33
2.007
  0
LINE
  5
87691
100
AcDbEntity
  8
0
100
AcDbLine
 10
3.706
 20
-6.2
 30
2.007
 11
3.706
 21
-6.2
 31
2.197
  0
LINE
  5
87692
100
AcDbEntity
  8
0
100
AcDbLine
 10
3.706
 20
-5.79
 30
2.007
 11
3.706
 21
-5.79
 31
2.197
  0
LINE
  5
87693
100
AcDbEntity
  8
0
100
AcDbLine
 10
4.206
 20
-5.79
 30
2.197
 11
4.206
 21
-6.2
 31
2.197
  0
LINE
  5
87694
100
AcDbEntity
  8
0
100
AcDbLine
 10
4.206
 20
-5.79
 30
2.007
 11
4.206
 21
-6.2
 31
2.007
  0
3DFACE
  5
87695
100
AcDbEntity
  8
0
100
AcDbFace
 10
4.206
 20
-5.79
 30
2.197
 11
4.206
 21
-6.2
 31
2.197
 12
4.206
 22
-6.2
 32
2.007
 13
4.206
 23
-5.79
 33
2.007
  0
LINE
  5
87696
100
AcDbEntity
  8
0
100
AcDbLine
 10
4.206
 20
-6.2
 30
2.007
 11
4.206
 21
-6.2
 31
2.197
  0
LINE
  5
87697
100
AcDbEntity
  8
0
100
AcDbLine
 10
4.206
 20
-5.79
 30
2.007
 11
4.206
 21
-5.79
 31
2.197
  0
TEXT
  5
8769E
100
AcDbEntity
  8
0
100
AcDbText
 10
1.748767
 20
-6.057877
 30
2.197
 40
0.12
  1
T1
100
AcDbText
  0
TEXT
  5
8769F
100
AcDbEntity
  8
0
100
AcDbText
 10
2.801638
 20
-6.063892
 30
2.197
 40
0.12
  1
T2
100
AcDbText
  0
TEXT
  5
876A0
100
AcDbEntity
  8
0
100
AcDbText
 10
3.864214
 20
-6.050509
 30
2.197
 40
0.12
  1
T3
100
AcDbText
  0
ATTDEF
  5
876A1
100
AcDbEntity
  8
ATTRIBUTES
100
AcDbText
 10
-2.985207
 20
-3.942896
 30
0.0
 40
0.161935
  1
ALLEN-BRADLEY
100
AcDbAttributeDefinition
  3
MANUFACTURER NAME?
  2
AC_VND_LABEL
 70
     1
  0
ATTDEF
  5
876A2
100
AcDbEntity
  8
ATTRIBUTES
100
AcDbText
 10
-2.985207
 20
-4.28026
 30
0.0
 40
0.161935
  1
505-A
100
AcDbAttributeDefinition
  3
CATALOG NUMBER?
  2
AC_PART_NO
 70
     1
  0
ATTDEF
  5
876A3
100
AcDbEntity
  8
ATTRIBUTES
100
AcDbText
 10
-2.985207
 20
-4.617624
 30
0.0
 40
0.161935
  1
REVERSING STARTER w/o OL; SIZE 0 & 1
100
AcDbAttributeDefinition
  3
PART DESCRIPTION?
  2
AC_DESCRIPTION
 70
     1
  0
ATTDEF
  5
876A4
100
AcDbEntity
  8
ATTRIBUTES
100
AcDbText
 10
-2.985207
 20
-4.954988
 30
0.0
 40
0.161935
  1

100
AcDbAttributeDefinition
  3
DEVICE ID?
  2
DEVICE_ID
 70
     1
  0
ATTDEF
  5
876A5
100
AcDbEntity
  8
ATTRIBUTES
100
AcDbText
 10
-2.985207
 20
-5.292352
 30
0.0
 40
0.161935
  1

100
AcDbAttributeDefinition
  3
CUSTOMER PART NUMBER?
  2
AC_CPART_NO
 70
     1
  0
ATTDEF
  5
876A6
100
AcDbEntity
  8
ATTRIBUTES
100
AcDbText
 10
-2.985207
 20
-5.629716
 30
0.0
 40
0.161935
  1

100
AcDbAttributeDefinition
  3
CUSTOMER NOTE?
  2
AC_NOTE
 70
     1
  0
ATTDEF
  5
876A7
100
AcDbEntity
  8
ATTRIBUTES
100
AcDbText
 10
-2.985207
 20
-5.96708
 30
0.0
 40
0.161935
  1

100
AcDbAttributeDefinition
  3
FASTENER DATA?
  2
FASTENER
 70
     1
  0
ATTDEF
  5
876A8
100
AcDbEntity
  8
ATTRIBUTES
100
AcDbText
 10
-2.985207
 20
-6.304444
 30
0.0
 40
0.161935
  1
INCH
100
AcDbAttributeDefinition
  3
UNIT OF SCALE?
  2
AC_SCALE_UNIT
 70
     1
  0
ATTDEF
  5
876A9
100
AcDbEntity
  8
ATTRIBUTES
100
AcDbText
 10
-2.985207
 20
-6.641808
 30
0.0
 40
0.161935
  1
0
100
AcDbAttributeDefinition
  3
VIEW CODE?
  2
AC_VIEW_CODE
 70
     1
  0
POINT
  5
876AA
100
AcDbEntity
  8
DIMS-MTG-HOLES
100
AcDbPoint
 10
-2.753
 20
-7.09
 30
0.0
  0
POINT
  5
876AB
100
AcDbEntity
  8
DIMS-MTG-HOLES
100
AcDbPoint
 10
4.337
 20
-7.09
 30
0.0
  0
POINT
  5
876AC
100
AcDbEntity
  8
DIMS-MTG-HOLES
100
AcDbPoint
 10
0.0
 20
0.0
 30
0.0
  0
DIMENSION
  5
876AD
100
AcDbEntity
  8
AREA1
100
AcDbDimension
  2
*D0
 10
-4.223678
 20
-7.309
 30
0.0
 11
-4.223678
 21
-3.614514
 31
0.0
 70
   160
  3
ABECAD_3D
100
AcDbAlignedDimension
 13
-1.0
 23
0.281
 33
0.0
 14
-3.143
 24
-7.309
 34
0.0
 50
90.0
100
AcDbRotatedDimension
  0
DIMENSION
  5
876BB
100
AcDbEntity
  8
AREA1
100
AcDbDimension
  2
*D1
 10
4.727
 20
1.238893
 30
0.0
 11
0.748885
 21
1.238893
 31
0.0
 70
   160
  3
ABECAD_3D
100
AcDbAlignedDimension
 13
-3.143
 23
-0.629
 33
0.0
 14
4.727
 24
-0.629
 34
0.0
100
AcDbRotatedDimension
  0
LWPOLYLINE
  5
876D8
100
AcDbEntity
  8
SCALE
100
AcDbPolyline
 90
        4
 70
     1
 43
0.0
 10
0.288483
 20
-7.456039
 10
1.424112
 20
-7.456039
 10
1.424112
 20
-8.297649
 10
0.288483
 20
-8.297649
  0
LINE
  5
876D9
100
AcDbEntity
  8
SCALE
100
AcDbLine
 10
0.346481
 20
-7.836117
 30
0.0
 11
1.346481
 21
-7.836117
 31
0.0
  0
LINE
  5
876DA
100
AcDbEntity
  8
SCALE
100
AcDbLine
 10
0.346481
 20
-8.136117
 30
0.0
 11
0.740181
 21
-8.136117
 31
0.0
  0
LINE
  5
876DB
100
AcDbEntity
  8
SCALE
100
AcDbLine
 10
0.346481
 20
-7.936117
 30
0.0
 11
0.346481
 21
-7.736117
 31
0.0
  0
TEXT
  5
876DC
100
AcDbEntity
  8
SCALE
100
AcDbText
 10
0.402457
 20
-8.088432
 30
0.0
 40
0.0625
  1
[10mm]
100
AcDbText
  0
LINE
  5
876DD
100
AcDbEntity
  8
SCALE
100
AcDbLine
 10
0.346481
 20
-8.236117
 30
0.0
 11
0.346481
 21
-8.036117
 31
0.0
  0
TEXT
  5
876DE
100
AcDbEntity
  8
SCALE
100
AcDbText
 10
0.348012
 20
-7.56124
 30
0.0
 40
0.0625
  1
SCALE:
100
AcDbText
  0
LINE
  5
876DF
100
AcDbEntity
  8
SCALE
100
AcDbLine
 10
0.740181
 20
-8.236117
 30
0.0
 11
0.740181
 21
-8.036117
 31
0.0
  0
TEXT
  5
876E0
100
AcDbEntity
  8
SCALE
100
AcDbText
 10
0.709764
 20
-7.767069
 30
0.0
 40
0.0625
  1
1 Inch
100
AcDbText
  0
LINE
  5
876E1
100
AcDbEntity
  8
SCALE
100
AcDbLine
 10
1.346481
 20
-7.836117
 30
0.0
 11
1.346481
 21
-7.936117
 31
0.0
  0
LINE
  5
876E2
100
AcDbEntity
  8
SCALE
100
AcDbLine
 10
1.346481
 20
-7.936117
 30
0.0
 11
1.346481
 21
-7.736117
 31
0.0
  0
VIEWPORT
  5
5677D
102
{ACAD_XDICTIONARY
360
87746
102
}
100
AcDbEntity
 67
     1
  8
0
100
AcDbViewport
 10
5.25
 20
4.0
 30
0.0
 40
16.386862
 41
8.993
 68
    -1
 69
     1
1001
ACAD
1000
MVIEW
1002
{
1070
    16
1010
0.0
1020
0.0
1030
0.0
1010
0.0
1020
0.0
1030
1.0
1040
0.0
1040
8.993
1040
5.25
1040
4.0
1040
50.0
1040
0.0
1040
0.0
1070
     0
1070
 20000
1070
     1
1070
     1
1070
     0
1070
     0
1070
     0
1070
     0
1040
0.0
1040
0.0
1040
0.0
1040
0.5
1040
0.5
1040
0.5
1040
0.5
1070
     0
1002
{
1002
}
1002
}
  0
VIEWPORT
  5
5677F
102
{ACAD_XDICTIONARY
360
87748
102
}
100
AcDbEntity
 67
     1
  8
AREA1
100
AcDbViewport
 10
5.25
 20
4.0
 30
0.0
 40
8.4
 41
6.4
 68
     1
 69
     2
1001
ACAD
1000
MVIEW
1002
{
1070
    16
1010
0.563444
1020
-0.880137
1030
1.686493
1010
0.0
1020
0.0
1030
1.0
1040
0.0
1040
4.582914
1040
-1.017175
1040
0.747813
1040
50.0
1040
0.0
1040
0.0
1070
     0
1070
 20000
1070
     1
1070
     1
1070
     0
1070
     0
1070
     0
1070
     0
1040
0.0
1040
0.0
1040
0.0
1040
0.25
1040
0.25
1040
0.25
1040
0.25
1070
     0
1002
{
1002
}
1002
}
  0
ENDSEC
  0
SECTION
  2
OBJECTS
  0
DICTIONARY
  5
458CB
100
AcDbDictionary
  3
ACAD_GROUP
350
458CC
  3
ACAD_LAYOUT
350
458FB
  3
ACAD_MLINESTYLE
350
458D9
  3
ACAD_PLOTSETTINGS
350
458FC
  3
ACAD_PLOTSTYLENAME
350
458F9
  3
ACDBHEADERROUNDTRIPXREC
350
8771D
  3
ACDBVARIABLEDICTIONARY
350
458E1
  3
DWGPROPS
350
45901
  0
DICTIONARY
  5
8771B
100
AcDbDictionary
280
     1
  3
ACAD_XREC_ROUNDTRIP
360
8771C
  0
DICTIONARY
  5
87744
100
AcDbDictionary
280
     1
  3
ACAD_XREC_ROUNDTRIP
360
87745
  0
DICTIONARY
  5
87719
100
AcDbDictionary
280
     1
  3
ACAD_XREC_ROUNDTRIP
360
8771A
  0
DICTIONARY
  5
87740
100
AcDbDictionary
280
     1
  3
ACAD_XREC_ROUNDTRIP
360
87741
  0
DICTIONARY
  5
4592C
100
AcDbDictionary
280
     1
  3
ACAD_LAYOUTSELFREF
360
8773F
  0
DICTIONARY
  5
4592A
100
AcDbDictionary
280
     1
  3
ACAD_LAYOUTSELFREF
360
8773E
  0
DICTIONARY
  5
87746
100
AcDbDictionary
280
     1
  3
ACAD_XREC_ROUNDTRIP
360
87747
  0
DICTIONARY
  5
87748
100
AcDbDictionary
280
     1
  3
ACAD_XREC_ROUNDTRIP
360
87749
  0
DICTIONARY
  5
458CC
102
{ACAD_REACTORS
330
458CB
102
}
100
AcDbDictionary
  0
DICTIONARY
  5
458FB
102
{ACAD_XDICTIONARY
360
87742
102
}
102
{ACAD_REACTORS
330
458CB
102
}
100
AcDbDictionary
  3
LAYOUT1
350
458FE
  3
MODEL
350
458FD
  0
DICTIONARY
  5
458D9
102
{ACAD_REACTORS
330
458CB
102
}
100
AcDbDictionary
  3
STANDARD
350
458DA
  0
DICTIONARY
  5
458FC
102
{ACAD_REACTORS
330
458CB
102
}
100
AcDbDictionary
  0
ACAD_PROXY_OBJECT
  5
458F9
102
{ACAD_REACTORS
330
458CB
102
}
100
AcDbProxyObject
 90
      499
 91
      501
 93
       86
310
405010041939BDC9B585B1
350
458FA
340
458FA
 94
        0
  0
DICTIONARY
  5
8771D
102
{ACAD_REACTORS
330
458CB
102
}
100
AcDbDictionary
  3
CEPSNTYPE
350
87727
  3
DIMSTYLEDATA
350
8772B
  3
FINGERPRINTGUID
350
87728
  3
HYPERLINKBASE
350
87720
  3
INSUNITS
350
87726
  3
LAYOUTDICT
350
87722
  3
LWETCUNION
350
87725
  3
PLOTSETDICT
350
87723
  3
PLOTSTYLNAMDICT
350
87724
  3
PSVPSCALE
350
8772A
  3
PUCSBASE
350
8772E
  3
PUCSORGBACK
350
87734
  3
PUCSORGBOTTOM
350
87730
  3
PUCSORGFRONT
350
87733
  3
PUCSORGLEFT
350
87731
  3
PUCSORGRIGHT
350
87732
  3
PUCSORGTOP
350
8772F
  3
PUCSORTHOREF
350
8772C
  3
PUCSORTHOVIEW
350
8772D
  3
STYLESHEET
350
87721
  3
TSTACKALIGN
350
8771E
  3
TSTACKSIZE
350
8771F
  3
UCSBASE
350
87737
  3
UCSORGBACK
350
8773D
  3
UCSORGBOTTOM
350
87739
  3
UCSORGFRONT
350
8773C
  3
UCSORGLEFT
350
8773A
  3
UCSORGRIGHT
350
8773B
  3
UCSORGTOP
350
87738
  3
UCSORTHOREF
350
87735
  3
UCSORTHOVIEW
350
87736
  3
VERSIONGUID
350
87729
  0
DICTIONARY
  5
458E1
102
{ACAD_REACTORS
330
458CB
102
}
100
AcDbDictionary
  3
DIMADEC
350
458E2
  0
XRECORD
  5
45901
102
{ACAD_REACTORS
330
458CB
102
}
100
AcDbXrecord
  1
DWGPROPS COOKIE
  2

  3

  4

  6

  7

  8
colin
  9

300
=
301
=
302
=
303
=
304
=
305
=
306
=
307
=
308
=
309
=
 40
0.000599
 41
2451670.444777
 42
2451670.445376
  1

 90
        0
  0
XRECORD
  5
8771C
102
{ACAD_REACTORS
330
8771B
102
}
100
AcDbXrecord
102
EXTNAMES
  1
*ACTIVE
  2
*Active
102
UCS
 74
     0
 71
     1
 10
0.0
 20
0.0
 30
0.0
 10
1.0
 20
0.0
 30
0.0
 10
0.0
 20
1.0
 30
0.0
146
0.0
 79
     1
102
VIEW
281
     1
  0
XRECORD
  5
87745
102
{ACAD_REACTORS
330
87744
102
}
100
AcDbXrecord
102
PLOTBIT
280
     0
  0
XRECORD
  5
8771A
102
{ACAD_REACTORS
330
87719
102
}
100
AcDbXrecord
102
EXTNAMES
  1
DEFPOINTS
  2
Defpoints
102
PLOTBIT
280
     0
  0
XRECORD
  5
87741
102
{ACAD_REACTORS
330
87740
102
}
100
AcDbXrecord
102
ACADR14ROUNDTRIP
1000
DSTYLE
1002
{
1070
   276
 70
     2
1070
   277
 70
     5
1070
   279
 70
     2
1070
   289
 70
     2
1002
}
  0
XRECORD
  5
8773F
102
{ACAD_REACTORS
330
4592C
102
}
100
AcDbXrecord
340
458D6
  0
XRECORD
  5
8773E
102
{ACAD_REACTORS
330
4592A
102
}
100
AcDbXrecord
340
458D3
  0
XRECORD
  5
87747
102
{ACAD_REACTORS
330
87746
102
}
100
AcDbXrecord
102
UCS
 74
     0
 71
     1
 10
0.0
 20
0.0
 30
0.0
 10
1.0
 20
0.0
 30
0.0
 10
0.0
 20
1.0
 30
0.0
146
0.0
 79
     0
102
VIEW
281
     0
102
NEWVIEWCONTROL
280
     4
  0
XRECORD
  5
87749
102
{ACAD_REACTORS
330
87748
102
}
100
AcDbXrecord
102
UCS
 74
     0
 71
     1
 10
0.0
 20
0.0
 30
0.0
 10
1.0
 20
0.0
 30
0.0
 10
0.0
 20
1.0
 30
0.0
146
0.0
 79
     1
102
VIEW
281
     1
102
NEWVIEWCONTROL
280
     4
  0
DICTIONARY
  5
87742
100
AcDbDictionary
280
     1
  3
ACAD_XREC_ROUNDTRIP
360
87743
  0
ACAD_PROXY_OBJECT
  5
458FE
102
{ACAD_REACTORS
330
458FB
102
}
100
AcDbProxyObject
 90
      499
 91
      503
 93
     1700
310
90B6E6F6E655F6465766963652C0080000006066661940000000181999865000000000068661940000000001A1986500000000C0CCFC6A4000000018199D9C5011C4C65747465725F28382E35305F785F31312E30305F496E6368657329A901416AA547D11959985D5B1D08148C4D081C195B88185CDCDA59DB9B595B9D1CC
310
B98DD1891069074C61796F75743140501A840201008040342FEFF7FBFDFFFFF3EFDFAFF7FBFFDFC9501008043E3FDFC8102A6A6A0000003033333C0FC000000809999E93F8FFFFFF5766E622403FFFFFEBF333071020
330
458D3
330
5677D
340
0
340
0
 94
        0
  0
ACAD_PROXY_OBJECT
  5
458FD
102
{ACAD_REACTORS
330
458FB
102
}
100
AcDbProxyObject
 90
      499
 91
      503
 93
      924
310
91D4850204C617365724A65742035303030205365726965732050434C20362C01AAAAAAAAA547D11959985D5B1D08148C4D081C195B88185CDCDA59DB9B595B9D1CCB98DD18A69054D6F64656C901A800000000000000000000000000000000000000000000A1000000000000008902A6A6AAAA0
330
458D6
330
0
340
0
340
0
 94
        0
  0
MLINESTYLE
  5
458DA
102
{ACAD_REACTORS
330
458D9
102
}
100
AcDbMlineStyle
  2
STANDARD
 70
     0
  3

 62
   256
 51
90.0
 52
90.0
 71
     2
 49
0.5
 62
   256
  6
BYLAYER
 49
-0.5
 62
   256
  6
BYLAYER
  0
ACAD_PROXY_OBJECT
  5
458FA
102
{ACAD_REACTORS
330
458F9
102
}
100
AcDbProxyObject
 90
      499
 91
      502
 93
        0
 94
        0
  0
XRECORD
  5
87727
102
{ACAD_REACTORS
330
8771D
102
}
100
AcDbXrecord
 90
        0
  0
XRECORD
  5
8772B
102
{ACAD_REACTORS
330
8771D
102
}
100
AcDbXrecord
1000
DSTYLE
1002
{
1070
   276
 70
     2
1070
   277
 70
     5
1070
   279
 70
     2
1070
   289
 70
     2
1002
}
  0
XRECORD
  5
87728
102
{ACAD_REACTORS
330
8771D
102
}
100
AcDbXrecord
  1
{6E0CF4B8-225E-11D4-A150-00A0CC3303EC}
  0
XRECORD
  5
87720
102
{ACAD_REACTORS
330
8771D
102
}
100
AcDbXrecord
  1

  0
XRECORD
  5
87726
102
{ACAD_REACTORS
330
8771D
102
}
100
AcDbXrecord
 90
        0
  0
XRECORD
  5
87722
102
{ACAD_REACTORS
330
8771D
102
}
100
AcDbXrecord
340
458FB
  0
XRECORD
  5
87725
102
{ACAD_REACTORS
330
8771D
102
}
100
AcDbXrecord
 90
    14877
  0
XRECORD
  5
87723
102
{ACAD_REACTORS
330
8771D
102
}
100
AcDbXrecord
340
458FC
  0
XRECORD
  5
87724
102
{ACAD_REACTORS
330
8771D
102
}
100
AcDbXrecord
340
458F9
  0
XRECORD
  5
8772A
102
{ACAD_REACTORS
330
8771D
102
}
100
AcDbXrecord
 40
0.0
  0
XRECORD
  5
8772E
102
{ACAD_REACTORS
330
8771D
102
}
100
AcDbXrecord
340
0
  0
XRECORD
  5
87734
102
{ACAD_REACTORS
330
8771D
102
}
100
AcDbXrecord
 10
0.0
 20
0.0
 30
0.0
  0
XRECORD
  5
87730
102
{ACAD_REACTORS
330
8771D
102
}
100
AcDbXrecord
 10
0.0
 20
0.0
 30
0.0
  0
XRECORD
  5
87733
102
{ACAD_REACTORS
330
8771D
102
}
100
AcDbXrecord
 10
0.0
 20
0.0
 30
0.0
  0
XRECORD
  5
87731
102
{ACAD_REACTORS
330
8771D
102
}
100
AcDbXrecord
 10
0.0
 20
0.0
 30
0.0
  0
XRECORD
  5
87732
102
{ACAD_REACTORS
330
8771D
102
}
100
AcDbXrecord
 10
0.0
 20
0.0
 30
0.0
  0
XRECORD
  5
8772F
102
{ACAD_REACTORS
330
8771D
102
}
100
AcDbXrecord
 10
0.0
 20
0.0
 30
0.0
  0
XRECORD
  5
8772C
102
{ACAD_REACTORS
330
8771D
102
}
100
AcDbXrecord
340
0
  0
XRECORD
  5
8772D
102
{ACAD_REACTORS
330
8771D
102
}
100
AcDbXrecord
 70
     0
  0
XRECORD
  5
87721
102
{ACAD_REACTORS
330
8771D
102
}
100
AcDbXrecord
  1

  0
XRECORD
  5
8771E
102
{ACAD_REACTORS
330
8771D
102
}
100
AcDbXrecord
 90
        1
  0
XRECORD
  5
8771F
102
{ACAD_REACTORS
330
8771D
102
}
100
AcDbXrecord
 90
       70
  0
XRECORD
  5
87737
102
{ACAD_REACTORS
330
8771D
102
}
100
AcDbXrecord
340
0
  0
XRECORD
  5
8773D
102
{ACAD_REACTORS
330
8771D
102
}
100
AcDbXrecord
 10
0.0
 20
0.0
 30
0.0
  0
XRECORD
  5
87739
102
{ACAD_REACTORS
330
8771D
102
}
100
AcDbXrecord
 10
0.0
 20
0.0
 30
0.0
  0
XRECORD
  5
8773C
102
{ACAD_REACTORS
330
8771D
102
}
100
AcDbXrecord
 10
0.0
 20
0.0
 30
0.0
  0
XRECORD
  5
8773A
102
{ACAD_REACTORS
330
8771D
102
}
100
AcDbXrecord
 10
0.0
 20
0.0
 30
0.0
  0
XRECORD
  5
8773B
102
{ACAD_REACTORS
330
8771D
102
}
100
AcDbXrecord
 10
0.0
 20
0.0
 30
0.0
  0
XRECORD
  5
87738
102
{ACAD_REACTORS
330
8771D
102
}
100
AcDbXrecord
 10
0.0
 20
0.0
 30
0.0
  0
XRECORD
  5
87735
102
{ACAD_REACTORS
330
8771D
102
}
100
AcDbXrecord
340
0
  0
XRECORD
  5
87736
102
{ACAD_REACTORS
330
8771D
102
}
100
AcDbXrecord
 70
     1
  0
XRECORD
  5
87729
102
{ACAD_REACTORS
330
8771D
102
}
100
AcDbXrecord
  1
{05481CA5-3022-456D-A1FB-2C004C5DD90F}
  0
DICTIONARYVAR
  5
458E2
102
{ACAD_REACTORS
330
458E1
102
}
100
DictionaryVariables
280
     0
  1
0
  0
XRECORD
  5
87743
102
{ACAD_REACTORS
330
87742
102
}
100
AcDbXrecord
102
EXTNAMES
  1
LAYOUT1
  2
Layout1
  1
MODEL
  2
Model
  0
ENDSEC
  0
EOF
