  0
SECTION
  2
HEADER
  9
$ACADVER
  1
AC1014
  9
$ACADMAINTVER
 70
     8
  9
$DWGCODEPAGE
  3
ANSI_1252
  9
$INSBASE
 10
0.0
 20
0.0
 30
0.0
  9
$EXTMIN
 10
-5.658652
 20
-11.127907
 30
0.0
  9
$EXTMAX
 10
4.325
 20
1.179036
 30
4.917
  9
$LIMMIN
 10
0.0
 20
0.0
  9
$LIMMAX
 10
12.0
 20
9.0
  9
$ORTHOMODE
 70
     0
  9
$REGENMODE
 70
     1
  9
$FILLMODE
 70
     1
  9
$QTEXTMODE
 70
     0
  9
$MIRRTEXT
 70
     1
  9
$DRAGMODE
 70
     2
  9
$LTSCALE
 40
1.0
  9
$OSMODE
 70
    37
  9
$ATTMODE
 70
     1
  9
$TEXTSIZE
 40
0.12
  9
$TRACEWID
 40
0.05
  9
$TEXTSTYLE
  7
STANDARD
  9
$CLAYER
  8
0
  9
$CELTYPE
  6
BYLAYER
  9
$CECOLOR
 62
   256
  9
$CELTSCALE
 40
1.0
  9
$DELOBJ
 70
     1
  9
$DISPSILH
 70
     0
  9
$DIMSCALE
 40
1.0
  9
$DIMASZ
 40
0.25
  9
$DIMEXO
 40
0.0625
  9
$DIMDLI
 40
0.375
  9
$DIMRND
 40
0.0
  9
$DIMDLE
 40
0.0
  9
$DIMEXE
 40
0.1
  9
$DIMTP
 40
0.0
  9
$DIMTM
 40
0.0
  9
$DIMTXT
 40
0.25
  9
$DIMCEN
 40
0.09
  9
$DIMTSZ
 40
0.0
  9
$DIMTOL
 70
     0
  9
$DIMLIM
 70
     0
  9
$DIMTIH
 70
     0
  9
$DIMTOH
 70
     1
  9
$DIMSE1
 70
     0
  9
$DIMSE2
 70
     0
  9
$DIMTAD
 70
     0
  9
$DIMZIN
 70
     4
  9
$DIMBLK
  1

  9
$DIMASO
 70
     1
  9
$DIMSHO
 70
     1
  9
$DIMPOST
  1

  9
$DIMAPOST
  1

  9
$DIMALT
 70
     1
  9
$DIMALTD
 70
     2
  9
$DIMALTF
 40
25.4
  9
$DIMLFAC
 40
1.0
  9
$DIMTOFL
 70
     0
  9
$DIMTVP
 40
0.0
  9
$DIMTIX
 70
     0
  9
$DIMSOXD
 70
     0
  9
$DIMSAH
 70
     0
  9
$DIMBLK1
  1

  9
$DIMBLK2
  1

  9
$DIMSTYLE
  2
ABECAD_3D
  9
$DIMCLRD
 70
     0
  9
$DIMCLRE
 70
     0
  9
$DIMCLRT
 70
     0
  9
$DIMTFAC
 40
1.5
  9
$DIMGAP
 40
0.09
  9
$DIMJUST
 70
     0
  9
$DIMSD1
 70
     0
  9
$DIMSD2
 70
     0
  9
$DIMTOLJ
 70
     1
  9
$DIMTZIN
 70
     4
  9
$DIMALTZ
 70
     4
  9
$DIMALTTZ
 70
     4
  9
$DIMFIT
 70
     5
  9
$DIMUPT
 70
     1
  9
$DIMUNIT
 70
     7
  9
$DIMDEC
 70
     6
  9
$DIMTDEC
 70
     6
  9
$DIMALTU
 70
     2
  9
$DIMALTTD
 70
     2
  9
$DIMTXSTY
  7
STANDARD
  9
$DIMAUNIT
 70
     0
  9
$LUNITS
 70
     2
  9
$LUPREC
 70
     4
  9
$SKETCHINC
 40
0.1
  9
$FILLETRAD
 40
0.0
  9
$AUNITS
 70
     0
  9
$AUPREC
 70
     0
  9
$MENU
  1
ACAD
  9
$ELEVATION
 40
0.0
  9
$PELEVATION
 40
0.0
  9
$THICKNESS
 40
0.0
  9
$LIMCHECK
 70
     0
  9
$BLIPMODE
 70
     0
  9
$CHAMFERA
 40
0.0
  9
$CHAMFERB
 40
0.0
  9
$CHAMFERC
 40
0.0
  9
$CHAMFERD
 40
0.0
  9
$SKPOLY
 70
     0
  9
$TDCREATE
 40
2451726.438389120
  9
$TDUPDATE
 40
2452010.490579282
  9
$TDINDWG
 40
0.9787100694
  9
$TDUSRTIMER
 40
0.9787100694
  9
$USRTIMER
 70
     1
  9
$ANGBASE
 50
0.0
  9
$ANGDIR
 70
     0
  9
$PDMODE
 70
     3
  9
$PDSIZE
 40
0.09
  9
$PLINEWID
 40
0.0
  9
$COORDS
 70
     1
  9
$SPLFRAME
 70
     1
  9
$SPLINETYPE
 70
     6
  9
$SPLINESEGS
 70
     8
  9
$ATTDIA
 70
     0
  9
$ATTREQ
 70
     1
  9
$HANDLING
 70
     1
  9
$HANDSEED
  5
7A0B4
  9
$SURFTAB1
 70
     6
  9
$SURFTAB2
 70
     6
  9
$SURFTYPE
 70
     6
  9
$SURFU
 70
     6
  9
$SURFV
 70
     6
  9
$UCSNAME
  2

  9
$UCSORG
 10
0.0
 20
0.0
 30
0.0
  9
$UCSXDIR
 10
1.0
 20
0.0
 30
0.0
  9
$UCSYDIR
 10
0.0
 20
1.0
 30
0.0
  9
$PUCSNAME
  2

  9
$PUCSORG
 10
0.0
 20
0.0
 30
0.0
  9
$PUCSXDIR
 10
1.0
 20
0.0
 30
0.0
  9
$PUCSYDIR
 10
0.0
 20
1.0
 30
0.0
  9
$USERI1
 70
     0
  9
$USERI2
 70
     0
  9
$USERI3
 70
     0
  9
$USERI4
 70
     0
  9
$USERI5
 70
     0
  9
$USERR1
 40
0.0
  9
$USERR2
 40
0.0
  9
$USERR3
 40
0.0
  9
$USERR4
 40
0.0
  9
$USERR5
 40
0.0
  9
$WORLDVIEW
 70
     1
  9
$SHADEDGE
 70
     3
  9
$SHADEDIF
 70
    70
  9
$TILEMODE
 70
     1
  9
$MAXACTVP
 70
    16
  9
$PINSBASE
 10
0.0
 20
0.0
 30
0.0
  9
$PLIMCHECK
 70
     0
  9
$PEXTMIN
 10
1.05
 20
0.8
 30
0.0
  9
$PEXTMAX
 10
9.45
 20
7.2
 30
0.0
  9
$PLIMMIN
 10
-0.25
 20
-0.25
  9
$PLIMMAX
 10
10.75
 20
8.25
  9
$UNITMODE
 70
     0
  9
$VISRETAIN
 70
     0
  9
$PLINEGEN
 70
     0
  9
$PSLTSCALE
 70
     1
  9
$TREEDEPTH
 70
  3020
  9
$PICKSTYLE
 70
     1
  9
$CMLSTYLE
  2
STANDARD
  9
$CMLJUST
 70
     0
  9
$CMLSCALE
 40
1.0
  9
$PROXYGRAPHICS
 70
     1
  9
$MEASUREMENT
 70
     0
  0
ENDSEC
  0
SECTION
  2
CLASSES
  0
CLASS
  1
DICTIONARYVAR
  2
AcDbDictionaryVar
  3
"AutoCAD"
 90
        0
280
     0
281
     0
  0
CLASS
  1
ACDBDICTIONARYWDFLT
  2
AcDbDictionaryWithDefault
  3
AutoCAD 2000
 90
        0
280
     0
281
     0
  0
CLASS
  1
ACDBPLACEHOLDER
  2
AcDbPlaceHolder
  3
AutoCAD 2000
 90
        0
280
     0
281
     0
  0
CLASS
  1
LAYOUT
  2
AcDbLayout
  3
AutoCAD 2000
 90
        0
280
     0
281
     0
  0
CLASS
  1
LONG_TRANSACTION
  2
AcDbLongTransaction
  3
AutoCAD 2000
 90
        0
280
     0
281
     0
  0
CLASS
  1
LWPOLYLINE
  2
AcDbPolyline
  3
"AutoCAD"
 90
        0
280
     0
281
     1
  0
CLASS
  1
HATCH
  2
AcDbHatch
  3
"ACAD_SEDONA"
 90
        0
280
     0
281
     1
  0
CLASS
  1
XRECORD
  2
AcDbXrecord
  3
"<Built In>"
 90
        0
280
     0
281
     0
  0
CLASS
  1
LONG_TRANSACTION
  2
AcDbLongTransaction
  3
AutoCAD 2000
 90
        0
280
     0
281
     0
  0
CLASS
  1
LWPOLYLINE
  2
AcDbPolyline
  3
"AutoCAD"
 90
        0
280
     0
281
     1
  0
CLASS
  1
HATCH
  2
AcDbHatch
  3
"ACAD_SEDONA"
 90
        0
280
     0
281
     1
  0
CLASS
  1
XRECORD
  2
AcDbXrecord
  3
"<Built In>"
 90
        0
280
     0
281
     0
  0
CLASS
  1
LONG_TRANSACTION
  2
AcDbLongTransaction
  3
AutoCAD 2000
 90
        0
280
     0
281
     0
  0
CLASS
  1
LWPOLYLINE
  2
AcDbPolyline
  3
"AutoCAD"
 90
        0
280
     0
281
     1
  0
CLASS
  1
HATCH
  2
AcDbHatch
  3
"ACAD_SEDONA"
 90
        0
280
     0
281
     1
  0
CLASS
  1
XRECORD
  2
AcDbXrecord
  3
"<Built In>"
 90
        0
280
     0
281
     0
  0
CLASS
  1
LONG_TRANSACTION
  2
AcDbLongTransaction
  3
AutoCAD 2000
 90
        0
280
     0
281
     0
  0
CLASS
  1
LWPOLYLINE
  2
AcDbPolyline
  3
"AutoCAD"
 90
        0
280
     0
281
     1
  0
CLASS
  1
HATCH
  2
AcDbHatch
  3
"ACAD_SEDONA"
 90
        0
280
     0
281
     1
  0
CLASS
  1
XRECORD
  2
AcDbXrecord
  3
"<Built In>"
 90
        0
280
     0
281
     0
  0
CLASS
  1
LONG_TRANSACTION
  2
AcDbLongTransaction
  3
AutoCAD 2000
 90
        0
280
     0
281
     0
  0
CLASS
  1
LWPOLYLINE
  2
AcDbPolyline
  3
"AutoCAD"
 90
        0
280
     0
281
     1
  0
CLASS
  1
HATCH
  2
AcDbHatch
  3
"ACAD_SEDONA"
 90
        0
280
     0
281
     1
  0
CLASS
  1
XRECORD
  2
AcDbXrecord
  3
"<Built In>"
 90
        0
280
     0
281
     0
  0
CLASS
  1
LONG_TRANSACTION
  2
AcDbLongTransaction
  3
AutoCAD 2000
 90
        0
280
     0
281
     0
  0
CLASS
  1
LWPOLYLINE
  2
AcDbPolyline
  3
"AutoCAD"
 90
        0
280
     0
281
     1
  0
CLASS
  1
HATCH
  2
AcDbHatch
  3
"ACAD_SEDONA"
 90
        0
280
     0
281
     1
  0
CLASS
  1
XRECORD
  2
AcDbXrecord
  3
"<Built In>"
 90
        0
280
     0
281
     0
  0
CLASS
  1
LONG_TRANSACTION
  2
AcDbLongTransaction
  3
AutoCAD 2000
 90
        0
280
     0
281
     0
  0
CLASS
  1
LWPOLYLINE
  2
AcDbPolyline
  3
"AutoCAD"
 90
        0
280
     0
281
     1
  0
CLASS
  1
HATCH
  2
AcDbHatch
  3
"ACAD_SEDONA"
 90
        0
280
     0
281
     1
  0
CLASS
  1
XRECORD
  2
AcDbXrecord
  3
"<Built In>"
 90
        0
280
     0
281
     0
  0
CLASS
  1
LONG_TRANSACTION
  2
AcDbLongTransaction
  3
AutoCAD 2000
 90
        0
280
     0
281
     0
  0
CLASS
  1
LWPOLYLINE
  2
AcDbPolyline
  3
"AutoCAD"
 90
        0
280
     0
281
     1
  0
CLASS
  1
HATCH
  2
AcDbHatch
  3
"ACAD_SEDONA"
 90
        0
280
     0
281
     1
  0
CLASS
  1
XRECORD
  2
AcDbXrecord
  3
"<Built In>"
 90
        0
280
     0
281
     0
  0
CLASS
  1
LONG_TRANSACTION
  2
AcDbLongTransaction
  3
AutoCAD 2000
 90
        0
280
     0
281
     0
  0
CLASS
  1
LWPOLYLINE
  2
AcDbPolyline
  3
"AutoCAD"
 90
        0
280
     0
281
     1
  0
CLASS
  1
HATCH
  2
AcDbHatch
  3
"ACAD_SEDONA"
 90
        0
280
     0
281
     1
  0
CLASS
  1
XRECORD
  2
AcDbXrecord
  3
"<Built In>"
 90
        0
280
     0
281
     0
  0
CLASS
  1
LONG_TRANSACTION
  2
AcDbLongTransaction
  3
AutoCAD 2000
 90
        0
280
     0
281
     0
  0
CLASS
  1
LWPOLYLINE
  2
AcDbPolyline
  3
"AutoCAD"
 90
        0
280
     0
281
     1
  0
CLASS
  1
HATCH
  2
AcDbHatch
  3
"ACAD_SEDONA"
 90
        0
280
     0
281
     1
  0
CLASS
  1
XRECORD
  2
AcDbXrecord
  3
"<Built In>"
 90
        0
280
     0
281
     0
  0
CLASS
  1
LONG_TRANSACTION
  2
AcDbLongTransaction
  3
AutoCAD 2000
 90
        0
280
     0
281
     0
  0
CLASS
  1
LWPOLYLINE
  2
AcDbPolyline
  3
"AutoCAD"
 90
        0
280
     0
281
     1
  0
CLASS
  1
HATCH
  2
AcDbHatch
  3
"ACAD_SEDONA"
 90
        0
280
     0
281
     1
  0
CLASS
  1
XRECORD
  2
AcDbXrecord
  3
"<Built In>"
 90
        0
280
     0
281
     0
  0
CLASS
  1
LONG_TRANSACTION
  2
AcDbLongTransaction
  3
AutoCAD 2000
 90
        0
280
     0
281
     0
  0
CLASS
  1
LWPOLYLINE
  2
AcDbPolyline
  3
"AutoCAD"
 90
        0
280
     0
281
     1
  0
CLASS
  1
HATCH
  2
AcDbHatch
  3
"ACAD_SEDONA"
 90
        0
280
     0
281
     1
  0
CLASS
  1
XRECORD
  2
AcDbXrecord
  3
"<Built In>"
 90
        0
280
     0
281
     0
  0
CLASS
  1
LONG_TRANSACTION
  2
AcDbLongTransaction
  3
AutoCAD 2000
 90
        0
280
     0
281
     0
  0
CLASS
  1
LWPOLYLINE
  2
AcDbPolyline
  3
"AutoCAD"
 90
        0
280
     0
281
     1
  0
CLASS
  1
HATCH
  2
AcDbHatch
  3
"ACAD_SEDONA"
 90
        0
280
     0
281
     1
  0
CLASS
  1
XRECORD
  2
AcDbXrecord
  3
"<Built In>"
 90
        0
280
     0
281
     0
  0
CLASS
  1
LONG_TRANSACTION
  2
AcDbLongTransaction
  3
AutoCAD 2000
 90
        0
280
     0
281
     0
  0
CLASS
  1
LWPOLYLINE
  2
AcDbPolyline
  3
"AutoCAD"
 90
        0
280
     0
281
     1
  0
CLASS
  1
HATCH
  2
AcDbHatch
  3
"ACAD_SEDONA"
 90
        0
280
     0
281
     1
  0
CLASS
  1
XRECORD
  2
AcDbXrecord
  3
"<Built In>"
 90
        0
280
     0
281
     0
  0
CLASS
  1
LONG_TRANSACTION
  2
AcDbLongTransaction
  3
AutoCAD 2000
 90
        0
280
     0
281
     0
  0
CLASS
  1
LWPOLYLINE
  2
AcDbPolyline
  3
"AutoCAD"
 90
        0
280
     0
281
     1
  0
CLASS
  1
HATCH
  2
AcDbHatch
  3
"ACAD_SEDONA"
 90
        0
280
     0
281
     1
  0
CLASS
  1
XRECORD
  2
AcDbXrecord
  3
"<Built In>"
 90
        0
280
     0
281
     0
  0
CLASS
  1
LONG_TRANSACTION
  2
AcDbLongTransaction
  3
AutoCAD 2000
 90
        0
280
     0
281
     0
  0
CLASS
  1
LWPOLYLINE
  2
AcDbPolyline
  3
"AutoCAD"
 90
        0
280
     0
281
     1
  0
CLASS
  1
HATCH
  2
AcDbHatch
  3
"ACAD_SEDONA"
 90
        0
280
     0
281
     1
  0
CLASS
  1
XRECORD
  2
AcDbXrecord
  3
"<Built In>"
 90
        0
280
     0
281
     0
  0
CLASS
  1
LONG_TRANSACTION
  2
AcDbLongTransaction
  3
AutoCAD 2000
 90
        0
280
     0
281
     0
  0
CLASS
  1
LWPOLYLINE
  2
AcDbPolyline
  3
"AutoCAD"
 90
        0
280
     0
281
     1
  0
CLASS
  1
HATCH
  2
AcDbHatch
  3
"ACAD_SEDONA"
 90
        0
280
     0
281
     1
  0
CLASS
  1
XRECORD
  2
AcDbXrecord
  3
"<Built In>"
 90
        0
280
     0
281
     0
  0
CLASS
  1
LONG_TRANSACTION
  2
AcDbLongTransaction
  3
AutoCAD 2000
 90
        0
280
     0
281
     0
  0
CLASS
  1
LWPOLYLINE
  2
AcDbPolyline
  3
"AutoCAD"
 90
        0
280
     0
281
     1
  0
CLASS
  1
HATCH
  2
AcDbHatch
  3
"ACAD_SEDONA"
 90
        0
280
     0
281
     1
  0
CLASS
  1
XRECORD
  2
AcDbXrecord
  3
"<Built In>"
 90
        0
280
     0
281
     0
  0
CLASS
  1
LONG_TRANSACTION
  2
AcDbLongTransaction
  3
AutoCAD 2000
 90
        0
280
     0
281
     0
  0
CLASS
  1
LWPOLYLINE
  2
AcDbPolyline
  3
"AutoCAD"
 90
        0
280
     0
281
     1
  0
CLASS
  1
HATCH
  2
AcDbHatch
  3
"ACAD_SEDONA"
 90
        0
280
     0
281
     1
  0
CLASS
  1
XRECORD
  2
AcDbXrecord
  3
"<Built In>"
 90
        0
280
     0
281
     0
  0
CLASS
  1
LONG_TRANSACTION
  2
AcDbLongTransaction
  3
AutoCAD 2000
 90
        0
280
     0
281
     0
  0
CLASS
  1
LWPOLYLINE
  2
AcDbPolyline
  3
"AutoCAD"
 90
        0
280
     0
281
     1
  0
CLASS
  1
HATCH
  2
AcDbHatch
  3
"ACAD_SEDONA"
 90
        0
280
     0
281
     1
  0
CLASS
  1
XRECORD
  2
AcDbXrecord
  3
"<Built In>"
 90
        0
280
     0
281
     0
  0
CLASS
  1
LONG_TRANSACTION
  2
AcDbLongTransaction
  3
AutoCAD 2000
 90
        0
280
     0
281
     0
  0
CLASS
  1
LWPOLYLINE
  2
AcDbPolyline
  3
"AutoCAD"
 90
        0
280
     0
281
     1
  0
CLASS
  1
HATCH
  2
AcDbHatch
  3
"ACAD_SEDONA"
 90
        0
280
     0
281
     1
  0
CLASS
  1
XRECORD
  2
AcDbXrecord
  3
"<Built In>"
 90
        0
280
     0
281
     0
  0
CLASS
  1
LONG_TRANSACTION
  2
AcDbLongTransaction
  3
AutoCAD 2000
 90
        0
280
     0
281
     0
  0
CLASS
  1
LWPOLYLINE
  2
AcDbPolyline
  3
"AutoCAD"
 90
        0
280
     0
281
     1
  0
CLASS
  1
HATCH
  2
AcDbHatch
  3
"ACAD_SEDONA"
 90
        0
280
     0
281
     1
  0
CLASS
  1
XRECORD
  2
AcDbXrecord
  3
"<Built In>"
 90
        0
280
     0
281
     0
  0
CLASS
  1
LONG_TRANSACTION
  2
AcDbLongTransaction
  3
AutoCAD 2000
 90
        0
280
     0
281
     0
  0
CLASS
  1
LWPOLYLINE
  2
AcDbPolyline
  3
"AutoCAD"
 90
        0
280
     0
281
     1
  0
CLASS
  1
HATCH
  2
AcDbHatch
  3
"ACAD_SEDONA"
 90
        0
280
     0
281
     1
  0
CLASS
  1
XRECORD
  2
AcDbXrecord
  3
"<Built In>"
 90
        0
280
     0
281
     0
  0
CLASS
  1
LONG_TRANSACTION
  2
AcDbLongTransaction
  3
AutoCAD 2000
 90
        0
280
     0
281
     0
  0
CLASS
  1
LWPOLYLINE
  2
AcDbPolyline
  3
"AutoCAD"
 90
        0
280
     0
281
     1
  0
CLASS
  1
HATCH
  2
AcDbHatch
  3
"ACAD_SEDONA"
 90
        0
280
     0
281
     1
  0
CLASS
  1
XRECORD
  2
AcDbXrecord
  3
"<Built In>"
 90
        0
280
     0
281
     0
  0
CLASS
  1
LONG_TRANSACTION
  2
AcDbLongTransaction
  3
AutoCAD 2000
 90
        0
280
     0
281
     0
  0
CLASS
  1
LWPOLYLINE
  2
AcDbPolyline
  3
"AutoCAD"
 90
        0
280
     0
281
     1
  0
CLASS
  1
HATCH
  2
AcDbHatch
  3
"ACAD_SEDONA"
 90
        0
280
     0
281
     1
  0
CLASS
  1
XRECORD
  2
AcDbXrecord
  3
"<Built In>"
 90
        0
280
     0
281
     0
  0
CLASS
  1
LONG_TRANSACTION
  2
AcDbLongTransaction
  3
AutoCAD 2000
 90
        0
280
     0
281
     0
  0
CLASS
  1
LWPOLYLINE
  2
AcDbPolyline
  3
"AutoCAD"
 90
        0
280
     0
281
     1
  0
CLASS
  1
HATCH
  2
AcDbHatch
  3
"ACAD_SEDONA"
 90
        0
280
     0
281
     1
  0
CLASS
  1
XRECORD
  2
AcDbXrecord
  3
"<Built In>"
 90
        0
280
     0
281
     0
  0
CLASS
  1
LONG_TRANSACTION
  2
AcDbLongTransaction
  3
AutoCAD 2000
 90
        0
280
     0
281
     0
  0
CLASS
  1
LWPOLYLINE
  2
AcDbPolyline
  3
"AutoCAD"
 90
        0
280
     0
281
     1
  0
CLASS
  1
HATCH
  2
AcDbHatch
  3
"ACAD_SEDONA"
 90
        0
280
     0
281
     1
  0
CLASS
  1
XRECORD
  2
AcDbXrecord
  3
"<Built In>"
 90
        0
280
     0
281
     0
  0
ENDSEC
  0
SECTION
  2
TABLES
  0
TABLE
  2
VPORT
  5
458C7
100
AcDbSymbolTable
 70
     1
  0
VPORT
  5
7A07F
102
{ACAD_XDICTIONARY
360
7A082
102
}
100
AcDbSymbolTableRecord
100
AcDbViewportTableRecord
  2
*ACTIVE
 70
     0
 10
0.0
 20
0.0
 11
1.0
 21
1.0
 12
-1.230406
 22
-4.094317
 13
0.0
 23
0.0
 14
0.25
 24
0.25
 15
0.25
 25
0.25
 16
0.0
 26
0.0
 36
1.0
 17
0.563444
 27
-0.880137
 37
1.686493
 40
12.514994
 41
1.960674
 42
50.0
 43
0.0
 44
0.0
 50
0.0
 51
0.0
 71
     0
 72
 20000
 73
     1
 74
     1
 75
     0
 76
     0
 77
     0
 78
     0
  0
ENDTAB
  0
TABLE
  2
LTYPE
  5
458C4
100
AcDbSymbolTable
 70
     1
  0
LTYPE
  5
458D0
100
AcDbSymbolTableRecord
100
AcDbLinetypeTableRecord
  2
BYBLOCK
 70
     0
  3

 72
    65
 73
     0
 40
0.0
  0
LTYPE
  5
458D1
100
AcDbSymbolTableRecord
100
AcDbLinetypeTableRecord
  2
BYLAYER
 70
     0
  3

 72
    65
 73
     0
 40
0.0
  0
LTYPE
  5
458D2
100
AcDbSymbolTableRecord
100
AcDbLinetypeTableRecord
  2
CONTINUOUS
 70
     0
  3
Solid line
 72
    65
 73
     0
 40
0.0
  0
ENDTAB
  0
TABLE
  2
LAYER
  5
458C1
100
AcDbSymbolTable
 70
     7
  0
LAYER
  5
458CD
100
AcDbSymbolTableRecord
100
AcDbLayerTableRecord
  2
0
 70
     0
 62
     7
  6
CONTINUOUS
  0
LAYER
  5
458EA
100
AcDbSymbolTableRecord
100
AcDbLayerTableRecord
  2
DIMS-MTG-HOLES
 70
     0
 62
     1
  6
CONTINUOUS
  0
LAYER
  5
458EB
100
AcDbSymbolTableRecord
100
AcDbLayerTableRecord
  2
ATTRIBUTES
 70
     0
 62
     7
  6
CONTINUOUS
  0
LAYER
  5
4593B
102
{ACAD_XDICTIONARY
360
7A0AB
102
}
100
AcDbSymbolTableRecord
100
AcDbLayerTableRecord
  2
AREA1
 70
     0
 62
    -7
  6
CONTINUOUS
  0
LAYER
  5
45940
102
{ACAD_XDICTIONARY
360
7A080
102
}
100
AcDbSymbolTableRecord
100
AcDbLayerTableRecord
  2
DEFPOINTS
 70
     0
 62
    -7
  6
CONTINUOUS
  0
LAYER
  5
45954
100
AcDbSymbolTableRecord
100
AcDbLayerTableRecord
  2
SCALE
 70
     0
 62
    -7
  6
CONTINUOUS
  0
LAYER
  5
4D59A
100
AcDbSymbolTableRecord
100
AcDbLayerTableRecord
  2
SNAP_POINTS
 70
     0
 62
    -1
  6
CONTINUOUS
  0
ENDTAB
  0
TABLE
  2
STYLE
  5
458C2
100
AcDbSymbolTable
 70
     1
  0
STYLE
  5
458CE
100
AcDbSymbolTableRecord
100
AcDbTextStyleTableRecord
  2
STANDARD
 70
     0
 40
0.0
 41
1.0
 50
0.0
 71
     0
 42
0.12
  3
txt
  4

  0
ENDTAB
  0
TABLE
  2
VIEW
  5
458C5
100
AcDbSymbolTable
 70
     0
  0
ENDTAB
  0
TABLE
  2
UCS
  5
458C6
100
AcDbSymbolTable
 70
     0
  0
ENDTAB
  0
TABLE
  2
APPID
  5
458C8
100
AcDbSymbolTable
 70
     2
  0
APPID
  5
458CF
100
AcDbSymbolTableRecord
100
AcDbRegAppTableRecord
  2
ACAD
 70
     0
  0
APPID
  5
5FD5B
100
AcDbSymbolTableRecord
100
AcDbRegAppTableRecord
  2
AVE_RENDER
 70
     0
  0
ENDTAB
  0
TABLE
  2
DIMSTYLE
  5
458C9
100
AcDbSymbolTable
 70
     1
  0
DIMSTYLE
105
458F6
102
{ACAD_XDICTIONARY
360
7A0A7
102
}
102
{ACAD_REACTORS
330
7A014
330
7A022
102
}
100
AcDbSymbolTableRecord
100
AcDbDimStyleTableRecord
  2
ABECAD_3D
 70
     0
  3

  4

  5

  6

  7

 40
1.0
 41
0.25
 42
0.0625
 43
0.375
 44
0.1
 45
0.0
 46
0.0
 47
0.0
 48
0.0
140
0.25
141
0.09
142
0.0
143
25.4
144
1.0
145
0.0
146
1.5
147
0.09
 71
     0
 72
     0
 73
     0
 74
     1
 75
     0
 76
     0
 77
     0
 78
     4
170
     1
171
     2
172
     0
173
     0
174
     0
175
     0
176
     0
177
     0
178
     0
270
     7
271
     6
272
     6
273
     2
274
     2
340
458CE
275
     0
280
     0
281
     0
282
     0
283
     1
284
     4
285
     4
286
     4
287
     5
288
     1
  0
ENDTAB
  0
TABLE
  2
BLOCK_RECORD
  5
458C0
100
AcDbSymbolTable
 70
     2
  0
BLOCK_RECORD
  5
458D6
102
{ACAD_XDICTIONARY
360
4592C
102
}
100
AcDbSymbolTableRecord
100
AcDbBlockTableRecord
  2
*MODEL_SPACE
  0
BLOCK_RECORD
  5
458D3
102
{ACAD_XDICTIONARY
360
4592A
102
}
100
AcDbSymbolTableRecord
100
AcDbBlockTableRecord
  2
*PAPER_SPACE
  0
BLOCK_RECORD
  5
7A015
100
AcDbSymbolTableRecord
100
AcDbBlockTableRecord
  2
*D0
  0
BLOCK_RECORD
  5
7A023
100
AcDbSymbolTableRecord
100
AcDbBlockTableRecord
  2
*D1
  0
ENDTAB
  0
ENDSEC
  0
SECTION
  2
BLOCKS
  0
BLOCK
  5
458DF
100
AcDbEntity
  8
0
100
AcDbBlockBegin
  2
*MODEL_SPACE
 70
     0
 10
0.0
 20
0.0
 30
0.0
  3
*MODEL_SPACE
  1

  0
ENDBLK
  5
458E0
100
AcDbEntity
  8
0
100
AcDbBlockEnd
  0
BLOCK
  5
458DD
100
AcDbEntity
 67
     1
  8
0
100
AcDbBlockBegin
  2
*PAPER_SPACE
 70
     0
 10
0.0
 20
0.0
 30
0.0
  3
*PAPER_SPACE
  1

  0
ENDBLK
  5
458DE
100
AcDbEntity
 67
     1
  8
0
100
AcDbBlockEnd
  0
BLOCK
  5
7A020
100
AcDbEntity
  8
0
100
AcDbBlockBegin
  2
*D0
 70
     1
 10
0.0
 20
0.0
 30
0.0
  3
*D0
  1

  0
LINE
  5
7A016
100
AcDbEntity
  8
AREA1
 62
     0
100
AcDbLine
 10
-1.0625
 20
0.281
 30
0.0
 11
-5.633652
 21
0.281
 31
0.0
1001
ACAD
1000
RTLwPs
1070
   158
  0
LINE
  5
7A017
100
AcDbEntity
  8
AREA1
 62
     0
100
AcDbLine
 10
-4.2575
 20
-10.059
 30
0.0
 11
-5.633652
 21
-10.059
 31
0.0
1001
ACAD
1000
RTLwPs
1070
   158
  0
LINE
  5
7A018
100
AcDbEntity
  8
AREA1
 62
     0
100
AcDbLine
 10
-5.533652
 20
0.031
 30
0.0
 11
-5.533652
 21
-3.173119
 31
0.0
1001
ACAD
1000
RTLwPs
1070
   158
  0
LINE
  5
7A019
100
AcDbEntity
  8
AREA1
 62
     0
100
AcDbLine
 10
-5.533652
 20
-9.809
 30
0.0
 11
-5.533652
 21
-6.894785
 31
0.0
1001
ACAD
1000
RTLwPs
1070
   158
  0
MTEXT
  5
7A01A
100
AcDbEntity
  8
AREA1
 62
     0
100
AcDbMText
 10
-5.533652
 20
-5.033952
 30
0.0
 40
0.25
 41
0.0
 71
     5
 72
     1
  1
\A1;10 11/32 [262.64]
 11
0.0
 21
1.0
 31
0.0
1001
ACAD
1000
MTEXTBEGIN
1070
    73
1070
     1
1070
    44
1040
1.0
1070
    74
1070
     0
1000
MTEXTEND
1000
MTEXTBEGIN
1070
    73
1070
     1
1070
    44
1040
1.0
1070
    74
1070
     0
1000
MTEXTEND
  0
SOLID
  5
7A01B
100
AcDbEntity
  8
AREA1
 62
     0
100
AcDbTrace
 10
-5.575318
 20
0.031
 30
0.0
 11
-5.491985
 21
0.031
 31
0.0
 12
-5.533652
 22
0.281
 32
0.0
 13
-5.533652
 23
0.281
 33
0.0
  0
SOLID
  5
7A01C
100
AcDbEntity
  8
AREA1
 62
     0
100
AcDbTrace
 10
-5.575318
 20
-9.809
 30
0.0
 11
-5.491985
 21
-9.809
 31
0.0
 12
-5.533652
 22
-10.059
 32
0.0
 13
-5.533652
 23
-10.059
 33
0.0
  0
POINT
  5
7A01D
100
AcDbEntity
  8
DEFPOINTS
 62
     0
100
AcDbPoint
 10
-1.0
 20
0.281
 30
0.0
  0
POINT
  5
7A01E
100
AcDbEntity
  8
DEFPOINTS
 62
     0
100
AcDbPoint
 10
-4.195
 20
-10.059
 30
0.0
  0
POINT
  5
7A01F
100
AcDbEntity
  8
DEFPOINTS
 62
     0
100
AcDbPoint
 10
-5.533652
 20
-10.059
 30
0.0
  0
ENDBLK
  5
7A021
100
AcDbEntity
  8
0
100
AcDbBlockEnd
  0
BLOCK
  5
7A02E
100
AcDbEntity
  8
0
100
AcDbBlockBegin
  2
*D1
 70
     1
 10
0.0
 20
0.0
 30
0.0
  3
*D1
  1

  0
LINE
  5
7A024
100
AcDbEntity
  8
AREA1
 62
     0
100
AcDbLine
 10
-4.325
 20
-0.5665
 30
0.0
 11
-4.325
 21
1.154036
 31
0.0
1001
ACAD
1000
RTLwPs
1070
   158
  0
LINE
  5
7A025
100
AcDbEntity
  8
AREA1
 62
     0
100
AcDbLine
 10
4.325
 20
-0.5665
 30
0.0
 11
4.325
 21
1.154036
 31
0.0
1001
ACAD
1000
RTLwPs
1070
   158
  0
LINE
  5
7A026
100
AcDbEntity
  8
AREA1
 62
     0
100
AcDbLine
 10
-4.075
 20
1.054036
 30
0.0
 11
-1.777392
 21
1.054036
 31
0.0
1001
ACAD
1000
RTLwPs
1070
   158
  0
LINE
  5
7A027
100
AcDbEntity
  8
AREA1
 62
     0
100
AcDbLine
 10
4.075
 20
1.054036
 30
0.0
 11
1.735941
 21
1.054036
 31
0.0
1001
ACAD
1000
RTLwPs
1070
   158
  0
MTEXT
  5
7A028
100
AcDbEntity
  8
AREA1
 62
     0
100
AcDbMText
 10
-0.020725
 20
1.054036
 30
0.0
 40
0.25
 41
0.0
 71
     5
 72
     1
  1
\A1;8 21/32 [219.71]
1001
ACAD
1000
MTEXTBEGIN
1070
    73
1070
     1
1070
    44
1040
1.0
1070
    74
1070
     0
1000
MTEXTEND
1000
MTEXTBEGIN
1070
    73
1070
     1
1070
    44
1040
1.0
1070
    74
1070
     0
1000
MTEXTEND
  0
SOLID
  5
7A029
100
AcDbEntity
  8
AREA1
 62
     0
100
AcDbTrace
 10
-4.075
 20
1.095702
 30
0.0
 11
-4.075
 21
1.012369
 31
0.0
 12
-4.325
 22
1.054036
 32
0.0
 13
-4.325
 23
1.054036
 33
0.0
  0
SOLID
  5
7A02A
100
AcDbEntity
  8
AREA1
 62
     0
100
AcDbTrace
 10
4.075
 20
1.095702
 30
0.0
 11
4.075
 21
1.012369
 31
0.0
 12
4.325
 22
1.054036
 32
0.0
 13
4.325
 23
1.054036
 33
0.0
  0
POINT
  5
7A02B
100
AcDbEntity
  8
DEFPOINTS
 62
     0
100
AcDbPoint
 10
-4.325
 20
-0.629
 30
0.0
  0
POINT
  5
7A02C
100
AcDbEntity
  8
DEFPOINTS
 62
     0
100
AcDbPoint
 10
4.325
 20
-0.629
 30
0.0
  0
POINT
  5
7A02D
100
AcDbEntity
  8
DEFPOINTS
 62
     0
100
AcDbPoint
 10
4.325
 20
1.054036
 30
0.0
  0
ENDBLK
  5
7A02F
100
AcDbEntity
  8
0
100
AcDbBlockEnd
  0
ENDSEC
  0
SECTION
  2
ENTITIES
  0
LINE
  5
79B9F
100
AcDbEntity
  8
0
100
AcDbLine
 39
0.2
 10
-1.0
 20
0.281
 30
0.0
 11
1.0
 21
0.281
 31
0.0
  0
LINE
  5
79BA0
100
AcDbEntity
  8
0
100
AcDbLine
 10
-0.153
 20
-3.87
 30
4.507
 11
0.407
 21
-3.87
 31
4.507
  0
LINE
  5
79BA1
100
AcDbEntity
  8
0
100
AcDbLine
 10
-0.398
 20
-3.87
 30
4.507
 11
0.162
 21
-3.87
 31
4.507
  0
ARC
  5
79BA2
100
AcDbEntity
  8
0
100
AcDbCircle
 10
0.0
 20
0.0
 30
0.197
 40
0.1
100
AcDbArc
 50
0.0
 51
179.999985
  0
ARC
  5
79BA3
100
AcDbEntity
  8
0
100
AcDbCircle
 10
0.0
 20
0.0
 30
0.0
 40
0.1
100
AcDbArc
 50
0.0
 51
179.999985
  0
LINE
  5
79BA4
100
AcDbEntity
  8
0
100
AcDbLine
 10
-1.0
 20
0.281
 30
0.197
 11
1.0
 21
0.281
 31
0.197
  0
3DFACE
  5
79BA5
100
AcDbEntity
  8
0
100
AcDbFace
 10
1.0
 20
0.281
 30
0.197
 11
1.0
 21
0.281
 31
0.0
 12
-1.0
 22
0.281
 32
0.0
 13
-1.0
 23
0.281
 33
0.197
 70
    14
  0
LINE
  5
79BA6
100
AcDbEntity
  8
0
100
AcDbLine
 10
-0.153
 20
-3.87
 30
0.387
 11
0.407
 21
-3.87
 31
0.387
  0
LINE
  5
79BA7
100
AcDbEntity
  8
0
100
AcDbLine
 10
-0.398
 20
-3.87
 30
0.387
 11
0.162
 21
-3.87
 31
0.387
  0
ARC
  5
79BA8
100
AcDbEntity
  8
0
100
AcDbCircle
 10
0.0
 20
-0.344
 30
0.0
 40
0.2345
100
AcDbArc
 50
115.241821
 51
64.758209
  0
ARC
  5
79BA9
100
AcDbEntity
  8
0
100
AcDbCircle
 10
0.0
 20
-0.344
 30
0.197
 40
0.2345
100
AcDbArc
 50
115.241821
 51
64.758209
  0
3DFACE
  5
79BAA
100
AcDbEntity
  8
0
100
AcDbFace
 10
-1.53
 20
-0.249
 30
0.197
 11
-1.0
 21
0.281
 31
0.197
 12
1.0
 22
0.281
 32
0.197
 13
1.53
 23
-0.249
 33
0.197
 70
    14
  0
3DFACE
  5
79BAB
100
AcDbEntity
  8
0
100
AcDbFace
 10
0.407
 20
-3.87
 30
4.507
 11
0.407
 21
-3.87
 31
0.387
 12
-0.398
 22
-3.87
 32
0.387
 13
-0.398
 23
-3.87
 33
4.507
 70
    14
  0
LINE
  5
79BAC
100
AcDbEntity
  8
0
100
AcDbLine
 10
0.407
 20
-5.62
 30
4.507
 11
-0.153
 21
-5.62
 31
4.507
  0
LINE
  5
79BAD
100
AcDbEntity
  8
0
100
AcDbLine
 10
0.162
 20
-5.62
 30
4.507
 11
-0.398
 21
-5.62
 31
4.507
  0
LINE
  5
79BAE
100
AcDbEntity
  8
0
100
AcDbLine
 10
0.407
 20
-5.62
 30
0.387
 11
-0.153
 21
-5.62
 31
0.387
  0
LINE
  5
79BAF
100
AcDbEntity
  8
0
100
AcDbLine
 10
0.162
 20
-5.62
 30
0.387
 11
-0.398
 21
-5.62
 31
0.387
  0
3DFACE
  5
79BB0
100
AcDbEntity
  8
0
100
AcDbFace
 10
-0.398
 20
-5.62
 30
4.507
 11
0.407
 21
-5.62
 31
4.507
 12
0.407
 22
-5.62
 32
0.387
 13
-0.338
 23
-5.62
 33
0.387
 70
    14
  0
3DFACE
  5
79BB1
100
AcDbEntity
  8
0
100
AcDbFace
 10
-0.398
 20
-5.62
 30
4.507
 11
0.407
 21
-5.62
 31
4.507
 12
0.407
 22
-5.62
 32
0.387
 13
-0.398
 23
-5.62
 33
0.387
 70
    14
  0
3DFACE
  5
79BB2
100
AcDbEntity
  8
0
100
AcDbFace
 10
0.407
 20
-5.62
 30
4.507
 11
-0.398
 21
-5.62
 31
4.507
 12
-0.398
 22
-3.87
 32
4.507
 13
0.407
 23
-3.87
 33
4.507
 70
    14
  0
LINE
  5
79BB3
100
AcDbEntity
  8
0
100
AcDbLine
 10
3.837
 20
-10.059
 30
0.197
 11
-3.837
 21
-10.059
 31
0.197
  0
LINE
  5
79BB4
100
AcDbEntity
  8
0
100
AcDbLine
 10
3.837
 20
-10.059
 30
0.0
 11
-3.837
 21
-10.059
 31
0.0
  0
3DFACE
  5
79BB5
100
AcDbEntity
  8
0
100
AcDbFace
 10
-3.837
 20
-10.059
 30
0.197
 11
3.837
 21
-10.059
 31
0.197
 12
3.837
 22
-10.059
 32
0.0
 13
-3.837
 23
-10.059
 33
0.0
 70
    14
  0
LINE
  5
79BB6
100
AcDbEntity
  8
0
100
AcDbLine
 10
-4.325
 20
-9.929
 30
0.0
 11
-4.325
 21
-0.629
 31
0.0
  0
LINE
  5
79BB7
100
AcDbEntity
  8
0
100
AcDbLine
 10
-0.153
 20
-5.62
 30
0.387
 11
-0.153
 21
-3.87
 31
0.387
  0
LINE
  5
79BB8
100
AcDbEntity
  8
0
100
AcDbLine
 10
-0.153
 20
-5.62
 30
4.507
 11
-0.153
 21
-3.87
 31
4.507
  0
LINE
  5
79BB9
100
AcDbEntity
  8
0
100
AcDbLine
 10
-0.398
 20
-3.87
 30
4.507
 11
-0.398
 21
-5.62
 31
4.507
  0
LINE
  5
79BBA
100
AcDbEntity
  8
0
100
AcDbLine
 10
-4.325
 20
-9.929
 30
0.197
 11
-4.325
 21
-0.629
 31
0.197
  0
3DFACE
  5
79BBB
100
AcDbEntity
  8
0
100
AcDbFace
 10
-4.325
 20
-9.929
 30
0.197
 11
-4.325
 21
-9.929
 31
0.0
 12
-4.325
 22
-0.629
 32
0.0
 13
-4.325
 23
-0.629
 33
0.197
 70
    14
  0
LINE
  5
79BBC
100
AcDbEntity
  8
0
100
AcDbLine
 10
-0.153
 20
-5.62
 30
0.387
 11
-0.153
 21
-5.62
 31
4.507
  0
LINE
  5
79BBD
100
AcDbEntity
  8
0
100
AcDbLine
 10
-0.398
 20
-5.62
 30
0.387
 11
-0.398
 21
-5.62
 31
4.507
  0
LINE
  5
79BBE
100
AcDbEntity
  8
0
100
AcDbLine
 10
-4.037
 20
-10.059
 30
0.197
 11
-4.195
 21
-10.059
 31
0.197
  0
LINE
  5
79BBF
100
AcDbEntity
  8
0
100
AcDbLine
 10
-4.037
 20
-10.059
 30
0.0
 11
-4.195
 21
-10.059
 31
0.0
  0
3DFACE
  5
79BC0
100
AcDbEntity
  8
0
100
AcDbFace
 10
-4.037
 20
-10.059
 30
0.197
 11
-4.037
 21
-10.059
 31
0.0
 12
-4.195
 22
-10.059
 32
0.0
 13
-4.195
 23
-10.059
 33
0.197
 70
    14
  0
LINE
  5
79BC1
100
AcDbEntity
  8
0
100
AcDbLine
 39
0.2
 10
-4.195
 20
-10.059
 30
0.0
 11
-4.325
 21
-9.929
 31
0.0
  0
LINE
  5
79BC2
100
AcDbEntity
  8
0
100
AcDbLine
 10
-4.325
 20
-9.929
 30
0.0
 11
-4.325
 21
-9.929
 31
0.197
  0
LINE
  5
79BC3
100
AcDbEntity
  8
0
100
AcDbLine
 10
-4.195
 20
-10.059
 30
0.0
 11
-4.195
 21
-10.059
 31
0.197
  0
LINE
  5
79BC4
100
AcDbEntity
  8
0
100
AcDbLine
 10
-4.195
 20
-10.059
 30
0.197
 11
-4.325
 21
-9.929
 31
0.197
  0
LINE
  5
79BC5
100
AcDbEntity
  8
0
100
AcDbLine
 10
-3.837
 20
-9.844
 30
0.0
 11
-3.837
 21
-9.844
 31
0.197
  0
LINE
  5
79BC6
100
AcDbEntity
  8
0
100
AcDbLine
 10
-3.837
 20
-10.059
 30
0.0
 11
-3.837
 21
-10.059
 31
0.197
  0
LINE
  5
79BC7
100
AcDbEntity
  8
0
100
AcDbLine
 10
-4.037
 20
-9.844
 30
0.0
 11
-4.037
 21
-9.844
 31
0.197
  0
LINE
  5
79BC8
100
AcDbEntity
  8
0
100
AcDbLine
 10
-4.037
 20
-10.059
 30
0.0
 11
-4.037
 21
-10.059
 31
0.197
  0
ARC
  5
79BC9
100
AcDbEntity
  8
0
100
AcDbCircle
 10
-3.937
 20
-9.844
 30
0.0
 40
0.1
100
AcDbArc
 50
0.0
 51
179.999985
  0
LINE
  5
79BCA
100
AcDbEntity
  8
0
100
AcDbLine
 10
-4.037
 20
-9.844
 30
0.0
 11
-4.037
 21
-10.059
 31
0.0
  0
LINE
  5
79BCB
100
AcDbEntity
  8
0
100
AcDbLine
 10
-3.837
 20
-10.059
 30
0.0
 11
-3.837
 21
-9.844
 31
0.0
  0
ARC
  5
79BCC
100
AcDbEntity
  8
0
100
AcDbCircle
 10
-3.937
 20
-9.844
 30
0.197
 40
0.1
100
AcDbArc
 50
0.0
 51
179.999985
  0
LINE
  5
79BCD
100
AcDbEntity
  8
0
100
AcDbLine
 10
-4.037
 20
-9.844
 30
0.197
 11
-4.037
 21
-10.059
 31
0.197
  0
LINE
  5
79BCE
100
AcDbEntity
  8
0
100
AcDbLine
 10
-3.837
 20
-10.059
 30
0.197
 11
-3.837
 21
-9.844
 31
0.197
  0
LINE
  5
79BCF
100
AcDbEntity
  8
0
100
AcDbLine
 10
-0.153
 20
-3.87
 30
0.387
 11
-0.153
 21
-3.87
 31
4.507
  0
LINE
  5
79BD0
100
AcDbEntity
  8
0
100
AcDbLine
 10
-0.398
 20
-3.87
 30
0.387
 11
-0.398
 21
-3.87
 31
4.507
  0
LINE
  5
79BD1
100
AcDbEntity
  8
0
100
AcDbLine
 39
0.2
 10
-3.945
 20
-0.249
 30
0.0
 11
-1.53
 21
-0.249
 31
0.0
  0
LINE
  5
79BD2
100
AcDbEntity
  8
0
100
AcDbLine
 10
-3.945
 20
-0.249
 30
0.197
 11
-1.53
 21
-0.249
 31
0.197
  0
LINE
  5
79BD3
100
AcDbEntity
  8
0
100
AcDbLine
 39
0.2
 10
-4.325
 20
-0.629
 30
0.0
 11
-3.945
 21
-0.249
 31
0.0
  0
LINE
  5
79BD4
100
AcDbEntity
  8
0
100
AcDbLine
 10
-4.325
 20
-0.629
 30
0.197
 11
-3.945
 21
-0.249
 31
0.197
  0
LINE
  5
79BD5
100
AcDbEntity
  8
0
100
AcDbLine
 10
-4.325
 20
-0.629
 30
0.0
 11
-4.325
 21
-0.629
 31
0.197
  0
LINE
  5
79BD6
100
AcDbEntity
  8
0
100
AcDbLine
 10
-3.945
 20
-0.249
 30
0.0
 11
-3.945
 21
-0.249
 31
0.197
  0
LINE
  5
79BD7
100
AcDbEntity
  8
0
100
AcDbLine
 39
0.2
 10
-1.53
 20
-0.249
 30
0.0
 11
-1.0
 21
0.281
 31
0.0
  0
LINE
  5
79BD8
100
AcDbEntity
  8
0
100
AcDbLine
 10
-1.53
 20
-0.249
 30
0.197
 11
-1.0
 21
0.281
 31
0.197
  0
LINE
  5
79BD9
100
AcDbEntity
  8
0
100
AcDbLine
 10
-1.53
 20
-0.249
 30
0.0
 11
-1.53
 21
-0.249
 31
0.197
  0
LINE
  5
79BDA
100
AcDbEntity
  8
0
100
AcDbLine
 10
-0.1
 20
0.0
 30
0.197
 11
-0.1
 21
-0.131891
 31
0.197
  0
LINE
  5
79BDB
100
AcDbEntity
  8
0
100
AcDbLine
 10
-0.1
 20
0.0
 30
0.0
 11
-0.1
 21
-0.131891
 31
0.0
  0
LINE
  5
79BDC
100
AcDbEntity
  8
0
100
AcDbLine
 10
-0.1
 20
-0.131891
 30
0.0
 11
-0.1
 21
-0.131891
 31
0.197
  0
LINE
  5
79BDD
100
AcDbEntity
  8
0
100
AcDbLine
 10
-0.1
 20
0.0
 30
0.0
 11
-0.1
 21
0.0
 31
0.197
  0
LINE
  5
79BDE
100
AcDbEntity
  8
0
100
AcDbLine
 10
-1.0
 20
0.281
 30
0.0
 11
-1.0
 21
0.281
 31
0.197
  0
LINE
  5
79BDF
100
AcDbEntity
  8
0
100
AcDbLine
 39
0.2
 10
4.325
 20
-0.629
 30
0.0
 11
4.325
 21
-9.929
 31
0.0
  0
LINE
  5
79BE0
100
AcDbEntity
  8
0
100
AcDbLine
 10
0.162
 20
-3.87
 30
0.387
 11
0.162
 21
-5.62
 31
0.387
  0
LINE
  5
79BE1
100
AcDbEntity
  8
0
100
AcDbLine
 10
0.407
 20
-3.87
 30
4.507
 11
0.407
 21
-5.62
 31
4.507
  0
LINE
  5
79BE2
100
AcDbEntity
  8
0
100
AcDbLine
 10
0.162
 20
-3.87
 30
4.507
 11
0.162
 21
-5.62
 31
4.507
  0
LINE
  5
79BE3
100
AcDbEntity
  8
0
100
AcDbLine
 10
0.407
 20
-5.62
 30
0.387
 11
0.407
 21
-5.62
 31
4.507
  0
LINE
  5
79BE4
100
AcDbEntity
  8
0
100
AcDbLine
 10
0.162
 20
-5.62
 30
0.387
 11
0.162
 21
-5.62
 31
4.507
  0
LINE
  5
79BE5
100
AcDbEntity
  8
0
100
AcDbLine
 10
4.195
 20
-10.059
 30
0.197
 11
4.037
 21
-10.059
 31
0.197
  0
LINE
  5
79BE6
100
AcDbEntity
  8
0
100
AcDbLine
 10
4.195
 20
-10.059
 30
0.0
 11
4.037
 21
-10.059
 31
0.0
  0
3DFACE
  5
79BE7
100
AcDbEntity
  8
0
100
AcDbFace
 10
4.037
 20
-10.059
 30
0.197
 11
4.195
 21
-10.059
 31
0.197
 12
4.195
 22
-10.059
 32
0.0
 13
4.037
 23
-10.059
 33
0.0
 70
    14
  0
LINE
  5
79BE8
100
AcDbEntity
  8
0
100
AcDbLine
 10
3.837
 20
-9.844
 30
0.0
 11
3.837
 21
-9.844
 31
0.197
  0
LINE
  5
79BE9
100
AcDbEntity
  8
0
100
AcDbLine
 10
3.837
 20
-10.059
 30
0.0
 11
3.837
 21
-10.059
 31
0.197
  0
LINE
  5
79BEA
100
AcDbEntity
  8
0
100
AcDbLine
 10
4.037
 20
-9.844
 30
0.0
 11
4.037
 21
-9.844
 31
0.197
  0
LINE
  5
79BEB
100
AcDbEntity
  8
0
100
AcDbLine
 10
4.037
 20
-10.059
 30
0.0
 11
4.037
 21
-10.059
 31
0.197
  0
ARC
  5
79BEC
100
AcDbEntity
  8
0
100
AcDbCircle
 10
3.937
 20
-9.844
 30
0.0
 40
0.1
100
AcDbArc
 50
0.0
 51
179.999985
  0
LINE
  5
79BED
100
AcDbEntity
  8
0
100
AcDbLine
 10
3.837
 20
-9.844
 30
0.0
 11
3.837
 21
-10.059
 31
0.0
  0
LINE
  5
79BEE
100
AcDbEntity
  8
0
100
AcDbLine
 10
4.037
 20
-10.059
 30
0.0
 11
4.037
 21
-9.844
 31
0.0
  0
ARC
  5
79BEF
100
AcDbEntity
  8
0
100
AcDbCircle
 10
3.937
 20
-9.844
 30
0.197
 40
0.1
100
AcDbArc
 50
0.0
 51
179.999985
  0
LINE
  5
79BF0
100
AcDbEntity
  8
0
100
AcDbLine
 10
3.837
 20
-9.844
 30
0.197
 11
3.837
 21
-10.059
 31
0.197
  0
LINE
  5
79BF1
100
AcDbEntity
  8
0
100
AcDbLine
 10
4.037
 20
-10.059
 30
0.197
 11
4.037
 21
-9.844
 31
0.197
  0
LINE
  5
79BF2
100
AcDbEntity
  8
0
100
AcDbLine
 39
0.2
 10
4.325
 20
-9.929
 30
0.0
 11
4.195
 21
-10.059
 31
0.0
  0
LINE
  5
79BF3
100
AcDbEntity
  8
0
100
AcDbLine
 10
4.325
 20
-9.929
 30
0.0
 11
4.325
 21
-9.929
 31
0.197
  0
LINE
  5
79BF4
100
AcDbEntity
  8
0
100
AcDbLine
 10
4.195
 20
-10.059
 30
0.0
 11
4.195
 21
-10.059
 31
0.197
  0
LINE
  5
79BF5
100
AcDbEntity
  8
0
100
AcDbLine
 10
0.407
 20
-3.87
 30
0.387
 11
0.407
 21
-3.87
 31
4.507
  0
LINE
  5
79BF6
100
AcDbEntity
  8
0
100
AcDbLine
 10
0.162
 20
-3.87
 30
0.387
 11
0.162
 21
-3.87
 31
4.507
  0
LINE
  5
79BF7
100
AcDbEntity
  8
0
100
AcDbLine
 39
0.2
 10
1.53
 20
-0.249
 30
0.0
 11
3.945
 21
-0.249
 31
0.0
  0
LINE
  5
79BF8
100
AcDbEntity
  8
0
100
AcDbLine
 10
1.53
 20
-0.249
 30
0.197
 11
3.945
 21
-0.249
 31
0.197
  0
LINE
  5
79BF9
100
AcDbEntity
  8
0
100
AcDbLine
 39
0.2
 10
1.0
 20
0.281
 30
0.0
 11
1.53
 21
-0.249
 31
0.0
  0
LINE
  5
79BFA
100
AcDbEntity
  8
0
100
AcDbLine
 10
1.0
 20
0.281
 30
0.197
 11
1.53
 21
-0.249
 31
0.197
  0
3DFACE
  5
79BFB
100
AcDbEntity
  8
0
100
AcDbFace
 10
1.0
 20
0.281
 30
0.197
 11
1.53
 21
-0.249
 31
0.197
 12
1.53
 22
-0.249
 32
0.0
 13
1.0
 23
0.281
 33
0.0
 70
    14
  0
LINE
  5
79BFC
100
AcDbEntity
  8
0
100
AcDbLine
 10
0.1
 20
0.0
 30
0.197
 11
0.1
 21
-0.131891
 31
0.197
  0
LINE
  5
79BFD
100
AcDbEntity
  8
0
100
AcDbLine
 10
0.1
 20
0.0
 30
0.0
 11
0.1
 21
-0.131891
 31
0.0
  0
LINE
  5
79BFE
100
AcDbEntity
  8
0
100
AcDbLine
 10
0.1
 20
-0.131891
 30
0.0
 11
0.1
 21
-0.131891
 31
0.197
  0
LINE
  5
79BFF
100
AcDbEntity
  8
0
100
AcDbLine
 10
1.0
 20
0.281
 30
0.0
 11
1.0
 21
0.281
 31
0.197
  0
LINE
  5
79C00
100
AcDbEntity
  8
0
100
AcDbLine
 10
0.1
 20
0.0
 30
0.0
 11
0.1
 21
0.0
 31
0.197
  0
LINE
  5
79C01
100
AcDbEntity
  8
0
100
AcDbLine
 10
1.53
 20
-0.249
 30
0.0
 11
1.53
 21
-0.249
 31
0.197
  0
LINE
  5
79C02
100
AcDbEntity
  8
0
100
AcDbLine
 39
0.2
 10
3.945
 20
-0.249
 30
0.0
 11
4.325
 21
-0.629
 31
0.0
  0
LINE
  5
79C03
100
AcDbEntity
  8
0
100
AcDbLine
 10
3.945
 20
-0.249
 30
0.197
 11
4.325
 21
-0.629
 31
0.197
  0
LINE
  5
79C04
100
AcDbEntity
  8
0
100
AcDbLine
 10
3.945
 20
-0.249
 30
0.0
 11
3.945
 21
-0.249
 31
0.197
  0
LINE
  5
79C05
100
AcDbEntity
  8
0
100
AcDbLine
 10
4.325
 20
-0.629
 30
0.0
 11
4.325
 21
-0.629
 31
0.197
  0
POLYLINE
  5
79C06
100
AcDbEntity
  8
0
100
AcDbPolygonMesh
 66
     1
 10
0.0
 20
0.0
 30
0.0
 70
    16
 71
     6
 72
     3
  0
VERTEX
  5
79C07
100
AcDbEntity
  8
0
100
AcDbVertex
100
AcDbPolygonMeshVertex
 10
4.287
 20
-9.46
 30
0.387
 70
    64
  0
VERTEX
  5
79C08
100
AcDbEntity
  8
0
100
AcDbVertex
100
AcDbPolygonMeshVertex
 10
4.287
 20
-9.46
 30
0.197
 70
    64
  0
VERTEX
  5
79C09
100
AcDbEntity
  8
0
100
AcDbVertex
100
AcDbPolygonMeshVertex
 10
4.287
 20
-9.46
 30
0.197
 70
    64
  0
VERTEX
  5
79C0A
100
AcDbEntity
  8
0
100
AcDbVertex
100
AcDbPolygonMeshVertex
 10
0.347
 20
-9.46
 30
0.387
 70
    64
  0
VERTEX
  5
79C0B
100
AcDbEntity
  8
0
100
AcDbVertex
100
AcDbPolygonMeshVertex
 10
0.347
 20
-9.46
 30
0.197
 70
    64
  0
VERTEX
  5
79C0C
100
AcDbEntity
  8
0
100
AcDbVertex
100
AcDbPolygonMeshVertex
 10
0.347
 20
-9.46
 30
0.197
 70
    64
  0
VERTEX
  5
79C0D
100
AcDbEntity
  8
0
100
AcDbVertex
100
AcDbPolygonMeshVertex
 10
0.347
 20
-0.93
 30
0.387
 70
    64
  0
VERTEX
  5
79C0E
100
AcDbEntity
  8
0
100
AcDbVertex
100
AcDbPolygonMeshVertex
 10
0.347
 20
-0.93
 30
0.197
 70
    64
  0
VERTEX
  5
79C0F
100
AcDbEntity
  8
0
100
AcDbVertex
100
AcDbPolygonMeshVertex
 10
0.347
 20
-9.46
 30
0.197
 70
    64
  0
VERTEX
  5
79C10
100
AcDbEntity
  8
0
100
AcDbVertex
100
AcDbPolygonMeshVertex
 10
4.287
 20
-0.93
 30
0.387
 70
    64
  0
VERTEX
  5
79C11
100
AcDbEntity
  8
0
100
AcDbVertex
100
AcDbPolygonMeshVertex
 10
4.287
 20
-0.93
 30
0.197
 70
    64
  0
VERTEX
  5
79C12
100
AcDbEntity
  8
0
100
AcDbVertex
100
AcDbPolygonMeshVertex
 10
4.287
 20
-9.46
 30
0.197
 70
    64
  0
VERTEX
  5
79C13
100
AcDbEntity
  8
0
100
AcDbVertex
100
AcDbPolygonMeshVertex
 10
4.287
 20
-0.93
 30
0.387
 70
    64
  0
VERTEX
  5
79C14
100
AcDbEntity
  8
0
100
AcDbVertex
100
AcDbPolygonMeshVertex
 10
4.287
 20
-0.93
 30
0.387
 70
    64
  0
VERTEX
  5
79C15
100
AcDbEntity
  8
0
100
AcDbVertex
100
AcDbPolygonMeshVertex
 10
4.287
 20
-9.46
 30
0.387
 70
    64
  0
VERTEX
  5
79C16
100
AcDbEntity
  8
0
100
AcDbVertex
100
AcDbPolygonMeshVertex
 10
0.347
 20
-0.93
 30
0.387
 70
    64
  0
VERTEX
  5
79C17
100
AcDbEntity
  8
0
100
AcDbVertex
100
AcDbPolygonMeshVertex
 10
0.347
 20
-0.93
 30
0.387
 70
    64
  0
VERTEX
  5
79C18
100
AcDbEntity
  8
0
100
AcDbVertex
100
AcDbPolygonMeshVertex
 10
0.347
 20
-9.46
 30
0.387
 70
    64
  0
SEQEND
  5
79C19
100
AcDbEntity
  8
0
  0
POLYLINE
  5
79C1A
100
AcDbEntity
  8
0
100
AcDbPolygonMesh
 66
     1
 10
0.0
 20
0.0
 30
0.0
 70
    16
 71
     6
 72
     3
  0
VERTEX
  5
79C1B
100
AcDbEntity
  8
0
100
AcDbVertex
100
AcDbPolygonMeshVertex
 10
4.227
 20
-6.18
 30
3.887
 70
    64
  0
VERTEX
  5
79C1C
100
AcDbEntity
  8
0
100
AcDbVertex
100
AcDbPolygonMeshVertex
 10
4.227
 20
-6.18
 30
0.387
 70
    64
  0
VERTEX
  5
79C1D
100
AcDbEntity
  8
0
100
AcDbVertex
100
AcDbPolygonMeshVertex
 10
4.227
 20
-6.18
 30
0.387
 70
    64
  0
VERTEX
  5
79C1E
100
AcDbEntity
  8
0
100
AcDbVertex
100
AcDbPolygonMeshVertex
 10
0.407
 20
-6.18
 30
3.887
 70
    64
  0
VERTEX
  5
79C1F
100
AcDbEntity
  8
0
100
AcDbVertex
100
AcDbPolygonMeshVertex
 10
0.407
 20
-6.18
 30
0.387
 70
    64
  0
VERTEX
  5
79C20
100
AcDbEntity
  8
0
100
AcDbVertex
100
AcDbPolygonMeshVertex
 10
0.407
 20
-6.18
 30
0.387
 70
    64
  0
VERTEX
  5
79C21
100
AcDbEntity
  8
0
100
AcDbVertex
100
AcDbPolygonMeshVertex
 10
0.407
 20
-1.5
 30
3.887
 70
    64
  0
VERTEX
  5
79C22
100
AcDbEntity
  8
0
100
AcDbVertex
100
AcDbPolygonMeshVertex
 10
0.407
 20
-1.5
 30
0.387
 70
    64
  0
VERTEX
  5
79C23
100
AcDbEntity
  8
0
100
AcDbVertex
100
AcDbPolygonMeshVertex
 10
0.407
 20
-6.18
 30
0.387
 70
    64
  0
VERTEX
  5
79C24
100
AcDbEntity
  8
0
100
AcDbVertex
100
AcDbPolygonMeshVertex
 10
4.227
 20
-1.5
 30
3.887
 70
    64
  0
VERTEX
  5
79C25
100
AcDbEntity
  8
0
100
AcDbVertex
100
AcDbPolygonMeshVertex
 10
4.227
 20
-1.5
 30
0.387
 70
    64
  0
VERTEX
  5
79C26
100
AcDbEntity
  8
0
100
AcDbVertex
100
AcDbPolygonMeshVertex
 10
4.227
 20
-6.18
 30
0.387
 70
    64
  0
VERTEX
  5
79C27
100
AcDbEntity
  8
0
100
AcDbVertex
100
AcDbPolygonMeshVertex
 10
4.227
 20
-1.5
 30
3.887
 70
    64
  0
VERTEX
  5
79C28
100
AcDbEntity
  8
0
100
AcDbVertex
100
AcDbPolygonMeshVertex
 10
4.227
 20
-1.5
 30
3.887
 70
    64
  0
VERTEX
  5
79C29
100
AcDbEntity
  8
0
100
AcDbVertex
100
AcDbPolygonMeshVertex
 10
4.227
 20
-6.18
 30
3.887
 70
    64
  0
VERTEX
  5
79C2A
100
AcDbEntity
  8
0
100
AcDbVertex
100
AcDbPolygonMeshVertex
 10
0.407
 20
-1.5
 30
3.887
 70
    64
  0
VERTEX
  5
79C2B
100
AcDbEntity
  8
0
100
AcDbVertex
100
AcDbPolygonMeshVertex
 10
0.407
 20
-1.5
 30
3.887
 70
    64
  0
VERTEX
  5
79C2C
100
AcDbEntity
  8
0
100
AcDbVertex
100
AcDbPolygonMeshVertex
 10
0.407
 20
-6.18
 30
3.887
 70
    64
  0
SEQEND
  5
79C2D
100
AcDbEntity
  8
0
  0
POLYLINE
  5
79C2E
100
AcDbEntity
  8
0
100
AcDbPolygonMesh
 66
     1
 10
0.0
 20
0.0
 30
0.0
 70
    16
 71
     6
 72
     3
  0
VERTEX
  5
79C2F
100
AcDbEntity
  8
0
100
AcDbVertex
100
AcDbPolygonMeshVertex
 10
3.007
 20
-8.99
 30
2.847
 70
    64
  0
VERTEX
  5
79C30
100
AcDbEntity
  8
0
100
AcDbVertex
100
AcDbPolygonMeshVertex
 10
3.007
 20
-8.99
 30
2.257
 70
    64
  0
VERTEX
  5
79C31
100
AcDbEntity
  8
0
100
AcDbVertex
100
AcDbPolygonMeshVertex
 10
3.007
 20
-8.99
 30
2.257
 70
    64
  0
VERTEX
  5
79C32
100
AcDbEntity
  8
0
100
AcDbVertex
100
AcDbPolygonMeshVertex
 10
2.697
 20
-8.99
 30
2.847
 70
    64
  0
VERTEX
  5
79C33
100
AcDbEntity
  8
0
100
AcDbVertex
100
AcDbPolygonMeshVertex
 10
2.697
 20
-8.99
 30
2.257
 70
    64
  0
VERTEX
  5
79C34
100
AcDbEntity
  8
0
100
AcDbVertex
100
AcDbPolygonMeshVertex
 10
2.697
 20
-8.99
 30
2.257
 70
    64
  0
VERTEX
  5
79C35
100
AcDbEntity
  8
0
100
AcDbVertex
100
AcDbPolygonMeshVertex
 10
2.697
 20
-8.53
 30
2.847
 70
    64
  0
VERTEX
  5
79C36
100
AcDbEntity
  8
0
100
AcDbVertex
100
AcDbPolygonMeshVertex
 10
2.697
 20
-8.53
 30
2.257
 70
    64
  0
VERTEX
  5
79C37
100
AcDbEntity
  8
0
100
AcDbVertex
100
AcDbPolygonMeshVertex
 10
2.697
 20
-8.99
 30
2.257
 70
    64
  0
VERTEX
  5
79C38
100
AcDbEntity
  8
0
100
AcDbVertex
100
AcDbPolygonMeshVertex
 10
3.007
 20
-8.53
 30
2.847
 70
    64
  0
VERTEX
  5
79C39
100
AcDbEntity
  8
0
100
AcDbVertex
100
AcDbPolygonMeshVertex
 10
3.007
 20
-8.53
 30
2.257
 70
    64
  0
VERTEX
  5
79C3A
100
AcDbEntity
  8
0
100
AcDbVertex
100
AcDbPolygonMeshVertex
 10
3.007
 20
-8.99
 30
2.257
 70
    64
  0
VERTEX
  5
79C3B
100
AcDbEntity
  8
0
100
AcDbVertex
100
AcDbPolygonMeshVertex
 10
3.007
 20
-8.53
 30
2.847
 70
    64
  0
VERTEX
  5
79C3C
100
AcDbEntity
  8
0
100
AcDbVertex
100
AcDbPolygonMeshVertex
 10
3.007
 20
-8.53
 30
2.847
 70
    64
  0
VERTEX
  5
79C3D
100
AcDbEntity
  8
0
100
AcDbVertex
100
AcDbPolygonMeshVertex
 10
3.007
 20
-8.99
 30
2.847
 70
    64
  0
VERTEX
  5
79C3E
100
AcDbEntity
  8
0
100
AcDbVertex
100
AcDbPolygonMeshVertex
 10
2.697
 20
-8.53
 30
2.847
 70
    64
  0
VERTEX
  5
79C3F
100
AcDbEntity
  8
0
100
AcDbVertex
100
AcDbPolygonMeshVertex
 10
2.697
 20
-8.53
 30
2.847
 70
    64
  0
VERTEX
  5
79C40
100
AcDbEntity
  8
0
100
AcDbVertex
100
AcDbPolygonMeshVertex
 10
2.697
 20
-8.99
 30
2.847
 70
    64
  0
SEQEND
  5
79C41
100
AcDbEntity
  8
0
  0
POLYLINE
  5
79C42
100
AcDbEntity
  8
0
100
AcDbPolygonMesh
 66
     1
 10
0.0
 20
0.0
 30
0.0
 70
    16
 71
     6
 72
     3
  0
VERTEX
  5
79C43
100
AcDbEntity
  8
0
100
AcDbVertex
100
AcDbPolygonMeshVertex
 10
3.627
 20
-9.47
 30
2.727
 70
    64
  0
VERTEX
  5
79C44
100
AcDbEntity
  8
0
100
AcDbVertex
100
AcDbPolygonMeshVertex
 10
3.627
 20
-9.47
 30
2.597
 70
    64
  0
VERTEX
  5
79C45
100
AcDbEntity
  8
0
100
AcDbVertex
100
AcDbPolygonMeshVertex
 10
3.627
 20
-9.47
 30
2.597
 70
    64
  0
VERTEX
  5
79C46
100
AcDbEntity
  8
0
100
AcDbVertex
100
AcDbPolygonMeshVertex
 10
3.127
 20
-9.47
 30
2.727
 70
    64
  0
VERTEX
  5
79C47
100
AcDbEntity
  8
0
100
AcDbVertex
100
AcDbPolygonMeshVertex
 10
3.127
 20
-9.47
 30
2.597
 70
    64
  0
VERTEX
  5
79C48
100
AcDbEntity
  8
0
100
AcDbVertex
100
AcDbPolygonMeshVertex
 10
3.127
 20
-9.47
 30
2.597
 70
    64
  0
VERTEX
  5
79C49
100
AcDbEntity
  8
0
100
AcDbVertex
100
AcDbPolygonMeshVertex
 10
3.127
 20
-8.97
 30
2.727
 70
    64
  0
VERTEX
  5
79C4A
100
AcDbEntity
  8
0
100
AcDbVertex
100
AcDbPolygonMeshVertex
 10
3.127
 20
-8.97
 30
2.597
 70
    64
  0
VERTEX
  5
79C4B
100
AcDbEntity
  8
0
100
AcDbVertex
100
AcDbPolygonMeshVertex
 10
3.127
 20
-9.47
 30
2.597
 70
    64
  0
VERTEX
  5
79C4C
100
AcDbEntity
  8
0
100
AcDbVertex
100
AcDbPolygonMeshVertex
 10
3.627
 20
-8.97
 30
2.727
 70
    64
  0
VERTEX
  5
79C4D
100
AcDbEntity
  8
0
100
AcDbVertex
100
AcDbPolygonMeshVertex
 10
3.627
 20
-8.97
 30
2.597
 70
    64
  0
VERTEX
  5
79C4E
100
AcDbEntity
  8
0
100
AcDbVertex
100
AcDbPolygonMeshVertex
 10
3.627
 20
-9.47
 30
2.597
 70
    64
  0
VERTEX
  5
79C4F
100
AcDbEntity
  8
0
100
AcDbVertex
100
AcDbPolygonMeshVertex
 10
3.627
 20
-8.97
 30
2.727
 70
    64
  0
VERTEX
  5
79C50
100
AcDbEntity
  8
0
100
AcDbVertex
100
AcDbPolygonMeshVertex
 10
3.627
 20
-8.97
 30
2.727
 70
    64
  0
VERTEX
  5
79C51
100
AcDbEntity
  8
0
100
AcDbVertex
100
AcDbPolygonMeshVertex
 10
3.627
 20
-9.47
 30
2.727
 70
    64
  0
VERTEX
  5
79C52
100
AcDbEntity
  8
0
100
AcDbVertex
100
AcDbPolygonMeshVertex
 10
3.127
 20
-8.97
 30
2.727
 70
    64
  0
VERTEX
  5
79C53
100
AcDbEntity
  8
0
100
AcDbVertex
100
AcDbPolygonMeshVertex
 10
3.127
 20
-8.97
 30
2.727
 70
    64
  0
VERTEX
  5
79C54
100
AcDbEntity
  8
0
100
AcDbVertex
100
AcDbPolygonMeshVertex
 10
3.127
 20
-9.47
 30
2.727
 70
    64
  0
SEQEND
  5
79C55
100
AcDbEntity
  8
0
  0
POLYLINE
  5
79C56
100
AcDbEntity
  8
0
100
AcDbPolygonMesh
 66
     1
 10
0.0
 20
0.0
 30
0.0
 70
    16
 71
     6
 72
     3
  0
VERTEX
  5
79C57
100
AcDbEntity
  8
0
100
AcDbVertex
100
AcDbPolygonMeshVertex
 10
2.567
 20
-9.47
 30
2.727
 70
    64
  0
VERTEX
  5
79C58
100
AcDbEntity
  8
0
100
AcDbVertex
100
AcDbPolygonMeshVertex
 10
2.567
 20
-9.47
 30
2.597
 70
    64
  0
VERTEX
  5
79C59
100
AcDbEntity
  8
0
100
AcDbVertex
100
AcDbPolygonMeshVertex
 10
2.567
 20
-9.47
 30
2.597
 70
    64
  0
VERTEX
  5
79C5A
100
AcDbEntity
  8
0
100
AcDbVertex
100
AcDbPolygonMeshVertex
 10
2.067
 20
-9.47
 30
2.727
 70
    64
  0
VERTEX
  5
79C5B
100
AcDbEntity
  8
0
100
AcDbVertex
100
AcDbPolygonMeshVertex
 10
2.067
 20
-9.47
 30
2.597
 70
    64
  0
VERTEX
  5
79C5C
100
AcDbEntity
  8
0
100
AcDbVertex
100
AcDbPolygonMeshVertex
 10
2.067
 20
-9.47
 30
2.597
 70
    64
  0
VERTEX
  5
79C5D
100
AcDbEntity
  8
0
100
AcDbVertex
100
AcDbPolygonMeshVertex
 10
2.067
 20
-8.97
 30
2.727
 70
    64
  0
VERTEX
  5
79C5E
100
AcDbEntity
  8
0
100
AcDbVertex
100
AcDbPolygonMeshVertex
 10
2.067
 20
-8.97
 30
2.597
 70
    64
  0
VERTEX
  5
79C5F
100
AcDbEntity
  8
0
100
AcDbVertex
100
AcDbPolygonMeshVertex
 10
2.067
 20
-9.47
 30
2.597
 70
    64
  0
VERTEX
  5
79C60
100
AcDbEntity
  8
0
100
AcDbVertex
100
AcDbPolygonMeshVertex
 10
2.567
 20
-8.97
 30
2.727
 70
    64
  0
VERTEX
  5
79C61
100
AcDbEntity
  8
0
100
AcDbVertex
100
AcDbPolygonMeshVertex
 10
2.567
 20
-8.97
 30
2.597
 70
    64
  0
VERTEX
  5
79C62
100
AcDbEntity
  8
0
100
AcDbVertex
100
AcDbPolygonMeshVertex
 10
2.567
 20
-9.47
 30
2.597
 70
    64
  0
VERTEX
  5
79C63
100
AcDbEntity
  8
0
100
AcDbVertex
100
AcDbPolygonMeshVertex
 10
2.567
 20
-8.97
 30
2.727
 70
    64
  0
VERTEX
  5
79C64
100
AcDbEntity
  8
0
100
AcDbVertex
100
AcDbPolygonMeshVertex
 10
2.567
 20
-8.97
 30
2.727
 70
    64
  0
VERTEX
  5
79C65
100
AcDbEntity
  8
0
100
AcDbVertex
100
AcDbPolygonMeshVertex
 10
2.567
 20
-9.47
 30
2.727
 70
    64
  0
VERTEX
  5
79C66
100
AcDbEntity
  8
0
100
AcDbVertex
100
AcDbPolygonMeshVertex
 10
2.067
 20
-8.97
 30
2.727
 70
    64
  0
VERTEX
  5
79C67
100
AcDbEntity
  8
0
100
AcDbVertex
100
AcDbPolygonMeshVertex
 10
2.067
 20
-8.97
 30
2.727
 70
    64
  0
VERTEX
  5
79C68
100
AcDbEntity
  8
0
100
AcDbVertex
100
AcDbPolygonMeshVertex
 10
2.067
 20
-9.47
 30
2.727
 70
    64
  0
SEQEND
  5
79C69
100
AcDbEntity
  8
0
  0
POLYLINE
  5
79C6A
100
AcDbEntity
  8
0
100
AcDbPolygonMesh
 66
     1
 10
0.0
 20
0.0
 30
0.0
 70
    16
 71
     6
 72
     3
  0
VERTEX
  5
79C6B
100
AcDbEntity
  8
0
100
AcDbVertex
100
AcDbPolygonMeshVertex
 10
1.937
 20
-8.99
 30
2.847
 70
    64
  0
VERTEX
  5
79C6C
100
AcDbEntity
  8
0
100
AcDbVertex
100
AcDbPolygonMeshVertex
 10
1.937
 20
-8.99
 30
2.257
 70
    64
  0
VERTEX
  5
79C6D
100
AcDbEntity
  8
0
100
AcDbVertex
100
AcDbPolygonMeshVertex
 10
1.937
 20
-8.99
 30
2.257
 70
    64
  0
VERTEX
  5
79C6E
100
AcDbEntity
  8
0
100
AcDbVertex
100
AcDbPolygonMeshVertex
 10
1.627
 20
-8.99
 30
2.847
 70
    64
  0
VERTEX
  5
79C6F
100
AcDbEntity
  8
0
100
AcDbVertex
100
AcDbPolygonMeshVertex
 10
1.627
 20
-8.99
 30
2.257
 70
    64
  0
VERTEX
  5
79C70
100
AcDbEntity
  8
0
100
AcDbVertex
100
AcDbPolygonMeshVertex
 10
1.627
 20
-8.99
 30
2.257
 70
    64
  0
VERTEX
  5
79C71
100
AcDbEntity
  8
0
100
AcDbVertex
100
AcDbPolygonMeshVertex
 10
1.627
 20
-8.53
 30
2.847
 70
    64
  0
VERTEX
  5
79C72
100
AcDbEntity
  8
0
100
AcDbVertex
100
AcDbPolygonMeshVertex
 10
1.627
 20
-8.53
 30
2.257
 70
    64
  0
VERTEX
  5
79C73
100
AcDbEntity
  8
0
100
AcDbVertex
100
AcDbPolygonMeshVertex
 10
1.627
 20
-8.99
 30
2.257
 70
    64
  0
VERTEX
  5
79C74
100
AcDbEntity
  8
0
100
AcDbVertex
100
AcDbPolygonMeshVertex
 10
1.937
 20
-8.53
 30
2.847
 70
    64
  0
VERTEX
  5
79C75
100
AcDbEntity
  8
0
100
AcDbVertex
100
AcDbPolygonMeshVertex
 10
1.937
 20
-8.53
 30
2.257
 70
    64
  0
VERTEX
  5
79C76
100
AcDbEntity
  8
0
100
AcDbVertex
100
AcDbPolygonMeshVertex
 10
1.937
 20
-8.99
 30
2.257
 70
    64
  0
VERTEX
  5
79C77
100
AcDbEntity
  8
0
100
AcDbVertex
100
AcDbPolygonMeshVertex
 10
1.937
 20
-8.53
 30
2.847
 70
    64
  0
VERTEX
  5
79C78
100
AcDbEntity
  8
0
100
AcDbVertex
100
AcDbPolygonMeshVertex
 10
1.937
 20
-8.53
 30
2.847
 70
    64
  0
VERTEX
  5
79C79
100
AcDbEntity
  8
0
100
AcDbVertex
100
AcDbPolygonMeshVertex
 10
1.937
 20
-8.99
 30
2.847
 70
    64
  0
VERTEX
  5
79C7A
100
AcDbEntity
  8
0
100
AcDbVertex
100
AcDbPolygonMeshVertex
 10
1.627
 20
-8.53
 30
2.847
 70
    64
  0
VERTEX
  5
79C7B
100
AcDbEntity
  8
0
100
AcDbVertex
100
AcDbPolygonMeshVertex
 10
1.627
 20
-8.53
 30
2.847
 70
    64
  0
VERTEX
  5
79C7C
100
AcDbEntity
  8
0
100
AcDbVertex
100
AcDbPolygonMeshVertex
 10
1.627
 20
-8.99
 30
2.847
 70
    64
  0
SEQEND
  5
79C7D
100
AcDbEntity
  8
0
  0
POLYLINE
  5
79C7E
100
AcDbEntity
  8
0
100
AcDbPolygonMesh
 66
     1
 10
0.0
 20
0.0
 30
0.0
 70
    16
 71
     6
 72
     3
  0
VERTEX
  5
79C7F
100
AcDbEntity
  8
0
100
AcDbVertex
100
AcDbPolygonMeshVertex
 10
1.507
 20
-9.47
 30
2.727
 70
    64
  0
VERTEX
  5
79C80
100
AcDbEntity
  8
0
100
AcDbVertex
100
AcDbPolygonMeshVertex
 10
1.507
 20
-9.47
 30
2.597
 70
    64
  0
VERTEX
  5
79C81
100
AcDbEntity
  8
0
100
AcDbVertex
100
AcDbPolygonMeshVertex
 10
1.507
 20
-9.47
 30
2.597
 70
    64
  0
VERTEX
  5
79C82
100
AcDbEntity
  8
0
100
AcDbVertex
100
AcDbPolygonMeshVertex
 10
1.007
 20
-9.47
 30
2.727
 70
    64
  0
VERTEX
  5
79C83
100
AcDbEntity
  8
0
100
AcDbVertex
100
AcDbPolygonMeshVertex
 10
1.007
 20
-9.47
 30
2.597
 70
    64
  0
VERTEX
  5
79C84
100
AcDbEntity
  8
0
100
AcDbVertex
100
AcDbPolygonMeshVertex
 10
1.007
 20
-9.47
 30
2.597
 70
    64
  0
VERTEX
  5
79C85
100
AcDbEntity
  8
0
100
AcDbVertex
100
AcDbPolygonMeshVertex
 10
1.007
 20
-8.97
 30
2.727
 70
    64
  0
VERTEX
  5
79C86
100
AcDbEntity
  8
0
100
AcDbVertex
100
AcDbPolygonMeshVertex
 10
1.007
 20
-8.97
 30
2.597
 70
    64
  0
VERTEX
  5
79C87
100
AcDbEntity
  8
0
100
AcDbVertex
100
AcDbPolygonMeshVertex
 10
1.007
 20
-9.47
 30
2.597
 70
    64
  0
VERTEX
  5
79C88
100
AcDbEntity
  8
0
100
AcDbVertex
100
AcDbPolygonMeshVertex
 10
1.507
 20
-8.97
 30
2.727
 70
    64
  0
VERTEX
  5
79C89
100
AcDbEntity
  8
0
100
AcDbVertex
100
AcDbPolygonMeshVertex
 10
1.507
 20
-8.97
 30
2.597
 70
    64
  0
VERTEX
  5
79C8A
100
AcDbEntity
  8
0
100
AcDbVertex
100
AcDbPolygonMeshVertex
 10
1.507
 20
-9.47
 30
2.597
 70
    64
  0
VERTEX
  5
79C8B
100
AcDbEntity
  8
0
100
AcDbVertex
100
AcDbPolygonMeshVertex
 10
1.507
 20
-8.97
 30
2.727
 70
    64
  0
VERTEX
  5
79C8C
100
AcDbEntity
  8
0
100
AcDbVertex
100
AcDbPolygonMeshVertex
 10
1.507
 20
-8.97
 30
2.727
 70
    64
  0
VERTEX
  5
79C8D
100
AcDbEntity
  8
0
100
AcDbVertex
100
AcDbPolygonMeshVertex
 10
1.507
 20
-9.47
 30
2.727
 70
    64
  0
VERTEX
  5
79C8E
100
AcDbEntity
  8
0
100
AcDbVertex
100
AcDbPolygonMeshVertex
 10
1.007
 20
-8.97
 30
2.727
 70
    64
  0
VERTEX
  5
79C8F
100
AcDbEntity
  8
0
100
AcDbVertex
100
AcDbPolygonMeshVertex
 10
1.007
 20
-8.97
 30
2.727
 70
    64
  0
VERTEX
  5
79C90
100
AcDbEntity
  8
0
100
AcDbVertex
100
AcDbPolygonMeshVertex
 10
1.007
 20
-9.47
 30
2.727
 70
    64
  0
SEQEND
  5
79C91
100
AcDbEntity
  8
0
  0
POLYLINE
  5
79C92
100
AcDbEntity
  8
0
100
AcDbPolygonMesh
 66
     1
 10
0.0
 20
0.0
 30
0.0
 70
    16
 71
     6
 72
     3
  0
VERTEX
  5
79C93
100
AcDbEntity
  8
0
100
AcDbVertex
100
AcDbPolygonMeshVertex
 10
4.127
 20
-8.53
 30
3.757
 70
    64
  0
VERTEX
  5
79C94
100
AcDbEntity
  8
0
100
AcDbVertex
100
AcDbPolygonMeshVertex
 10
4.127
 20
-8.53
 30
0.387
 70
    64
  0
VERTEX
  5
79C95
100
AcDbEntity
  8
0
100
AcDbVertex
100
AcDbPolygonMeshVertex
 10
4.127
 20
-8.53
 30
0.387
 70
    64
  0
VERTEX
  5
79C96
100
AcDbEntity
  8
0
100
AcDbVertex
100
AcDbPolygonMeshVertex
 10
0.507
 20
-8.53
 30
3.757
 70
    64
  0
VERTEX
  5
79C97
100
AcDbEntity
  8
0
100
AcDbVertex
100
AcDbPolygonMeshVertex
 10
0.507
 20
-8.53
 30
0.387
 70
    64
  0
VERTEX
  5
79C98
100
AcDbEntity
  8
0
100
AcDbVertex
100
AcDbPolygonMeshVertex
 10
0.507
 20
-8.53
 30
0.387
 70
    64
  0
VERTEX
  5
79C99
100
AcDbEntity
  8
0
100
AcDbVertex
100
AcDbPolygonMeshVertex
 10
0.507
 20
-6.71
 30
3.757
 70
    64
  0
VERTEX
  5
79C9A
100
AcDbEntity
  8
0
100
AcDbVertex
100
AcDbPolygonMeshVertex
 10
0.507
 20
-6.71
 30
0.387
 70
    64
  0
VERTEX
  5
79C9B
100
AcDbEntity
  8
0
100
AcDbVertex
100
AcDbPolygonMeshVertex
 10
0.507
 20
-8.53
 30
0.387
 70
    64
  0
VERTEX
  5
79C9C
100
AcDbEntity
  8
0
100
AcDbVertex
100
AcDbPolygonMeshVertex
 10
4.127
 20
-6.71
 30
3.757
 70
    64
  0
VERTEX
  5
79C9D
100
AcDbEntity
  8
0
100
AcDbVertex
100
AcDbPolygonMeshVertex
 10
4.127
 20
-6.71
 30
0.387
 70
    64
  0
VERTEX
  5
79C9E
100
AcDbEntity
  8
0
100
AcDbVertex
100
AcDbPolygonMeshVertex
 10
4.127
 20
-8.53
 30
0.387
 70
    64
  0
VERTEX
  5
79C9F
100
AcDbEntity
  8
0
100
AcDbVertex
100
AcDbPolygonMeshVertex
 10
4.127
 20
-6.71
 30
3.757
 70
    64
  0
VERTEX
  5
79CA0
100
AcDbEntity
  8
0
100
AcDbVertex
100
AcDbPolygonMeshVertex
 10
4.127
 20
-6.71
 30
3.757
 70
    64
  0
VERTEX
  5
79CA1
100
AcDbEntity
  8
0
100
AcDbVertex
100
AcDbPolygonMeshVertex
 10
4.127
 20
-8.53
 30
3.757
 70
    64
  0
VERTEX
  5
79CA2
100
AcDbEntity
  8
0
100
AcDbVertex
100
AcDbPolygonMeshVertex
 10
0.507
 20
-6.71
 30
3.757
 70
    64
  0
VERTEX
  5
79CA3
100
AcDbEntity
  8
0
100
AcDbVertex
100
AcDbPolygonMeshVertex
 10
0.507
 20
-6.71
 30
3.757
 70
    64
  0
VERTEX
  5
79CA4
100
AcDbEntity
  8
0
100
AcDbVertex
100
AcDbPolygonMeshVertex
 10
0.507
 20
-8.53
 30
3.757
 70
    64
  0
SEQEND
  5
79CA5
100
AcDbEntity
  8
0
  0
POLYLINE
  5
79CA6
100
AcDbEntity
  8
0
100
AcDbPolygonMesh
 66
     1
 10
0.0
 20
0.0
 30
0.0
 70
    16
 71
     6
 72
     3
  0
VERTEX
  5
79CA7
100
AcDbEntity
  8
0
100
AcDbVertex
100
AcDbPolygonMeshVertex
 10
4.227
 20
-6.66
 30
3.087
 70
    64
  0
VERTEX
  5
79CA8
100
AcDbEntity
  8
0
100
AcDbVertex
100
AcDbPolygonMeshVertex
 10
4.227
 20
-6.66
 30
1.917
 70
    64
  0
VERTEX
  5
79CA9
100
AcDbEntity
  8
0
100
AcDbVertex
100
AcDbPolygonMeshVertex
 10
4.227
 20
-6.66
 30
1.917
 70
    64
  0
VERTEX
  5
79CAA
100
AcDbEntity
  8
0
100
AcDbVertex
100
AcDbPolygonMeshVertex
 10
0.407
 20
-6.66
 30
3.087
 70
    64
  0
VERTEX
  5
79CAB
100
AcDbEntity
  8
0
100
AcDbVertex
100
AcDbPolygonMeshVertex
 10
0.407
 20
-6.66
 30
1.917
 70
    64
  0
VERTEX
  5
79CAC
100
AcDbEntity
  8
0
100
AcDbVertex
100
AcDbPolygonMeshVertex
 10
0.407
 20
-6.66
 30
1.917
 70
    64
  0
VERTEX
  5
79CAD
100
AcDbEntity
  8
0
100
AcDbVertex
100
AcDbPolygonMeshVertex
 10
0.407
 20
-6.18
 30
3.087
 70
    64
  0
VERTEX
  5
79CAE
100
AcDbEntity
  8
0
100
AcDbVertex
100
AcDbPolygonMeshVertex
 10
0.407
 20
-6.18
 30
1.917
 70
    64
  0
VERTEX
  5
79CAF
100
AcDbEntity
  8
0
100
AcDbVertex
100
AcDbPolygonMeshVertex
 10
0.407
 20
-6.66
 30
1.917
 70
    64
  0
VERTEX
  5
79CB0
100
AcDbEntity
  8
0
100
AcDbVertex
100
AcDbPolygonMeshVertex
 10
4.227
 20
-6.18
 30
3.087
 70
    64
  0
VERTEX
  5
79CB1
100
AcDbEntity
  8
0
100
AcDbVertex
100
AcDbPolygonMeshVertex
 10
4.227
 20
-6.18
 30
1.917
 70
    64
  0
VERTEX
  5
79CB2
100
AcDbEntity
  8
0
100
AcDbVertex
100
AcDbPolygonMeshVertex
 10
4.227
 20
-6.66
 30
1.917
 70
    64
  0
VERTEX
  5
79CB3
100
AcDbEntity
  8
0
100
AcDbVertex
100
AcDbPolygonMeshVertex
 10
4.227
 20
-6.18
 30
3.087
 70
    64
  0
VERTEX
  5
79CB4
100
AcDbEntity
  8
0
100
AcDbVertex
100
AcDbPolygonMeshVertex
 10
4.227
 20
-6.18
 30
3.087
 70
    64
  0
VERTEX
  5
79CB5
100
AcDbEntity
  8
0
100
AcDbVertex
100
AcDbPolygonMeshVertex
 10
4.227
 20
-6.66
 30
3.087
 70
    64
  0
VERTEX
  5
79CB6
100
AcDbEntity
  8
0
100
AcDbVertex
100
AcDbPolygonMeshVertex
 10
0.407
 20
-6.18
 30
3.087
 70
    64
  0
VERTEX
  5
79CB7
100
AcDbEntity
  8
0
100
AcDbVertex
100
AcDbPolygonMeshVertex
 10
0.407
 20
-6.18
 30
3.087
 70
    64
  0
VERTEX
  5
79CB8
100
AcDbEntity
  8
0
100
AcDbVertex
100
AcDbPolygonMeshVertex
 10
0.407
 20
-6.66
 30
3.087
 70
    64
  0
SEQEND
  5
79CB9
100
AcDbEntity
  8
0
  0
POLYLINE
  5
79CBA
100
AcDbEntity
  8
0
100
AcDbPolygonMesh
 66
     1
 10
0.0
 20
0.0
 30
0.0
 70
    16
 71
     6
 72
     3
  0
VERTEX
  5
79CBB
100
AcDbEntity
  8
0
100
AcDbVertex
100
AcDbPolygonMeshVertex
 10
4.127
 20
-8.99
 30
2.257
 70
    64
  0
VERTEX
  5
79CBC
100
AcDbEntity
  8
0
100
AcDbVertex
100
AcDbPolygonMeshVertex
 10
4.127
 20
-8.99
 30
1.877
 70
    64
  0
VERTEX
  5
79CBD
100
AcDbEntity
  8
0
100
AcDbVertex
100
AcDbPolygonMeshVertex
 10
4.127
 20
-8.99
 30
1.877
 70
    64
  0
VERTEX
  5
79CBE
100
AcDbEntity
  8
0
100
AcDbVertex
100
AcDbPolygonMeshVertex
 10
0.507
 20
-8.99
 30
2.257
 70
    64
  0
VERTEX
  5
79CBF
100
AcDbEntity
  8
0
100
AcDbVertex
100
AcDbPolygonMeshVertex
 10
0.507
 20
-8.99
 30
1.877
 70
    64
  0
VERTEX
  5
79CC0
100
AcDbEntity
  8
0
100
AcDbVertex
100
AcDbPolygonMeshVertex
 10
0.507
 20
-8.99
 30
1.877
 70
    64
  0
VERTEX
  5
79CC1
100
AcDbEntity
  8
0
100
AcDbVertex
100
AcDbPolygonMeshVertex
 10
0.507
 20
-8.53
 30
2.257
 70
    64
  0
VERTEX
  5
79CC2
100
AcDbEntity
  8
0
100
AcDbVertex
100
AcDbPolygonMeshVertex
 10
0.507
 20
-8.53
 30
1.877
 70
    64
  0
VERTEX
  5
79CC3
100
AcDbEntity
  8
0
100
AcDbVertex
100
AcDbPolygonMeshVertex
 10
0.507
 20
-8.99
 30
1.877
 70
    64
  0
VERTEX
  5
79CC4
100
AcDbEntity
  8
0
100
AcDbVertex
100
AcDbPolygonMeshVertex
 10
4.127
 20
-8.53
 30
2.257
 70
    64
  0
VERTEX
  5
79CC5
100
AcDbEntity
  8
0
100
AcDbVertex
100
AcDbPolygonMeshVertex
 10
4.127
 20
-8.53
 30
1.877
 70
    64
  0
VERTEX
  5
79CC6
100
AcDbEntity
  8
0
100
AcDbVertex
100
AcDbPolygonMeshVertex
 10
4.127
 20
-8.99
 30
1.877
 70
    64
  0
VERTEX
  5
79CC7
100
AcDbEntity
  8
0
100
AcDbVertex
100
AcDbPolygonMeshVertex
 10
4.127
 20
-8.53
 30
2.257
 70
    64
  0
VERTEX
  5
79CC8
100
AcDbEntity
  8
0
100
AcDbVertex
100
AcDbPolygonMeshVertex
 10
4.127
 20
-8.53
 30
2.257
 70
    64
  0
VERTEX
  5
79CC9
100
AcDbEntity
  8
0
100
AcDbVertex
100
AcDbPolygonMeshVertex
 10
4.127
 20
-8.99
 30
2.257
 70
    64
  0
VERTEX
  5
79CCA
100
AcDbEntity
  8
0
100
AcDbVertex
100
AcDbPolygonMeshVertex
 10
0.507
 20
-8.53
 30
2.257
 70
    64
  0
VERTEX
  5
79CCB
100
AcDbEntity
  8
0
100
AcDbVertex
100
AcDbPolygonMeshVertex
 10
0.507
 20
-8.53
 30
2.257
 70
    64
  0
VERTEX
  5
79CCC
100
AcDbEntity
  8
0
100
AcDbVertex
100
AcDbPolygonMeshVertex
 10
0.507
 20
-8.99
 30
2.257
 70
    64
  0
SEQEND
  5
79CCD
100
AcDbEntity
  8
0
  0
POLYLINE
  5
79CCE
100
AcDbEntity
  8
0
100
AcDbPolygonMesh
 66
     1
 10
0.0
 20
0.0
 30
0.0
 70
    16
 71
     6
 72
     3
  0
VERTEX
  5
79CCF
100
AcDbEntity
  8
0
100
AcDbVertex
100
AcDbPolygonMeshVertex
 10
0.507
 20
-8.53
 30
0.387
 70
    64
  0
VERTEX
  5
79CD0
100
AcDbEntity
  8
0
100
AcDbVertex
100
AcDbPolygonMeshVertex
 10
0.507
 20
-8.53
 30
0.387
 70
    64
  0
VERTEX
  5
79CD1
100
AcDbEntity
  8
0
100
AcDbVertex
100
AcDbPolygonMeshVertex
 10
0.507
 20
-8.53
 30
0.387
 70
    64
  0
VERTEX
  5
79CD2
100
AcDbEntity
  8
0
100
AcDbVertex
100
AcDbPolygonMeshVertex
 10
0.507
 20
-8.99
 30
1.877
 70
    64
  0
VERTEX
  5
79CD3
100
AcDbEntity
  8
0
100
AcDbVertex
100
AcDbPolygonMeshVertex
 10
0.507
 20
-8.53
 30
1.877
 70
    64
  0
VERTEX
  5
79CD4
100
AcDbEntity
  8
0
100
AcDbVertex
100
AcDbPolygonMeshVertex
 10
0.507
 20
-8.53
 30
1.877
 70
    64
  0
VERTEX
  5
79CD5
100
AcDbEntity
  8
0
100
AcDbVertex
100
AcDbPolygonMeshVertex
 10
4.127
 20
-8.99
 30
1.877
 70
    64
  0
VERTEX
  5
79CD6
100
AcDbEntity
  8
0
100
AcDbVertex
100
AcDbPolygonMeshVertex
 10
4.127
 20
-8.53
 30
1.877
 70
    64
  0
VERTEX
  5
79CD7
100
AcDbEntity
  8
0
100
AcDbVertex
100
AcDbPolygonMeshVertex
 10
0.507
 20
-8.53
 30
1.877
 70
    64
  0
VERTEX
  5
79CD8
100
AcDbEntity
  8
0
100
AcDbVertex
100
AcDbPolygonMeshVertex
 10
4.127
 20
-8.53
 30
0.387
 70
    64
  0
VERTEX
  5
79CD9
100
AcDbEntity
  8
0
100
AcDbVertex
100
AcDbPolygonMeshVertex
 10
4.127
 20
-8.53
 30
0.387
 70
    64
  0
VERTEX
  5
79CDA
100
AcDbEntity
  8
0
100
AcDbVertex
100
AcDbPolygonMeshVertex
 10
0.507
 20
-8.53
 30
0.387
 70
    64
  0
VERTEX
  5
79CDB
100
AcDbEntity
  8
0
100
AcDbVertex
100
AcDbPolygonMeshVertex
 10
4.127
 20
-8.53
 30
0.387
 70
    64
  0
VERTEX
  5
79CDC
100
AcDbEntity
  8
0
100
AcDbVertex
100
AcDbPolygonMeshVertex
 10
4.127
 20
-8.53
 30
0.387
 70
    64
  0
VERTEX
  5
79CDD
100
AcDbEntity
  8
0
100
AcDbVertex
100
AcDbPolygonMeshVertex
 10
0.507
 20
-8.53
 30
0.387
 70
    64
  0
VERTEX
  5
79CDE
100
AcDbEntity
  8
0
100
AcDbVertex
100
AcDbPolygonMeshVertex
 10
4.127
 20
-8.99
 30
1.877
 70
    64
  0
VERTEX
  5
79CDF
100
AcDbEntity
  8
0
100
AcDbVertex
100
AcDbPolygonMeshVertex
 10
4.127
 20
-8.99
 30
1.877
 70
    64
  0
VERTEX
  5
79CE0
100
AcDbEntity
  8
0
100
AcDbVertex
100
AcDbPolygonMeshVertex
 10
0.507
 20
-8.99
 30
1.877
 70
    64
  0
SEQEND
  5
79CE1
100
AcDbEntity
  8
0
  0
POLYLINE
  5
79CE2
100
AcDbEntity
  8
0
100
AcDbPolygonMesh
 66
     1
 10
0.0
 20
0.0
 30
0.0
 70
    16
 71
     6
 72
     3
  0
VERTEX
  5
79CE3
100
AcDbEntity
  8
0
100
AcDbVertex
100
AcDbPolygonMeshVertex
 10
0.407
 20
-6.18
 30
0.387
 70
    64
  0
VERTEX
  5
79CE4
100
AcDbEntity
  8
0
100
AcDbVertex
100
AcDbPolygonMeshVertex
 10
0.407
 20
-6.18
 30
0.387
 70
    64
  0
VERTEX
  5
79CE5
100
AcDbEntity
  8
0
100
AcDbVertex
100
AcDbPolygonMeshVertex
 10
0.407
 20
-6.18
 30
0.387
 70
    64
  0
VERTEX
  5
79CE6
100
AcDbEntity
  8
0
100
AcDbVertex
100
AcDbPolygonMeshVertex
 10
0.407
 20
-6.66
 30
1.917
 70
    64
  0
VERTEX
  5
79CE7
100
AcDbEntity
  8
0
100
AcDbVertex
100
AcDbPolygonMeshVertex
 10
0.407
 20
-6.18
 30
1.917
 70
    64
  0
VERTEX
  5
79CE8
100
AcDbEntity
  8
0
100
AcDbVertex
100
AcDbPolygonMeshVertex
 10
0.407
 20
-6.18
 30
1.917
 70
    64
  0
VERTEX
  5
79CE9
100
AcDbEntity
  8
0
100
AcDbVertex
100
AcDbPolygonMeshVertex
 10
4.227
 20
-6.66
 30
1.917
 70
    64
  0
VERTEX
  5
79CEA
100
AcDbEntity
  8
0
100
AcDbVertex
100
AcDbPolygonMeshVertex
 10
4.227
 20
-6.18
 30
1.917
 70
    64
  0
VERTEX
  5
79CEB
100
AcDbEntity
  8
0
100
AcDbVertex
100
AcDbPolygonMeshVertex
 10
0.407
 20
-6.18
 30
1.917
 70
    64
  0
VERTEX
  5
79CEC
100
AcDbEntity
  8
0
100
AcDbVertex
100
AcDbPolygonMeshVertex
 10
4.227
 20
-6.18
 30
0.387
 70
    64
  0
VERTEX
  5
79CED
100
AcDbEntity
  8
0
100
AcDbVertex
100
AcDbPolygonMeshVertex
 10
4.227
 20
-6.18
 30
0.387
 70
    64
  0
VERTEX
  5
79CEE
100
AcDbEntity
  8
0
100
AcDbVertex
100
AcDbPolygonMeshVertex
 10
0.407
 20
-6.18
 30
0.387
 70
    64
  0
VERTEX
  5
79CEF
100
AcDbEntity
  8
0
100
AcDbVertex
100
AcDbPolygonMeshVertex
 10
4.227
 20
-6.18
 30
0.387
 70
    64
  0
VERTEX
  5
79CF0
100
AcDbEntity
  8
0
100
AcDbVertex
100
AcDbPolygonMeshVertex
 10
4.227
 20
-6.18
 30
0.387
 70
    64
  0
VERTEX
  5
79CF1
100
AcDbEntity
  8
0
100
AcDbVertex
100
AcDbPolygonMeshVertex
 10
0.407
 20
-6.18
 30
0.387
 70
    64
  0
VERTEX
  5
79CF2
100
AcDbEntity
  8
0
100
AcDbVertex
100
AcDbPolygonMeshVertex
 10
4.227
 20
-6.66
 30
1.917
 70
    64
  0
VERTEX
  5
79CF3
100
AcDbEntity
  8
0
100
AcDbVertex
100
AcDbPolygonMeshVertex
 10
4.227
 20
-6.66
 30
1.917
 70
    64
  0
VERTEX
  5
79CF4
100
AcDbEntity
  8
0
100
AcDbVertex
100
AcDbPolygonMeshVertex
 10
0.407
 20
-6.66
 30
1.917
 70
    64
  0
SEQEND
  5
79CF5
100
AcDbEntity
  8
0
  0
ARC
  5
79CF6
100
AcDbEntity
  8
0
100
AcDbCircle
 10
0.737
 20
-9.25
 30
0.197
 40
0.1
100
AcDbArc
 50
0.0
 51
179.999985
  0
ARC
  5
79CF7
100
AcDbEntity
  8
0
100
AcDbCircle
 10
0.737
 20
-9.25
 30
0.387
 40
0.1
100
AcDbArc
 50
0.0
 51
179.999985
  0
3DFACE
  5
79CF8
100
AcDbEntity
  8
0
100
AcDbFace
 10
0.837
 20
-9.25
 30
0.387
 11
0.837
 21
-9.25
 31
0.197
 12
0.837
 22
-9.46
 32
0.197
 13
0.837
 23
-9.46
 33
0.387
 70
    14
  0
LINE
  5
79CF9
100
AcDbEntity
  8
0
100
AcDbLine
 10
0.637
 20
-9.46
 30
0.197
 11
0.637
 21
-9.46
 31
0.387
  0
LINE
  5
79CFA
100
AcDbEntity
  8
0
100
AcDbLine
 10
0.637
 20
-9.25
 30
0.197
 11
0.637
 21
-9.25
 31
0.387
  0
LINE
  5
79CFB
100
AcDbEntity
  8
0
100
AcDbLine
 10
0.837
 20
-9.25
 30
0.197
 11
0.837
 21
-9.25
 31
0.387
  0
LINE
  5
79CFC
100
AcDbEntity
  8
0
100
AcDbLine
 10
0.837
 20
-9.46
 30
0.197
 11
0.837
 21
-9.46
 31
0.387
  0
LINE
  5
79CFD
100
AcDbEntity
  8
0
100
AcDbLine
 10
0.637
 20
-9.25
 30
0.197
 11
0.637
 21
-9.46
 31
0.197
  0
LINE
  5
79CFE
100
AcDbEntity
  8
0
100
AcDbLine
 10
0.837
 20
-9.46
 30
0.197
 11
0.837
 21
-9.25
 31
0.197
  0
LINE
  5
79CFF
100
AcDbEntity
  8
0
100
AcDbLine
 10
0.637
 20
-9.25
 30
0.387
 11
0.637
 21
-9.46
 31
0.387
  0
LINE
  5
79D00
100
AcDbEntity
  8
0
100
AcDbLine
 10
0.837
 20
-9.46
 30
0.387
 11
0.837
 21
-9.25
 31
0.387
  0
LINE
  5
79D01
100
AcDbEntity
  8
0
100
AcDbLine
 10
0.507
 20
-8.99
 30
1.877
 11
0.507
 21
-8.53
 31
1.877
  0
POLYLINE
  5
79D02
100
AcDbEntity
  8
0
100
AcDbPolygonMesh
 66
     1
 10
0.0
 20
0.0
 30
0.0
 70
    16
 71
     6
 72
     3
  0
VERTEX
  5
79D03
100
AcDbEntity
  8
0
100
AcDbVertex
100
AcDbPolygonMeshVertex
 10
3.127
 20
-8.53
 30
2.597
 70
    64
  0
VERTEX
  5
79D04
100
AcDbEntity
  8
0
100
AcDbVertex
100
AcDbPolygonMeshVertex
 10
3.127
 20
-8.53
 30
2.257
 70
    64
  0
VERTEX
  5
79D05
100
AcDbEntity
  8
0
100
AcDbVertex
100
AcDbPolygonMeshVertex
 10
3.127
 20
-8.53
 30
2.257
 70
    64
  0
VERTEX
  5
79D06
100
AcDbEntity
  8
0
100
AcDbVertex
100
AcDbPolygonMeshVertex
 10
3.627
 20
-8.53
 30
2.597
 70
    64
  0
VERTEX
  5
79D07
100
AcDbEntity
  8
0
100
AcDbVertex
100
AcDbPolygonMeshVertex
 10
3.627
 20
-8.53
 30
2.257
 70
    64
  0
VERTEX
  5
79D08
100
AcDbEntity
  8
0
100
AcDbVertex
100
AcDbPolygonMeshVertex
 10
3.627
 20
-8.53
 30
2.257
 70
    64
  0
VERTEX
  5
79D09
100
AcDbEntity
  8
0
100
AcDbVertex
100
AcDbPolygonMeshVertex
 10
3.627
 20
-9.47
 30
2.597
 70
    64
  0
VERTEX
  5
79D0A
100
AcDbEntity
  8
0
100
AcDbVertex
100
AcDbPolygonMeshVertex
 10
3.627
 20
-9.47
 30
2.257
 70
    64
  0
VERTEX
  5
79D0B
100
AcDbEntity
  8
0
100
AcDbVertex
100
AcDbPolygonMeshVertex
 10
3.627
 20
-8.53
 30
2.257
 70
    64
  0
VERTEX
  5
79D0C
100
AcDbEntity
  8
0
100
AcDbVertex
100
AcDbPolygonMeshVertex
 10
3.127
 20
-9.47
 30
2.597
 70
    64
  0
VERTEX
  5
79D0D
100
AcDbEntity
  8
0
100
AcDbVertex
100
AcDbPolygonMeshVertex
 10
3.127
 20
-9.47
 30
2.257
 70
    64
  0
VERTEX
  5
79D0E
100
AcDbEntity
  8
0
100
AcDbVertex
100
AcDbPolygonMeshVertex
 10
3.127
 20
-8.53
 30
2.257
 70
    64
  0
VERTEX
  5
79D0F
100
AcDbEntity
  8
0
100
AcDbVertex
100
AcDbPolygonMeshVertex
 10
3.127
 20
-9.47
 30
2.597
 70
    64
  0
VERTEX
  5
79D10
100
AcDbEntity
  8
0
100
AcDbVertex
100
AcDbPolygonMeshVertex
 10
3.127
 20
-9.47
 30
2.597
 70
    64
  0
VERTEX
  5
79D11
100
AcDbEntity
  8
0
100
AcDbVertex
100
AcDbPolygonMeshVertex
 10
3.127
 20
-8.53
 30
2.597
 70
    64
  0
VERTEX
  5
79D12
100
AcDbEntity
  8
0
100
AcDbVertex
100
AcDbPolygonMeshVertex
 10
3.627
 20
-9.47
 30
2.597
 70
    64
  0
VERTEX
  5
79D13
100
AcDbEntity
  8
0
100
AcDbVertex
100
AcDbPolygonMeshVertex
 10
3.627
 20
-9.47
 30
2.597
 70
    64
  0
VERTEX
  5
79D14
100
AcDbEntity
  8
0
100
AcDbVertex
100
AcDbPolygonMeshVertex
 10
3.627
 20
-8.53
 30
2.597
 70
    64
  0
SEQEND
  5
79D15
100
AcDbEntity
  8
0
  0
POLYLINE
  5
79D16
100
AcDbEntity
  8
0
100
AcDbPolygonMesh
 66
     1
 10
0.0
 20
0.0
 30
0.0
 70
    16
 71
     6
 72
     3
  0
VERTEX
  5
79D17
100
AcDbEntity
  8
0
100
AcDbVertex
100
AcDbPolygonMeshVertex
 10
2.067
 20
-8.53
 30
2.597
 70
    64
  0
VERTEX
  5
79D18
100
AcDbEntity
  8
0
100
AcDbVertex
100
AcDbPolygonMeshVertex
 10
2.067
 20
-8.53
 30
2.257
 70
    64
  0
VERTEX
  5
79D19
100
AcDbEntity
  8
0
100
AcDbVertex
100
AcDbPolygonMeshVertex
 10
2.067
 20
-8.53
 30
2.257
 70
    64
  0
VERTEX
  5
79D1A
100
AcDbEntity
  8
0
100
AcDbVertex
100
AcDbPolygonMeshVertex
 10
2.567
 20
-8.53
 30
2.597
 70
    64
  0
VERTEX
  5
79D1B
100
AcDbEntity
  8
0
100
AcDbVertex
100
AcDbPolygonMeshVertex
 10
2.567
 20
-8.53
 30
2.257
 70
    64
  0
VERTEX
  5
79D1C
100
AcDbEntity
  8
0
100
AcDbVertex
100
AcDbPolygonMeshVertex
 10
2.567
 20
-8.53
 30
2.257
 70
    64
  0
VERTEX
  5
79D1D
100
AcDbEntity
  8
0
100
AcDbVertex
100
AcDbPolygonMeshVertex
 10
2.567
 20
-9.47
 30
2.597
 70
    64
  0
VERTEX
  5
79D1E
100
AcDbEntity
  8
0
100
AcDbVertex
100
AcDbPolygonMeshVertex
 10
2.567
 20
-9.47
 30
2.257
 70
    64
  0
VERTEX
  5
79D1F
100
AcDbEntity
  8
0
100
AcDbVertex
100
AcDbPolygonMeshVertex
 10
2.567
 20
-8.53
 30
2.257
 70
    64
  0
VERTEX
  5
79D20
100
AcDbEntity
  8
0
100
AcDbVertex
100
AcDbPolygonMeshVertex
 10
2.067
 20
-9.47
 30
2.597
 70
    64
  0
VERTEX
  5
79D21
100
AcDbEntity
  8
0
100
AcDbVertex
100
AcDbPolygonMeshVertex
 10
2.067
 20
-9.47
 30
2.257
 70
    64
  0
VERTEX
  5
79D22
100
AcDbEntity
  8
0
100
AcDbVertex
100
AcDbPolygonMeshVertex
 10
2.067
 20
-8.53
 30
2.257
 70
    64
  0
VERTEX
  5
79D23
100
AcDbEntity
  8
0
100
AcDbVertex
100
AcDbPolygonMeshVertex
 10
2.067
 20
-9.47
 30
2.597
 70
    64
  0
VERTEX
  5
79D24
100
AcDbEntity
  8
0
100
AcDbVertex
100
AcDbPolygonMeshVertex
 10
2.067
 20
-9.47
 30
2.597
 70
    64
  0
VERTEX
  5
79D25
100
AcDbEntity
  8
0
100
AcDbVertex
100
AcDbPolygonMeshVertex
 10
2.067
 20
-8.53
 30
2.597
 70
    64
  0
VERTEX
  5
79D26
100
AcDbEntity
  8
0
100
AcDbVertex
100
AcDbPolygonMeshVertex
 10
2.567
 20
-9.47
 30
2.597
 70
    64
  0
VERTEX
  5
79D27
100
AcDbEntity
  8
0
100
AcDbVertex
100
AcDbPolygonMeshVertex
 10
2.567
 20
-9.47
 30
2.597
 70
    64
  0
VERTEX
  5
79D28
100
AcDbEntity
  8
0
100
AcDbVertex
100
AcDbPolygonMeshVertex
 10
2.567
 20
-8.53
 30
2.597
 70
    64
  0
SEQEND
  5
79D29
100
AcDbEntity
  8
0
  0
POLYLINE
  5
79D2A
100
AcDbEntity
  8
0
100
AcDbPolygonMesh
 66
     1
 10
0.0
 20
0.0
 30
0.0
 70
    16
 71
     6
 72
     3
  0
VERTEX
  5
79D2B
100
AcDbEntity
  8
0
100
AcDbVertex
100
AcDbPolygonMeshVertex
 10
1.007
 20
-8.53
 30
2.597
 70
    64
  0
VERTEX
  5
79D2C
100
AcDbEntity
  8
0
100
AcDbVertex
100
AcDbPolygonMeshVertex
 10
1.007
 20
-8.53
 30
2.257
 70
    64
  0
VERTEX
  5
79D2D
100
AcDbEntity
  8
0
100
AcDbVertex
100
AcDbPolygonMeshVertex
 10
1.007
 20
-8.53
 30
2.257
 70
    64
  0
VERTEX
  5
79D2E
100
AcDbEntity
  8
0
100
AcDbVertex
100
AcDbPolygonMeshVertex
 10
1.507
 20
-8.53
 30
2.597
 70
    64
  0
VERTEX
  5
79D2F
100
AcDbEntity
  8
0
100
AcDbVertex
100
AcDbPolygonMeshVertex
 10
1.507
 20
-8.53
 30
2.257
 70
    64
  0
VERTEX
  5
79D30
100
AcDbEntity
  8
0
100
AcDbVertex
100
AcDbPolygonMeshVertex
 10
1.507
 20
-8.53
 30
2.257
 70
    64
  0
VERTEX
  5
79D31
100
AcDbEntity
  8
0
100
AcDbVertex
100
AcDbPolygonMeshVertex
 10
1.507
 20
-9.47
 30
2.597
 70
    64
  0
VERTEX
  5
79D32
100
AcDbEntity
  8
0
100
AcDbVertex
100
AcDbPolygonMeshVertex
 10
1.507
 20
-9.47
 30
2.257
 70
    64
  0
VERTEX
  5
79D33
100
AcDbEntity
  8
0
100
AcDbVertex
100
AcDbPolygonMeshVertex
 10
1.507
 20
-8.53
 30
2.257
 70
    64
  0
VERTEX
  5
79D34
100
AcDbEntity
  8
0
100
AcDbVertex
100
AcDbPolygonMeshVertex
 10
1.007
 20
-9.47
 30
2.597
 70
    64
  0
VERTEX
  5
79D35
100
AcDbEntity
  8
0
100
AcDbVertex
100
AcDbPolygonMeshVertex
 10
1.007
 20
-9.47
 30
2.257
 70
    64
  0
VERTEX
  5
79D36
100
AcDbEntity
  8
0
100
AcDbVertex
100
AcDbPolygonMeshVertex
 10
1.007
 20
-8.53
 30
2.257
 70
    64
  0
VERTEX
  5
79D37
100
AcDbEntity
  8
0
100
AcDbVertex
100
AcDbPolygonMeshVertex
 10
1.007
 20
-9.47
 30
2.597
 70
    64
  0
VERTEX
  5
79D38
100
AcDbEntity
  8
0
100
AcDbVertex
100
AcDbPolygonMeshVertex
 10
1.007
 20
-9.47
 30
2.597
 70
    64
  0
VERTEX
  5
79D39
100
AcDbEntity
  8
0
100
AcDbVertex
100
AcDbPolygonMeshVertex
 10
1.007
 20
-8.53
 30
2.597
 70
    64
  0
VERTEX
  5
79D3A
100
AcDbEntity
  8
0
100
AcDbVertex
100
AcDbPolygonMeshVertex
 10
1.507
 20
-9.47
 30
2.597
 70
    64
  0
VERTEX
  5
79D3B
100
AcDbEntity
  8
0
100
AcDbVertex
100
AcDbPolygonMeshVertex
 10
1.507
 20
-9.47
 30
2.597
 70
    64
  0
VERTEX
  5
79D3C
100
AcDbEntity
  8
0
100
AcDbVertex
100
AcDbPolygonMeshVertex
 10
1.507
 20
-8.53
 30
2.597
 70
    64
  0
SEQEND
  5
79D3D
100
AcDbEntity
  8
0
  0
ARC
  5
79D3E
100
AcDbEntity
  8
0
100
AcDbCircle
 10
3.897
 20
-9.25
 30
0.197
 40
0.1
100
AcDbArc
 50
0.0
 51
179.999985
  0
ARC
  5
79D3F
100
AcDbEntity
  8
0
100
AcDbCircle
 10
3.897
 20
-9.25
 30
0.387
 40
0.1
100
AcDbArc
 50
0.0
 51
179.999985
  0
LINE
  5
79D40
100
AcDbEntity
  8
0
100
AcDbLine
 39
0.19
 10
3.797
 20
-9.25
 30
0.197
 11
3.797
 21
-9.46
 31
0.197
  0
3DFACE
  5
79D41
100
AcDbEntity
  8
0
100
AcDbFace
 10
3.997
 20
-9.25
 30
0.387
 11
3.997
 21
-9.25
 31
0.197
 12
3.997
 22
-9.46
 32
0.197
 13
3.997
 23
-9.46
 33
0.387
 70
    14
  0
LINE
  5
79D42
100
AcDbEntity
  8
0
100
AcDbLine
 10
3.797
 20
-9.46
 30
0.197
 11
3.797
 21
-9.46
 31
0.387
  0
LINE
  5
79D43
100
AcDbEntity
  8
0
100
AcDbLine
 10
3.797
 20
-9.25
 30
0.197
 11
3.797
 21
-9.25
 31
0.387
  0
LINE
  5
79D44
100
AcDbEntity
  8
0
100
AcDbLine
 10
3.997
 20
-9.25
 30
0.197
 11
3.997
 21
-9.25
 31
0.387
  0
LINE
  5
79D45
100
AcDbEntity
  8
0
100
AcDbLine
 10
3.997
 20
-9.46
 30
0.197
 11
3.997
 21
-9.46
 31
0.387
  0
LINE
  5
79D46
100
AcDbEntity
  8
0
100
AcDbLine
 10
3.997
 20
-9.46
 30
0.197
 11
3.997
 21
-9.25
 31
0.197
  0
LINE
  5
79D47
100
AcDbEntity
  8
0
100
AcDbLine
 10
3.797
 20
-9.25
 30
0.387
 11
3.797
 21
-9.46
 31
0.387
  0
LINE
  5
79D48
100
AcDbEntity
  8
0
100
AcDbLine
 10
3.997
 20
-9.46
 30
0.387
 11
3.997
 21
-9.25
 31
0.387
  0
TEXT
  5
79D49
100
AcDbEntity
  8
0
100
AcDbText
 10
3.282379
 20
-9.280402
 30
2.727
 40
0.12
  1
T3
100
AcDbText
  0
TEXT
  5
79D4A
100
AcDbEntity
  8
0
100
AcDbText
 10
2.220857
 20
-9.280175
 30
2.727
 40
0.12
  1
T2
100
AcDbText
  0
TEXT
  5
79D4B
100
AcDbEntity
  8
0
100
AcDbText
 10
1.181543
 20
-9.284387
 30
2.727
 40
0.12
  1
T1
100
AcDbText
  0
CIRCLE
  5
79D4C
100
AcDbEntity
  8
0
100
AcDbCircle
 10
3.377
 20
-9.22
 30
2.727
 40
0.125
  0
CIRCLE
  5
79D4D
100
AcDbEntity
  8
0
100
AcDbCircle
 10
3.377
 20
-9.22
 30
2.727
 40
0.155
  0
CIRCLE
  5
79D4E
100
AcDbEntity
  8
0
100
AcDbCircle
 10
2.317
 20
-9.22
 30
2.727
 40
0.125
  0
CIRCLE
  5
79D4F
100
AcDbEntity
  8
0
100
AcDbCircle
 10
2.317
 20
-9.22
 30
2.727
 40
0.155
  0
CIRCLE
  5
79D50
100
AcDbEntity
  8
0
100
AcDbCircle
 10
1.257
 20
-9.22
 30
2.727
 40
0.125
  0
CIRCLE
  5
79D51
100
AcDbEntity
  8
0
100
AcDbCircle
 10
1.257
 20
-9.22
 30
2.727
 40
0.155
  0
LINE
  5
79D52
100
AcDbEntity
  8
0
100
AcDbLine
 10
2.097
 20
-6.625
 30
4.577
 11
2.037
 21
-6.75
 31
4.077
  0
LINE
  5
79D53
100
AcDbEntity
  8
0
100
AcDbLine
 10
2.097
 20
-7.375
 30
4.577
 11
2.037
 21
-7.25
 31
4.077
  0
3DFACE
  5
79D54
100
AcDbEntity
  8
0
100
AcDbFace
 10
2.097
 20
-6.625
 30
4.577
 11
2.037
 21
-6.75
 31
4.077
 12
2.037
 22
-7.25
 32
4.077
 13
2.097
 23
-7.375
 33
4.577
 70
    14
  0
LINE
  5
79D55
100
AcDbEntity
  8
0
100
AcDbLine
 10
1.477
 20
-6.625
 30
4.577
 11
1.537
 21
-6.75
 31
4.077
  0
LINE
  5
79D56
100
AcDbEntity
  8
0
100
AcDbLine
 10
1.477
 20
-7.375
 30
4.577
 11
1.537
 21
-7.25
 31
4.077
  0
3DFACE
  5
79D57
100
AcDbEntity
  8
0
100
AcDbFace
 10
1.537
 20
-7.25
 30
4.077
 11
1.537
 21
-6.75
 31
4.077
 12
1.477
 22
-6.625
 32
4.577
 13
1.477
 23
-7.375
 33
4.577
 70
    14
  0
3DFACE
  5
79D58
100
AcDbEntity
  8
0
100
AcDbFace
 10
1.537
 20
-7.25
 30
4.077
 11
2.037
 21
-7.25
 31
4.077
 12
2.097
 22
-7.375
 32
4.577
 13
1.477
 23
-7.375
 33
4.577
 70
    14
  0
3DFACE
  5
79D59
100
AcDbEntity
  8
0
100
AcDbFace
 10
2.097
 20
-6.625
 30
4.577
 11
1.477
 21
-6.625
 31
4.577
 12
1.537
 22
-6.75
 32
4.077
 13
2.037
 23
-6.75
 33
4.077
 70
    14
  0
LINE
  5
79D5A
100
AcDbEntity
  8
0
100
AcDbLine
 10
1.537
 20
-7.25
 30
4.077
 11
2.037
 21
-7.25
 31
4.077
  0
LINE
  5
79D5B
100
AcDbEntity
  8
0
100
AcDbLine
 10
2.037
 20
-6.75
 30
4.077
 11
1.537
 21
-6.75
 31
4.077
  0
LINE
  5
79D5C
100
AcDbEntity
  8
0
100
AcDbLine
 10
1.537
 20
-6.75
 30
4.077
 11
1.537
 21
-7.25
 31
4.077
  0
LINE
  5
79D5D
100
AcDbEntity
  8
0
100
AcDbLine
 10
2.037
 20
-7.25
 30
4.077
 11
2.037
 21
-6.75
 31
4.077
  0
3DFACE
  5
79D5E
100
AcDbEntity
  8
0
100
AcDbFace
 10
1.917
 20
-6.87
 30
3.757
 11
1.917
 21
-7.13
 31
3.757
 12
1.917
 22
-7.13
 32
4.077
 13
1.917
 23
-6.87
 33
4.077
 70
    14
  0
3DFACE
  5
79D5F
100
AcDbEntity
  8
0
100
AcDbFace
 10
1.917
 20
-6.87
 30
3.757
 11
1.917
 21
-7.13
 31
3.757
 12
1.917
 22
-7.13
 32
4.077
 13
1.917
 23
-6.87
 33
4.077
 70
    14
  0
LINE
  5
79D60
100
AcDbEntity
  8
0
100
AcDbLine
 10
1.917
 20
-7.13
 30
4.077
 11
1.917
 21
-7.13
 31
3.757
  0
LINE
  5
79D61
100
AcDbEntity
  8
0
100
AcDbLine
 10
1.917
 20
-6.87
 30
4.077
 11
1.917
 21
-6.87
 31
3.757
  0
3DFACE
  5
79D62
100
AcDbEntity
  8
0
100
AcDbFace
 10
1.657
 20
-7.13
 30
3.757
 11
1.657
 21
-6.87
 31
3.757
 12
1.657
 22
-6.87
 32
4.077
 13
1.657
 23
-7.13
 33
4.077
 70
    14
  0
LINE
  5
79D63
100
AcDbEntity
  8
0
100
AcDbLine
 10
1.657
 20
-7.13
 30
4.077
 11
1.657
 21
-7.13
 31
3.757
  0
LINE
  5
79D64
100
AcDbEntity
  8
0
100
AcDbLine
 10
1.657
 20
-6.87
 30
4.077
 11
1.657
 21
-6.87
 31
3.757
  0
3DFACE
  5
79D65
100
AcDbEntity
  8
0
100
AcDbFace
 10
1.917
 20
-7.13
 30
3.757
 11
1.917
 21
-7.13
 31
4.077
 12
1.657
 22
-7.13
 32
4.077
 13
1.657
 23
-7.13
 33
3.757
 70
    14
  0
3DFACE
  5
79D66
100
AcDbEntity
  8
0
100
AcDbFace
 10
1.657
 20
-6.87
 30
3.757
 11
1.917
 21
-6.87
 31
3.757
 12
1.917
 22
-6.87
 32
4.077
 13
1.657
 23
-6.87
 33
4.077
 70
    14
  0
LINE
  5
79D67
100
AcDbEntity
  8
0
100
AcDbLine
 10
1.657
 20
-7.13
 30
3.757
 11
1.917
 21
-7.13
 31
3.757
  0
LINE
  5
79D68
100
AcDbEntity
  8
0
100
AcDbLine
 10
1.917
 20
-6.87
 30
3.757
 11
1.657
 21
-6.87
 31
3.757
  0
LINE
  5
79D69
100
AcDbEntity
  8
0
100
AcDbLine
 10
1.657
 20
-6.87
 30
3.757
 11
1.657
 21
-7.13
 31
3.757
  0
LINE
  5
79D6A
100
AcDbEntity
  8
0
100
AcDbLine
 10
1.917
 20
-7.13
 30
3.757
 11
1.917
 21
-6.87
 31
3.757
  0
LINE
  5
79D6B
100
AcDbEntity
  8
0
100
AcDbLine
 10
1.657
 20
-7.13
 30
4.077
 11
1.917
 21
-7.13
 31
4.077
  0
LINE
  5
79D6C
100
AcDbEntity
  8
0
100
AcDbLine
 10
1.917
 20
-6.87
 30
4.077
 11
1.657
 21
-6.87
 31
4.077
  0
LINE
  5
79D6D
100
AcDbEntity
  8
0
100
AcDbLine
 10
1.657
 20
-6.87
 30
4.077
 11
1.657
 21
-7.13
 31
4.077
  0
LINE
  5
79D6E
100
AcDbEntity
  8
0
100
AcDbLine
 10
1.917
 20
-7.13
 30
4.077
 11
1.917
 21
-6.87
 31
4.077
  0
3DFACE
  5
79D6F
100
AcDbEntity
  8
0
100
AcDbFace
 10
2.097
 20
-7.375
 30
4.697
 11
2.097
 21
-6.625
 31
4.697
 12
1.477
 22
-6.625
 32
4.697
 13
1.477
 23
-7.375
 33
4.697
 70
    14
  0
3DFACE
  5
79D70
100
AcDbEntity
  8
0
100
AcDbFace
 10
1.477
 20
-7.375
 30
4.577
 11
2.097
 21
-7.375
 31
4.577
 12
2.097
 22
-7.375
 32
4.697
 13
1.477
 23
-7.375
 33
4.697
 70
    14
  0
LINE
  5
79D71
100
AcDbEntity
  8
0
100
AcDbLine
 10
1.477
 20
-7.375
 30
4.697
 11
2.097
 21
-7.375
 31
4.697
  0
LINE
  5
79D72
100
AcDbEntity
  8
0
100
AcDbLine
 10
1.477
 20
-7.375
 30
4.577
 11
2.097
 21
-7.375
 31
4.577
  0
3DFACE
  5
79D73
100
AcDbEntity
  8
0
100
AcDbFace
 10
2.097
 20
-6.625
 30
4.697
 11
2.097
 21
-6.625
 31
4.577
 12
1.477
 22
-6.625
 32
4.577
 13
1.477
 23
-6.625
 33
4.697
 70
    14
  0
LINE
  5
79D74
100
AcDbEntity
  8
0
100
AcDbLine
 10
2.097
 20
-6.625
 30
4.697
 11
1.477
 21
-6.625
 31
4.697
  0
LINE
  5
79D75
100
AcDbEntity
  8
0
100
AcDbLine
 10
2.097
 20
-6.625
 30
4.577
 11
1.477
 21
-6.625
 31
4.577
  0
3DFACE
  5
79D76
100
AcDbEntity
  8
0
100
AcDbFace
 10
1.477
 20
-7.375
 30
4.577
 11
1.477
 21
-7.375
 31
4.697
 12
1.477
 22
-6.625
 32
4.697
 13
1.477
 23
-6.625
 33
4.577
 70
    14
  0
LINE
  5
79D77
100
AcDbEntity
  8
0
100
AcDbLine
 10
1.477
 20
-6.625
 30
4.697
 11
1.477
 21
-7.375
 31
4.697
  0
LINE
  5
79D78
100
AcDbEntity
  8
0
100
AcDbLine
 10
1.477
 20
-6.625
 30
4.577
 11
1.477
 21
-7.375
 31
4.577
  0
LINE
  5
79D79
100
AcDbEntity
  8
0
100
AcDbLine
 10
1.477
 20
-7.375
 30
4.697
 11
1.477
 21
-7.375
 31
4.577
  0
LINE
  5
79D7A
100
AcDbEntity
  8
0
100
AcDbLine
 10
1.477
 20
-6.625
 30
4.697
 11
1.477
 21
-6.625
 31
4.577
  0
3DFACE
  5
79D7B
100
AcDbEntity
  8
0
100
AcDbFace
 10
2.097
 20
-7.375
 30
4.697
 11
2.097
 21
-6.625
 31
4.697
 12
2.097
 22
-6.625
 32
4.577
 13
2.097
 23
-7.375
 33
4.577
 70
    14
  0
LINE
  5
79D7C
100
AcDbEntity
  8
0
100
AcDbLine
 10
2.097
 20
-7.375
 30
4.697
 11
2.097
 21
-6.625
 31
4.697
  0
LINE
  5
79D7D
100
AcDbEntity
  8
0
100
AcDbLine
 10
2.097
 20
-7.375
 30
4.577
 11
2.097
 21
-6.625
 31
4.577
  0
LINE
  5
79D7E
100
AcDbEntity
  8
0
100
AcDbLine
 10
2.097
 20
-7.375
 30
4.697
 11
2.097
 21
-7.375
 31
4.577
  0
LINE
  5
79D7F
100
AcDbEntity
  8
0
100
AcDbLine
 10
2.097
 20
-6.625
 30
4.697
 11
2.097
 21
-6.625
 31
4.577
  0
3DFACE
  5
79D80
100
AcDbEntity
  8
0
100
AcDbFace
 10
0.967
 20
-0.31
 30
0.387
 11
0.967
 21
-0.31
 31
0.197
 12
3.667
 22
-0.31
 32
0.197
 13
3.667
 23
-0.31
 33
0.387
  0
3DFACE
  5
79D81
100
AcDbEntity
  8
0
100
AcDbFace
 10
0.347
 20
-0.93
 30
0.197
 11
0.967
 21
-0.31
 31
0.197
 12
3.667
 22
-0.31
 32
0.197
 13
4.287
 23
-0.93
 33
0.197
  0
3DFACE
  5
79D82
100
AcDbEntity
  8
0
100
AcDbFace
 10
0.347
 20
-0.93
 30
0.387
 11
0.967
 21
-0.31
 31
0.387
 12
3.667
 22
-0.31
 32
0.387
 13
4.287
 23
-0.93
 33
0.387
  0
3DFACE
  5
79D83
100
AcDbEntity
  8
0
100
AcDbFace
 10
0.967
 20
-0.31
 30
0.197
 11
0.967
 21
-0.31
 31
0.387
 12
0.347
 22
-0.93
 32
0.387
 13
0.347
 23
-0.93
 33
0.197
  0
ARC
  5
79D84
100
AcDbEntity
  8
0
100
AcDbCircle
 10
2.317
 20
-0.59
 30
0.387
 40
0.1
100
AcDbArc
 50
0.0
 51
179.999985
  0
ARC
  5
79D85
100
AcDbEntity
  8
0
100
AcDbCircle
 10
2.317
 20
-0.59
 30
0.197
 40
0.1
100
AcDbArc
 50
0.0
 51
179.999985
  0
ARC
  5
79D86
100
AcDbEntity
  8
0
100
AcDbCircle
 10
2.317
 20
-0.933
 30
0.197
 40
0.234
100
AcDbArc
 50
115.299522
 51
64.70047
  0
ARC
  5
79D87
100
AcDbEntity
  8
0
100
AcDbCircle
 10
2.317
 20
-0.933
 30
0.387
 40
0.234
100
AcDbArc
 50
115.299522
 51
64.70047
  0
LINE
  5
79D88
100
AcDbEntity
  8
0
100
AcDbLine
 10
2.217
 20
-0.59
 30
0.197
 11
2.217
 21
-0.59
 31
0.387
  0
LINE
  5
79D89
100
AcDbEntity
  8
0
100
AcDbLine
 10
2.217
 20
-0.721444
 30
0.197
 11
2.217
 21
-0.721444
 31
0.387
  0
LINE
  5
79D8A
100
AcDbEntity
  8
0
100
AcDbLine
 10
2.217
 20
-0.59
 30
0.197
 11
2.217
 21
-0.721444
 31
0.197
  0
LINE
  5
79D8B
100
AcDbEntity
  8
0
100
AcDbLine
 10
2.217
 20
-0.59
 30
0.387
 11
2.217
 21
-0.721444
 31
0.387
  0
LINE
  5
79D8C
100
AcDbEntity
  8
0
100
AcDbLine
 10
2.7985
 20
-0.59
 30
0.197
 11
2.7985
 21
-0.59
 31
0.387
  0
LINE
  5
79D8D
100
AcDbEntity
  8
0
100
AcDbLine
 10
2.417
 20
-0.59
 30
0.197
 11
2.417
 21
-0.59
 31
0.387
  0
LINE
  5
79D8E
100
AcDbEntity
  8
0
100
AcDbLine
 10
2.417
 20
-0.721444
 30
0.197
 11
2.417
 21
-0.721444
 31
0.387
  0
CIRCLE
  5
79D8F
100
AcDbEntity
  8
0
100
AcDbCircle
 10
2.697
 20
-0.59
 30
0.197
 40
0.1015
  0
LINE
  5
79D90
100
AcDbEntity
  8
0
100
AcDbLine
 10
2.417
 20
-0.59
 30
0.197
 11
2.417
 21
-0.721444
 31
0.197
  0
CIRCLE
  5
79D91
100
AcDbEntity
  8
0
100
AcDbCircle
 10
2.697
 20
-0.59
 30
0.387
 40
0.1015
  0
LINE
  5
79D92
100
AcDbEntity
  8
0
100
AcDbLine
 10
2.417
 20
-0.59
 30
0.387
 11
2.417
 21
-0.721444
 31
0.387
  0
3DFACE
  5
79D93
100
AcDbEntity
  8
0
100
AcDbFace
 10
3.667
 20
-0.31
 30
0.387
 11
3.667
 21
-0.31
 31
0.197
 12
4.287
 22
-0.93
 32
0.197
 13
4.287
 23
-0.93
 33
0.387
  0
POLYLINE
  5
79D94
100
AcDbEntity
  8
0
100
AcDbPolygonMesh
 66
     1
 10
0.0
 20
0.0
 30
0.0
 70
    16
 71
     6
 72
     3
  0
VERTEX
  5
79D95
100
AcDbEntity
  8
0
100
AcDbVertex
100
AcDbPolygonMeshVertex
 10
4.227
 20
-2.19
 30
4.197
 70
    64
  0
VERTEX
  5
79D96
100
AcDbEntity
  8
0
100
AcDbVertex
100
AcDbPolygonMeshVertex
 10
4.227
 20
-2.19
 30
3.887
 70
    64
  0
VERTEX
  5
79D97
100
AcDbEntity
  8
0
100
AcDbVertex
100
AcDbPolygonMeshVertex
 10
4.227
 20
-2.19
 30
3.887
 70
    64
  0
VERTEX
  5
79D98
100
AcDbEntity
  8
0
100
AcDbVertex
100
AcDbPolygonMeshVertex
 10
0.407
 20
-2.19
 30
4.197
 70
    64
  0
VERTEX
  5
79D99
100
AcDbEntity
  8
0
100
AcDbVertex
100
AcDbPolygonMeshVertex
 10
0.407
 20
-2.19
 30
3.887
 70
    64
  0
VERTEX
  5
79D9A
100
AcDbEntity
  8
0
100
AcDbVertex
100
AcDbPolygonMeshVertex
 10
0.407
 20
-2.19
 30
3.887
 70
    64
  0
VERTEX
  5
79D9B
100
AcDbEntity
  8
0
100
AcDbVertex
100
AcDbPolygonMeshVertex
 10
0.407
 20
-1.5
 30
4.197
 70
    64
  0
VERTEX
  5
79D9C
100
AcDbEntity
  8
0
100
AcDbVertex
100
AcDbPolygonMeshVertex
 10
0.407
 20
-1.5
 30
3.887
 70
    64
  0
VERTEX
  5
79D9D
100
AcDbEntity
  8
0
100
AcDbVertex
100
AcDbPolygonMeshVertex
 10
0.407
 20
-2.19
 30
3.887
 70
    64
  0
VERTEX
  5
79D9E
100
AcDbEntity
  8
0
100
AcDbVertex
100
AcDbPolygonMeshVertex
 10
4.227
 20
-1.5
 30
4.197
 70
    64
  0
VERTEX
  5
79D9F
100
AcDbEntity
  8
0
100
AcDbVertex
100
AcDbPolygonMeshVertex
 10
4.227
 20
-1.5
 30
3.887
 70
    64
  0
VERTEX
  5
79DA0
100
AcDbEntity
  8
0
100
AcDbVertex
100
AcDbPolygonMeshVertex
 10
4.227
 20
-2.19
 30
3.887
 70
    64
  0
VERTEX
  5
79DA1
100
AcDbEntity
  8
0
100
AcDbVertex
100
AcDbPolygonMeshVertex
 10
4.227
 20
-1.5
 30
4.197
 70
    64
  0
VERTEX
  5
79DA2
100
AcDbEntity
  8
0
100
AcDbVertex
100
AcDbPolygonMeshVertex
 10
4.227
 20
-1.5
 30
4.197
 70
    64
  0
VERTEX
  5
79DA3
100
AcDbEntity
  8
0
100
AcDbVertex
100
AcDbPolygonMeshVertex
 10
4.227
 20
-2.19
 30
4.197
 70
    64
  0
VERTEX
  5
79DA4
100
AcDbEntity
  8
0
100
AcDbVertex
100
AcDbPolygonMeshVertex
 10
0.407
 20
-1.5
 30
4.197
 70
    64
  0
VERTEX
  5
79DA5
100
AcDbEntity
  8
0
100
AcDbVertex
100
AcDbPolygonMeshVertex
 10
0.407
 20
-1.5
 30
4.197
 70
    64
  0
VERTEX
  5
79DA6
100
AcDbEntity
  8
0
100
AcDbVertex
100
AcDbPolygonMeshVertex
 10
0.407
 20
-2.19
 30
4.197
 70
    64
  0
SEQEND
  5
79DA7
100
AcDbEntity
  8
0
  0
POLYLINE
  5
79DA8
100
AcDbEntity
  8
0
100
AcDbPolygonMesh
 66
     1
 10
0.0
 20
0.0
 30
0.0
 70
    16
 71
     6
 72
     3
  0
VERTEX
  5
79DA9
100
AcDbEntity
  8
0
100
AcDbVertex
100
AcDbPolygonMeshVertex
 10
4.227
 20
-3.28
 30
4.027
 70
    64
  0
VERTEX
  5
79DAA
100
AcDbEntity
  8
0
100
AcDbVertex
100
AcDbPolygonMeshVertex
 10
4.227
 20
-3.28
 30
3.887
 70
    64
  0
VERTEX
  5
79DAB
100
AcDbEntity
  8
0
100
AcDbVertex
100
AcDbPolygonMeshVertex
 10
4.227
 20
-3.28
 30
3.887
 70
    64
  0
VERTEX
  5
79DAC
100
AcDbEntity
  8
0
100
AcDbVertex
100
AcDbPolygonMeshVertex
 10
0.407
 20
-3.28
 30
4.027
 70
    64
  0
VERTEX
  5
79DAD
100
AcDbEntity
  8
0
100
AcDbVertex
100
AcDbPolygonMeshVertex
 10
0.407
 20
-3.28
 30
3.887
 70
    64
  0
VERTEX
  5
79DAE
100
AcDbEntity
  8
0
100
AcDbVertex
100
AcDbPolygonMeshVertex
 10
0.407
 20
-3.28
 30
3.887
 70
    64
  0
VERTEX
  5
79DAF
100
AcDbEntity
  8
0
100
AcDbVertex
100
AcDbPolygonMeshVertex
 10
0.407
 20
-2.19
 30
4.027
 70
    64
  0
VERTEX
  5
79DB0
100
AcDbEntity
  8
0
100
AcDbVertex
100
AcDbPolygonMeshVertex
 10
0.407
 20
-2.19
 30
3.887
 70
    64
  0
VERTEX
  5
79DB1
100
AcDbEntity
  8
0
100
AcDbVertex
100
AcDbPolygonMeshVertex
 10
0.407
 20
-3.28
 30
3.887
 70
    64
  0
VERTEX
  5
79DB2
100
AcDbEntity
  8
0
100
AcDbVertex
100
AcDbPolygonMeshVertex
 10
4.227
 20
-2.19
 30
4.027
 70
    64
  0
VERTEX
  5
79DB3
100
AcDbEntity
  8
0
100
AcDbVertex
100
AcDbPolygonMeshVertex
 10
4.227
 20
-2.19
 30
3.887
 70
    64
  0
VERTEX
  5
79DB4
100
AcDbEntity
  8
0
100
AcDbVertex
100
AcDbPolygonMeshVertex
 10
4.227
 20
-3.28
 30
3.887
 70
    64
  0
VERTEX
  5
79DB5
100
AcDbEntity
  8
0
100
AcDbVertex
100
AcDbPolygonMeshVertex
 10
4.227
 20
-2.19
 30
4.027
 70
    64
  0
VERTEX
  5
79DB6
100
AcDbEntity
  8
0
100
AcDbVertex
100
AcDbPolygonMeshVertex
 10
4.227
 20
-2.19
 30
4.027
 70
    64
  0
VERTEX
  5
79DB7
100
AcDbEntity
  8
0
100
AcDbVertex
100
AcDbPolygonMeshVertex
 10
4.227
 20
-3.28
 30
4.027
 70
    64
  0
VERTEX
  5
79DB8
100
AcDbEntity
  8
0
100
AcDbVertex
100
AcDbPolygonMeshVertex
 10
0.407
 20
-2.19
 30
4.027
 70
    64
  0
VERTEX
  5
79DB9
100
AcDbEntity
  8
0
100
AcDbVertex
100
AcDbPolygonMeshVertex
 10
0.407
 20
-2.19
 30
4.027
 70
    64
  0
VERTEX
  5
79DBA
100
AcDbEntity
  8
0
100
AcDbVertex
100
AcDbPolygonMeshVertex
 10
0.407
 20
-3.28
 30
4.027
 70
    64
  0
SEQEND
  5
79DBB
100
AcDbEntity
  8
0
  0
LINE
  5
79DBC
100
AcDbEntity
  8
0
100
AcDbLine
 10
0.407
 20
-3.28
 30
3.887
 11
0.407
 21
-1.5
 31
3.887
  0
LINE
  5
79DBD
100
AcDbEntity
  8
0
100
AcDbLine
 10
0.407
 20
-2.19
 30
4.027
 11
0.407
 21
-2.19
 31
3.887
  0
POLYLINE
  5
79DBE
100
AcDbEntity
  8
0
100
AcDbPolygonMesh
 66
     1
 10
0.0
 20
0.0
 30
0.0
 70
    16
 71
     6
 72
     3
  0
VERTEX
  5
79DBF
100
AcDbEntity
  8
0
100
AcDbVertex
100
AcDbPolygonMeshVertex
 10
3.257
 20
-5.12
 30
4.197
 70
    64
  0
VERTEX
  5
79DC0
100
AcDbEntity
  8
0
100
AcDbVertex
100
AcDbPolygonMeshVertex
 10
3.257
 20
-5.12
 30
3.887
 70
    64
  0
VERTEX
  5
79DC1
100
AcDbEntity
  8
0
100
AcDbVertex
100
AcDbPolygonMeshVertex
 10
3.257
 20
-5.12
 30
3.887
 70
    64
  0
VERTEX
  5
79DC2
100
AcDbEntity
  8
0
100
AcDbVertex
100
AcDbPolygonMeshVertex
 10
1.377
 20
-5.12
 30
4.197
 70
    64
  0
VERTEX
  5
79DC3
100
AcDbEntity
  8
0
100
AcDbVertex
100
AcDbPolygonMeshVertex
 10
1.377
 20
-5.12
 30
3.887
 70
    64
  0
VERTEX
  5
79DC4
100
AcDbEntity
  8
0
100
AcDbVertex
100
AcDbPolygonMeshVertex
 10
1.377
 20
-5.12
 30
3.887
 70
    64
  0
VERTEX
  5
79DC5
100
AcDbEntity
  8
0
100
AcDbVertex
100
AcDbPolygonMeshVertex
 10
1.377
 20
-4.29
 30
4.197
 70
    64
  0
VERTEX
  5
79DC6
100
AcDbEntity
  8
0
100
AcDbVertex
100
AcDbPolygonMeshVertex
 10
1.377
 20
-4.29
 30
3.887
 70
    64
  0
VERTEX
  5
79DC7
100
AcDbEntity
  8
0
100
AcDbVertex
100
AcDbPolygonMeshVertex
 10
1.377
 20
-5.12
 30
3.887
 70
    64
  0
VERTEX
  5
79DC8
100
AcDbEntity
  8
0
100
AcDbVertex
100
AcDbPolygonMeshVertex
 10
3.257
 20
-4.29
 30
4.197
 70
    64
  0
VERTEX
  5
79DC9
100
AcDbEntity
  8
0
100
AcDbVertex
100
AcDbPolygonMeshVertex
 10
3.257
 20
-4.29
 30
3.887
 70
    64
  0
VERTEX
  5
79DCA
100
AcDbEntity
  8
0
100
AcDbVertex
100
AcDbPolygonMeshVertex
 10
3.257
 20
-5.12
 30
3.887
 70
    64
  0
VERTEX
  5
79DCB
100
AcDbEntity
  8
0
100
AcDbVertex
100
AcDbPolygonMeshVertex
 10
3.257
 20
-4.29
 30
4.197
 70
    64
  0
VERTEX
  5
79DCC
100
AcDbEntity
  8
0
100
AcDbVertex
100
AcDbPolygonMeshVertex
 10
3.257
 20
-4.29
 30
4.197
 70
    64
  0
VERTEX
  5
79DCD
100
AcDbEntity
  8
0
100
AcDbVertex
100
AcDbPolygonMeshVertex
 10
3.257
 20
-5.12
 30
4.197
 70
    64
  0
VERTEX
  5
79DCE
100
AcDbEntity
  8
0
100
AcDbVertex
100
AcDbPolygonMeshVertex
 10
1.377
 20
-4.29
 30
4.197
 70
    64
  0
VERTEX
  5
79DCF
100
AcDbEntity
  8
0
100
AcDbVertex
100
AcDbPolygonMeshVertex
 10
1.377
 20
-4.29
 30
4.197
 70
    64
  0
VERTEX
  5
79DD0
100
AcDbEntity
  8
0
100
AcDbVertex
100
AcDbPolygonMeshVertex
 10
1.377
 20
-5.12
 30
4.197
 70
    64
  0
SEQEND
  5
79DD1
100
AcDbEntity
  8
0
  0
POLYLINE
  5
79DD2
100
AcDbEntity
  8
0
100
AcDbPolygonMesh
 66
     1
 10
0.0
 20
0.0
 30
0.0
 70
    16
 71
     6
 72
     3
  0
VERTEX
  5
79DD3
100
AcDbEntity
  8
0
100
AcDbVertex
100
AcDbPolygonMeshVertex
 10
2.037
 20
-4.82
 30
4.517
 70
    64
  0
VERTEX
  5
79DD4
100
AcDbEntity
  8
0
100
AcDbVertex
100
AcDbPolygonMeshVertex
 10
2.037
 20
-4.82
 30
4.197
 70
    64
  0
VERTEX
  5
79DD5
100
AcDbEntity
  8
0
100
AcDbVertex
100
AcDbPolygonMeshVertex
 10
2.037
 20
-4.82
 30
4.197
 70
    64
  0
VERTEX
  5
79DD6
100
AcDbEntity
  8
0
100
AcDbVertex
100
AcDbPolygonMeshVertex
 10
1.657
 20
-4.82
 30
4.517
 70
    64
  0
VERTEX
  5
79DD7
100
AcDbEntity
  8
0
100
AcDbVertex
100
AcDbPolygonMeshVertex
 10
1.657
 20
-4.82
 30
4.197
 70
    64
  0
VERTEX
  5
79DD8
100
AcDbEntity
  8
0
100
AcDbVertex
100
AcDbPolygonMeshVertex
 10
1.657
 20
-4.82
 30
4.197
 70
    64
  0
VERTEX
  5
79DD9
100
AcDbEntity
  8
0
100
AcDbVertex
100
AcDbPolygonMeshVertex
 10
1.657
 20
-4.38
 30
4.517
 70
    64
  0
VERTEX
  5
79DDA
100
AcDbEntity
  8
0
100
AcDbVertex
100
AcDbPolygonMeshVertex
 10
1.657
 20
-4.38
 30
4.197
 70
    64
  0
VERTEX
  5
79DDB
100
AcDbEntity
  8
0
100
AcDbVertex
100
AcDbPolygonMeshVertex
 10
1.657
 20
-4.82
 30
4.197
 70
    64
  0
VERTEX
  5
79DDC
100
AcDbEntity
  8
0
100
AcDbVertex
100
AcDbPolygonMeshVertex
 10
2.037
 20
-4.38
 30
4.517
 70
    64
  0
VERTEX
  5
79DDD
100
AcDbEntity
  8
0
100
AcDbVertex
100
AcDbPolygonMeshVertex
 10
2.037
 20
-4.38
 30
4.197
 70
    64
  0
VERTEX
  5
79DDE
100
AcDbEntity
  8
0
100
AcDbVertex
100
AcDbPolygonMeshVertex
 10
2.037
 20
-4.82
 30
4.197
 70
    64
  0
VERTEX
  5
79DDF
100
AcDbEntity
  8
0
100
AcDbVertex
100
AcDbPolygonMeshVertex
 10
2.037
 20
-4.38
 30
4.517
 70
    64
  0
VERTEX
  5
79DE0
100
AcDbEntity
  8
0
100
AcDbVertex
100
AcDbPolygonMeshVertex
 10
2.037
 20
-4.38
 30
4.517
 70
    64
  0
VERTEX
  5
79DE1
100
AcDbEntity
  8
0
100
AcDbVertex
100
AcDbPolygonMeshVertex
 10
2.037
 20
-4.82
 30
4.517
 70
    64
  0
VERTEX
  5
79DE2
100
AcDbEntity
  8
0
100
AcDbVertex
100
AcDbPolygonMeshVertex
 10
1.657
 20
-4.38
 30
4.517
 70
    64
  0
VERTEX
  5
79DE3
100
AcDbEntity
  8
0
100
AcDbVertex
100
AcDbPolygonMeshVertex
 10
1.657
 20
-4.38
 30
4.517
 70
    64
  0
VERTEX
  5
79DE4
100
AcDbEntity
  8
0
100
AcDbVertex
100
AcDbPolygonMeshVertex
 10
1.657
 20
-4.82
 30
4.517
 70
    64
  0
SEQEND
  5
79DE5
100
AcDbEntity
  8
0
  0
CIRCLE
  5
79DE6
100
AcDbEntity
  8
0
100
AcDbCircle
 10
1.847
 20
-4.63
 30
4.517
 40
0.095
  0
LINE
  5
79DE7
100
AcDbEntity
  8
0
100
AcDbLine
 10
1.814773
 20
-4.540356
 30
4.517
 11
1.866661
 21
-4.72281
 31
4.517
  0
LINE
  5
79DE8
100
AcDbEntity
  8
0
100
AcDbLine
 10
1.826287
 20
-4.537285
 30
4.517
 11
1.878174
 21
-4.71974
 31
4.517
  0
POLYLINE
  5
79DE9
100
AcDbEntity
  8
0
100
AcDbPolygonMesh
 66
     1
 10
0.0
 20
0.0
 30
0.0
 70
    16
 71
     6
 72
     3
  0
VERTEX
  5
79DEA
100
AcDbEntity
  8
0
100
AcDbVertex
100
AcDbPolygonMeshVertex
 10
2.977
 20
-4.82
 30
4.517
 70
    64
  0
VERTEX
  5
79DEB
100
AcDbEntity
  8
0
100
AcDbVertex
100
AcDbPolygonMeshVertex
 10
2.977
 20
-4.82
 30
4.197
 70
    64
  0
VERTEX
  5
79DEC
100
AcDbEntity
  8
0
100
AcDbVertex
100
AcDbPolygonMeshVertex
 10
2.977
 20
-4.82
 30
4.197
 70
    64
  0
VERTEX
  5
79DED
100
AcDbEntity
  8
0
100
AcDbVertex
100
AcDbPolygonMeshVertex
 10
2.597
 20
-4.82
 30
4.517
 70
    64
  0
VERTEX
  5
79DEE
100
AcDbEntity
  8
0
100
AcDbVertex
100
AcDbPolygonMeshVertex
 10
2.597
 20
-4.82
 30
4.197
 70
    64
  0
VERTEX
  5
79DEF
100
AcDbEntity
  8
0
100
AcDbVertex
100
AcDbPolygonMeshVertex
 10
2.597
 20
-4.82
 30
4.197
 70
    64
  0
VERTEX
  5
79DF0
100
AcDbEntity
  8
0
100
AcDbVertex
100
AcDbPolygonMeshVertex
 10
2.597
 20
-4.38
 30
4.517
 70
    64
  0
VERTEX
  5
79DF1
100
AcDbEntity
  8
0
100
AcDbVertex
100
AcDbPolygonMeshVertex
 10
2.597
 20
-4.38
 30
4.197
 70
    64
  0
VERTEX
  5
79DF2
100
AcDbEntity
  8
0
100
AcDbVertex
100
AcDbPolygonMeshVertex
 10
2.597
 20
-4.82
 30
4.197
 70
    64
  0
VERTEX
  5
79DF3
100
AcDbEntity
  8
0
100
AcDbVertex
100
AcDbPolygonMeshVertex
 10
2.977
 20
-4.38
 30
4.517
 70
    64
  0
VERTEX
  5
79DF4
100
AcDbEntity
  8
0
100
AcDbVertex
100
AcDbPolygonMeshVertex
 10
2.977
 20
-4.38
 30
4.197
 70
    64
  0
VERTEX
  5
79DF5
100
AcDbEntity
  8
0
100
AcDbVertex
100
AcDbPolygonMeshVertex
 10
2.977
 20
-4.82
 30
4.197
 70
    64
  0
VERTEX
  5
79DF6
100
AcDbEntity
  8
0
100
AcDbVertex
100
AcDbPolygonMeshVertex
 10
2.977
 20
-4.38
 30
4.517
 70
    64
  0
VERTEX
  5
79DF7
100
AcDbEntity
  8
0
100
AcDbVertex
100
AcDbPolygonMeshVertex
 10
2.977
 20
-4.38
 30
4.517
 70
    64
  0
VERTEX
  5
79DF8
100
AcDbEntity
  8
0
100
AcDbVertex
100
AcDbPolygonMeshVertex
 10
2.977
 20
-4.82
 30
4.517
 70
    64
  0
VERTEX
  5
79DF9
100
AcDbEntity
  8
0
100
AcDbVertex
100
AcDbPolygonMeshVertex
 10
2.597
 20
-4.38
 30
4.517
 70
    64
  0
VERTEX
  5
79DFA
100
AcDbEntity
  8
0
100
AcDbVertex
100
AcDbPolygonMeshVertex
 10
2.597
 20
-4.38
 30
4.517
 70
    64
  0
VERTEX
  5
79DFB
100
AcDbEntity
  8
0
100
AcDbVertex
100
AcDbPolygonMeshVertex
 10
2.597
 20
-4.82
 30
4.517
 70
    64
  0
SEQEND
  5
79DFC
100
AcDbEntity
  8
0
  0
CIRCLE
  5
79DFD
100
AcDbEntity
  8
0
100
AcDbCircle
 10
2.787
 20
-4.63
 30
4.517
 40
0.095
  0
LINE
  5
79DFE
100
AcDbEntity
  8
0
100
AcDbLine
 10
2.754773
 20
-4.540356
 30
4.517
 11
2.806661
 21
-4.72281
 31
4.517
  0
LINE
  5
79DFF
100
AcDbEntity
  8
0
100
AcDbLine
 10
2.766287
 20
-4.537285
 30
4.517
 11
2.818174
 21
-4.71974
 31
4.517
  0
POLYLINE
  5
79E00
100
AcDbEntity
  8
0
100
AcDbPolygonMesh
 66
     1
 10
0.0
 20
0.0
 30
0.0
 70
    16
 71
     6
 72
     3
  0
VERTEX
  5
79E01
100
AcDbEntity
  8
0
100
AcDbVertex
100
AcDbPolygonMeshVertex
 10
1.657
 20
-1.22
 30
4.917
 70
    64
  0
VERTEX
  5
79E02
100
AcDbEntity
  8
0
100
AcDbVertex
100
AcDbPolygonMeshVertex
 10
1.657
 20
-1.22
 30
4.027
 70
    64
  0
VERTEX
  5
79E03
100
AcDbEntity
  8
0
100
AcDbVertex
100
AcDbPolygonMeshVertex
 10
1.657
 20
-1.22
 30
4.027
 70
    64
  0
VERTEX
  5
79E04
100
AcDbEntity
  8
0
100
AcDbVertex
100
AcDbPolygonMeshVertex
 10
1.817
 20
-1.22
 30
4.917
 70
    64
  0
VERTEX
  5
79E05
100
AcDbEntity
  8
0
100
AcDbVertex
100
AcDbPolygonMeshVertex
 10
1.817
 20
-1.22
 30
4.027
 70
    64
  0
VERTEX
  5
79E06
100
AcDbEntity
  8
0
100
AcDbVertex
100
AcDbPolygonMeshVertex
 10
1.817
 20
-1.22
 30
4.027
 70
    64
  0
VERTEX
  5
79E07
100
AcDbEntity
  8
0
100
AcDbVertex
100
AcDbPolygonMeshVertex
 10
1.817
 20
-2.19
 30
4.917
 70
    64
  0
VERTEX
  5
79E08
100
AcDbEntity
  8
0
100
AcDbVertex
100
AcDbPolygonMeshVertex
 10
1.817
 20
-2.19
 30
4.027
 70
    64
  0
VERTEX
  5
79E09
100
AcDbEntity
  8
0
100
AcDbVertex
100
AcDbPolygonMeshVertex
 10
1.817
 20
-1.22
 30
4.027
 70
    64
  0
VERTEX
  5
79E0A
100
AcDbEntity
  8
0
100
AcDbVertex
100
AcDbPolygonMeshVertex
 10
1.657
 20
-2.19
 30
4.917
 70
    64
  0
VERTEX
  5
79E0B
100
AcDbEntity
  8
0
100
AcDbVertex
100
AcDbPolygonMeshVertex
 10
1.657
 20
-2.19
 30
4.027
 70
    64
  0
VERTEX
  5
79E0C
100
AcDbEntity
  8
0
100
AcDbVertex
100
AcDbPolygonMeshVertex
 10
1.657
 20
-1.22
 30
4.027
 70
    64
  0
VERTEX
  5
79E0D
100
AcDbEntity
  8
0
100
AcDbVertex
100
AcDbPolygonMeshVertex
 10
1.657
 20
-2.19
 30
4.917
 70
    64
  0
VERTEX
  5
79E0E
100
AcDbEntity
  8
0
100
AcDbVertex
100
AcDbPolygonMeshVertex
 10
1.657
 20
-2.19
 30
4.917
 70
    64
  0
VERTEX
  5
79E0F
100
AcDbEntity
  8
0
100
AcDbVertex
100
AcDbPolygonMeshVertex
 10
1.657
 20
-1.22
 30
4.917
 70
    64
  0
VERTEX
  5
79E10
100
AcDbEntity
  8
0
100
AcDbVertex
100
AcDbPolygonMeshVertex
 10
1.817
 20
-2.19
 30
4.917
 70
    64
  0
VERTEX
  5
79E11
100
AcDbEntity
  8
0
100
AcDbVertex
100
AcDbPolygonMeshVertex
 10
1.817
 20
-2.19
 30
4.917
 70
    64
  0
VERTEX
  5
79E12
100
AcDbEntity
  8
0
100
AcDbVertex
100
AcDbPolygonMeshVertex
 10
1.817
 20
-1.22
 30
4.917
 70
    64
  0
SEQEND
  5
79E13
100
AcDbEntity
  8
0
  0
POLYLINE
  5
79E14
100
AcDbEntity
  8
0
100
AcDbPolygonMesh
 66
     1
 10
0.0
 20
0.0
 30
0.0
 70
    16
 71
     6
 72
     3
  0
VERTEX
  5
79E15
100
AcDbEntity
  8
0
100
AcDbVertex
100
AcDbPolygonMeshVertex
 10
2.817
 20
-1.22
 30
4.917
 70
    64
  0
VERTEX
  5
79E16
100
AcDbEntity
  8
0
100
AcDbVertex
100
AcDbPolygonMeshVertex
 10
2.817
 20
-1.22
 30
4.027
 70
    64
  0
VERTEX
  5
79E17
100
AcDbEntity
  8
0
100
AcDbVertex
100
AcDbPolygonMeshVertex
 10
2.817
 20
-1.22
 30
4.027
 70
    64
  0
VERTEX
  5
79E18
100
AcDbEntity
  8
0
100
AcDbVertex
100
AcDbPolygonMeshVertex
 10
2.977
 20
-1.22
 30
4.917
 70
    64
  0
VERTEX
  5
79E19
100
AcDbEntity
  8
0
100
AcDbVertex
100
AcDbPolygonMeshVertex
 10
2.977
 20
-1.22
 30
4.027
 70
    64
  0
VERTEX
  5
79E1A
100
AcDbEntity
  8
0
100
AcDbVertex
100
AcDbPolygonMeshVertex
 10
2.977
 20
-1.22
 30
4.027
 70
    64
  0
VERTEX
  5
79E1B
100
AcDbEntity
  8
0
100
AcDbVertex
100
AcDbPolygonMeshVertex
 10
2.977
 20
-2.19
 30
4.917
 70
    64
  0
VERTEX
  5
79E1C
100
AcDbEntity
  8
0
100
AcDbVertex
100
AcDbPolygonMeshVertex
 10
2.977
 20
-2.19
 30
4.027
 70
    64
  0
VERTEX
  5
79E1D
100
AcDbEntity
  8
0
100
AcDbVertex
100
AcDbPolygonMeshVertex
 10
2.977
 20
-1.22
 30
4.027
 70
    64
  0
VERTEX
  5
79E1E
100
AcDbEntity
  8
0
100
AcDbVertex
100
AcDbPolygonMeshVertex
 10
2.817
 20
-2.19
 30
4.917
 70
    64
  0
VERTEX
  5
79E1F
100
AcDbEntity
  8
0
100
AcDbVertex
100
AcDbPolygonMeshVertex
 10
2.817
 20
-2.19
 30
4.027
 70
    64
  0
VERTEX
  5
79E20
100
AcDbEntity
  8
0
100
AcDbVertex
100
AcDbPolygonMeshVertex
 10
2.817
 20
-1.22
 30
4.027
 70
    64
  0
VERTEX
  5
79E21
100
AcDbEntity
  8
0
100
AcDbVertex
100
AcDbPolygonMeshVertex
 10
2.817
 20
-2.19
 30
4.917
 70
    64
  0
VERTEX
  5
79E22
100
AcDbEntity
  8
0
100
AcDbVertex
100
AcDbPolygonMeshVertex
 10
2.817
 20
-2.19
 30
4.917
 70
    64
  0
VERTEX
  5
79E23
100
AcDbEntity
  8
0
100
AcDbVertex
100
AcDbPolygonMeshVertex
 10
2.817
 20
-1.22
 30
4.917
 70
    64
  0
VERTEX
  5
79E24
100
AcDbEntity
  8
0
100
AcDbVertex
100
AcDbPolygonMeshVertex
 10
2.977
 20
-2.19
 30
4.917
 70
    64
  0
VERTEX
  5
79E25
100
AcDbEntity
  8
0
100
AcDbVertex
100
AcDbPolygonMeshVertex
 10
2.977
 20
-2.19
 30
4.917
 70
    64
  0
VERTEX
  5
79E26
100
AcDbEntity
  8
0
100
AcDbVertex
100
AcDbPolygonMeshVertex
 10
2.977
 20
-1.22
 30
4.917
 70
    64
  0
SEQEND
  5
79E27
100
AcDbEntity
  8
0
  0
POLYLINE
  5
79E28
100
AcDbEntity
  8
0
100
AcDbPolygonMesh
 66
     1
 10
0.0
 20
0.0
 30
0.0
 70
    16
 71
     6
 72
     3
  0
VERTEX
  5
79E29
100
AcDbEntity
  8
0
100
AcDbVertex
100
AcDbPolygonMeshVertex
 10
1.657
 20
-1.22
 30
4.027
 70
    64
  0
VERTEX
  5
79E2A
100
AcDbEntity
  8
0
100
AcDbVertex
100
AcDbPolygonMeshVertex
 10
1.657
 20
-1.22
 30
2.757
 70
    64
  0
VERTEX
  5
79E2B
100
AcDbEntity
  8
0
100
AcDbVertex
100
AcDbPolygonMeshVertex
 10
1.657
 20
-1.22
 30
2.757
 70
    64
  0
VERTEX
  5
79E2C
100
AcDbEntity
  8
0
100
AcDbVertex
100
AcDbPolygonMeshVertex
 10
1.817
 20
-1.22
 30
4.027
 70
    64
  0
VERTEX
  5
79E2D
100
AcDbEntity
  8
0
100
AcDbVertex
100
AcDbPolygonMeshVertex
 10
1.817
 20
-1.22
 30
2.757
 70
    64
  0
VERTEX
  5
79E2E
100
AcDbEntity
  8
0
100
AcDbVertex
100
AcDbPolygonMeshVertex
 10
1.817
 20
-1.22
 30
2.757
 70
    64
  0
VERTEX
  5
79E2F
100
AcDbEntity
  8
0
100
AcDbVertex
100
AcDbPolygonMeshVertex
 10
1.817
 20
-1.5
 30
4.027
 70
    64
  0
VERTEX
  5
79E30
100
AcDbEntity
  8
0
100
AcDbVertex
100
AcDbPolygonMeshVertex
 10
1.817
 20
-1.5
 30
2.757
 70
    64
  0
VERTEX
  5
79E31
100
AcDbEntity
  8
0
100
AcDbVertex
100
AcDbPolygonMeshVertex
 10
1.817
 20
-1.22
 30
2.757
 70
    64
  0
VERTEX
  5
79E32
100
AcDbEntity
  8
0
100
AcDbVertex
100
AcDbPolygonMeshVertex
 10
1.657
 20
-1.5
 30
4.027
 70
    64
  0
VERTEX
  5
79E33
100
AcDbEntity
  8
0
100
AcDbVertex
100
AcDbPolygonMeshVertex
 10
1.657
 20
-1.5
 30
2.757
 70
    64
  0
VERTEX
  5
79E34
100
AcDbEntity
  8
0
100
AcDbVertex
100
AcDbPolygonMeshVertex
 10
1.657
 20
-1.22
 30
2.757
 70
    64
  0
VERTEX
  5
79E35
100
AcDbEntity
  8
0
100
AcDbVertex
100
AcDbPolygonMeshVertex
 10
1.657
 20
-1.5
 30
4.027
 70
    64
  0
VERTEX
  5
79E36
100
AcDbEntity
  8
0
100
AcDbVertex
100
AcDbPolygonMeshVertex
 10
1.657
 20
-1.5
 30
4.027
 70
    64
  0
VERTEX
  5
79E37
100
AcDbEntity
  8
0
100
AcDbVertex
100
AcDbPolygonMeshVertex
 10
1.657
 20
-1.22
 30
4.027
 70
    64
  0
VERTEX
  5
79E38
100
AcDbEntity
  8
0
100
AcDbVertex
100
AcDbPolygonMeshVertex
 10
1.817
 20
-1.5
 30
4.027
 70
    64
  0
VERTEX
  5
79E39
100
AcDbEntity
  8
0
100
AcDbVertex
100
AcDbPolygonMeshVertex
 10
1.817
 20
-1.5
 30
4.027
 70
    64
  0
VERTEX
  5
79E3A
100
AcDbEntity
  8
0
100
AcDbVertex
100
AcDbPolygonMeshVertex
 10
1.817
 20
-1.22
 30
4.027
 70
    64
  0
SEQEND
  5
79E3B
100
AcDbEntity
  8
0
  0
POLYLINE
  5
79E3C
100
AcDbEntity
  8
0
100
AcDbPolygonMesh
 66
     1
 10
0.0
 20
0.0
 30
0.0
 70
    16
 71
     6
 72
     3
  0
VERTEX
  5
79E3D
100
AcDbEntity
  8
0
100
AcDbVertex
100
AcDbPolygonMeshVertex
 10
2.817
 20
-1.22
 30
4.027
 70
    64
  0
VERTEX
  5
79E3E
100
AcDbEntity
  8
0
100
AcDbVertex
100
AcDbPolygonMeshVertex
 10
2.817
 20
-1.22
 30
2.757
 70
    64
  0
VERTEX
  5
79E3F
100
AcDbEntity
  8
0
100
AcDbVertex
100
AcDbPolygonMeshVertex
 10
2.817
 20
-1.22
 30
2.757
 70
    64
  0
VERTEX
  5
79E40
100
AcDbEntity
  8
0
100
AcDbVertex
100
AcDbPolygonMeshVertex
 10
2.977
 20
-1.22
 30
4.027
 70
    64
  0
VERTEX
  5
79E41
100
AcDbEntity
  8
0
100
AcDbVertex
100
AcDbPolygonMeshVertex
 10
2.977
 20
-1.22
 30
2.757
 70
    64
  0
VERTEX
  5
79E42
100
AcDbEntity
  8
0
100
AcDbVertex
100
AcDbPolygonMeshVertex
 10
2.977
 20
-1.22
 30
2.757
 70
    64
  0
VERTEX
  5
79E43
100
AcDbEntity
  8
0
100
AcDbVertex
100
AcDbPolygonMeshVertex
 10
2.977
 20
-1.5
 30
4.027
 70
    64
  0
VERTEX
  5
79E44
100
AcDbEntity
  8
0
100
AcDbVertex
100
AcDbPolygonMeshVertex
 10
2.977
 20
-1.5
 30
2.757
 70
    64
  0
VERTEX
  5
79E45
100
AcDbEntity
  8
0
100
AcDbVertex
100
AcDbPolygonMeshVertex
 10
2.977
 20
-1.22
 30
2.757
 70
    64
  0
VERTEX
  5
79E46
100
AcDbEntity
  8
0
100
AcDbVertex
100
AcDbPolygonMeshVertex
 10
2.817
 20
-1.5
 30
4.027
 70
    64
  0
VERTEX
  5
79E47
100
AcDbEntity
  8
0
100
AcDbVertex
100
AcDbPolygonMeshVertex
 10
2.817
 20
-1.5
 30
2.757
 70
    64
  0
VERTEX
  5
79E48
100
AcDbEntity
  8
0
100
AcDbVertex
100
AcDbPolygonMeshVertex
 10
2.817
 20
-1.22
 30
2.757
 70
    64
  0
VERTEX
  5
79E49
100
AcDbEntity
  8
0
100
AcDbVertex
100
AcDbPolygonMeshVertex
 10
2.817
 20
-1.5
 30
4.027
 70
    64
  0
VERTEX
  5
79E4A
100
AcDbEntity
  8
0
100
AcDbVertex
100
AcDbPolygonMeshVertex
 10
2.817
 20
-1.5
 30
4.027
 70
    64
  0
VERTEX
  5
79E4B
100
AcDbEntity
  8
0
100
AcDbVertex
100
AcDbPolygonMeshVertex
 10
2.817
 20
-1.22
 30
4.027
 70
    64
  0
VERTEX
  5
79E4C
100
AcDbEntity
  8
0
100
AcDbVertex
100
AcDbPolygonMeshVertex
 10
2.977
 20
-1.5
 30
4.027
 70
    64
  0
VERTEX
  5
79E4D
100
AcDbEntity
  8
0
100
AcDbVertex
100
AcDbPolygonMeshVertex
 10
2.977
 20
-1.5
 30
4.027
 70
    64
  0
VERTEX
  5
79E4E
100
AcDbEntity
  8
0
100
AcDbVertex
100
AcDbPolygonMeshVertex
 10
2.977
 20
-1.22
 30
4.027
 70
    64
  0
SEQEND
  5
79E4F
100
AcDbEntity
  8
0
  0
POLYLINE
  5
79E50
100
AcDbEntity
  8
0
100
AcDbPolygonMesh
 66
     1
 10
0.0
 20
0.0
 30
0.0
 70
    16
 71
     6
 72
     3
  0
VERTEX
  5
79E51
100
AcDbEntity
  8
0
100
AcDbVertex
100
AcDbPolygonMeshVertex
 10
2.067
 20
-0.88
 30
4.667
 70
    64
  0
VERTEX
  5
79E52
100
AcDbEntity
  8
0
100
AcDbVertex
100
AcDbPolygonMeshVertex
 10
2.067
 20
-0.88
 30
4.537
 70
    64
  0
VERTEX
  5
79E53
100
AcDbEntity
  8
0
100
AcDbVertex
100
AcDbPolygonMeshVertex
 10
2.067
 20
-0.88
 30
4.537
 70
    64
  0
VERTEX
  5
79E54
100
AcDbEntity
  8
0
100
AcDbVertex
100
AcDbPolygonMeshVertex
 10
2.567
 20
-0.88
 30
4.667
 70
    64
  0
VERTEX
  5
79E55
100
AcDbEntity
  8
0
100
AcDbVertex
100
AcDbPolygonMeshVertex
 10
2.567
 20
-0.88
 30
4.537
 70
    64
  0
VERTEX
  5
79E56
100
AcDbEntity
  8
0
100
AcDbVertex
100
AcDbPolygonMeshVertex
 10
2.567
 20
-0.88
 30
4.537
 70
    64
  0
VERTEX
  5
79E57
100
AcDbEntity
  8
0
100
AcDbVertex
100
AcDbPolygonMeshVertex
 10
2.567
 20
-1.38
 30
4.667
 70
    64
  0
VERTEX
  5
79E58
100
AcDbEntity
  8
0
100
AcDbVertex
100
AcDbPolygonMeshVertex
 10
2.567
 20
-1.38
 30
4.537
 70
    64
  0
VERTEX
  5
79E59
100
AcDbEntity
  8
0
100
AcDbVertex
100
AcDbPolygonMeshVertex
 10
2.567
 20
-0.88
 30
4.537
 70
    64
  0
VERTEX
  5
79E5A
100
AcDbEntity
  8
0
100
AcDbVertex
100
AcDbPolygonMeshVertex
 10
2.067
 20
-1.38
 30
4.667
 70
    64
  0
VERTEX
  5
79E5B
100
AcDbEntity
  8
0
100
AcDbVertex
100
AcDbPolygonMeshVertex
 10
2.067
 20
-1.38
 30
4.537
 70
    64
  0
VERTEX
  5
79E5C
100
AcDbEntity
  8
0
100
AcDbVertex
100
AcDbPolygonMeshVertex
 10
2.067
 20
-0.88
 30
4.537
 70
    64
  0
VERTEX
  5
79E5D
100
AcDbEntity
  8
0
100
AcDbVertex
100
AcDbPolygonMeshVertex
 10
2.067
 20
-1.38
 30
4.667
 70
    64
  0
VERTEX
  5
79E5E
100
AcDbEntity
  8
0
100
AcDbVertex
100
AcDbPolygonMeshVertex
 10
2.067
 20
-1.38
 30
4.667
 70
    64
  0
VERTEX
  5
79E5F
100
AcDbEntity
  8
0
100
AcDbVertex
100
AcDbPolygonMeshVertex
 10
2.067
 20
-0.88
 30
4.667
 70
    64
  0
VERTEX
  5
79E60
100
AcDbEntity
  8
0
100
AcDbVertex
100
AcDbPolygonMeshVertex
 10
2.567
 20
-1.38
 30
4.667
 70
    64
  0
VERTEX
  5
79E61
100
AcDbEntity
  8
0
100
AcDbVertex
100
AcDbPolygonMeshVertex
 10
2.567
 20
-1.38
 30
4.667
 70
    64
  0
VERTEX
  5
79E62
100
AcDbEntity
  8
0
100
AcDbVertex
100
AcDbPolygonMeshVertex
 10
2.567
 20
-0.88
 30
4.667
 70
    64
  0
SEQEND
  5
79E63
100
AcDbEntity
  8
0
  0
POLYLINE
  5
79E64
100
AcDbEntity
  8
0
100
AcDbPolygonMesh
 66
     1
 10
0.0
 20
0.0
 30
0.0
 70
    16
 71
     6
 72
     3
  0
VERTEX
  5
79E65
100
AcDbEntity
  8
0
100
AcDbVertex
100
AcDbPolygonMeshVertex
 10
2.067
 20
-0.88
 30
4.537
 70
    64
  0
VERTEX
  5
79E66
100
AcDbEntity
  8
0
100
AcDbVertex
100
AcDbPolygonMeshVertex
 10
2.067
 20
-0.88
 30
4.197
 70
    64
  0
VERTEX
  5
79E67
100
AcDbEntity
  8
0
100
AcDbVertex
100
AcDbPolygonMeshVertex
 10
2.067
 20
-0.88
 30
4.197
 70
    64
  0
VERTEX
  5
79E68
100
AcDbEntity
  8
0
100
AcDbVertex
100
AcDbPolygonMeshVertex
 10
2.567
 20
-0.88
 30
4.537
 70
    64
  0
VERTEX
  5
79E69
100
AcDbEntity
  8
0
100
AcDbVertex
100
AcDbPolygonMeshVertex
 10
2.567
 20
-0.88
 30
4.197
 70
    64
  0
VERTEX
  5
79E6A
100
AcDbEntity
  8
0
100
AcDbVertex
100
AcDbPolygonMeshVertex
 10
2.567
 20
-0.88
 30
4.197
 70
    64
  0
VERTEX
  5
79E6B
100
AcDbEntity
  8
0
100
AcDbVertex
100
AcDbPolygonMeshVertex
 10
2.567
 20
-2.0
 30
4.537
 70
    64
  0
VERTEX
  5
79E6C
100
AcDbEntity
  8
0
100
AcDbVertex
100
AcDbPolygonMeshVertex
 10
2.567
 20
-2.0
 30
4.197
 70
    64
  0
VERTEX
  5
79E6D
100
AcDbEntity
  8
0
100
AcDbVertex
100
AcDbPolygonMeshVertex
 10
2.567
 20
-0.88
 30
4.197
 70
    64
  0
VERTEX
  5
79E6E
100
AcDbEntity
  8
0
100
AcDbVertex
100
AcDbPolygonMeshVertex
 10
2.067
 20
-2.0
 30
4.537
 70
    64
  0
VERTEX
  5
79E6F
100
AcDbEntity
  8
0
100
AcDbVertex
100
AcDbPolygonMeshVertex
 10
2.067
 20
-2.0
 30
4.197
 70
    64
  0
VERTEX
  5
79E70
100
AcDbEntity
  8
0
100
AcDbVertex
100
AcDbPolygonMeshVertex
 10
2.067
 20
-0.88
 30
4.197
 70
    64
  0
VERTEX
  5
79E71
100
AcDbEntity
  8
0
100
AcDbVertex
100
AcDbPolygonMeshVertex
 10
2.067
 20
-2.0
 30
4.537
 70
    64
  0
VERTEX
  5
79E72
100
AcDbEntity
  8
0
100
AcDbVertex
100
AcDbPolygonMeshVertex
 10
2.067
 20
-2.0
 30
4.537
 70
    64
  0
VERTEX
  5
79E73
100
AcDbEntity
  8
0
100
AcDbVertex
100
AcDbPolygonMeshVertex
 10
2.067
 20
-0.88
 30
4.537
 70
    64
  0
VERTEX
  5
79E74
100
AcDbEntity
  8
0
100
AcDbVertex
100
AcDbPolygonMeshVertex
 10
2.567
 20
-2.0
 30
4.537
 70
    64
  0
VERTEX
  5
79E75
100
AcDbEntity
  8
0
100
AcDbVertex
100
AcDbPolygonMeshVertex
 10
2.567
 20
-2.0
 30
4.537
 70
    64
  0
VERTEX
  5
79E76
100
AcDbEntity
  8
0
100
AcDbVertex
100
AcDbPolygonMeshVertex
 10
2.567
 20
-0.88
 30
4.537
 70
    64
  0
SEQEND
  5
79E77
100
AcDbEntity
  8
0
  0
TEXT
  5
79E78
100
AcDbEntity
  8
0
100
AcDbText
 10
2.239601
 20
-1.191761
 30
4.667
 40
0.12
  1
L2
100
AcDbText
  0
CIRCLE
  5
79E79
100
AcDbEntity
  8
0
100
AcDbCircle
 10
2.317
 20
-1.13
 30
4.667
 40
0.155
  0
CIRCLE
  5
79E7A
100
AcDbEntity
  8
0
100
AcDbCircle
 10
2.317
 20
-1.13
 30
4.667
 40
0.125
  0
POLYLINE
  5
79E7B
100
AcDbEntity
  8
0
100
AcDbPolygonMesh
 66
     1
 10
0.0
 20
0.0
 30
0.0
 70
    16
 71
     6
 72
     3
  0
VERTEX
  5
79E7C
100
AcDbEntity
  8
0
100
AcDbVertex
100
AcDbPolygonMeshVertex
 10
1.007
 20
-0.88
 30
4.667
 70
    64
  0
VERTEX
  5
79E7D
100
AcDbEntity
  8
0
100
AcDbVertex
100
AcDbPolygonMeshVertex
 10
1.007
 20
-0.88
 30
4.537
 70
    64
  0
VERTEX
  5
79E7E
100
AcDbEntity
  8
0
100
AcDbVertex
100
AcDbPolygonMeshVertex
 10
1.007
 20
-0.88
 30
4.537
 70
    64
  0
VERTEX
  5
79E7F
100
AcDbEntity
  8
0
100
AcDbVertex
100
AcDbPolygonMeshVertex
 10
1.507
 20
-0.88
 30
4.667
 70
    64
  0
VERTEX
  5
79E80
100
AcDbEntity
  8
0
100
AcDbVertex
100
AcDbPolygonMeshVertex
 10
1.507
 20
-0.88
 30
4.537
 70
    64
  0
VERTEX
  5
79E81
100
AcDbEntity
  8
0
100
AcDbVertex
100
AcDbPolygonMeshVertex
 10
1.507
 20
-0.88
 30
4.537
 70
    64
  0
VERTEX
  5
79E82
100
AcDbEntity
  8
0
100
AcDbVertex
100
AcDbPolygonMeshVertex
 10
1.507
 20
-1.38
 30
4.667
 70
    64
  0
VERTEX
  5
79E83
100
AcDbEntity
  8
0
100
AcDbVertex
100
AcDbPolygonMeshVertex
 10
1.507
 20
-1.38
 30
4.537
 70
    64
  0
VERTEX
  5
79E84
100
AcDbEntity
  8
0
100
AcDbVertex
100
AcDbPolygonMeshVertex
 10
1.507
 20
-0.88
 30
4.537
 70
    64
  0
VERTEX
  5
79E85
100
AcDbEntity
  8
0
100
AcDbVertex
100
AcDbPolygonMeshVertex
 10
1.007
 20
-1.38
 30
4.667
 70
    64
  0
VERTEX
  5
79E86
100
AcDbEntity
  8
0
100
AcDbVertex
100
AcDbPolygonMeshVertex
 10
1.007
 20
-1.38
 30
4.537
 70
    64
  0
VERTEX
  5
79E87
100
AcDbEntity
  8
0
100
AcDbVertex
100
AcDbPolygonMeshVertex
 10
1.007
 20
-0.88
 30
4.537
 70
    64
  0
VERTEX
  5
79E88
100
AcDbEntity
  8
0
100
AcDbVertex
100
AcDbPolygonMeshVertex
 10
1.007
 20
-1.38
 30
4.667
 70
    64
  0
VERTEX
  5
79E89
100
AcDbEntity
  8
0
100
AcDbVertex
100
AcDbPolygonMeshVertex
 10
1.007
 20
-1.38
 30
4.667
 70
    64
  0
VERTEX
  5
79E8A
100
AcDbEntity
  8
0
100
AcDbVertex
100
AcDbPolygonMeshVertex
 10
1.007
 20
-0.88
 30
4.667
 70
    64
  0
VERTEX
  5
79E8B
100
AcDbEntity
  8
0
100
AcDbVertex
100
AcDbPolygonMeshVertex
 10
1.507
 20
-1.38
 30
4.667
 70
    64
  0
VERTEX
  5
79E8C
100
AcDbEntity
  8
0
100
AcDbVertex
100
AcDbPolygonMeshVertex
 10
1.507
 20
-1.38
 30
4.667
 70
    64
  0
VERTEX
  5
79E8D
100
AcDbEntity
  8
0
100
AcDbVertex
100
AcDbPolygonMeshVertex
 10
1.507
 20
-0.88
 30
4.667
 70
    64
  0
SEQEND
  5
79E8E
100
AcDbEntity
  8
0
  0
POLYLINE
  5
79E8F
100
AcDbEntity
  8
0
100
AcDbPolygonMesh
 66
     1
 10
0.0
 20
0.0
 30
0.0
 70
    16
 71
     6
 72
     3
  0
VERTEX
  5
79E90
100
AcDbEntity
  8
0
100
AcDbVertex
100
AcDbPolygonMeshVertex
 10
1.007
 20
-0.88
 30
4.537
 70
    64
  0
VERTEX
  5
79E91
100
AcDbEntity
  8
0
100
AcDbVertex
100
AcDbPolygonMeshVertex
 10
1.007
 20
-0.88
 30
4.197
 70
    64
  0
VERTEX
  5
79E92
100
AcDbEntity
  8
0
100
AcDbVertex
100
AcDbPolygonMeshVertex
 10
1.007
 20
-0.88
 30
4.197
 70
    64
  0
VERTEX
  5
79E93
100
AcDbEntity
  8
0
100
AcDbVertex
100
AcDbPolygonMeshVertex
 10
1.507
 20
-0.88
 30
4.537
 70
    64
  0
VERTEX
  5
79E94
100
AcDbEntity
  8
0
100
AcDbVertex
100
AcDbPolygonMeshVertex
 10
1.507
 20
-0.88
 30
4.197
 70
    64
  0
VERTEX
  5
79E95
100
AcDbEntity
  8
0
100
AcDbVertex
100
AcDbPolygonMeshVertex
 10
1.507
 20
-0.88
 30
4.197
 70
    64
  0
VERTEX
  5
79E96
100
AcDbEntity
  8
0
100
AcDbVertex
100
AcDbPolygonMeshVertex
 10
1.507
 20
-2.0
 30
4.537
 70
    64
  0
VERTEX
  5
79E97
100
AcDbEntity
  8
0
100
AcDbVertex
100
AcDbPolygonMeshVertex
 10
1.507
 20
-2.0
 30
4.197
 70
    64
  0
VERTEX
  5
79E98
100
AcDbEntity
  8
0
100
AcDbVertex
100
AcDbPolygonMeshVertex
 10
1.507
 20
-0.88
 30
4.197
 70
    64
  0
VERTEX
  5
79E99
100
AcDbEntity
  8
0
100
AcDbVertex
100
AcDbPolygonMeshVertex
 10
1.007
 20
-2.0
 30
4.537
 70
    64
  0
VERTEX
  5
79E9A
100
AcDbEntity
  8
0
100
AcDbVertex
100
AcDbPolygonMeshVertex
 10
1.007
 20
-2.0
 30
4.197
 70
    64
  0
VERTEX
  5
79E9B
100
AcDbEntity
  8
0
100
AcDbVertex
100
AcDbPolygonMeshVertex
 10
1.007
 20
-0.88
 30
4.197
 70
    64
  0
VERTEX
  5
79E9C
100
AcDbEntity
  8
0
100
AcDbVertex
100
AcDbPolygonMeshVertex
 10
1.007
 20
-2.0
 30
4.537
 70
    64
  0
VERTEX
  5
79E9D
100
AcDbEntity
  8
0
100
AcDbVertex
100
AcDbPolygonMeshVertex
 10
1.007
 20
-2.0
 30
4.537
 70
    64
  0
VERTEX
  5
79E9E
100
AcDbEntity
  8
0
100
AcDbVertex
100
AcDbPolygonMeshVertex
 10
1.007
 20
-0.88
 30
4.537
 70
    64
  0
VERTEX
  5
79E9F
100
AcDbEntity
  8
0
100
AcDbVertex
100
AcDbPolygonMeshVertex
 10
1.507
 20
-2.0
 30
4.537
 70
    64
  0
VERTEX
  5
79EA0
100
AcDbEntity
  8
0
100
AcDbVertex
100
AcDbPolygonMeshVertex
 10
1.507
 20
-2.0
 30
4.537
 70
    64
  0
VERTEX
  5
79EA1
100
AcDbEntity
  8
0
100
AcDbVertex
100
AcDbPolygonMeshVertex
 10
1.507
 20
-0.88
 30
4.537
 70
    64
  0
SEQEND
  5
79EA2
100
AcDbEntity
  8
0
  0
TEXT
  5
79EA3
100
AcDbEntity
  8
0
100
AcDbText
 10
1.190708
 20
-1.188335
 30
4.667
 40
0.12
  1
L1
100
AcDbText
  0
CIRCLE
  5
79EA4
100
AcDbEntity
  8
0
100
AcDbCircle
 10
1.257
 20
-1.13
 30
4.667
 40
0.155
  0
CIRCLE
  5
79EA5
100
AcDbEntity
  8
0
100
AcDbCircle
 10
1.257
 20
-1.13
 30
4.667
 40
0.125
  0
POLYLINE
  5
79EA6
100
AcDbEntity
  8
0
100
AcDbPolygonMesh
 66
     1
 10
0.0
 20
0.0
 30
0.0
 70
    16
 71
     6
 72
     3
  0
VERTEX
  5
79EA7
100
AcDbEntity
  8
0
100
AcDbVertex
100
AcDbPolygonMeshVertex
 10
3.127
 20
-0.88
 30
4.667
 70
    64
  0
VERTEX
  5
79EA8
100
AcDbEntity
  8
0
100
AcDbVertex
100
AcDbPolygonMeshVertex
 10
3.127
 20
-0.88
 30
4.537
 70
    64
  0
VERTEX
  5
79EA9
100
AcDbEntity
  8
0
100
AcDbVertex
100
AcDbPolygonMeshVertex
 10
3.127
 20
-0.88
 30
4.537
 70
    64
  0
VERTEX
  5
79EAA
100
AcDbEntity
  8
0
100
AcDbVertex
100
AcDbPolygonMeshVertex
 10
3.627
 20
-0.88
 30
4.667
 70
    64
  0
VERTEX
  5
79EAB
100
AcDbEntity
  8
0
100
AcDbVertex
100
AcDbPolygonMeshVertex
 10
3.627
 20
-0.88
 30
4.537
 70
    64
  0
VERTEX
  5
79EAC
100
AcDbEntity
  8
0
100
AcDbVertex
100
AcDbPolygonMeshVertex
 10
3.627
 20
-0.88
 30
4.537
 70
    64
  0
VERTEX
  5
79EAD
100
AcDbEntity
  8
0
100
AcDbVertex
100
AcDbPolygonMeshVertex
 10
3.627
 20
-1.38
 30
4.667
 70
    64
  0
VERTEX
  5
79EAE
100
AcDbEntity
  8
0
100
AcDbVertex
100
AcDbPolygonMeshVertex
 10
3.627
 20
-1.38
 30
4.537
 70
    64
  0
VERTEX
  5
79EAF
100
AcDbEntity
  8
0
100
AcDbVertex
100
AcDbPolygonMeshVertex
 10
3.627
 20
-0.88
 30
4.537
 70
    64
  0
VERTEX
  5
79EB0
100
AcDbEntity
  8
0
100
AcDbVertex
100
AcDbPolygonMeshVertex
 10
3.127
 20
-1.38
 30
4.667
 70
    64
  0
VERTEX
  5
79EB1
100
AcDbEntity
  8
0
100
AcDbVertex
100
AcDbPolygonMeshVertex
 10
3.127
 20
-1.38
 30
4.537
 70
    64
  0
VERTEX
  5
79EB2
100
AcDbEntity
  8
0
100
AcDbVertex
100
AcDbPolygonMeshVertex
 10
3.127
 20
-0.88
 30
4.537
 70
    64
  0
VERTEX
  5
79EB3
100
AcDbEntity
  8
0
100
AcDbVertex
100
AcDbPolygonMeshVertex
 10
3.127
 20
-1.38
 30
4.667
 70
    64
  0
VERTEX
  5
79EB4
100
AcDbEntity
  8
0
100
AcDbVertex
100
AcDbPolygonMeshVertex
 10
3.127
 20
-1.38
 30
4.667
 70
    64
  0
VERTEX
  5
79EB5
100
AcDbEntity
  8
0
100
AcDbVertex
100
AcDbPolygonMeshVertex
 10
3.127
 20
-0.88
 30
4.667
 70
    64
  0
VERTEX
  5
79EB6
100
AcDbEntity
  8
0
100
AcDbVertex
100
AcDbPolygonMeshVertex
 10
3.627
 20
-1.38
 30
4.667
 70
    64
  0
VERTEX
  5
79EB7
100
AcDbEntity
  8
0
100
AcDbVertex
100
AcDbPolygonMeshVertex
 10
3.627
 20
-1.38
 30
4.667
 70
    64
  0
VERTEX
  5
79EB8
100
AcDbEntity
  8
0
100
AcDbVertex
100
AcDbPolygonMeshVertex
 10
3.627
 20
-0.88
 30
4.667
 70
    64
  0
SEQEND
  5
79EB9
100
AcDbEntity
  8
0
  0
POLYLINE
  5
79EBA
100
AcDbEntity
  8
0
100
AcDbPolygonMesh
 66
     1
 10
0.0
 20
0.0
 30
0.0
 70
    16
 71
     6
 72
     3
  0
VERTEX
  5
79EBB
100
AcDbEntity
  8
0
100
AcDbVertex
100
AcDbPolygonMeshVertex
 10
3.127
 20
-0.88
 30
4.537
 70
    64
  0
VERTEX
  5
79EBC
100
AcDbEntity
  8
0
100
AcDbVertex
100
AcDbPolygonMeshVertex
 10
3.127
 20
-0.88
 30
4.197
 70
    64
  0
VERTEX
  5
79EBD
100
AcDbEntity
  8
0
100
AcDbVertex
100
AcDbPolygonMeshVertex
 10
3.127
 20
-0.88
 30
4.197
 70
    64
  0
VERTEX
  5
79EBE
100
AcDbEntity
  8
0
100
AcDbVertex
100
AcDbPolygonMeshVertex
 10
3.627
 20
-0.88
 30
4.537
 70
    64
  0
VERTEX
  5
79EBF
100
AcDbEntity
  8
0
100
AcDbVertex
100
AcDbPolygonMeshVertex
 10
3.627
 20
-0.88
 30
4.197
 70
    64
  0
VERTEX
  5
79EC0
100
AcDbEntity
  8
0
100
AcDbVertex
100
AcDbPolygonMeshVertex
 10
3.627
 20
-0.88
 30
4.197
 70
    64
  0
VERTEX
  5
79EC1
100
AcDbEntity
  8
0
100
AcDbVertex
100
AcDbPolygonMeshVertex
 10
3.627
 20
-2.0
 30
4.537
 70
    64
  0
VERTEX
  5
79EC2
100
AcDbEntity
  8
0
100
AcDbVertex
100
AcDbPolygonMeshVertex
 10
3.627
 20
-2.0
 30
4.197
 70
    64
  0
VERTEX
  5
79EC3
100
AcDbEntity
  8
0
100
AcDbVertex
100
AcDbPolygonMeshVertex
 10
3.627
 20
-0.88
 30
4.197
 70
    64
  0
VERTEX
  5
79EC4
100
AcDbEntity
  8
0
100
AcDbVertex
100
AcDbPolygonMeshVertex
 10
3.127
 20
-2.0
 30
4.537
 70
    64
  0
VERTEX
  5
79EC5
100
AcDbEntity
  8
0
100
AcDbVertex
100
AcDbPolygonMeshVertex
 10
3.127
 20
-2.0
 30
4.197
 70
    64
  0
VERTEX
  5
79EC6
100
AcDbEntity
  8
0
100
AcDbVertex
100
AcDbPolygonMeshVertex
 10
3.127
 20
-0.88
 30
4.197
 70
    64
  0
VERTEX
  5
79EC7
100
AcDbEntity
  8
0
100
AcDbVertex
100
AcDbPolygonMeshVertex
 10
3.127
 20
-2.0
 30
4.537
 70
    64
  0
VERTEX
  5
79EC8
100
AcDbEntity
  8
0
100
AcDbVertex
100
AcDbPolygonMeshVertex
 10
3.127
 20
-2.0
 30
4.537
 70
    64
  0
VERTEX
  5
79EC9
100
AcDbEntity
  8
0
100
AcDbVertex
100
AcDbPolygonMeshVertex
 10
3.127
 20
-0.88
 30
4.537
 70
    64
  0
VERTEX
  5
79ECA
100
AcDbEntity
  8
0
100
AcDbVertex
100
AcDbPolygonMeshVertex
 10
3.627
 20
-2.0
 30
4.537
 70
    64
  0
VERTEX
  5
79ECB
100
AcDbEntity
  8
0
100
AcDbVertex
100
AcDbPolygonMeshVertex
 10
3.627
 20
-2.0
 30
4.537
 70
    64
  0
VERTEX
  5
79ECC
100
AcDbEntity
  8
0
100
AcDbVertex
100
AcDbPolygonMeshVertex
 10
3.627
 20
-0.88
 30
4.537
 70
    64
  0
SEQEND
  5
79ECD
100
AcDbEntity
  8
0
  0
TEXT
  5
79ECE
100
AcDbEntity
  8
0
100
AcDbText
 10
3.295395
 20
-1.195188
 30
4.667
 40
0.12
  1
L3
100
AcDbText
  0
LINE
  5
79ECF
100
AcDbEntity
  8
0
100
AcDbLine
 10
3.627
 20
-1.38
 30
4.537
 11
3.627
 21
-0.88
 31
4.537
  0
CIRCLE
  5
79ED0
100
AcDbEntity
  8
0
100
AcDbCircle
 10
3.377
 20
-1.13
 30
4.667
 40
0.125
  0
CIRCLE
  5
79ED1
100
AcDbEntity
  8
0
100
AcDbCircle
 10
3.377
 20
-1.13
 30
4.667
 40
0.155
  0
POLYLINE
  5
79ED2
100
AcDbEntity
  8
0
100
AcDbPolygonMesh
 66
     1
 10
0.0
 20
0.0
 30
0.0
 70
    16
 71
     6
 72
     3
  0
VERTEX
  5
79ED3
100
AcDbEntity
  8
0
100
AcDbVertex
100
AcDbPolygonMeshVertex
 10
-0.398
 20
-6.18
 30
3.887
 70
    64
  0
VERTEX
  5
79ED4
100
AcDbEntity
  8
0
100
AcDbVertex
100
AcDbPolygonMeshVertex
 10
-0.398
 20
-6.18
 30
0.387
 70
    64
  0
VERTEX
  5
79ED5
100
AcDbEntity
  8
0
100
AcDbVertex
100
AcDbPolygonMeshVertex
 10
-0.398
 20
-6.18
 30
0.387
 70
    64
  0
VERTEX
  5
79ED6
100
AcDbEntity
  8
0
100
AcDbVertex
100
AcDbPolygonMeshVertex
 10
-4.218
 20
-6.18
 30
3.887
 70
    64
  0
VERTEX
  5
79ED7
100
AcDbEntity
  8
0
100
AcDbVertex
100
AcDbPolygonMeshVertex
 10
-4.218
 20
-6.18
 30
0.387
 70
    64
  0
VERTEX
  5
79ED8
100
AcDbEntity
  8
0
100
AcDbVertex
100
AcDbPolygonMeshVertex
 10
-4.218
 20
-6.18
 30
0.387
 70
    64
  0
VERTEX
  5
79ED9
100
AcDbEntity
  8
0
100
AcDbVertex
100
AcDbPolygonMeshVertex
 10
-4.218
 20
-1.5
 30
3.887
 70
    64
  0
VERTEX
  5
79EDA
100
AcDbEntity
  8
0
100
AcDbVertex
100
AcDbPolygonMeshVertex
 10
-4.218
 20
-1.5
 30
0.387
 70
    64
  0
VERTEX
  5
79EDB
100
AcDbEntity
  8
0
100
AcDbVertex
100
AcDbPolygonMeshVertex
 10
-4.218
 20
-6.18
 30
0.387
 70
    64
  0
VERTEX
  5
79EDC
100
AcDbEntity
  8
0
100
AcDbVertex
100
AcDbPolygonMeshVertex
 10
-0.398
 20
-1.5
 30
3.887
 70
    64
  0
VERTEX
  5
79EDD
100
AcDbEntity
  8
0
100
AcDbVertex
100
AcDbPolygonMeshVertex
 10
-0.398
 20
-1.5
 30
0.387
 70
    64
  0
VERTEX
  5
79EDE
100
AcDbEntity
  8
0
100
AcDbVertex
100
AcDbPolygonMeshVertex
 10
-0.398
 20
-6.18
 30
0.387
 70
    64
  0
VERTEX
  5
79EDF
100
AcDbEntity
  8
0
100
AcDbVertex
100
AcDbPolygonMeshVertex
 10
-0.398
 20
-1.5
 30
3.887
 70
    64
  0
VERTEX
  5
79EE0
100
AcDbEntity
  8
0
100
AcDbVertex
100
AcDbPolygonMeshVertex
 10
-0.398
 20
-1.5
 30
3.887
 70
    64
  0
VERTEX
  5
79EE1
100
AcDbEntity
  8
0
100
AcDbVertex
100
AcDbPolygonMeshVertex
 10
-0.398
 20
-6.18
 30
3.887
 70
    64
  0
VERTEX
  5
79EE2
100
AcDbEntity
  8
0
100
AcDbVertex
100
AcDbPolygonMeshVertex
 10
-4.218
 20
-1.5
 30
3.887
 70
    64
  0
VERTEX
  5
79EE3
100
AcDbEntity
  8
0
100
AcDbVertex
100
AcDbPolygonMeshVertex
 10
-4.218
 20
-1.5
 30
3.887
 70
    64
  0
VERTEX
  5
79EE4
100
AcDbEntity
  8
0
100
AcDbVertex
100
AcDbPolygonMeshVertex
 10
-4.218
 20
-6.18
 30
3.887
 70
    64
  0
SEQEND
  5
79EE5
100
AcDbEntity
  8
0
  0
POLYLINE
  5
79EE6
100
AcDbEntity
  8
0
100
AcDbPolygonMesh
 66
     1
 10
0.0
 20
0.0
 30
0.0
 70
    16
 71
     6
 72
     3
  0
VERTEX
  5
79EE7
100
AcDbEntity
  8
0
100
AcDbVertex
100
AcDbPolygonMeshVertex
 10
-0.398
 20
-6.66
 30
3.087
 70
    64
  0
VERTEX
  5
79EE8
100
AcDbEntity
  8
0
100
AcDbVertex
100
AcDbPolygonMeshVertex
 10
-0.398
 20
-6.66
 30
1.917
 70
    64
  0
VERTEX
  5
79EE9
100
AcDbEntity
  8
0
100
AcDbVertex
100
AcDbPolygonMeshVertex
 10
-0.398
 20
-6.66
 30
1.917
 70
    64
  0
VERTEX
  5
79EEA
100
AcDbEntity
  8
0
100
AcDbVertex
100
AcDbPolygonMeshVertex
 10
-4.218
 20
-6.66
 30
3.087
 70
    64
  0
VERTEX
  5
79EEB
100
AcDbEntity
  8
0
100
AcDbVertex
100
AcDbPolygonMeshVertex
 10
-4.218
 20
-6.66
 30
1.917
 70
    64
  0
VERTEX
  5
79EEC
100
AcDbEntity
  8
0
100
AcDbVertex
100
AcDbPolygonMeshVertex
 10
-4.218
 20
-6.66
 30
1.917
 70
    64
  0
VERTEX
  5
79EED
100
AcDbEntity
  8
0
100
AcDbVertex
100
AcDbPolygonMeshVertex
 10
-4.218
 20
-6.18
 30
3.087
 70
    64
  0
VERTEX
  5
79EEE
100
AcDbEntity
  8
0
100
AcDbVertex
100
AcDbPolygonMeshVertex
 10
-4.218
 20
-6.18
 30
1.917
 70
    64
  0
VERTEX
  5
79EEF
100
AcDbEntity
  8
0
100
AcDbVertex
100
AcDbPolygonMeshVertex
 10
-4.218
 20
-6.66
 30
1.917
 70
    64
  0
VERTEX
  5
79EF0
100
AcDbEntity
  8
0
100
AcDbVertex
100
AcDbPolygonMeshVertex
 10
-0.398
 20
-6.18
 30
3.087
 70
    64
  0
VERTEX
  5
79EF1
100
AcDbEntity
  8
0
100
AcDbVertex
100
AcDbPolygonMeshVertex
 10
-0.398
 20
-6.18
 30
1.917
 70
    64
  0
VERTEX
  5
79EF2
100
AcDbEntity
  8
0
100
AcDbVertex
100
AcDbPolygonMeshVertex
 10
-0.398
 20
-6.66
 30
1.917
 70
    64
  0
VERTEX
  5
79EF3
100
AcDbEntity
  8
0
100
AcDbVertex
100
AcDbPolygonMeshVertex
 10
-0.398
 20
-6.18
 30
3.087
 70
    64
  0
VERTEX
  5
79EF4
100
AcDbEntity
  8
0
100
AcDbVertex
100
AcDbPolygonMeshVertex
 10
-0.398
 20
-6.18
 30
3.087
 70
    64
  0
VERTEX
  5
79EF5
100
AcDbEntity
  8
0
100
AcDbVertex
100
AcDbPolygonMeshVertex
 10
-0.398
 20
-6.66
 30
3.087
 70
    64
  0
VERTEX
  5
79EF6
100
AcDbEntity
  8
0
100
AcDbVertex
100
AcDbPolygonMeshVertex
 10
-4.218
 20
-6.18
 30
3.087
 70
    64
  0
VERTEX
  5
79EF7
100
AcDbEntity
  8
0
100
AcDbVertex
100
AcDbPolygonMeshVertex
 10
-4.218
 20
-6.18
 30
3.087
 70
    64
  0
VERTEX
  5
79EF8
100
AcDbEntity
  8
0
100
AcDbVertex
100
AcDbPolygonMeshVertex
 10
-4.218
 20
-6.66
 30
3.087
 70
    64
  0
SEQEND
  5
79EF9
100
AcDbEntity
  8
0
  0
POLYLINE
  5
79EFA
100
AcDbEntity
  8
0
100
AcDbPolygonMesh
 66
     1
 10
0.0
 20
0.0
 30
0.0
 70
    16
 71
     6
 72
     3
  0
VERTEX
  5
79EFB
100
AcDbEntity
  8
0
100
AcDbVertex
100
AcDbPolygonMeshVertex
 10
-4.218
 20
-6.18
 30
0.387
 70
    64
  0
VERTEX
  5
79EFC
100
AcDbEntity
  8
0
100
AcDbVertex
100
AcDbPolygonMeshVertex
 10
-4.218
 20
-6.18
 30
0.387
 70
    64
  0
VERTEX
  5
79EFD
100
AcDbEntity
  8
0
100
AcDbVertex
100
AcDbPolygonMeshVertex
 10
-4.218
 20
-6.18
 30
0.387
 70
    64
  0
VERTEX
  5
79EFE
100
AcDbEntity
  8
0
100
AcDbVertex
100
AcDbPolygonMeshVertex
 10
-4.218
 20
-6.66
 30
1.917
 70
    64
  0
VERTEX
  5
79EFF
100
AcDbEntity
  8
0
100
AcDbVertex
100
AcDbPolygonMeshVertex
 10
-4.218
 20
-6.18
 30
1.917
 70
    64
  0
VERTEX
  5
79F00
100
AcDbEntity
  8
0
100
AcDbVertex
100
AcDbPolygonMeshVertex
 10
-4.218
 20
-6.18
 30
1.917
 70
    64
  0
VERTEX
  5
79F01
100
AcDbEntity
  8
0
100
AcDbVertex
100
AcDbPolygonMeshVertex
 10
-0.398
 20
-6.66
 30
1.917
 70
    64
  0
VERTEX
  5
79F02
100
AcDbEntity
  8
0
100
AcDbVertex
100
AcDbPolygonMeshVertex
 10
-0.398
 20
-6.18
 30
1.917
 70
    64
  0
VERTEX
  5
79F03
100
AcDbEntity
  8
0
100
AcDbVertex
100
AcDbPolygonMeshVertex
 10
-4.218
 20
-6.18
 30
1.917
 70
    64
  0
VERTEX
  5
79F04
100
AcDbEntity
  8
0
100
AcDbVertex
100
AcDbPolygonMeshVertex
 10
-0.398
 20
-6.18
 30
0.387
 70
    64
  0
VERTEX
  5
79F05
100
AcDbEntity
  8
0
100
AcDbVertex
100
AcDbPolygonMeshVertex
 10
-0.398
 20
-6.18
 30
0.387
 70
    64
  0
VERTEX
  5
79F06
100
AcDbEntity
  8
0
100
AcDbVertex
100
AcDbPolygonMeshVertex
 10
-4.218
 20
-6.18
 30
0.387
 70
    64
  0
VERTEX
  5
79F07
100
AcDbEntity
  8
0
100
AcDbVertex
100
AcDbPolygonMeshVertex
 10
-0.398
 20
-6.18
 30
0.387
 70
    64
  0
VERTEX
  5
79F08
100
AcDbEntity
  8
0
100
AcDbVertex
100
AcDbPolygonMeshVertex
 10
-0.398
 20
-6.18
 30
0.387
 70
    64
  0
VERTEX
  5
79F09
100
AcDbEntity
  8
0
100
AcDbVertex
100
AcDbPolygonMeshVertex
 10
-4.218
 20
-6.18
 30
0.387
 70
    64
  0
VERTEX
  5
79F0A
100
AcDbEntity
  8
0
100
AcDbVertex
100
AcDbPolygonMeshVertex
 10
-0.398
 20
-6.66
 30
1.917
 70
    64
  0
VERTEX
  5
79F0B
100
AcDbEntity
  8
0
100
AcDbVertex
100
AcDbPolygonMeshVertex
 10
-0.398
 20
-6.66
 30
1.917
 70
    64
  0
VERTEX
  5
79F0C
100
AcDbEntity
  8
0
100
AcDbVertex
100
AcDbPolygonMeshVertex
 10
-4.218
 20
-6.66
 30
1.917
 70
    64
  0
SEQEND
  5
79F0D
100
AcDbEntity
  8
0
  0
ARC
  5
79F0E
100
AcDbEntity
  8
0
100
AcDbCircle
 10
-3.888
 20
-6.91
 30
0.197
 40
0.1
100
AcDbArc
 50
0.0
 51
179.999985
  0
ARC
  5
79F0F
100
AcDbEntity
  8
0
100
AcDbCircle
 10
-3.888
 20
-6.91
 30
0.387
 40
0.1
100
AcDbArc
 50
0.0
 51
179.999985
  0
3DFACE
  5
79F10
100
AcDbEntity
  8
0
100
AcDbFace
 10
-3.788
 20
-6.91
 30
0.387
 11
-3.788
 21
-6.91
 31
0.197
 12
-3.788
 22
-7.12
 32
0.197
 13
-3.788
 23
-7.12
 33
0.387
 70
    14
  0
LINE
  5
79F11
100
AcDbEntity
  8
0
100
AcDbLine
 10
-3.988
 20
-7.12
 30
0.197
 11
-3.988
 21
-7.12
 31
0.387
  0
LINE
  5
79F12
100
AcDbEntity
  8
0
100
AcDbLine
 10
-3.988
 20
-6.91
 30
0.197
 11
-3.988
 21
-6.91
 31
0.387
  0
LINE
  5
79F13
100
AcDbEntity
  8
0
100
AcDbLine
 10
-3.788
 20
-6.91
 30
0.197
 11
-3.788
 21
-6.91
 31
0.387
  0
LINE
  5
79F14
100
AcDbEntity
  8
0
100
AcDbLine
 10
-3.788
 20
-7.12
 30
0.197
 11
-3.788
 21
-7.12
 31
0.387
  0
LINE
  5
79F15
100
AcDbEntity
  8
0
100
AcDbLine
 10
-3.988
 20
-6.91
 30
0.197
 11
-3.988
 21
-7.12
 31
0.197
  0
LINE
  5
79F16
100
AcDbEntity
  8
0
100
AcDbLine
 10
-3.788
 20
-7.12
 30
0.197
 11
-3.788
 21
-6.91
 31
0.197
  0
LINE
  5
79F17
100
AcDbEntity
  8
0
100
AcDbLine
 10
-3.988
 20
-6.91
 30
0.387
 11
-3.988
 21
-7.12
 31
0.387
  0
LINE
  5
79F18
100
AcDbEntity
  8
0
100
AcDbLine
 10
-3.788
 20
-7.12
 30
0.387
 11
-3.788
 21
-6.91
 31
0.387
  0
ARC
  5
79F19
100
AcDbEntity
  8
0
100
AcDbCircle
 10
-0.728
 20
-6.91
 30
0.197
 40
0.1
100
AcDbArc
 50
0.0
 51
179.999985
  0
ARC
  5
79F1A
100
AcDbEntity
  8
0
100
AcDbCircle
 10
-0.728
 20
-6.91
 30
0.387
 40
0.1
100
AcDbArc
 50
0.0
 51
179.999985
  0
LINE
  5
79F1B
100
AcDbEntity
  8
0
100
AcDbLine
 39
0.19
 10
-0.828
 20
-6.91
 30
0.197
 11
-0.828
 21
-7.12
 31
0.197
  0
3DFACE
  5
79F1C
100
AcDbEntity
  8
0
100
AcDbFace
 10
-0.628
 20
-6.91
 30
0.387
 11
-0.628
 21
-6.91
 31
0.197
 12
-0.628
 22
-7.12
 32
0.197
 13
-0.628
 23
-7.12
 33
0.387
 70
    14
  0
LINE
  5
79F1D
100
AcDbEntity
  8
0
100
AcDbLine
 10
-0.828
 20
-7.12
 30
0.197
 11
-0.828
 21
-7.12
 31
0.387
  0
LINE
  5
79F1E
100
AcDbEntity
  8
0
100
AcDbLine
 10
-0.828
 20
-6.91
 30
0.197
 11
-0.828
 21
-6.91
 31
0.387
  0
LINE
  5
79F1F
100
AcDbEntity
  8
0
100
AcDbLine
 10
-0.628
 20
-6.91
 30
0.197
 11
-0.628
 21
-6.91
 31
0.387
  0
LINE
  5
79F20
100
AcDbEntity
  8
0
100
AcDbLine
 10
-0.628
 20
-7.12
 30
0.197
 11
-0.628
 21
-7.12
 31
0.387
  0
LINE
  5
79F21
100
AcDbEntity
  8
0
100
AcDbLine
 10
-0.628
 20
-7.12
 30
0.197
 11
-0.628
 21
-6.91
 31
0.197
  0
LINE
  5
79F22
100
AcDbEntity
  8
0
100
AcDbLine
 10
-0.828
 20
-6.91
 30
0.387
 11
-0.828
 21
-7.12
 31
0.387
  0
LINE
  5
79F23
100
AcDbEntity
  8
0
100
AcDbLine
 10
-0.628
 20
-7.12
 30
0.387
 11
-0.628
 21
-6.91
 31
0.387
  0
3DFACE
  5
79F24
100
AcDbEntity
  8
0
100
AcDbFace
 10
-3.658
 20
-0.31
 30
0.387
 11
-3.658
 21
-0.31
 31
0.197
 12
-0.958
 22
-0.31
 32
0.197
 13
-0.958
 23
-0.31
 33
0.387
  0
3DFACE
  5
79F25
100
AcDbEntity
  8
0
100
AcDbFace
 10
-4.278
 20
-0.93
 30
0.197
 11
-3.658
 21
-0.31
 31
0.197
 12
-0.958
 22
-0.31
 32
0.197
 13
-0.338
 23
-0.93
 33
0.197
  0
3DFACE
  5
79F26
100
AcDbEntity
  8
0
100
AcDbFace
 10
-4.278
 20
-0.93
 30
0.387
 11
-3.658
 21
-0.31
 31
0.387
 12
-0.958
 22
-0.31
 32
0.387
 13
-0.338
 23
-0.93
 33
0.387
  0
3DFACE
  5
79F27
100
AcDbEntity
  8
0
100
AcDbFace
 10
-3.658
 20
-0.31
 30
0.197
 11
-3.658
 21
-0.31
 31
0.387
 12
-4.278
 22
-0.93
 32
0.387
 13
-4.278
 23
-0.93
 33
0.197
  0
ARC
  5
79F28
100
AcDbEntity
  8
0
100
AcDbCircle
 10
-2.308
 20
-0.59
 30
0.387
 40
0.1
100
AcDbArc
 50
0.0
 51
179.999985
  0
ARC
  5
79F29
100
AcDbEntity
  8
0
100
AcDbCircle
 10
-2.308
 20
-0.59
 30
0.197
 40
0.1
100
AcDbArc
 50
0.0
 51
179.999985
  0
ARC
  5
79F2A
100
AcDbEntity
  8
0
100
AcDbCircle
 10
-2.308
 20
-0.933
 30
0.197
 40
0.234
100
AcDbArc
 50
115.299522
 51
64.70047
  0
ARC
  5
79F2B
100
AcDbEntity
  8
0
100
AcDbCircle
 10
-2.308
 20
-0.933
 30
0.387
 40
0.234
100
AcDbArc
 50
115.299522
 51
64.70047
  0
LINE
  5
79F2C
100
AcDbEntity
  8
0
100
AcDbLine
 10
-2.408
 20
-0.59
 30
0.197
 11
-2.408
 21
-0.59
 31
0.387
  0
LINE
  5
79F2D
100
AcDbEntity
  8
0
100
AcDbLine
 10
-2.408
 20
-0.721444
 30
0.197
 11
-2.408
 21
-0.721444
 31
0.387
  0
LINE
  5
79F2E
100
AcDbEntity
  8
0
100
AcDbLine
 10
-2.408
 20
-0.59
 30
0.197
 11
-2.408
 21
-0.721444
 31
0.197
  0
LINE
  5
79F2F
100
AcDbEntity
  8
0
100
AcDbLine
 10
-2.408
 20
-0.59
 30
0.387
 11
-2.408
 21
-0.721444
 31
0.387
  0
LINE
  5
79F30
100
AcDbEntity
  8
0
100
AcDbLine
 10
-1.8265
 20
-0.59
 30
0.197
 11
-1.8265
 21
-0.59
 31
0.387
  0
LINE
  5
79F31
100
AcDbEntity
  8
0
100
AcDbLine
 10
-2.208
 20
-0.59
 30
0.197
 11
-2.208
 21
-0.59
 31
0.387
  0
LINE
  5
79F32
100
AcDbEntity
  8
0
100
AcDbLine
 10
-2.208
 20
-0.721444
 30
0.197
 11
-2.208
 21
-0.721444
 31
0.387
  0
CIRCLE
  5
79F33
100
AcDbEntity
  8
0
100
AcDbCircle
 10
-1.928
 20
-0.59
 30
0.197
 40
0.1015
  0
LINE
  5
79F34
100
AcDbEntity
  8
0
100
AcDbLine
 10
-2.208
 20
-0.59
 30
0.197
 11
-2.208
 21
-0.721444
 31
0.197
  0
CIRCLE
  5
79F35
100
AcDbEntity
  8
0
100
AcDbCircle
 10
-1.928
 20
-0.59
 30
0.387
 40
0.1015
  0
LINE
  5
79F36
100
AcDbEntity
  8
0
100
AcDbLine
 10
-2.208
 20
-0.59
 30
0.387
 11
-2.208
 21
-0.721444
 31
0.387
  0
3DFACE
  5
79F37
100
AcDbEntity
  8
0
100
AcDbFace
 10
-0.958
 20
-0.31
 30
0.387
 11
-0.958
 21
-0.31
 31
0.197
 12
-0.338
 22
-0.93
 32
0.197
 13
-0.338
 23
-0.93
 33
0.387
  0
POLYLINE
  5
79F38
100
AcDbEntity
  8
0
100
AcDbPolygonMesh
 66
     1
 10
0.0
 20
0.0
 30
0.0
 70
    16
 71
     6
 72
     3
  0
VERTEX
  5
79F39
100
AcDbEntity
  8
0
100
AcDbVertex
100
AcDbPolygonMeshVertex
 10
-0.398
 20
-2.19
 30
4.197
 70
    64
  0
VERTEX
  5
79F3A
100
AcDbEntity
  8
0
100
AcDbVertex
100
AcDbPolygonMeshVertex
 10
-0.398
 20
-2.19
 30
3.887
 70
    64
  0
VERTEX
  5
79F3B
100
AcDbEntity
  8
0
100
AcDbVertex
100
AcDbPolygonMeshVertex
 10
-0.398
 20
-2.19
 30
3.887
 70
    64
  0
VERTEX
  5
79F3C
100
AcDbEntity
  8
0
100
AcDbVertex
100
AcDbPolygonMeshVertex
 10
-4.218
 20
-2.19
 30
4.197
 70
    64
  0
VERTEX
  5
79F3D
100
AcDbEntity
  8
0
100
AcDbVertex
100
AcDbPolygonMeshVertex
 10
-4.218
 20
-2.19
 30
3.887
 70
    64
  0
VERTEX
  5
79F3E
100
AcDbEntity
  8
0
100
AcDbVertex
100
AcDbPolygonMeshVertex
 10
-4.218
 20
-2.19
 30
3.887
 70
    64
  0
VERTEX
  5
79F3F
100
AcDbEntity
  8
0
100
AcDbVertex
100
AcDbPolygonMeshVertex
 10
-4.218
 20
-1.5
 30
4.197
 70
    64
  0
VERTEX
  5
79F40
100
AcDbEntity
  8
0
100
AcDbVertex
100
AcDbPolygonMeshVertex
 10
-4.218
 20
-1.5
 30
3.887
 70
    64
  0
VERTEX
  5
79F41
100
AcDbEntity
  8
0
100
AcDbVertex
100
AcDbPolygonMeshVertex
 10
-4.218
 20
-2.19
 30
3.887
 70
    64
  0
VERTEX
  5
79F42
100
AcDbEntity
  8
0
100
AcDbVertex
100
AcDbPolygonMeshVertex
 10
-0.398
 20
-1.5
 30
4.197
 70
    64
  0
VERTEX
  5
79F43
100
AcDbEntity
  8
0
100
AcDbVertex
100
AcDbPolygonMeshVertex
 10
-0.398
 20
-1.5
 30
3.887
 70
    64
  0
VERTEX
  5
79F44
100
AcDbEntity
  8
0
100
AcDbVertex
100
AcDbPolygonMeshVertex
 10
-0.398
 20
-2.19
 30
3.887
 70
    64
  0
VERTEX
  5
79F45
100
AcDbEntity
  8
0
100
AcDbVertex
100
AcDbPolygonMeshVertex
 10
-0.398
 20
-1.5
 30
4.197
 70
    64
  0
VERTEX
  5
79F46
100
AcDbEntity
  8
0
100
AcDbVertex
100
AcDbPolygonMeshVertex
 10
-0.398
 20
-1.5
 30
4.197
 70
    64
  0
VERTEX
  5
79F47
100
AcDbEntity
  8
0
100
AcDbVertex
100
AcDbPolygonMeshVertex
 10
-0.398
 20
-2.19
 30
4.197
 70
    64
  0
VERTEX
  5
79F48
100
AcDbEntity
  8
0
100
AcDbVertex
100
AcDbPolygonMeshVertex
 10
-4.218
 20
-1.5
 30
4.197
 70
    64
  0
VERTEX
  5
79F49
100
AcDbEntity
  8
0
100
AcDbVertex
100
AcDbPolygonMeshVertex
 10
-4.218
 20
-1.5
 30
4.197
 70
    64
  0
VERTEX
  5
79F4A
100
AcDbEntity
  8
0
100
AcDbVertex
100
AcDbPolygonMeshVertex
 10
-4.218
 20
-2.19
 30
4.197
 70
    64
  0
SEQEND
  5
79F4B
100
AcDbEntity
  8
0
  0
POLYLINE
  5
79F4C
100
AcDbEntity
  8
0
100
AcDbPolygonMesh
 66
     1
 10
0.0
 20
0.0
 30
0.0
 70
    16
 71
     6
 72
     3
  0
VERTEX
  5
79F4D
100
AcDbEntity
  8
0
100
AcDbVertex
100
AcDbPolygonMeshVertex
 10
-0.398
 20
-3.28
 30
4.027
 70
    64
  0
VERTEX
  5
79F4E
100
AcDbEntity
  8
0
100
AcDbVertex
100
AcDbPolygonMeshVertex
 10
-0.398
 20
-3.28
 30
3.887
 70
    64
  0
VERTEX
  5
79F4F
100
AcDbEntity
  8
0
100
AcDbVertex
100
AcDbPolygonMeshVertex
 10
-0.398
 20
-3.28
 30
3.887
 70
    64
  0
VERTEX
  5
79F50
100
AcDbEntity
  8
0
100
AcDbVertex
100
AcDbPolygonMeshVertex
 10
-4.218
 20
-3.28
 30
4.027
 70
    64
  0
VERTEX
  5
79F51
100
AcDbEntity
  8
0
100
AcDbVertex
100
AcDbPolygonMeshVertex
 10
-4.218
 20
-3.28
 30
3.887
 70
    64
  0
VERTEX
  5
79F52
100
AcDbEntity
  8
0
100
AcDbVertex
100
AcDbPolygonMeshVertex
 10
-4.218
 20
-3.28
 30
3.887
 70
    64
  0
VERTEX
  5
79F53
100
AcDbEntity
  8
0
100
AcDbVertex
100
AcDbPolygonMeshVertex
 10
-4.218
 20
-2.19
 30
4.027
 70
    64
  0
VERTEX
  5
79F54
100
AcDbEntity
  8
0
100
AcDbVertex
100
AcDbPolygonMeshVertex
 10
-4.218
 20
-2.19
 30
3.887
 70
    64
  0
VERTEX
  5
79F55
100
AcDbEntity
  8
0
100
AcDbVertex
100
AcDbPolygonMeshVertex
 10
-4.218
 20
-3.28
 30
3.887
 70
    64
  0
VERTEX
  5
79F56
100
AcDbEntity
  8
0
100
AcDbVertex
100
AcDbPolygonMeshVertex
 10
-0.398
 20
-2.19
 30
4.027
 70
    64
  0
VERTEX
  5
79F57
100
AcDbEntity
  8
0
100
AcDbVertex
100
AcDbPolygonMeshVertex
 10
-0.398
 20
-2.19
 30
3.887
 70
    64
  0
VERTEX
  5
79F58
100
AcDbEntity
  8
0
100
AcDbVertex
100
AcDbPolygonMeshVertex
 10
-0.398
 20
-3.28
 30
3.887
 70
    64
  0
VERTEX
  5
79F59
100
AcDbEntity
  8
0
100
AcDbVertex
100
AcDbPolygonMeshVertex
 10
-0.398
 20
-2.19
 30
4.027
 70
    64
  0
VERTEX
  5
79F5A
100
AcDbEntity
  8
0
100
AcDbVertex
100
AcDbPolygonMeshVertex
 10
-0.398
 20
-2.19
 30
4.027
 70
    64
  0
VERTEX
  5
79F5B
100
AcDbEntity
  8
0
100
AcDbVertex
100
AcDbPolygonMeshVertex
 10
-0.398
 20
-3.28
 30
4.027
 70
    64
  0
VERTEX
  5
79F5C
100
AcDbEntity
  8
0
100
AcDbVertex
100
AcDbPolygonMeshVertex
 10
-4.218
 20
-2.19
 30
4.027
 70
    64
  0
VERTEX
  5
79F5D
100
AcDbEntity
  8
0
100
AcDbVertex
100
AcDbPolygonMeshVertex
 10
-4.218
 20
-2.19
 30
4.027
 70
    64
  0
VERTEX
  5
79F5E
100
AcDbEntity
  8
0
100
AcDbVertex
100
AcDbPolygonMeshVertex
 10
-4.218
 20
-3.28
 30
4.027
 70
    64
  0
SEQEND
  5
79F5F
100
AcDbEntity
  8
0
  0
LINE
  5
79F60
100
AcDbEntity
  8
0
100
AcDbLine
 10
-4.218
 20
-3.28
 30
3.887
 11
-4.218
 21
-1.5
 31
3.887
  0
LINE
  5
79F61
100
AcDbEntity
  8
0
100
AcDbLine
 10
-4.218
 20
-2.19
 30
4.027
 11
-4.218
 21
-2.19
 31
3.887
  0
POLYLINE
  5
79F62
100
AcDbEntity
  8
0
100
AcDbPolygonMesh
 66
     1
 10
0.0
 20
0.0
 30
0.0
 70
    16
 71
     6
 72
     3
  0
VERTEX
  5
79F63
100
AcDbEntity
  8
0
100
AcDbVertex
100
AcDbPolygonMeshVertex
 10
-1.368
 20
-5.12
 30
4.197
 70
    64
  0
VERTEX
  5
79F64
100
AcDbEntity
  8
0
100
AcDbVertex
100
AcDbPolygonMeshVertex
 10
-1.368
 20
-5.12
 30
3.887
 70
    64
  0
VERTEX
  5
79F65
100
AcDbEntity
  8
0
100
AcDbVertex
100
AcDbPolygonMeshVertex
 10
-1.368
 20
-5.12
 30
3.887
 70
    64
  0
VERTEX
  5
79F66
100
AcDbEntity
  8
0
100
AcDbVertex
100
AcDbPolygonMeshVertex
 10
-3.248
 20
-5.12
 30
4.197
 70
    64
  0
VERTEX
  5
79F67
100
AcDbEntity
  8
0
100
AcDbVertex
100
AcDbPolygonMeshVertex
 10
-3.248
 20
-5.12
 30
3.887
 70
    64
  0
VERTEX
  5
79F68
100
AcDbEntity
  8
0
100
AcDbVertex
100
AcDbPolygonMeshVertex
 10
-3.248
 20
-5.12
 30
3.887
 70
    64
  0
VERTEX
  5
79F69
100
AcDbEntity
  8
0
100
AcDbVertex
100
AcDbPolygonMeshVertex
 10
-3.248
 20
-4.29
 30
4.197
 70
    64
  0
VERTEX
  5
79F6A
100
AcDbEntity
  8
0
100
AcDbVertex
100
AcDbPolygonMeshVertex
 10
-3.248
 20
-4.29
 30
3.887
 70
    64
  0
VERTEX
  5
79F6B
100
AcDbEntity
  8
0
100
AcDbVertex
100
AcDbPolygonMeshVertex
 10
-3.248
 20
-5.12
 30
3.887
 70
    64
  0
VERTEX
  5
79F6C
100
AcDbEntity
  8
0
100
AcDbVertex
100
AcDbPolygonMeshVertex
 10
-1.368
 20
-4.29
 30
4.197
 70
    64
  0
VERTEX
  5
79F6D
100
AcDbEntity
  8
0
100
AcDbVertex
100
AcDbPolygonMeshVertex
 10
-1.368
 20
-4.29
 30
3.887
 70
    64
  0
VERTEX
  5
79F6E
100
AcDbEntity
  8
0
100
AcDbVertex
100
AcDbPolygonMeshVertex
 10
-1.368
 20
-5.12
 30
3.887
 70
    64
  0
VERTEX
  5
79F6F
100
AcDbEntity
  8
0
100
AcDbVertex
100
AcDbPolygonMeshVertex
 10
-1.368
 20
-4.29
 30
4.197
 70
    64
  0
VERTEX
  5
79F70
100
AcDbEntity
  8
0
100
AcDbVertex
100
AcDbPolygonMeshVertex
 10
-1.368
 20
-4.29
 30
4.197
 70
    64
  0
VERTEX
  5
79F71
100
AcDbEntity
  8
0
100
AcDbVertex
100
AcDbPolygonMeshVertex
 10
-1.368
 20
-5.12
 30
4.197
 70
    64
  0
VERTEX
  5
79F72
100
AcDbEntity
  8
0
100
AcDbVertex
100
AcDbPolygonMeshVertex
 10
-3.248
 20
-4.29
 30
4.197
 70
    64
  0
VERTEX
  5
79F73
100
AcDbEntity
  8
0
100
AcDbVertex
100
AcDbPolygonMeshVertex
 10
-3.248
 20
-4.29
 30
4.197
 70
    64
  0
VERTEX
  5
79F74
100
AcDbEntity
  8
0
100
AcDbVertex
100
AcDbPolygonMeshVertex
 10
-3.248
 20
-5.12
 30
4.197
 70
    64
  0
SEQEND
  5
79F75
100
AcDbEntity
  8
0
  0
POLYLINE
  5
79F76
100
AcDbEntity
  8
0
100
AcDbPolygonMesh
 66
     1
 10
0.0
 20
0.0
 30
0.0
 70
    16
 71
     6
 72
     3
  0
VERTEX
  5
79F77
100
AcDbEntity
  8
0
100
AcDbVertex
100
AcDbPolygonMeshVertex
 10
-2.588
 20
-4.82
 30
4.517
 70
    64
  0
VERTEX
  5
79F78
100
AcDbEntity
  8
0
100
AcDbVertex
100
AcDbPolygonMeshVertex
 10
-2.588
 20
-4.82
 30
4.197
 70
    64
  0
VERTEX
  5
79F79
100
AcDbEntity
  8
0
100
AcDbVertex
100
AcDbPolygonMeshVertex
 10
-2.588
 20
-4.82
 30
4.197
 70
    64
  0
VERTEX
  5
79F7A
100
AcDbEntity
  8
0
100
AcDbVertex
100
AcDbPolygonMeshVertex
 10
-2.968
 20
-4.82
 30
4.517
 70
    64
  0
VERTEX
  5
79F7B
100
AcDbEntity
  8
0
100
AcDbVertex
100
AcDbPolygonMeshVertex
 10
-2.968
 20
-4.82
 30
4.197
 70
    64
  0
VERTEX
  5
79F7C
100
AcDbEntity
  8
0
100
AcDbVertex
100
AcDbPolygonMeshVertex
 10
-2.968
 20
-4.82
 30
4.197
 70
    64
  0
VERTEX
  5
79F7D
100
AcDbEntity
  8
0
100
AcDbVertex
100
AcDbPolygonMeshVertex
 10
-2.968
 20
-4.38
 30
4.517
 70
    64
  0
VERTEX
  5
79F7E
100
AcDbEntity
  8
0
100
AcDbVertex
100
AcDbPolygonMeshVertex
 10
-2.968
 20
-4.38
 30
4.197
 70
    64
  0
VERTEX
  5
79F7F
100
AcDbEntity
  8
0
100
AcDbVertex
100
AcDbPolygonMeshVertex
 10
-2.968
 20
-4.82
 30
4.197
 70
    64
  0
VERTEX
  5
79F80
100
AcDbEntity
  8
0
100
AcDbVertex
100
AcDbPolygonMeshVertex
 10
-2.588
 20
-4.38
 30
4.517
 70
    64
  0
VERTEX
  5
79F81
100
AcDbEntity
  8
0
100
AcDbVertex
100
AcDbPolygonMeshVertex
 10
-2.588
 20
-4.38
 30
4.197
 70
    64
  0
VERTEX
  5
79F82
100
AcDbEntity
  8
0
100
AcDbVertex
100
AcDbPolygonMeshVertex
 10
-2.588
 20
-4.82
 30
4.197
 70
    64
  0
VERTEX
  5
79F83
100
AcDbEntity
  8
0
100
AcDbVertex
100
AcDbPolygonMeshVertex
 10
-2.588
 20
-4.38
 30
4.517
 70
    64
  0
VERTEX
  5
79F84
100
AcDbEntity
  8
0
100
AcDbVertex
100
AcDbPolygonMeshVertex
 10
-2.588
 20
-4.38
 30
4.517
 70
    64
  0
VERTEX
  5
79F85
100
AcDbEntity
  8
0
100
AcDbVertex
100
AcDbPolygonMeshVertex
 10
-2.588
 20
-4.82
 30
4.517
 70
    64
  0
VERTEX
  5
79F86
100
AcDbEntity
  8
0
100
AcDbVertex
100
AcDbPolygonMeshVertex
 10
-2.968
 20
-4.38
 30
4.517
 70
    64
  0
VERTEX
  5
79F87
100
AcDbEntity
  8
0
100
AcDbVertex
100
AcDbPolygonMeshVertex
 10
-2.968
 20
-4.38
 30
4.517
 70
    64
  0
VERTEX
  5
79F88
100
AcDbEntity
  8
0
100
AcDbVertex
100
AcDbPolygonMeshVertex
 10
-2.968
 20
-4.82
 30
4.517
 70
    64
  0
SEQEND
  5
79F89
100
AcDbEntity
  8
0
  0
CIRCLE
  5
79F8A
100
AcDbEntity
  8
0
100
AcDbCircle
 10
-2.778
 20
-4.63
 30
4.517
 40
0.095
  0
LINE
  5
79F8B
100
AcDbEntity
  8
0
100
AcDbLine
 10
-2.810227
 20
-4.540356
 30
4.517
 11
-2.758339
 21
-4.72281
 31
4.517
  0
LINE
  5
79F8C
100
AcDbEntity
  8
0
100
AcDbLine
 10
-2.798713
 20
-4.537285
 30
4.517
 11
-2.746826
 21
-4.71974
 31
4.517
  0
POLYLINE
  5
79F8D
100
AcDbEntity
  8
0
100
AcDbPolygonMesh
 66
     1
 10
0.0
 20
0.0
 30
0.0
 70
    16
 71
     6
 72
     3
  0
VERTEX
  5
79F8E
100
AcDbEntity
  8
0
100
AcDbVertex
100
AcDbPolygonMeshVertex
 10
-1.648
 20
-4.82
 30
4.517
 70
    64
  0
VERTEX
  5
79F8F
100
AcDbEntity
  8
0
100
AcDbVertex
100
AcDbPolygonMeshVertex
 10
-1.648
 20
-4.82
 30
4.197
 70
    64
  0
VERTEX
  5
79F90
100
AcDbEntity
  8
0
100
AcDbVertex
100
AcDbPolygonMeshVertex
 10
-1.648
 20
-4.82
 30
4.197
 70
    64
  0
VERTEX
  5
79F91
100
AcDbEntity
  8
0
100
AcDbVertex
100
AcDbPolygonMeshVertex
 10
-2.028
 20
-4.82
 30
4.517
 70
    64
  0
VERTEX
  5
79F92
100
AcDbEntity
  8
0
100
AcDbVertex
100
AcDbPolygonMeshVertex
 10
-2.028
 20
-4.82
 30
4.197
 70
    64
  0
VERTEX
  5
79F93
100
AcDbEntity
  8
0
100
AcDbVertex
100
AcDbPolygonMeshVertex
 10
-2.028
 20
-4.82
 30
4.197
 70
    64
  0
VERTEX
  5
79F94
100
AcDbEntity
  8
0
100
AcDbVertex
100
AcDbPolygonMeshVertex
 10
-2.028
 20
-4.38
 30
4.517
 70
    64
  0
VERTEX
  5
79F95
100
AcDbEntity
  8
0
100
AcDbVertex
100
AcDbPolygonMeshVertex
 10
-2.028
 20
-4.38
 30
4.197
 70
    64
  0
VERTEX
  5
79F96
100
AcDbEntity
  8
0
100
AcDbVertex
100
AcDbPolygonMeshVertex
 10
-2.028
 20
-4.82
 30
4.197
 70
    64
  0
VERTEX
  5
79F97
100
AcDbEntity
  8
0
100
AcDbVertex
100
AcDbPolygonMeshVertex
 10
-1.648
 20
-4.38
 30
4.517
 70
    64
  0
VERTEX
  5
79F98
100
AcDbEntity
  8
0
100
AcDbVertex
100
AcDbPolygonMeshVertex
 10
-1.648
 20
-4.38
 30
4.197
 70
    64
  0
VERTEX
  5
79F99
100
AcDbEntity
  8
0
100
AcDbVertex
100
AcDbPolygonMeshVertex
 10
-1.648
 20
-4.82
 30
4.197
 70
    64
  0
VERTEX
  5
79F9A
100
AcDbEntity
  8
0
100
AcDbVertex
100
AcDbPolygonMeshVertex
 10
-1.648
 20
-4.38
 30
4.517
 70
    64
  0
VERTEX
  5
79F9B
100
AcDbEntity
  8
0
100
AcDbVertex
100
AcDbPolygonMeshVertex
 10
-1.648
 20
-4.38
 30
4.517
 70
    64
  0
VERTEX
  5
79F9C
100
AcDbEntity
  8
0
100
AcDbVertex
100
AcDbPolygonMeshVertex
 10
-1.648
 20
-4.82
 30
4.517
 70
    64
  0
VERTEX
  5
79F9D
100
AcDbEntity
  8
0
100
AcDbVertex
100
AcDbPolygonMeshVertex
 10
-2.028
 20
-4.38
 30
4.517
 70
    64
  0
VERTEX
  5
79F9E
100
AcDbEntity
  8
0
100
AcDbVertex
100
AcDbPolygonMeshVertex
 10
-2.028
 20
-4.38
 30
4.517
 70
    64
  0
VERTEX
  5
79F9F
100
AcDbEntity
  8
0
100
AcDbVertex
100
AcDbPolygonMeshVertex
 10
-2.028
 20
-4.82
 30
4.517
 70
    64
  0
SEQEND
  5
79FA0
100
AcDbEntity
  8
0
  0
CIRCLE
  5
79FA1
100
AcDbEntity
  8
0
100
AcDbCircle
 10
-1.838
 20
-4.63
 30
4.517
 40
0.095
  0
LINE
  5
79FA2
100
AcDbEntity
  8
0
100
AcDbLine
 10
-1.870227
 20
-4.540356
 30
4.517
 11
-1.818339
 21
-4.72281
 31
4.517
  0
LINE
  5
79FA3
100
AcDbEntity
  8
0
100
AcDbLine
 10
-1.858713
 20
-4.537285
 30
4.517
 11
-1.806826
 21
-4.71974
 31
4.517
  0
POLYLINE
  5
79FA4
100
AcDbEntity
  8
0
100
AcDbPolygonMesh
 66
     1
 10
0.0
 20
0.0
 30
0.0
 70
    16
 71
     6
 72
     3
  0
VERTEX
  5
79FA5
100
AcDbEntity
  8
0
100
AcDbVertex
100
AcDbPolygonMeshVertex
 10
-2.968
 20
-1.22
 30
4.917
 70
    64
  0
VERTEX
  5
79FA6
100
AcDbEntity
  8
0
100
AcDbVertex
100
AcDbPolygonMeshVertex
 10
-2.968
 20
-1.22
 30
4.027
 70
    64
  0
VERTEX
  5
79FA7
100
AcDbEntity
  8
0
100
AcDbVertex
100
AcDbPolygonMeshVertex
 10
-2.968
 20
-1.22
 30
4.027
 70
    64
  0
VERTEX
  5
79FA8
100
AcDbEntity
  8
0
100
AcDbVertex
100
AcDbPolygonMeshVertex
 10
-2.808
 20
-1.22
 30
4.917
 70
    64
  0
VERTEX
  5
79FA9
100
AcDbEntity
  8
0
100
AcDbVertex
100
AcDbPolygonMeshVertex
 10
-2.808
 20
-1.22
 30
4.027
 70
    64
  0
VERTEX
  5
79FAA
100
AcDbEntity
  8
0
100
AcDbVertex
100
AcDbPolygonMeshVertex
 10
-2.808
 20
-1.22
 30
4.027
 70
    64
  0
VERTEX
  5
79FAB
100
AcDbEntity
  8
0
100
AcDbVertex
100
AcDbPolygonMeshVertex
 10
-2.808
 20
-2.19
 30
4.917
 70
    64
  0
VERTEX
  5
79FAC
100
AcDbEntity
  8
0
100
AcDbVertex
100
AcDbPolygonMeshVertex
 10
-2.808
 20
-2.19
 30
4.027
 70
    64
  0
VERTEX
  5
79FAD
100
AcDbEntity
  8
0
100
AcDbVertex
100
AcDbPolygonMeshVertex
 10
-2.808
 20
-1.22
 30
4.027
 70
    64
  0
VERTEX
  5
79FAE
100
AcDbEntity
  8
0
100
AcDbVertex
100
AcDbPolygonMeshVertex
 10
-2.968
 20
-2.19
 30
4.917
 70
    64
  0
VERTEX
  5
79FAF
100
AcDbEntity
  8
0
100
AcDbVertex
100
AcDbPolygonMeshVertex
 10
-2.968
 20
-2.19
 30
4.027
 70
    64
  0
VERTEX
  5
79FB0
100
AcDbEntity
  8
0
100
AcDbVertex
100
AcDbPolygonMeshVertex
 10
-2.968
 20
-1.22
 30
4.027
 70
    64
  0
VERTEX
  5
79FB1
100
AcDbEntity
  8
0
100
AcDbVertex
100
AcDbPolygonMeshVertex
 10
-2.968
 20
-2.19
 30
4.917
 70
    64
  0
VERTEX
  5
79FB2
100
AcDbEntity
  8
0
100
AcDbVertex
100
AcDbPolygonMeshVertex
 10
-2.968
 20
-2.19
 30
4.917
 70
    64
  0
VERTEX
  5
79FB3
100
AcDbEntity
  8
0
100
AcDbVertex
100
AcDbPolygonMeshVertex
 10
-2.968
 20
-1.22
 30
4.917
 70
    64
  0
VERTEX
  5
79FB4
100
AcDbEntity
  8
0
100
AcDbVertex
100
AcDbPolygonMeshVertex
 10
-2.808
 20
-2.19
 30
4.917
 70
    64
  0
VERTEX
  5
79FB5
100
AcDbEntity
  8
0
100
AcDbVertex
100
AcDbPolygonMeshVertex
 10
-2.808
 20
-2.19
 30
4.917
 70
    64
  0
VERTEX
  5
79FB6
100
AcDbEntity
  8
0
100
AcDbVertex
100
AcDbPolygonMeshVertex
 10
-2.808
 20
-1.22
 30
4.917
 70
    64
  0
SEQEND
  5
79FB7
100
AcDbEntity
  8
0
  0
POLYLINE
  5
79FB8
100
AcDbEntity
  8
0
100
AcDbPolygonMesh
 66
     1
 10
0.0
 20
0.0
 30
0.0
 70
    16
 71
     6
 72
     3
  0
VERTEX
  5
79FB9
100
AcDbEntity
  8
0
100
AcDbVertex
100
AcDbPolygonMeshVertex
 10
-1.808
 20
-1.22
 30
4.917
 70
    64
  0
VERTEX
  5
79FBA
100
AcDbEntity
  8
0
100
AcDbVertex
100
AcDbPolygonMeshVertex
 10
-1.808
 20
-1.22
 30
4.027
 70
    64
  0
VERTEX
  5
79FBB
100
AcDbEntity
  8
0
100
AcDbVertex
100
AcDbPolygonMeshVertex
 10
-1.808
 20
-1.22
 30
4.027
 70
    64
  0
VERTEX
  5
79FBC
100
AcDbEntity
  8
0
100
AcDbVertex
100
AcDbPolygonMeshVertex
 10
-1.648
 20
-1.22
 30
4.917
 70
    64
  0
VERTEX
  5
79FBD
100
AcDbEntity
  8
0
100
AcDbVertex
100
AcDbPolygonMeshVertex
 10
-1.648
 20
-1.22
 30
4.027
 70
    64
  0
VERTEX
  5
79FBE
100
AcDbEntity
  8
0
100
AcDbVertex
100
AcDbPolygonMeshVertex
 10
-1.648
 20
-1.22
 30
4.027
 70
    64
  0
VERTEX
  5
79FBF
100
AcDbEntity
  8
0
100
AcDbVertex
100
AcDbPolygonMeshVertex
 10
-1.648
 20
-2.19
 30
4.917
 70
    64
  0
VERTEX
  5
79FC0
100
AcDbEntity
  8
0
100
AcDbVertex
100
AcDbPolygonMeshVertex
 10
-1.648
 20
-2.19
 30
4.027
 70
    64
  0
VERTEX
  5
79FC1
100
AcDbEntity
  8
0
100
AcDbVertex
100
AcDbPolygonMeshVertex
 10
-1.648
 20
-1.22
 30
4.027
 70
    64
  0
VERTEX
  5
79FC2
100
AcDbEntity
  8
0
100
AcDbVertex
100
AcDbPolygonMeshVertex
 10
-1.808
 20
-2.19
 30
4.917
 70
    64
  0
VERTEX
  5
79FC3
100
AcDbEntity
  8
0
100
AcDbVertex
100
AcDbPolygonMeshVertex
 10
-1.808
 20
-2.19
 30
4.027
 70
    64
  0
VERTEX
  5
79FC4
100
AcDbEntity
  8
0
100
AcDbVertex
100
AcDbPolygonMeshVertex
 10
-1.808
 20
-1.22
 30
4.027
 70
    64
  0
VERTEX
  5
79FC5
100
AcDbEntity
  8
0
100
AcDbVertex
100
AcDbPolygonMeshVertex
 10
-1.808
 20
-2.19
 30
4.917
 70
    64
  0
VERTEX
  5
79FC6
100
AcDbEntity
  8
0
100
AcDbVertex
100
AcDbPolygonMeshVertex
 10
-1.808
 20
-2.19
 30
4.917
 70
    64
  0
VERTEX
  5
79FC7
100
AcDbEntity
  8
0
100
AcDbVertex
100
AcDbPolygonMeshVertex
 10
-1.808
 20
-1.22
 30
4.917
 70
    64
  0
VERTEX
  5
79FC8
100
AcDbEntity
  8
0
100
AcDbVertex
100
AcDbPolygonMeshVertex
 10
-1.648
 20
-2.19
 30
4.917
 70
    64
  0
VERTEX
  5
79FC9
100
AcDbEntity
  8
0
100
AcDbVertex
100
AcDbPolygonMeshVertex
 10
-1.648
 20
-2.19
 30
4.917
 70
    64
  0
VERTEX
  5
79FCA
100
AcDbEntity
  8
0
100
AcDbVertex
100
AcDbPolygonMeshVertex
 10
-1.648
 20
-1.22
 30
4.917
 70
    64
  0
SEQEND
  5
79FCB
100
AcDbEntity
  8
0
  0
POLYLINE
  5
79FCC
100
AcDbEntity
  8
0
100
AcDbPolygonMesh
 66
     1
 10
0.0
 20
0.0
 30
0.0
 70
    16
 71
     6
 72
     3
  0
VERTEX
  5
79FCD
100
AcDbEntity
  8
0
100
AcDbVertex
100
AcDbPolygonMeshVertex
 10
-2.968
 20
-1.22
 30
4.027
 70
    64
  0
VERTEX
  5
79FCE
100
AcDbEntity
  8
0
100
AcDbVertex
100
AcDbPolygonMeshVertex
 10
-2.968
 20
-1.22
 30
2.757
 70
    64
  0
VERTEX
  5
79FCF
100
AcDbEntity
  8
0
100
AcDbVertex
100
AcDbPolygonMeshVertex
 10
-2.968
 20
-1.22
 30
2.757
 70
    64
  0
VERTEX
  5
79FD0
100
AcDbEntity
  8
0
100
AcDbVertex
100
AcDbPolygonMeshVertex
 10
-2.808
 20
-1.22
 30
4.027
 70
    64
  0
VERTEX
  5
79FD1
100
AcDbEntity
  8
0
100
AcDbVertex
100
AcDbPolygonMeshVertex
 10
-2.808
 20
-1.22
 30
2.757
 70
    64
  0
VERTEX
  5
79FD2
100
AcDbEntity
  8
0
100
AcDbVertex
100
AcDbPolygonMeshVertex
 10
-2.808
 20
-1.22
 30
2.757
 70
    64
  0
VERTEX
  5
79FD3
100
AcDbEntity
  8
0
100
AcDbVertex
100
AcDbPolygonMeshVertex
 10
-2.808
 20
-1.5
 30
4.027
 70
    64
  0
VERTEX
  5
79FD4
100
AcDbEntity
  8
0
100
AcDbVertex
100
AcDbPolygonMeshVertex
 10
-2.808
 20
-1.5
 30
2.757
 70
    64
  0
VERTEX
  5
79FD5
100
AcDbEntity
  8
0
100
AcDbVertex
100
AcDbPolygonMeshVertex
 10
-2.808
 20
-1.22
 30
2.757
 70
    64
  0
VERTEX
  5
79FD6
100
AcDbEntity
  8
0
100
AcDbVertex
100
AcDbPolygonMeshVertex
 10
-2.968
 20
-1.5
 30
4.027
 70
    64
  0
VERTEX
  5
79FD7
100
AcDbEntity
  8
0
100
AcDbVertex
100
AcDbPolygonMeshVertex
 10
-2.968
 20
-1.5
 30
2.757
 70
    64
  0
VERTEX
  5
79FD8
100
AcDbEntity
  8
0
100
AcDbVertex
100
AcDbPolygonMeshVertex
 10
-2.968
 20
-1.22
 30
2.757
 70
    64
  0
VERTEX
  5
79FD9
100
AcDbEntity
  8
0
100
AcDbVertex
100
AcDbPolygonMeshVertex
 10
-2.968
 20
-1.5
 30
4.027
 70
    64
  0
VERTEX
  5
79FDA
100
AcDbEntity
  8
0
100
AcDbVertex
100
AcDbPolygonMeshVertex
 10
-2.968
 20
-1.5
 30
4.027
 70
    64
  0
VERTEX
  5
79FDB
100
AcDbEntity
  8
0
100
AcDbVertex
100
AcDbPolygonMeshVertex
 10
-2.968
 20
-1.22
 30
4.027
 70
    64
  0
VERTEX
  5
79FDC
100
AcDbEntity
  8
0
100
AcDbVertex
100
AcDbPolygonMeshVertex
 10
-2.808
 20
-1.5
 30
4.027
 70
    64
  0
VERTEX
  5
79FDD
100
AcDbEntity
  8
0
100
AcDbVertex
100
AcDbPolygonMeshVertex
 10
-2.808
 20
-1.5
 30
4.027
 70
    64
  0
VERTEX
  5
79FDE
100
AcDbEntity
  8
0
100
AcDbVertex
100
AcDbPolygonMeshVertex
 10
-2.808
 20
-1.22
 30
4.027
 70
    64
  0
SEQEND
  5
79FDF
100
AcDbEntity
  8
0
  0
POLYLINE
  5
79FE0
100
AcDbEntity
  8
0
100
AcDbPolygonMesh
 66
     1
 10
0.0
 20
0.0
 30
0.0
 70
    16
 71
     6
 72
     3
  0
VERTEX
  5
79FE1
100
AcDbEntity
  8
0
100
AcDbVertex
100
AcDbPolygonMeshVertex
 10
-1.808
 20
-1.22
 30
4.027
 70
    64
  0
VERTEX
  5
79FE2
100
AcDbEntity
  8
0
100
AcDbVertex
100
AcDbPolygonMeshVertex
 10
-1.808
 20
-1.22
 30
2.757
 70
    64
  0
VERTEX
  5
79FE3
100
AcDbEntity
  8
0
100
AcDbVertex
100
AcDbPolygonMeshVertex
 10
-1.808
 20
-1.22
 30
2.757
 70
    64
  0
VERTEX
  5
79FE4
100
AcDbEntity
  8
0
100
AcDbVertex
100
AcDbPolygonMeshVertex
 10
-1.648
 20
-1.22
 30
4.027
 70
    64
  0
VERTEX
  5
79FE5
100
AcDbEntity
  8
0
100
AcDbVertex
100
AcDbPolygonMeshVertex
 10
-1.648
 20
-1.22
 30
2.757
 70
    64
  0
VERTEX
  5
79FE6
100
AcDbEntity
  8
0
100
AcDbVertex
100
AcDbPolygonMeshVertex
 10
-1.648
 20
-1.22
 30
2.757
 70
    64
  0
VERTEX
  5
79FE7
100
AcDbEntity
  8
0
100
AcDbVertex
100
AcDbPolygonMeshVertex
 10
-1.648
 20
-1.5
 30
4.027
 70
    64
  0
VERTEX
  5
79FE8
100
AcDbEntity
  8
0
100
AcDbVertex
100
AcDbPolygonMeshVertex
 10
-1.648
 20
-1.5
 30
2.757
 70
    64
  0
VERTEX
  5
79FE9
100
AcDbEntity
  8
0
100
AcDbVertex
100
AcDbPolygonMeshVertex
 10
-1.648
 20
-1.22
 30
2.757
 70
    64
  0
VERTEX
  5
79FEA
100
AcDbEntity
  8
0
100
AcDbVertex
100
AcDbPolygonMeshVertex
 10
-1.808
 20
-1.5
 30
4.027
 70
    64
  0
VERTEX
  5
79FEB
100
AcDbEntity
  8
0
100
AcDbVertex
100
AcDbPolygonMeshVertex
 10
-1.808
 20
-1.5
 30
2.757
 70
    64
  0
VERTEX
  5
79FEC
100
AcDbEntity
  8
0
100
AcDbVertex
100
AcDbPolygonMeshVertex
 10
-1.808
 20
-1.22
 30
2.757
 70
    64
  0
VERTEX
  5
79FED
100
AcDbEntity
  8
0
100
AcDbVertex
100
AcDbPolygonMeshVertex
 10
-1.808
 20
-1.5
 30
4.027
 70
    64
  0
VERTEX
  5
79FEE
100
AcDbEntity
  8
0
100
AcDbVertex
100
AcDbPolygonMeshVertex
 10
-1.808
 20
-1.5
 30
4.027
 70
    64
  0
VERTEX
  5
79FEF
100
AcDbEntity
  8
0
100
AcDbVertex
100
AcDbPolygonMeshVertex
 10
-1.808
 20
-1.22
 30
4.027
 70
    64
  0
VERTEX
  5
79FF0
100
AcDbEntity
  8
0
100
AcDbVertex
100
AcDbPolygonMeshVertex
 10
-1.648
 20
-1.5
 30
4.027
 70
    64
  0
VERTEX
  5
79FF1
100
AcDbEntity
  8
0
100
AcDbVertex
100
AcDbPolygonMeshVertex
 10
-1.648
 20
-1.5
 30
4.027
 70
    64
  0
VERTEX
  5
79FF2
100
AcDbEntity
  8
0
100
AcDbVertex
100
AcDbPolygonMeshVertex
 10
-1.648
 20
-1.22
 30
4.027
 70
    64
  0
SEQEND
  5
79FF3
100
AcDbEntity
  8
0
  0
POLYLINE
  5
79FF4
100
AcDbEntity
  8
0
100
AcDbPolygonMesh
 66
     1
 10
0.0
 20
0.0
 30
0.0
 70
    16
 71
     6
 72
     3
  0
VERTEX
  5
79FF5
100
AcDbEntity
  8
0
100
AcDbVertex
100
AcDbPolygonMeshVertex
 10
-0.338
 20
-7.12
 30
0.387
 70
    64
  0
VERTEX
  5
79FF6
100
AcDbEntity
  8
0
100
AcDbVertex
100
AcDbPolygonMeshVertex
 10
-0.338
 20
-7.12
 30
0.197
 70
    64
  0
VERTEX
  5
79FF7
100
AcDbEntity
  8
0
100
AcDbVertex
100
AcDbPolygonMeshVertex
 10
-0.338
 20
-7.12
 30
0.197
 70
    64
  0
VERTEX
  5
79FF8
100
AcDbEntity
  8
0
100
AcDbVertex
100
AcDbPolygonMeshVertex
 10
-4.278
 20
-7.12
 30
0.387
 70
    64
  0
VERTEX
  5
79FF9
100
AcDbEntity
  8
0
100
AcDbVertex
100
AcDbPolygonMeshVertex
 10
-4.278
 20
-7.12
 30
0.197
 70
    64
  0
VERTEX
  5
79FFA
100
AcDbEntity
  8
0
100
AcDbVertex
100
AcDbPolygonMeshVertex
 10
-4.278
 20
-7.12
 30
0.197
 70
    64
  0
VERTEX
  5
79FFB
100
AcDbEntity
  8
0
100
AcDbVertex
100
AcDbPolygonMeshVertex
 10
-4.278
 20
-0.93
 30
0.387
 70
    64
  0
VERTEX
  5
79FFC
100
AcDbEntity
  8
0
100
AcDbVertex
100
AcDbPolygonMeshVertex
 10
-4.278
 20
-0.93
 30
0.197
 70
    64
  0
VERTEX
  5
79FFD
100
AcDbEntity
  8
0
100
AcDbVertex
100
AcDbPolygonMeshVertex
 10
-4.278
 20
-7.12
 30
0.197
 70
    64
  0
VERTEX
  5
79FFE
100
AcDbEntity
  8
0
100
AcDbVertex
100
AcDbPolygonMeshVertex
 10
-0.338
 20
-0.93
 30
0.387
 70
    64
  0
VERTEX
  5
79FFF
100
AcDbEntity
  8
0
100
AcDbVertex
100
AcDbPolygonMeshVertex
 10
-0.338
 20
-0.93
 30
0.197
 70
    64
  0
VERTEX
  5
7A000
100
AcDbEntity
  8
0
100
AcDbVertex
100
AcDbPolygonMeshVertex
 10
-0.338
 20
-7.12
 30
0.197
 70
    64
  0
VERTEX
  5
7A001
100
AcDbEntity
  8
0
100
AcDbVertex
100
AcDbPolygonMeshVertex
 10
-0.338
 20
-0.93
 30
0.387
 70
    64
  0
VERTEX
  5
7A002
100
AcDbEntity
  8
0
100
AcDbVertex
100
AcDbPolygonMeshVertex
 10
-0.338
 20
-0.93
 30
0.387
 70
    64
  0
VERTEX
  5
7A003
100
AcDbEntity
  8
0
100
AcDbVertex
100
AcDbPolygonMeshVertex
 10
-0.338
 20
-7.12
 30
0.387
 70
    64
  0
VERTEX
  5
7A004
100
AcDbEntity
  8
0
100
AcDbVertex
100
AcDbPolygonMeshVertex
 10
-4.278
 20
-0.93
 30
0.387
 70
    64
  0
VERTEX
  5
7A005
100
AcDbEntity
  8
0
100
AcDbVertex
100
AcDbPolygonMeshVertex
 10
-4.278
 20
-0.93
 30
0.387
 70
    64
  0
VERTEX
  5
7A006
100
AcDbEntity
  8
0
100
AcDbVertex
100
AcDbPolygonMeshVertex
 10
-4.278
 20
-7.12
 30
0.387
 70
    64
  0
SEQEND
  5
7A007
100
AcDbEntity
  8
0
  0
ATTDEF
  5
7A008
100
AcDbEntity
  8
ATTRIBUTES
100
AcDbText
 10
-3.923152
 20
-7.067687
 30
0.0
 40
0.164042
  1
ALLEN-BRADLEY
100
AcDbAttributeDefinition
  3
MANUFACTURER NAME?
  2
AC_VND_LABEL
 70
     1
  0
ATTDEF
  5
7A009
100
AcDbEntity
  8
ATTRIBUTES
100
AcDbText
 10
-3.923152
 20
-7.409441
 30
0.0
 40
0.164042
  1
505-C
100
AcDbAttributeDefinition
  3
CATALOG NUMBER?
  2
AC_PART_NO
 70
     1
  0
ATTDEF
  5
7A00A
100
AcDbEntity
  8
ATTRIBUTES
100
AcDbText
 10
-3.923152
 20
-7.751196
 30
0.0
 40
0.164042
  1
REVERSING STARTER W/ EUTECTIC ALLOY OLR; SIZE 2
100
AcDbAttributeDefinition
  3
PART DESCRIPTION?
  2
AC_DESCRIPTION
 70
     1
  0
ATTDEF
  5
7A00B
100
AcDbEntity
  8
ATTRIBUTES
100
AcDbText
 10
-3.923152
 20
-8.09295
 30
0.0
 40
0.164042
  1

100
AcDbAttributeDefinition
  3
DEVICE ID?
  2
DEVICE_ID
 70
     1
  0
ATTDEF
  5
7A00C
100
AcDbEntity
  8
ATTRIBUTES
100
AcDbText
 10
-3.923152
 20
-8.434705
 30
0.0
 40
0.164042
  1

100
AcDbAttributeDefinition
  3
CUSTOMER PART NUMBER?
  2
AC_CPART_NO
 70
     1
  0
ATTDEF
  5
7A00D
100
AcDbEntity
  8
ATTRIBUTES
100
AcDbText
 10
-3.923152
 20
-8.77646
 30
0.0
 40
0.164042
  1

100
AcDbAttributeDefinition
  3
CUSTOMER NOTE?
  2
AC_NOTE
 70
     1
  0
ATTDEF
  5
7A00E
100
AcDbEntity
  8
ATTRIBUTES
100
AcDbText
 10
-3.923152
 20
-9.118214
 30
0.0
 40
0.164042
  1

100
AcDbAttributeDefinition
  3
FASTENER DATA?
  2
FASTENER
 70
     1
  0
ATTDEF
  5
7A00F
100
AcDbEntity
  8
ATTRIBUTES
100
AcDbText
 10
-3.923152
 20
-9.459969
 30
0.0
 40
0.164042
  1
INCH
100
AcDbAttributeDefinition
  3
UNIT OF SCALE?
  2
AC_SCALE_UNIT
 70
     1
  0
ATTDEF
  5
7A010
100
AcDbEntity
  8
ATTRIBUTES
100
AcDbText
 10
-3.923152
 20
-9.801723
 30
0.0
 40
0.164042
  1
0
100
AcDbAttributeDefinition
  3
VIEW CODE?
  2
AC_VIEW_CODE
 70
     1
  0
POINT
  5
7A011
100
AcDbEntity
  8
DIMS-MTG-HOLES
100
AcDbPoint
 10
-3.937
 20
-9.844
 30
0.0
  0
POINT
  5
7A012
100
AcDbEntity
  8
DIMS-MTG-HOLES
100
AcDbPoint
 10
3.937
 20
-9.844
 30
0.0
  0
POINT
  5
7A013
100
AcDbEntity
  8
DIMS-MTG-HOLES
100
AcDbPoint
 10
0.0
 20
0.0
 30
0.0
  0
DIMENSION
  5
7A014
100
AcDbEntity
  8
AREA1
100
AcDbDimension
  2
*D0
 10
-5.533652
 20
-10.059
 30
0.0
 11
-5.533652
 21
-5.033952
 31
0.0
 70
   160
  3
ABECAD_3D
100
AcDbAlignedDimension
 13
-1.0
 23
0.281
 33
0.0
 14
-4.195
 24
-10.059
 34
0.0
 50
90.0
100
AcDbRotatedDimension
  0
DIMENSION
  5
7A022
100
AcDbEntity
  8
AREA1
100
AcDbDimension
  2
*D1
 10
4.325
 20
1.054036
 30
0.0
 11
-0.020725
 21
1.054036
 31
0.0
 70
   160
  3
ABECAD_3D
100
AcDbAlignedDimension
 13
-4.325
 23
-0.629
 33
0.0
 14
4.325
 24
-0.629
 34
0.0
100
AcDbRotatedDimension
  0
LWPOLYLINE
  5
7A03F
100
AcDbEntity
  8
SCALE
100
AcDbPolyline
 90
        4
 70
     1
 43
0.0
 10
-0.741933
 20
-10.286298
 10
0.393696
 20
-10.286298
 10
0.393696
 20
-11.127907
 10
-0.741933
 20
-11.127907
  0
LINE
  5
7A040
100
AcDbEntity
  8
SCALE
100
AcDbLine
 10
-0.683934
 20
-10.666376
 30
0.0
 11
0.316066
 21
-10.666376
 31
0.0
  0
LINE
  5
7A041
100
AcDbEntity
  8
SCALE
100
AcDbLine
 10
-0.683934
 20
-10.966376
 30
0.0
 11
-0.290234
 21
-10.966376
 31
0.0
  0
LINE
  5
7A042
100
AcDbEntity
  8
SCALE
100
AcDbLine
 10
-0.683934
 20
-10.766376
 30
0.0
 11
-0.683934
 21
-10.566376
 31
0.0
  0
TEXT
  5
7A043
100
AcDbEntity
  8
SCALE
100
AcDbText
 10
-0.627959
 20
-10.918691
 30
0.0
 40
0.0625
  1
[10mm]
100
AcDbText
  0
LINE
  5
7A044
100
AcDbEntity
  8
SCALE
100
AcDbLine
 10
-0.683934
 20
-11.066376
 30
0.0
 11
-0.683934
 21
-10.866376
 31
0.0
  0
TEXT
  5
7A045
100
AcDbEntity
  8
SCALE
100
AcDbText
 10
-0.682404
 20
-10.391499
 30
0.0
 40
0.0625
  1
SCALE:
100
AcDbText
  0
LINE
  5
7A046
100
AcDbEntity
  8
SCALE
100
AcDbLine
 10
-0.290234
 20
-11.066376
 30
0.0
 11
-0.290234
 21
-10.866376
 31
0.0
  0
TEXT
  5
7A047
100
AcDbEntity
  8
SCALE
100
AcDbText
 10
-0.320651
 20
-10.597327
 30
0.0
 40
0.0625
  1
1 Inch
100
AcDbText
  0
LINE
  5
7A048
100
AcDbEntity
  8
SCALE
100
AcDbLine
 10
0.316066
 20
-10.666376
 30
0.0
 11
0.316066
 21
-10.766376
 31
0.0
  0
LINE
  5
7A049
100
AcDbEntity
  8
SCALE
100
AcDbLine
 10
0.316066
 20
-10.766376
 30
0.0
 11
0.316066
 21
-10.566376
 31
0.0
  0
VIEWPORT
  5
5677D
102
{ACAD_XDICTIONARY
360
7A0AD
102
}
100
AcDbEntity
 67
     1
  8
0
100
AcDbViewport
 10
5.25
 20
4.0
 30
0.0
 40
16.386862
 41
8.993
 68
    -1
 69
     1
1001
ACAD
1000
MVIEW
1002
{
1070
    16
1010
0.0
1020
0.0
1030
0.0
1010
0.0
1020
0.0
1030
1.0
1040
0.0
1040
8.993
1040
5.25
1040
4.0
1040
50.0
1040
0.0
1040
0.0
1070
     0
1070
 20000
1070
     1
1070
     1
1070
     0
1070
     0
1070
     0
1070
     0
1040
0.0
1040
0.0
1040
0.0
1040
0.5
1040
0.5
1040
0.5
1040
0.5
1070
     0
1002
{
1002
}
1002
}
  0
VIEWPORT
  5
5677F
102
{ACAD_XDICTIONARY
360
7A0AF
102
}
100
AcDbEntity
 67
     1
  8
AREA1
100
AcDbViewport
 10
5.25
 20
4.0
 30
0.0
 40
8.4
 41
6.4
 68
     1
 69
     2
1001
ACAD
1000
MVIEW
1002
{
1070
    16
1010
0.563444
1020
-0.880137
1030
1.686493
1010
0.0
1020
0.0
1030
1.0
1040
0.0
1040
4.582914
1040
-1.017175
1040
0.747813
1040
50.0
1040
0.0
1040
0.0
1070
     0
1070
 20000
1070
     1
1070
     1
1070
     0
1070
     0
1070
     0
1070
     0
1040
0.0
1040
0.0
1040
0.0
1040
0.25
1040
0.25
1040
0.25
1040
0.25
1070
     0
1002
{
1002
}
1002
}
  0
ENDSEC
  0
SECTION
  2
OBJECTS
  0
DICTIONARY
  5
458CB
100
AcDbDictionary
  3
ACAD_GROUP
350
458CC
  3
ACAD_LAYOUT
350
458FB
  3
ACAD_MLINESTYLE
350
458D9
  3
ACAD_PLOTSETTINGS
350
458FC
  3
ACAD_PLOTSTYLENAME
350
458F9
  3
ACDBHEADERROUNDTRIPXREC
350
7A084
  3
ACDBVARIABLEDICTIONARY
350
458E1
  3
DWGPROPS
350
45901
  0
DICTIONARY
  5
7A082
100
AcDbDictionary
280
     1
  3
ACAD_XREC_ROUNDTRIP
360
7A083
  0
DICTIONARY
  5
7A0AB
100
AcDbDictionary
280
     1
  3
ACAD_XREC_ROUNDTRIP
360
7A0AC
  0
DICTIONARY
  5
7A080
100
AcDbDictionary
280
     1
  3
ACAD_XREC_ROUNDTRIP
360
7A081
  0
DICTIONARY
  5
7A0A7
100
AcDbDictionary
280
     1
  3
ACAD_XREC_ROUNDTRIP
360
7A0A8
  0
DICTIONARY
  5
4592C
100
AcDbDictionary
280
     1
  3
ACAD_LAYOUTSELFREF
360
7A0A6
  0
DICTIONARY
  5
4592A
100
AcDbDictionary
280
     1
  3
ACAD_LAYOUTSELFREF
360
7A0A5
  0
DICTIONARY
  5
7A0AD
100
AcDbDictionary
280
     1
  3
ACAD_XREC_ROUNDTRIP
360
7A0AE
  0
DICTIONARY
  5
7A0AF
100
AcDbDictionary
280
     1
  3
ACAD_XREC_ROUNDTRIP
360
7A0B0
  0
DICTIONARY
  5
458CC
102
{ACAD_REACTORS
330
458CB
102
}
100
AcDbDictionary
  0
DICTIONARY
  5
458FB
102
{ACAD_XDICTIONARY
360
7A0A9
102
}
102
{ACAD_REACTORS
330
458CB
102
}
100
AcDbDictionary
  3
LAYOUT1
350
458FE
  3
MODEL
350
458FD
  0
DICTIONARY
  5
458D9
102
{ACAD_REACTORS
330
458CB
102
}
100
AcDbDictionary
  3
STANDARD
350
458DA
  0
DICTIONARY
  5
458FC
102
{ACAD_REACTORS
330
458CB
102
}
100
AcDbDictionary
  0
ACAD_PROXY_OBJECT
  5
458F9
102
{ACAD_REACTORS
330
458CB
102
}
100
AcDbProxyObject
 90
      499
 91
      501
 93
       86
310
405010041939BDC9B585B2
350
458FA
340
458FA
 94
        0
  0
DICTIONARY
  5
7A084
102
{ACAD_REACTORS
330
458CB
102
}
100
AcDbDictionary
  3
CEPSNTYPE
350
7A08E
  3
DIMSTYLEDATA
350
7A092
  3
FINGERPRINTGUID
350
7A08F
  3
HYPERLINKBASE
350
7A087
  3
INSUNITS
350
7A08D
  3
LAYOUTDICT
350
7A089
  3
LWETCUNION
350
7A08C
  3
PLOTSETDICT
350
7A08A
  3
PLOTSTYLNAMDICT
350
7A08B
  3
PSVPSCALE
350
7A091
  3
PUCSBASE
350
7A095
  3
PUCSORGBACK
350
7A09B
  3
PUCSORGBOTTOM
350
7A097
  3
PUCSORGFRONT
350
7A09A
  3
PUCSORGLEFT
350
7A098
  3
PUCSORGRIGHT
350
7A099
  3
PUCSORGTOP
350
7A096
  3
PUCSORTHOREF
350
7A093
  3
PUCSORTHOVIEW
350
7A094
  3
STYLESHEET
350
7A088
  3
TSTACKALIGN
350
7A085
  3
TSTACKSIZE
350
7A086
  3
UCSBASE
350
7A09E
  3
UCSORGBACK
350
7A0A4
  3
UCSORGBOTTOM
350
7A0A0
  3
UCSORGFRONT
350
7A0A3
  3
UCSORGLEFT
350
7A0A1
  3
UCSORGRIGHT
350
7A0A2
  3
UCSORGTOP
350
7A09F
  3
UCSORTHOREF
350
7A09C
  3
UCSORTHOVIEW
350
7A09D
  3
VERSIONGUID
350
7A090
  0
DICTIONARY
  5
458E1
102
{ACAD_REACTORS
330
458CB
102
}
100
AcDbDictionary
  3
DIMADEC
350
458E2
  0
XRECORD
  5
45901
102
{ACAD_REACTORS
330
458CB
102
}
100
AcDbXrecord
  1
DWGPROPS COOKIE
  2

  3

  4

  6

  7

  8
colin
  9

300
=
301
=
302
=
303
=
304
=
305
=
306
=
307
=
308
=
309
=
 40
0.000599
 41
2451670.444777
 42
2451670.445376
  1

 90
        0
  0
XRECORD
  5
7A083
102
{ACAD_REACTORS
330
7A082
102
}
100
AcDbXrecord
102
EXTNAMES
  1
*ACTIVE
  2
*Active
102
UCS
 74
     0
 71
     1
 10
0.0
 20
0.0
 30
0.0
 10
1.0
 20
0.0
 30
0.0
 10
0.0
 20
1.0
 30
0.0
146
0.0
 79
     1
102
VIEW
281
     1
  0
XRECORD
  5
7A0AC
102
{ACAD_REACTORS
330
7A0AB
102
}
100
AcDbXrecord
102
PLOTBIT
280
     0
  0
XRECORD
  5
7A081
102
{ACAD_REACTORS
330
7A080
102
}
100
AcDbXrecord
102
EXTNAMES
  1
DEFPOINTS
  2
Defpoints
102
PLOTBIT
280
     0
  0
XRECORD
  5
7A0A8
102
{ACAD_REACTORS
330
7A0A7
102
}
100
AcDbXrecord
102
ACADR14ROUNDTRIP
1000
DSTYLE
1002
{
1070
   276
 70
     2
1070
   277
 70
     5
1070
   279
 70
     2
1070
   289
 70
     2
1002
}
  0
XRECORD
  5
7A0A6
102
{ACAD_REACTORS
330
4592C
102
}
100
AcDbXrecord
340
458D6
  0
XRECORD
  5
7A0A5
102
{ACAD_REACTORS
330
4592A
102
}
100
AcDbXrecord
340
458D3
  0
XRECORD
  5
7A0AE
102
{ACAD_REACTORS
330
7A0AD
102
}
100
AcDbXrecord
102
UCS
 74
     0
 71
     1
 10
0.0
 20
0.0
 30
0.0
 10
1.0
 20
0.0
 30
0.0
 10
0.0
 20
1.0
 30
0.0
146
0.0
 79
     0
102
VIEW
281
     0
102
NEWVIEWCONTROL
280
     4
  0
XRECORD
  5
7A0B0
102
{ACAD_REACTORS
330
7A0AF
102
}
100
AcDbXrecord
102
UCS
 74
     0
 71
     1
 10
0.0
 20
0.0
 30
0.0
 10
1.0
 20
0.0
 30
0.0
 10
0.0
 20
1.0
 30
0.0
146
0.0
 79
     1
102
VIEW
281
     1
102
NEWVIEWCONTROL
280
     4
  0
DICTIONARY
  5
7A0A9
100
AcDbDictionary
280
     1
  3
ACAD_XREC_ROUNDTRIP
360
7A0AA
  0
ACAD_PROXY_OBJECT
  5
458FE
102
{ACAD_REACTORS
330
458FB
102
}
100
AcDbProxyObject
 90
      499
 91
      503
 93
     1700
310
90B6E6F6E655F6465766963652C0080000006066661940000000181999865000000000068661940000000001A1986500000000C0CCFC6A4000000018199D9C5011C4C65747465725F28382E35305F785F31312E30305F496E6368657329A901416AA547D11959985D5B1D08148C4D081C195B88185CDCDA59DB9B595B9D1CC
310
B98DD1891069074C61796F75743140501A840201008040342FEFF7FBFDFFFFF3EFDFAFF7FBFFDFC9501008043E3FDFC8102A6A6A0000003033333C0FC000000809999E93F8FFFFFF5766E622403FFFFFEBF333071020
330
458D3
330
5677D
340
0
340
0
 94
        0
  0
ACAD_PROXY_OBJECT
  5
458FD
102
{ACAD_REACTORS
330
458FB
102
}
100
AcDbProxyObject
 90
      499
 91
      503
 93
      924
310
91D4850204C617365724A65742035303030205365726965732050434C20362C01AAAAAAAAA547D11959985D5B1D08148C4D081C195B88185CDCDA59DB9B595B9D1CCB98DD18A69054D6F64656C901A800000000000000000000000000000000000000000000A1000000000000008902A6A6AAAA1
330
458D6
330
0
340
0
340
0
 94
        0
  0
MLINESTYLE
  5
458DA
102
{ACAD_REACTORS
330
458D9
102
}
100
AcDbMlineStyle
  2
STANDARD
 70
     0
  3

 62
   256
 51
90.0
 52
90.0
 71
     2
 49
0.5
 62
   256
  6
BYLAYER
 49
-0.5
 62
   256
  6
BYLAYER
  0
ACAD_PROXY_OBJECT
  5
458FA
102
{ACAD_REACTORS
330
458F9
102
}
100
AcDbProxyObject
 90
      499
 91
      502
 93
        0
 94
        0
  0
XRECORD
  5
7A08E
102
{ACAD_REACTORS
330
7A084
102
}
100
AcDbXrecord
 90
        0
  0
XRECORD
  5
7A092
102
{ACAD_REACTORS
330
7A084
102
}
100
AcDbXrecord
1000
DSTYLE
1002
{
1070
   276
 70
     2
1070
   277
 70
     5
1070
   279
 70
     2
1070
   289
 70
     2
1002
}
  0
XRECORD
  5
7A08F
102
{ACAD_REACTORS
330
7A084
102
}
100
AcDbXrecord
  1
{6E0CF4B8-225E-11D4-A150-00A0CC3303EC}
  0
XRECORD
  5
7A087
102
{ACAD_REACTORS
330
7A084
102
}
100
AcDbXrecord
  1

  0
XRECORD
  5
7A08D
102
{ACAD_REACTORS
330
7A084
102
}
100
AcDbXrecord
 90
        0
  0
XRECORD
  5
7A089
102
{ACAD_REACTORS
330
7A084
102
}
100
AcDbXrecord
340
458FB
  0
XRECORD
  5
7A08C
102
{ACAD_REACTORS
330
7A084
102
}
100
AcDbXrecord
 90
    14877
  0
XRECORD
  5
7A08A
102
{ACAD_REACTORS
330
7A084
102
}
100
AcDbXrecord
340
458FC
  0
XRECORD
  5
7A08B
102
{ACAD_REACTORS
330
7A084
102
}
100
AcDbXrecord
340
458F9
  0
XRECORD
  5
7A091
102
{ACAD_REACTORS
330
7A084
102
}
100
AcDbXrecord
 40
0.0
  0
XRECORD
  5
7A095
102
{ACAD_REACTORS
330
7A084
102
}
100
AcDbXrecord
340
0
  0
XRECORD
  5
7A09B
102
{ACAD_REACTORS
330
7A084
102
}
100
AcDbXrecord
 10
0.0
 20
0.0
 30
0.0
  0
XRECORD
  5
7A097
102
{ACAD_REACTORS
330
7A084
102
}
100
AcDbXrecord
 10
0.0
 20
0.0
 30
0.0
  0
XRECORD
  5
7A09A
102
{ACAD_REACTORS
330
7A084
102
}
100
AcDbXrecord
 10
0.0
 20
0.0
 30
0.0
  0
XRECORD
  5
7A098
102
{ACAD_REACTORS
330
7A084
102
}
100
AcDbXrecord
 10
0.0
 20
0.0
 30
0.0
  0
XRECORD
  5
7A099
102
{ACAD_REACTORS
330
7A084
102
}
100
AcDbXrecord
 10
0.0
 20
0.0
 30
0.0
  0
XRECORD
  5
7A096
102
{ACAD_REACTORS
330
7A084
102
}
100
AcDbXrecord
 10
0.0
 20
0.0
 30
0.0
  0
XRECORD
  5
7A093
102
{ACAD_REACTORS
330
7A084
102
}
100
AcDbXrecord
340
0
  0
XRECORD
  5
7A094
102
{ACAD_REACTORS
330
7A084
102
}
100
AcDbXrecord
 70
     0
  0
XRECORD
  5
7A088
102
{ACAD_REACTORS
330
7A084
102
}
100
AcDbXrecord
  1

  0
XRECORD
  5
7A085
102
{ACAD_REACTORS
330
7A084
102
}
100
AcDbXrecord
 90
        1
  0
XRECORD
  5
7A086
102
{ACAD_REACTORS
330
7A084
102
}
100
AcDbXrecord
 90
       70
  0
XRECORD
  5
7A09E
102
{ACAD_REACTORS
330
7A084
102
}
100
AcDbXrecord
340
0
  0
XRECORD
  5
7A0A4
102
{ACAD_REACTORS
330
7A084
102
}
100
AcDbXrecord
 10
0.0
 20
0.0
 30
0.0
  0
XRECORD
  5
7A0A0
102
{ACAD_REACTORS
330
7A084
102
}
100
AcDbXrecord
 10
0.0
 20
0.0
 30
0.0
  0
XRECORD
  5
7A0A3
102
{ACAD_REACTORS
330
7A084
102
}
100
AcDbXrecord
 10
0.0
 20
0.0
 30
0.0
  0
XRECORD
  5
7A0A1
102
{ACAD_REACTORS
330
7A084
102
}
100
AcDbXrecord
 10
0.0
 20
0.0
 30
0.0
  0
XRECORD
  5
7A0A2
102
{ACAD_REACTORS
330
7A084
102
}
100
AcDbXrecord
 10
0.0
 20
0.0
 30
0.0
  0
XRECORD
  5
7A09F
102
{ACAD_REACTORS
330
7A084
102
}
100
AcDbXrecord
 10
0.0
 20
0.0
 30
0.0
  0
XRECORD
  5
7A09C
102
{ACAD_REACTORS
330
7A084
102
}
100
AcDbXrecord
340
0
  0
XRECORD
  5
7A09D
102
{ACAD_REACTORS
330
7A084
102
}
100
AcDbXrecord
 70
     1
  0
XRECORD
  5
7A090
102
{ACAD_REACTORS
330
7A084
102
}
100
AcDbXrecord
  1
{84F5CDCA-7A2C-4BAA-9BEE-81687455F30D}
  0
DICTIONARYVAR
  5
458E2
102
{ACAD_REACTORS
330
458E1
102
}
100
DictionaryVariables
280
     0
  1
0
  0
XRECORD
  5
7A0AA
102
{ACAD_REACTORS
330
7A0A9
102
}
100
AcDbXrecord
102
EXTNAMES
  1
LAYOUT1
  2
Layout1
  1
MODEL
  2
Model
  0
ENDSEC
  0
EOF
