  0
SECTION
  2
HEADER
  9
$ACADVER
  1
AC1014
  9
$ACADMAINTVER
 70
     8
  9
$DWGCODEPAGE
  3
ANSI_1252
  9
$INSBASE
 10
0.0
 20
0.0
 30
0.0
  9
$EXTMIN
 10
-0.491906
 20
-3.113095
 30
0.0
  9
$EXTMAX
 10
1.829065
 20
1.518955
 30
3.330275
  9
$LIMMIN
 10
0.0
 20
0.0
  9
$LIMMAX
 10
12.0
 20
9.0
  9
$ORTHOMODE
 70
     0
  9
$REGENMODE
 70
     1
  9
$FILLMODE
 70
     1
  9
$QTEXTMODE
 70
     0
  9
$MIRRTEXT
 70
     1
  9
$DRAGMODE
 70
     2
  9
$LTSCALE
 40
1.0
  9
$OSMODE
 70
    37
  9
$ATTMODE
 70
     1
  9
$TEXTSIZE
 40
0.12
  9
$TRACEWID
 40
0.05
  9
$TEXTSTYLE
  7
STANDARD
  9
$CLAYER
  8
0
  9
$CELTYPE
  6
BYLAYER
  9
$CECOLOR
 62
   256
  9
$CELTSCALE
 40
1.0
  9
$DELOBJ
 70
     1
  9
$DISPSILH
 70
     0
  9
$DIMSCALE
 40
1.0
  9
$DIMASZ
 40
0.125
  9
$DIMEXO
 40
0.0625
  9
$DIMDLI
 40
0.375
  9
$DIMRND
 40
0.0
  9
$DIMDLE
 40
0.0
  9
$DIMEXE
 40
0.1
  9
$DIMTP
 40
0.0
  9
$DIMTM
 40
0.0
  9
$DIMTXT
 40
0.125
  9
$DIMCEN
 40
0.09
  9
$DIMTSZ
 40
0.0
  9
$DIMTOL
 70
     0
  9
$DIMLIM
 70
     0
  9
$DIMTIH
 70
     0
  9
$DIMTOH
 70
     1
  9
$DIMSE1
 70
     0
  9
$DIMSE2
 70
     0
  9
$DIMTAD
 70
     0
  9
$DIMZIN
 70
     4
  9
$DIMBLK
  1

  9
$DIMASO
 70
     1
  9
$DIMSHO
 70
     1
  9
$DIMPOST
  1

  9
$DIMAPOST
  1

  9
$DIMALT
 70
     1
  9
$DIMALTD
 70
     2
  9
$DIMALTF
 40
25.4
  9
$DIMLFAC
 40
1.0
  9
$DIMTOFL
 70
     0
  9
$DIMTVP
 40
0.0
  9
$DIMTIX
 70
     0
  9
$DIMSOXD
 70
     0
  9
$DIMSAH
 70
     0
  9
$DIMBLK1
  1

  9
$DIMBLK2
  1

  9
$DIMSTYLE
  2
ABECAD_3D
  9
$DIMCLRD
 70
     0
  9
$DIMCLRE
 70
     0
  9
$DIMCLRT
 70
     0
  9
$DIMTFAC
 40
1.5
  9
$DIMGAP
 40
0.09
  9
$DIMJUST
 70
     0
  9
$DIMSD1
 70
     0
  9
$DIMSD2
 70
     0
  9
$DIMTOLJ
 70
     1
  9
$DIMTZIN
 70
     4
  9
$DIMALTZ
 70
     4
  9
$DIMALTTZ
 70
     4
  9
$DIMFIT
 70
     5
  9
$DIMUPT
 70
     1
  9
$DIMUNIT
 70
     7
  9
$DIMDEC
 70
     6
  9
$DIMTDEC
 70
     6
  9
$DIMALTU
 70
     2
  9
$DIMALTTD
 70
     2
  9
$DIMTXSTY
  7
STANDARD
  9
$DIMAUNIT
 70
     0
  9
$LUNITS
 70
     2
  9
$LUPREC
 70
     4
  9
$SKETCHINC
 40
0.1
  9
$FILLETRAD
 40
0.0
  9
$AUNITS
 70
     0
  9
$AUPREC
 70
     0
  9
$MENU
  1
ACAD
  9
$ELEVATION
 40
0.0
  9
$PELEVATION
 40
0.0
  9
$THICKNESS
 40
0.0
  9
$LIMCHECK
 70
     0
  9
$BLIPMODE
 70
     0
  9
$CHAMFERA
 40
0.0
  9
$CHAMFERB
 40
0.0
  9
$CHAMFERC
 40
0.0
  9
$CHAMFERD
 40
0.0
  9
$SKPOLY
 70
     0
  9
$TDCREATE
 40
2451726.438389120
  9
$TDUPDATE
 40
2452010.490289467
  9
$TDINDWG
 40
0.8717059028
  9
$TDUSRTIMER
 40
0.8717059028
  9
$USRTIMER
 70
     1
  9
$ANGBASE
 50
0.0
  9
$ANGDIR
 70
     0
  9
$PDMODE
 70
     3
  9
$PDSIZE
 40
0.09
  9
$PLINEWID
 40
0.0
  9
$COORDS
 70
     1
  9
$SPLFRAME
 70
     1
  9
$SPLINETYPE
 70
     6
  9
$SPLINESEGS
 70
     8
  9
$ATTDIA
 70
     0
  9
$ATTREQ
 70
     1
  9
$HANDLING
 70
     1
  9
$HANDSEED
  5
6DD1D
  9
$SURFTAB1
 70
     6
  9
$SURFTAB2
 70
     6
  9
$SURFTYPE
 70
     6
  9
$SURFU
 70
     6
  9
$SURFV
 70
     6
  9
$UCSNAME
  2

  9
$UCSORG
 10
0.0
 20
0.0
 30
0.0
  9
$UCSXDIR
 10
1.0
 20
0.0
 30
0.0
  9
$UCSYDIR
 10
0.0
 20
1.0
 30
0.0
  9
$PUCSNAME
  2

  9
$PUCSORG
 10
0.0
 20
0.0
 30
0.0
  9
$PUCSXDIR
 10
1.0
 20
0.0
 30
0.0
  9
$PUCSYDIR
 10
0.0
 20
1.0
 30
0.0
  9
$USERI1
 70
     0
  9
$USERI2
 70
     0
  9
$USERI3
 70
     0
  9
$USERI4
 70
     0
  9
$USERI5
 70
     0
  9
$USERR1
 40
0.0
  9
$USERR2
 40
0.0
  9
$USERR3
 40
0.0
  9
$USERR4
 40
0.0
  9
$USERR5
 40
0.0
  9
$WORLDVIEW
 70
     1
  9
$SHADEDGE
 70
     3
  9
$SHADEDIF
 70
    70
  9
$TILEMODE
 70
     1
  9
$MAXACTVP
 70
    16
  9
$PINSBASE
 10
0.0
 20
0.0
 30
0.0
  9
$PLIMCHECK
 70
     0
  9
$PEXTMIN
 10
1.05
 20
0.8
 30
0.0
  9
$PEXTMAX
 10
9.45
 20
7.2
 30
0.0
  9
$PLIMMIN
 10
-0.25
 20
-0.25
  9
$PLIMMAX
 10
10.75
 20
8.25
  9
$UNITMODE
 70
     0
  9
$VISRETAIN
 70
     0
  9
$PLINEGEN
 70
     0
  9
$PSLTSCALE
 70
     1
  9
$TREEDEPTH
 70
  3020
  9
$PICKSTYLE
 70
     1
  9
$CMLSTYLE
  2
STANDARD
  9
$CMLJUST
 70
     0
  9
$CMLSCALE
 40
1.0
  9
$PROXYGRAPHICS
 70
     1
  9
$MEASUREMENT
 70
     0
  0
ENDSEC
  0
SECTION
  2
CLASSES
  0
CLASS
  1
DICTIONARYVAR
  2
AcDbDictionaryVar
  3
"AutoCAD"
 90
        0
280
     0
281
     0
  0
CLASS
  1
ACDBDICTIONARYWDFLT
  2
AcDbDictionaryWithDefault
  3
AutoCAD 2000
 90
        0
280
     0
281
     0
  0
CLASS
  1
ACDBPLACEHOLDER
  2
AcDbPlaceHolder
  3
AutoCAD 2000
 90
        0
280
     0
281
     0
  0
CLASS
  1
LAYOUT
  2
AcDbLayout
  3
AutoCAD 2000
 90
        0
280
     0
281
     0
  0
CLASS
  1
LONG_TRANSACTION
  2
AcDbLongTransaction
  3
AutoCAD 2000
 90
        0
280
     0
281
     0
  0
CLASS
  1
LWPOLYLINE
  2
AcDbPolyline
  3
"AutoCAD"
 90
        0
280
     0
281
     1
  0
CLASS
  1
HATCH
  2
AcDbHatch
  3
"ACAD_SEDONA"
 90
        0
280
     0
281
     1
  0
CLASS
  1
XRECORD
  2
AcDbXrecord
  3
"<Built In>"
 90
        0
280
     0
281
     0
  0
CLASS
  1
LONG_TRANSACTION
  2
AcDbLongTransaction
  3
AutoCAD 2000
 90
        0
280
     0
281
     0
  0
CLASS
  1
LWPOLYLINE
  2
AcDbPolyline
  3
"AutoCAD"
 90
        0
280
     0
281
     1
  0
CLASS
  1
HATCH
  2
AcDbHatch
  3
"ACAD_SEDONA"
 90
        0
280
     0
281
     1
  0
CLASS
  1
XRECORD
  2
AcDbXrecord
  3
"<Built In>"
 90
        0
280
     0
281
     0
  0
CLASS
  1
LONG_TRANSACTION
  2
AcDbLongTransaction
  3
AutoCAD 2000
 90
        0
280
     0
281
     0
  0
CLASS
  1
LWPOLYLINE
  2
AcDbPolyline
  3
"AutoCAD"
 90
        0
280
     0
281
     1
  0
CLASS
  1
HATCH
  2
AcDbHatch
  3
"ACAD_SEDONA"
 90
        0
280
     0
281
     1
  0
CLASS
  1
XRECORD
  2
AcDbXrecord
  3
"<Built In>"
 90
        0
280
     0
281
     0
  0
CLASS
  1
LONG_TRANSACTION
  2
AcDbLongTransaction
  3
AutoCAD 2000
 90
        0
280
     0
281
     0
  0
CLASS
  1
LWPOLYLINE
  2
AcDbPolyline
  3
"AutoCAD"
 90
        0
280
     0
281
     1
  0
CLASS
  1
HATCH
  2
AcDbHatch
  3
"ACAD_SEDONA"
 90
        0
280
     0
281
     1
  0
CLASS
  1
XRECORD
  2
AcDbXrecord
  3
"<Built In>"
 90
        0
280
     0
281
     0
  0
CLASS
  1
LONG_TRANSACTION
  2
AcDbLongTransaction
  3
AutoCAD 2000
 90
        0
280
     0
281
     0
  0
CLASS
  1
LWPOLYLINE
  2
AcDbPolyline
  3
"AutoCAD"
 90
        0
280
     0
281
     1
  0
CLASS
  1
HATCH
  2
AcDbHatch
  3
"ACAD_SEDONA"
 90
        0
280
     0
281
     1
  0
CLASS
  1
XRECORD
  2
AcDbXrecord
  3
"<Built In>"
 90
        0
280
     0
281
     0
  0
CLASS
  1
LONG_TRANSACTION
  2
AcDbLongTransaction
  3
AutoCAD 2000
 90
        0
280
     0
281
     0
  0
CLASS
  1
LWPOLYLINE
  2
AcDbPolyline
  3
"AutoCAD"
 90
        0
280
     0
281
     1
  0
CLASS
  1
HATCH
  2
AcDbHatch
  3
"ACAD_SEDONA"
 90
        0
280
     0
281
     1
  0
CLASS
  1
XRECORD
  2
AcDbXrecord
  3
"<Built In>"
 90
        0
280
     0
281
     0
  0
CLASS
  1
LONG_TRANSACTION
  2
AcDbLongTransaction
  3
AutoCAD 2000
 90
        0
280
     0
281
     0
  0
CLASS
  1
LWPOLYLINE
  2
AcDbPolyline
  3
"AutoCAD"
 90
        0
280
     0
281
     1
  0
CLASS
  1
HATCH
  2
AcDbHatch
  3
"ACAD_SEDONA"
 90
        0
280
     0
281
     1
  0
CLASS
  1
XRECORD
  2
AcDbXrecord
  3
"<Built In>"
 90
        0
280
     0
281
     0
  0
CLASS
  1
LONG_TRANSACTION
  2
AcDbLongTransaction
  3
AutoCAD 2000
 90
        0
280
     0
281
     0
  0
CLASS
  1
LWPOLYLINE
  2
AcDbPolyline
  3
"AutoCAD"
 90
        0
280
     0
281
     1
  0
CLASS
  1
HATCH
  2
AcDbHatch
  3
"ACAD_SEDONA"
 90
        0
280
     0
281
     1
  0
CLASS
  1
XRECORD
  2
AcDbXrecord
  3
"<Built In>"
 90
        0
280
     0
281
     0
  0
CLASS
  1
LONG_TRANSACTION
  2
AcDbLongTransaction
  3
AutoCAD 2000
 90
        0
280
     0
281
     0
  0
CLASS
  1
LWPOLYLINE
  2
AcDbPolyline
  3
"AutoCAD"
 90
        0
280
     0
281
     1
  0
CLASS
  1
HATCH
  2
AcDbHatch
  3
"ACAD_SEDONA"
 90
        0
280
     0
281
     1
  0
CLASS
  1
XRECORD
  2
AcDbXrecord
  3
"<Built In>"
 90
        0
280
     0
281
     0
  0
CLASS
  1
LONG_TRANSACTION
  2
AcDbLongTransaction
  3
AutoCAD 2000
 90
        0
280
     0
281
     0
  0
CLASS
  1
LWPOLYLINE
  2
AcDbPolyline
  3
"AutoCAD"
 90
        0
280
     0
281
     1
  0
CLASS
  1
HATCH
  2
AcDbHatch
  3
"ACAD_SEDONA"
 90
        0
280
     0
281
     1
  0
CLASS
  1
XRECORD
  2
AcDbXrecord
  3
"<Built In>"
 90
        0
280
     0
281
     0
  0
CLASS
  1
LONG_TRANSACTION
  2
AcDbLongTransaction
  3
AutoCAD 2000
 90
        0
280
     0
281
     0
  0
CLASS
  1
LWPOLYLINE
  2
AcDbPolyline
  3
"AutoCAD"
 90
        0
280
     0
281
     1
  0
CLASS
  1
HATCH
  2
AcDbHatch
  3
"ACAD_SEDONA"
 90
        0
280
     0
281
     1
  0
CLASS
  1
XRECORD
  2
AcDbXrecord
  3
"<Built In>"
 90
        0
280
     0
281
     0
  0
CLASS
  1
LONG_TRANSACTION
  2
AcDbLongTransaction
  3
AutoCAD 2000
 90
        0
280
     0
281
     0
  0
CLASS
  1
LWPOLYLINE
  2
AcDbPolyline
  3
"AutoCAD"
 90
        0
280
     0
281
     1
  0
CLASS
  1
HATCH
  2
AcDbHatch
  3
"ACAD_SEDONA"
 90
        0
280
     0
281
     1
  0
CLASS
  1
XRECORD
  2
AcDbXrecord
  3
"<Built In>"
 90
        0
280
     0
281
     0
  0
CLASS
  1
LONG_TRANSACTION
  2
AcDbLongTransaction
  3
AutoCAD 2000
 90
        0
280
     0
281
     0
  0
CLASS
  1
LWPOLYLINE
  2
AcDbPolyline
  3
"AutoCAD"
 90
        0
280
     0
281
     1
  0
CLASS
  1
HATCH
  2
AcDbHatch
  3
"ACAD_SEDONA"
 90
        0
280
     0
281
     1
  0
CLASS
  1
XRECORD
  2
AcDbXrecord
  3
"<Built In>"
 90
        0
280
     0
281
     0
  0
CLASS
  1
LONG_TRANSACTION
  2
AcDbLongTransaction
  3
AutoCAD 2000
 90
        0
280
     0
281
     0
  0
CLASS
  1
LWPOLYLINE
  2
AcDbPolyline
  3
"AutoCAD"
 90
        0
280
     0
281
     1
  0
CLASS
  1
HATCH
  2
AcDbHatch
  3
"ACAD_SEDONA"
 90
        0
280
     0
281
     1
  0
CLASS
  1
XRECORD
  2
AcDbXrecord
  3
"<Built In>"
 90
        0
280
     0
281
     0
  0
CLASS
  1
LONG_TRANSACTION
  2
AcDbLongTransaction
  3
AutoCAD 2000
 90
        0
280
     0
281
     0
  0
CLASS
  1
LWPOLYLINE
  2
AcDbPolyline
  3
"AutoCAD"
 90
        0
280
     0
281
     1
  0
CLASS
  1
HATCH
  2
AcDbHatch
  3
"ACAD_SEDONA"
 90
        0
280
     0
281
     1
  0
CLASS
  1
XRECORD
  2
AcDbXrecord
  3
"<Built In>"
 90
        0
280
     0
281
     0
  0
CLASS
  1
LONG_TRANSACTION
  2
AcDbLongTransaction
  3
AutoCAD 2000
 90
        0
280
     0
281
     0
  0
CLASS
  1
LWPOLYLINE
  2
AcDbPolyline
  3
"AutoCAD"
 90
        0
280
     0
281
     1
  0
CLASS
  1
HATCH
  2
AcDbHatch
  3
"ACAD_SEDONA"
 90
        0
280
     0
281
     1
  0
CLASS
  1
XRECORD
  2
AcDbXrecord
  3
"<Built In>"
 90
        0
280
     0
281
     0
  0
CLASS
  1
LONG_TRANSACTION
  2
AcDbLongTransaction
  3
AutoCAD 2000
 90
        0
280
     0
281
     0
  0
CLASS
  1
LWPOLYLINE
  2
AcDbPolyline
  3
"AutoCAD"
 90
        0
280
     0
281
     1
  0
CLASS
  1
HATCH
  2
AcDbHatch
  3
"ACAD_SEDONA"
 90
        0
280
     0
281
     1
  0
CLASS
  1
XRECORD
  2
AcDbXrecord
  3
"<Built In>"
 90
        0
280
     0
281
     0
  0
CLASS
  1
LONG_TRANSACTION
  2
AcDbLongTransaction
  3
AutoCAD 2000
 90
        0
280
     0
281
     0
  0
CLASS
  1
LWPOLYLINE
  2
AcDbPolyline
  3
"AutoCAD"
 90
        0
280
     0
281
     1
  0
CLASS
  1
HATCH
  2
AcDbHatch
  3
"ACAD_SEDONA"
 90
        0
280
     0
281
     1
  0
CLASS
  1
XRECORD
  2
AcDbXrecord
  3
"<Built In>"
 90
        0
280
     0
281
     0
  0
CLASS
  1
LONG_TRANSACTION
  2
AcDbLongTransaction
  3
AutoCAD 2000
 90
        0
280
     0
281
     0
  0
CLASS
  1
LWPOLYLINE
  2
AcDbPolyline
  3
"AutoCAD"
 90
        0
280
     0
281
     1
  0
CLASS
  1
HATCH
  2
AcDbHatch
  3
"ACAD_SEDONA"
 90
        0
280
     0
281
     1
  0
CLASS
  1
XRECORD
  2
AcDbXrecord
  3
"<Built In>"
 90
        0
280
     0
281
     0
  0
CLASS
  1
LONG_TRANSACTION
  2
AcDbLongTransaction
  3
AutoCAD 2000
 90
        0
280
     0
281
     0
  0
CLASS
  1
LWPOLYLINE
  2
AcDbPolyline
  3
"AutoCAD"
 90
        0
280
     0
281
     1
  0
CLASS
  1
HATCH
  2
AcDbHatch
  3
"ACAD_SEDONA"
 90
        0
280
     0
281
     1
  0
CLASS
  1
XRECORD
  2
AcDbXrecord
  3
"<Built In>"
 90
        0
280
     0
281
     0
  0
CLASS
  1
LONG_TRANSACTION
  2
AcDbLongTransaction
  3
AutoCAD 2000
 90
        0
280
     0
281
     0
  0
CLASS
  1
LWPOLYLINE
  2
AcDbPolyline
  3
"AutoCAD"
 90
        0
280
     0
281
     1
  0
CLASS
  1
HATCH
  2
AcDbHatch
  3
"ACAD_SEDONA"
 90
        0
280
     0
281
     1
  0
CLASS
  1
XRECORD
  2
AcDbXrecord
  3
"<Built In>"
 90
        0
280
     0
281
     0
  0
CLASS
  1
LONG_TRANSACTION
  2
AcDbLongTransaction
  3
AutoCAD 2000
 90
        0
280
     0
281
     0
  0
CLASS
  1
LWPOLYLINE
  2
AcDbPolyline
  3
"AutoCAD"
 90
        0
280
     0
281
     1
  0
CLASS
  1
HATCH
  2
AcDbHatch
  3
"ACAD_SEDONA"
 90
        0
280
     0
281
     1
  0
CLASS
  1
XRECORD
  2
AcDbXrecord
  3
"<Built In>"
 90
        0
280
     0
281
     0
  0
CLASS
  1
LONG_TRANSACTION
  2
AcDbLongTransaction
  3
AutoCAD 2000
 90
        0
280
     0
281
     0
  0
CLASS
  1
LWPOLYLINE
  2
AcDbPolyline
  3
"AutoCAD"
 90
        0
280
     0
281
     1
  0
CLASS
  1
HATCH
  2
AcDbHatch
  3
"ACAD_SEDONA"
 90
        0
280
     0
281
     1
  0
CLASS
  1
XRECORD
  2
AcDbXrecord
  3
"<Built In>"
 90
        0
280
     0
281
     0
  0
CLASS
  1
LONG_TRANSACTION
  2
AcDbLongTransaction
  3
AutoCAD 2000
 90
        0
280
     0
281
     0
  0
CLASS
  1
LWPOLYLINE
  2
AcDbPolyline
  3
"AutoCAD"
 90
        0
280
     0
281
     1
  0
CLASS
  1
HATCH
  2
AcDbHatch
  3
"ACAD_SEDONA"
 90
        0
280
     0
281
     1
  0
CLASS
  1
XRECORD
  2
AcDbXrecord
  3
"<Built In>"
 90
        0
280
     0
281
     0
  0
CLASS
  1
LONG_TRANSACTION
  2
AcDbLongTransaction
  3
AutoCAD 2000
 90
        0
280
     0
281
     0
  0
CLASS
  1
LWPOLYLINE
  2
AcDbPolyline
  3
"AutoCAD"
 90
        0
280
     0
281
     1
  0
CLASS
  1
HATCH
  2
AcDbHatch
  3
"ACAD_SEDONA"
 90
        0
280
     0
281
     1
  0
CLASS
  1
XRECORD
  2
AcDbXrecord
  3
"<Built In>"
 90
        0
280
     0
281
     0
  0
CLASS
  1
LONG_TRANSACTION
  2
AcDbLongTransaction
  3
AutoCAD 2000
 90
        0
280
     0
281
     0
  0
CLASS
  1
LWPOLYLINE
  2
AcDbPolyline
  3
"AutoCAD"
 90
        0
280
     0
281
     1
  0
CLASS
  1
HATCH
  2
AcDbHatch
  3
"ACAD_SEDONA"
 90
        0
280
     0
281
     1
  0
CLASS
  1
XRECORD
  2
AcDbXrecord
  3
"<Built In>"
 90
        0
280
     0
281
     0
  0
ENDSEC
  0
SECTION
  2
TABLES
  0
TABLE
  2
VPORT
  5
458C7
100
AcDbSymbolTable
 70
     1
  0
VPORT
  5
6DCE8
102
{ACAD_XDICTIONARY
360
6DCEB
102
}
100
AcDbSymbolTableRecord
100
AcDbViewportTableRecord
  2
*ACTIVE
 70
     0
 10
0.0
 20
0.0
 11
1.0
 21
1.0
 12
0.105092
 22
0.083069
 13
0.0
 23
0.0
 14
0.25
 24
0.25
 15
0.25
 25
0.25
 16
0.0
 26
0.0
 36
1.0
 17
0.563444
 27
-0.880137
 37
1.686493
 40
4.710655
 41
1.960674
 42
50.0
 43
0.0
 44
0.0
 50
0.0
 51
0.0
 71
     0
 72
 20000
 73
     1
 74
     1
 75
     0
 76
     0
 77
     0
 78
     0
  0
ENDTAB
  0
TABLE
  2
LTYPE
  5
458C4
100
AcDbSymbolTable
 70
     1
  0
LTYPE
  5
458D0
100
AcDbSymbolTableRecord
100
AcDbLinetypeTableRecord
  2
BYBLOCK
 70
     0
  3

 72
    65
 73
     0
 40
0.0
  0
LTYPE
  5
458D1
100
AcDbSymbolTableRecord
100
AcDbLinetypeTableRecord
  2
BYLAYER
 70
     0
  3

 72
    65
 73
     0
 40
0.0
  0
LTYPE
  5
458D2
100
AcDbSymbolTableRecord
100
AcDbLinetypeTableRecord
  2
CONTINUOUS
 70
     0
  3
Solid line
 72
    65
 73
     0
 40
0.0
  0
ENDTAB
  0
TABLE
  2
LAYER
  5
458C1
100
AcDbSymbolTable
 70
     7
  0
LAYER
  5
458CD
100
AcDbSymbolTableRecord
100
AcDbLayerTableRecord
  2
0
 70
     0
 62
     7
  6
CONTINUOUS
  0
LAYER
  5
458EA
100
AcDbSymbolTableRecord
100
AcDbLayerTableRecord
  2
DIMS-MTG-HOLES
 70
     0
 62
     1
  6
CONTINUOUS
  0
LAYER
  5
458EB
100
AcDbSymbolTableRecord
100
AcDbLayerTableRecord
  2
ATTRIBUTES
 70
     0
 62
     7
  6
CONTINUOUS
  0
LAYER
  5
4593B
102
{ACAD_XDICTIONARY
360
6DD14
102
}
100
AcDbSymbolTableRecord
100
AcDbLayerTableRecord
  2
AREA1
 70
     0
 62
    -7
  6
CONTINUOUS
  0
LAYER
  5
45940
102
{ACAD_XDICTIONARY
360
6DCE9
102
}
100
AcDbSymbolTableRecord
100
AcDbLayerTableRecord
  2
DEFPOINTS
 70
     0
 62
    -7
  6
CONTINUOUS
  0
LAYER
  5
45954
100
AcDbSymbolTableRecord
100
AcDbLayerTableRecord
  2
SCALE
 70
     0
 62
    -7
  6
CONTINUOUS
  0
LAYER
  5
4D59A
100
AcDbSymbolTableRecord
100
AcDbLayerTableRecord
  2
SNAP_POINTS
 70
     0
 62
    -1
  6
CONTINUOUS
  0
ENDTAB
  0
TABLE
  2
STYLE
  5
458C2
100
AcDbSymbolTable
 70
     1
  0
STYLE
  5
458CE
100
AcDbSymbolTableRecord
100
AcDbTextStyleTableRecord
  2
STANDARD
 70
     0
 40
0.0
 41
1.0
 50
0.0
 71
     0
 42
0.12
  3
txt
  4

  0
ENDTAB
  0
TABLE
  2
VIEW
  5
458C5
100
AcDbSymbolTable
 70
     0
  0
ENDTAB
  0
TABLE
  2
UCS
  5
458C6
100
AcDbSymbolTable
 70
     0
  0
ENDTAB
  0
TABLE
  2
APPID
  5
458C8
100
AcDbSymbolTable
 70
     2
  0
APPID
  5
458CF
100
AcDbSymbolTableRecord
100
AcDbRegAppTableRecord
  2
ACAD
 70
     0
  0
APPID
  5
5FD5B
100
AcDbSymbolTableRecord
100
AcDbRegAppTableRecord
  2
AVE_RENDER
 70
     0
  0
ENDTAB
  0
TABLE
  2
DIMSTYLE
  5
458C9
100
AcDbSymbolTable
 70
     1
  0
DIMSTYLE
105
458F6
102
{ACAD_XDICTIONARY
360
6DD10
102
}
102
{ACAD_REACTORS
330
6DC40
330
6DC4E
102
}
100
AcDbSymbolTableRecord
100
AcDbDimStyleTableRecord
  2
ABECAD_3D
 70
     0
  3

  4

  5

  6

  7

 40
1.0
 41
0.125
 42
0.0625
 43
0.375
 44
0.1
 45
0.0
 46
0.0
 47
0.0
 48
0.0
140
0.125
141
0.09
142
0.0
143
25.4
144
1.0
145
0.0
146
1.5
147
0.09
 71
     0
 72
     0
 73
     0
 74
     1
 75
     0
 76
     0
 77
     0
 78
     4
170
     1
171
     2
172
     0
173
     0
174
     0
175
     0
176
     0
177
     0
178
     0
270
     7
271
     6
272
     6
273
     2
274
     2
340
458CE
275
     0
280
     0
281
     0
282
     0
283
     1
284
     4
285
     4
286
     4
287
     5
288
     1
  0
ENDTAB
  0
TABLE
  2
BLOCK_RECORD
  5
458C0
100
AcDbSymbolTable
 70
     3
  0
BLOCK_RECORD
  5
458D6
102
{ACAD_XDICTIONARY
360
4592C
102
}
100
AcDbSymbolTableRecord
100
AcDbBlockTableRecord
  2
*MODEL_SPACE
  0
BLOCK_RECORD
  5
458D3
102
{ACAD_XDICTIONARY
360
4592A
102
}
100
AcDbSymbolTableRecord
100
AcDbBlockTableRecord
  2
*PAPER_SPACE
  0
BLOCK_RECORD
  5
6B85B
100
AcDbSymbolTableRecord
100
AcDbBlockTableRecord
  2
AVE_RENDER
  0
BLOCK_RECORD
  5
6DC41
100
AcDbSymbolTableRecord
100
AcDbBlockTableRecord
  2
*D1
  0
BLOCK_RECORD
  5
6DC4F
100
AcDbSymbolTableRecord
100
AcDbBlockTableRecord
  2
*D2
  0
ENDTAB
  0
ENDSEC
  0
SECTION
  2
BLOCKS
  0
BLOCK
  5
458DF
100
AcDbEntity
  8
0
100
AcDbBlockBegin
  2
*MODEL_SPACE
 70
     0
 10
0.0
 20
0.0
 30
0.0
  3
*MODEL_SPACE
  1

  0
ENDBLK
  5
458E0
100
AcDbEntity
  8
0
100
AcDbBlockEnd
  0
BLOCK
  5
458DD
100
AcDbEntity
 67
     1
  8
0
100
AcDbBlockBegin
  2
*PAPER_SPACE
 70
     0
 10
0.0
 20
0.0
 30
0.0
  3
*PAPER_SPACE
  1

  0
ENDBLK
  5
458DE
100
AcDbEntity
 67
     1
  8
0
100
AcDbBlockEnd
  0
BLOCK
  5
6B85C
100
AcDbEntity
  8
0
100
AcDbBlockBegin
  2
AVE_RENDER
 70
     0
 10
0.0
 20
0.0
 30
0.0
  3
AVE_RENDER
  1
AVE_RENDER
  0
ENDBLK
  5
6B85D
100
AcDbEntity
  8
0
100
AcDbBlockEnd
  0
BLOCK
  5
6DC4C
100
AcDbEntity
  8
0
100
AcDbBlockBegin
  2
*D1
 70
     1
 10
0.0
 20
0.0
 30
0.0
  3
*D1
  1

  0
LINE
  5
6DC42
100
AcDbEntity
  8
AREA1
 62
     0
100
AcDbLine
 10
0.27021
 20
0.9585
 30
0.0
 11
-0.491906
 21
0.9585
 31
0.0
1001
ACAD
1000
RTLwPs
1070
   158
  0
LINE
  5
6DC43
100
AcDbEntity
  8
AREA1
 62
     0
100
AcDbLine
 10
0.63721
 20
-2.2215
 30
0.0
 11
-0.491906
 21
-2.2215
 31
0.0
1001
ACAD
1000
RTLwPs
1070
   158
  0
LINE
  5
6DC44
100
AcDbEntity
  8
AREA1
 62
     0
100
AcDbLine
 10
-0.391906
 20
0.8335
 30
0.0
 11
-0.391906
 21
0.141544
 31
0.0
1001
ACAD
1000
RTLwPs
1070
   158
  0
LINE
  5
6DC45
100
AcDbEntity
  8
AREA1
 62
     0
100
AcDbLine
 10
-0.391906
 20
-2.0965
 30
0.0
 11
-0.391906
 21
-1.517623
 31
0.0
1001
ACAD
1000
RTLwPs
1070
   158
  0
MTEXT
  5
6DC46
100
AcDbEntity
  8
AREA1
 62
     0
100
AcDbMText
 10
-0.391906
 20
-0.688039
 30
0.0
 40
0.125
 41
0.0
 71
     5
 72
     1
  1
\A1;3 3/16 [80.77]
 11
0.0
 21
1.0
 31
0.0
1001
ACAD
1000
MTEXTBEGIN
1070
    73
1070
     1
1070
    44
1040
1.0
1070
    74
1070
     0
1000
MTEXTEND
1000
MTEXTBEGIN
1070
    73
1070
     1
1070
    44
1040
1.0
1070
    74
1070
     0
1000
MTEXTEND
1000
MTEXTBEGIN
1070
    73
1070
     1
1070
    44
1040
1.0
1070
    74
1070
     0
1000
MTEXTEND
  0
SOLID
  5
6DC47
100
AcDbEntity
  8
AREA1
 62
     0
100
AcDbTrace
 10
-0.412739
 20
0.8335
 30
0.0
 11
-0.371073
 21
0.8335
 31
0.0
 12
-0.391906
 22
0.9585
 32
0.0
 13
-0.391906
 23
0.9585
 33
0.0
  0
SOLID
  5
6DC48
100
AcDbEntity
  8
AREA1
 62
     0
100
AcDbTrace
 10
-0.412739
 20
-2.0965
 30
0.0
 11
-0.371073
 21
-2.0965
 31
0.0
 12
-0.391906
 22
-2.2215
 32
0.0
 13
-0.391906
 23
-2.2215
 33
0.0
  0
POINT
  5
6DC49
100
AcDbEntity
  8
DEFPOINTS
 62
     0
100
AcDbPoint
 10
0.33271
 20
0.9585
 30
1.384275
  0
POINT
  5
6DC4A
100
AcDbEntity
  8
DEFPOINTS
 62
     0
100
AcDbPoint
 10
0.69971
 20
-2.2215
 30
1.384275
  0
POINT
  5
6DC4B
100
AcDbEntity
  8
DEFPOINTS
 62
     0
100
AcDbPoint
 10
-0.391906
 20
-2.2215
 30
0.0
  0
ENDBLK
  5
6DC4D
100
AcDbEntity
  8
0
100
AcDbBlockEnd
  0
BLOCK
  5
6DC59
100
AcDbEntity
  8
0
100
AcDbBlockBegin
  2
*D2
 70
     1
 10
0.0
 20
0.0
 30
0.0
  3
*D2
  1

  0
LINE
  5
6DC5B
100
AcDbEntity
  8
AREA1
 62
     0
100
AcDbLine
 10
0.00021
 20
0.601
 30
0.0
 11
0.00021
 21
1.321194
 31
0.0
1001
ACAD
1000
RTLwPs
1070
   158
  0
LINE
  5
6DC5C
100
AcDbEntity
  8
AREA1
 62
     0
100
AcDbLine
 10
1.76521
 20
0.637
 30
0.0
 11
1.76521
 21
1.321194
 31
0.0
1001
ACAD
1000
RTLwPs
1070
   158
  0
LINE
  5
6DC5D
100
AcDbEntity
  8
AREA1
 62
     0
100
AcDbLine
 10
0.12521
 20
1.221194
 30
0.0
 11
1.64021
 21
1.221194
 31
0.0
1001
ACAD
1000
RTLwPs
1070
   158
  0
MTEXT
  5
6DC5E
100
AcDbEntity
  8
AREA1
 62
     0
100
AcDbMText
 10
0.875976
 20
1.456455
 30
0.0
 40
0.125
 41
0.0
 71
     5
 72
     1
  1
\A1;1 49/64 [44.83]
1001
ACAD
1000
MTEXTBEGIN
1070
    73
1070
     1
1070
    44
1040
1.0
1070
    74
1070
     0
1000
MTEXTEND
1000
MTEXTBEGIN
1070
    73
1070
     1
1070
    44
1040
1.0
1070
    74
1070
     0
1000
MTEXTEND
1000
MTEXTBEGIN
1070
    73
1070
     1
1070
    44
1040
1.0
1070
    74
1070
     0
1000
MTEXTEND
  0
SOLID
  5
6DC5F
100
AcDbEntity
  8
AREA1
 62
     0
100
AcDbTrace
 10
0.12521
 20
1.242027
 30
0.0
 11
0.12521
 21
1.20036
 31
0.0
 12
0.00021
 22
1.221194
 32
0.0
 13
0.00021
 23
1.221194
 33
0.0
  0
SOLID
  5
6DC60
100
AcDbEntity
  8
AREA1
 62
     0
100
AcDbTrace
 10
1.64021
 20
1.242027
 30
0.0
 11
1.64021
 21
1.20036
 31
0.0
 12
1.76521
 22
1.221194
 32
0.0
 13
1.76521
 23
1.221194
 33
0.0
  0
POINT
  5
6DC61
100
AcDbEntity
  8
DEFPOINTS
 62
     0
100
AcDbPoint
 10
0.00021
 20
0.5385
 30
2.058275
  0
POINT
  5
6DC62
100
AcDbEntity
  8
DEFPOINTS
 62
     0
100
AcDbPoint
 10
1.76521
 20
0.5745
 30
0.0
  0
POINT
  5
6DC63
100
AcDbEntity
  8
DEFPOINTS
 62
     0
100
AcDbPoint
 10
1.76521
 20
1.221194
 30
0.0
  0
ENDBLK
  5
6DC5A
100
AcDbEntity
  8
0
100
AcDbBlockEnd
  0
ENDSEC
  0
SECTION
  2
ENTITIES
  0
ATTDEF
  5
6D866
100
AcDbEntity
  8
ATTRIBUTES
100
AcDbText
 10
0.100105
 20
-0.134243
 30
0.0
 40
0.08052
  1
ALLEN-BRADLEY
100
AcDbAttributeDefinition
  3
MANUFACTURER NAME?
  2
AC_VND_LABEL
 70
     1
  0
ATTDEF
  5
6D867
100
AcDbEntity
  8
ATTRIBUTES
100
AcDbText
 10
0.100105
 20
-0.301994
 30
0.0
 40
0.08052
  1
700-CF040
100
AcDbAttributeDefinition
  3
CATALOG NUMBER?
  2
AC_PART_NO
 70
     1
  0
ATTDEF
  5
6D868
100
AcDbEntity
  8
ATTRIBUTES
100
AcDbText
 10
0.100105
 20
-0.469745
 30
0.0
 40
0.08052
  1
MCS IEC CONTROL RELAY, 4 N.C.
100
AcDbAttributeDefinition
  3
PART DESCRIPTION?
  2
AC_DESCRIPTION
 70
     1
  0
ATTDEF
  5
6D869
100
AcDbEntity
  8
ATTRIBUTES
100
AcDbText
 10
0.100105
 20
-0.637495
 30
0.0
 40
0.08052
  1

100
AcDbAttributeDefinition
  3
DEVICE ID?
  2
DEVICE_ID
 70
     1
  0
ATTDEF
  5
6D86A
100
AcDbEntity
  8
ATTRIBUTES
100
AcDbText
 10
0.100105
 20
-0.805246
 30
0.0
 40
0.08052
  1

100
AcDbAttributeDefinition
  3
CUSTOMER PART NUMBER?
  2
AC_CPART_NO
 70
     1
  0
ATTDEF
  5
6D86B
100
AcDbEntity
  8
ATTRIBUTES
100
AcDbText
 10
0.100105
 20
-0.972997
 30
0.0
 40
0.08052
  1

100
AcDbAttributeDefinition
  3
CUSTOMER NOTE?
  2
AC_NOTE
 70
     1
  0
ATTDEF
  5
6D86C
100
AcDbEntity
  8
ATTRIBUTES
100
AcDbText
 10
0.100105
 20
-1.140748
 30
0.0
 40
0.08052
  1

100
AcDbAttributeDefinition
  3
FASTENER DATA?
  2
FASTENER
 70
     1
  0
ATTDEF
  5
6D86D
100
AcDbEntity
  8
ATTRIBUTES
100
AcDbText
 10
0.100105
 20
-1.308498
 30
0.0
 40
0.08052
  1
INCH
100
AcDbAttributeDefinition
  3
UNIT OF SCALE?
  2
AC_SCALE_UNIT
 70
     1
  0
ATTDEF
  5
6D86E
100
AcDbEntity
  8
ATTRIBUTES
100
AcDbText
 10
0.100105
 20
-1.476249
 30
0.0
 40
0.08052
  1
0
100
AcDbAttributeDefinition
  3
VIEW CODE?
  2
AC_VIEW_CODE
 70
     1
  0
POLYLINE
  5
6D86F
100
AcDbEntity
  8
0
100
AcDbPolygonMesh
 66
     1
 10
0.0
 20
0.0
 30
0.0
 70
    16
 71
     6
 72
     3
  0
VERTEX
  5
6D870
100
AcDbEntity
  8
0
100
AcDbVertex
100
AcDbPolygonMeshVertex
 10
1.76521
 20
0.2385
 30
0.316
 70
    64
  0
VERTEX
  5
6D871
100
AcDbEntity
  8
0
100
AcDbVertex
100
AcDbPolygonMeshVertex
 10
1.76521
 20
0.2385
 30
0.0
 70
    64
  0
VERTEX
  5
6D872
100
AcDbEntity
  8
0
100
AcDbVertex
100
AcDbPolygonMeshVertex
 10
1.76521
 20
0.2385
 30
0.0
 70
    64
  0
VERTEX
  5
6D873
100
AcDbEntity
  8
0
100
AcDbVertex
100
AcDbPolygonMeshVertex
 10
1.37421
 20
0.2385
 30
0.316
 70
    64
  0
VERTEX
  5
6D874
100
AcDbEntity
  8
0
100
AcDbVertex
100
AcDbPolygonMeshVertex
 10
1.37421
 20
0.2385
 30
0.0
 70
    64
  0
VERTEX
  5
6D875
100
AcDbEntity
  8
0
100
AcDbVertex
100
AcDbPolygonMeshVertex
 10
1.37421
 20
0.2385
 30
0.0
 70
    64
  0
VERTEX
  5
6D876
100
AcDbEntity
  8
0
100
AcDbVertex
100
AcDbPolygonMeshVertex
 10
1.37421
 20
0.5745
 30
0.316
 70
    64
  0
VERTEX
  5
6D877
100
AcDbEntity
  8
0
100
AcDbVertex
100
AcDbPolygonMeshVertex
 10
1.37421
 20
0.5745
 30
0.0
 70
    64
  0
VERTEX
  5
6D878
100
AcDbEntity
  8
0
100
AcDbVertex
100
AcDbPolygonMeshVertex
 10
1.37421
 20
0.2385
 30
0.0
 70
    64
  0
VERTEX
  5
6D879
100
AcDbEntity
  8
0
100
AcDbVertex
100
AcDbPolygonMeshVertex
 10
1.76521
 20
0.5745
 30
0.316
 70
    64
  0
VERTEX
  5
6D87A
100
AcDbEntity
  8
0
100
AcDbVertex
100
AcDbPolygonMeshVertex
 10
1.76521
 20
0.5745
 30
0.0
 70
    64
  0
VERTEX
  5
6D87B
100
AcDbEntity
  8
0
100
AcDbVertex
100
AcDbPolygonMeshVertex
 10
1.76521
 20
0.2385
 30
0.0
 70
    64
  0
VERTEX
  5
6D87C
100
AcDbEntity
  8
0
100
AcDbVertex
100
AcDbPolygonMeshVertex
 10
1.76521
 20
0.5745
 30
0.316
 70
    64
  0
VERTEX
  5
6D87D
100
AcDbEntity
  8
0
100
AcDbVertex
100
AcDbPolygonMeshVertex
 10
1.76521
 20
0.5745
 30
0.316
 70
    64
  0
VERTEX
  5
6D87E
100
AcDbEntity
  8
0
100
AcDbVertex
100
AcDbPolygonMeshVertex
 10
1.76521
 20
0.2385
 30
0.316
 70
    64
  0
VERTEX
  5
6D87F
100
AcDbEntity
  8
0
100
AcDbVertex
100
AcDbPolygonMeshVertex
 10
1.37421
 20
0.5745
 30
0.316
 70
    64
  0
VERTEX
  5
6D880
100
AcDbEntity
  8
0
100
AcDbVertex
100
AcDbPolygonMeshVertex
 10
1.37421
 20
0.5745
 30
0.316
 70
    64
  0
VERTEX
  5
6D881
100
AcDbEntity
  8
0
100
AcDbVertex
100
AcDbPolygonMeshVertex
 10
1.37421
 20
0.2385
 30
0.316
 70
    64
  0
SEQEND
  5
6D882
100
AcDbEntity
  8
0
  0
POLYLINE
  5
6D883
100
AcDbEntity
  8
0
100
AcDbPolygonMesh
 66
     1
 10
0.0
 20
0.0
 30
0.0
 70
    16
 71
     6
 72
     3
  0
VERTEX
  5
6D884
100
AcDbEntity
  8
0
100
AcDbVertex
100
AcDbPolygonMeshVertex
 10
0.39621
 20
-1.6855
 30
1.407875
 70
    64
  0
VERTEX
  5
6D885
100
AcDbEntity
  8
0
100
AcDbVertex
100
AcDbPolygonMeshVertex
 10
0.39621
 20
-1.6855
 30
0.187
 70
    64
  0
VERTEX
  5
6D886
100
AcDbEntity
  8
0
100
AcDbVertex
100
AcDbPolygonMeshVertex
 10
0.39621
 20
-1.6855
 30
0.187
 70
    64
  0
VERTEX
  5
6D887
100
AcDbEntity
  8
0
100
AcDbVertex
100
AcDbPolygonMeshVertex
 10
0.00521
 20
-1.6855
 30
1.407875
 70
    64
  0
VERTEX
  5
6D888
100
AcDbEntity
  8
0
100
AcDbVertex
100
AcDbPolygonMeshVertex
 10
0.00521
 20
-1.6855
 30
0.187
 70
    64
  0
VERTEX
  5
6D889
100
AcDbEntity
  8
0
100
AcDbVertex
100
AcDbPolygonMeshVertex
 10
0.00521
 20
-1.6855
 30
0.187
 70
    64
  0
VERTEX
  5
6D88A
100
AcDbEntity
  8
0
100
AcDbVertex
100
AcDbPolygonMeshVertex
 10
0.00521
 20
0.5215
 30
1.407875
 70
    64
  0
VERTEX
  5
6D88B
100
AcDbEntity
  8
0
100
AcDbVertex
100
AcDbPolygonMeshVertex
 10
0.00521
 20
0.5215
 30
0.187
 70
    64
  0
VERTEX
  5
6D88C
100
AcDbEntity
  8
0
100
AcDbVertex
100
AcDbPolygonMeshVertex
 10
0.00521
 20
-1.6855
 30
0.187
 70
    64
  0
VERTEX
  5
6D88D
100
AcDbEntity
  8
0
100
AcDbVertex
100
AcDbPolygonMeshVertex
 10
0.39621
 20
0.5215
 30
1.407875
 70
    64
  0
VERTEX
  5
6D88E
100
AcDbEntity
  8
0
100
AcDbVertex
100
AcDbPolygonMeshVertex
 10
0.39621
 20
0.5215
 30
0.187
 70
    64
  0
VERTEX
  5
6D88F
100
AcDbEntity
  8
0
100
AcDbVertex
100
AcDbPolygonMeshVertex
 10
0.39621
 20
-1.6855
 30
0.187
 70
    64
  0
VERTEX
  5
6D890
100
AcDbEntity
  8
0
100
AcDbVertex
100
AcDbPolygonMeshVertex
 10
0.39621
 20
0.5215
 30
1.407875
 70
    64
  0
VERTEX
  5
6D891
100
AcDbEntity
  8
0
100
AcDbVertex
100
AcDbPolygonMeshVertex
 10
0.39621
 20
0.5215
 30
1.407875
 70
    64
  0
VERTEX
  5
6D892
100
AcDbEntity
  8
0
100
AcDbVertex
100
AcDbPolygonMeshVertex
 10
0.39621
 20
-1.6855
 30
1.407875
 70
    64
  0
VERTEX
  5
6D893
100
AcDbEntity
  8
0
100
AcDbVertex
100
AcDbPolygonMeshVertex
 10
0.00521
 20
0.5215
 30
1.407875
 70
    64
  0
VERTEX
  5
6D894
100
AcDbEntity
  8
0
100
AcDbVertex
100
AcDbPolygonMeshVertex
 10
0.00521
 20
0.5215
 30
1.407875
 70
    64
  0
VERTEX
  5
6D895
100
AcDbEntity
  8
0
100
AcDbVertex
100
AcDbPolygonMeshVertex
 10
0.00521
 20
-1.6855
 30
1.407875
 70
    64
  0
SEQEND
  5
6D896
100
AcDbEntity
  8
0
  0
POLYLINE
  5
6D897
100
AcDbEntity
  8
0
100
AcDbPolygonMesh
 66
     1
 10
0.0
 20
0.0
 30
0.0
 70
    16
 71
     6
 72
     3
  0
VERTEX
  5
6D898
100
AcDbEntity
  8
0
100
AcDbVertex
100
AcDbPolygonMeshVertex
 10
1.76521
 20
-1.9685
 30
1.407875
 70
    64
  0
VERTEX
  5
6D899
100
AcDbEntity
  8
0
100
AcDbVertex
100
AcDbPolygonMeshVertex
 10
1.76521
 20
-1.9685
 30
0.187
 70
    64
  0
VERTEX
  5
6D89A
100
AcDbEntity
  8
0
100
AcDbVertex
100
AcDbPolygonMeshVertex
 10
1.76521
 20
-1.9685
 30
0.187
 70
    64
  0
VERTEX
  5
6D89B
100
AcDbEntity
  8
0
100
AcDbVertex
100
AcDbPolygonMeshVertex
 10
1.37421
 20
-1.9685
 30
1.407875
 70
    64
  0
VERTEX
  5
6D89C
100
AcDbEntity
  8
0
100
AcDbVertex
100
AcDbPolygonMeshVertex
 10
1.37421
 20
-1.9685
 30
0.187
 70
    64
  0
VERTEX
  5
6D89D
100
AcDbEntity
  8
0
100
AcDbVertex
100
AcDbPolygonMeshVertex
 10
1.37421
 20
-1.9685
 30
0.187
 70
    64
  0
VERTEX
  5
6D89E
100
AcDbEntity
  8
0
100
AcDbVertex
100
AcDbPolygonMeshVertex
 10
1.37421
 20
0.2385
 30
1.407875
 70
    64
  0
VERTEX
  5
6D89F
100
AcDbEntity
  8
0
100
AcDbVertex
100
AcDbPolygonMeshVertex
 10
1.37421
 20
0.2385
 30
0.187
 70
    64
  0
VERTEX
  5
6D8A0
100
AcDbEntity
  8
0
100
AcDbVertex
100
AcDbPolygonMeshVertex
 10
1.37421
 20
-1.9685
 30
0.187
 70
    64
  0
VERTEX
  5
6D8A1
100
AcDbEntity
  8
0
100
AcDbVertex
100
AcDbPolygonMeshVertex
 10
1.76521
 20
0.2385
 30
1.407875
 70
    64
  0
VERTEX
  5
6D8A2
100
AcDbEntity
  8
0
100
AcDbVertex
100
AcDbPolygonMeshVertex
 10
1.76521
 20
0.2385
 30
0.187
 70
    64
  0
VERTEX
  5
6D8A3
100
AcDbEntity
  8
0
100
AcDbVertex
100
AcDbPolygonMeshVertex
 10
1.76521
 20
-1.9685
 30
0.187
 70
    64
  0
VERTEX
  5
6D8A4
100
AcDbEntity
  8
0
100
AcDbVertex
100
AcDbPolygonMeshVertex
 10
1.76521
 20
0.2385
 30
1.407875
 70
    64
  0
VERTEX
  5
6D8A5
100
AcDbEntity
  8
0
100
AcDbVertex
100
AcDbPolygonMeshVertex
 10
1.76521
 20
0.2385
 30
1.407875
 70
    64
  0
VERTEX
  5
6D8A6
100
AcDbEntity
  8
0
100
AcDbVertex
100
AcDbPolygonMeshVertex
 10
1.76521
 20
-1.9685
 30
1.407875
 70
    64
  0
VERTEX
  5
6D8A7
100
AcDbEntity
  8
0
100
AcDbVertex
100
AcDbPolygonMeshVertex
 10
1.37421
 20
0.2385
 30
1.407875
 70
    64
  0
VERTEX
  5
6D8A8
100
AcDbEntity
  8
0
100
AcDbVertex
100
AcDbPolygonMeshVertex
 10
1.37421
 20
0.2385
 30
1.407875
 70
    64
  0
VERTEX
  5
6D8A9
100
AcDbEntity
  8
0
100
AcDbVertex
100
AcDbPolygonMeshVertex
 10
1.37421
 20
-1.9685
 30
1.407875
 70
    64
  0
SEQEND
  5
6D8AA
100
AcDbEntity
  8
0
  0
POLYLINE
  5
6D8AB
100
AcDbEntity
  8
0
100
AcDbPolygonMesh
 66
     1
 10
0.0
 20
0.0
 30
0.0
 70
    16
 71
     6
 72
     3
  0
VERTEX
  5
6D8AC
100
AcDbEntity
  8
0
100
AcDbVertex
100
AcDbPolygonMeshVertex
 10
1.37421
 20
-1.9685
 30
1.407875
 70
    64
  0
VERTEX
  5
6D8AD
100
AcDbEntity
  8
0
100
AcDbVertex
100
AcDbPolygonMeshVertex
 10
1.37421
 20
-1.9685
 30
0.187
 70
    64
  0
VERTEX
  5
6D8AE
100
AcDbEntity
  8
0
100
AcDbVertex
100
AcDbPolygonMeshVertex
 10
1.37421
 20
-1.9685
 30
0.187
 70
    64
  0
VERTEX
  5
6D8AF
100
AcDbEntity
  8
0
100
AcDbVertex
100
AcDbPolygonMeshVertex
 10
0.39621
 20
-1.9685
 30
1.407875
 70
    64
  0
VERTEX
  5
6D8B0
100
AcDbEntity
  8
0
100
AcDbVertex
100
AcDbPolygonMeshVertex
 10
0.39621
 20
-1.9685
 30
0.187
 70
    64
  0
VERTEX
  5
6D8B1
100
AcDbEntity
  8
0
100
AcDbVertex
100
AcDbPolygonMeshVertex
 10
0.39621
 20
-1.9685
 30
0.187
 70
    64
  0
VERTEX
  5
6D8B2
100
AcDbEntity
  8
0
100
AcDbVertex
100
AcDbPolygonMeshVertex
 10
0.39621
 20
0.5215
 30
1.407875
 70
    64
  0
VERTEX
  5
6D8B3
100
AcDbEntity
  8
0
100
AcDbVertex
100
AcDbPolygonMeshVertex
 10
0.39621
 20
0.5215
 30
0.187
 70
    64
  0
VERTEX
  5
6D8B4
100
AcDbEntity
  8
0
100
AcDbVertex
100
AcDbPolygonMeshVertex
 10
0.39621
 20
-1.9685
 30
0.187
 70
    64
  0
VERTEX
  5
6D8B5
100
AcDbEntity
  8
0
100
AcDbVertex
100
AcDbPolygonMeshVertex
 10
1.37421
 20
0.5215
 30
1.407875
 70
    64
  0
VERTEX
  5
6D8B6
100
AcDbEntity
  8
0
100
AcDbVertex
100
AcDbPolygonMeshVertex
 10
1.37421
 20
0.5215
 30
0.187
 70
    64
  0
VERTEX
  5
6D8B7
100
AcDbEntity
  8
0
100
AcDbVertex
100
AcDbPolygonMeshVertex
 10
1.37421
 20
-1.9685
 30
0.187
 70
    64
  0
VERTEX
  5
6D8B8
100
AcDbEntity
  8
0
100
AcDbVertex
100
AcDbPolygonMeshVertex
 10
1.37421
 20
0.5215
 30
1.407875
 70
    64
  0
VERTEX
  5
6D8B9
100
AcDbEntity
  8
0
100
AcDbVertex
100
AcDbPolygonMeshVertex
 10
1.37421
 20
0.5215
 30
1.407875
 70
    64
  0
VERTEX
  5
6D8BA
100
AcDbEntity
  8
0
100
AcDbVertex
100
AcDbPolygonMeshVertex
 10
1.37421
 20
-1.9685
 30
1.407875
 70
    64
  0
VERTEX
  5
6D8BB
100
AcDbEntity
  8
0
100
AcDbVertex
100
AcDbPolygonMeshVertex
 10
0.39621
 20
0.5215
 30
1.407875
 70
    64
  0
VERTEX
  5
6D8BC
100
AcDbEntity
  8
0
100
AcDbVertex
100
AcDbPolygonMeshVertex
 10
0.39621
 20
0.5215
 30
1.407875
 70
    64
  0
VERTEX
  5
6D8BD
100
AcDbEntity
  8
0
100
AcDbVertex
100
AcDbPolygonMeshVertex
 10
0.39621
 20
-1.9685
 30
1.407875
 70
    64
  0
SEQEND
  5
6D8BE
100
AcDbEntity
  8
0
  0
POLYLINE
  5
6D8BF
100
AcDbEntity
  8
0
100
AcDbPolygonMesh
 66
     1
 10
0.0
 20
0.0
 30
0.0
 70
    16
 71
     6
 72
     3
  0
VERTEX
  5
6D8C0
100
AcDbEntity
  8
0
100
AcDbVertex
100
AcDbPolygonMeshVertex
 10
1.07071
 20
-2.2215
 30
2.058275
 70
    64
  0
VERTEX
  5
6D8C1
100
AcDbEntity
  8
0
100
AcDbVertex
100
AcDbPolygonMeshVertex
 10
1.07071
 20
-2.2215
 30
1.384275
 70
    64
  0
VERTEX
  5
6D8C2
100
AcDbEntity
  8
0
100
AcDbVertex
100
AcDbPolygonMeshVertex
 10
1.07071
 20
-2.2215
 30
1.384275
 70
    64
  0
VERTEX
  5
6D8C3
100
AcDbEntity
  8
0
100
AcDbVertex
100
AcDbPolygonMeshVertex
 10
0.69971
 20
-2.2215
 30
2.058275
 70
    64
  0
VERTEX
  5
6D8C4
100
AcDbEntity
  8
0
100
AcDbVertex
100
AcDbPolygonMeshVertex
 10
0.69971
 20
-2.2215
 30
1.384275
 70
    64
  0
VERTEX
  5
6D8C5
100
AcDbEntity
  8
0
100
AcDbVertex
100
AcDbPolygonMeshVertex
 10
0.69971
 20
-2.2215
 30
1.384275
 70
    64
  0
VERTEX
  5
6D8C6
100
AcDbEntity
  8
0
100
AcDbVertex
100
AcDbPolygonMeshVertex
 10
0.69971
 20
-1.9685
 30
2.058275
 70
    64
  0
VERTEX
  5
6D8C7
100
AcDbEntity
  8
0
100
AcDbVertex
100
AcDbPolygonMeshVertex
 10
0.69971
 20
-1.9685
 30
1.384275
 70
    64
  0
VERTEX
  5
6D8C8
100
AcDbEntity
  8
0
100
AcDbVertex
100
AcDbPolygonMeshVertex
 10
0.69971
 20
-2.2215
 30
1.384275
 70
    64
  0
VERTEX
  5
6D8C9
100
AcDbEntity
  8
0
100
AcDbVertex
100
AcDbPolygonMeshVertex
 10
1.07071
 20
-1.9685
 30
2.058275
 70
    64
  0
VERTEX
  5
6D8CA
100
AcDbEntity
  8
0
100
AcDbVertex
100
AcDbPolygonMeshVertex
 10
1.07071
 20
-1.9685
 30
1.384275
 70
    64
  0
VERTEX
  5
6D8CB
100
AcDbEntity
  8
0
100
AcDbVertex
100
AcDbPolygonMeshVertex
 10
1.07071
 20
-2.2215
 30
1.384275
 70
    64
  0
VERTEX
  5
6D8CC
100
AcDbEntity
  8
0
100
AcDbVertex
100
AcDbPolygonMeshVertex
 10
1.07071
 20
-1.9685
 30
2.058275
 70
    64
  0
VERTEX
  5
6D8CD
100
AcDbEntity
  8
0
100
AcDbVertex
100
AcDbPolygonMeshVertex
 10
1.07071
 20
-1.9685
 30
2.058275
 70
    64
  0
VERTEX
  5
6D8CE
100
AcDbEntity
  8
0
100
AcDbVertex
100
AcDbPolygonMeshVertex
 10
1.07071
 20
-2.2215
 30
2.058275
 70
    64
  0
VERTEX
  5
6D8CF
100
AcDbEntity
  8
0
100
AcDbVertex
100
AcDbPolygonMeshVertex
 10
0.69971
 20
-1.9685
 30
2.058275
 70
    64
  0
VERTEX
  5
6D8D0
100
AcDbEntity
  8
0
100
AcDbVertex
100
AcDbPolygonMeshVertex
 10
0.69971
 20
-1.9685
 30
2.058275
 70
    64
  0
VERTEX
  5
6D8D1
100
AcDbEntity
  8
0
100
AcDbVertex
100
AcDbPolygonMeshVertex
 10
0.69971
 20
-2.2215
 30
2.058275
 70
    64
  0
SEQEND
  5
6D8D2
100
AcDbEntity
  8
0
  0
LWPOLYLINE
  5
6D8D3
100
AcDbEntity
  8
0
100
AcDbPolyline
 90
        4
 70
     1
 43
0.0
 38
2.060275
 10
0.75171
 20
-2.0205
 10
1.01871
 20
-2.0205
 10
1.01871
 20
-2.1695
 10
0.75171
 20
-2.1695
  0
LWPOLYLINE
  5
6D8D4
100
AcDbEntity
  8
0
100
AcDbPolyline
 90
        4
 70
     1
 43
0.0
 38
1.386275
 10
0.75171
 20
-2.0205
 10
1.01871
 20
-2.0205
 10
1.01871
 20
-2.1695
 10
0.75171
 20
-2.1695
  0
POLYLINE
  5
6D8D5
100
AcDbEntity
  8
0
100
AcDbPolygonMesh
 66
     1
 10
0.0
 20
0.0
 30
0.0
 70
    16
 71
     6
 72
     3
  0
VERTEX
  5
6D8D6
100
AcDbEntity
  8
0
100
AcDbVertex
100
AcDbPolygonMeshVertex
 10
0.33271
 20
0.9585
 30
2.058275
 70
    64
  0
VERTEX
  5
6D8D7
100
AcDbEntity
  8
0
100
AcDbVertex
100
AcDbPolygonMeshVertex
 10
0.33271
 20
0.9585
 30
1.384275
 70
    64
  0
VERTEX
  5
6D8D8
100
AcDbEntity
  8
0
100
AcDbVertex
100
AcDbPolygonMeshVertex
 10
0.33271
 20
0.9585
 30
1.384275
 70
    64
  0
VERTEX
  5
6D8D9
100
AcDbEntity
  8
0
100
AcDbVertex
100
AcDbPolygonMeshVertex
 10
1.43771
 20
0.9585
 30
2.058275
 70
    64
  0
VERTEX
  5
6D8DA
100
AcDbEntity
  8
0
100
AcDbVertex
100
AcDbPolygonMeshVertex
 10
1.43771
 20
0.9585
 30
1.384275
 70
    64
  0
VERTEX
  5
6D8DB
100
AcDbEntity
  8
0
100
AcDbVertex
100
AcDbPolygonMeshVertex
 10
1.43771
 20
0.9585
 30
1.384275
 70
    64
  0
VERTEX
  5
6D8DC
100
AcDbEntity
  8
0
100
AcDbVertex
100
AcDbPolygonMeshVertex
 10
1.43771
 20
0.5215
 30
2.058275
 70
    64
  0
VERTEX
  5
6D8DD
100
AcDbEntity
  8
0
100
AcDbVertex
100
AcDbPolygonMeshVertex
 10
1.43771
 20
0.5215
 30
1.384275
 70
    64
  0
VERTEX
  5
6D8DE
100
AcDbEntity
  8
0
100
AcDbVertex
100
AcDbPolygonMeshVertex
 10
1.43771
 20
0.9585
 30
1.384275
 70
    64
  0
VERTEX
  5
6D8DF
100
AcDbEntity
  8
0
100
AcDbVertex
100
AcDbPolygonMeshVertex
 10
0.33271
 20
0.5215
 30
2.058275
 70
    64
  0
VERTEX
  5
6D8E0
100
AcDbEntity
  8
0
100
AcDbVertex
100
AcDbPolygonMeshVertex
 10
0.33271
 20
0.5215
 30
1.384275
 70
    64
  0
VERTEX
  5
6D8E1
100
AcDbEntity
  8
0
100
AcDbVertex
100
AcDbPolygonMeshVertex
 10
0.33271
 20
0.9585
 30
1.384275
 70
    64
  0
VERTEX
  5
6D8E2
100
AcDbEntity
  8
0
100
AcDbVertex
100
AcDbPolygonMeshVertex
 10
0.33271
 20
0.5215
 30
2.058275
 70
    64
  0
VERTEX
  5
6D8E3
100
AcDbEntity
  8
0
100
AcDbVertex
100
AcDbPolygonMeshVertex
 10
0.33271
 20
0.5215
 30
2.058275
 70
    64
  0
VERTEX
  5
6D8E4
100
AcDbEntity
  8
0
100
AcDbVertex
100
AcDbPolygonMeshVertex
 10
0.33271
 20
0.9585
 30
2.058275
 70
    64
  0
VERTEX
  5
6D8E5
100
AcDbEntity
  8
0
100
AcDbVertex
100
AcDbPolygonMeshVertex
 10
1.43771
 20
0.5215
 30
2.058275
 70
    64
  0
VERTEX
  5
6D8E6
100
AcDbEntity
  8
0
100
AcDbVertex
100
AcDbPolygonMeshVertex
 10
1.43771
 20
0.5215
 30
2.058275
 70
    64
  0
VERTEX
  5
6D8E7
100
AcDbEntity
  8
0
100
AcDbVertex
100
AcDbPolygonMeshVertex
 10
1.43771
 20
0.9585
 30
2.058275
 70
    64
  0
SEQEND
  5
6D8E8
100
AcDbEntity
  8
0
  0
LINE
  5
6D8E9
100
AcDbEntity
  8
0
100
AcDbLine
 10
0.74521
 20
0.5215
 30
2.058275
 11
0.74521
 21
0.7565
 31
2.058275
  0
LINE
  5
6D8EA
100
AcDbEntity
  8
0
100
AcDbLine
 10
1.02521
 20
0.5215
 30
2.058275
 11
1.02521
 21
0.7565
 31
2.058275
  0
LINE
  5
6D8EB
100
AcDbEntity
  8
0
100
AcDbLine
 10
1.02521
 20
0.7565
 30
2.058275
 11
0.74521
 21
0.7565
 31
2.058275
  0
CIRCLE
  5
6D8EC
100
AcDbEntity
  8
0
100
AcDbCircle
 10
0.54621
 20
0.74
 30
2.058275
 40
0.12
  0
CIRCLE
  5
6D8ED
100
AcDbEntity
  8
0
100
AcDbCircle
 10
1.22421
 20
0.74
 30
2.058275
 40
0.12
  0
POLYLINE
  5
6D8EE
100
AcDbEntity
  8
0
100
AcDb3dPolyline
 66
     1
 10
0.0
 20
0.0
 30
0.0
 70
     8
  0
VERTEX
  5
6D8EF
100
AcDbEntity
  8
0
100
AcDbVertex
100
AcDb3dPolylineVertex
 10
1.76521
 20
-1.3525
 30
0.187
 70
    32
  0
VERTEX
  5
6D8F0
100
AcDbEntity
  8
0
100
AcDbVertex
100
AcDb3dPolylineVertex
 10
1.76521
 20
-1.3525
 30
1.146875
 70
    32
  0
VERTEX
  5
6D8F1
100
AcDbEntity
  8
0
100
AcDbVertex
100
AcDb3dPolylineVertex
 10
1.76521
 20
-1.5075
 30
1.146875
 70
    32
  0
VERTEX
  5
6D8F2
100
AcDbEntity
  8
0
100
AcDbVertex
100
AcDb3dPolylineVertex
 10
1.76521
 20
-1.5075
 30
0.187
 70
    32
  0
SEQEND
  5
6D8F3
100
AcDbEntity
  8
0
  0
POLYLINE
  5
6D8F4
100
AcDbEntity
  8
0
100
AcDb3dPolyline
 66
     1
 10
0.0
 20
0.0
 30
0.0
 70
     8
  0
VERTEX
  5
6D8F5
100
AcDbEntity
  8
0
100
AcDbVertex
100
AcDb3dPolylineVertex
 10
1.76521
 20
0.0265
 30
0.187
 70
    32
  0
VERTEX
  5
6D8F6
100
AcDbEntity
  8
0
100
AcDbVertex
100
AcDb3dPolylineVertex
 10
1.76521
 20
0.0265
 30
1.146875
 70
    32
  0
VERTEX
  5
6D8F7
100
AcDbEntity
  8
0
100
AcDbVertex
100
AcDb3dPolylineVertex
 10
1.76521
 20
-0.1285
 30
1.146875
 70
    32
  0
VERTEX
  5
6D8F8
100
AcDbEntity
  8
0
100
AcDbVertex
100
AcDb3dPolylineVertex
 10
1.76521
 20
-0.1285
 30
0.187
 70
    32
  0
SEQEND
  5
6D8F9
100
AcDbEntity
  8
0
  0
LINE
  5
6D8FA
100
AcDbEntity
  8
0
100
AcDbLine
 10
1.76521
 20
-0.6295
 30
0.517
 11
1.76521
 21
-0.8515
 31
0.517
  0
LINE
  5
6D8FB
100
AcDbEntity
  8
0
100
AcDbLine
 10
1.76521
 20
-0.8515
 30
0.517
 11
1.76521
 21
-0.8515
 31
0.187
  0
LINE
  5
6D8FC
100
AcDbEntity
  8
0
100
AcDbLine
 10
1.76521
 20
-0.6295
 30
0.517
 11
1.76521
 21
-0.6295
 31
0.187
  0
POLYLINE
  5
6D8FD
100
AcDbEntity
  8
0
100
AcDb3dPolyline
 66
     1
 10
0.0
 20
0.0
 30
0.0
 70
     8
  0
VERTEX
  5
6D8FE
100
AcDbEntity
  8
0
100
AcDbVertex
100
AcDb3dPolylineVertex
 10
0.00521
 20
0.0265
 30
0.187
 70
    32
  0
VERTEX
  5
6D8FF
100
AcDbEntity
  8
0
100
AcDbVertex
100
AcDb3dPolylineVertex
 10
0.00521
 20
0.0265
 30
1.146875
 70
    32
  0
VERTEX
  5
6D900
100
AcDbEntity
  8
0
100
AcDbVertex
100
AcDb3dPolylineVertex
 10
0.00521
 20
-0.1285
 30
1.146875
 70
    32
  0
VERTEX
  5
6D901
100
AcDbEntity
  8
0
100
AcDbVertex
100
AcDb3dPolylineVertex
 10
0.00521
 20
-0.1285
 30
0.187
 70
    32
  0
SEQEND
  5
6D902
100
AcDbEntity
  8
0
  0
POLYLINE
  5
6D903
100
AcDbEntity
  8
0
100
AcDb3dPolyline
 66
     1
 10
0.0
 20
0.0
 30
0.0
 70
     8
  0
VERTEX
  5
6D904
100
AcDbEntity
  8
0
100
AcDbVertex
100
AcDb3dPolylineVertex
 10
0.00521
 20
-1.3525
 30
0.187
 70
    32
  0
VERTEX
  5
6D905
100
AcDbEntity
  8
0
100
AcDbVertex
100
AcDb3dPolylineVertex
 10
0.00521
 20
-1.3525
 30
1.146875
 70
    32
  0
VERTEX
  5
6D906
100
AcDbEntity
  8
0
100
AcDbVertex
100
AcDb3dPolylineVertex
 10
0.00521
 20
-1.5075
 30
1.146875
 70
    32
  0
VERTEX
  5
6D907
100
AcDbEntity
  8
0
100
AcDbVertex
100
AcDb3dPolylineVertex
 10
0.00521
 20
-1.5075
 30
0.187
 70
    32
  0
SEQEND
  5
6D908
100
AcDbEntity
  8
0
  0
LINE
  5
6D909
100
AcDbEntity
  8
0
100
AcDbLine
 10
1.76521
 20
-1.5675
 30
0.187
 11
1.76521
 21
-1.5675
 31
0.0
  0
LINE
  5
6D90A
100
AcDbEntity
  8
0
100
AcDbLine
 10
1.76521
 20
-1.5675
 30
0.0
 11
0.88521
 21
-1.5675
 31
0.0
  0
POLYLINE
  5
6D90B
100
AcDbEntity
  8
0
100
AcDbPolygonMesh
 66
     1
 10
0.0
 20
0.0
 30
0.0
 70
    16
 71
     6
 72
     3
  0
VERTEX
  5
6D90C
100
AcDbEntity
  8
0
100
AcDbVertex
100
AcDbPolygonMeshVertex
 10
0.88521
 20
-1.5675
 30
0.187
 70
    64
  0
VERTEX
  5
6D90D
100
AcDbEntity
  8
0
100
AcDbVertex
100
AcDbPolygonMeshVertex
 10
0.88521
 20
-1.5675
 30
0.0
 70
    64
  0
VERTEX
  5
6D90E
100
AcDbEntity
  8
0
100
AcDbVertex
100
AcDbPolygonMeshVertex
 10
0.88521
 20
-1.5675
 30
0.0
 70
    64
  0
VERTEX
  5
6D90F
100
AcDbEntity
  8
0
100
AcDbVertex
100
AcDbPolygonMeshVertex
 10
1.76521
 20
-1.5675
 30
0.187
 70
    64
  0
VERTEX
  5
6D910
100
AcDbEntity
  8
0
100
AcDbVertex
100
AcDbPolygonMeshVertex
 10
1.76521
 20
-1.5675
 30
0.0
 70
    64
  0
VERTEX
  5
6D911
100
AcDbEntity
  8
0
100
AcDbVertex
100
AcDbPolygonMeshVertex
 10
1.76521
 20
-1.5675
 30
0.0
 70
    64
  0
VERTEX
  5
6D912
100
AcDbEntity
  8
0
100
AcDbVertex
100
AcDbPolygonMeshVertex
 10
1.76521
 20
-2.1655
 30
0.187
 70
    64
  0
VERTEX
  5
6D913
100
AcDbEntity
  8
0
100
AcDbVertex
100
AcDbPolygonMeshVertex
 10
1.76521
 20
-2.1655
 30
0.0
 70
    64
  0
VERTEX
  5
6D914
100
AcDbEntity
  8
0
100
AcDbVertex
100
AcDbPolygonMeshVertex
 10
1.76521
 20
-1.5675
 30
0.0
 70
    64
  0
VERTEX
  5
6D915
100
AcDbEntity
  8
0
100
AcDbVertex
100
AcDbPolygonMeshVertex
 10
0.88521
 20
-2.1655
 30
0.187
 70
    64
  0
VERTEX
  5
6D916
100
AcDbEntity
  8
0
100
AcDbVertex
100
AcDbPolygonMeshVertex
 10
0.88521
 20
-2.1655
 30
0.0
 70
    64
  0
VERTEX
  5
6D917
100
AcDbEntity
  8
0
100
AcDbVertex
100
AcDbPolygonMeshVertex
 10
0.88521
 20
-1.5675
 30
0.0
 70
    64
  0
VERTEX
  5
6D918
100
AcDbEntity
  8
0
100
AcDbVertex
100
AcDbPolygonMeshVertex
 10
0.88521
 20
-2.1655
 30
0.187
 70
    64
  0
VERTEX
  5
6D919
100
AcDbEntity
  8
0
100
AcDbVertex
100
AcDbPolygonMeshVertex
 10
0.88521
 20
-2.1655
 30
0.187
 70
    64
  0
VERTEX
  5
6D91A
100
AcDbEntity
  8
0
100
AcDbVertex
100
AcDbPolygonMeshVertex
 10
0.88521
 20
-1.5675
 30
0.187
 70
    64
  0
VERTEX
  5
6D91B
100
AcDbEntity
  8
0
100
AcDbVertex
100
AcDbPolygonMeshVertex
 10
1.76521
 20
-2.1655
 30
0.187
 70
    64
  0
VERTEX
  5
6D91C
100
AcDbEntity
  8
0
100
AcDbVertex
100
AcDbPolygonMeshVertex
 10
1.76521
 20
-2.1655
 30
0.187
 70
    64
  0
VERTEX
  5
6D91D
100
AcDbEntity
  8
0
100
AcDbVertex
100
AcDbPolygonMeshVertex
 10
1.76521
 20
-1.5675
 30
0.187
 70
    64
  0
SEQEND
  5
6D91E
100
AcDbEntity
  8
0
  0
POLYLINE
  5
6D91F
100
AcDbEntity
  8
0
100
AcDbPolygonMesh
 66
     1
 10
0.0
 20
0.0
 30
0.0
 70
    16
 71
     6
 72
     3
  0
VERTEX
  5
6D920
100
AcDbEntity
  8
0
100
AcDbVertex
100
AcDbPolygonMeshVertex
 10
0.00521
 20
0.7185
 30
0.187
 70
    64
  0
VERTEX
  5
6D921
100
AcDbEntity
  8
0
100
AcDbVertex
100
AcDbPolygonMeshVertex
 10
0.00521
 20
0.7185
 30
0.0
 70
    64
  0
VERTEX
  5
6D922
100
AcDbEntity
  8
0
100
AcDbVertex
100
AcDbPolygonMeshVertex
 10
0.00521
 20
0.7185
 30
0.0
 70
    64
  0
VERTEX
  5
6D923
100
AcDbEntity
  8
0
100
AcDbVertex
100
AcDbPolygonMeshVertex
 10
0.88521
 20
0.7185
 30
0.187
 70
    64
  0
VERTEX
  5
6D924
100
AcDbEntity
  8
0
100
AcDbVertex
100
AcDbPolygonMeshVertex
 10
0.88521
 20
0.7185
 30
0.0
 70
    64
  0
VERTEX
  5
6D925
100
AcDbEntity
  8
0
100
AcDbVertex
100
AcDbPolygonMeshVertex
 10
0.88521
 20
0.7185
 30
0.0
 70
    64
  0
VERTEX
  5
6D926
100
AcDbEntity
  8
0
100
AcDbVertex
100
AcDbPolygonMeshVertex
 10
0.88521
 20
0.1205
 30
0.187
 70
    64
  0
VERTEX
  5
6D927
100
AcDbEntity
  8
0
100
AcDbVertex
100
AcDbPolygonMeshVertex
 10
0.88521
 20
0.1205
 30
0.0
 70
    64
  0
VERTEX
  5
6D928
100
AcDbEntity
  8
0
100
AcDbVertex
100
AcDbPolygonMeshVertex
 10
0.88521
 20
0.7185
 30
0.0
 70
    64
  0
VERTEX
  5
6D929
100
AcDbEntity
  8
0
100
AcDbVertex
100
AcDbPolygonMeshVertex
 10
0.00521
 20
0.1205
 30
0.187
 70
    64
  0
VERTEX
  5
6D92A
100
AcDbEntity
  8
0
100
AcDbVertex
100
AcDbPolygonMeshVertex
 10
0.00521
 20
0.1205
 30
0.0
 70
    64
  0
VERTEX
  5
6D92B
100
AcDbEntity
  8
0
100
AcDbVertex
100
AcDbPolygonMeshVertex
 10
0.00521
 20
0.7185
 30
0.0
 70
    64
  0
VERTEX
  5
6D92C
100
AcDbEntity
  8
0
100
AcDbVertex
100
AcDbPolygonMeshVertex
 10
0.00521
 20
0.1205
 30
0.187
 70
    64
  0
VERTEX
  5
6D92D
100
AcDbEntity
  8
0
100
AcDbVertex
100
AcDbPolygonMeshVertex
 10
0.00521
 20
0.1205
 30
0.187
 70
    64
  0
VERTEX
  5
6D92E
100
AcDbEntity
  8
0
100
AcDbVertex
100
AcDbPolygonMeshVertex
 10
0.00521
 20
0.7185
 30
0.187
 70
    64
  0
VERTEX
  5
6D92F
100
AcDbEntity
  8
0
100
AcDbVertex
100
AcDbPolygonMeshVertex
 10
0.88521
 20
0.1205
 30
0.187
 70
    64
  0
VERTEX
  5
6D930
100
AcDbEntity
  8
0
100
AcDbVertex
100
AcDbPolygonMeshVertex
 10
0.88521
 20
0.1205
 30
0.187
 70
    64
  0
VERTEX
  5
6D931
100
AcDbEntity
  8
0
100
AcDbVertex
100
AcDbPolygonMeshVertex
 10
0.88521
 20
0.7185
 30
0.187
 70
    64
  0
SEQEND
  5
6D932
100
AcDbEntity
  8
0
  0
LINE
  5
6D933
100
AcDbEntity
  8
0
100
AcDbLine
 10
1.76521
 20
-0.8065
 30
1.876775
 11
1.76521
 21
-0.6405
 31
1.876775
  0
POLYLINE
  5
6D934
100
AcDbEntity
  8
0
100
AcDb3dPolyline
 66
     1
 10
0.0
 20
0.0
 30
0.0
 70
     8
  0
VERTEX
  5
6D935
100
AcDbEntity
  8
0
100
AcDbVertex
100
AcDb3dPolylineVertex
 10
0.0
 20
-0.6405
 30
1.590275
 70
    32
  0
VERTEX
  5
6D936
100
AcDbEntity
  8
0
100
AcDbVertex
100
AcDb3dPolylineVertex
 10
0.0
 20
-0.6405
 30
2.163275
 70
    32
  0
VERTEX
  5
6D937
100
AcDbEntity
  8
0
100
AcDbVertex
100
AcDb3dPolylineVertex
 10
0.0
 20
-0.8065
 30
2.163275
 70
    32
  0
VERTEX
  5
6D938
100
AcDbEntity
  8
0
100
AcDbVertex
100
AcDb3dPolylineVertex
 10
0.0
 20
-0.8065
 30
1.590275
 70
    32
  0
VERTEX
  5
6D939
100
AcDbEntity
  8
0
100
AcDbVertex
100
AcDb3dPolylineVertex
 10
0.0
 20
-0.6405
 30
1.590275
 70
    32
  0
SEQEND
  5
6D93A
100
AcDbEntity
  8
0
  0
LINE
  5
6D93B
100
AcDbEntity
  8
0
100
AcDbLine
 10
0.0
 20
-0.8065
 30
1.876775
 11
0.0
 21
-0.6405
 31
1.876775
  0
LINE
  5
6D93C
100
AcDbEntity
  8
0
100
AcDbLine
 10
0.0
 20
-0.8065
 30
2.066775
 11
0.0
 21
-0.6405
 31
2.066775
  0
CIRCLE
  5
6D93D
100
AcDbEntity
  8
0
100
AcDbCircle
 10
1.57121
 20
0.4255
 30
0.316
 40
0.086
  0
POLYLINE
  5
6D93E
100
AcDbEntity
  8
0
100
AcDb3dPolyline
 66
     1
 10
0.0
 20
0.0
 30
0.0
 70
     8
  0
VERTEX
  5
6D93F
100
AcDbEntity
  8
0
100
AcDbVertex
100
AcDb3dPolylineVertex
 10
0.550544
 20
0.5215
 30
0.187
 70
    32
  0
VERTEX
  5
6D940
100
AcDbEntity
  8
0
100
AcDbVertex
100
AcDb3dPolylineVertex
 10
0.550544
 20
0.6565
 30
0.187
 70
    32
  0
VERTEX
  5
6D941
100
AcDbEntity
  8
0
100
AcDbVertex
100
AcDb3dPolylineVertex
 10
0.339877
 20
0.6565
 30
0.187
 70
    32
  0
VERTEX
  5
6D942
100
AcDbEntity
  8
0
100
AcDbVertex
100
AcDb3dPolylineVertex
 10
0.339877
 20
0.5215
 30
0.187
 70
    32
  0
SEQEND
  5
6D943
100
AcDbEntity
  8
0
  0
POLYLINE
  5
6D944
100
AcDbEntity
  8
0
100
AcDb3dPolyline
 66
     1
 10
0.0
 20
0.0
 30
0.0
 70
     8
  0
VERTEX
  5
6D945
100
AcDbEntity
  8
0
100
AcDbVertex
100
AcDb3dPolylineVertex
 10
0.277877
 20
0.5215
 30
0.187
 70
    32
  0
VERTEX
  5
6D946
100
AcDbEntity
  8
0
100
AcDbVertex
100
AcDb3dPolylineVertex
 10
0.277877
 20
0.6565
 30
0.187
 70
    32
  0
VERTEX
  5
6D947
100
AcDbEntity
  8
0
100
AcDbVertex
100
AcDb3dPolylineVertex
 10
0.06721
 20
0.6565
 30
0.187
 70
    32
  0
VERTEX
  5
6D948
100
AcDbEntity
  8
0
100
AcDbVertex
100
AcDb3dPolylineVertex
 10
0.06721
 20
0.5215
 30
0.187
 70
    32
  0
SEQEND
  5
6D949
100
AcDbEntity
  8
0
  0
POLYLINE
  5
6D94A
100
AcDbEntity
  8
0
100
AcDb3dPolyline
 66
     1
 10
0.0
 20
0.0
 30
0.0
 70
     8
  0
VERTEX
  5
6D94B
100
AcDbEntity
  8
0
100
AcDbVertex
100
AcDb3dPolylineVertex
 10
0.82321
 20
0.5215
 30
0.187
 70
    32
  0
VERTEX
  5
6D94C
100
AcDbEntity
  8
0
100
AcDbVertex
100
AcDb3dPolylineVertex
 10
0.82321
 20
0.6565
 30
0.187
 70
    32
  0
VERTEX
  5
6D94D
100
AcDbEntity
  8
0
100
AcDbVertex
100
AcDb3dPolylineVertex
 10
0.612544
 20
0.6565
 30
0.187
 70
    32
  0
VERTEX
  5
6D94E
100
AcDbEntity
  8
0
100
AcDbVertex
100
AcDb3dPolylineVertex
 10
0.612544
 20
0.5215
 30
0.187
 70
    32
  0
SEQEND
  5
6D94F
100
AcDbEntity
  8
0
  0
POLYLINE
  5
6D950
100
AcDbEntity
  8
0
100
AcDb3dPolyline
 66
     1
 10
0.0
 20
0.0
 30
0.0
 70
     8
  0
VERTEX
  5
6D951
100
AcDbEntity
  8
0
100
AcDbVertex
100
AcDb3dPolylineVertex
 10
1.492544
 20
-1.9685
 30
0.187
 70
    32
  0
VERTEX
  5
6D952
100
AcDbEntity
  8
0
100
AcDbVertex
100
AcDb3dPolylineVertex
 10
1.492544
 20
-2.1035
 30
0.187
 70
    32
  0
VERTEX
  5
6D953
100
AcDbEntity
  8
0
100
AcDbVertex
100
AcDb3dPolylineVertex
 10
1.70321
 20
-2.1035
 30
0.187
 70
    32
  0
VERTEX
  5
6D954
100
AcDbEntity
  8
0
100
AcDbVertex
100
AcDb3dPolylineVertex
 10
1.70321
 20
-1.9685
 30
0.187
 70
    32
  0
SEQEND
  5
6D955
100
AcDbEntity
  8
0
  0
POLYLINE
  5
6D956
100
AcDbEntity
  8
0
100
AcDb3dPolyline
 66
     1
 10
0.0
 20
0.0
 30
0.0
 70
     8
  0
VERTEX
  5
6D957
100
AcDbEntity
  8
0
100
AcDbVertex
100
AcDb3dPolylineVertex
 10
1.219877
 20
-1.9685
 30
0.187
 70
    32
  0
VERTEX
  5
6D958
100
AcDbEntity
  8
0
100
AcDbVertex
100
AcDb3dPolylineVertex
 10
1.219877
 20
-2.1035
 30
0.187
 70
    32
  0
VERTEX
  5
6D959
100
AcDbEntity
  8
0
100
AcDbVertex
100
AcDb3dPolylineVertex
 10
1.430544
 20
-2.1035
 30
0.187
 70
    32
  0
VERTEX
  5
6D95A
100
AcDbEntity
  8
0
100
AcDbVertex
100
AcDb3dPolylineVertex
 10
1.430544
 20
-1.9685
 30
0.187
 70
    32
  0
SEQEND
  5
6D95B
100
AcDbEntity
  8
0
  0
POLYLINE
  5
6D95C
100
AcDbEntity
  8
0
100
AcDb3dPolyline
 66
     1
 10
0.0
 20
0.0
 30
0.0
 70
     8
  0
VERTEX
  5
6D95D
100
AcDbEntity
  8
0
100
AcDbVertex
100
AcDb3dPolylineVertex
 10
0.94721
 20
-1.9685
 30
0.187
 70
    32
  0
VERTEX
  5
6D95E
100
AcDbEntity
  8
0
100
AcDbVertex
100
AcDb3dPolylineVertex
 10
0.94721
 20
-2.1035
 30
0.187
 70
    32
  0
VERTEX
  5
6D95F
100
AcDbEntity
  8
0
100
AcDbVertex
100
AcDb3dPolylineVertex
 10
1.157877
 20
-2.1035
 30
0.187
 70
    32
  0
VERTEX
  5
6D960
100
AcDbEntity
  8
0
100
AcDbVertex
100
AcDb3dPolylineVertex
 10
1.157877
 20
-1.9685
 30
0.187
 70
    32
  0
SEQEND
  5
6D961
100
AcDbEntity
  8
0
  0
CIRCLE
  5
6D962
100
AcDbEntity
  8
0
100
AcDbCircle
 10
0.19121
 20
-1.9345
 30
0.316
 40
0.086
  0
INSERT
  5
6D963
100
AcDbEntity
  8
0
 62
     1
100
AcDbBlockReference
  2
AVE_RENDER
 10
-6.627499
 20
-2.735105
 30
0.0
1001
AVE_RENDER
1002
{
1070
     2
1000
Pref
1070
    30
1070
    20
1070
     0
1070
     0
1000

1070
    10
1070
     0
1070
    30
1040
1.0
1070
     1
1040
0.3
1040
0.4
1040
0.76
1040
1.538462
1010
-1.0
1020
-1.0
1030
-1.0
1040
0.3
1070
    49
1002
}
  0
INSERT
  5
6D964
100
AcDbEntity
  8
0
 62
     3
100
AcDbBlockReference
  2
AVE_RENDER
 10
-6.627499
 20
-2.735105
 30
0.0
1001
AVE_RENDER
1002
{
1070
     0
1000
Full Opt
1070
     0
1070
     1
1070
     1
1070
     1
1070
     0
1070
     0
1070
     0
1070
     1
1070
     1
1040
0.0001
1040
0.0001
1002
}
  0
INSERT
  5
6D965
100
AcDbEntity
  8
0
 62
     4
100
AcDbBlockReference
  2
AVE_RENDER
 10
-6.627499
 20
-2.735105
 30
0.0
1001
AVE_RENDER
1002
{
1070
     0
1000
Quick Opt
1070
     0
1070
     1
1070
     1
1070
     1
1070
     0
1070
     0
1070
     1
1002
}
  0
CIRCLE
  5
6D966
100
AcDbEntity
  8
0
100
AcDbCircle
 10
0.19121
 20
-1.9345
 30
0.0
 40
0.086
  0
CIRCLE
  5
6D967
100
AcDbEntity
  8
0
100
AcDbCircle
 10
1.57121
 20
0.4255
 30
0.0
 40
0.086
  0
POLYLINE
  5
6D968
100
AcDbEntity
  8
0
100
AcDb3dPolyline
 66
     1
 10
0.0
 20
0.0
 30
0.0
 70
     8
  0
VERTEX
  5
6D969
100
AcDbEntity
  8
0
100
AcDbVertex
100
AcDb3dPolylineVertex
 10
0.94721
 20
-1.9685
 30
0.0
 70
    32
  0
VERTEX
  5
6D96A
100
AcDbEntity
  8
0
100
AcDbVertex
100
AcDb3dPolylineVertex
 10
0.94721
 20
-2.1035
 30
0.0
 70
    32
  0
VERTEX
  5
6D96B
100
AcDbEntity
  8
0
100
AcDbVertex
100
AcDb3dPolylineVertex
 10
1.157877
 20
-2.1035
 30
0.0
 70
    32
  0
VERTEX
  5
6D96C
100
AcDbEntity
  8
0
100
AcDbVertex
100
AcDb3dPolylineVertex
 10
1.157877
 20
-1.9685
 30
0.0
 70
    32
  0
SEQEND
  5
6D96D
100
AcDbEntity
  8
0
  0
POLYLINE
  5
6D96E
100
AcDbEntity
  8
0
100
AcDb3dPolyline
 66
     1
 10
0.0
 20
0.0
 30
0.0
 70
     8
  0
VERTEX
  5
6D96F
100
AcDbEntity
  8
0
100
AcDbVertex
100
AcDb3dPolylineVertex
 10
1.219877
 20
-1.9685
 30
0.0
 70
    32
  0
VERTEX
  5
6D970
100
AcDbEntity
  8
0
100
AcDbVertex
100
AcDb3dPolylineVertex
 10
1.219877
 20
-2.1035
 30
0.0
 70
    32
  0
VERTEX
  5
6D971
100
AcDbEntity
  8
0
100
AcDbVertex
100
AcDb3dPolylineVertex
 10
1.430544
 20
-2.1035
 30
0.0
 70
    32
  0
VERTEX
  5
6D972
100
AcDbEntity
  8
0
100
AcDbVertex
100
AcDb3dPolylineVertex
 10
1.430544
 20
-1.9685
 30
0.0
 70
    32
  0
SEQEND
  5
6D973
100
AcDbEntity
  8
0
  0
POLYLINE
  5
6D974
100
AcDbEntity
  8
0
100
AcDb3dPolyline
 66
     1
 10
0.0
 20
0.0
 30
0.0
 70
     8
  0
VERTEX
  5
6D975
100
AcDbEntity
  8
0
100
AcDbVertex
100
AcDb3dPolylineVertex
 10
1.492544
 20
-1.9685
 30
0.0
 70
    32
  0
VERTEX
  5
6D976
100
AcDbEntity
  8
0
100
AcDbVertex
100
AcDb3dPolylineVertex
 10
1.492544
 20
-2.1035
 30
0.0
 70
    32
  0
VERTEX
  5
6D977
100
AcDbEntity
  8
0
100
AcDbVertex
100
AcDb3dPolylineVertex
 10
1.70321
 20
-2.1035
 30
0.0
 70
    32
  0
VERTEX
  5
6D978
100
AcDbEntity
  8
0
100
AcDbVertex
100
AcDb3dPolylineVertex
 10
1.70321
 20
-1.9685
 30
0.0
 70
    32
  0
SEQEND
  5
6D979
100
AcDbEntity
  8
0
  0
POLYLINE
  5
6D97A
100
AcDbEntity
  8
0
100
AcDb3dPolyline
 66
     1
 10
0.0
 20
0.0
 30
0.0
 70
     8
  0
VERTEX
  5
6D97B
100
AcDbEntity
  8
0
100
AcDbVertex
100
AcDb3dPolylineVertex
 10
0.82321
 20
0.5215
 30
0.0
 70
    32
  0
VERTEX
  5
6D97C
100
AcDbEntity
  8
0
100
AcDbVertex
100
AcDb3dPolylineVertex
 10
0.82321
 20
0.6565
 30
0.0
 70
    32
  0
VERTEX
  5
6D97D
100
AcDbEntity
  8
0
100
AcDbVertex
100
AcDb3dPolylineVertex
 10
0.612544
 20
0.6565
 30
0.0
 70
    32
  0
VERTEX
  5
6D97E
100
AcDbEntity
  8
0
100
AcDbVertex
100
AcDb3dPolylineVertex
 10
0.612544
 20
0.5215
 30
0.0
 70
    32
  0
SEQEND
  5
6D97F
100
AcDbEntity
  8
0
  0
POLYLINE
  5
6D980
100
AcDbEntity
  8
0
100
AcDb3dPolyline
 66
     1
 10
0.0
 20
0.0
 30
0.0
 70
     8
  0
VERTEX
  5
6D981
100
AcDbEntity
  8
0
100
AcDbVertex
100
AcDb3dPolylineVertex
 10
0.550544
 20
0.5215
 30
0.0
 70
    32
  0
VERTEX
  5
6D982
100
AcDbEntity
  8
0
100
AcDbVertex
100
AcDb3dPolylineVertex
 10
0.550544
 20
0.6565
 30
0.0
 70
    32
  0
VERTEX
  5
6D983
100
AcDbEntity
  8
0
100
AcDbVertex
100
AcDb3dPolylineVertex
 10
0.339877
 20
0.6565
 30
0.0
 70
    32
  0
VERTEX
  5
6D984
100
AcDbEntity
  8
0
100
AcDbVertex
100
AcDb3dPolylineVertex
 10
0.339877
 20
0.5215
 30
0.0
 70
    32
  0
SEQEND
  5
6D985
100
AcDbEntity
  8
0
  0
POLYLINE
  5
6D986
100
AcDbEntity
  8
0
100
AcDb3dPolyline
 66
     1
 10
0.0
 20
0.0
 30
0.0
 70
     8
  0
VERTEX
  5
6D987
100
AcDbEntity
  8
0
100
AcDbVertex
100
AcDb3dPolylineVertex
 10
0.277877
 20
0.5215
 30
0.0
 70
    32
  0
VERTEX
  5
6D988
100
AcDbEntity
  8
0
100
AcDbVertex
100
AcDb3dPolylineVertex
 10
0.277877
 20
0.6565
 30
0.0
 70
    32
  0
VERTEX
  5
6D989
100
AcDbEntity
  8
0
100
AcDbVertex
100
AcDb3dPolylineVertex
 10
0.06721
 20
0.6565
 30
0.0
 70
    32
  0
VERTEX
  5
6D98A
100
AcDbEntity
  8
0
100
AcDbVertex
100
AcDb3dPolylineVertex
 10
0.06721
 20
0.5215
 30
0.0
 70
    32
  0
SEQEND
  5
6D98B
100
AcDbEntity
  8
0
  0
LINE
  5
6D98C
100
AcDbEntity
  8
0
100
AcDbLine
 10
1.70321
 20
-1.9685
 30
0.0
 11
1.492544
 21
-1.9685
 31
0.0
  0
LINE
  5
6D98D
100
AcDbEntity
  8
0
100
AcDbLine
 10
1.430544
 20
-1.9685
 30
0.0
 11
1.219877
 21
-1.9685
 31
0.0
  0
LINE
  5
6D98E
100
AcDbEntity
  8
0
100
AcDbLine
 10
1.157877
 20
-1.9685
 30
0.0
 11
0.94721
 21
-1.9685
 31
0.0
  0
LINE
  5
6D98F
100
AcDbEntity
  8
0
100
AcDbLine
 10
0.82321
 20
0.5215
 30
0.0
 11
0.612544
 21
0.5215
 31
0.0
  0
LINE
  5
6D990
100
AcDbEntity
  8
0
100
AcDbLine
 10
0.550544
 20
0.5215
 30
0.0
 11
0.339877
 21
0.5215
 31
0.0
  0
LINE
  5
6D991
100
AcDbEntity
  8
0
100
AcDbLine
 10
0.277877
 20
0.5215
 30
0.0
 11
0.06721
 21
0.5215
 31
0.0
  0
POLYLINE
  5
6D992
100
AcDbEntity
  8
0
100
AcDbPolygonMesh
 66
     1
 10
0.0
 20
0.0
 30
0.0
 70
    16
 71
     6
 72
     3
  0
VERTEX
  5
6D993
100
AcDbEntity
  8
0
100
AcDbVertex
100
AcDbPolygonMeshVertex
 10
0.90571
 20
-1.9855
 30
2.927275
 70
    64
  0
VERTEX
  5
6D994
100
AcDbEntity
  8
0
100
AcDbVertex
100
AcDbPolygonMeshVertex
 10
0.90571
 20
-1.9855
 30
2.317275
 70
    64
  0
VERTEX
  5
6D995
100
AcDbEntity
  8
0
100
AcDbVertex
100
AcDbPolygonMeshVertex
 10
0.90571
 20
-1.9855
 30
2.317275
 70
    64
  0
VERTEX
  5
6D996
100
AcDbEntity
  8
0
100
AcDbVertex
100
AcDbPolygonMeshVertex
 10
0.85971
 20
-1.9855
 30
2.927275
 70
    64
  0
VERTEX
  5
6D997
100
AcDbEntity
  8
0
100
AcDbVertex
100
AcDbPolygonMeshVertex
 10
0.85971
 20
-1.9855
 30
2.317275
 70
    64
  0
VERTEX
  5
6D998
100
AcDbEntity
  8
0
100
AcDbVertex
100
AcDbPolygonMeshVertex
 10
0.85971
 20
-1.9855
 30
2.317275
 70
    64
  0
VERTEX
  5
6D999
100
AcDbEntity
  8
0
100
AcDbVertex
100
AcDbPolygonMeshVertex
 10
0.85971
 20
-1.8455
 30
2.927275
 70
    64
  0
VERTEX
  5
6D99A
100
AcDbEntity
  8
0
100
AcDbVertex
100
AcDbPolygonMeshVertex
 10
0.85971
 20
-1.8455
 30
2.317275
 70
    64
  0
VERTEX
  5
6D99B
100
AcDbEntity
  8
0
100
AcDbVertex
100
AcDbPolygonMeshVertex
 10
0.85971
 20
-1.9855
 30
2.317275
 70
    64
  0
VERTEX
  5
6D99C
100
AcDbEntity
  8
0
100
AcDbVertex
100
AcDbPolygonMeshVertex
 10
0.90571
 20
-1.8455
 30
2.927275
 70
    64
  0
VERTEX
  5
6D99D
100
AcDbEntity
  8
0
100
AcDbVertex
100
AcDbPolygonMeshVertex
 10
0.90571
 20
-1.8455
 30
2.317275
 70
    64
  0
VERTEX
  5
6D99E
100
AcDbEntity
  8
0
100
AcDbVertex
100
AcDbPolygonMeshVertex
 10
0.90571
 20
-1.9855
 30
2.317275
 70
    64
  0
VERTEX
  5
6D99F
100
AcDbEntity
  8
0
100
AcDbVertex
100
AcDbPolygonMeshVertex
 10
0.90571
 20
-1.8455
 30
2.927275
 70
    64
  0
VERTEX
  5
6D9A0
100
AcDbEntity
  8
0
100
AcDbVertex
100
AcDbPolygonMeshVertex
 10
0.90571
 20
-1.8455
 30
2.927275
 70
    64
  0
VERTEX
  5
6D9A1
100
AcDbEntity
  8
0
100
AcDbVertex
100
AcDbPolygonMeshVertex
 10
0.90571
 20
-1.9855
 30
2.927275
 70
    64
  0
VERTEX
  5
6D9A2
100
AcDbEntity
  8
0
100
AcDbVertex
100
AcDbPolygonMeshVertex
 10
0.85971
 20
-1.8455
 30
2.927275
 70
    64
  0
VERTEX
  5
6D9A3
100
AcDbEntity
  8
0
100
AcDbVertex
100
AcDbPolygonMeshVertex
 10
0.85971
 20
-1.8455
 30
2.927275
 70
    64
  0
VERTEX
  5
6D9A4
100
AcDbEntity
  8
0
100
AcDbVertex
100
AcDbPolygonMeshVertex
 10
0.85971
 20
-1.9855
 30
2.927275
 70
    64
  0
SEQEND
  5
6D9A5
100
AcDbEntity
  8
0
  0
POLYLINE
  5
6D9A6
100
AcDbEntity
  8
0
100
AcDbPolygonMesh
 66
     1
 10
0.0
 20
0.0
 30
0.0
 70
    16
 71
     6
 72
     3
  0
VERTEX
  5
6D9A7
100
AcDbEntity
  8
0
100
AcDbVertex
100
AcDbPolygonMeshVertex
 10
1.33546
 20
-1.9855
 30
2.927275
 70
    64
  0
VERTEX
  5
6D9A8
100
AcDbEntity
  8
0
100
AcDbVertex
100
AcDbPolygonMeshVertex
 10
1.33546
 20
-1.9855
 30
2.317275
 70
    64
  0
VERTEX
  5
6D9A9
100
AcDbEntity
  8
0
100
AcDbVertex
100
AcDbPolygonMeshVertex
 10
1.33546
 20
-1.9855
 30
2.317275
 70
    64
  0
VERTEX
  5
6D9AA
100
AcDbEntity
  8
0
100
AcDbVertex
100
AcDbPolygonMeshVertex
 10
1.28946
 20
-1.9855
 30
2.927275
 70
    64
  0
VERTEX
  5
6D9AB
100
AcDbEntity
  8
0
100
AcDbVertex
100
AcDbPolygonMeshVertex
 10
1.28946
 20
-1.9855
 30
2.317275
 70
    64
  0
VERTEX
  5
6D9AC
100
AcDbEntity
  8
0
100
AcDbVertex
100
AcDbPolygonMeshVertex
 10
1.28946
 20
-1.9855
 30
2.317275
 70
    64
  0
VERTEX
  5
6D9AD
100
AcDbEntity
  8
0
100
AcDbVertex
100
AcDbPolygonMeshVertex
 10
1.28946
 20
-1.8455
 30
2.927275
 70
    64
  0
VERTEX
  5
6D9AE
100
AcDbEntity
  8
0
100
AcDbVertex
100
AcDbPolygonMeshVertex
 10
1.28946
 20
-1.8455
 30
2.317275
 70
    64
  0
VERTEX
  5
6D9AF
100
AcDbEntity
  8
0
100
AcDbVertex
100
AcDbPolygonMeshVertex
 10
1.28946
 20
-1.9855
 30
2.317275
 70
    64
  0
VERTEX
  5
6D9B0
100
AcDbEntity
  8
0
100
AcDbVertex
100
AcDbPolygonMeshVertex
 10
1.33546
 20
-1.8455
 30
2.927275
 70
    64
  0
VERTEX
  5
6D9B1
100
AcDbEntity
  8
0
100
AcDbVertex
100
AcDbPolygonMeshVertex
 10
1.33546
 20
-1.8455
 30
2.317275
 70
    64
  0
VERTEX
  5
6D9B2
100
AcDbEntity
  8
0
100
AcDbVertex
100
AcDbPolygonMeshVertex
 10
1.33546
 20
-1.9855
 30
2.317275
 70
    64
  0
VERTEX
  5
6D9B3
100
AcDbEntity
  8
0
100
AcDbVertex
100
AcDbPolygonMeshVertex
 10
1.33546
 20
-1.8455
 30
2.927275
 70
    64
  0
VERTEX
  5
6D9B4
100
AcDbEntity
  8
0
100
AcDbVertex
100
AcDbPolygonMeshVertex
 10
1.33546
 20
-1.8455
 30
2.927275
 70
    64
  0
VERTEX
  5
6D9B5
100
AcDbEntity
  8
0
100
AcDbVertex
100
AcDbPolygonMeshVertex
 10
1.33546
 20
-1.9855
 30
2.927275
 70
    64
  0
VERTEX
  5
6D9B6
100
AcDbEntity
  8
0
100
AcDbVertex
100
AcDbPolygonMeshVertex
 10
1.28946
 20
-1.8455
 30
2.927275
 70
    64
  0
VERTEX
  5
6D9B7
100
AcDbEntity
  8
0
100
AcDbVertex
100
AcDbPolygonMeshVertex
 10
1.28946
 20
-1.8455
 30
2.927275
 70
    64
  0
VERTEX
  5
6D9B8
100
AcDbEntity
  8
0
100
AcDbVertex
100
AcDbPolygonMeshVertex
 10
1.28946
 20
-1.9855
 30
2.927275
 70
    64
  0
SEQEND
  5
6D9B9
100
AcDbEntity
  8
0
  0
POLYLINE
  5
6D9BA
100
AcDbEntity
  8
0
100
AcDbPolygonMesh
 66
     1
 10
0.0
 20
0.0
 30
0.0
 70
    16
 71
     6
 72
     3
  0
VERTEX
  5
6D9BB
100
AcDbEntity
  8
0
100
AcDbVertex
100
AcDbPolygonMeshVertex
 10
1.71921
 20
-2.0575
 30
2.317275
 70
    64
  0
VERTEX
  5
6D9BC
100
AcDbEntity
  8
0
100
AcDbVertex
100
AcDbPolygonMeshVertex
 10
1.71921
 20
-2.0575
 30
2.058275
 70
    64
  0
VERTEX
  5
6D9BD
100
AcDbEntity
  8
0
100
AcDbVertex
100
AcDbPolygonMeshVertex
 10
1.71921
 20
-2.0575
 30
2.058275
 70
    64
  0
VERTEX
  5
6D9BE
100
AcDbEntity
  8
0
100
AcDbVertex
100
AcDbPolygonMeshVertex
 10
0.04621
 20
-2.0575
 30
2.317275
 70
    64
  0
VERTEX
  5
6D9BF
100
AcDbEntity
  8
0
100
AcDbVertex
100
AcDbPolygonMeshVertex
 10
0.04621
 20
-2.0575
 30
2.058275
 70
    64
  0
VERTEX
  5
6D9C0
100
AcDbEntity
  8
0
100
AcDbVertex
100
AcDbPolygonMeshVertex
 10
0.04621
 20
-2.0575
 30
2.058275
 70
    64
  0
VERTEX
  5
6D9C1
100
AcDbEntity
  8
0
100
AcDbVertex
100
AcDbPolygonMeshVertex
 10
0.04621
 20
-1.8455
 30
2.317275
 70
    64
  0
VERTEX
  5
6D9C2
100
AcDbEntity
  8
0
100
AcDbVertex
100
AcDbPolygonMeshVertex
 10
0.04621
 20
-1.8455
 30
2.058275
 70
    64
  0
VERTEX
  5
6D9C3
100
AcDbEntity
  8
0
100
AcDbVertex
100
AcDbPolygonMeshVertex
 10
0.04621
 20
-2.0575
 30
2.058275
 70
    64
  0
VERTEX
  5
6D9C4
100
AcDbEntity
  8
0
100
AcDbVertex
100
AcDbPolygonMeshVertex
 10
1.71921
 20
-1.8455
 30
2.317275
 70
    64
  0
VERTEX
  5
6D9C5
100
AcDbEntity
  8
0
100
AcDbVertex
100
AcDbPolygonMeshVertex
 10
1.71921
 20
-1.8455
 30
2.058275
 70
    64
  0
VERTEX
  5
6D9C6
100
AcDbEntity
  8
0
100
AcDbVertex
100
AcDbPolygonMeshVertex
 10
1.71921
 20
-2.0575
 30
2.058275
 70
    64
  0
VERTEX
  5
6D9C7
100
AcDbEntity
  8
0
100
AcDbVertex
100
AcDbPolygonMeshVertex
 10
1.71921
 20
-1.8455
 30
2.317275
 70
    64
  0
VERTEX
  5
6D9C8
100
AcDbEntity
  8
0
100
AcDbVertex
100
AcDbPolygonMeshVertex
 10
1.71921
 20
-1.8455
 30
2.317275
 70
    64
  0
VERTEX
  5
6D9C9
100
AcDbEntity
  8
0
100
AcDbVertex
100
AcDbPolygonMeshVertex
 10
1.71921
 20
-2.0575
 30
2.317275
 70
    64
  0
VERTEX
  5
6D9CA
100
AcDbEntity
  8
0
100
AcDbVertex
100
AcDbPolygonMeshVertex
 10
0.04621
 20
-1.8455
 30
2.317275
 70
    64
  0
VERTEX
  5
6D9CB
100
AcDbEntity
  8
0
100
AcDbVertex
100
AcDbPolygonMeshVertex
 10
0.04621
 20
-1.8455
 30
2.317275
 70
    64
  0
VERTEX
  5
6D9CC
100
AcDbEntity
  8
0
100
AcDbVertex
100
AcDbPolygonMeshVertex
 10
0.04621
 20
-2.0575
 30
2.317275
 70
    64
  0
SEQEND
  5
6D9CD
100
AcDbEntity
  8
0
  0
POLYLINE
  5
6D9CE
100
AcDbEntity
  8
0
100
AcDbPolygonMesh
 66
     1
 10
0.0
 20
0.0
 30
0.0
 70
    16
 71
     6
 72
     3
  0
VERTEX
  5
6D9CF
100
AcDbEntity
  8
0
100
AcDbVertex
100
AcDbPolygonMeshVertex
 10
1.76521
 20
-1.9685
 30
2.058275
 70
    64
  0
VERTEX
  5
6D9D0
100
AcDbEntity
  8
0
100
AcDbVertex
100
AcDbPolygonMeshVertex
 10
1.76521
 20
-1.9685
 30
1.316275
 70
    64
  0
VERTEX
  5
6D9D1
100
AcDbEntity
  8
0
100
AcDbVertex
100
AcDbPolygonMeshVertex
 10
1.76521
 20
-1.9685
 30
1.316275
 70
    64
  0
VERTEX
  5
6D9D2
100
AcDbEntity
  8
0
100
AcDbVertex
100
AcDbPolygonMeshVertex
 10
0.00021
 20
-1.9685
 30
2.058275
 70
    64
  0
VERTEX
  5
6D9D3
100
AcDbEntity
  8
0
100
AcDbVertex
100
AcDbPolygonMeshVertex
 10
0.00021
 20
-1.9685
 30
1.316275
 70
    64
  0
VERTEX
  5
6D9D4
100
AcDbEntity
  8
0
100
AcDbVertex
100
AcDbPolygonMeshVertex
 10
0.00021
 20
-1.9685
 30
1.316275
 70
    64
  0
VERTEX
  5
6D9D5
100
AcDbEntity
  8
0
100
AcDbVertex
100
AcDbPolygonMeshVertex
 10
0.00021
 20
0.5215
 30
2.058275
 70
    64
  0
VERTEX
  5
6D9D6
100
AcDbEntity
  8
0
100
AcDbVertex
100
AcDbPolygonMeshVertex
 10
0.00021
 20
0.5215
 30
1.316275
 70
    64
  0
VERTEX
  5
6D9D7
100
AcDbEntity
  8
0
100
AcDbVertex
100
AcDbPolygonMeshVertex
 10
0.00021
 20
-1.9685
 30
1.316275
 70
    64
  0
VERTEX
  5
6D9D8
100
AcDbEntity
  8
0
100
AcDbVertex
100
AcDbPolygonMeshVertex
 10
1.76521
 20
0.5215
 30
2.058275
 70
    64
  0
VERTEX
  5
6D9D9
100
AcDbEntity
  8
0
100
AcDbVertex
100
AcDbPolygonMeshVertex
 10
1.76521
 20
0.5215
 30
1.316275
 70
    64
  0
VERTEX
  5
6D9DA
100
AcDbEntity
  8
0
100
AcDbVertex
100
AcDbPolygonMeshVertex
 10
1.76521
 20
-1.9685
 30
1.316275
 70
    64
  0
VERTEX
  5
6D9DB
100
AcDbEntity
  8
0
100
AcDbVertex
100
AcDbPolygonMeshVertex
 10
1.76521
 20
0.5215
 30
2.058275
 70
    64
  0
VERTEX
  5
6D9DC
100
AcDbEntity
  8
0
100
AcDbVertex
100
AcDbPolygonMeshVertex
 10
1.76521
 20
0.5215
 30
2.058275
 70
    64
  0
VERTEX
  5
6D9DD
100
AcDbEntity
  8
0
100
AcDbVertex
100
AcDbPolygonMeshVertex
 10
1.76521
 20
-1.9685
 30
2.058275
 70
    64
  0
VERTEX
  5
6D9DE
100
AcDbEntity
  8
0
100
AcDbVertex
100
AcDbPolygonMeshVertex
 10
0.00021
 20
0.5215
 30
2.058275
 70
    64
  0
VERTEX
  5
6D9DF
100
AcDbEntity
  8
0
100
AcDbVertex
100
AcDbPolygonMeshVertex
 10
0.00021
 20
0.5215
 30
2.058275
 70
    64
  0
VERTEX
  5
6D9E0
100
AcDbEntity
  8
0
100
AcDbVertex
100
AcDbPolygonMeshVertex
 10
0.00021
 20
-1.9685
 30
2.058275
 70
    64
  0
SEQEND
  5
6D9E1
100
AcDbEntity
  8
0
  0
POLYLINE
  5
6D9E2
100
AcDbEntity
  8
0
100
AcDbPolygonMesh
 66
     1
 10
0.0
 20
0.0
 30
0.0
 70
    16
 71
     6
 72
     3
  0
VERTEX
  5
6D9E3
100
AcDbEntity
  8
0
100
AcDbVertex
100
AcDbPolygonMeshVertex
 10
0.42996
 20
-1.9855
 30
2.927275
 70
    64
  0
VERTEX
  5
6D9E4
100
AcDbEntity
  8
0
100
AcDbVertex
100
AcDbPolygonMeshVertex
 10
0.42996
 20
-1.9855
 30
2.317275
 70
    64
  0
VERTEX
  5
6D9E5
100
AcDbEntity
  8
0
100
AcDbVertex
100
AcDbPolygonMeshVertex
 10
0.42996
 20
-1.9855
 30
2.317275
 70
    64
  0
VERTEX
  5
6D9E6
100
AcDbEntity
  8
0
100
AcDbVertex
100
AcDbPolygonMeshVertex
 10
0.47596
 20
-1.9855
 30
2.927275
 70
    64
  0
VERTEX
  5
6D9E7
100
AcDbEntity
  8
0
100
AcDbVertex
100
AcDbPolygonMeshVertex
 10
0.47596
 20
-1.9855
 30
2.317275
 70
    64
  0
VERTEX
  5
6D9E8
100
AcDbEntity
  8
0
100
AcDbVertex
100
AcDbPolygonMeshVertex
 10
0.47596
 20
-1.9855
 30
2.317275
 70
    64
  0
VERTEX
  5
6D9E9
100
AcDbEntity
  8
0
100
AcDbVertex
100
AcDbPolygonMeshVertex
 10
0.47596
 20
-1.8455
 30
2.927275
 70
    64
  0
VERTEX
  5
6D9EA
100
AcDbEntity
  8
0
100
AcDbVertex
100
AcDbPolygonMeshVertex
 10
0.47596
 20
-1.8455
 30
2.317275
 70
    64
  0
VERTEX
  5
6D9EB
100
AcDbEntity
  8
0
100
AcDbVertex
100
AcDbPolygonMeshVertex
 10
0.47596
 20
-1.9855
 30
2.317275
 70
    64
  0
VERTEX
  5
6D9EC
100
AcDbEntity
  8
0
100
AcDbVertex
100
AcDbPolygonMeshVertex
 10
0.42996
 20
-1.8455
 30
2.927275
 70
    64
  0
VERTEX
  5
6D9ED
100
AcDbEntity
  8
0
100
AcDbVertex
100
AcDbPolygonMeshVertex
 10
0.42996
 20
-1.8455
 30
2.317275
 70
    64
  0
VERTEX
  5
6D9EE
100
AcDbEntity
  8
0
100
AcDbVertex
100
AcDbPolygonMeshVertex
 10
0.42996
 20
-1.9855
 30
2.317275
 70
    64
  0
VERTEX
  5
6D9EF
100
AcDbEntity
  8
0
100
AcDbVertex
100
AcDbPolygonMeshVertex
 10
0.42996
 20
-1.8455
 30
2.927275
 70
    64
  0
VERTEX
  5
6D9F0
100
AcDbEntity
  8
0
100
AcDbVertex
100
AcDbPolygonMeshVertex
 10
0.42996
 20
-1.8455
 30
2.927275
 70
    64
  0
VERTEX
  5
6D9F1
100
AcDbEntity
  8
0
100
AcDbVertex
100
AcDbPolygonMeshVertex
 10
0.42996
 20
-1.9855
 30
2.927275
 70
    64
  0
VERTEX
  5
6D9F2
100
AcDbEntity
  8
0
100
AcDbVertex
100
AcDbPolygonMeshVertex
 10
0.47596
 20
-1.8455
 30
2.927275
 70
    64
  0
VERTEX
  5
6D9F3
100
AcDbEntity
  8
0
100
AcDbVertex
100
AcDbPolygonMeshVertex
 10
0.47596
 20
-1.8455
 30
2.927275
 70
    64
  0
VERTEX
  5
6D9F4
100
AcDbEntity
  8
0
100
AcDbVertex
100
AcDbPolygonMeshVertex
 10
0.47596
 20
-1.9855
 30
2.927275
 70
    64
  0
SEQEND
  5
6D9F5
100
AcDbEntity
  8
0
  0
LINE
  5
6D9F6
100
AcDbEntity
  8
0
100
AcDbLine
 10
0.90571
 20
-1.8455
 30
2.644275
 11
1.28946
 21
-1.8455
 31
2.644275
  0
LINE
  5
6D9F7
100
AcDbEntity
  8
0
100
AcDbLine
 10
1.33546
 20
-1.8455
 30
2.644275
 11
1.71921
 21
-1.8455
 31
2.644275
  0
LINE
  5
6D9F8
100
AcDbEntity
  8
0
100
AcDbLine
 10
0.47596
 20
-1.8455
 30
2.644275
 11
0.85971
 21
-1.8455
 31
2.644275
  0
LINE
  5
6D9F9
100
AcDbEntity
  8
0
100
AcDbLine
 10
0.04621
 20
-1.8455
 30
2.644275
 11
0.42996
 21
-1.8455
 31
2.644275
  0
POLYLINE
  5
6D9FA
100
AcDbEntity
  8
0
100
AcDbPolygonMesh
 66
     1
 10
0.0
 20
0.0
 30
0.0
 70
    16
 71
     6
 72
     3
  0
VERTEX
  5
6D9FB
100
AcDbEntity
  8
0
100
AcDbVertex
100
AcDbPolygonMeshVertex
 10
0.04621
 20
-1.9855
 30
2.927275
 70
    64
  0
VERTEX
  5
6D9FC
100
AcDbEntity
  8
0
100
AcDbVertex
100
AcDbPolygonMeshVertex
 10
0.04621
 20
-1.9855
 30
2.058275
 70
    64
  0
VERTEX
  5
6D9FD
100
AcDbEntity
  8
0
100
AcDbVertex
100
AcDbPolygonMeshVertex
 10
0.04621
 20
-1.9855
 30
2.058275
 70
    64
  0
VERTEX
  5
6D9FE
100
AcDbEntity
  8
0
100
AcDbVertex
100
AcDbPolygonMeshVertex
 10
0.00021
 20
-1.9855
 30
2.927275
 70
    64
  0
VERTEX
  5
6D9FF
100
AcDbEntity
  8
0
100
AcDbVertex
100
AcDbPolygonMeshVertex
 10
0.00021
 20
-1.9855
 30
2.058275
 70
    64
  0
VERTEX
  5
6DA00
100
AcDbEntity
  8
0
100
AcDbVertex
100
AcDbPolygonMeshVertex
 10
0.00021
 20
-1.9855
 30
2.058275
 70
    64
  0
VERTEX
  5
6DA01
100
AcDbEntity
  8
0
100
AcDbVertex
100
AcDbPolygonMeshVertex
 10
0.00021
 20
-1.8455
 30
2.927275
 70
    64
  0
VERTEX
  5
6DA02
100
AcDbEntity
  8
0
100
AcDbVertex
100
AcDbPolygonMeshVertex
 10
0.00021
 20
-1.8455
 30
2.058275
 70
    64
  0
VERTEX
  5
6DA03
100
AcDbEntity
  8
0
100
AcDbVertex
100
AcDbPolygonMeshVertex
 10
0.00021
 20
-1.9855
 30
2.058275
 70
    64
  0
VERTEX
  5
6DA04
100
AcDbEntity
  8
0
100
AcDbVertex
100
AcDbPolygonMeshVertex
 10
0.04621
 20
-1.8455
 30
2.927275
 70
    64
  0
VERTEX
  5
6DA05
100
AcDbEntity
  8
0
100
AcDbVertex
100
AcDbPolygonMeshVertex
 10
0.04621
 20
-1.8455
 30
2.058275
 70
    64
  0
VERTEX
  5
6DA06
100
AcDbEntity
  8
0
100
AcDbVertex
100
AcDbPolygonMeshVertex
 10
0.04621
 20
-1.9855
 30
2.058275
 70
    64
  0
VERTEX
  5
6DA07
100
AcDbEntity
  8
0
100
AcDbVertex
100
AcDbPolygonMeshVertex
 10
0.04621
 20
-1.8455
 30
2.927275
 70
    64
  0
VERTEX
  5
6DA08
100
AcDbEntity
  8
0
100
AcDbVertex
100
AcDbPolygonMeshVertex
 10
0.04621
 20
-1.8455
 30
2.927275
 70
    64
  0
VERTEX
  5
6DA09
100
AcDbEntity
  8
0
100
AcDbVertex
100
AcDbPolygonMeshVertex
 10
0.04621
 20
-1.9855
 30
2.927275
 70
    64
  0
VERTEX
  5
6DA0A
100
AcDbEntity
  8
0
100
AcDbVertex
100
AcDbPolygonMeshVertex
 10
0.00021
 20
-1.8455
 30
2.927275
 70
    64
  0
VERTEX
  5
6DA0B
100
AcDbEntity
  8
0
100
AcDbVertex
100
AcDbPolygonMeshVertex
 10
0.00021
 20
-1.8455
 30
2.927275
 70
    64
  0
VERTEX
  5
6DA0C
100
AcDbEntity
  8
0
100
AcDbVertex
100
AcDbPolygonMeshVertex
 10
0.00021
 20
-1.9855
 30
2.927275
 70
    64
  0
SEQEND
  5
6DA0D
100
AcDbEntity
  8
0
  0
POLYLINE
  5
6DA0E
100
AcDbEntity
  8
0
100
AcDbPolygonMesh
 66
     1
 10
0.0
 20
0.0
 30
0.0
 70
    16
 71
     6
 72
     3
  0
VERTEX
  5
6DA0F
100
AcDbEntity
  8
0
100
AcDbVertex
100
AcDbPolygonMeshVertex
 10
1.76521
 20
-1.9855
 30
2.927275
 70
    64
  0
VERTEX
  5
6DA10
100
AcDbEntity
  8
0
100
AcDbVertex
100
AcDbPolygonMeshVertex
 10
1.76521
 20
-1.9855
 30
2.058275
 70
    64
  0
VERTEX
  5
6DA11
100
AcDbEntity
  8
0
100
AcDbVertex
100
AcDbPolygonMeshVertex
 10
1.76521
 20
-1.9855
 30
2.058275
 70
    64
  0
VERTEX
  5
6DA12
100
AcDbEntity
  8
0
100
AcDbVertex
100
AcDbPolygonMeshVertex
 10
1.71921
 20
-1.9855
 30
2.927275
 70
    64
  0
VERTEX
  5
6DA13
100
AcDbEntity
  8
0
100
AcDbVertex
100
AcDbPolygonMeshVertex
 10
1.71921
 20
-1.9855
 30
2.058275
 70
    64
  0
VERTEX
  5
6DA14
100
AcDbEntity
  8
0
100
AcDbVertex
100
AcDbPolygonMeshVertex
 10
1.71921
 20
-1.9855
 30
2.058275
 70
    64
  0
VERTEX
  5
6DA15
100
AcDbEntity
  8
0
100
AcDbVertex
100
AcDbPolygonMeshVertex
 10
1.71921
 20
-1.8455
 30
2.927275
 70
    64
  0
VERTEX
  5
6DA16
100
AcDbEntity
  8
0
100
AcDbVertex
100
AcDbPolygonMeshVertex
 10
1.71921
 20
-1.8455
 30
2.058275
 70
    64
  0
VERTEX
  5
6DA17
100
AcDbEntity
  8
0
100
AcDbVertex
100
AcDbPolygonMeshVertex
 10
1.71921
 20
-1.9855
 30
2.058275
 70
    64
  0
VERTEX
  5
6DA18
100
AcDbEntity
  8
0
100
AcDbVertex
100
AcDbPolygonMeshVertex
 10
1.76521
 20
-1.8455
 30
2.927275
 70
    64
  0
VERTEX
  5
6DA19
100
AcDbEntity
  8
0
100
AcDbVertex
100
AcDbPolygonMeshVertex
 10
1.76521
 20
-1.8455
 30
2.058275
 70
    64
  0
VERTEX
  5
6DA1A
100
AcDbEntity
  8
0
100
AcDbVertex
100
AcDbPolygonMeshVertex
 10
1.76521
 20
-1.9855
 30
2.058275
 70
    64
  0
VERTEX
  5
6DA1B
100
AcDbEntity
  8
0
100
AcDbVertex
100
AcDbPolygonMeshVertex
 10
1.76521
 20
-1.8455
 30
2.927275
 70
    64
  0
VERTEX
  5
6DA1C
100
AcDbEntity
  8
0
100
AcDbVertex
100
AcDbPolygonMeshVertex
 10
1.76521
 20
-1.8455
 30
2.927275
 70
    64
  0
VERTEX
  5
6DA1D
100
AcDbEntity
  8
0
100
AcDbVertex
100
AcDbPolygonMeshVertex
 10
1.76521
 20
-1.9855
 30
2.927275
 70
    64
  0
VERTEX
  5
6DA1E
100
AcDbEntity
  8
0
100
AcDbVertex
100
AcDbPolygonMeshVertex
 10
1.71921
 20
-1.8455
 30
2.927275
 70
    64
  0
VERTEX
  5
6DA1F
100
AcDbEntity
  8
0
100
AcDbVertex
100
AcDbPolygonMeshVertex
 10
1.71921
 20
-1.8455
 30
2.927275
 70
    64
  0
VERTEX
  5
6DA20
100
AcDbEntity
  8
0
100
AcDbVertex
100
AcDbPolygonMeshVertex
 10
1.71921
 20
-1.9855
 30
2.927275
 70
    64
  0
SEQEND
  5
6DA21
100
AcDbEntity
  8
0
  0
POLYLINE
  5
6DA22
100
AcDbEntity
  8
0
100
AcDbPolygonMesh
 66
     1
 10
0.0
 20
0.0
 30
0.0
 70
    16
 71
     6
 72
     3
  0
VERTEX
  5
6DA23
100
AcDbEntity
  8
0
100
AcDbVertex
100
AcDbPolygonMeshVertex
 10
1.76521
 20
0.5385
 30
2.927275
 70
    64
  0
VERTEX
  5
6DA24
100
AcDbEntity
  8
0
100
AcDbVertex
100
AcDbPolygonMeshVertex
 10
1.76521
 20
0.5385
 30
2.058275
 70
    64
  0
VERTEX
  5
6DA25
100
AcDbEntity
  8
0
100
AcDbVertex
100
AcDbPolygonMeshVertex
 10
1.76521
 20
0.5385
 30
2.058275
 70
    64
  0
VERTEX
  5
6DA26
100
AcDbEntity
  8
0
100
AcDbVertex
100
AcDbPolygonMeshVertex
 10
1.71921
 20
0.5385
 30
2.927275
 70
    64
  0
VERTEX
  5
6DA27
100
AcDbEntity
  8
0
100
AcDbVertex
100
AcDbPolygonMeshVertex
 10
1.71921
 20
0.5385
 30
2.058275
 70
    64
  0
VERTEX
  5
6DA28
100
AcDbEntity
  8
0
100
AcDbVertex
100
AcDbPolygonMeshVertex
 10
1.71921
 20
0.5385
 30
2.058275
 70
    64
  0
VERTEX
  5
6DA29
100
AcDbEntity
  8
0
100
AcDbVertex
100
AcDbPolygonMeshVertex
 10
1.71921
 20
0.3985
 30
2.927275
 70
    64
  0
VERTEX
  5
6DA2A
100
AcDbEntity
  8
0
100
AcDbVertex
100
AcDbPolygonMeshVertex
 10
1.71921
 20
0.3985
 30
2.058275
 70
    64
  0
VERTEX
  5
6DA2B
100
AcDbEntity
  8
0
100
AcDbVertex
100
AcDbPolygonMeshVertex
 10
1.71921
 20
0.5385
 30
2.058275
 70
    64
  0
VERTEX
  5
6DA2C
100
AcDbEntity
  8
0
100
AcDbVertex
100
AcDbPolygonMeshVertex
 10
1.76521
 20
0.3985
 30
2.927275
 70
    64
  0
VERTEX
  5
6DA2D
100
AcDbEntity
  8
0
100
AcDbVertex
100
AcDbPolygonMeshVertex
 10
1.76521
 20
0.3985
 30
2.058275
 70
    64
  0
VERTEX
  5
6DA2E
100
AcDbEntity
  8
0
100
AcDbVertex
100
AcDbPolygonMeshVertex
 10
1.76521
 20
0.5385
 30
2.058275
 70
    64
  0
VERTEX
  5
6DA2F
100
AcDbEntity
  8
0
100
AcDbVertex
100
AcDbPolygonMeshVertex
 10
1.76521
 20
0.3985
 30
2.927275
 70
    64
  0
VERTEX
  5
6DA30
100
AcDbEntity
  8
0
100
AcDbVertex
100
AcDbPolygonMeshVertex
 10
1.76521
 20
0.3985
 30
2.927275
 70
    64
  0
VERTEX
  5
6DA31
100
AcDbEntity
  8
0
100
AcDbVertex
100
AcDbPolygonMeshVertex
 10
1.76521
 20
0.5385
 30
2.927275
 70
    64
  0
VERTEX
  5
6DA32
100
AcDbEntity
  8
0
100
AcDbVertex
100
AcDbPolygonMeshVertex
 10
1.71921
 20
0.3985
 30
2.927275
 70
    64
  0
VERTEX
  5
6DA33
100
AcDbEntity
  8
0
100
AcDbVertex
100
AcDbPolygonMeshVertex
 10
1.71921
 20
0.3985
 30
2.927275
 70
    64
  0
VERTEX
  5
6DA34
100
AcDbEntity
  8
0
100
AcDbVertex
100
AcDbPolygonMeshVertex
 10
1.71921
 20
0.5385
 30
2.927275
 70
    64
  0
SEQEND
  5
6DA35
100
AcDbEntity
  8
0
  0
LINE
  5
6DA36
100
AcDbEntity
  8
0
100
AcDbLine
 10
1.33546
 20
0.3985
 30
2.644275
 11
1.71921
 21
0.3985
 31
2.644275
  0
POLYLINE
  5
6DA37
100
AcDbEntity
  8
0
100
AcDbPolygonMesh
 66
     1
 10
0.0
 20
0.0
 30
0.0
 70
    16
 71
     6
 72
     3
  0
VERTEX
  5
6DA38
100
AcDbEntity
  8
0
100
AcDbVertex
100
AcDbPolygonMeshVertex
 10
1.33546
 20
0.5385
 30
2.927275
 70
    64
  0
VERTEX
  5
6DA39
100
AcDbEntity
  8
0
100
AcDbVertex
100
AcDbPolygonMeshVertex
 10
1.33546
 20
0.5385
 30
2.317275
 70
    64
  0
VERTEX
  5
6DA3A
100
AcDbEntity
  8
0
100
AcDbVertex
100
AcDbPolygonMeshVertex
 10
1.33546
 20
0.5385
 30
2.317275
 70
    64
  0
VERTEX
  5
6DA3B
100
AcDbEntity
  8
0
100
AcDbVertex
100
AcDbPolygonMeshVertex
 10
1.28946
 20
0.5385
 30
2.927275
 70
    64
  0
VERTEX
  5
6DA3C
100
AcDbEntity
  8
0
100
AcDbVertex
100
AcDbPolygonMeshVertex
 10
1.28946
 20
0.5385
 30
2.317275
 70
    64
  0
VERTEX
  5
6DA3D
100
AcDbEntity
  8
0
100
AcDbVertex
100
AcDbPolygonMeshVertex
 10
1.28946
 20
0.5385
 30
2.317275
 70
    64
  0
VERTEX
  5
6DA3E
100
AcDbEntity
  8
0
100
AcDbVertex
100
AcDbPolygonMeshVertex
 10
1.28946
 20
0.3985
 30
2.927275
 70
    64
  0
VERTEX
  5
6DA3F
100
AcDbEntity
  8
0
100
AcDbVertex
100
AcDbPolygonMeshVertex
 10
1.28946
 20
0.3985
 30
2.317275
 70
    64
  0
VERTEX
  5
6DA40
100
AcDbEntity
  8
0
100
AcDbVertex
100
AcDbPolygonMeshVertex
 10
1.28946
 20
0.5385
 30
2.317275
 70
    64
  0
VERTEX
  5
6DA41
100
AcDbEntity
  8
0
100
AcDbVertex
100
AcDbPolygonMeshVertex
 10
1.33546
 20
0.3985
 30
2.927275
 70
    64
  0
VERTEX
  5
6DA42
100
AcDbEntity
  8
0
100
AcDbVertex
100
AcDbPolygonMeshVertex
 10
1.33546
 20
0.3985
 30
2.317275
 70
    64
  0
VERTEX
  5
6DA43
100
AcDbEntity
  8
0
100
AcDbVertex
100
AcDbPolygonMeshVertex
 10
1.33546
 20
0.5385
 30
2.317275
 70
    64
  0
VERTEX
  5
6DA44
100
AcDbEntity
  8
0
100
AcDbVertex
100
AcDbPolygonMeshVertex
 10
1.33546
 20
0.3985
 30
2.927275
 70
    64
  0
VERTEX
  5
6DA45
100
AcDbEntity
  8
0
100
AcDbVertex
100
AcDbPolygonMeshVertex
 10
1.33546
 20
0.3985
 30
2.927275
 70
    64
  0
VERTEX
  5
6DA46
100
AcDbEntity
  8
0
100
AcDbVertex
100
AcDbPolygonMeshVertex
 10
1.33546
 20
0.5385
 30
2.927275
 70
    64
  0
VERTEX
  5
6DA47
100
AcDbEntity
  8
0
100
AcDbVertex
100
AcDbPolygonMeshVertex
 10
1.28946
 20
0.3985
 30
2.927275
 70
    64
  0
VERTEX
  5
6DA48
100
AcDbEntity
  8
0
100
AcDbVertex
100
AcDbPolygonMeshVertex
 10
1.28946
 20
0.3985
 30
2.927275
 70
    64
  0
VERTEX
  5
6DA49
100
AcDbEntity
  8
0
100
AcDbVertex
100
AcDbPolygonMeshVertex
 10
1.28946
 20
0.5385
 30
2.927275
 70
    64
  0
SEQEND
  5
6DA4A
100
AcDbEntity
  8
0
  0
LINE
  5
6DA4B
100
AcDbEntity
  8
0
100
AcDbLine
 10
0.90571
 20
0.3985
 30
2.644275
 11
1.28946
 21
0.3985
 31
2.644275
  0
POLYLINE
  5
6DA4C
100
AcDbEntity
  8
0
100
AcDbPolygonMesh
 66
     1
 10
0.0
 20
0.0
 30
0.0
 70
    16
 71
     6
 72
     3
  0
VERTEX
  5
6DA4D
100
AcDbEntity
  8
0
100
AcDbVertex
100
AcDbPolygonMeshVertex
 10
0.90571
 20
0.5385
 30
2.927275
 70
    64
  0
VERTEX
  5
6DA4E
100
AcDbEntity
  8
0
100
AcDbVertex
100
AcDbPolygonMeshVertex
 10
0.90571
 20
0.5385
 30
2.317275
 70
    64
  0
VERTEX
  5
6DA4F
100
AcDbEntity
  8
0
100
AcDbVertex
100
AcDbPolygonMeshVertex
 10
0.90571
 20
0.5385
 30
2.317275
 70
    64
  0
VERTEX
  5
6DA50
100
AcDbEntity
  8
0
100
AcDbVertex
100
AcDbPolygonMeshVertex
 10
0.85971
 20
0.5385
 30
2.927275
 70
    64
  0
VERTEX
  5
6DA51
100
AcDbEntity
  8
0
100
AcDbVertex
100
AcDbPolygonMeshVertex
 10
0.85971
 20
0.5385
 30
2.317275
 70
    64
  0
VERTEX
  5
6DA52
100
AcDbEntity
  8
0
100
AcDbVertex
100
AcDbPolygonMeshVertex
 10
0.85971
 20
0.5385
 30
2.317275
 70
    64
  0
VERTEX
  5
6DA53
100
AcDbEntity
  8
0
100
AcDbVertex
100
AcDbPolygonMeshVertex
 10
0.85971
 20
0.3985
 30
2.927275
 70
    64
  0
VERTEX
  5
6DA54
100
AcDbEntity
  8
0
100
AcDbVertex
100
AcDbPolygonMeshVertex
 10
0.85971
 20
0.3985
 30
2.317275
 70
    64
  0
VERTEX
  5
6DA55
100
AcDbEntity
  8
0
100
AcDbVertex
100
AcDbPolygonMeshVertex
 10
0.85971
 20
0.5385
 30
2.317275
 70
    64
  0
VERTEX
  5
6DA56
100
AcDbEntity
  8
0
100
AcDbVertex
100
AcDbPolygonMeshVertex
 10
0.90571
 20
0.3985
 30
2.927275
 70
    64
  0
VERTEX
  5
6DA57
100
AcDbEntity
  8
0
100
AcDbVertex
100
AcDbPolygonMeshVertex
 10
0.90571
 20
0.3985
 30
2.317275
 70
    64
  0
VERTEX
  5
6DA58
100
AcDbEntity
  8
0
100
AcDbVertex
100
AcDbPolygonMeshVertex
 10
0.90571
 20
0.5385
 30
2.317275
 70
    64
  0
VERTEX
  5
6DA59
100
AcDbEntity
  8
0
100
AcDbVertex
100
AcDbPolygonMeshVertex
 10
0.90571
 20
0.3985
 30
2.927275
 70
    64
  0
VERTEX
  5
6DA5A
100
AcDbEntity
  8
0
100
AcDbVertex
100
AcDbPolygonMeshVertex
 10
0.90571
 20
0.3985
 30
2.927275
 70
    64
  0
VERTEX
  5
6DA5B
100
AcDbEntity
  8
0
100
AcDbVertex
100
AcDbPolygonMeshVertex
 10
0.90571
 20
0.5385
 30
2.927275
 70
    64
  0
VERTEX
  5
6DA5C
100
AcDbEntity
  8
0
100
AcDbVertex
100
AcDbPolygonMeshVertex
 10
0.85971
 20
0.3985
 30
2.927275
 70
    64
  0
VERTEX
  5
6DA5D
100
AcDbEntity
  8
0
100
AcDbVertex
100
AcDbPolygonMeshVertex
 10
0.85971
 20
0.3985
 30
2.927275
 70
    64
  0
VERTEX
  5
6DA5E
100
AcDbEntity
  8
0
100
AcDbVertex
100
AcDbPolygonMeshVertex
 10
0.85971
 20
0.5385
 30
2.927275
 70
    64
  0
SEQEND
  5
6DA5F
100
AcDbEntity
  8
0
  0
POLYLINE
  5
6DA60
100
AcDbEntity
  8
0
100
AcDbPolygonMesh
 66
     1
 10
0.0
 20
0.0
 30
0.0
 70
    16
 71
     6
 72
     3
  0
VERTEX
  5
6DA61
100
AcDbEntity
  8
0
100
AcDbVertex
100
AcDbPolygonMeshVertex
 10
0.42996
 20
0.5385
 30
2.927275
 70
    64
  0
VERTEX
  5
6DA62
100
AcDbEntity
  8
0
100
AcDbVertex
100
AcDbPolygonMeshVertex
 10
0.42996
 20
0.5385
 30
2.317275
 70
    64
  0
VERTEX
  5
6DA63
100
AcDbEntity
  8
0
100
AcDbVertex
100
AcDbPolygonMeshVertex
 10
0.42996
 20
0.5385
 30
2.317275
 70
    64
  0
VERTEX
  5
6DA64
100
AcDbEntity
  8
0
100
AcDbVertex
100
AcDbPolygonMeshVertex
 10
0.47596
 20
0.5385
 30
2.927275
 70
    64
  0
VERTEX
  5
6DA65
100
AcDbEntity
  8
0
100
AcDbVertex
100
AcDbPolygonMeshVertex
 10
0.47596
 20
0.5385
 30
2.317275
 70
    64
  0
VERTEX
  5
6DA66
100
AcDbEntity
  8
0
100
AcDbVertex
100
AcDbPolygonMeshVertex
 10
0.47596
 20
0.5385
 30
2.317275
 70
    64
  0
VERTEX
  5
6DA67
100
AcDbEntity
  8
0
100
AcDbVertex
100
AcDbPolygonMeshVertex
 10
0.47596
 20
0.3985
 30
2.927275
 70
    64
  0
VERTEX
  5
6DA68
100
AcDbEntity
  8
0
100
AcDbVertex
100
AcDbPolygonMeshVertex
 10
0.47596
 20
0.3985
 30
2.317275
 70
    64
  0
VERTEX
  5
6DA69
100
AcDbEntity
  8
0
100
AcDbVertex
100
AcDbPolygonMeshVertex
 10
0.47596
 20
0.5385
 30
2.317275
 70
    64
  0
VERTEX
  5
6DA6A
100
AcDbEntity
  8
0
100
AcDbVertex
100
AcDbPolygonMeshVertex
 10
0.42996
 20
0.3985
 30
2.927275
 70
    64
  0
VERTEX
  5
6DA6B
100
AcDbEntity
  8
0
100
AcDbVertex
100
AcDbPolygonMeshVertex
 10
0.42996
 20
0.3985
 30
2.317275
 70
    64
  0
VERTEX
  5
6DA6C
100
AcDbEntity
  8
0
100
AcDbVertex
100
AcDbPolygonMeshVertex
 10
0.42996
 20
0.5385
 30
2.317275
 70
    64
  0
VERTEX
  5
6DA6D
100
AcDbEntity
  8
0
100
AcDbVertex
100
AcDbPolygonMeshVertex
 10
0.42996
 20
0.3985
 30
2.927275
 70
    64
  0
VERTEX
  5
6DA6E
100
AcDbEntity
  8
0
100
AcDbVertex
100
AcDbPolygonMeshVertex
 10
0.42996
 20
0.3985
 30
2.927275
 70
    64
  0
VERTEX
  5
6DA6F
100
AcDbEntity
  8
0
100
AcDbVertex
100
AcDbPolygonMeshVertex
 10
0.42996
 20
0.5385
 30
2.927275
 70
    64
  0
VERTEX
  5
6DA70
100
AcDbEntity
  8
0
100
AcDbVertex
100
AcDbPolygonMeshVertex
 10
0.47596
 20
0.3985
 30
2.927275
 70
    64
  0
VERTEX
  5
6DA71
100
AcDbEntity
  8
0
100
AcDbVertex
100
AcDbPolygonMeshVertex
 10
0.47596
 20
0.3985
 30
2.927275
 70
    64
  0
VERTEX
  5
6DA72
100
AcDbEntity
  8
0
100
AcDbVertex
100
AcDbPolygonMeshVertex
 10
0.47596
 20
0.5385
 30
2.927275
 70
    64
  0
SEQEND
  5
6DA73
100
AcDbEntity
  8
0
  0
LINE
  5
6DA74
100
AcDbEntity
  8
0
100
AcDbLine
 10
0.04621
 20
0.3985
 30
2.644275
 11
0.42996
 21
0.3985
 31
2.644275
  0
LINE
  5
6DA75
100
AcDbEntity
  8
0
100
AcDbLine
 10
0.47596
 20
0.3985
 30
2.644275
 11
0.85971
 21
0.3985
 31
2.644275
  0
POLYLINE
  5
6DA76
100
AcDbEntity
  8
0
100
AcDbPolygonMesh
 66
     1
 10
0.0
 20
0.0
 30
0.0
 70
    16
 71
     6
 72
     3
  0
VERTEX
  5
6DA77
100
AcDbEntity
  8
0
100
AcDbVertex
100
AcDbPolygonMeshVertex
 10
0.04621
 20
0.5385
 30
2.927275
 70
    64
  0
VERTEX
  5
6DA78
100
AcDbEntity
  8
0
100
AcDbVertex
100
AcDbPolygonMeshVertex
 10
0.04621
 20
0.5385
 30
2.058275
 70
    64
  0
VERTEX
  5
6DA79
100
AcDbEntity
  8
0
100
AcDbVertex
100
AcDbPolygonMeshVertex
 10
0.04621
 20
0.5385
 30
2.058275
 70
    64
  0
VERTEX
  5
6DA7A
100
AcDbEntity
  8
0
100
AcDbVertex
100
AcDbPolygonMeshVertex
 10
0.00021
 20
0.5385
 30
2.927275
 70
    64
  0
VERTEX
  5
6DA7B
100
AcDbEntity
  8
0
100
AcDbVertex
100
AcDbPolygonMeshVertex
 10
0.00021
 20
0.5385
 30
2.058275
 70
    64
  0
VERTEX
  5
6DA7C
100
AcDbEntity
  8
0
100
AcDbVertex
100
AcDbPolygonMeshVertex
 10
0.00021
 20
0.5385
 30
2.058275
 70
    64
  0
VERTEX
  5
6DA7D
100
AcDbEntity
  8
0
100
AcDbVertex
100
AcDbPolygonMeshVertex
 10
0.00021
 20
0.3985
 30
2.927275
 70
    64
  0
VERTEX
  5
6DA7E
100
AcDbEntity
  8
0
100
AcDbVertex
100
AcDbPolygonMeshVertex
 10
0.00021
 20
0.3985
 30
2.058275
 70
    64
  0
VERTEX
  5
6DA7F
100
AcDbEntity
  8
0
100
AcDbVertex
100
AcDbPolygonMeshVertex
 10
0.00021
 20
0.5385
 30
2.058275
 70
    64
  0
VERTEX
  5
6DA80
100
AcDbEntity
  8
0
100
AcDbVertex
100
AcDbPolygonMeshVertex
 10
0.04621
 20
0.3985
 30
2.927275
 70
    64
  0
VERTEX
  5
6DA81
100
AcDbEntity
  8
0
100
AcDbVertex
100
AcDbPolygonMeshVertex
 10
0.04621
 20
0.3985
 30
2.058275
 70
    64
  0
VERTEX
  5
6DA82
100
AcDbEntity
  8
0
100
AcDbVertex
100
AcDbPolygonMeshVertex
 10
0.04621
 20
0.5385
 30
2.058275
 70
    64
  0
VERTEX
  5
6DA83
100
AcDbEntity
  8
0
100
AcDbVertex
100
AcDbPolygonMeshVertex
 10
0.04621
 20
0.3985
 30
2.927275
 70
    64
  0
VERTEX
  5
6DA84
100
AcDbEntity
  8
0
100
AcDbVertex
100
AcDbPolygonMeshVertex
 10
0.04621
 20
0.3985
 30
2.927275
 70
    64
  0
VERTEX
  5
6DA85
100
AcDbEntity
  8
0
100
AcDbVertex
100
AcDbPolygonMeshVertex
 10
0.04621
 20
0.5385
 30
2.927275
 70
    64
  0
VERTEX
  5
6DA86
100
AcDbEntity
  8
0
100
AcDbVertex
100
AcDbPolygonMeshVertex
 10
0.00021
 20
0.3985
 30
2.927275
 70
    64
  0
VERTEX
  5
6DA87
100
AcDbEntity
  8
0
100
AcDbVertex
100
AcDbPolygonMeshVertex
 10
0.00021
 20
0.3985
 30
2.927275
 70
    64
  0
VERTEX
  5
6DA88
100
AcDbEntity
  8
0
100
AcDbVertex
100
AcDbPolygonMeshVertex
 10
0.00021
 20
0.5385
 30
2.927275
 70
    64
  0
SEQEND
  5
6DA89
100
AcDbEntity
  8
0
  0
POLYLINE
  5
6DA8A
100
AcDbEntity
  8
0
100
AcDbPolygonMesh
 66
     1
 10
0.0
 20
0.0
 30
0.0
 70
    16
 71
     6
 72
     3
  0
VERTEX
  5
6DA8B
100
AcDbEntity
  8
0
100
AcDbVertex
100
AcDbPolygonMeshVertex
 10
1.71921
 20
0.6105
 30
2.317275
 70
    64
  0
VERTEX
  5
6DA8C
100
AcDbEntity
  8
0
100
AcDbVertex
100
AcDbPolygonMeshVertex
 10
1.71921
 20
0.6105
 30
2.058275
 70
    64
  0
VERTEX
  5
6DA8D
100
AcDbEntity
  8
0
100
AcDbVertex
100
AcDbPolygonMeshVertex
 10
1.71921
 20
0.6105
 30
2.058275
 70
    64
  0
VERTEX
  5
6DA8E
100
AcDbEntity
  8
0
100
AcDbVertex
100
AcDbPolygonMeshVertex
 10
0.04621
 20
0.6105
 30
2.317275
 70
    64
  0
VERTEX
  5
6DA8F
100
AcDbEntity
  8
0
100
AcDbVertex
100
AcDbPolygonMeshVertex
 10
0.04621
 20
0.6105
 30
2.058275
 70
    64
  0
VERTEX
  5
6DA90
100
AcDbEntity
  8
0
100
AcDbVertex
100
AcDbPolygonMeshVertex
 10
0.04621
 20
0.6105
 30
2.058275
 70
    64
  0
VERTEX
  5
6DA91
100
AcDbEntity
  8
0
100
AcDbVertex
100
AcDbPolygonMeshVertex
 10
0.04621
 20
0.3985
 30
2.317275
 70
    64
  0
VERTEX
  5
6DA92
100
AcDbEntity
  8
0
100
AcDbVertex
100
AcDbPolygonMeshVertex
 10
0.04621
 20
0.3985
 30
2.058275
 70
    64
  0
VERTEX
  5
6DA93
100
AcDbEntity
  8
0
100
AcDbVertex
100
AcDbPolygonMeshVertex
 10
0.04621
 20
0.6105
 30
2.058275
 70
    64
  0
VERTEX
  5
6DA94
100
AcDbEntity
  8
0
100
AcDbVertex
100
AcDbPolygonMeshVertex
 10
1.71921
 20
0.3985
 30
2.317275
 70
    64
  0
VERTEX
  5
6DA95
100
AcDbEntity
  8
0
100
AcDbVertex
100
AcDbPolygonMeshVertex
 10
1.71921
 20
0.3985
 30
2.058275
 70
    64
  0
VERTEX
  5
6DA96
100
AcDbEntity
  8
0
100
AcDbVertex
100
AcDbPolygonMeshVertex
 10
1.71921
 20
0.6105
 30
2.058275
 70
    64
  0
VERTEX
  5
6DA97
100
AcDbEntity
  8
0
100
AcDbVertex
100
AcDbPolygonMeshVertex
 10
1.71921
 20
0.3985
 30
2.317275
 70
    64
  0
VERTEX
  5
6DA98
100
AcDbEntity
  8
0
100
AcDbVertex
100
AcDbPolygonMeshVertex
 10
1.71921
 20
0.3985
 30
2.317275
 70
    64
  0
VERTEX
  5
6DA99
100
AcDbEntity
  8
0
100
AcDbVertex
100
AcDbPolygonMeshVertex
 10
1.71921
 20
0.6105
 30
2.317275
 70
    64
  0
VERTEX
  5
6DA9A
100
AcDbEntity
  8
0
100
AcDbVertex
100
AcDbPolygonMeshVertex
 10
0.04621
 20
0.3985
 30
2.317275
 70
    64
  0
VERTEX
  5
6DA9B
100
AcDbEntity
  8
0
100
AcDbVertex
100
AcDbPolygonMeshVertex
 10
0.04621
 20
0.3985
 30
2.317275
 70
    64
  0
VERTEX
  5
6DA9C
100
AcDbEntity
  8
0
100
AcDbVertex
100
AcDbPolygonMeshVertex
 10
0.04621
 20
0.6105
 30
2.317275
 70
    64
  0
SEQEND
  5
6DA9D
100
AcDbEntity
  8
0
  0
TEXT
  5
6DA9E
100
AcDbEntity
  8
0
100
AcDbText
 39
0.0
 10
0.364847
 20
0.854582
 30
2.058275
 40
0.083465
  1
A1
100
AcDbText
  0
TEXT
  5
6DA9F
100
AcDbEntity
  8
0
100
AcDbText
 39
0.0
 10
1.285828
 20
0.853741
 30
2.058275
 40
0.083465
  1
A2
100
AcDbText
  0
LINE
  5
6DAA0
100
AcDbEntity
  8
0
100
AcDbLine
 10
0.652934
 20
-1.9685
 30
0.0
 11
0.8636
 21
-1.9685
 31
0.0
  0
POLYLINE
  5
6DAA1
100
AcDbEntity
  8
0
100
AcDb3dPolyline
 66
     1
 10
0.0
 20
0.0
 30
0.0
 70
     8
  0
VERTEX
  5
6DAA2
100
AcDbEntity
  8
0
100
AcDbVertex
100
AcDb3dPolylineVertex
 10
0.652934
 20
-1.9685
 30
0.0
 70
    32
  0
VERTEX
  5
6DAA3
100
AcDbEntity
  8
0
100
AcDbVertex
100
AcDb3dPolylineVertex
 10
0.652934
 20
-2.1035
 30
0.0
 70
    32
  0
VERTEX
  5
6DAA4
100
AcDbEntity
  8
0
100
AcDbVertex
100
AcDb3dPolylineVertex
 10
0.8636
 20
-2.1035
 30
0.0
 70
    32
  0
VERTEX
  5
6DAA5
100
AcDbEntity
  8
0
100
AcDbVertex
100
AcDb3dPolylineVertex
 10
0.8636
 20
-1.9685
 30
0.0
 70
    32
  0
SEQEND
  5
6DAA6
100
AcDbEntity
  8
0
  0
POLYLINE
  5
6DAA7
100
AcDbEntity
  8
0
100
AcDb3dPolyline
 66
     1
 10
0.0
 20
0.0
 30
0.0
 70
     8
  0
VERTEX
  5
6DAA8
100
AcDbEntity
  8
0
100
AcDbVertex
100
AcDb3dPolylineVertex
 10
0.581143
 20
-1.9685
 30
0.187
 70
    32
  0
VERTEX
  5
6DAA9
100
AcDbEntity
  8
0
100
AcDbVertex
100
AcDb3dPolylineVertex
 10
0.581143
 20
-2.1035
 30
0.187
 70
    32
  0
VERTEX
  5
6DAAA
100
AcDbEntity
  8
0
100
AcDbVertex
100
AcDb3dPolylineVertex
 10
0.79181
 20
-2.1035
 30
0.187
 70
    32
  0
VERTEX
  5
6DAAB
100
AcDbEntity
  8
0
100
AcDbVertex
100
AcDb3dPolylineVertex
 10
0.79181
 20
-1.9685
 30
0.187
 70
    32
  0
SEQEND
  5
6DAAC
100
AcDbEntity
  8
0
  0
POLYLINE
  5
6DAAD
100
AcDbEntity
  8
0
100
AcDbPolygonMesh
 66
     1
 10
0.0
 20
0.0
 30
0.0
 70
    16
 71
     6
 72
     3
  0
VERTEX
  5
6DAAE
100
AcDbEntity
  8
0
100
AcDbVertex
100
AcDbPolygonMeshVertex
 10
0.85381
 20
-2.1655
 30
0.187
 70
    64
  0
VERTEX
  5
6DAAF
100
AcDbEntity
  8
0
100
AcDbVertex
100
AcDbPolygonMeshVertex
 10
0.85381
 20
-2.1655
 30
0.0
 70
    64
  0
VERTEX
  5
6DAB0
100
AcDbEntity
  8
0
100
AcDbVertex
100
AcDbPolygonMeshVertex
 10
0.85381
 20
-2.1655
 30
0.0
 70
    64
  0
VERTEX
  5
6DAB1
100
AcDbEntity
  8
0
100
AcDbVertex
100
AcDbPolygonMeshVertex
 10
0.246476
 20
-2.1655
 30
0.187
 70
    64
  0
VERTEX
  5
6DAB2
100
AcDbEntity
  8
0
100
AcDbVertex
100
AcDbPolygonMeshVertex
 10
0.246476
 20
-2.1655
 30
0.0
 70
    64
  0
VERTEX
  5
6DAB3
100
AcDbEntity
  8
0
100
AcDbVertex
100
AcDbPolygonMeshVertex
 10
0.246476
 20
-2.1655
 30
0.0
 70
    64
  0
VERTEX
  5
6DAB4
100
AcDbEntity
  8
0
100
AcDbVertex
100
AcDbPolygonMeshVertex
 10
0.246476
 20
-2.1035
 30
0.187
 70
    64
  0
VERTEX
  5
6DAB5
100
AcDbEntity
  8
0
100
AcDbVertex
100
AcDbPolygonMeshVertex
 10
0.246476
 20
-2.1035
 30
0.0
 70
    64
  0
VERTEX
  5
6DAB6
100
AcDbEntity
  8
0
100
AcDbVertex
100
AcDbPolygonMeshVertex
 10
0.246476
 20
-2.1655
 30
0.0
 70
    64
  0
VERTEX
  5
6DAB7
100
AcDbEntity
  8
0
100
AcDbVertex
100
AcDbPolygonMeshVertex
 10
0.85381
 20
-2.1035
 30
0.187
 70
    64
  0
VERTEX
  5
6DAB8
100
AcDbEntity
  8
0
100
AcDbVertex
100
AcDbPolygonMeshVertex
 10
0.85381
 20
-2.1035
 30
0.0
 70
    64
  0
VERTEX
  5
6DAB9
100
AcDbEntity
  8
0
100
AcDbVertex
100
AcDbPolygonMeshVertex
 10
0.85381
 20
-2.1655
 30
0.0
 70
    64
  0
VERTEX
  5
6DABA
100
AcDbEntity
  8
0
100
AcDbVertex
100
AcDbPolygonMeshVertex
 10
0.85381
 20
-2.1035
 30
0.187
 70
    64
  0
VERTEX
  5
6DABB
100
AcDbEntity
  8
0
100
AcDbVertex
100
AcDbPolygonMeshVertex
 10
0.85381
 20
-2.1035
 30
0.187
 70
    64
  0
VERTEX
  5
6DABC
100
AcDbEntity
  8
0
100
AcDbVertex
100
AcDbPolygonMeshVertex
 10
0.85381
 20
-2.1655
 30
0.187
 70
    64
  0
VERTEX
  5
6DABD
100
AcDbEntity
  8
0
100
AcDbVertex
100
AcDbPolygonMeshVertex
 10
0.246476
 20
-2.1035
 30
0.187
 70
    64
  0
VERTEX
  5
6DABE
100
AcDbEntity
  8
0
100
AcDbVertex
100
AcDbPolygonMeshVertex
 10
0.246476
 20
-2.1035
 30
0.187
 70
    64
  0
VERTEX
  5
6DABF
100
AcDbEntity
  8
0
100
AcDbVertex
100
AcDbPolygonMeshVertex
 10
0.246476
 20
-2.1655
 30
0.187
 70
    64
  0
SEQEND
  5
6DAC0
100
AcDbEntity
  8
0
  0
POLYLINE
  5
6DAC1
100
AcDbEntity
  8
0
100
AcDbPolygonMesh
 66
     1
 10
0.0
 20
0.0
 30
0.0
 70
    16
 71
     6
 72
     3
  0
VERTEX
  5
6DAC2
100
AcDbEntity
  8
0
100
AcDbVertex
100
AcDbPolygonMeshVertex
 10
0.85381
 20
-2.1035
 30
0.187
 70
    64
  0
VERTEX
  5
6DAC3
100
AcDbEntity
  8
0
100
AcDbVertex
100
AcDbPolygonMeshVertex
 10
0.85381
 20
-2.1035
 30
0.0
 70
    64
  0
VERTEX
  5
6DAC4
100
AcDbEntity
  8
0
100
AcDbVertex
100
AcDbPolygonMeshVertex
 10
0.85381
 20
-2.1035
 30
0.0
 70
    64
  0
VERTEX
  5
6DAC5
100
AcDbEntity
  8
0
100
AcDbVertex
100
AcDbPolygonMeshVertex
 10
0.519143
 20
-2.1035
 30
0.187
 70
    64
  0
VERTEX
  5
6DAC6
100
AcDbEntity
  8
0
100
AcDbVertex
100
AcDbPolygonMeshVertex
 10
0.519143
 20
-2.1035
 30
0.0
 70
    64
  0
VERTEX
  5
6DAC7
100
AcDbEntity
  8
0
100
AcDbVertex
100
AcDbPolygonMeshVertex
 10
0.519143
 20
-2.1035
 30
0.0
 70
    64
  0
VERTEX
  5
6DAC8
100
AcDbEntity
  8
0
100
AcDbVertex
100
AcDbPolygonMeshVertex
 10
0.519143
 20
-1.9065
 30
0.187
 70
    64
  0
VERTEX
  5
6DAC9
100
AcDbEntity
  8
0
100
AcDbVertex
100
AcDbPolygonMeshVertex
 10
0.519143
 20
-1.9065
 30
0.0
 70
    64
  0
VERTEX
  5
6DACA
100
AcDbEntity
  8
0
100
AcDbVertex
100
AcDbPolygonMeshVertex
 10
0.519143
 20
-2.1035
 30
0.0
 70
    64
  0
VERTEX
  5
6DACB
100
AcDbEntity
  8
0
100
AcDbVertex
100
AcDbPolygonMeshVertex
 10
0.85381
 20
-1.9065
 30
0.187
 70
    64
  0
VERTEX
  5
6DACC
100
AcDbEntity
  8
0
100
AcDbVertex
100
AcDbPolygonMeshVertex
 10
0.85381
 20
-1.9065
 30
0.0
 70
    64
  0
VERTEX
  5
6DACD
100
AcDbEntity
  8
0
100
AcDbVertex
100
AcDbPolygonMeshVertex
 10
0.85381
 20
-2.1035
 30
0.0
 70
    64
  0
VERTEX
  5
6DACE
100
AcDbEntity
  8
0
100
AcDbVertex
100
AcDbPolygonMeshVertex
 10
0.85381
 20
-1.9065
 30
0.187
 70
    64
  0
VERTEX
  5
6DACF
100
AcDbEntity
  8
0
100
AcDbVertex
100
AcDbPolygonMeshVertex
 10
0.85381
 20
-1.9065
 30
0.187
 70
    64
  0
VERTEX
  5
6DAD0
100
AcDbEntity
  8
0
100
AcDbVertex
100
AcDbPolygonMeshVertex
 10
0.85381
 20
-2.1035
 30
0.187
 70
    64
  0
VERTEX
  5
6DAD1
100
AcDbEntity
  8
0
100
AcDbVertex
100
AcDbPolygonMeshVertex
 10
0.519143
 20
-1.9065
 30
0.187
 70
    64
  0
VERTEX
  5
6DAD2
100
AcDbEntity
  8
0
100
AcDbVertex
100
AcDbPolygonMeshVertex
 10
0.519143
 20
-1.9065
 30
0.187
 70
    64
  0
VERTEX
  5
6DAD3
100
AcDbEntity
  8
0
100
AcDbVertex
100
AcDbPolygonMeshVertex
 10
0.519143
 20
-2.1035
 30
0.187
 70
    64
  0
SEQEND
  5
6DAD4
100
AcDbEntity
  8
0
  0
LINE
  5
6DAD5
100
AcDbEntity
  8
0
100
AcDbLine
 10
0.652934
 20
-1.9685
 30
0.187
 11
0.8636
 21
-1.9685
 31
0.187
  0
POLYLINE
  5
6DAD6
100
AcDbEntity
  8
0
100
AcDbPolygonMesh
 66
     1
 10
0.0
 20
0.0
 30
0.0
 70
    16
 71
     6
 72
     3
  0
VERTEX
  5
6DAD7
100
AcDbEntity
  8
0
100
AcDbVertex
100
AcDbPolygonMeshVertex
 10
1.76521
 20
-1.6855
 30
0.187
 70
    64
  0
VERTEX
  5
6DAD8
100
AcDbEntity
  8
0
100
AcDbVertex
100
AcDbPolygonMeshVertex
 10
1.76521
 20
-1.6855
 30
0.0
 70
    64
  0
VERTEX
  5
6DAD9
100
AcDbEntity
  8
0
100
AcDbVertex
100
AcDbPolygonMeshVertex
 10
1.76521
 20
-1.6855
 30
0.0
 70
    64
  0
VERTEX
  5
6DADA
100
AcDbEntity
  8
0
100
AcDbVertex
100
AcDbPolygonMeshVertex
 10
0.00521
 20
-1.6855
 30
0.187
 70
    64
  0
VERTEX
  5
6DADB
100
AcDbEntity
  8
0
100
AcDbVertex
100
AcDbPolygonMeshVertex
 10
0.00521
 20
-1.6855
 30
0.0
 70
    64
  0
VERTEX
  5
6DADC
100
AcDbEntity
  8
0
100
AcDbVertex
100
AcDbPolygonMeshVertex
 10
0.00521
 20
-1.6855
 30
0.0
 70
    64
  0
VERTEX
  5
6DADD
100
AcDbEntity
  8
0
100
AcDbVertex
100
AcDbPolygonMeshVertex
 10
0.00521
 20
-1.481
 30
0.187
 70
    64
  0
VERTEX
  5
6DADE
100
AcDbEntity
  8
0
100
AcDbVertex
100
AcDbPolygonMeshVertex
 10
0.00521
 20
-1.481
 30
0.0
 70
    64
  0
VERTEX
  5
6DADF
100
AcDbEntity
  8
0
100
AcDbVertex
100
AcDbPolygonMeshVertex
 10
0.00521
 20
-1.6855
 30
0.0
 70
    64
  0
VERTEX
  5
6DAE0
100
AcDbEntity
  8
0
100
AcDbVertex
100
AcDbPolygonMeshVertex
 10
1.76521
 20
-1.481
 30
0.187
 70
    64
  0
VERTEX
  5
6DAE1
100
AcDbEntity
  8
0
100
AcDbVertex
100
AcDbPolygonMeshVertex
 10
1.76521
 20
-1.481
 30
0.0
 70
    64
  0
VERTEX
  5
6DAE2
100
AcDbEntity
  8
0
100
AcDbVertex
100
AcDbPolygonMeshVertex
 10
1.76521
 20
-1.6855
 30
0.0
 70
    64
  0
VERTEX
  5
6DAE3
100
AcDbEntity
  8
0
100
AcDbVertex
100
AcDbPolygonMeshVertex
 10
1.76521
 20
-1.481
 30
0.187
 70
    64
  0
VERTEX
  5
6DAE4
100
AcDbEntity
  8
0
100
AcDbVertex
100
AcDbPolygonMeshVertex
 10
1.76521
 20
-1.481
 30
0.187
 70
    64
  0
VERTEX
  5
6DAE5
100
AcDbEntity
  8
0
100
AcDbVertex
100
AcDbPolygonMeshVertex
 10
1.76521
 20
-1.6855
 30
0.187
 70
    64
  0
VERTEX
  5
6DAE6
100
AcDbEntity
  8
0
100
AcDbVertex
100
AcDbPolygonMeshVertex
 10
0.00521
 20
-1.481
 30
0.187
 70
    64
  0
VERTEX
  5
6DAE7
100
AcDbEntity
  8
0
100
AcDbVertex
100
AcDbPolygonMeshVertex
 10
0.00521
 20
-1.481
 30
0.187
 70
    64
  0
VERTEX
  5
6DAE8
100
AcDbEntity
  8
0
100
AcDbVertex
100
AcDbPolygonMeshVertex
 10
0.00521
 20
-1.6855
 30
0.187
 70
    64
  0
SEQEND
  5
6DAE9
100
AcDbEntity
  8
0
  0
POLYLINE
  5
6DAEA
100
AcDbEntity
  8
0
100
AcDbPolygonMesh
 66
     1
 10
0.0
 20
0.0
 30
0.0
 70
    16
 71
     6
 72
     3
  0
VERTEX
  5
6DAEB
100
AcDbEntity
  8
0
100
AcDbVertex
100
AcDbPolygonMeshVertex
 10
1.76521
 20
0.2045
 30
0.187
 70
    64
  0
VERTEX
  5
6DAEC
100
AcDbEntity
  8
0
100
AcDbVertex
100
AcDbPolygonMeshVertex
 10
1.76521
 20
0.2045
 30
0.0
 70
    64
  0
VERTEX
  5
6DAED
100
AcDbEntity
  8
0
100
AcDbVertex
100
AcDbPolygonMeshVertex
 10
1.76521
 20
0.2045
 30
0.0
 70
    64
  0
VERTEX
  5
6DAEE
100
AcDbEntity
  8
0
100
AcDbVertex
100
AcDbPolygonMeshVertex
 10
0.00521
 20
0.2045
 30
0.187
 70
    64
  0
VERTEX
  5
6DAEF
100
AcDbEntity
  8
0
100
AcDbVertex
100
AcDbPolygonMeshVertex
 10
0.00521
 20
0.2045
 30
0.0
 70
    64
  0
VERTEX
  5
6DAF0
100
AcDbEntity
  8
0
100
AcDbVertex
100
AcDbPolygonMeshVertex
 10
0.00521
 20
0.2045
 30
0.0
 70
    64
  0
VERTEX
  5
6DAF1
100
AcDbEntity
  8
0
100
AcDbVertex
100
AcDbPolygonMeshVertex
 10
0.00521
 20
0.0
 30
0.187
 70
    64
  0
VERTEX
  5
6DAF2
100
AcDbEntity
  8
0
100
AcDbVertex
100
AcDbPolygonMeshVertex
 10
0.00521
 20
0.0
 30
0.0
 70
    64
  0
VERTEX
  5
6DAF3
100
AcDbEntity
  8
0
100
AcDbVertex
100
AcDbPolygonMeshVertex
 10
0.00521
 20
0.2045
 30
0.0
 70
    64
  0
VERTEX
  5
6DAF4
100
AcDbEntity
  8
0
100
AcDbVertex
100
AcDbPolygonMeshVertex
 10
1.76521
 20
0.0
 30
0.187
 70
    64
  0
VERTEX
  5
6DAF5
100
AcDbEntity
  8
0
100
AcDbVertex
100
AcDbPolygonMeshVertex
 10
1.76521
 20
0.0
 30
0.0
 70
    64
  0
VERTEX
  5
6DAF6
100
AcDbEntity
  8
0
100
AcDbVertex
100
AcDbPolygonMeshVertex
 10
1.76521
 20
0.2045
 30
0.0
 70
    64
  0
VERTEX
  5
6DAF7
100
AcDbEntity
  8
0
100
AcDbVertex
100
AcDbPolygonMeshVertex
 10
1.76521
 20
0.0
 30
0.187
 70
    64
  0
VERTEX
  5
6DAF8
100
AcDbEntity
  8
0
100
AcDbVertex
100
AcDbPolygonMeshVertex
 10
1.76521
 20
0.0
 30
0.187
 70
    64
  0
VERTEX
  5
6DAF9
100
AcDbEntity
  8
0
100
AcDbVertex
100
AcDbPolygonMeshVertex
 10
1.76521
 20
0.2045
 30
0.187
 70
    64
  0
VERTEX
  5
6DAFA
100
AcDbEntity
  8
0
100
AcDbVertex
100
AcDbPolygonMeshVertex
 10
0.00521
 20
0.0
 30
0.187
 70
    64
  0
VERTEX
  5
6DAFB
100
AcDbEntity
  8
0
100
AcDbVertex
100
AcDbPolygonMeshVertex
 10
0.00521
 20
0.0
 30
0.187
 70
    64
  0
VERTEX
  5
6DAFC
100
AcDbEntity
  8
0
100
AcDbVertex
100
AcDbPolygonMeshVertex
 10
0.00521
 20
0.2045
 30
0.187
 70
    64
  0
SEQEND
  5
6DAFD
100
AcDbEntity
  8
0
  0
POLYLINE
  5
6DAFE
100
AcDbEntity
  8
0
100
AcDbPolygonMesh
 66
     1
 10
0.0
 20
0.0
 30
0.0
 70
    16
 71
     6
 72
     3
  0
VERTEX
  5
6DAFF
100
AcDbEntity
  8
0
100
AcDbVertex
100
AcDbPolygonMeshVertex
 10
0.39621
 20
-2.0815
 30
0.316
 70
    64
  0
VERTEX
  5
6DB00
100
AcDbEntity
  8
0
100
AcDbVertex
100
AcDbPolygonMeshVertex
 10
0.39621
 20
-2.0815
 30
0.0
 70
    64
  0
VERTEX
  5
6DB01
100
AcDbEntity
  8
0
100
AcDbVertex
100
AcDbPolygonMeshVertex
 10
0.39621
 20
-2.0815
 30
0.0
 70
    64
  0
VERTEX
  5
6DB02
100
AcDbEntity
  8
0
100
AcDbVertex
100
AcDbPolygonMeshVertex
 10
0.00521
 20
-2.0815
 30
0.316
 70
    64
  0
VERTEX
  5
6DB03
100
AcDbEntity
  8
0
100
AcDbVertex
100
AcDbPolygonMeshVertex
 10
0.00521
 20
-2.0815
 30
0.0
 70
    64
  0
VERTEX
  5
6DB04
100
AcDbEntity
  8
0
100
AcDbVertex
100
AcDbPolygonMeshVertex
 10
0.00521
 20
-2.0815
 30
0.0
 70
    64
  0
VERTEX
  5
6DB05
100
AcDbEntity
  8
0
100
AcDbVertex
100
AcDbPolygonMeshVertex
 10
0.00521
 20
-1.6855
 30
0.316
 70
    64
  0
VERTEX
  5
6DB06
100
AcDbEntity
  8
0
100
AcDbVertex
100
AcDbPolygonMeshVertex
 10
0.00521
 20
-1.6855
 30
0.0
 70
    64
  0
VERTEX
  5
6DB07
100
AcDbEntity
  8
0
100
AcDbVertex
100
AcDbPolygonMeshVertex
 10
0.00521
 20
-2.0815
 30
0.0
 70
    64
  0
VERTEX
  5
6DB08
100
AcDbEntity
  8
0
100
AcDbVertex
100
AcDbPolygonMeshVertex
 10
0.39621
 20
-1.6855
 30
0.316
 70
    64
  0
VERTEX
  5
6DB09
100
AcDbEntity
  8
0
100
AcDbVertex
100
AcDbPolygonMeshVertex
 10
0.39621
 20
-1.6855
 30
0.0
 70
    64
  0
VERTEX
  5
6DB0A
100
AcDbEntity
  8
0
100
AcDbVertex
100
AcDbPolygonMeshVertex
 10
0.39621
 20
-2.0815
 30
0.0
 70
    64
  0
VERTEX
  5
6DB0B
100
AcDbEntity
  8
0
100
AcDbVertex
100
AcDbPolygonMeshVertex
 10
0.39621
 20
-1.6855
 30
0.316
 70
    64
  0
VERTEX
  5
6DB0C
100
AcDbEntity
  8
0
100
AcDbVertex
100
AcDbPolygonMeshVertex
 10
0.39621
 20
-1.6855
 30
0.316
 70
    64
  0
VERTEX
  5
6DB0D
100
AcDbEntity
  8
0
100
AcDbVertex
100
AcDbPolygonMeshVertex
 10
0.39621
 20
-2.0815
 30
0.316
 70
    64
  0
VERTEX
  5
6DB0E
100
AcDbEntity
  8
0
100
AcDbVertex
100
AcDbPolygonMeshVertex
 10
0.00521
 20
-1.6855
 30
0.316
 70
    64
  0
VERTEX
  5
6DB0F
100
AcDbEntity
  8
0
100
AcDbVertex
100
AcDbPolygonMeshVertex
 10
0.00521
 20
-1.6855
 30
0.316
 70
    64
  0
VERTEX
  5
6DB10
100
AcDbEntity
  8
0
100
AcDbVertex
100
AcDbPolygonMeshVertex
 10
0.00521
 20
-2.0815
 30
0.316
 70
    64
  0
SEQEND
  5
6DB11
100
AcDbEntity
  8
0
  0
POINT
  5
6DB12
100
AcDbEntity
  8
SNAP_POINTS
100
AcDbPoint
 10
0.0
 20
0.0
 30
0.0
  0
3DFACE
  5
6DB13
100
AcDbEntity
  8
0
100
AcDbFace
 10
1.76521
 20
-1.8455
 30
2.058275
 11
1.76521
 21
-1.8455
 31
2.058275
 12
0.00021
 22
-1.8455
 32
2.058275
 13
0.00021
 23
-1.8455
 33
2.058275
  0
3DFACE
  5
6DB14
100
AcDbEntity
  8
0
100
AcDbFace
 10
0.00021
 20
-1.8455
 30
2.058275
 11
0.00021
 21
-1.8455
 31
2.058275
 12
0.00021
 22
-1.8455
 32
2.058275
 13
0.00021
 23
0.3985
 33
2.058275
  0
3DFACE
  5
6DB15
100
AcDbEntity
  8
0
100
AcDbFace
 10
0.00021
 20
0.3985
 30
2.058275
 11
0.00021
 21
-1.8455
 31
2.058275
 12
1.76521
 22
-1.8455
 32
2.058275
 13
1.76521
 23
0.3985
 33
2.058275
  0
POLYLINE
  5
6DB16
100
AcDbEntity
  8
0
  6
CONTINUOUS
100
AcDb3dPolyline
 66
     1
 10
0.0
 20
0.0
 30
0.0
 70
     8
  0
VERTEX
  5
6DB17
100
AcDbEntity
  8
0
  6
CONTINUOUS
100
AcDbVertex
100
AcDb3dPolylineVertex
 10
1.76521
 20
0.3985
 30
2.058275
 70
    32
1001
ACAD
1000
R13OBJECT
1002
{
1005
6DB16
1002
}
  0
VERTEX
  5
6DB18
100
AcDbEntity
  8
0
  6
CONTINUOUS
100
AcDbVertex
100
AcDb3dPolylineVertex
 10
1.76521
 20
-1.8455
 30
2.058275
 70
    32
1001
ACAD
1000
R13OBJECT
1002
{
1005
6DB16
1002
}
  0
SEQEND
  5
6DB19
100
AcDbEntity
  8
0
  6
CONTINUOUS
1001
ACAD
1000
R13OBJECT
1002
{
1005
6DB16
1002
}
  0
POLYLINE
  5
6DB1A
100
AcDbEntity
  8
0
  6
CONTINUOUS
100
AcDb3dPolyline
 66
     1
 10
0.0
 20
0.0
 30
0.0
 70
     8
1001
ACAD
1000
R13OBJECT
1002
{
1005
6DB16
1002
}
  0
VERTEX
  5
6DB1B
100
AcDbEntity
  8
0
  6
CONTINUOUS
100
AcDbVertex
100
AcDb3dPolylineVertex
 10
1.76521
 20
-1.8455
 30
2.058275
 70
    32
1001
ACAD
1000
R13OBJECT
1002
{
1005
6DB16
1002
}
  0
VERTEX
  5
6DB1C
100
AcDbEntity
  8
0
  6
CONTINUOUS
100
AcDbVertex
100
AcDb3dPolylineVertex
 10
0.00021
 20
-1.8455
 30
2.058275
 70
    32
1001
ACAD
1000
R13OBJECT
1002
{
1005
6DB16
1002
}
  0
SEQEND
  5
6DB1D
100
AcDbEntity
  8
0
  6
CONTINUOUS
1001
ACAD
1000
R13OBJECT
1002
{
1005
6DB16
1002
}
  0
POLYLINE
  5
6DB1E
100
AcDbEntity
  8
0
  6
CONTINUOUS
100
AcDb3dPolyline
 66
     1
 10
0.0
 20
0.0
 30
0.0
 70
     8
1001
ACAD
1000
R13OBJECT
1002
{
1005
6DB16
1002
}
  0
VERTEX
  5
6DB1F
100
AcDbEntity
  8
0
  6
CONTINUOUS
100
AcDbVertex
100
AcDb3dPolylineVertex
 10
0.00021
 20
-1.8455
 30
2.058275
 70
    32
1001
ACAD
1000
R13OBJECT
1002
{
1005
6DB16
1002
}
  0
VERTEX
  5
6DB20
100
AcDbEntity
  8
0
  6
CONTINUOUS
100
AcDbVertex
100
AcDb3dPolylineVertex
 10
0.00021
 20
0.3985
 30
2.058275
 70
    32
1001
ACAD
1000
R13OBJECT
1002
{
1005
6DB16
1002
}
  0
SEQEND
  5
6DB21
100
AcDbEntity
  8
0
  6
CONTINUOUS
1001
ACAD
1000
R13OBJECT
1002
{
1005
6DB16
1002
}
  0
POLYLINE
  5
6DB22
100
AcDbEntity
  8
0
  6
CONTINUOUS
100
AcDb3dPolyline
 66
     1
 10
0.0
 20
0.0
 30
0.0
 70
     8
1001
ACAD
1000
R13OBJECT
1002
{
1005
6DB16
1002
}
  0
VERTEX
  5
6DB23
100
AcDbEntity
  8
0
  6
CONTINUOUS
100
AcDbVertex
100
AcDb3dPolylineVertex
 10
0.00021
 20
0.3985
 30
2.058275
 70
    32
1001
ACAD
1000
R13OBJECT
1002
{
1005
6DB16
1002
}
  0
VERTEX
  5
6DB24
100
AcDbEntity
  8
0
  6
CONTINUOUS
100
AcDbVertex
100
AcDb3dPolylineVertex
 10
1.76521
 20
0.3985
 30
2.058275
 70
    32
1001
ACAD
1000
R13OBJECT
1002
{
1005
6DB16
1002
}
  0
SEQEND
  5
6DB25
100
AcDbEntity
  8
0
  6
CONTINUOUS
1001
ACAD
1000
R13OBJECT
1002
{
1005
6DB16
1002
}
  0
POLYLINE
  5
6DB26
100
AcDbEntity
  8
0
  6
CONTINUOUS
100
AcDb3dPolyline
 66
     1
 10
0.0
 20
0.0
 30
0.0
 70
     8
  0
VERTEX
  5
6DB27
100
AcDbEntity
  8
0
  6
CONTINUOUS
100
AcDbVertex
100
AcDb3dPolylineVertex
 10
0.00021
 20
-1.8455
 30
3.080275
 70
    32
1001
ACAD
1000
R13OBJECT
1002
{
1005
6DB26
1002
}
  0
VERTEX
  5
6DB28
100
AcDbEntity
  8
0
  6
CONTINUOUS
100
AcDbVertex
100
AcDb3dPolylineVertex
 10
0.00021
 20
-1.8455
 30
2.058275
 70
    32
1001
ACAD
1000
R13OBJECT
1002
{
1005
6DB26
1002
}
  0
SEQEND
  5
6DB29
100
AcDbEntity
  8
0
  6
CONTINUOUS
1001
ACAD
1000
R13OBJECT
1002
{
1005
6DB26
1002
}
  0
POLYLINE
  5
6DB2A
100
AcDbEntity
  8
0
  6
CONTINUOUS
100
AcDb3dPolyline
 66
     1
 10
0.0
 20
0.0
 30
0.0
 70
     8
1001
ACAD
1000
R13OBJECT
1002
{
1005
6DB26
1002
}
  0
VERTEX
  5
6DB2B
100
AcDbEntity
  8
0
  6
CONTINUOUS
100
AcDbVertex
100
AcDb3dPolylineVertex
 10
1.76521
 20
-1.8455
 30
2.058275
 70
    32
1001
ACAD
1000
R13OBJECT
1002
{
1005
6DB26
1002
}
  0
VERTEX
  5
6DB2C
100
AcDbEntity
  8
0
  6
CONTINUOUS
100
AcDbVertex
100
AcDb3dPolylineVertex
 10
0.00021
 20
-1.8455
 30
2.058275
 70
    32
1001
ACAD
1000
R13OBJECT
1002
{
1005
6DB26
1002
}
  0
SEQEND
  5
6DB2D
100
AcDbEntity
  8
0
  6
CONTINUOUS
1001
ACAD
1000
R13OBJECT
1002
{
1005
6DB26
1002
}
  0
POLYLINE
  5
6DB2E
100
AcDbEntity
  8
0
  6
CONTINUOUS
100
AcDb3dPolyline
 66
     1
 10
0.0
 20
0.0
 30
0.0
 70
     8
1001
ACAD
1000
R13OBJECT
1002
{
1005
6DB26
1002
}
  0
VERTEX
  5
6DB2F
100
AcDbEntity
  8
0
  6
CONTINUOUS
100
AcDbVertex
100
AcDb3dPolylineVertex
 10
1.76521
 20
-1.8455
 30
3.080275
 70
    32
1001
ACAD
1000
R13OBJECT
1002
{
1005
6DB26
1002
}
  0
VERTEX
  5
6DB30
100
AcDbEntity
  8
0
  6
CONTINUOUS
100
AcDbVertex
100
AcDb3dPolylineVertex
 10
1.76521
 20
-1.8455
 30
2.058275
 70
    32
1001
ACAD
1000
R13OBJECT
1002
{
1005
6DB26
1002
}
  0
SEQEND
  5
6DB31
100
AcDbEntity
  8
0
  6
CONTINUOUS
1001
ACAD
1000
R13OBJECT
1002
{
1005
6DB26
1002
}
  0
POLYLINE
  5
6DB32
100
AcDbEntity
  8
0
  6
CONTINUOUS
100
AcDb3dPolyline
 66
     1
 10
0.0
 20
0.0
 30
0.0
 70
     8
1001
ACAD
1000
R13OBJECT
1002
{
1005
6DB26
1002
}
  0
VERTEX
  5
6DB33
100
AcDbEntity
  8
0
  6
CONTINUOUS
100
AcDbVertex
100
AcDb3dPolylineVertex
 10
0.00021
 20
-1.8455
 30
3.080275
 70
    32
1001
ACAD
1000
R13OBJECT
1002
{
1005
6DB26
1002
}
  0
VERTEX
  5
6DB34
100
AcDbEntity
  8
0
  6
CONTINUOUS
100
AcDbVertex
100
AcDb3dPolylineVertex
 10
1.76521
 20
-1.8455
 30
3.080275
 70
    32
1001
ACAD
1000
R13OBJECT
1002
{
1005
6DB26
1002
}
  0
SEQEND
  5
6DB35
100
AcDbEntity
  8
0
  6
CONTINUOUS
1001
ACAD
1000
R13OBJECT
1002
{
1005
6DB26
1002
}
  0
POLYLINE
  5
6DB36
100
AcDbEntity
  8
0
  6
CONTINUOUS
100
AcDb3dPolyline
 66
     1
 10
0.0
 20
0.0
 30
0.0
 70
     8
  0
VERTEX
  5
6DB37
100
AcDbEntity
  8
0
  6
CONTINUOUS
100
AcDbVertex
100
AcDb3dPolylineVertex
 10
1.76521
 20
0.3985
 30
3.080275
 70
    32
1001
ACAD
1000
R13OBJECT
1002
{
1005
6DB36
1002
}
  0
VERTEX
  5
6DB38
100
AcDbEntity
  8
0
  6
CONTINUOUS
100
AcDbVertex
100
AcDb3dPolylineVertex
 10
1.76521
 20
0.3985
 30
2.058275
 70
    32
1001
ACAD
1000
R13OBJECT
1002
{
1005
6DB36
1002
}
  0
SEQEND
  5
6DB39
100
AcDbEntity
  8
0
  6
CONTINUOUS
1001
ACAD
1000
R13OBJECT
1002
{
1005
6DB36
1002
}
  0
POLYLINE
  5
6DB3A
100
AcDbEntity
  8
0
  6
CONTINUOUS
100
AcDb3dPolyline
 66
     1
 10
0.0
 20
0.0
 30
0.0
 70
     8
1001
ACAD
1000
R13OBJECT
1002
{
1005
6DB36
1002
}
  0
VERTEX
  5
6DB3B
100
AcDbEntity
  8
0
  6
CONTINUOUS
100
AcDbVertex
100
AcDb3dPolylineVertex
 10
0.00021
 20
0.3985
 30
2.058275
 70
    32
1001
ACAD
1000
R13OBJECT
1002
{
1005
6DB36
1002
}
  0
VERTEX
  5
6DB3C
100
AcDbEntity
  8
0
  6
CONTINUOUS
100
AcDbVertex
100
AcDb3dPolylineVertex
 10
1.76521
 20
0.3985
 30
2.058275
 70
    32
1001
ACAD
1000
R13OBJECT
1002
{
1005
6DB36
1002
}
  0
SEQEND
  5
6DB3D
100
AcDbEntity
  8
0
  6
CONTINUOUS
1001
ACAD
1000
R13OBJECT
1002
{
1005
6DB36
1002
}
  0
POLYLINE
  5
6DB3E
100
AcDbEntity
  8
0
  6
CONTINUOUS
100
AcDb3dPolyline
 66
     1
 10
0.0
 20
0.0
 30
0.0
 70
     8
1001
ACAD
1000
R13OBJECT
1002
{
1005
6DB36
1002
}
  0
VERTEX
  5
6DB3F
100
AcDbEntity
  8
0
  6
CONTINUOUS
100
AcDbVertex
100
AcDb3dPolylineVertex
 10
0.00021
 20
0.3985
 30
3.080275
 70
    32
1001
ACAD
1000
R13OBJECT
1002
{
1005
6DB36
1002
}
  0
VERTEX
  5
6DB40
100
AcDbEntity
  8
0
  6
CONTINUOUS
100
AcDbVertex
100
AcDb3dPolylineVertex
 10
0.00021
 20
0.3985
 30
2.058275
 70
    32
1001
ACAD
1000
R13OBJECT
1002
{
1005
6DB36
1002
}
  0
SEQEND
  5
6DB41
100
AcDbEntity
  8
0
  6
CONTINUOUS
1001
ACAD
1000
R13OBJECT
1002
{
1005
6DB36
1002
}
  0
POLYLINE
  5
6DB42
100
AcDbEntity
  8
0
  6
CONTINUOUS
100
AcDb3dPolyline
 66
     1
 10
0.0
 20
0.0
 30
0.0
 70
     8
1001
ACAD
1000
R13OBJECT
1002
{
1005
6DB36
1002
}
  0
VERTEX
  5
6DB43
100
AcDbEntity
  8
0
  6
CONTINUOUS
100
AcDbVertex
100
AcDb3dPolylineVertex
 10
1.76521
 20
0.3985
 30
3.080275
 70
    32
1001
ACAD
1000
R13OBJECT
1002
{
1005
6DB36
1002
}
  0
VERTEX
  5
6DB44
100
AcDbEntity
  8
0
  6
CONTINUOUS
100
AcDbVertex
100
AcDb3dPolylineVertex
 10
0.00021
 20
0.3985
 30
3.080275
 70
    32
1001
ACAD
1000
R13OBJECT
1002
{
1005
6DB36
1002
}
  0
SEQEND
  5
6DB45
100
AcDbEntity
  8
0
  6
CONTINUOUS
1001
ACAD
1000
R13OBJECT
1002
{
1005
6DB36
1002
}
  0
POLYLINE
  5
6DB46
100
AcDbEntity
  8
0
  6
CONTINUOUS
100
AcDb3dPolyline
 66
     1
 10
0.0
 20
0.0
 30
0.0
 70
     8
  0
VERTEX
  5
6DB47
100
AcDbEntity
  8
0
  6
CONTINUOUS
100
AcDbVertex
100
AcDb3dPolylineVertex
 10
1.76521
 20
-1.8455
 30
3.080275
 70
    32
1001
ACAD
1000
R13OBJECT
1002
{
1005
6DB46
1002
}
  0
VERTEX
  5
6DB48
100
AcDbEntity
  8
0
  6
CONTINUOUS
100
AcDbVertex
100
AcDb3dPolylineVertex
 10
1.76521
 20
-1.8455
 30
2.058275
 70
    32
1001
ACAD
1000
R13OBJECT
1002
{
1005
6DB46
1002
}
  0
SEQEND
  5
6DB49
100
AcDbEntity
  8
0
  6
CONTINUOUS
1001
ACAD
1000
R13OBJECT
1002
{
1005
6DB46
1002
}
  0
POLYLINE
  5
6DB4A
100
AcDbEntity
  8
0
  6
CONTINUOUS
100
AcDb3dPolyline
 66
     1
 10
0.0
 20
0.0
 30
0.0
 70
     8
1001
ACAD
1000
R13OBJECT
1002
{
1005
6DB46
1002
}
  0
VERTEX
  5
6DB4B
100
AcDbEntity
  8
0
  6
CONTINUOUS
100
AcDbVertex
100
AcDb3dPolylineVertex
 10
1.76521
 20
0.3985
 30
2.058275
 70
    32
1001
ACAD
1000
R13OBJECT
1002
{
1005
6DB46
1002
}
  0
VERTEX
  5
6DB4C
100
AcDbEntity
  8
0
  6
CONTINUOUS
100
AcDbVertex
100
AcDb3dPolylineVertex
 10
1.76521
 20
-1.8455
 30
2.058275
 70
    32
1001
ACAD
1000
R13OBJECT
1002
{
1005
6DB46
1002
}
  0
SEQEND
  5
6DB4D
100
AcDbEntity
  8
0
  6
CONTINUOUS
1001
ACAD
1000
R13OBJECT
1002
{
1005
6DB46
1002
}
  0
POLYLINE
  5
6DB4E
100
AcDbEntity
  8
0
  6
CONTINUOUS
100
AcDb3dPolyline
 66
     1
 10
0.0
 20
0.0
 30
0.0
 70
     8
1001
ACAD
1000
R13OBJECT
1002
{
1005
6DB46
1002
}
  0
VERTEX
  5
6DB4F
100
AcDbEntity
  8
0
  6
CONTINUOUS
100
AcDbVertex
100
AcDb3dPolylineVertex
 10
1.76521
 20
0.3985
 30
3.080275
 70
    32
1001
ACAD
1000
R13OBJECT
1002
{
1005
6DB46
1002
}
  0
VERTEX
  5
6DB50
100
AcDbEntity
  8
0
  6
CONTINUOUS
100
AcDbVertex
100
AcDb3dPolylineVertex
 10
1.76521
 20
0.3985
 30
2.058275
 70
    32
1001
ACAD
1000
R13OBJECT
1002
{
1005
6DB46
1002
}
  0
SEQEND
  5
6DB51
100
AcDbEntity
  8
0
  6
CONTINUOUS
1001
ACAD
1000
R13OBJECT
1002
{
1005
6DB46
1002
}
  0
POLYLINE
  5
6DB52
100
AcDbEntity
  8
0
  6
CONTINUOUS
100
AcDb3dPolyline
 66
     1
 10
0.0
 20
0.0
 30
0.0
 70
     8
1001
ACAD
1000
R13OBJECT
1002
{
1005
6DB46
1002
}
  0
VERTEX
  5
6DB53
100
AcDbEntity
  8
0
  6
CONTINUOUS
100
AcDbVertex
100
AcDb3dPolylineVertex
 10
1.76521
 20
-1.8455
 30
3.080275
 70
    32
1001
ACAD
1000
R13OBJECT
1002
{
1005
6DB46
1002
}
  0
VERTEX
  5
6DB54
100
AcDbEntity
  8
0
  6
CONTINUOUS
100
AcDbVertex
100
AcDb3dPolylineVertex
 10
1.76521
 20
0.3985
 30
3.080275
 70
    32
1001
ACAD
1000
R13OBJECT
1002
{
1005
6DB46
1002
}
  0
SEQEND
  5
6DB55
100
AcDbEntity
  8
0
  6
CONTINUOUS
1001
ACAD
1000
R13OBJECT
1002
{
1005
6DB46
1002
}
  0
LINE
  5
6DB56
100
AcDbEntity
  8
0
100
AcDbLine
 10
0.00021
 20
0.3985
 30
3.080275
 11
0.00021
 21
0.3985
 31
2.058275
210
-1.0
220
0.0
230
0.0
  0
LINE
  5
6DB57
100
AcDbEntity
  8
0
100
AcDbLine
 10
0.00021
 20
0.3985
 30
3.080275
 11
0.00021
 21
-1.8455
 31
3.080275
210
-1.0
220
0.0
230
0.0
  0
LINE
  5
6DB58
100
AcDbEntity
  8
0
100
AcDbLine
 10
0.00021
 20
-1.8455
 30
3.080275
 11
0.00021
 21
-1.8455
 31
2.058275
210
-1.0
220
0.0
230
0.0
  0
3DFACE
  5
6DB59
100
AcDbEntity
  8
0
100
AcDbFace
 10
1.76521
 20
0.3985
 30
3.080275
 11
1.76521
 21
-1.8455
 31
3.080275
 12
0.00021
 22
-1.8455
 32
3.080275
 13
0.00021
 23
0.3985
 33
3.080275
  0
POLYLINE
  5
6DB5A
100
AcDbEntity
  8
0
100
AcDbPolygonMesh
 66
     1
 10
0.0
 20
0.0
 30
0.0
 70
    16
 71
     6
 72
     3
  0
VERTEX
  5
6DB5B
100
AcDbEntity
  8
0
100
AcDbVertex
100
AcDbPolygonMeshVertex
 10
1.25071
 20
-0.439486
 30
3.291275
 70
    64
  0
VERTEX
  5
6DB5C
100
AcDbEntity
  8
0
100
AcDbVertex
100
AcDbPolygonMeshVertex
 10
1.25071
 20
-0.439486
 30
3.114275
 70
    64
  0
VERTEX
  5
6DB5D
100
AcDbEntity
  8
0
100
AcDbVertex
100
AcDbPolygonMeshVertex
 10
1.25071
 20
-0.439486
 30
3.114275
 70
    64
  0
VERTEX
  5
6DB5E
100
AcDbEntity
  8
0
100
AcDbVertex
100
AcDbPolygonMeshVertex
 10
1.08121
 20
-0.439486
 30
3.291275
 70
    64
  0
VERTEX
  5
6DB5F
100
AcDbEntity
  8
0
100
AcDbVertex
100
AcDbPolygonMeshVertex
 10
1.08121
 20
-0.439486
 30
3.114275
 70
    64
  0
VERTEX
  5
6DB60
100
AcDbEntity
  8
0
100
AcDbVertex
100
AcDbPolygonMeshVertex
 10
1.08121
 20
-0.439486
 30
3.114275
 70
    64
  0
VERTEX
  5
6DB61
100
AcDbEntity
  8
0
100
AcDbVertex
100
AcDbPolygonMeshVertex
 10
1.08121
 20
-0.086486
 30
3.291275
 70
    64
  0
VERTEX
  5
6DB62
100
AcDbEntity
  8
0
100
AcDbVertex
100
AcDbPolygonMeshVertex
 10
1.08121
 20
-0.086486
 30
3.114275
 70
    64
  0
VERTEX
  5
6DB63
100
AcDbEntity
  8
0
100
AcDbVertex
100
AcDbPolygonMeshVertex
 10
1.08121
 20
-0.439486
 30
3.114275
 70
    64
  0
VERTEX
  5
6DB64
100
AcDbEntity
  8
0
100
AcDbVertex
100
AcDbPolygonMeshVertex
 10
1.25071
 20
-0.086486
 30
3.291275
 70
    64
  0
VERTEX
  5
6DB65
100
AcDbEntity
  8
0
100
AcDbVertex
100
AcDbPolygonMeshVertex
 10
1.25071
 20
-0.086486
 30
3.114275
 70
    64
  0
VERTEX
  5
6DB66
100
AcDbEntity
  8
0
100
AcDbVertex
100
AcDbPolygonMeshVertex
 10
1.25071
 20
-0.439486
 30
3.114275
 70
    64
  0
VERTEX
  5
6DB67
100
AcDbEntity
  8
0
100
AcDbVertex
100
AcDbPolygonMeshVertex
 10
1.25071
 20
-0.086486
 30
3.291275
 70
    64
  0
VERTEX
  5
6DB68
100
AcDbEntity
  8
0
100
AcDbVertex
100
AcDbPolygonMeshVertex
 10
1.25071
 20
-0.086486
 30
3.291275
 70
    64
  0
VERTEX
  5
6DB69
100
AcDbEntity
  8
0
100
AcDbVertex
100
AcDbPolygonMeshVertex
 10
1.25071
 20
-0.439486
 30
3.291275
 70
    64
  0
VERTEX
  5
6DB6A
100
AcDbEntity
  8
0
100
AcDbVertex
100
AcDbPolygonMeshVertex
 10
1.08121
 20
-0.086486
 30
3.291275
 70
    64
  0
VERTEX
  5
6DB6B
100
AcDbEntity
  8
0
100
AcDbVertex
100
AcDbPolygonMeshVertex
 10
1.08121
 20
-0.086486
 30
3.291275
 70
    64
  0
VERTEX
  5
6DB6C
100
AcDbEntity
  8
0
100
AcDbVertex
100
AcDbPolygonMeshVertex
 10
1.08121
 20
-0.439486
 30
3.291275
 70
    64
  0
SEQEND
  5
6DB6D
100
AcDbEntity
  8
0
  0
POLYLINE
  5
6DB6E
100
AcDbEntity
  8
0
100
AcDbPolygonMesh
 66
     1
 10
0.0
 20
0.0
 30
0.0
 70
    16
 71
     6
 72
     3
  0
VERTEX
  5
6DB6F
100
AcDbEntity
  8
0
100
AcDbVertex
100
AcDbPolygonMeshVertex
 10
1.12271
 20
-0.894486
 30
3.330275
 70
    64
  0
VERTEX
  5
6DB70
100
AcDbEntity
  8
0
100
AcDbVertex
100
AcDbPolygonMeshVertex
 10
1.12271
 20
-0.894486
 30
3.114275
 70
    64
  0
VERTEX
  5
6DB71
100
AcDbEntity
  8
0
100
AcDbVertex
100
AcDbPolygonMeshVertex
 10
1.12271
 20
-0.894486
 30
3.114275
 70
    64
  0
VERTEX
  5
6DB72
100
AcDbEntity
  8
0
100
AcDbVertex
100
AcDbPolygonMeshVertex
 10
0.98771
 20
-0.894486
 30
3.330275
 70
    64
  0
VERTEX
  5
6DB73
100
AcDbEntity
  8
0
100
AcDbVertex
100
AcDbPolygonMeshVertex
 10
0.98771
 20
-0.894486
 30
3.114275
 70
    64
  0
VERTEX
  5
6DB74
100
AcDbEntity
  8
0
100
AcDbVertex
100
AcDbPolygonMeshVertex
 10
0.98771
 20
-0.894486
 30
3.114275
 70
    64
  0
VERTEX
  5
6DB75
100
AcDbEntity
  8
0
100
AcDbVertex
100
AcDbPolygonMeshVertex
 10
0.98771
 20
-0.549486
 30
3.330275
 70
    64
  0
VERTEX
  5
6DB76
100
AcDbEntity
  8
0
100
AcDbVertex
100
AcDbPolygonMeshVertex
 10
0.98771
 20
-0.549486
 30
3.114275
 70
    64
  0
VERTEX
  5
6DB77
100
AcDbEntity
  8
0
100
AcDbVertex
100
AcDbPolygonMeshVertex
 10
0.98771
 20
-0.894486
 30
3.114275
 70
    64
  0
VERTEX
  5
6DB78
100
AcDbEntity
  8
0
100
AcDbVertex
100
AcDbPolygonMeshVertex
 10
1.12271
 20
-0.549486
 30
3.330275
 70
    64
  0
VERTEX
  5
6DB79
100
AcDbEntity
  8
0
100
AcDbVertex
100
AcDbPolygonMeshVertex
 10
1.12271
 20
-0.549486
 30
3.114275
 70
    64
  0
VERTEX
  5
6DB7A
100
AcDbEntity
  8
0
100
AcDbVertex
100
AcDbPolygonMeshVertex
 10
1.12271
 20
-0.894486
 30
3.114275
 70
    64
  0
VERTEX
  5
6DB7B
100
AcDbEntity
  8
0
100
AcDbVertex
100
AcDbPolygonMeshVertex
 10
1.12271
 20
-0.549486
 30
3.330275
 70
    64
  0
VERTEX
  5
6DB7C
100
AcDbEntity
  8
0
100
AcDbVertex
100
AcDbPolygonMeshVertex
 10
1.12271
 20
-0.549486
 30
3.330275
 70
    64
  0
VERTEX
  5
6DB7D
100
AcDbEntity
  8
0
100
AcDbVertex
100
AcDbPolygonMeshVertex
 10
1.12271
 20
-0.894486
 30
3.330275
 70
    64
  0
VERTEX
  5
6DB7E
100
AcDbEntity
  8
0
100
AcDbVertex
100
AcDbPolygonMeshVertex
 10
0.98771
 20
-0.549486
 30
3.330275
 70
    64
  0
VERTEX
  5
6DB7F
100
AcDbEntity
  8
0
100
AcDbVertex
100
AcDbPolygonMeshVertex
 10
0.98771
 20
-0.549486
 30
3.330275
 70
    64
  0
VERTEX
  5
6DB80
100
AcDbEntity
  8
0
100
AcDbVertex
100
AcDbPolygonMeshVertex
 10
0.98771
 20
-0.894486
 30
3.330275
 70
    64
  0
SEQEND
  5
6DB81
100
AcDbEntity
  8
0
  0
3DFACE
  5
6DB82
100
AcDbEntity
  8
0
100
AcDbFace
 10
1.76521
 20
0.3985
 30
3.080275
 11
1.76521
 21
0.3985
 31
3.080275
 12
0.00021
 22
0.3985
 32
3.080275
 13
0.00021
 23
0.3985
 33
3.080275
  0
CIRCLE
  5
6DB83
100
AcDbEntity
  8
0
100
AcDbCircle
 10
0.238085
 20
0.154908
 30
3.080275
 40
0.138
  0
TEXT
  5
6DB84
100
AcDbEntity
  8
0
100
AcDbText
 10
0.072628
 20
0.301596
 30
3.080275
 40
0.083465
  1
11
100
AcDbText
  0
TEXT
  5
6DB85
100
AcDbEntity
  8
0
100
AcDbText
 10
1.134415
 20
0.304736
 30
3.080275
 40
0.083465
  1
NC
100
AcDbText
  0
CIRCLE
  5
6DB86
100
AcDbEntity
  8
0
100
AcDbCircle
 10
0.667835
 20
0.154908
 30
3.080275
 40
0.138
  0
TEXT
  5
6DB87
100
AcDbEntity
  8
0
100
AcDbText
 10
0.712799
 20
0.301324
 30
3.080275
 40
0.083465
  1
NC
100
AcDbText
  0
TEXT
  5
6DB88
100
AcDbEntity
  8
0
100
AcDbText
 10
0.286175
 20
0.300754
 30
3.080275
 40
0.083465
  1
NC
100
AcDbText
  0
TEXT
  5
6DB89
100
AcDbEntity
  8
0
100
AcDbText
 10
0.523379
 20
0.299912
 30
3.080275
 40
0.083465
  1
21
100
AcDbText
  0
TEXT
  5
6DB8A
100
AcDbEntity
  8
0
100
AcDbText
 10
0.964913
 20
0.302735
 30
3.080275
 40
0.083465
  1
31
100
AcDbText
  0
CIRCLE
  5
6DB8B
100
AcDbEntity
  8
0
100
AcDbCircle
 10
1.097585
 20
0.154908
 30
3.080275
 40
0.138
  0
TEXT
  5
6DB8C
100
AcDbEntity
  8
0
100
AcDbText
 10
1.599327
 20
0.304736
 30
3.080275
 40
0.083465
  1
NC
100
AcDbText
  0
TEXT
  5
6DB8D
100
AcDbEntity
  8
0
100
AcDbText
 10
1.370118
 20
0.302735
 30
3.080275
 40
0.083465
  1
41
100
AcDbText
  0
CIRCLE
  5
6DB8E
100
AcDbEntity
  8
0
100
AcDbCircle
 10
1.527335
 20
0.154908
 30
3.080275
 40
0.138
  0
POLYLINE
  5
6DB8F
100
AcDbEntity
  8
0
100
AcDbPolygonMesh
 66
     1
 10
0.0
 20
0.0
 30
0.0
 70
    16
 71
     6
 72
     3
  0
VERTEX
  5
6DB90
100
AcDbEntity
  8
0
100
AcDbVertex
100
AcDbPolygonMeshVertex
 10
1.27071
 20
-1.376486
 30
3.280275
 70
    64
  0
VERTEX
  5
6DB91
100
AcDbEntity
  8
0
100
AcDbVertex
100
AcDbPolygonMeshVertex
 10
1.27071
 20
-1.376486
 30
3.080275
 70
    64
  0
VERTEX
  5
6DB92
100
AcDbEntity
  8
0
100
AcDbVertex
100
AcDbPolygonMeshVertex
 10
1.27071
 20
-1.376486
 30
3.080275
 70
    64
  0
VERTEX
  5
6DB93
100
AcDbEntity
  8
0
100
AcDbVertex
100
AcDbPolygonMeshVertex
 10
0.49971
 20
-1.376486
 30
3.280275
 70
    64
  0
VERTEX
  5
6DB94
100
AcDbEntity
  8
0
100
AcDbVertex
100
AcDbPolygonMeshVertex
 10
0.49971
 20
-1.376486
 30
3.080275
 70
    64
  0
VERTEX
  5
6DB95
100
AcDbEntity
  8
0
100
AcDbVertex
100
AcDbPolygonMeshVertex
 10
0.49971
 20
-1.376486
 30
3.080275
 70
    64
  0
VERTEX
  5
6DB96
100
AcDbEntity
  8
0
100
AcDbVertex
100
AcDbPolygonMeshVertex
 10
0.49971
 20
-1.094486
 30
3.280275
 70
    64
  0
VERTEX
  5
6DB97
100
AcDbEntity
  8
0
100
AcDbVertex
100
AcDbPolygonMeshVertex
 10
0.49971
 20
-1.094486
 30
3.080275
 70
    64
  0
VERTEX
  5
6DB98
100
AcDbEntity
  8
0
100
AcDbVertex
100
AcDbPolygonMeshVertex
 10
0.49971
 20
-1.376486
 30
3.080275
 70
    64
  0
VERTEX
  5
6DB99
100
AcDbEntity
  8
0
100
AcDbVertex
100
AcDbPolygonMeshVertex
 10
1.27071
 20
-1.094486
 30
3.280275
 70
    64
  0
VERTEX
  5
6DB9A
100
AcDbEntity
  8
0
100
AcDbVertex
100
AcDbPolygonMeshVertex
 10
1.27071
 20
-1.094486
 30
3.080275
 70
    64
  0
VERTEX
  5
6DB9B
100
AcDbEntity
  8
0
100
AcDbVertex
100
AcDbPolygonMeshVertex
 10
1.27071
 20
-1.376486
 30
3.080275
 70
    64
  0
VERTEX
  5
6DB9C
100
AcDbEntity
  8
0
100
AcDbVertex
100
AcDbPolygonMeshVertex
 10
1.27071
 20
-1.094486
 30
3.280275
 70
    64
  0
VERTEX
  5
6DB9D
100
AcDbEntity
  8
0
100
AcDbVertex
100
AcDbPolygonMeshVertex
 10
1.27071
 20
-1.094486
 30
3.280275
 70
    64
  0
VERTEX
  5
6DB9E
100
AcDbEntity
  8
0
100
AcDbVertex
100
AcDbPolygonMeshVertex
 10
1.27071
 20
-1.376486
 30
3.280275
 70
    64
  0
VERTEX
  5
6DB9F
100
AcDbEntity
  8
0
100
AcDbVertex
100
AcDbPolygonMeshVertex
 10
0.49971
 20
-1.094486
 30
3.280275
 70
    64
  0
VERTEX
  5
6DBA0
100
AcDbEntity
  8
0
100
AcDbVertex
100
AcDbPolygonMeshVertex
 10
0.49971
 20
-1.094486
 30
3.280275
 70
    64
  0
VERTEX
  5
6DBA1
100
AcDbEntity
  8
0
100
AcDbVertex
100
AcDbPolygonMeshVertex
 10
0.49971
 20
-1.376486
 30
3.280275
 70
    64
  0
SEQEND
  5
6DBA2
100
AcDbEntity
  8
0
  0
POLYLINE
  5
6DBA3
100
AcDbEntity
  8
0
100
AcDbPolygonMesh
 66
     1
 10
0.0
 20
0.0
 30
0.0
 70
    16
 71
     6
 72
     3
  0
VERTEX
  5
6DBA4
100
AcDbEntity
  8
0
100
AcDbVertex
100
AcDbPolygonMeshVertex
 10
1.25071
 20
-0.439486
 30
3.114275
 70
    64
  0
VERTEX
  5
6DBA5
100
AcDbEntity
  8
0
100
AcDbVertex
100
AcDbPolygonMeshVertex
 10
1.25071
 20
-0.439486
 30
3.080275
 70
    64
  0
VERTEX
  5
6DBA6
100
AcDbEntity
  8
0
100
AcDbVertex
100
AcDbPolygonMeshVertex
 10
1.25071
 20
-0.439486
 30
3.080275
 70
    64
  0
VERTEX
  5
6DBA7
100
AcDbEntity
  8
0
100
AcDbVertex
100
AcDbPolygonMeshVertex
 10
0.51971
 20
-0.439486
 30
3.114275
 70
    64
  0
VERTEX
  5
6DBA8
100
AcDbEntity
  8
0
100
AcDbVertex
100
AcDbPolygonMeshVertex
 10
0.51971
 20
-0.439486
 30
3.080275
 70
    64
  0
VERTEX
  5
6DBA9
100
AcDbEntity
  8
0
100
AcDbVertex
100
AcDbPolygonMeshVertex
 10
0.51971
 20
-0.439486
 30
3.080275
 70
    64
  0
VERTEX
  5
6DBAA
100
AcDbEntity
  8
0
100
AcDbVertex
100
AcDbPolygonMeshVertex
 10
0.51971
 20
-0.086486
 30
3.114275
 70
    64
  0
VERTEX
  5
6DBAB
100
AcDbEntity
  8
0
100
AcDbVertex
100
AcDbPolygonMeshVertex
 10
0.51971
 20
-0.086486
 30
3.080275
 70
    64
  0
VERTEX
  5
6DBAC
100
AcDbEntity
  8
0
100
AcDbVertex
100
AcDbPolygonMeshVertex
 10
0.51971
 20
-0.439486
 30
3.080275
 70
    64
  0
VERTEX
  5
6DBAD
100
AcDbEntity
  8
0
100
AcDbVertex
100
AcDbPolygonMeshVertex
 10
1.25071
 20
-0.086486
 30
3.114275
 70
    64
  0
VERTEX
  5
6DBAE
100
AcDbEntity
  8
0
100
AcDbVertex
100
AcDbPolygonMeshVertex
 10
1.25071
 20
-0.086486
 30
3.080275
 70
    64
  0
VERTEX
  5
6DBAF
100
AcDbEntity
  8
0
100
AcDbVertex
100
AcDbPolygonMeshVertex
 10
1.25071
 20
-0.439486
 30
3.080275
 70
    64
  0
VERTEX
  5
6DBB0
100
AcDbEntity
  8
0
100
AcDbVertex
100
AcDbPolygonMeshVertex
 10
1.25071
 20
-0.086486
 30
3.114275
 70
    64
  0
VERTEX
  5
6DBB1
100
AcDbEntity
  8
0
100
AcDbVertex
100
AcDbPolygonMeshVertex
 10
1.25071
 20
-0.086486
 30
3.114275
 70
    64
  0
VERTEX
  5
6DBB2
100
AcDbEntity
  8
0
100
AcDbVertex
100
AcDbPolygonMeshVertex
 10
1.25071
 20
-0.439486
 30
3.114275
 70
    64
  0
VERTEX
  5
6DBB3
100
AcDbEntity
  8
0
100
AcDbVertex
100
AcDbPolygonMeshVertex
 10
0.51971
 20
-0.086486
 30
3.114275
 70
    64
  0
VERTEX
  5
6DBB4
100
AcDbEntity
  8
0
100
AcDbVertex
100
AcDbPolygonMeshVertex
 10
0.51971
 20
-0.086486
 30
3.114275
 70
    64
  0
VERTEX
  5
6DBB5
100
AcDbEntity
  8
0
100
AcDbVertex
100
AcDbPolygonMeshVertex
 10
0.51971
 20
-0.439486
 30
3.114275
 70
    64
  0
SEQEND
  5
6DBB6
100
AcDbEntity
  8
0
  0
POLYLINE
  5
6DBB7
100
AcDbEntity
  8
0
100
AcDbPolygonMesh
 66
     1
 10
0.0
 20
0.0
 30
0.0
 70
    16
 71
     6
 72
     3
  0
VERTEX
  5
6DBB8
100
AcDbEntity
  8
0
100
AcDbVertex
100
AcDbPolygonMeshVertex
 10
0.68921
 20
-0.439486
 30
3.291275
 70
    64
  0
VERTEX
  5
6DBB9
100
AcDbEntity
  8
0
100
AcDbVertex
100
AcDbPolygonMeshVertex
 10
0.68921
 20
-0.439486
 30
3.114275
 70
    64
  0
VERTEX
  5
6DBBA
100
AcDbEntity
  8
0
100
AcDbVertex
100
AcDbPolygonMeshVertex
 10
0.68921
 20
-0.439486
 30
3.114275
 70
    64
  0
VERTEX
  5
6DBBB
100
AcDbEntity
  8
0
100
AcDbVertex
100
AcDbPolygonMeshVertex
 10
0.51971
 20
-0.439486
 30
3.291275
 70
    64
  0
VERTEX
  5
6DBBC
100
AcDbEntity
  8
0
100
AcDbVertex
100
AcDbPolygonMeshVertex
 10
0.51971
 20
-0.439486
 30
3.114275
 70
    64
  0
VERTEX
  5
6DBBD
100
AcDbEntity
  8
0
100
AcDbVertex
100
AcDbPolygonMeshVertex
 10
0.51971
 20
-0.439486
 30
3.114275
 70
    64
  0
VERTEX
  5
6DBBE
100
AcDbEntity
  8
0
100
AcDbVertex
100
AcDbPolygonMeshVertex
 10
0.51971
 20
-0.086486
 30
3.291275
 70
    64
  0
VERTEX
  5
6DBBF
100
AcDbEntity
  8
0
100
AcDbVertex
100
AcDbPolygonMeshVertex
 10
0.51971
 20
-0.086486
 30
3.114275
 70
    64
  0
VERTEX
  5
6DBC0
100
AcDbEntity
  8
0
100
AcDbVertex
100
AcDbPolygonMeshVertex
 10
0.51971
 20
-0.439486
 30
3.114275
 70
    64
  0
VERTEX
  5
6DBC1
100
AcDbEntity
  8
0
100
AcDbVertex
100
AcDbPolygonMeshVertex
 10
0.68921
 20
-0.086486
 30
3.291275
 70
    64
  0
VERTEX
  5
6DBC2
100
AcDbEntity
  8
0
100
AcDbVertex
100
AcDbPolygonMeshVertex
 10
0.68921
 20
-0.086486
 30
3.114275
 70
    64
  0
VERTEX
  5
6DBC3
100
AcDbEntity
  8
0
100
AcDbVertex
100
AcDbPolygonMeshVertex
 10
0.68921
 20
-0.439486
 30
3.114275
 70
    64
  0
VERTEX
  5
6DBC4
100
AcDbEntity
  8
0
100
AcDbVertex
100
AcDbPolygonMeshVertex
 10
0.68921
 20
-0.086486
 30
3.291275
 70
    64
  0
VERTEX
  5
6DBC5
100
AcDbEntity
  8
0
100
AcDbVertex
100
AcDbPolygonMeshVertex
 10
0.68921
 20
-0.086486
 30
3.291275
 70
    64
  0
VERTEX
  5
6DBC6
100
AcDbEntity
  8
0
100
AcDbVertex
100
AcDbPolygonMeshVertex
 10
0.68921
 20
-0.439486
 30
3.291275
 70
    64
  0
VERTEX
  5
6DBC7
100
AcDbEntity
  8
0
100
AcDbVertex
100
AcDbPolygonMeshVertex
 10
0.51971
 20
-0.086486
 30
3.291275
 70
    64
  0
VERTEX
  5
6DBC8
100
AcDbEntity
  8
0
100
AcDbVertex
100
AcDbPolygonMeshVertex
 10
0.51971
 20
-0.086486
 30
3.291275
 70
    64
  0
VERTEX
  5
6DBC9
100
AcDbEntity
  8
0
100
AcDbVertex
100
AcDbPolygonMeshVertex
 10
0.51971
 20
-0.439486
 30
3.291275
 70
    64
  0
SEQEND
  5
6DBCA
100
AcDbEntity
  8
0
  0
POLYLINE
  5
6DBCB
100
AcDbEntity
  8
0
100
AcDbPolygonMesh
 66
     1
 10
0.0
 20
0.0
 30
0.0
 70
    16
 71
     6
 72
     3
  0
VERTEX
  5
6DBCC
100
AcDbEntity
  8
0
100
AcDbVertex
100
AcDbPolygonMeshVertex
 10
0.78271
 20
-0.894486
 30
3.330275
 70
    64
  0
VERTEX
  5
6DBCD
100
AcDbEntity
  8
0
100
AcDbVertex
100
AcDbPolygonMeshVertex
 10
0.78271
 20
-0.894486
 30
3.114275
 70
    64
  0
VERTEX
  5
6DBCE
100
AcDbEntity
  8
0
100
AcDbVertex
100
AcDbPolygonMeshVertex
 10
0.78271
 20
-0.894486
 30
3.114275
 70
    64
  0
VERTEX
  5
6DBCF
100
AcDbEntity
  8
0
100
AcDbVertex
100
AcDbPolygonMeshVertex
 10
0.64771
 20
-0.894486
 30
3.330275
 70
    64
  0
VERTEX
  5
6DBD0
100
AcDbEntity
  8
0
100
AcDbVertex
100
AcDbPolygonMeshVertex
 10
0.64771
 20
-0.894486
 30
3.114275
 70
    64
  0
VERTEX
  5
6DBD1
100
AcDbEntity
  8
0
100
AcDbVertex
100
AcDbPolygonMeshVertex
 10
0.64771
 20
-0.894486
 30
3.114275
 70
    64
  0
VERTEX
  5
6DBD2
100
AcDbEntity
  8
0
100
AcDbVertex
100
AcDbPolygonMeshVertex
 10
0.64771
 20
-0.549486
 30
3.330275
 70
    64
  0
VERTEX
  5
6DBD3
100
AcDbEntity
  8
0
100
AcDbVertex
100
AcDbPolygonMeshVertex
 10
0.64771
 20
-0.549486
 30
3.114275
 70
    64
  0
VERTEX
  5
6DBD4
100
AcDbEntity
  8
0
100
AcDbVertex
100
AcDbPolygonMeshVertex
 10
0.64771
 20
-0.894486
 30
3.114275
 70
    64
  0
VERTEX
  5
6DBD5
100
AcDbEntity
  8
0
100
AcDbVertex
100
AcDbPolygonMeshVertex
 10
0.78271
 20
-0.549486
 30
3.330275
 70
    64
  0
VERTEX
  5
6DBD6
100
AcDbEntity
  8
0
100
AcDbVertex
100
AcDbPolygonMeshVertex
 10
0.78271
 20
-0.549486
 30
3.114275
 70
    64
  0
VERTEX
  5
6DBD7
100
AcDbEntity
  8
0
100
AcDbVertex
100
AcDbPolygonMeshVertex
 10
0.78271
 20
-0.894486
 30
3.114275
 70
    64
  0
VERTEX
  5
6DBD8
100
AcDbEntity
  8
0
100
AcDbVertex
100
AcDbPolygonMeshVertex
 10
0.78271
 20
-0.549486
 30
3.330275
 70
    64
  0
VERTEX
  5
6DBD9
100
AcDbEntity
  8
0
100
AcDbVertex
100
AcDbPolygonMeshVertex
 10
0.78271
 20
-0.549486
 30
3.330275
 70
    64
  0
VERTEX
  5
6DBDA
100
AcDbEntity
  8
0
100
AcDbVertex
100
AcDbPolygonMeshVertex
 10
0.78271
 20
-0.894486
 30
3.330275
 70
    64
  0
VERTEX
  5
6DBDB
100
AcDbEntity
  8
0
100
AcDbVertex
100
AcDbPolygonMeshVertex
 10
0.64771
 20
-0.549486
 30
3.330275
 70
    64
  0
VERTEX
  5
6DBDC
100
AcDbEntity
  8
0
100
AcDbVertex
100
AcDbPolygonMeshVertex
 10
0.64771
 20
-0.549486
 30
3.330275
 70
    64
  0
VERTEX
  5
6DBDD
100
AcDbEntity
  8
0
100
AcDbVertex
100
AcDbPolygonMeshVertex
 10
0.64771
 20
-0.894486
 30
3.330275
 70
    64
  0
SEQEND
  5
6DBDE
100
AcDbEntity
  8
0
  0
TEXT
  5
6DBDF
100
AcDbEntity
  8
0
100
AcDbText
 10
0.528717
 20
-1.819571
 30
3.080275
 40
0.083465
  1
22
100
AcDbText
  0
TEXT
  5
6DBE0
100
AcDbEntity
  8
0
100
AcDbText
 10
0.71763
 20
-1.820413
 30
3.080275
 40
0.083465
  1
NC
100
AcDbText
  0
POLYLINE
  5
6DBE1
100
AcDbEntity
  8
0
100
AcDbPolygonMesh
 66
     1
 10
0.0
 20
0.0
 30
0.0
 70
    16
 71
     6
 72
     3
  0
VERTEX
  5
6DBE2
100
AcDbEntity
  8
0
100
AcDbVertex
100
AcDbPolygonMeshVertex
 10
1.12271
 20
-0.894486
 30
3.114275
 70
    64
  0
VERTEX
  5
6DBE3
100
AcDbEntity
  8
0
100
AcDbVertex
100
AcDbPolygonMeshVertex
 10
1.12271
 20
-0.894486
 30
3.080275
 70
    64
  0
VERTEX
  5
6DBE4
100
AcDbEntity
  8
0
100
AcDbVertex
100
AcDbPolygonMeshVertex
 10
1.12271
 20
-0.894486
 30
3.080275
 70
    64
  0
VERTEX
  5
6DBE5
100
AcDbEntity
  8
0
100
AcDbVertex
100
AcDbPolygonMeshVertex
 10
0.64771
 20
-0.894486
 30
3.114275
 70
    64
  0
VERTEX
  5
6DBE6
100
AcDbEntity
  8
0
100
AcDbVertex
100
AcDbPolygonMeshVertex
 10
0.64771
 20
-0.894486
 30
3.080275
 70
    64
  0
VERTEX
  5
6DBE7
100
AcDbEntity
  8
0
100
AcDbVertex
100
AcDbPolygonMeshVertex
 10
0.64771
 20
-0.894486
 30
3.080275
 70
    64
  0
VERTEX
  5
6DBE8
100
AcDbEntity
  8
0
100
AcDbVertex
100
AcDbPolygonMeshVertex
 10
0.64771
 20
-0.549486
 30
3.114275
 70
    64
  0
VERTEX
  5
6DBE9
100
AcDbEntity
  8
0
100
AcDbVertex
100
AcDbPolygonMeshVertex
 10
0.64771
 20
-0.549486
 30
3.080275
 70
    64
  0
VERTEX
  5
6DBEA
100
AcDbEntity
  8
0
100
AcDbVertex
100
AcDbPolygonMeshVertex
 10
0.64771
 20
-0.894486
 30
3.080275
 70
    64
  0
VERTEX
  5
6DBEB
100
AcDbEntity
  8
0
100
AcDbVertex
100
AcDbPolygonMeshVertex
 10
1.12271
 20
-0.549486
 30
3.114275
 70
    64
  0
VERTEX
  5
6DBEC
100
AcDbEntity
  8
0
100
AcDbVertex
100
AcDbPolygonMeshVertex
 10
1.12271
 20
-0.549486
 30
3.080275
 70
    64
  0
VERTEX
  5
6DBED
100
AcDbEntity
  8
0
100
AcDbVertex
100
AcDbPolygonMeshVertex
 10
1.12271
 20
-0.894486
 30
3.080275
 70
    64
  0
VERTEX
  5
6DBEE
100
AcDbEntity
  8
0
100
AcDbVertex
100
AcDbPolygonMeshVertex
 10
1.12271
 20
-0.549486
 30
3.114275
 70
    64
  0
VERTEX
  5
6DBEF
100
AcDbEntity
  8
0
100
AcDbVertex
100
AcDbPolygonMeshVertex
 10
1.12271
 20
-0.549486
 30
3.114275
 70
    64
  0
VERTEX
  5
6DBF0
100
AcDbEntity
  8
0
100
AcDbVertex
100
AcDbPolygonMeshVertex
 10
1.12271
 20
-0.894486
 30
3.114275
 70
    64
  0
VERTEX
  5
6DBF1
100
AcDbEntity
  8
0
100
AcDbVertex
100
AcDbPolygonMeshVertex
 10
0.64771
 20
-0.549486
 30
3.114275
 70
    64
  0
VERTEX
  5
6DBF2
100
AcDbEntity
  8
0
100
AcDbVertex
100
AcDbPolygonMeshVertex
 10
0.64771
 20
-0.549486
 30
3.114275
 70
    64
  0
VERTEX
  5
6DBF3
100
AcDbEntity
  8
0
100
AcDbVertex
100
AcDbPolygonMeshVertex
 10
0.64771
 20
-0.894486
 30
3.114275
 70
    64
  0
SEQEND
  5
6DBF4
100
AcDbEntity
  8
0
  0
TEXT
  5
6DBF5
100
AcDbEntity
  8
0
100
AcDbText
 10
0.932671
 20
-1.819002
 30
3.080275
 40
0.083465
  1
32
100
AcDbText
  0
TEXT
  5
6DBF6
100
AcDbEntity
  8
0
100
AcDbText
 10
0.284838
 20
-1.817525
 30
3.080275
 40
0.083465
  1
NC
100
AcDbText
  0
CIRCLE
  5
6DBF7
100
AcDbEntity
  8
0
100
AcDbCircle
 10
0.238085
 20
-1.58788
 30
3.080275
 40
0.138
  0
TEXT
  5
6DBF8
100
AcDbEntity
  8
0
100
AcDbText
 10
0.080569
 20
-1.821552
 30
3.080275
 40
0.083465
  1
12
100
AcDbText
  0
TEXT
  5
6DBF9
100
AcDbEntity
  8
0
100
AcDbText
 10
1.598505
 20
-1.819002
 30
3.080275
 40
0.083465
  1
NC
100
AcDbText
  0
TEXT
  5
6DBFA
100
AcDbEntity
  8
0
100
AcDbText
 10
1.398533
 20
-1.820413
 30
3.080275
 40
0.083465
  1
42
100
AcDbText
  0
LWPOLYLINE
  5
6DBFB
100
AcDbEntity
  8
0
100
AcDbPolyline
 90
        2
 70
     0
 43
0.0
 38
2.058275
 10
0.00021
 20
-1.8455
 10
0.00021
 20
0.3985
  0
POLYLINE
  5
6DBFC
100
AcDbEntity
  8
0
100
AcDbPolygonMesh
 66
     1
 10
0.0
 20
0.0
 30
0.0
 70
    16
 71
     6
 72
     3
  0
VERTEX
  5
6DBFD
100
AcDbEntity
  8
0
100
AcDbVertex
100
AcDbPolygonMeshVertex
 10
1.76521
 20
-1.8455
 30
3.080275
 70
    64
  0
VERTEX
  5
6DBFE
100
AcDbEntity
  8
0
100
AcDbVertex
100
AcDbPolygonMeshVertex
 10
1.76521
 20
-1.8455
 30
2.058275
 70
    64
  0
VERTEX
  5
6DBFF
100
AcDbEntity
  8
0
100
AcDbVertex
100
AcDbPolygonMeshVertex
 10
1.76521
 20
-1.8455
 30
2.058275
 70
    64
  0
VERTEX
  5
6DC00
100
AcDbEntity
  8
0
100
AcDbVertex
100
AcDbPolygonMeshVertex
 10
0.00021
 20
-1.8455
 30
3.080275
 70
    64
  0
VERTEX
  5
6DC01
100
AcDbEntity
  8
0
100
AcDbVertex
100
AcDbPolygonMeshVertex
 10
0.00021
 20
-1.8455
 30
2.058275
 70
    64
  0
VERTEX
  5
6DC02
100
AcDbEntity
  8
0
100
AcDbVertex
100
AcDbPolygonMeshVertex
 10
0.00021
 20
-1.8455
 30
2.058275
 70
    64
  0
VERTEX
  5
6DC03
100
AcDbEntity
  8
0
100
AcDbVertex
100
AcDbPolygonMeshVertex
 10
0.00021
 20
0.3985
 30
3.080275
 70
    64
  0
VERTEX
  5
6DC04
100
AcDbEntity
  8
0
100
AcDbVertex
100
AcDbPolygonMeshVertex
 10
0.00021
 20
0.3985
 30
2.058275
 70
    64
  0
VERTEX
  5
6DC05
100
AcDbEntity
  8
0
100
AcDbVertex
100
AcDbPolygonMeshVertex
 10
0.00021
 20
-1.8455
 30
2.058275
 70
    64
  0
VERTEX
  5
6DC06
100
AcDbEntity
  8
0
100
AcDbVertex
100
AcDbPolygonMeshVertex
 10
1.76521
 20
0.3985
 30
3.080275
 70
    64
  0
VERTEX
  5
6DC07
100
AcDbEntity
  8
0
100
AcDbVertex
100
AcDbPolygonMeshVertex
 10
1.76521
 20
0.3985
 30
2.058275
 70
    64
  0
VERTEX
  5
6DC08
100
AcDbEntity
  8
0
100
AcDbVertex
100
AcDbPolygonMeshVertex
 10
1.76521
 20
-1.8455
 30
2.058275
 70
    64
  0
VERTEX
  5
6DC09
100
AcDbEntity
  8
0
100
AcDbVertex
100
AcDbPolygonMeshVertex
 10
1.76521
 20
0.3985
 30
3.080275
 70
    64
  0
VERTEX
  5
6DC0A
100
AcDbEntity
  8
0
100
AcDbVertex
100
AcDbPolygonMeshVertex
 10
1.76521
 20
0.3985
 30
3.080275
 70
    64
  0
VERTEX
  5
6DC0B
100
AcDbEntity
  8
0
100
AcDbVertex
100
AcDbPolygonMeshVertex
 10
1.76521
 20
-1.8455
 30
3.080275
 70
    64
  0
VERTEX
  5
6DC0C
100
AcDbEntity
  8
0
100
AcDbVertex
100
AcDbPolygonMeshVertex
 10
0.00021
 20
0.3985
 30
3.080275
 70
    64
  0
VERTEX
  5
6DC0D
100
AcDbEntity
  8
0
100
AcDbVertex
100
AcDbPolygonMeshVertex
 10
0.00021
 20
0.3985
 30
3.080275
 70
    64
  0
VERTEX
  5
6DC0E
100
AcDbEntity
  8
0
100
AcDbVertex
100
AcDbPolygonMeshVertex
 10
0.00021
 20
-1.8455
 30
3.080275
 70
    64
  0
SEQEND
  5
6DC0F
100
AcDbEntity
  8
0
  0
POLYLINE
  5
6DC10
100
AcDbEntity
  8
0
100
AcDb3dPolyline
 66
     1
 10
0.0
 20
0.0
 30
0.0
 70
     8
  0
VERTEX
  5
6DC11
100
AcDbEntity
  8
0
100
AcDbVertex
100
AcDb3dPolylineVertex
 10
1.765421
 20
-0.6405
 30
1.590275
 70
    32
  0
VERTEX
  5
6DC12
100
AcDbEntity
  8
0
100
AcDbVertex
100
AcDb3dPolylineVertex
 10
1.765421
 20
-0.6405
 30
2.163275
 70
    32
  0
VERTEX
  5
6DC13
100
AcDbEntity
  8
0
100
AcDbVertex
100
AcDb3dPolylineVertex
 10
1.765421
 20
-0.8065
 30
2.163275
 70
    32
  0
VERTEX
  5
6DC14
100
AcDbEntity
  8
0
100
AcDbVertex
100
AcDb3dPolylineVertex
 10
1.765421
 20
-0.8065
 30
1.590275
 70
    32
  0
VERTEX
  5
6DC15
100
AcDbEntity
  8
0
100
AcDbVertex
100
AcDb3dPolylineVertex
 10
1.765421
 20
-0.6405
 30
1.590275
 70
    32
  0
SEQEND
  5
6DC16
100
AcDbEntity
  8
0
  0
LINE
  5
6DC17
100
AcDbEntity
  8
0
100
AcDbLine
 10
1.765421
 20
-0.8065
 30
1.876775
 11
1.765421
 21
-0.6405
 31
1.876775
  0
LINE
  5
6DC18
100
AcDbEntity
  8
0
100
AcDbLine
 10
1.765421
 20
-0.8065
 30
2.066775
 11
1.765421
 21
-0.6405
 31
2.066775
  0
POINT
  5
6DC19
100
AcDbEntity
  8
SNAP_POINTS
100
AcDbPoint
 10
0.88521
 20
-0.721986
 30
3.114275
  0
POINT
  5
6DC1A
100
AcDbEntity
  8
SNAP_POINTS
100
AcDbPoint
 10
0.0
 20
-0.7735
 30
2.066775
  0
POINT
  5
6DC1B
100
AcDbEntity
  8
SNAP_POINTS
100
AcDbPoint
 10
1.765421
 20
-0.6735
 30
2.066775
  0
LINE
  5
6DC1C
100
AcDbEntity
  8
0
100
AcDbLine
 10
0.38771
 20
0.9585
 30
1.837275
 11
0.38771
 21
0.9585
 31
1.637275
  0
LINE
  5
6DC1D
100
AcDbEntity
  8
0
100
AcDbLine
 10
0.70471
 20
0.9585
 30
1.637275
 11
0.38771
 21
0.9585
 31
1.637275
  0
POINT
  5
6DC1E
100
AcDbEntity
  8
SNAP_POINTS
100
AcDbPoint
 10
0.70471
 20
0.9585
 30
1.637275
  0
LINE
  5
6DC1F
100
AcDbEntity
  8
0
100
AcDbLine
 10
0.70471
 20
0.9585
 30
1.837275
 11
0.70471
 21
0.9585
 31
1.637275
  0
LINE
  5
6DC20
100
AcDbEntity
  8
0
100
AcDbLine
 10
1.06571
 20
0.9585
 30
1.637275
 11
1.38271
 21
0.9585
 31
1.637275
  0
LINE
  5
6DC21
100
AcDbEntity
  8
0
100
AcDbLine
 10
1.38271
 20
0.9585
 30
1.837275
 11
1.38271
 21
0.9585
 31
1.637275
  0
LINE
  5
6DC22
100
AcDbEntity
  8
0
100
AcDbLine
 10
1.06571
 20
0.9585
 30
1.837275
 11
1.38271
 21
0.9585
 31
1.837275
  0
LINE
  5
6DC23
100
AcDbEntity
  8
0
100
AcDbLine
 10
1.06571
 20
0.9585
 30
1.837275
 11
1.06571
 21
0.9585
 31
1.637275
  0
LINE
  5
6DC24
100
AcDbEntity
  8
0
100
AcDbLine
 10
0.70471
 20
0.9585
 30
1.837275
 11
0.38771
 21
0.9585
 31
1.837275
  0
POINT
  5
6DC25
100
AcDbEntity
  8
DIMS-MTG-HOLES
100
AcDbPoint
 10
0.19121
 20
-1.9345
 30
0.0
  0
POINT
  5
6DC26
100
AcDbEntity
  8
DIMS-MTG-HOLES
100
AcDbPoint
 10
1.57121
 20
0.4255
 30
0.0
  0
TEXT
  5
6DC27
100
AcDbEntity
  8
0
100
AcDbText
 10
0.072628
 20
-0.511877
 30
3.080275
 40
0.083465
  1
CF
100
AcDbText
  0
TEXT
  5
6DC28
100
AcDbEntity
  8
0
100
AcDbText
 10
1.139567
 20
-1.820413
 30
3.080275
 40
0.083465
  1
NC
100
AcDbText
  0
LWPOLYLINE
  5
6DC29
100
AcDbEntity
  8
0
100
AcDbPolyline
 90
        6
 70
     0
 43
0.0
 38
3.080275
 10
0.258085
 20
0.291451
 10
0.258085
 20
0.174908
 10
0.318085
 20
0.174908
 10
0.318085
 20
0.134908
 10
0.258085
 20
0.134908
 10
0.258085
 20
0.018365
  0
LWPOLYLINE
  5
6DC2A
100
AcDbEntity
  8
0
100
AcDbPolyline
 90
        6
 70
     0
 43
0.0
 38
3.080275
 10
0.218085
 20
0.291451
 10
0.218085
 20
0.174908
 10
0.158085
 20
0.174908
 10
0.158085
 20
0.134908
 10
0.218085
 20
0.134908
 10
0.218085
 20
0.018365
  0
LWPOLYLINE
  5
6DC2B
100
AcDbEntity
  8
0
100
AcDbPolyline
 90
        6
 70
     0
 43
0.0
 38
3.080275
 10
0.647835
 20
0.291451
 10
0.647835
 20
0.174908
 10
0.587835
 20
0.174908
 10
0.587835
 20
0.134908
 10
0.647835
 20
0.134908
 10
0.647835
 20
0.018365
  0
LWPOLYLINE
  5
6DC2C
100
AcDbEntity
  8
0
100
AcDbPolyline
 90
        6
 70
     0
 43
0.0
 38
3.080275
 10
0.687835
 20
0.291451
 10
0.687835
 20
0.174908
 10
0.747835
 20
0.174908
 10
0.747835
 20
0.134908
 10
0.687835
 20
0.134908
 10
0.687835
 20
0.018365
  0
LWPOLYLINE
  5
6DC2D
100
AcDbEntity
  8
0
100
AcDbPolyline
 90
        6
 70
     0
 43
0.0
 38
3.080275
 10
1.547335
 20
0.291451
 10
1.547335
 20
0.174908
 10
1.607335
 20
0.174908
 10
1.607335
 20
0.134908
 10
1.547335
 20
0.134908
 10
1.547335
 20
0.018365
  0
LWPOLYLINE
  5
6DC2E
100
AcDbEntity
  8
0
100
AcDbPolyline
 90
        6
 70
     0
 43
0.0
 38
3.080275
 10
1.507335
 20
0.291451
 10
1.507335
 20
0.174908
 10
1.447335
 20
0.174908
 10
1.447335
 20
0.134908
 10
1.507335
 20
0.134908
 10
1.507335
 20
0.018365
  0
LWPOLYLINE
  5
6DC2F
100
AcDbEntity
  8
0
100
AcDbPolyline
 90
        6
 70
     0
 43
0.0
 38
3.080275
 10
1.117585
 20
0.291451
 10
1.117585
 20
0.174908
 10
1.177585
 20
0.174908
 10
1.177585
 20
0.134908
 10
1.117585
 20
0.134908
 10
1.117585
 20
0.018365
  0
LWPOLYLINE
  5
6DC30
100
AcDbEntity
  8
0
100
AcDbPolyline
 90
        6
 70
     0
 43
0.0
 38
3.080275
 10
1.077585
 20
0.291451
 10
1.077585
 20
0.174908
 10
1.017585
 20
0.174908
 10
1.017585
 20
0.134908
 10
1.077585
 20
0.134908
 10
1.077585
 20
0.018365
  0
LWPOLYLINE
  5
6DC31
100
AcDbEntity
  8
0
100
AcDbPolyline
 90
        6
 70
     0
 43
0.0
 38
2.058275
 10
1.20421
 20
0.858322
 10
1.20421
 20
0.76
 10
1.14421
 20
0.76
 10
1.14421
 20
0.72
 10
1.20421
 20
0.72
 10
1.20421
 20
0.621678
  0
LWPOLYLINE
  5
6DC32
100
AcDbEntity
  8
0
100
AcDbPolyline
 90
        6
 70
     0
 43
0.0
 38
2.058275
 10
1.24421
 20
0.858322
 10
1.24421
 20
0.76
 10
1.30421
 20
0.76
 10
1.30421
 20
0.72
 10
1.24421
 20
0.72
 10
1.24421
 20
0.621678
  0
LWPOLYLINE
  5
6DC33
100
AcDbEntity
  8
0
100
AcDbPolyline
 90
        6
 70
     0
 43
0.0
 38
2.058275
 10
0.56621
 20
0.858322
 10
0.56621
 20
0.76
 10
0.62621
 20
0.76
 10
0.62621
 20
0.72
 10
0.56621
 20
0.72
 10
0.56621
 20
0.621678
  0
LWPOLYLINE
  5
6DC34
100
AcDbEntity
  8
0
100
AcDbPolyline
 90
        6
 70
     0
 43
0.0
 38
2.058275
 10
0.52621
 20
0.858322
 10
0.52621
 20
0.76
 10
0.46621
 20
0.76
 10
0.46621
 20
0.72
 10
0.52621
 20
0.72
 10
0.52621
 20
0.621678
  0
LWPOLYLINE
  5
6DC35
100
AcDbEntity
  8
0
100
AcDbPolyline
 90
        6
 70
     0
 43
0.0
 38
3.080275
 10
0.687835
 20
-1.451337
 10
0.687835
 20
-1.56788
 10
0.747835
 20
-1.56788
 10
0.747835
 20
-1.60788
 10
0.687835
 20
-1.60788
 10
0.687835
 20
-1.724423
  0
LWPOLYLINE
  5
6DC36
100
AcDbEntity
  8
0
100
AcDbPolyline
 90
        6
 70
     0
 43
0.0
 38
3.080275
 10
0.647835
 20
-1.451337
 10
0.647835
 20
-1.56788
 10
0.587835
 20
-1.56788
 10
0.587835
 20
-1.60788
 10
0.647835
 20
-1.60788
 10
0.647835
 20
-1.724423
  0
CIRCLE
  5
6DC37
100
AcDbEntity
  8
0
100
AcDbCircle
 10
0.667835
 20
-1.58788
 30
3.080275
 40
0.138
  0
CIRCLE
  5
6DC38
100
AcDbEntity
  8
0
100
AcDbCircle
 10
1.527335
 20
-1.58788
 30
3.080275
 40
0.138
  0
LWPOLYLINE
  5
6DC39
100
AcDbEntity
  8
0
100
AcDbPolyline
 90
        6
 70
     0
 43
0.0
 38
3.080275
 10
1.077585
 20
-1.451337
 10
1.077585
 20
-1.56788
 10
1.017585
 20
-1.56788
 10
1.017585
 20
-1.60788
 10
1.077585
 20
-1.60788
 10
1.077585
 20
-1.724423
  0
LWPOLYLINE
  5
6DC3A
100
AcDbEntity
  8
0
100
AcDbPolyline
 90
        6
 70
     0
 43
0.0
 38
3.080275
 10
1.117585
 20
-1.451337
 10
1.117585
 20
-1.56788
 10
1.177585
 20
-1.56788
 10
1.177585
 20
-1.60788
 10
1.117585
 20
-1.60788
 10
1.117585
 20
-1.724423
  0
CIRCLE
  5
6DC3B
100
AcDbEntity
  8
0
100
AcDbCircle
 10
1.097585
 20
-1.58788
 30
3.080275
 40
0.138
  0
LWPOLYLINE
  5
6DC3C
100
AcDbEntity
  8
0
100
AcDbPolyline
 90
        6
 70
     0
 43
0.0
 38
3.080275
 10
1.507335
 20
-1.451337
 10
1.507335
 20
-1.56788
 10
1.447335
 20
-1.56788
 10
1.447335
 20
-1.60788
 10
1.507335
 20
-1.60788
 10
1.507335
 20
-1.724423
  0
LWPOLYLINE
  5
6DC3D
100
AcDbEntity
  8
0
100
AcDbPolyline
 90
        6
 70
     0
 43
0.0
 38
3.080275
 10
1.547335
 20
-1.451337
 10
1.547335
 20
-1.56788
 10
1.607335
 20
-1.56788
 10
1.607335
 20
-1.60788
 10
1.547335
 20
-1.60788
 10
1.547335
 20
-1.724423
  0
LWPOLYLINE
  5
6DC3E
100
AcDbEntity
  8
0
100
AcDbPolyline
 90
        6
 70
     0
 43
0.0
 38
3.080275
 10
0.218085
 20
-1.451337
 10
0.218085
 20
-1.56788
 10
0.158085
 20
-1.56788
 10
0.158085
 20
-1.60788
 10
0.218085
 20
-1.60788
 10
0.218085
 20
-1.724423
  0
LWPOLYLINE
  5
6DC3F
100
AcDbEntity
  8
0
100
AcDbPolyline
 90
        6
 70
     0
 43
0.0
 38
3.080275
 10
0.258085
 20
-1.451337
 10
0.258085
 20
-1.56788
 10
0.318085
 20
-1.56788
 10
0.318085
 20
-1.60788
 10
0.258085
 20
-1.60788
 10
0.258085
 20
-1.724423
  0
DIMENSION
  5
6DC40
100
AcDbEntity
  8
AREA1
100
AcDbDimension
  2
*D1
 10
-0.391906
 20
-2.2215
 30
0.0
 11
-0.391906
 21
-0.688039
 31
0.0
 70
   160
  3
ABECAD_3D
100
AcDbAlignedDimension
 13
0.33271
 23
0.9585
 33
1.384275
 14
0.69971
 24
-2.2215
 34
1.384275
 50
90.0
100
AcDbRotatedDimension
  0
DIMENSION
  5
6DC4E
100
AcDbEntity
  8
AREA1
100
AcDbDimension
  2
*D2
 10
1.76521
 20
1.221194
 30
0.0
 11
0.875976
 21
1.456455
 31
0.0
 70
   160
  3
ABECAD_3D
100
AcDbAlignedDimension
 13
0.00021
 23
0.5385
 33
2.058275
 14
1.76521
 24
0.5745
 34
0.0
100
AcDbRotatedDimension
  0
LWPOLYLINE
  5
6DC73
100
AcDbEntity
  8
SCALE
100
AcDbPolyline
 90
        4
 70
     1
 43
0.0
 10
0.292712
 20
-2.271485
 10
1.428341
 20
-2.271485
 10
1.428341
 20
-3.113095
 10
0.292712
 20
-3.113095
  0
LINE
  5
6DC74
100
AcDbEntity
  8
SCALE
100
AcDbLine
 10
0.35071
 20
-2.651564
 30
0.0
 11
1.35071
 21
-2.651564
 31
0.0
  0
LINE
  5
6DC75
100
AcDbEntity
  8
SCALE
100
AcDbLine
 10
0.35071
 20
-2.951564
 30
0.0
 11
0.74441
 21
-2.951564
 31
0.0
  0
LINE
  5
6DC76
100
AcDbEntity
  8
SCALE
100
AcDbLine
 10
0.35071
 20
-2.751564
 30
0.0
 11
0.35071
 21
-2.551564
 31
0.0
  0
TEXT
  5
6DC77
100
AcDbEntity
  8
SCALE
100
AcDbText
 10
0.406686
 20
-2.903879
 30
0.0
 40
0.0625
  1
[10mm]
100
AcDbText
  0
LINE
  5
6DC78
100
AcDbEntity
  8
SCALE
100
AcDbLine
 10
0.35071
 20
-3.051564
 30
0.0
 11
0.35071
 21
-2.851564
 31
0.0
  0
TEXT
  5
6DC79
100
AcDbEntity
  8
SCALE
100
AcDbText
 10
0.352241
 20
-2.376687
 30
0.0
 40
0.0625
  1
SCALE:
100
AcDbText
  0
LINE
  5
6DC7A
100
AcDbEntity
  8
SCALE
100
AcDbLine
 10
0.74441
 20
-3.051564
 30
0.0
 11
0.74441
 21
-2.851564
 31
0.0
  0
TEXT
  5
6DC7B
100
AcDbEntity
  8
SCALE
100
AcDbText
 10
0.713993
 20
-2.582515
 30
0.0
 40
0.0625
  1
1 Inch
100
AcDbText
  0
LINE
  5
6DC7C
100
AcDbEntity
  8
SCALE
100
AcDbLine
 10
1.35071
 20
-2.651564
 30
0.0
 11
1.35071
 21
-2.751564
 31
0.0
  0
LINE
  5
6DC7D
100
AcDbEntity
  8
SCALE
100
AcDbLine
 10
1.35071
 20
-2.751564
 30
0.0
 11
1.35071
 21
-2.551564
 31
0.0
  0
VIEWPORT
  5
5677D
102
{ACAD_XDICTIONARY
360
6DD16
102
}
100
AcDbEntity
 67
     1
  8
0
100
AcDbViewport
 10
5.25
 20
4.0
 30
0.0
 40
16.386862
 41
8.993
 68
    -1
 69
     1
1001
ACAD
1000
MVIEW
1002
{
1070
    16
1010
0.0
1020
0.0
1030
0.0
1010
0.0
1020
0.0
1030
1.0
1040
0.0
1040
8.993
1040
5.25
1040
4.0
1040
50.0
1040
0.0
1040
0.0
1070
     0
1070
 20000
1070
     1
1070
     1
1070
     0
1070
     0
1070
     0
1070
     0
1040
0.0
1040
0.0
1040
0.0
1040
0.5
1040
0.5
1040
0.5
1040
0.5
1070
     0
1002
{
1002
}
1002
}
  0
VIEWPORT
  5
5677F
102
{ACAD_XDICTIONARY
360
6DD18
102
}
100
AcDbEntity
 67
     1
  8
AREA1
100
AcDbViewport
 10
5.25
 20
4.0
 30
0.0
 40
8.4
 41
6.4
 68
     1
 69
     2
1001
ACAD
1000
MVIEW
1002
{
1070
    16
1010
0.563444
1020
-0.880137
1030
1.686493
1010
0.0
1020
0.0
1030
1.0
1040
0.0
1040
4.582914
1040
-1.017175
1040
0.747813
1040
50.0
1040
0.0
1040
0.0
1070
     0
1070
 20000
1070
     1
1070
     1
1070
     0
1070
     0
1070
     0
1070
     0
1040
0.0
1040
0.0
1040
0.0
1040
0.25
1040
0.25
1040
0.25
1040
0.25
1070
     0
1002
{
1002
}
1002
}
  0
ENDSEC
  0
SECTION
  2
OBJECTS
  0
DICTIONARY
  5
458CB
100
AcDbDictionary
  3
ACAD_GROUP
350
458CC
  3
ACAD_LAYOUT
350
458FB
  3
ACAD_MLINESTYLE
350
458D9
  3
ACAD_PLOTSETTINGS
350
458FC
  3
ACAD_PLOTSTYLENAME
350
458F9
  3
ACDBHEADERROUNDTRIPXREC
350
6DCED
  3
ACDBVARIABLEDICTIONARY
350
458E1
  3
DWGPROPS
350
45901
  0
DICTIONARY
  5
6DCEB
100
AcDbDictionary
280
     1
  3
ACAD_XREC_ROUNDTRIP
360
6DCEC
  0
DICTIONARY
  5
6DD14
100
AcDbDictionary
280
     1
  3
ACAD_XREC_ROUNDTRIP
360
6DD15
  0
DICTIONARY
  5
6DCE9
100
AcDbDictionary
280
     1
  3
ACAD_XREC_ROUNDTRIP
360
6DCEA
  0
DICTIONARY
  5
6DD10
100
AcDbDictionary
280
     1
  3
ACAD_XREC_ROUNDTRIP
360
6DD11
  0
DICTIONARY
  5
4592C
100
AcDbDictionary
280
     1
  3
ACAD_LAYOUTSELFREF
360
6DD0F
  0
DICTIONARY
  5
4592A
100
AcDbDictionary
280
     1
  3
ACAD_LAYOUTSELFREF
360
6DD0E
  0
DICTIONARY
  5
6DD16
100
AcDbDictionary
280
     1
  3
ACAD_XREC_ROUNDTRIP
360
6DD17
  0
DICTIONARY
  5
6DD18
100
AcDbDictionary
280
     1
  3
ACAD_XREC_ROUNDTRIP
360
6DD19
  0
DICTIONARY
  5
458CC
102
{ACAD_REACTORS
330
458CB
102
}
100
AcDbDictionary
  0
DICTIONARY
  5
458FB
102
{ACAD_XDICTIONARY
360
6DD12
102
}
102
{ACAD_REACTORS
330
458CB
102
}
100
AcDbDictionary
  3
LAYOUT1
350
458FE
  3
MODEL
350
458FD
  0
DICTIONARY
  5
458D9
102
{ACAD_REACTORS
330
458CB
102
}
100
AcDbDictionary
  3
STANDARD
350
458DA
  0
DICTIONARY
  5
458FC
102
{ACAD_REACTORS
330
458CB
102
}
100
AcDbDictionary
  0
ACAD_PROXY_OBJECT
  5
458F9
102
{ACAD_REACTORS
330
458CB
102
}
100
AcDbProxyObject
 90
      499
 91
      501
 93
       86
310
405010041939BDC9B585B0
350
458FA
340
458FA
 94
        0
  0
DICTIONARY
  5
6DCED
102
{ACAD_REACTORS
330
458CB
102
}
100
AcDbDictionary
  3
CEPSNTYPE
350
6DCF7
  3
DIMSTYLEDATA
350
6DCFB
  3
FINGERPRINTGUID
350
6DCF8
  3
HYPERLINKBASE
350
6DCF0
  3
INSUNITS
350
6DCF6
  3
LAYOUTDICT
350
6DCF2
  3
LWETCUNION
350
6DCF5
  3
PLOTSETDICT
350
6DCF3
  3
PLOTSTYLNAMDICT
350
6DCF4
  3
PSVPSCALE
350
6DCFA
  3
PUCSBASE
350
6DCFE
  3
PUCSORGBACK
350
6DD04
  3
PUCSORGBOTTOM
350
6DD00
  3
PUCSORGFRONT
350
6DD03
  3
PUCSORGLEFT
350
6DD01
  3
PUCSORGRIGHT
350
6DD02
  3
PUCSORGTOP
350
6DCFF
  3
PUCSORTHOREF
350
6DCFC
  3
PUCSORTHOVIEW
350
6DCFD
  3
STYLESHEET
350
6DCF1
  3
TSTACKALIGN
350
6DCEE
  3
TSTACKSIZE
350
6DCEF
  3
UCSBASE
350
6DD07
  3
UCSORGBACK
350
6DD0D
  3
UCSORGBOTTOM
350
6DD09
  3
UCSORGFRONT
350
6DD0C
  3
UCSORGLEFT
350
6DD0A
  3
UCSORGRIGHT
350
6DD0B
  3
UCSORGTOP
350
6DD08
  3
UCSORTHOREF
350
6DD05
  3
UCSORTHOVIEW
350
6DD06
  3
VERSIONGUID
350
6DCF9
  0
DICTIONARY
  5
458E1
102
{ACAD_REACTORS
330
458CB
102
}
100
AcDbDictionary
  3
DIMADEC
350
458E2
  0
XRECORD
  5
45901
102
{ACAD_REACTORS
330
458CB
102
}
100
AcDbXrecord
  1
DWGPROPS COOKIE
  2

  3

  4

  6

  7

  8
colin
  9

300
=
301
=
302
=
303
=
304
=
305
=
306
=
307
=
308
=
309
=
 40
0.000599
 41
2451670.444777
 42
2451670.445376
  1

 90
        0
  0
XRECORD
  5
6DCEC
102
{ACAD_REACTORS
330
6DCEB
102
}
100
AcDbXrecord
102
EXTNAMES
  1
*ACTIVE
  2
*Active
102
UCS
 74
     0
 71
     1
 10
0.0
 20
0.0
 30
0.0
 10
1.0
 20
0.0
 30
0.0
 10
0.0
 20
1.0
 30
0.0
146
0.0
 79
     1
102
VIEW
281
     1
  0
XRECORD
  5
6DD15
102
{ACAD_REACTORS
330
6DD14
102
}
100
AcDbXrecord
102
PLOTBIT
280
     0
  0
XRECORD
  5
6DCEA
102
{ACAD_REACTORS
330
6DCE9
102
}
100
AcDbXrecord
102
EXTNAMES
  1
DEFPOINTS
  2
Defpoints
102
PLOTBIT
280
     0
  0
XRECORD
  5
6DD11
102
{ACAD_REACTORS
330
6DD10
102
}
100
AcDbXrecord
102
ACADR14ROUNDTRIP
1000
DSTYLE
1002
{
1070
   276
 70
     2
1070
   277
 70
     5
1070
   279
 70
     2
1070
   289
 70
     2
1002
}
  0
XRECORD
  5
6DD0F
102
{ACAD_REACTORS
330
4592C
102
}
100
AcDbXrecord
340
458D6
  0
XRECORD
  5
6DD0E
102
{ACAD_REACTORS
330
4592A
102
}
100
AcDbXrecord
340
458D3
  0
XRECORD
  5
6DD17
102
{ACAD_REACTORS
330
6DD16
102
}
100
AcDbXrecord
102
UCS
 74
     0
 71
     1
 10
0.0
 20
0.0
 30
0.0
 10
1.0
 20
0.0
 30
0.0
 10
0.0
 20
1.0
 30
0.0
146
0.0
 79
     0
102
VIEW
281
     0
102
NEWVIEWCONTROL
280
     4
  0
XRECORD
  5
6DD19
102
{ACAD_REACTORS
330
6DD18
102
}
100
AcDbXrecord
102
UCS
 74
     0
 71
     1
 10
0.0
 20
0.0
 30
0.0
 10
1.0
 20
0.0
 30
0.0
 10
0.0
 20
1.0
 30
0.0
146
0.0
 79
     1
102
VIEW
281
     1
102
NEWVIEWCONTROL
280
     4
  0
DICTIONARY
  5
6DD12
100
AcDbDictionary
280
     1
  3
ACAD_XREC_ROUNDTRIP
360
6DD13
  0
ACAD_PROXY_OBJECT
  5
458FE
102
{ACAD_REACTORS
330
458FB
102
}
100
AcDbProxyObject
 90
      499
 91
      503
 93
     1700
310
90B6E6F6E655F6465766963652C0080000006066661940000000181999865000000000068661940000000001A1986500000000C0CCFC6A4000000018199D9C5011C4C65747465725F28382E35305F785F31312E30305F496E6368657329A901416AA547D11959985D5B1D08148C4D081C195B88185CDCDA59DB9B595B9D1CC
310
B98DD1891069074C61796F75743140501A840201008040342FEFF7FBFDFFFFF3EFDFAFF7FBFFDFC9501008043E3FDFC8102A6A6A0000003033333C0FC000000809999E93F8FFFFFF5766E622403FFFFFEBF333071020
330
458D3
330
5677D
340
0
340
0
 94
        0
  0
ACAD_PROXY_OBJECT
  5
458FD
102
{ACAD_REACTORS
330
458FB
102
}
100
AcDbProxyObject
 90
      499
 91
      503
 93
      924
310
91D4850204C617365724A65742035303030205365726965732050434C20362C01AAAAAAAAA547D11959985D5B1D08148C4D081C195B88185CDCDA59DB9B595B9D1CCB98DD18A69054D6F64656C901A800000000000000000000000000000000000000000000A1000000000000008902A6A6AAAA0
330
458D6
330
0
340
0
340
0
 94
        0
  0
MLINESTYLE
  5
458DA
102
{ACAD_REACTORS
330
458D9
102
}
100
AcDbMlineStyle
  2
STANDARD
 70
     0
  3

 62
   256
 51
90.0
 52
90.0
 71
     2
 49
0.5
 62
   256
  6
BYLAYER
 49
-0.5
 62
   256
  6
BYLAYER
  0
ACAD_PROXY_OBJECT
  5
458FA
102
{ACAD_REACTORS
330
458F9
102
}
100
AcDbProxyObject
 90
      499
 91
      502
 93
        0
 94
        0
  0
XRECORD
  5
6DCF7
102
{ACAD_REACTORS
330
6DCED
102
}
100
AcDbXrecord
 90
        0
  0
XRECORD
  5
6DCFB
102
{ACAD_REACTORS
330
6DCED
102
}
100
AcDbXrecord
1000
DSTYLE
1002
{
1070
   276
 70
     2
1070
   277
 70
     5
1070
   279
 70
     2
1070
   289
 70
     2
1002
}
  0
XRECORD
  5
6DCF8
102
{ACAD_REACTORS
330
6DCED
102
}
100
AcDbXrecord
  1
{6E0CF4B8-225E-11D4-A150-00A0CC3303EC}
  0
XRECORD
  5
6DCF0
102
{ACAD_REACTORS
330
6DCED
102
}
100
AcDbXrecord
  1

  0
XRECORD
  5
6DCF6
102
{ACAD_REACTORS
330
6DCED
102
}
100
AcDbXrecord
 90
        0
  0
XRECORD
  5
6DCF2
102
{ACAD_REACTORS
330
6DCED
102
}
100
AcDbXrecord
340
458FB
  0
XRECORD
  5
6DCF5
102
{ACAD_REACTORS
330
6DCED
102
}
100
AcDbXrecord
 90
    14877
  0
XRECORD
  5
6DCF3
102
{ACAD_REACTORS
330
6DCED
102
}
100
AcDbXrecord
340
458FC
  0
XRECORD
  5
6DCF4
102
{ACAD_REACTORS
330
6DCED
102
}
100
AcDbXrecord
340
458F9
  0
XRECORD
  5
6DCFA
102
{ACAD_REACTORS
330
6DCED
102
}
100
AcDbXrecord
 40
0.0
  0
XRECORD
  5
6DCFE
102
{ACAD_REACTORS
330
6DCED
102
}
100
AcDbXrecord
340
0
  0
XRECORD
  5
6DD04
102
{ACAD_REACTORS
330
6DCED
102
}
100
AcDbXrecord
 10
0.0
 20
0.0
 30
0.0
  0
XRECORD
  5
6DD00
102
{ACAD_REACTORS
330
6DCED
102
}
100
AcDbXrecord
 10
0.0
 20
0.0
 30
0.0
  0
XRECORD
  5
6DD03
102
{ACAD_REACTORS
330
6DCED
102
}
100
AcDbXrecord
 10
0.0
 20
0.0
 30
0.0
  0
XRECORD
  5
6DD01
102
{ACAD_REACTORS
330
6DCED
102
}
100
AcDbXrecord
 10
0.0
 20
0.0
 30
0.0
  0
XRECORD
  5
6DD02
102
{ACAD_REACTORS
330
6DCED
102
}
100
AcDbXrecord
 10
0.0
 20
0.0
 30
0.0
  0
XRECORD
  5
6DCFF
102
{ACAD_REACTORS
330
6DCED
102
}
100
AcDbXrecord
 10
0.0
 20
0.0
 30
0.0
  0
XRECORD
  5
6DCFC
102
{ACAD_REACTORS
330
6DCED
102
}
100
AcDbXrecord
340
0
  0
XRECORD
  5
6DCFD
102
{ACAD_REACTORS
330
6DCED
102
}
100
AcDbXrecord
 70
     0
  0
XRECORD
  5
6DCF1
102
{ACAD_REACTORS
330
6DCED
102
}
100
AcDbXrecord
  1

  0
XRECORD
  5
6DCEE
102
{ACAD_REACTORS
330
6DCED
102
}
100
AcDbXrecord
 90
        1
  0
XRECORD
  5
6DCEF
102
{ACAD_REACTORS
330
6DCED
102
}
100
AcDbXrecord
 90
       70
  0
XRECORD
  5
6DD07
102
{ACAD_REACTORS
330
6DCED
102
}
100
AcDbXrecord
340
0
  0
XRECORD
  5
6DD0D
102
{ACAD_REACTORS
330
6DCED
102
}
100
AcDbXrecord
 10
0.0
 20
0.0
 30
0.0
  0
XRECORD
  5
6DD09
102
{ACAD_REACTORS
330
6DCED
102
}
100
AcDbXrecord
 10
0.0
 20
0.0
 30
0.0
  0
XRECORD
  5
6DD0C
102
{ACAD_REACTORS
330
6DCED
102
}
100
AcDbXrecord
 10
0.0
 20
0.0
 30
0.0
  0
XRECORD
  5
6DD0A
102
{ACAD_REACTORS
330
6DCED
102
}
100
AcDbXrecord
 10
0.0
 20
0.0
 30
0.0
  0
XRECORD
  5
6DD0B
102
{ACAD_REACTORS
330
6DCED
102
}
100
AcDbXrecord
 10
0.0
 20
0.0
 30
0.0
  0
XRECORD
  5
6DD08
102
{ACAD_REACTORS
330
6DCED
102
}
100
AcDbXrecord
 10
0.0
 20
0.0
 30
0.0
  0
XRECORD
  5
6DD05
102
{ACAD_REACTORS
330
6DCED
102
}
100
AcDbXrecord
340
0
  0
XRECORD
  5
6DD06
102
{ACAD_REACTORS
330
6DCED
102
}
100
AcDbXrecord
 70
     1
  0
XRECORD
  5
6DCF9
102
{ACAD_REACTORS
330
6DCED
102
}
100
AcDbXrecord
  1
{532EFC7F-750A-4394-83B9-0B7E27886B45}
  0
DICTIONARYVAR
  5
458E2
102
{ACAD_REACTORS
330
458E1
102
}
100
DictionaryVariables
280
     0
  1
0
  0
XRECORD
  5
6DD13
102
{ACAD_REACTORS
330
6DD12
102
}
100
AcDbXrecord
102
EXTNAMES
  1
LAYOUT1
  2
Layout1
  1
MODEL
  2
Model
  0
ENDSEC
  0
EOF
