  0
SECTION
  2
HEADER
  9
$ACADVER
  1
AC1014
  9
$ACADMAINTVER
 70
     8
  9
$DWGCODEPAGE
  3
ANSI_1252
  9
$INSBASE
 10
0.0
 20
0.0
 30
0.0
  9
$EXTMIN
 10
-1.143647
 20
-1.309259
 30
-1.48
  9
$EXTMAX
 10
1.16
 20
0.773846
 30
0.0
  9
$LIMMIN
 10
0.0
 20
0.0
  9
$LIMMAX
 10
12.0
 20
9.0
  9
$ORTHOMODE
 70
     0
  9
$REGENMODE
 70
     1
  9
$FILLMODE
 70
     1
  9
$QTEXTMODE
 70
     0
  9
$MIRRTEXT
 70
     1
  9
$DRAGMODE
 70
     2
  9
$LTSCALE
 40
1.0
  9
$OSMODE
 70
    37
  9
$ATTMODE
 70
     1
  9
$TEXTSIZE
 40
0.12
  9
$TRACEWID
 40
0.05
  9
$TEXTSTYLE
  7
STANDARD
  9
$CLAYER
  8
0
  9
$CELTYPE
  6
BYLAYER
  9
$CECOLOR
 62
   256
  9
$CELTSCALE
 40
1.0
  9
$DELOBJ
 70
     1
  9
$DISPSILH
 70
     0
  9
$DIMSCALE
 40
1.0
  9
$DIMASZ
 40
0.18
  9
$DIMEXO
 40
0.0625
  9
$DIMDLI
 40
0.375
  9
$DIMRND
 40
0.0
  9
$DIMDLE
 40
0.0
  9
$DIMEXE
 40
0.1
  9
$DIMTP
 40
0.0
  9
$DIMTM
 40
0.0
  9
$DIMTXT
 40
0.08
  9
$DIMCEN
 40
0.09
  9
$DIMTSZ
 40
0.0
  9
$DIMTOL
 70
     0
  9
$DIMLIM
 70
     0
  9
$DIMTIH
 70
     0
  9
$DIMTOH
 70
     1
  9
$DIMSE1
 70
     0
  9
$DIMSE2
 70
     0
  9
$DIMTAD
 70
     0
  9
$DIMZIN
 70
     4
  9
$DIMBLK
  1

  9
$DIMASO
 70
     1
  9
$DIMSHO
 70
     1
  9
$DIMPOST
  1

  9
$DIMAPOST
  1

  9
$DIMALT
 70
     1
  9
$DIMALTD
 70
     2
  9
$DIMALTF
 40
25.4
  9
$DIMLFAC
 40
1.0
  9
$DIMTOFL
 70
     0
  9
$DIMTVP
 40
0.0
  9
$DIMTIX
 70
     0
  9
$DIMSOXD
 70
     0
  9
$DIMSAH
 70
     0
  9
$DIMBLK1
  1

  9
$DIMBLK2
  1

  9
$DIMSTYLE
  2
ABECAD_3D
  9
$DIMCLRD
 70
     0
  9
$DIMCLRE
 70
     0
  9
$DIMCLRT
 70
     0
  9
$DIMTFAC
 40
1.5
  9
$DIMGAP
 40
0.09
  9
$DIMJUST
 70
     0
  9
$DIMSD1
 70
     0
  9
$DIMSD2
 70
     0
  9
$DIMTOLJ
 70
     1
  9
$DIMTZIN
 70
     4
  9
$DIMALTZ
 70
     4
  9
$DIMALTTZ
 70
     4
  9
$DIMFIT
 70
     5
  9
$DIMUPT
 70
     1
  9
$DIMUNIT
 70
     7
  9
$DIMDEC
 70
     6
  9
$DIMTDEC
 70
     6
  9
$DIMALTU
 70
     2
  9
$DIMALTTD
 70
     2
  9
$DIMTXSTY
  7
STANDARD
  9
$DIMAUNIT
 70
     0
  9
$LUNITS
 70
     2
  9
$LUPREC
 70
     4
  9
$SKETCHINC
 40
0.1
  9
$FILLETRAD
 40
0.0
  9
$AUNITS
 70
     0
  9
$AUPREC
 70
     0
  9
$MENU
  1
ACAD
  9
$ELEVATION
 40
0.0
  9
$PELEVATION
 40
0.0
  9
$THICKNESS
 40
0.0
  9
$LIMCHECK
 70
     0
  9
$BLIPMODE
 70
     0
  9
$CHAMFERA
 40
0.0
  9
$CHAMFERB
 40
0.0
  9
$CHAMFERC
 40
0.0
  9
$CHAMFERD
 40
0.0
  9
$SKPOLY
 70
     0
  9
$TDCREATE
 40
2451726.438389120
  9
$TDUPDATE
 40
2452010.490198495
  9
$TDINDWG
 40
0.8418770833
  9
$TDUSRTIMER
 40
0.8418770833
  9
$USRTIMER
 70
     1
  9
$ANGBASE
 50
0.0
  9
$ANGDIR
 70
     0
  9
$PDMODE
 70
     3
  9
$PDSIZE
 40
0.09
  9
$PLINEWID
 40
0.0
  9
$COORDS
 70
     1
  9
$SPLFRAME
 70
     1
  9
$SPLINETYPE
 70
     6
  9
$SPLINESEGS
 70
     8
  9
$ATTDIA
 70
     0
  9
$ATTREQ
 70
     1
  9
$HANDLING
 70
     1
  9
$HANDSEED
  5
6A4E1
  9
$SURFTAB1
 70
     6
  9
$SURFTAB2
 70
     6
  9
$SURFTYPE
 70
     6
  9
$SURFU
 70
     6
  9
$SURFV
 70
     6
  9
$UCSNAME
  2

  9
$UCSORG
 10
0.0
 20
0.0
 30
0.0
  9
$UCSXDIR
 10
1.0
 20
0.0
 30
0.0
  9
$UCSYDIR
 10
0.0
 20
1.0
 30
0.0
  9
$PUCSNAME
  2

  9
$PUCSORG
 10
0.0
 20
0.0
 30
0.0
  9
$PUCSXDIR
 10
1.0
 20
0.0
 30
0.0
  9
$PUCSYDIR
 10
0.0
 20
1.0
 30
0.0
  9
$USERI1
 70
     0
  9
$USERI2
 70
     0
  9
$USERI3
 70
     0
  9
$USERI4
 70
     0
  9
$USERI5
 70
     0
  9
$USERR1
 40
0.0
  9
$USERR2
 40
0.0
  9
$USERR3
 40
0.0
  9
$USERR4
 40
0.0
  9
$USERR5
 40
0.0
  9
$WORLDVIEW
 70
     1
  9
$SHADEDGE
 70
     3
  9
$SHADEDIF
 70
    70
  9
$TILEMODE
 70
     1
  9
$MAXACTVP
 70
    16
  9
$PINSBASE
 10
0.0
 20
0.0
 30
0.0
  9
$PLIMCHECK
 70
     0
  9
$PEXTMIN
 10
1.05
 20
0.8
 30
0.0
  9
$PEXTMAX
 10
9.45
 20
7.2
 30
0.0
  9
$PLIMMIN
 10
-0.25
 20
-0.25
  9
$PLIMMAX
 10
10.75
 20
8.25
  9
$UNITMODE
 70
     0
  9
$VISRETAIN
 70
     0
  9
$PLINEGEN
 70
     0
  9
$PSLTSCALE
 70
     1
  9
$TREEDEPTH
 70
  3020
  9
$PICKSTYLE
 70
     1
  9
$CMLSTYLE
  2
STANDARD
  9
$CMLJUST
 70
     0
  9
$CMLSCALE
 40
1.0
  9
$PROXYGRAPHICS
 70
     1
  9
$MEASUREMENT
 70
     0
  0
ENDSEC
  0
SECTION
  2
CLASSES
  0
CLASS
  1
DICTIONARYVAR
  2
AcDbDictionaryVar
  3
"AutoCAD"
 90
        0
280
     0
281
     0
  0
CLASS
  1
ACDBDICTIONARYWDFLT
  2
AcDbDictionaryWithDefault
  3
AutoCAD 2000
 90
        0
280
     0
281
     0
  0
CLASS
  1
ACDBPLACEHOLDER
  2
AcDbPlaceHolder
  3
AutoCAD 2000
 90
        0
280
     0
281
     0
  0
CLASS
  1
LAYOUT
  2
AcDbLayout
  3
AutoCAD 2000
 90
        0
280
     0
281
     0
  0
CLASS
  1
LONG_TRANSACTION
  2
AcDbLongTransaction
  3
AutoCAD 2000
 90
        0
280
     0
281
     0
  0
CLASS
  1
LWPOLYLINE
  2
AcDbPolyline
  3
"AutoCAD"
 90
        0
280
     0
281
     1
  0
CLASS
  1
HATCH
  2
AcDbHatch
  3
"ACAD_SEDONA"
 90
        0
280
     0
281
     1
  0
CLASS
  1
XRECORD
  2
AcDbXrecord
  3
"<Built In>"
 90
        0
280
     0
281
     0
  0
CLASS
  1
LONG_TRANSACTION
  2
AcDbLongTransaction
  3
AutoCAD 2000
 90
        0
280
     0
281
     0
  0
CLASS
  1
LWPOLYLINE
  2
AcDbPolyline
  3
"AutoCAD"
 90
        0
280
     0
281
     1
  0
CLASS
  1
HATCH
  2
AcDbHatch
  3
"ACAD_SEDONA"
 90
        0
280
     0
281
     1
  0
CLASS
  1
XRECORD
  2
AcDbXrecord
  3
"<Built In>"
 90
        0
280
     0
281
     0
  0
CLASS
  1
LONG_TRANSACTION
  2
AcDbLongTransaction
  3
AutoCAD 2000
 90
        0
280
     0
281
     0
  0
CLASS
  1
LWPOLYLINE
  2
AcDbPolyline
  3
"AutoCAD"
 90
        0
280
     0
281
     1
  0
CLASS
  1
HATCH
  2
AcDbHatch
  3
"ACAD_SEDONA"
 90
        0
280
     0
281
     1
  0
CLASS
  1
XRECORD
  2
AcDbXrecord
  3
"<Built In>"
 90
        0
280
     0
281
     0
  0
CLASS
  1
LONG_TRANSACTION
  2
AcDbLongTransaction
  3
AutoCAD 2000
 90
        0
280
     0
281
     0
  0
CLASS
  1
LWPOLYLINE
  2
AcDbPolyline
  3
"AutoCAD"
 90
        0
280
     0
281
     1
  0
CLASS
  1
HATCH
  2
AcDbHatch
  3
"ACAD_SEDONA"
 90
        0
280
     0
281
     1
  0
CLASS
  1
XRECORD
  2
AcDbXrecord
  3
"<Built In>"
 90
        0
280
     0
281
     0
  0
CLASS
  1
LONG_TRANSACTION
  2
AcDbLongTransaction
  3
AutoCAD 2000
 90
        0
280
     0
281
     0
  0
CLASS
  1
LWPOLYLINE
  2
AcDbPolyline
  3
"AutoCAD"
 90
        0
280
     0
281
     1
  0
CLASS
  1
HATCH
  2
AcDbHatch
  3
"ACAD_SEDONA"
 90
        0
280
     0
281
     1
  0
CLASS
  1
XRECORD
  2
AcDbXrecord
  3
"<Built In>"
 90
        0
280
     0
281
     0
  0
CLASS
  1
LONG_TRANSACTION
  2
AcDbLongTransaction
  3
AutoCAD 2000
 90
        0
280
     0
281
     0
  0
CLASS
  1
LWPOLYLINE
  2
AcDbPolyline
  3
"AutoCAD"
 90
        0
280
     0
281
     1
  0
CLASS
  1
HATCH
  2
AcDbHatch
  3
"ACAD_SEDONA"
 90
        0
280
     0
281
     1
  0
CLASS
  1
XRECORD
  2
AcDbXrecord
  3
"<Built In>"
 90
        0
280
     0
281
     0
  0
CLASS
  1
LONG_TRANSACTION
  2
AcDbLongTransaction
  3
AutoCAD 2000
 90
        0
280
     0
281
     0
  0
CLASS
  1
LWPOLYLINE
  2
AcDbPolyline
  3
"AutoCAD"
 90
        0
280
     0
281
     1
  0
CLASS
  1
HATCH
  2
AcDbHatch
  3
"ACAD_SEDONA"
 90
        0
280
     0
281
     1
  0
CLASS
  1
XRECORD
  2
AcDbXrecord
  3
"<Built In>"
 90
        0
280
     0
281
     0
  0
CLASS
  1
LONG_TRANSACTION
  2
AcDbLongTransaction
  3
AutoCAD 2000
 90
        0
280
     0
281
     0
  0
CLASS
  1
LWPOLYLINE
  2
AcDbPolyline
  3
"AutoCAD"
 90
        0
280
     0
281
     1
  0
CLASS
  1
HATCH
  2
AcDbHatch
  3
"ACAD_SEDONA"
 90
        0
280
     0
281
     1
  0
CLASS
  1
XRECORD
  2
AcDbXrecord
  3
"<Built In>"
 90
        0
280
     0
281
     0
  0
CLASS
  1
LONG_TRANSACTION
  2
AcDbLongTransaction
  3
AutoCAD 2000
 90
        0
280
     0
281
     0
  0
CLASS
  1
LWPOLYLINE
  2
AcDbPolyline
  3
"AutoCAD"
 90
        0
280
     0
281
     1
  0
CLASS
  1
HATCH
  2
AcDbHatch
  3
"ACAD_SEDONA"
 90
        0
280
     0
281
     1
  0
CLASS
  1
XRECORD
  2
AcDbXrecord
  3
"<Built In>"
 90
        0
280
     0
281
     0
  0
CLASS
  1
LONG_TRANSACTION
  2
AcDbLongTransaction
  3
AutoCAD 2000
 90
        0
280
     0
281
     0
  0
CLASS
  1
LWPOLYLINE
  2
AcDbPolyline
  3
"AutoCAD"
 90
        0
280
     0
281
     1
  0
CLASS
  1
HATCH
  2
AcDbHatch
  3
"ACAD_SEDONA"
 90
        0
280
     0
281
     1
  0
CLASS
  1
XRECORD
  2
AcDbXrecord
  3
"<Built In>"
 90
        0
280
     0
281
     0
  0
CLASS
  1
LONG_TRANSACTION
  2
AcDbLongTransaction
  3
AutoCAD 2000
 90
        0
280
     0
281
     0
  0
CLASS
  1
LWPOLYLINE
  2
AcDbPolyline
  3
"AutoCAD"
 90
        0
280
     0
281
     1
  0
CLASS
  1
HATCH
  2
AcDbHatch
  3
"ACAD_SEDONA"
 90
        0
280
     0
281
     1
  0
CLASS
  1
XRECORD
  2
AcDbXrecord
  3
"<Built In>"
 90
        0
280
     0
281
     0
  0
CLASS
  1
LONG_TRANSACTION
  2
AcDbLongTransaction
  3
AutoCAD 2000
 90
        0
280
     0
281
     0
  0
CLASS
  1
LWPOLYLINE
  2
AcDbPolyline
  3
"AutoCAD"
 90
        0
280
     0
281
     1
  0
CLASS
  1
HATCH
  2
AcDbHatch
  3
"ACAD_SEDONA"
 90
        0
280
     0
281
     1
  0
CLASS
  1
XRECORD
  2
AcDbXrecord
  3
"<Built In>"
 90
        0
280
     0
281
     0
  0
CLASS
  1
LONG_TRANSACTION
  2
AcDbLongTransaction
  3
AutoCAD 2000
 90
        0
280
     0
281
     0
  0
CLASS
  1
LWPOLYLINE
  2
AcDbPolyline
  3
"AutoCAD"
 90
        0
280
     0
281
     1
  0
CLASS
  1
HATCH
  2
AcDbHatch
  3
"ACAD_SEDONA"
 90
        0
280
     0
281
     1
  0
CLASS
  1
XRECORD
  2
AcDbXrecord
  3
"<Built In>"
 90
        0
280
     0
281
     0
  0
CLASS
  1
LONG_TRANSACTION
  2
AcDbLongTransaction
  3
AutoCAD 2000
 90
        0
280
     0
281
     0
  0
CLASS
  1
LWPOLYLINE
  2
AcDbPolyline
  3
"AutoCAD"
 90
        0
280
     0
281
     1
  0
CLASS
  1
HATCH
  2
AcDbHatch
  3
"ACAD_SEDONA"
 90
        0
280
     0
281
     1
  0
CLASS
  1
XRECORD
  2
AcDbXrecord
  3
"<Built In>"
 90
        0
280
     0
281
     0
  0
CLASS
  1
LONG_TRANSACTION
  2
AcDbLongTransaction
  3
AutoCAD 2000
 90
        0
280
     0
281
     0
  0
CLASS
  1
LWPOLYLINE
  2
AcDbPolyline
  3
"AutoCAD"
 90
        0
280
     0
281
     1
  0
CLASS
  1
HATCH
  2
AcDbHatch
  3
"ACAD_SEDONA"
 90
        0
280
     0
281
     1
  0
CLASS
  1
XRECORD
  2
AcDbXrecord
  3
"<Built In>"
 90
        0
280
     0
281
     0
  0
CLASS
  1
LONG_TRANSACTION
  2
AcDbLongTransaction
  3
AutoCAD 2000
 90
        0
280
     0
281
     0
  0
CLASS
  1
LWPOLYLINE
  2
AcDbPolyline
  3
"AutoCAD"
 90
        0
280
     0
281
     1
  0
CLASS
  1
HATCH
  2
AcDbHatch
  3
"ACAD_SEDONA"
 90
        0
280
     0
281
     1
  0
CLASS
  1
XRECORD
  2
AcDbXrecord
  3
"<Built In>"
 90
        0
280
     0
281
     0
  0
CLASS
  1
LONG_TRANSACTION
  2
AcDbLongTransaction
  3
AutoCAD 2000
 90
        0
280
     0
281
     0
  0
CLASS
  1
LWPOLYLINE
  2
AcDbPolyline
  3
"AutoCAD"
 90
        0
280
     0
281
     1
  0
CLASS
  1
HATCH
  2
AcDbHatch
  3
"ACAD_SEDONA"
 90
        0
280
     0
281
     1
  0
CLASS
  1
XRECORD
  2
AcDbXrecord
  3
"<Built In>"
 90
        0
280
     0
281
     0
  0
CLASS
  1
LONG_TRANSACTION
  2
AcDbLongTransaction
  3
AutoCAD 2000
 90
        0
280
     0
281
     0
  0
CLASS
  1
LWPOLYLINE
  2
AcDbPolyline
  3
"AutoCAD"
 90
        0
280
     0
281
     1
  0
CLASS
  1
HATCH
  2
AcDbHatch
  3
"ACAD_SEDONA"
 90
        0
280
     0
281
     1
  0
CLASS
  1
XRECORD
  2
AcDbXrecord
  3
"<Built In>"
 90
        0
280
     0
281
     0
  0
CLASS
  1
LONG_TRANSACTION
  2
AcDbLongTransaction
  3
AutoCAD 2000
 90
        0
280
     0
281
     0
  0
CLASS
  1
LWPOLYLINE
  2
AcDbPolyline
  3
"AutoCAD"
 90
        0
280
     0
281
     1
  0
CLASS
  1
HATCH
  2
AcDbHatch
  3
"ACAD_SEDONA"
 90
        0
280
     0
281
     1
  0
CLASS
  1
XRECORD
  2
AcDbXrecord
  3
"<Built In>"
 90
        0
280
     0
281
     0
  0
CLASS
  1
LONG_TRANSACTION
  2
AcDbLongTransaction
  3
AutoCAD 2000
 90
        0
280
     0
281
     0
  0
CLASS
  1
LWPOLYLINE
  2
AcDbPolyline
  3
"AutoCAD"
 90
        0
280
     0
281
     1
  0
CLASS
  1
HATCH
  2
AcDbHatch
  3
"ACAD_SEDONA"
 90
        0
280
     0
281
     1
  0
CLASS
  1
XRECORD
  2
AcDbXrecord
  3
"<Built In>"
 90
        0
280
     0
281
     0
  0
CLASS
  1
LONG_TRANSACTION
  2
AcDbLongTransaction
  3
AutoCAD 2000
 90
        0
280
     0
281
     0
  0
CLASS
  1
LWPOLYLINE
  2
AcDbPolyline
  3
"AutoCAD"
 90
        0
280
     0
281
     1
  0
CLASS
  1
HATCH
  2
AcDbHatch
  3
"ACAD_SEDONA"
 90
        0
280
     0
281
     1
  0
CLASS
  1
XRECORD
  2
AcDbXrecord
  3
"<Built In>"
 90
        0
280
     0
281
     0
  0
CLASS
  1
LONG_TRANSACTION
  2
AcDbLongTransaction
  3
AutoCAD 2000
 90
        0
280
     0
281
     0
  0
CLASS
  1
LWPOLYLINE
  2
AcDbPolyline
  3
"AutoCAD"
 90
        0
280
     0
281
     1
  0
CLASS
  1
HATCH
  2
AcDbHatch
  3
"ACAD_SEDONA"
 90
        0
280
     0
281
     1
  0
CLASS
  1
XRECORD
  2
AcDbXrecord
  3
"<Built In>"
 90
        0
280
     0
281
     0
  0
CLASS
  1
LONG_TRANSACTION
  2
AcDbLongTransaction
  3
AutoCAD 2000
 90
        0
280
     0
281
     0
  0
CLASS
  1
LWPOLYLINE
  2
AcDbPolyline
  3
"AutoCAD"
 90
        0
280
     0
281
     1
  0
CLASS
  1
HATCH
  2
AcDbHatch
  3
"ACAD_SEDONA"
 90
        0
280
     0
281
     1
  0
CLASS
  1
XRECORD
  2
AcDbXrecord
  3
"<Built In>"
 90
        0
280
     0
281
     0
  0
CLASS
  1
LONG_TRANSACTION
  2
AcDbLongTransaction
  3
AutoCAD 2000
 90
        0
280
     0
281
     0
  0
CLASS
  1
LWPOLYLINE
  2
AcDbPolyline
  3
"AutoCAD"
 90
        0
280
     0
281
     1
  0
CLASS
  1
HATCH
  2
AcDbHatch
  3
"ACAD_SEDONA"
 90
        0
280
     0
281
     1
  0
CLASS
  1
XRECORD
  2
AcDbXrecord
  3
"<Built In>"
 90
        0
280
     0
281
     0
  0
CLASS
  1
LONG_TRANSACTION
  2
AcDbLongTransaction
  3
AutoCAD 2000
 90
        0
280
     0
281
     0
  0
CLASS
  1
LWPOLYLINE
  2
AcDbPolyline
  3
"AutoCAD"
 90
        0
280
     0
281
     1
  0
CLASS
  1
HATCH
  2
AcDbHatch
  3
"ACAD_SEDONA"
 90
        0
280
     0
281
     1
  0
CLASS
  1
XRECORD
  2
AcDbXrecord
  3
"<Built In>"
 90
        0
280
     0
281
     0
  0
ENDSEC
  0
SECTION
  2
TABLES
  0
TABLE
  2
VPORT
  5
458C7
100
AcDbSymbolTable
 70
     1
  0
VPORT
  5
6A4AC
102
{ACAD_XDICTIONARY
360
6A4AF
102
}
100
AcDbSymbolTableRecord
100
AcDbViewportTableRecord
  2
*ACTIVE
 70
     0
 10
0.0
 20
0.0
 11
1.0
 21
1.0
 12
-0.555297
 22
0.612328
 13
0.0
 23
0.0
 14
0.25
 24
0.25
 15
0.25
 25
0.25
 16
0.0
 26
0.0
 36
1.0
 17
0.563444
 27
-0.880137
 37
1.686493
 40
2.118546
 41
1.960674
 42
50.0
 43
0.0
 44
0.0
 50
0.0
 51
0.0
 71
     0
 72
 20000
 73
     1
 74
     1
 75
     0
 76
     0
 77
     0
 78
     0
  0
ENDTAB
  0
TABLE
  2
LTYPE
  5
458C4
100
AcDbSymbolTable
 70
     1
  0
LTYPE
  5
458D0
100
AcDbSymbolTableRecord
100
AcDbLinetypeTableRecord
  2
BYBLOCK
 70
     0
  3

 72
    65
 73
     0
 40
0.0
  0
LTYPE
  5
458D1
100
AcDbSymbolTableRecord
100
AcDbLinetypeTableRecord
  2
BYLAYER
 70
     0
  3

 72
    65
 73
     0
 40
0.0
  0
LTYPE
  5
458D2
100
AcDbSymbolTableRecord
100
AcDbLinetypeTableRecord
  2
CONTINUOUS
 70
     0
  3
Solid line
 72
    65
 73
     0
 40
0.0
  0
ENDTAB
  0
TABLE
  2
LAYER
  5
458C1
100
AcDbSymbolTable
 70
     7
  0
LAYER
  5
458CD
100
AcDbSymbolTableRecord
100
AcDbLayerTableRecord
  2
0
 70
     0
 62
     7
  6
CONTINUOUS
  0
LAYER
  5
458EA
100
AcDbSymbolTableRecord
100
AcDbLayerTableRecord
  2
DIMS-MTG-HOLES
 70
     0
 62
     1
  6
CONTINUOUS
  0
LAYER
  5
458EB
100
AcDbSymbolTableRecord
100
AcDbLayerTableRecord
  2
ATTRIBUTES
 70
     0
 62
     7
  6
CONTINUOUS
  0
LAYER
  5
4593B
102
{ACAD_XDICTIONARY
360
6A4D8
102
}
100
AcDbSymbolTableRecord
100
AcDbLayerTableRecord
  2
AREA1
 70
     0
 62
    -7
  6
CONTINUOUS
  0
LAYER
  5
45940
102
{ACAD_XDICTIONARY
360
6A4AD
102
}
100
AcDbSymbolTableRecord
100
AcDbLayerTableRecord
  2
DEFPOINTS
 70
     0
 62
    -7
  6
CONTINUOUS
  0
LAYER
  5
45954
100
AcDbSymbolTableRecord
100
AcDbLayerTableRecord
  2
SCALE
 70
     0
 62
    -7
  6
CONTINUOUS
  0
LAYER
  5
4D59A
100
AcDbSymbolTableRecord
100
AcDbLayerTableRecord
  2
SNAP_POINTS
 70
     0
 62
    -1
  6
CONTINUOUS
  0
ENDTAB
  0
TABLE
  2
STYLE
  5
458C2
100
AcDbSymbolTable
 70
     1
  0
STYLE
  5
458CE
100
AcDbSymbolTableRecord
100
AcDbTextStyleTableRecord
  2
STANDARD
 70
     0
 40
0.0
 41
1.0
 50
0.0
 71
     0
 42
0.12
  3
txt
  4

  0
ENDTAB
  0
TABLE
  2
VIEW
  5
458C5
100
AcDbSymbolTable
 70
     0
  0
ENDTAB
  0
TABLE
  2
UCS
  5
458C6
100
AcDbSymbolTable
 70
     0
  0
ENDTAB
  0
TABLE
  2
APPID
  5
458C8
100
AcDbSymbolTable
 70
     2
  0
APPID
  5
458CF
100
AcDbSymbolTableRecord
100
AcDbRegAppTableRecord
  2
ACAD
 70
     0
  0
APPID
  5
5FD5B
100
AcDbSymbolTableRecord
100
AcDbRegAppTableRecord
  2
AVE_RENDER
 70
     0
  0
ENDTAB
  0
TABLE
  2
DIMSTYLE
  5
458C9
100
AcDbSymbolTable
 70
     1
  0
DIMSTYLE
105
458F6
102
{ACAD_XDICTIONARY
360
6A4D4
102
}
102
{ACAD_REACTORS
330
6A404
330
6A41A
102
}
100
AcDbSymbolTableRecord
100
AcDbDimStyleTableRecord
  2
ABECAD_3D
 70
     0
  3

  4

  5

  6

  7

 40
1.0
 41
0.18
 42
0.0625
 43
0.375
 44
0.1
 45
0.0
 46
0.0
 47
0.0
 48
0.0
140
0.08
141
0.09
142
0.0
143
25.4
144
1.0
145
0.0
146
1.5
147
0.09
 71
     0
 72
     0
 73
     0
 74
     1
 75
     0
 76
     0
 77
     0
 78
     4
170
     1
171
     2
172
     0
173
     0
174
     0
175
     0
176
     0
177
     0
178
     0
270
     7
271
     6
272
     6
273
     2
274
     2
340
458CE
275
     0
280
     0
281
     0
282
     0
283
     1
284
     4
285
     4
286
     4
287
     5
288
     1
  0
ENDTAB
  0
TABLE
  2
BLOCK_RECORD
  5
458C0
100
AcDbSymbolTable
 70
     2
  0
BLOCK_RECORD
  5
458D6
102
{ACAD_XDICTIONARY
360
4592C
102
}
100
AcDbSymbolTableRecord
100
AcDbBlockTableRecord
  2
*MODEL_SPACE
  0
BLOCK_RECORD
  5
458D3
102
{ACAD_XDICTIONARY
360
4592A
102
}
100
AcDbSymbolTableRecord
100
AcDbBlockTableRecord
  2
*PAPER_SPACE
  0
BLOCK_RECORD
  5
6A405
100
AcDbSymbolTableRecord
100
AcDbBlockTableRecord
  2
*D0
  0
BLOCK_RECORD
  5
6A41B
100
AcDbSymbolTableRecord
100
AcDbBlockTableRecord
  2
*D1
  0
ENDTAB
  0
ENDSEC
  0
SECTION
  2
BLOCKS
  0
BLOCK
  5
458DF
100
AcDbEntity
  8
0
100
AcDbBlockBegin
  2
*MODEL_SPACE
 70
     0
 10
0.0
 20
0.0
 30
0.0
  3
*MODEL_SPACE
  1

  0
ENDBLK
  5
458E0
100
AcDbEntity
  8
0
100
AcDbBlockEnd
  0
BLOCK
  5
458DD
100
AcDbEntity
 67
     1
  8
0
100
AcDbBlockBegin
  2
*PAPER_SPACE
 70
     0
 10
0.0
 20
0.0
 30
0.0
  3
*PAPER_SPACE
  1

  0
ENDBLK
  5
458DE
100
AcDbEntity
 67
     1
  8
0
100
AcDbBlockEnd
  0
BLOCK
  5
6A40F
100
AcDbEntity
  8
0
100
AcDbBlockBegin
  2
*D0
 70
     1
 10
0.0
 20
0.0
 30
0.0
  3
*D0
  1

  0
LINE
  5
6A411
100
AcDbEntity
  8
AREA1
 62
     0
100
AcDbLine
 10
-0.7325
 20
0.35
 30
0.0
 11
-0.99889
 21
0.35
 31
0.0
1001
ACAD
1000
RTLwPs
1070
   158
  0
LINE
  5
6A412
100
AcDbEntity
  8
AREA1
 62
     0
100
AcDbLine
 10
-0.7325
 20
-0.38
 30
0.0
 11
-0.99889
 21
-0.38
 31
0.0
1001
ACAD
1000
RTLwPs
1070
   158
  0
LINE
  5
6A413
100
AcDbEntity
  8
AREA1
 62
     0
100
AcDbLine
 10
-0.89889
 20
0.17
 30
0.0
 11
-0.89889
 21
-0.2
 31
0.0
1001
ACAD
1000
RTLwPs
1070
   158
  0
MTEXT
  5
6A414
100
AcDbEntity
  8
AREA1
 62
     0
100
AcDbMText
 10
-1.103647
 20
-0.016616
 30
0.0
 40
0.08
 41
0.0
 71
     5
 72
     1
  1
\A1;47/64 [18.54]
 11
0.0
 21
1.0
 31
0.0
1001
ACAD
1000
MTEXTBEGIN
1070
    73
1070
     1
1070
    44
1040
1.0
1070
    74
1070
     0
1000
MTEXTEND
1000
MTEXTBEGIN
1070
    73
1070
     1
1070
    44
1040
1.0
1070
    74
1070
     0
1000
MTEXTEND
1000
MTEXTBEGIN
1070
    73
1070
     1
1070
    44
1040
1.0
1070
    74
1070
     0
1000
MTEXTEND
  0
SOLID
  5
6A415
100
AcDbEntity
  8
AREA1
 62
     0
100
AcDbTrace
 10
-0.92889
 20
0.17
 30
0.0
 11
-0.86889
 21
0.17
 31
0.0
 12
-0.89889
 22
0.35
 32
0.0
 13
-0.89889
 23
0.35
 33
0.0
  0
SOLID
  5
6A416
100
AcDbEntity
  8
AREA1
 62
     0
100
AcDbTrace
 10
-0.92889
 20
-0.2
 30
0.0
 11
-0.86889
 21
-0.2
 31
0.0
 12
-0.89889
 22
-0.38
 32
0.0
 13
-0.89889
 23
-0.38
 33
0.0
  0
POINT
  5
6A417
100
AcDbEntity
  8
DEFPOINTS
 62
     0
100
AcDbPoint
 10
-0.67
 20
0.35
 30
-0.38
  0
POINT
  5
6A418
100
AcDbEntity
  8
DEFPOINTS
 62
     0
100
AcDbPoint
 10
-0.67
 20
-0.38
 30
-0.38
  0
POINT
  5
6A419
100
AcDbEntity
  8
DEFPOINTS
 62
     0
100
AcDbPoint
 10
-0.89889
 20
-0.38
 30
0.0
  0
ENDBLK
  5
6A410
100
AcDbEntity
  8
0
100
AcDbBlockEnd
  0
BLOCK
  5
6A426
100
AcDbEntity
  8
0
100
AcDbBlockBegin
  2
*D1
 70
     1
 10
0.0
 20
0.0
 30
0.0
  3
*D1
  1

  0
LINE
  5
6A41C
100
AcDbEntity
  8
AREA1
 62
     0
100
AcDbLine
 10
-0.67
 20
0.4125
 30
0.0
 11
-0.67
 21
0.773846
 31
0.0
1001
ACAD
1000
RTLwPs
1070
   158
  0
LINE
  5
6A41D
100
AcDbEntity
  8
AREA1
 62
     0
100
AcDbLine
 10
0.8
 20
0.4125
 30
0.0
 11
0.8
 21
0.773846
 31
0.0
1001
ACAD
1000
RTLwPs
1070
   158
  0
LINE
  5
6A41E
100
AcDbEntity
  8
AREA1
 62
     0
100
AcDbLine
 10
-0.85
 20
0.673846
 30
0.0
 11
-1.03
 21
0.673846
 31
0.0
1001
ACAD
1000
RTLwPs
1070
   158
  0
LINE
  5
6A41F
100
AcDbEntity
  8
AREA1
 62
     0
100
AcDbLine
 10
0.98
 20
0.673846
 30
0.0
 11
1.16
 21
0.673846
 31
0.0
1001
ACAD
1000
RTLwPs
1070
   158
  0
MTEXT
  5
6A420
100
AcDbEntity
  8
AREA1
 62
     0
100
AcDbMText
 10
0.080108
 20
0.673846
 30
0.0
 40
0.08
 41
0.0
 71
     5
 72
     1
  1
\A1;1 15/32 [37.34]
1001
ACAD
1000
MTEXTBEGIN
1070
    73
1070
     1
1070
    44
1040
1.0
1070
    74
1070
     0
1000
MTEXTEND
1000
MTEXTBEGIN
1070
    73
1070
     1
1070
    44
1040
1.0
1070
    74
1070
     0
1000
MTEXTEND
1000
MTEXTBEGIN
1070
    73
1070
     1
1070
    44
1040
1.0
1070
    74
1070
     0
1000
MTEXTEND
  0
SOLID
  5
6A421
100
AcDbEntity
  8
AREA1
 62
     0
100
AcDbTrace
 10
-0.85
 20
0.703846
 30
0.0
 11
-0.85
 21
0.643846
 31
0.0
 12
-0.67
 22
0.673846
 32
0.0
 13
-0.67
 23
0.673846
 33
0.0
  0
SOLID
  5
6A422
100
AcDbEntity
  8
AREA1
 62
     0
100
AcDbTrace
 10
0.98
 20
0.703846
 30
0.0
 11
0.98
 21
0.643846
 31
0.0
 12
0.8
 22
0.673846
 32
0.0
 13
0.8
 23
0.673846
 33
0.0
  0
POINT
  5
6A423
100
AcDbEntity
  8
DEFPOINTS
 62
     0
100
AcDbPoint
 10
-0.67
 20
0.35
 30
-0.38
  0
POINT
  5
6A424
100
AcDbEntity
  8
DEFPOINTS
 62
     0
100
AcDbPoint
 10
0.8
 20
0.35
 30
-0.38
  0
POINT
  5
6A425
100
AcDbEntity
  8
DEFPOINTS
 62
     0
100
AcDbPoint
 10
0.8
 20
0.673846
 30
0.0
  0
ENDBLK
  5
6A427
100
AcDbEntity
  8
0
100
AcDbBlockEnd
  0
ENDSEC
  0
SECTION
  2
ENTITIES
  0
ATTDEF
  5
6A3C2
100
AcDbEntity
  8
ATTRIBUTES
100
AcDbText
 10
-0.189449
 20
-0.249598
 30
-1.48
 40
0.037702
  1
ALLEN-BRADLEY
 50
90.0
100
AcDbAttributeDefinition
  3
MANUFACTURER NAME?
  2
AC_VND_LABEL
 70
     1
  0
ATTDEF
  5
6A3C3
100
AcDbEntity
  8
ATTRIBUTES
100
AcDbText
 10
-0.110903
 20
-0.249598
 30
-1.48
 40
0.037702
  1
100-JE
 50
90.0
100
AcDbAttributeDefinition
  3
CATALOG NUMBER?
  2
AC_PART_NO
 70
     1
  0
ATTDEF
  5
6A3C4
100
AcDbEntity
  8
ATTRIBUTES
100
AcDbText
 10
-0.032357
 20
-0.249598
 30
-1.48
 40
0.037702
  1
MCS IEC INTERFACE
 50
90.0
100
AcDbAttributeDefinition
  3
PART DESCRIPTION?
  2
AC_DESCRIPTION
 70
     1
  0
ATTDEF
  5
6A3C5
100
AcDbEntity
  8
ATTRIBUTES
100
AcDbText
 10
0.046188
 20
-0.249598
 30
-1.48
 40
0.037702
  1

 50
90.0
100
AcDbAttributeDefinition
  3
DEVICE ID?
  2
DEVICE_ID
 70
     1
  0
ATTDEF
  5
6A3C6
100
AcDbEntity
  8
ATTRIBUTES
100
AcDbText
 10
0.124734
 20
-0.249598
 30
-1.48
 40
0.037702
  1

 50
90.0
100
AcDbAttributeDefinition
  3
CUSTOMER PART NUMBER?
  2
AC_CPART_NO
 70
     1
  0
ATTDEF
  5
6A3C7
100
AcDbEntity
  8
ATTRIBUTES
100
AcDbText
 10
0.203279
 20
-0.249598
 30
-1.48
 40
0.037702
  1

 50
90.0
100
AcDbAttributeDefinition
  3
CUSTOMER NOTE?
  2
AC_NOTE
 70
     1
  0
ATTDEF
  5
6A3C8
100
AcDbEntity
  8
ATTRIBUTES
100
AcDbText
 10
0.281825
 20
-0.249598
 30
-1.48
 40
0.037702
  1

 50
90.0
100
AcDbAttributeDefinition
  3
FASTENER DATA?
  2
FASTENER
 70
     1
  0
ATTDEF
  5
6A3C9
100
AcDbEntity
  8
ATTRIBUTES
100
AcDbText
 10
0.360371
 20
-0.249598
 30
-1.48
 40
0.037702
  1
INCH
 50
90.0
100
AcDbAttributeDefinition
  3
UNIT OF SCALE?
  2
AC_SCALE_UNIT
 70
     1
  0
ATTDEF
  5
6A3CA
100
AcDbEntity
  8
ATTRIBUTES
100
AcDbText
 10
0.438916
 20
-0.249598
 30
-1.48
 40
0.037702
  1
0
 50
90.0
100
AcDbAttributeDefinition
  3
VIEW CODE?
  2
AC_VIEW_CODE
 70
     1
  0
POLYLINE
  5
6A3CB
100
AcDbEntity
  8
0
100
AcDbPolygonMesh
 66
     1
 10
0.0
 20
0.0
 30
0.0
 70
    16
 71
     6
 72
     3
  0
VERTEX
  5
6A3CC
100
AcDbEntity
  8
0
100
AcDbVertex
100
AcDbPolygonMeshVertex
 10
0.8
 20
0.35
 30
-0.38
 70
    64
  0
VERTEX
  5
6A3CD
100
AcDbEntity
  8
0
100
AcDbVertex
100
AcDbPolygonMeshVertex
 10
0.8
 20
0.35
 30
-1.48
 70
    64
  0
VERTEX
  5
6A3CE
100
AcDbEntity
  8
0
100
AcDbVertex
100
AcDbPolygonMeshVertex
 10
0.8
 20
0.35
 30
-1.48
 70
    64
  0
VERTEX
  5
6A3CF
100
AcDbEntity
  8
0
100
AcDbVertex
100
AcDbPolygonMeshVertex
 10
0.8
 20
-0.38
 30
-0.38
 70
    64
  0
VERTEX
  5
6A3D0
100
AcDbEntity
  8
0
100
AcDbVertex
100
AcDbPolygonMeshVertex
 10
0.8
 20
-0.38
 30
-1.48
 70
    64
  0
VERTEX
  5
6A3D1
100
AcDbEntity
  8
0
100
AcDbVertex
100
AcDbPolygonMeshVertex
 10
0.8
 20
-0.38
 30
-1.48
 70
    64
  0
VERTEX
  5
6A3D2
100
AcDbEntity
  8
0
100
AcDbVertex
100
AcDbPolygonMeshVertex
 10
-0.67
 20
-0.38
 30
-0.38
 70
    64
  0
VERTEX
  5
6A3D3
100
AcDbEntity
  8
0
100
AcDbVertex
100
AcDbPolygonMeshVertex
 10
-0.67
 20
-0.38
 30
-1.48
 70
    64
  0
VERTEX
  5
6A3D4
100
AcDbEntity
  8
0
100
AcDbVertex
100
AcDbPolygonMeshVertex
 10
0.8
 20
-0.38
 30
-1.48
 70
    64
  0
VERTEX
  5
6A3D5
100
AcDbEntity
  8
0
100
AcDbVertex
100
AcDbPolygonMeshVertex
 10
-0.67
 20
0.35
 30
-0.38
 70
    64
  0
VERTEX
  5
6A3D6
100
AcDbEntity
  8
0
100
AcDbVertex
100
AcDbPolygonMeshVertex
 10
-0.67
 20
0.35
 30
-1.48
 70
    64
  0
VERTEX
  5
6A3D7
100
AcDbEntity
  8
0
100
AcDbVertex
100
AcDbPolygonMeshVertex
 10
0.8
 20
0.35
 30
-1.48
 70
    64
  0
VERTEX
  5
6A3D8
100
AcDbEntity
  8
0
100
AcDbVertex
100
AcDbPolygonMeshVertex
 10
-0.67
 20
0.35
 30
-0.38
 70
    64
  0
VERTEX
  5
6A3D9
100
AcDbEntity
  8
0
100
AcDbVertex
100
AcDbPolygonMeshVertex
 10
-0.67
 20
0.35
 30
-0.38
 70
    64
  0
VERTEX
  5
6A3DA
100
AcDbEntity
  8
0
100
AcDbVertex
100
AcDbPolygonMeshVertex
 10
0.8
 20
0.35
 30
-0.38
 70
    64
  0
VERTEX
  5
6A3DB
100
AcDbEntity
  8
0
100
AcDbVertex
100
AcDbPolygonMeshVertex
 10
-0.67
 20
-0.38
 30
-0.38
 70
    64
  0
VERTEX
  5
6A3DC
100
AcDbEntity
  8
0
100
AcDbVertex
100
AcDbPolygonMeshVertex
 10
-0.67
 20
-0.38
 30
-0.38
 70
    64
  0
VERTEX
  5
6A3DD
100
AcDbEntity
  8
0
100
AcDbVertex
100
AcDbPolygonMeshVertex
 10
0.8
 20
-0.38
 30
-0.38
 70
    64
  0
SEQEND
  5
6A3DE
100
AcDbEntity
  8
0
  0
POLYLINE
  5
6A3DF
100
AcDbEntity
  8
0
100
AcDbPolygonMesh
 66
     1
 10
0.0
 20
0.0
 30
0.0
 70
    16
 71
     6
 72
     3
  0
VERTEX
  5
6A3E0
100
AcDbEntity
  8
0
100
AcDbVertex
100
AcDbPolygonMeshVertex
 10
0.0
 20
0.22
 30
0.0
 70
    64
  0
VERTEX
  5
6A3E1
100
AcDbEntity
  8
0
100
AcDbVertex
100
AcDbPolygonMeshVertex
 10
0.0
 20
0.22
 30
-0.38
 70
    64
  0
VERTEX
  5
6A3E2
100
AcDbEntity
  8
0
100
AcDbVertex
100
AcDbPolygonMeshVertex
 10
0.0
 20
0.22
 30
-0.38
 70
    64
  0
VERTEX
  5
6A3E3
100
AcDbEntity
  8
0
100
AcDbVertex
100
AcDbPolygonMeshVertex
 10
0.0
 20
0.0
 30
0.0
 70
    64
  0
VERTEX
  5
6A3E4
100
AcDbEntity
  8
0
100
AcDbVertex
100
AcDbPolygonMeshVertex
 10
0.0
 20
0.0
 30
-0.38
 70
    64
  0
VERTEX
  5
6A3E5
100
AcDbEntity
  8
0
100
AcDbVertex
100
AcDbPolygonMeshVertex
 10
0.0
 20
0.0
 30
-0.38
 70
    64
  0
VERTEX
  5
6A3E6
100
AcDbEntity
  8
0
100
AcDbVertex
100
AcDbPolygonMeshVertex
 10
-0.28
 20
0.0
 30
0.0
 70
    64
  0
VERTEX
  5
6A3E7
100
AcDbEntity
  8
0
100
AcDbVertex
100
AcDbPolygonMeshVertex
 10
-0.28
 20
0.0
 30
-0.38
 70
    64
  0
VERTEX
  5
6A3E8
100
AcDbEntity
  8
0
100
AcDbVertex
100
AcDbPolygonMeshVertex
 10
0.0
 20
0.0
 30
-0.38
 70
    64
  0
VERTEX
  5
6A3E9
100
AcDbEntity
  8
0
100
AcDbVertex
100
AcDbPolygonMeshVertex
 10
-0.28
 20
0.22
 30
0.0
 70
    64
  0
VERTEX
  5
6A3EA
100
AcDbEntity
  8
0
100
AcDbVertex
100
AcDbPolygonMeshVertex
 10
-0.28
 20
0.22
 30
-0.38
 70
    64
  0
VERTEX
  5
6A3EB
100
AcDbEntity
  8
0
100
AcDbVertex
100
AcDbPolygonMeshVertex
 10
0.0
 20
0.22
 30
-0.38
 70
    64
  0
VERTEX
  5
6A3EC
100
AcDbEntity
  8
0
100
AcDbVertex
100
AcDbPolygonMeshVertex
 10
-0.28
 20
0.22
 30
0.0
 70
    64
  0
VERTEX
  5
6A3ED
100
AcDbEntity
  8
0
100
AcDbVertex
100
AcDbPolygonMeshVertex
 10
-0.28
 20
0.22
 30
0.0
 70
    64
  0
VERTEX
  5
6A3EE
100
AcDbEntity
  8
0
100
AcDbVertex
100
AcDbPolygonMeshVertex
 10
0.0
 20
0.22
 30
0.0
 70
    64
  0
VERTEX
  5
6A3EF
100
AcDbEntity
  8
0
100
AcDbVertex
100
AcDbPolygonMeshVertex
 10
-0.28
 20
0.0
 30
0.0
 70
    64
  0
VERTEX
  5
6A3F0
100
AcDbEntity
  8
0
100
AcDbVertex
100
AcDbPolygonMeshVertex
 10
-0.28
 20
0.0
 30
0.0
 70
    64
  0
VERTEX
  5
6A3F1
100
AcDbEntity
  8
0
100
AcDbVertex
100
AcDbPolygonMeshVertex
 10
0.0
 20
0.0
 30
0.0
 70
    64
  0
SEQEND
  5
6A3F2
100
AcDbEntity
  8
0
  0
CIRCLE
  5
6A3F3
100
AcDbEntity
  8
0
100
AcDbCircle
 10
0.605
 20
0.145
 30
-0.38
 40
0.125
  0
LWPOLYLINE
  5
6A3F4
100
AcDbEntity
  8
0
100
AcDbPolyline
 90
        6
 70
     0
 43
0.0
 38
-0.38
 10
0.59
 20
0.269097
 10
0.59
 20
0.16
 10
0.545
 20
0.16
 10
0.545
 20
0.13
 10
0.59
 20
0.13
 10
0.59
 20
0.020903
  0
LWPOLYLINE
  5
6A3F5
100
AcDbEntity
  8
0
100
AcDbPolyline
 90
        6
 70
     0
 43
0.0
 38
-0.38
 10
0.62
 20
0.020903
 10
0.62
 20
0.13
 10
0.665
 20
0.13
 10
0.665
 20
0.16
 10
0.62
 20
0.16
 10
0.62
 20
0.269097
  0
LWPOLYLINE
  5
6A3F6
100
AcDbEntity
  8
0
100
AcDbPolyline
 90
        6
 70
     0
 43
0.0
 38
-0.38
 10
-0.49
 20
0.020903
 10
-0.49
 20
0.13
 10
-0.535
 20
0.13
 10
-0.535
 20
0.16
 10
-0.49
 20
0.16
 10
-0.49
 20
0.269097
  0
LWPOLYLINE
  5
6A3F7
100
AcDbEntity
  8
0
100
AcDbPolyline
 90
        6
 70
     0
 43
0.0
 38
-0.38
 10
-0.46
 20
0.269097
 10
-0.46
 20
0.16
 10
-0.415
 20
0.16
 10
-0.415
 20
0.13
 10
-0.46
 20
0.13
 10
-0.46
 20
0.020903
  0
CIRCLE
  5
6A3F8
100
AcDbEntity
  8
0
100
AcDbCircle
 10
-0.475
 20
0.145
 30
-0.38
 40
0.125
  0
CIRCLE
  5
6A3F9
100
AcDbEntity
  8
0
100
AcDbCircle
 10
0.215
 20
0.145
 30
-0.38
 40
0.125
  0
LWPOLYLINE
  5
6A3FA
100
AcDbEntity
  8
0
100
AcDbPolyline
 90
        6
 70
     0
 43
0.0
 38
-0.38
 10
0.2
 20
0.269097
 10
0.2
 20
0.16
 10
0.155
 20
0.16
 10
0.155
 20
0.13
 10
0.2
 20
0.13
 10
0.2
 20
0.020903
  0
LWPOLYLINE
  5
6A3FB
100
AcDbEntity
  8
0
100
AcDbPolyline
 90
        6
 70
     0
 43
0.0
 38
-0.38
 10
0.23
 20
0.020903
 10
0.23
 20
0.13
 10
0.275
 20
0.13
 10
0.275
 20
0.16
 10
0.23
 20
0.16
 10
0.23
 20
0.269097
  0
TEXT
  5
6A3FC
100
AcDbEntity
  8
0
100
AcDbText
 10
0.786313
 20
0.168488
 30
-0.38
 40
0.07
  1
+E1
 50
90.0
100
AcDbText
  0
TEXT
  5
6A3FD
100
AcDbEntity
  8
0
100
AcDbText
 10
0.398733
 20
0.146586
 30
-0.38
 40
0.07
  1
-E2
 50
90.0
100
AcDbText
  0
TEXT
  5
6A3FE
100
AcDbEntity
  8
0
100
AcDbText
 10
-0.582926
 20
0.241072
 30
-0.38
 40
0.07
  1
A1
 50
90.0
100
AcDbText
  0
3DFACE
  5
6A3FF
100
AcDbEntity
  8
0
100
AcDbFace
 10
0.75
 20
0.35
 30
-0.56
 11
0.42
 21
0.35
 31
-0.56
 12
0.42
 22
0.35
 32
-0.74
 13
0.75
 23
0.35
 33
-0.74
  0
3DFACE
  5
6A400
100
AcDbEntity
  8
0
100
AcDbFace
 10
0.35
 20
0.35
 30
-0.56
 11
0.02
 21
0.35
 31
-0.56
 12
0.02
 22
0.35
 32
-0.74
 13
0.35
 23
0.35
 33
-0.74
  0
3DFACE
  5
6A401
100
AcDbEntity
  8
0
100
AcDbFace
 10
-0.28
 20
0.35
 30
-0.56
 11
-0.61
 21
0.35
 31
-0.56
 12
-0.61
 22
0.35
 32
-0.74
 13
-0.28
 23
0.35
 33
-0.74
  0
CIRCLE
  5
6A402
100
AcDbEntity
  8
0
100
AcDbCircle
 10
-0.1
 20
-0.9
 30
-0.35
 40
0.05
210
-0.0000000000000078
220
-1.0
230
0.0
  0
POINT
  5
6A403
100
AcDbEntity
  8
SNAP_POINTS
100
AcDbPoint
 10
0.0
 20
0.0
 30
0.0
  0
DIMENSION
  5
6A404
100
AcDbEntity
  8
AREA1
100
AcDbDimension
  2
*D0
 10
-0.89889
 20
-0.38
 30
0.0
 11
-1.103647
 21
-0.016616
 31
0.0
 70
   160
  3
ABECAD_3D
100
AcDbAlignedDimension
 13
-0.67
 23
0.35
 33
-0.38
 14
-0.67
 24
-0.38
 34
-0.38
 50
90.0
100
AcDbRotatedDimension
  0
DIMENSION
  5
6A41A
100
AcDbEntity
  8
AREA1
100
AcDbDimension
  2
*D1
 10
0.8
 20
0.673846
 30
0.0
 11
0.080108
 21
0.673846
 31
0.0
 70
   160
  3
ABECAD_3D
100
AcDbAlignedDimension
 13
-0.67
 23
0.35
 33
-0.38
 14
0.8
 24
0.35
 34
-0.38
100
AcDbRotatedDimension
  0
LWPOLYLINE
  5
6A437
100
AcDbEntity
  8
SCALE
100
AcDbPolyline
 90
        4
 70
     1
 43
0.0
 10
-0.489785
 20
-0.467649
 10
0.645844
 20
-0.467649
 10
0.645844
 20
-1.309259
 10
-0.489785
 20
-1.309259
  0
LINE
  5
6A438
100
AcDbEntity
  8
SCALE
100
AcDbLine
 10
-0.431786
 20
-0.847727
 30
0.0
 11
0.568214
 21
-0.847727
 31
0.0
  0
LINE
  5
6A439
100
AcDbEntity
  8
SCALE
100
AcDbLine
 10
-0.431786
 20
-1.147727
 30
0.0
 11
-0.038086
 21
-1.147727
 31
0.0
  0
LINE
  5
6A43A
100
AcDbEntity
  8
SCALE
100
AcDbLine
 10
-0.431786
 20
-0.947727
 30
0.0
 11
-0.431786
 21
-0.747727
 31
0.0
  0
TEXT
  5
6A43B
100
AcDbEntity
  8
SCALE
100
AcDbText
 10
-0.37581
 20
-1.100042
 30
0.0
 40
0.0625
  1
[10mm]
100
AcDbText
  0
LINE
  5
6A43C
100
AcDbEntity
  8
SCALE
100
AcDbLine
 10
-0.431786
 20
-1.247727
 30
0.0
 11
-0.431786
 21
-1.047727
 31
0.0
  0
TEXT
  5
6A43D
100
AcDbEntity
  8
SCALE
100
AcDbText
 10
-0.430256
 20
-0.57285
 30
0.0
 40
0.0625
  1
SCALE:
100
AcDbText
  0
LINE
  5
6A43E
100
AcDbEntity
  8
SCALE
100
AcDbLine
 10
-0.038086
 20
-1.247727
 30
0.0
 11
-0.038086
 21
-1.047727
 31
0.0
  0
TEXT
  5
6A43F
100
AcDbEntity
  8
SCALE
100
AcDbText
 10
-0.068503
 20
-0.778679
 30
0.0
 40
0.0625
  1
1 Inch
100
AcDbText
  0
LINE
  5
6A440
100
AcDbEntity
  8
SCALE
100
AcDbLine
 10
0.568214
 20
-0.847727
 30
0.0
 11
0.568214
 21
-0.947727
 31
0.0
  0
LINE
  5
6A441
100
AcDbEntity
  8
SCALE
100
AcDbLine
 10
0.568214
 20
-0.947727
 30
0.0
 11
0.568214
 21
-0.747727
 31
0.0
  0
VIEWPORT
  5
5677D
102
{ACAD_XDICTIONARY
360
6A4DA
102
}
100
AcDbEntity
 67
     1
  8
0
100
AcDbViewport
 10
5.25
 20
4.0
 30
0.0
 40
16.386862
 41
8.993
 68
    -1
 69
     1
1001
ACAD
1000
MVIEW
1002
{
1070
    16
1010
0.0
1020
0.0
1030
0.0
1010
0.0
1020
0.0
1030
1.0
1040
0.0
1040
8.993
1040
5.25
1040
4.0
1040
50.0
1040
0.0
1040
0.0
1070
     0
1070
 20000
1070
     1
1070
     1
1070
     0
1070
     0
1070
     0
1070
     0
1040
0.0
1040
0.0
1040
0.0
1040
0.5
1040
0.5
1040
0.5
1040
0.5
1070
     0
1002
{
1002
}
1002
}
  0
VIEWPORT
  5
5677F
102
{ACAD_XDICTIONARY
360
6A4DC
102
}
100
AcDbEntity
 67
     1
  8
AREA1
100
AcDbViewport
 10
5.25
 20
4.0
 30
0.0
 40
8.4
 41
6.4
 68
     1
 69
     2
1001
ACAD
1000
MVIEW
1002
{
1070
    16
1010
0.563444
1020
-0.880137
1030
1.686493
1010
0.0
1020
0.0
1030
1.0
1040
0.0
1040
4.582914
1040
-1.017175
1040
0.747813
1040
50.0
1040
0.0
1040
0.0
1070
     0
1070
 20000
1070
     1
1070
     1
1070
     0
1070
     0
1070
     0
1070
     0
1040
0.0
1040
0.0
1040
0.0
1040
0.25
1040
0.25
1040
0.25
1040
0.25
1070
     0
1002
{
1002
}
1002
}
  0
ENDSEC
  0
SECTION
  2
OBJECTS
  0
DICTIONARY
  5
458CB
100
AcDbDictionary
  3
ACAD_GROUP
350
458CC
  3
ACAD_LAYOUT
350
458FB
  3
ACAD_MLINESTYLE
350
458D9
  3
ACAD_PLOTSETTINGS
350
458FC
  3
ACAD_PLOTSTYLENAME
350
458F9
  3
ACDBHEADERROUNDTRIPXREC
350
6A4B1
  3
ACDBVARIABLEDICTIONARY
350
458E1
  3
DWGPROPS
350
45901
  0
DICTIONARY
  5
6A4AF
100
AcDbDictionary
280
     1
  3
ACAD_XREC_ROUNDTRIP
360
6A4B0
  0
DICTIONARY
  5
6A4D8
100
AcDbDictionary
280
     1
  3
ACAD_XREC_ROUNDTRIP
360
6A4D9
  0
DICTIONARY
  5
6A4AD
100
AcDbDictionary
280
     1
  3
ACAD_XREC_ROUNDTRIP
360
6A4AE
  0
DICTIONARY
  5
6A4D4
100
AcDbDictionary
280
     1
  3
ACAD_XREC_ROUNDTRIP
360
6A4D5
  0
DICTIONARY
  5
4592C
100
AcDbDictionary
280
     1
  3
ACAD_LAYOUTSELFREF
360
6A4D3
  0
DICTIONARY
  5
4592A
100
AcDbDictionary
280
     1
  3
ACAD_LAYOUTSELFREF
360
6A4D2
  0
DICTIONARY
  5
6A4DA
100
AcDbDictionary
280
     1
  3
ACAD_XREC_ROUNDTRIP
360
6A4DB
  0
DICTIONARY
  5
6A4DC
100
AcDbDictionary
280
     1
  3
ACAD_XREC_ROUNDTRIP
360
6A4DD
  0
DICTIONARY
  5
458CC
102
{ACAD_REACTORS
330
458CB
102
}
100
AcDbDictionary
  0
DICTIONARY
  5
458FB
102
{ACAD_XDICTIONARY
360
6A4D6
102
}
102
{ACAD_REACTORS
330
458CB
102
}
100
AcDbDictionary
  3
LAYOUT1
350
458FE
  3
MODEL
350
458FD
  0
DICTIONARY
  5
458D9
102
{ACAD_REACTORS
330
458CB
102
}
100
AcDbDictionary
  3
STANDARD
350
458DA
  0
DICTIONARY
  5
458FC
102
{ACAD_REACTORS
330
458CB
102
}
100
AcDbDictionary
  0
ACAD_PROXY_OBJECT
  5
458F9
102
{ACAD_REACTORS
330
458CB
102
}
100
AcDbProxyObject
 90
      499
 91
      501
 93
       86
310
405010041939BDC9B585B0
350
458FA
340
458FA
 94
        0
  0
DICTIONARY
  5
6A4B1
102
{ACAD_REACTORS
330
458CB
102
}
100
AcDbDictionary
  3
CEPSNTYPE
350
6A4BB
  3
DIMSTYLEDATA
350
6A4BF
  3
FINGERPRINTGUID
350
6A4BC
  3
HYPERLINKBASE
350
6A4B4
  3
INSUNITS
350
6A4BA
  3
LAYOUTDICT
350
6A4B6
  3
LWETCUNION
350
6A4B9
  3
PLOTSETDICT
350
6A4B7
  3
PLOTSTYLNAMDICT
350
6A4B8
  3
PSVPSCALE
350
6A4BE
  3
PUCSBASE
350
6A4C2
  3
PUCSORGBACK
350
6A4C8
  3
PUCSORGBOTTOM
350
6A4C4
  3
PUCSORGFRONT
350
6A4C7
  3
PUCSORGLEFT
350
6A4C5
  3
PUCSORGRIGHT
350
6A4C6
  3
PUCSORGTOP
350
6A4C3
  3
PUCSORTHOREF
350
6A4C0
  3
PUCSORTHOVIEW
350
6A4C1
  3
STYLESHEET
350
6A4B5
  3
TSTACKALIGN
350
6A4B2
  3
TSTACKSIZE
350
6A4B3
  3
UCSBASE
350
6A4CB
  3
UCSORGBACK
350
6A4D1
  3
UCSORGBOTTOM
350
6A4CD
  3
UCSORGFRONT
350
6A4D0
  3
UCSORGLEFT
350
6A4CE
  3
UCSORGRIGHT
350
6A4CF
  3
UCSORGTOP
350
6A4CC
  3
UCSORTHOREF
350
6A4C9
  3
UCSORTHOVIEW
350
6A4CA
  3
VERSIONGUID
350
6A4BD
  0
DICTIONARY
  5
458E1
102
{ACAD_REACTORS
330
458CB
102
}
100
AcDbDictionary
  3
DIMADEC
350
458E2
  0
XRECORD
  5
45901
102
{ACAD_REACTORS
330
458CB
102
}
100
AcDbXrecord
  1
DWGPROPS COOKIE
  2

  3

  4

  6

  7

  8
colin
  9

300
=
301
=
302
=
303
=
304
=
305
=
306
=
307
=
308
=
309
=
 40
0.000599
 41
2451670.444777
 42
2451670.445376
  1

 90
        0
  0
XRECORD
  5
6A4B0
102
{ACAD_REACTORS
330
6A4AF
102
}
100
AcDbXrecord
102
EXTNAMES
  1
*ACTIVE
  2
*Active
102
UCS
 74
     0
 71
     1
 10
0.0
 20
0.0
 30
0.0
 10
1.0
 20
0.0
 30
0.0
 10
0.0
 20
1.0
 30
0.0
146
0.0
 79
     1
102
VIEW
281
     1
  0
XRECORD
  5
6A4D9
102
{ACAD_REACTORS
330
6A4D8
102
}
100
AcDbXrecord
102
PLOTBIT
280
     0
  0
XRECORD
  5
6A4AE
102
{ACAD_REACTORS
330
6A4AD
102
}
100
AcDbXrecord
102
EXTNAMES
  1
DEFPOINTS
  2
Defpoints
102
PLOTBIT
280
     0
  0
XRECORD
  5
6A4D5
102
{ACAD_REACTORS
330
6A4D4
102
}
100
AcDbXrecord
102
ACADR14ROUNDTRIP
1000
DSTYLE
1002
{
1070
   276
 70
     2
1070
   277
 70
     5
1070
   279
 70
     2
1070
   289
 70
     2
1002
}
  0
XRECORD
  5
6A4D3
102
{ACAD_REACTORS
330
4592C
102
}
100
AcDbXrecord
340
458D6
  0
XRECORD
  5
6A4D2
102
{ACAD_REACTORS
330
4592A
102
}
100
AcDbXrecord
340
458D3
  0
XRECORD
  5
6A4DB
102
{ACAD_REACTORS
330
6A4DA
102
}
100
AcDbXrecord
102
UCS
 74
     0
 71
     1
 10
0.0
 20
0.0
 30
0.0
 10
1.0
 20
0.0
 30
0.0
 10
0.0
 20
1.0
 30
0.0
146
0.0
 79
     0
102
VIEW
281
     0
102
NEWVIEWCONTROL
280
     4
  0
XRECORD
  5
6A4DD
102
{ACAD_REACTORS
330
6A4DC
102
}
100
AcDbXrecord
102
UCS
 74
     0
 71
     1
 10
0.0
 20
0.0
 30
0.0
 10
1.0
 20
0.0
 30
0.0
 10
0.0
 20
1.0
 30
0.0
146
0.0
 79
     1
102
VIEW
281
     1
102
NEWVIEWCONTROL
280
     4
  0
DICTIONARY
  5
6A4D6
100
AcDbDictionary
280
     1
  3
ACAD_XREC_ROUNDTRIP
360
6A4D7
  0
ACAD_PROXY_OBJECT
  5
458FE
102
{ACAD_REACTORS
330
458FB
102
}
100
AcDbProxyObject
 90
      499
 91
      503
 93
     1700
310
90B6E6F6E655F6465766963652C0080000006066661940000000181999865000000000068661940000000001A1986500000000C0CCFC6A4000000018199D9C5011C4C65747465725F28382E35305F785F31312E30305F496E6368657329A901416AA547D11959985D5B1D08148C4D081C195B88185CDCDA59DB9B595B9D1CC
310
B98DD1891069074C61796F75743140501A840201008040342FEFF7FBFDFFFFF3EFDFAFF7FBFFDFC9501008043E3FDFC8102A6A6A0000003033333C0FC000000809999E93F8FFFFFF5766E622403FFFFFEBF333071020
330
458D3
330
5677D
340
0
340
0
 94
        0
  0
ACAD_PROXY_OBJECT
  5
458FD
102
{ACAD_REACTORS
330
458FB
102
}
100
AcDbProxyObject
 90
      499
 91
      503
 93
      924
310
91D4850204C617365724A65742035303030205365726965732050434C20362C01AAAAAAAAA547D11959985D5B1D08148C4D081C195B88185CDCDA59DB9B595B9D1CCB98DD18A69054D6F64656C901A800000000000000000000000000000000000000000000A1000000000000008902A6A6AAAA0
330
458D6
330
0
340
0
340
0
 94
        0
  0
MLINESTYLE
  5
458DA
102
{ACAD_REACTORS
330
458D9
102
}
100
AcDbMlineStyle
  2
STANDARD
 70
     0
  3

 62
   256
 51
90.0
 52
90.0
 71
     2
 49
0.5
 62
   256
  6
BYLAYER
 49
-0.5
 62
   256
  6
BYLAYER
  0
ACAD_PROXY_OBJECT
  5
458FA
102
{ACAD_REACTORS
330
458F9
102
}
100
AcDbProxyObject
 90
      499
 91
      502
 93
        0
 94
        0
  0
XRECORD
  5
6A4BB
102
{ACAD_REACTORS
330
6A4B1
102
}
100
AcDbXrecord
 90
        0
  0
XRECORD
  5
6A4BF
102
{ACAD_REACTORS
330
6A4B1
102
}
100
AcDbXrecord
1000
DSTYLE
1002
{
1070
   276
 70
     2
1070
   277
 70
     5
1070
   279
 70
     2
1070
   289
 70
     2
1002
}
  0
XRECORD
  5
6A4BC
102
{ACAD_REACTORS
330
6A4B1
102
}
100
AcDbXrecord
  1
{6E0CF4B8-225E-11D4-A150-00A0CC3303EC}
  0
XRECORD
  5
6A4B4
102
{ACAD_REACTORS
330
6A4B1
102
}
100
AcDbXrecord
  1

  0
XRECORD
  5
6A4BA
102
{ACAD_REACTORS
330
6A4B1
102
}
100
AcDbXrecord
 90
        0
  0
XRECORD
  5
6A4B6
102
{ACAD_REACTORS
330
6A4B1
102
}
100
AcDbXrecord
340
458FB
  0
XRECORD
  5
6A4B9
102
{ACAD_REACTORS
330
6A4B1
102
}
100
AcDbXrecord
 90
    14877
  0
XRECORD
  5
6A4B7
102
{ACAD_REACTORS
330
6A4B1
102
}
100
AcDbXrecord
340
458FC
  0
XRECORD
  5
6A4B8
102
{ACAD_REACTORS
330
6A4B1
102
}
100
AcDbXrecord
340
458F9
  0
XRECORD
  5
6A4BE
102
{ACAD_REACTORS
330
6A4B1
102
}
100
AcDbXrecord
 40
0.0
  0
XRECORD
  5
6A4C2
102
{ACAD_REACTORS
330
6A4B1
102
}
100
AcDbXrecord
340
0
  0
XRECORD
  5
6A4C8
102
{ACAD_REACTORS
330
6A4B1
102
}
100
AcDbXrecord
 10
0.0
 20
0.0
 30
0.0
  0
XRECORD
  5
6A4C4
102
{ACAD_REACTORS
330
6A4B1
102
}
100
AcDbXrecord
 10
0.0
 20
0.0
 30
0.0
  0
XRECORD
  5
6A4C7
102
{ACAD_REACTORS
330
6A4B1
102
}
100
AcDbXrecord
 10
0.0
 20
0.0
 30
0.0
  0
XRECORD
  5
6A4C5
102
{ACAD_REACTORS
330
6A4B1
102
}
100
AcDbXrecord
 10
0.0
 20
0.0
 30
0.0
  0
XRECORD
  5
6A4C6
102
{ACAD_REACTORS
330
6A4B1
102
}
100
AcDbXrecord
 10
0.0
 20
0.0
 30
0.0
  0
XRECORD
  5
6A4C3
102
{ACAD_REACTORS
330
6A4B1
102
}
100
AcDbXrecord
 10
0.0
 20
0.0
 30
0.0
  0
XRECORD
  5
6A4C0
102
{ACAD_REACTORS
330
6A4B1
102
}
100
AcDbXrecord
340
0
  0
XRECORD
  5
6A4C1
102
{ACAD_REACTORS
330
6A4B1
102
}
100
AcDbXrecord
 70
     0
  0
XRECORD
  5
6A4B5
102
{ACAD_REACTORS
330
6A4B1
102
}
100
AcDbXrecord
  1

  0
XRECORD
  5
6A4B2
102
{ACAD_REACTORS
330
6A4B1
102
}
100
AcDbXrecord
 90
        1
  0
XRECORD
  5
6A4B3
102
{ACAD_REACTORS
330
6A4B1
102
}
100
AcDbXrecord
 90
       70
  0
XRECORD
  5
6A4CB
102
{ACAD_REACTORS
330
6A4B1
102
}
100
AcDbXrecord
340
0
  0
XRECORD
  5
6A4D1
102
{ACAD_REACTORS
330
6A4B1
102
}
100
AcDbXrecord
 10
0.0
 20
0.0
 30
0.0
  0
XRECORD
  5
6A4CD
102
{ACAD_REACTORS
330
6A4B1
102
}
100
AcDbXrecord
 10
0.0
 20
0.0
 30
0.0
  0
XRECORD
  5
6A4D0
102
{ACAD_REACTORS
330
6A4B1
102
}
100
AcDbXrecord
 10
0.0
 20
0.0
 30
0.0
  0
XRECORD
  5
6A4CE
102
{ACAD_REACTORS
330
6A4B1
102
}
100
AcDbXrecord
 10
0.0
 20
0.0
 30
0.0
  0
XRECORD
  5
6A4CF
102
{ACAD_REACTORS
330
6A4B1
102
}
100
AcDbXrecord
 10
0.0
 20
0.0
 30
0.0
  0
XRECORD
  5
6A4CC
102
{ACAD_REACTORS
330
6A4B1
102
}
100
AcDbXrecord
 10
0.0
 20
0.0
 30
0.0
  0
XRECORD
  5
6A4C9
102
{ACAD_REACTORS
330
6A4B1
102
}
100
AcDbXrecord
340
0
  0
XRECORD
  5
6A4CA
102
{ACAD_REACTORS
330
6A4B1
102
}
100
AcDbXrecord
 70
     1
  0
XRECORD
  5
6A4BD
102
{ACAD_REACTORS
330
6A4B1
102
}
100
AcDbXrecord
  1
{A6A1C8DC-1598-45E1-BB81-A069E7930374}
  0
DICTIONARYVAR
  5
458E2
102
{ACAD_REACTORS
330
458E1
102
}
100
DictionaryVariables
280
     0
  1
0
  0
XRECORD
  5
6A4D7
102
{ACAD_REACTORS
330
6A4D6
102
}
100
AcDbXrecord
102
EXTNAMES
  1
LAYOUT1
  2
Layout1
  1
MODEL
  2
Model
  0
ENDSEC
  0
EOF
