  0
SECTION
  2
HEADER
  9
$ACADVER
  1
AC1014
  9
$ACADMAINTVER
 70
     8
  9
$DWGCODEPAGE
  3
ANSI_1252
  9
$INSBASE
 10
0.0
 20
0.0
 30
0.0
  9
$EXTMIN
 10
-0.393645
 20
-6.146011
 30
0.0
  9
$EXTMAX
 10
7.582336
 20
1.070654
 30
3.445
  9
$LIMMIN
 10
0.0
 20
0.0
  9
$LIMMAX
 10
12.0
 20
9.0
  9
$ORTHOMODE
 70
     0
  9
$REGENMODE
 70
     1
  9
$FILLMODE
 70
     1
  9
$QTEXTMODE
 70
     0
  9
$MIRRTEXT
 70
     1
  9
$DRAGMODE
 70
     2
  9
$LTSCALE
 40
1.0
  9
$OSMODE
 70
    45
  9
$ATTMODE
 70
     1
  9
$TEXTSIZE
 40
0.12
  9
$TRACEWID
 40
0.05
  9
$TEXTSTYLE
  7
STANDARD
  9
$CLAYER
  8
0
  9
$CELTYPE
  6
BYLAYER
  9
$CECOLOR
 62
   256
  9
$CELTSCALE
 40
1.0
  9
$DELOBJ
 70
     1
  9
$DISPSILH
 70
     0
  9
$DIMSCALE
 40
1.0
  9
$DIMASZ
 40
0.18
  9
$DIMEXO
 40
0.0625
  9
$DIMDLI
 40
0.375
  9
$DIMRND
 40
0.0
  9
$DIMDLE
 40
0.0
  9
$DIMEXE
 40
0.18
  9
$DIMTP
 40
0.0
  9
$DIMTM
 40
0.0
  9
$DIMTXT
 40
0.18
  9
$DIMCEN
 40
0.09
  9
$DIMTSZ
 40
0.0
  9
$DIMTOL
 70
     0
  9
$DIMLIM
 70
     0
  9
$DIMTIH
 70
     0
  9
$DIMTOH
 70
     1
  9
$DIMSE1
 70
     0
  9
$DIMSE2
 70
     0
  9
$DIMTAD
 70
     0
  9
$DIMZIN
 70
     4
  9
$DIMBLK
  1

  9
$DIMASO
 70
     1
  9
$DIMSHO
 70
     1
  9
$DIMPOST
  1

  9
$DIMAPOST
  1

  9
$DIMALT
 70
     1
  9
$DIMALTD
 70
     1
  9
$DIMALTF
 40
25.4
  9
$DIMLFAC
 40
1.0
  9
$DIMTOFL
 70
     0
  9
$DIMTVP
 40
0.0
  9
$DIMTIX
 70
     0
  9
$DIMSOXD
 70
     0
  9
$DIMSAH
 70
     0
  9
$DIMBLK1
  1

  9
$DIMBLK2
  1

  9
$DIMSTYLE
  2
ABECAD_3D
  9
$DIMCLRD
 70
     0
  9
$DIMCLRE
 70
     0
  9
$DIMCLRT
 70
     0
  9
$DIMTFAC
 40
1.5
  9
$DIMGAP
 40
0.09
  9
$DIMJUST
 70
     0
  9
$DIMSD1
 70
     0
  9
$DIMSD2
 70
     0
  9
$DIMTOLJ
 70
     1
  9
$DIMTZIN
 70
     4
  9
$DIMALTZ
 70
     4
  9
$DIMALTTZ
 70
     4
  9
$DIMFIT
 70
     3
  9
$DIMUPT
 70
     0
  9
$DIMUNIT
 70
     7
  9
$DIMDEC
 70
     6
  9
$DIMTDEC
 70
     6
  9
$DIMALTU
 70
     2
  9
$DIMALTTD
 70
     1
  9
$DIMTXSTY
  7
STANDARD
  9
$DIMAUNIT
 70
     0
  9
$LUNITS
 70
     2
  9
$LUPREC
 70
     4
  9
$SKETCHINC
 40
0.1
  9
$FILLETRAD
 40
0.0
  9
$AUNITS
 70
     0
  9
$AUPREC
 70
     0
  9
$MENU
  1
ACAD
  9
$ELEVATION
 40
0.0
  9
$PELEVATION
 40
0.0
  9
$THICKNESS
 40
0.0
  9
$LIMCHECK
 70
     0
  9
$BLIPMODE
 70
     0
  9
$CHAMFERA
 40
0.0
  9
$CHAMFERB
 40
0.0
  9
$CHAMFERC
 40
0.0
  9
$CHAMFERD
 40
0.0
  9
$SKPOLY
 70
     0
  9
$TDCREATE
 40
2451670.444776967
  9
$TDUPDATE
 40
2452128.459374189
  9
$TDINDWG
 40
0.0108166667
  9
$TDUSRTIMER
 40
0.0108166667
  9
$USRTIMER
 70
     1
  9
$ANGBASE
 50
0.0
  9
$ANGDIR
 70
     0
  9
$PDMODE
 70
     3
  9
$PDSIZE
 40
0.09
  9
$PLINEWID
 40
0.0
  9
$COORDS
 70
     1
  9
$SPLFRAME
 70
     1
  9
$SPLINETYPE
 70
     6
  9
$SPLINESEGS
 70
     8
  9
$ATTDIA
 70
     0
  9
$ATTREQ
 70
     1
  9
$HANDLING
 70
     1
  9
$HANDSEED
  5
46326
  9
$SURFTAB1
 70
     6
  9
$SURFTAB2
 70
     6
  9
$SURFTYPE
 70
     6
  9
$SURFU
 70
     6
  9
$SURFV
 70
     6
  9
$UCSNAME
  2

  9
$UCSORG
 10
0.0
 20
0.0
 30
0.0
  9
$UCSXDIR
 10
1.0
 20
0.0
 30
0.0
  9
$UCSYDIR
 10
0.0
 20
1.0
 30
0.0
  9
$PUCSNAME
  2

  9
$PUCSORG
 10
0.0
 20
0.0
 30
0.0
  9
$PUCSXDIR
 10
1.0
 20
0.0
 30
0.0
  9
$PUCSYDIR
 10
0.0
 20
1.0
 30
0.0
  9
$USERI1
 70
     0
  9
$USERI2
 70
     0
  9
$USERI3
 70
     0
  9
$USERI4
 70
     0
  9
$USERI5
 70
     0
  9
$USERR1
 40
0.0
  9
$USERR2
 40
0.0
  9
$USERR3
 40
0.0
  9
$USERR4
 40
0.0
  9
$USERR5
 40
0.0
  9
$WORLDVIEW
 70
     1
  9
$SHADEDGE
 70
     3
  9
$SHADEDIF
 70
    70
  9
$TILEMODE
 70
     1
  9
$MAXACTVP
 70
    16
  9
$PINSBASE
 10
0.0
 20
0.0
 30
0.0
  9
$PLIMCHECK
 70
     0
  9
$PEXTMIN
 10
1.000000E+20
 20
1.000000E+20
 30
1.000000E+20
  9
$PEXTMAX
 10
-1.000000E+20
 20
-1.000000E+20
 30
-1.000000E+20
  9
$PLIMMIN
 10
0.0
 20
0.0
  9
$PLIMMAX
 10
12.0
 20
9.0
  9
$UNITMODE
 70
     0
  9
$VISRETAIN
 70
     0
  9
$PLINEGEN
 70
     0
  9
$PSLTSCALE
 70
     1
  9
$TREEDEPTH
 70
  3020
  9
$PICKSTYLE
 70
     1
  9
$CMLSTYLE
  2
STANDARD
  9
$CMLJUST
 70
     0
  9
$CMLSCALE
 40
1.0
  9
$PROXYGRAPHICS
 70
     1
  9
$MEASUREMENT
 70
     0
  0
ENDSEC
  0
SECTION
  2
CLASSES
  0
CLASS
  1
DICTIONARYVAR
  2
AcDbDictionaryVar
  3
"AutoCAD"
 90
        0
280
     0
281
     0
  0
CLASS
  1
ACDBDICTIONARYWDFLT
  2
AcDbDictionaryWithDefault
  3
AutoCAD 2000
 90
        0
280
     0
281
     0
  0
CLASS
  1
ACDBPLACEHOLDER
  2
AcDbPlaceHolder
  3
AutoCAD 2000
 90
        0
280
     0
281
     0
  0
CLASS
  1
LAYOUT
  2
AcDbLayout
  3
AutoCAD 2000
 90
        0
280
     0
281
     0
  0
CLASS
  1
LONG_TRANSACTION
  2
AcDbLongTransaction
  3
AutoCAD 2000
 90
        0
280
     0
281
     0
  0
CLASS
  1
LWPOLYLINE
  2
AcDbPolyline
  3
"AutoCAD"
 90
        0
280
     0
281
     1
  0
CLASS
  1
HATCH
  2
AcDbHatch
  3
"ACAD_SEDONA"
 90
        0
280
     0
281
     1
  0
CLASS
  1
XRECORD
  2
AcDbXrecord
  3
"<Built In>"
 90
        0
280
     0
281
     0
  0
CLASS
  1
LONG_TRANSACTION
  2
AcDbLongTransaction
  3
AutoCAD 2000
 90
        0
280
     0
281
     0
  0
CLASS
  1
LWPOLYLINE
  2
AcDbPolyline
  3
"AutoCAD"
 90
        0
280
     0
281
     1
  0
CLASS
  1
HATCH
  2
AcDbHatch
  3
"ACAD_SEDONA"
 90
        0
280
     0
281
     1
  0
CLASS
  1
XRECORD
  2
AcDbXrecord
  3
"<Built In>"
 90
        0
280
     0
281
     0
  0
CLASS
  1
LONG_TRANSACTION
  2
AcDbLongTransaction
  3
AutoCAD 2000
 90
        0
280
     0
281
     0
  0
CLASS
  1
LWPOLYLINE
  2
AcDbPolyline
  3
"AutoCAD"
 90
        0
280
     0
281
     1
  0
CLASS
  1
HATCH
  2
AcDbHatch
  3
"ACAD_SEDONA"
 90
        0
280
     0
281
     1
  0
CLASS
  1
XRECORD
  2
AcDbXrecord
  3
"<Built In>"
 90
        0
280
     0
281
     0
  0
CLASS
  1
LONG_TRANSACTION
  2
AcDbLongTransaction
  3
AutoCAD 2000
 90
        0
280
     0
281
     0
  0
CLASS
  1
LWPOLYLINE
  2
AcDbPolyline
  3
"AutoCAD"
 90
        0
280
     0
281
     1
  0
CLASS
  1
HATCH
  2
AcDbHatch
  3
"ACAD_SEDONA"
 90
        0
280
     0
281
     1
  0
CLASS
  1
XRECORD
  2
AcDbXrecord
  3
"<Built In>"
 90
        0
280
     0
281
     0
  0
CLASS
  1
LONG_TRANSACTION
  2
AcDbLongTransaction
  3
AutoCAD 2000
 90
        0
280
     0
281
     0
  0
CLASS
  1
LWPOLYLINE
  2
AcDbPolyline
  3
"AutoCAD"
 90
        0
280
     0
281
     1
  0
CLASS
  1
HATCH
  2
AcDbHatch
  3
"ACAD_SEDONA"
 90
        0
280
     0
281
     1
  0
CLASS
  1
XRECORD
  2
AcDbXrecord
  3
"<Built In>"
 90
        0
280
     0
281
     0
  0
CLASS
  1
LONG_TRANSACTION
  2
AcDbLongTransaction
  3
AutoCAD 2000
 90
        0
280
     0
281
     0
  0
CLASS
  1
LWPOLYLINE
  2
AcDbPolyline
  3
"AutoCAD"
 90
        0
280
     0
281
     1
  0
CLASS
  1
HATCH
  2
AcDbHatch
  3
"ACAD_SEDONA"
 90
        0
280
     0
281
     1
  0
CLASS
  1
XRECORD
  2
AcDbXrecord
  3
"<Built In>"
 90
        0
280
     0
281
     0
  0
ENDSEC
  0
SECTION
  2
TABLES
  0
TABLE
  2
VPORT
  5
458C7
100
AcDbSymbolTable
 70
     1
  0
VPORT
  5
462F3
102
{ACAD_XDICTIONARY
360
462F6
102
}
100
AcDbSymbolTableRecord
100
AcDbViewportTableRecord
  2
*ACTIVE
 70
     0
 10
0.0
 20
0.0
 11
1.0
 21
1.0
 12
3.594346
 22
-2.537679
 13
0.0
 23
0.0
 14
0.25
 24
0.25
 15
0.25
 25
0.25
 16
0.0
 26
0.0
 36
1.0
 17
0.0
 27
0.0
 37
0.0
 40
7.293032
 41
1.855124
 42
50.0
 43
0.0
 44
0.0
 50
0.0
 51
0.0
 71
     0
 72
 20000
 73
     1
 74
     1
 75
     0
 76
     0
 77
     0
 78
     0
  0
ENDTAB
  0
TABLE
  2
LTYPE
  5
458C4
100
AcDbSymbolTable
 70
     1
  0
LTYPE
  5
458D0
100
AcDbSymbolTableRecord
100
AcDbLinetypeTableRecord
  2
BYBLOCK
 70
     0
  3

 72
    65
 73
     0
 40
0.0
  0
LTYPE
  5
458D1
100
AcDbSymbolTableRecord
100
AcDbLinetypeTableRecord
  2
BYLAYER
 70
     0
  3

 72
    65
 73
     0
 40
0.0
  0
LTYPE
  5
458D2
100
AcDbSymbolTableRecord
100
AcDbLinetypeTableRecord
  2
CONTINUOUS
 70
     0
  3
Solid line
 72
    65
 73
     0
 40
0.0
  0
ENDTAB
  0
TABLE
  2
LAYER
  5
458C1
100
AcDbSymbolTable
 70
     7
  0
LAYER
  5
458CD
100
AcDbSymbolTableRecord
100
AcDbLayerTableRecord
  2
0
 70
     0
 62
     7
  6
CONTINUOUS
  0
LAYER
  5
458EA
100
AcDbSymbolTableRecord
100
AcDbLayerTableRecord
  2
DIMS-MTG-HOLES
 70
     0
 62
     1
  6
CONTINUOUS
  0
LAYER
  5
458EB
100
AcDbSymbolTableRecord
100
AcDbLayerTableRecord
  2
ATTRIBUTES
 70
     0
 62
     7
  6
CONTINUOUS
  0
LAYER
  5
4593B
102
{ACAD_XDICTIONARY
360
46321
102
}
100
AcDbSymbolTableRecord
100
AcDbLayerTableRecord
  2
AREA1
 70
     0
 62
    -7
  6
CONTINUOUS
  0
LAYER
  5
45940
102
{ACAD_XDICTIONARY
360
462F4
102
}
100
AcDbSymbolTableRecord
100
AcDbLayerTableRecord
  2
DEFPOINTS
 70
     0
 62
    -7
  6
CONTINUOUS
  0
LAYER
  5
45954
100
AcDbSymbolTableRecord
100
AcDbLayerTableRecord
  2
SCALE
 70
     0
 62
    -7
  6
CONTINUOUS
  0
LAYER
  5
46245
100
AcDbSymbolTableRecord
100
AcDbLayerTableRecord
  2
SNAP_POINTS
 70
     0
 62
    -1
  6
CONTINUOUS
  0
ENDTAB
  0
TABLE
  2
STYLE
  5
458C2
100
AcDbSymbolTable
 70
     1
  0
STYLE
  5
458CE
100
AcDbSymbolTableRecord
100
AcDbTextStyleTableRecord
  2
STANDARD
 70
     0
 40
0.0
 41
1.0
 50
0.0
 71
     0
 42
0.12
  3
txt
  4

  0
ENDTAB
  0
TABLE
  2
VIEW
  5
458C5
100
AcDbSymbolTable
 70
     0
  0
ENDTAB
  0
TABLE
  2
UCS
  5
458C6
100
AcDbSymbolTable
 70
     0
  0
ENDTAB
  0
TABLE
  2
APPID
  5
458C8
100
AcDbSymbolTable
 70
     1
  0
APPID
  5
458CF
100
AcDbSymbolTableRecord
100
AcDbRegAppTableRecord
  2
ACAD
 70
     0
  0
ENDTAB
  0
TABLE
  2
DIMSTYLE
  5
458C9
100
AcDbSymbolTable
 70
     2
  0
DIMSTYLE
105
458F1
102
{ACAD_XDICTIONARY
360
4631B
102
}
100
AcDbSymbolTableRecord
100
AcDbDimStyleTableRecord
  2
ABECAD
 70
     0
  3

  4

  5

  6

  7

 40
1.0
 41
0.18
 42
0.0625
 43
0.375
 44
0.18
 45
0.0
 46
0.0
 47
0.0
 48
0.0
140
0.18
141
0.09
142
0.0
143
25.4
144
1.0
145
0.0
146
1.5
147
0.09
 71
     0
 72
     0
 73
     0
 74
     1
 75
     0
 76
     0
 77
     0
 78
     4
170
     1
171
     1
172
     0
173
     0
174
     0
175
     0
176
     0
177
     0
178
     0
270
     7
271
     6
272
     6
273
     2
274
     1
340
458CE
275
     0
280
     0
281
     0
282
     0
283
     1
284
     4
285
     4
286
     4
287
     3
288
     0
  0
DIMSTYLE
105
458F6
102
{ACAD_XDICTIONARY
360
4631D
102
}
102
{ACAD_REACTORS
330
461E9
330
461F7
102
}
100
AcDbSymbolTableRecord
100
AcDbDimStyleTableRecord
  2
ABECAD_3D
 70
     0
  3

  4

  5

  6

  7

 40
1.0
 41
0.18
 42
0.0625
 43
0.375
 44
0.18
 45
0.0
 46
0.0
 47
0.0
 48
0.0
140
0.18
141
0.09
142
0.0
143
25.4
144
1.0
145
0.0
146
1.5
147
0.09
 71
     0
 72
     0
 73
     0
 74
     1
 75
     0
 76
     0
 77
     0
 78
     4
170
     1
171
     1
172
     0
173
     0
174
     0
175
     0
176
     0
177
     0
178
     0
270
     7
271
     6
272
     6
273
     2
274
     1
340
458CE
275
     0
280
     0
281
     0
282
     0
283
     1
284
     4
285
     4
286
     4
287
     3
288
     0
  0
ENDTAB
  0
TABLE
  2
BLOCK_RECORD
  5
458C0
100
AcDbSymbolTable
 70
     2
  0
BLOCK_RECORD
  5
458D6
102
{ACAD_XDICTIONARY
360
4592C
102
}
100
AcDbSymbolTableRecord
100
AcDbBlockTableRecord
  2
*MODEL_SPACE
  0
BLOCK_RECORD
  5
458D3
102
{ACAD_XDICTIONARY
360
4592A
102
}
100
AcDbSymbolTableRecord
100
AcDbBlockTableRecord
  2
*PAPER_SPACE
  0
BLOCK_RECORD
  5
461EA
100
AcDbSymbolTableRecord
100
AcDbBlockTableRecord
  2
*D0
  0
BLOCK_RECORD
  5
461F8
100
AcDbSymbolTableRecord
100
AcDbBlockTableRecord
  2
*D1
  0
ENDTAB
  0
ENDSEC
  0
SECTION
  2
BLOCKS
  0
BLOCK
  5
458DF
100
AcDbEntity
  8
0
100
AcDbBlockBegin
  2
*MODEL_SPACE
 70
     0
 10
0.0
 20
0.0
 30
0.0
  3
*MODEL_SPACE
  1

  0
ENDBLK
  5
458E0
100
AcDbEntity
  8
0
100
AcDbBlockEnd
  0
BLOCK
  5
458DD
100
AcDbEntity
 67
     1
  8
0
100
AcDbBlockBegin
  2
*PAPER_SPACE
 70
     0
 10
0.0
 20
0.0
 30
0.0
  3
*PAPER_SPACE
  1

  0
ENDBLK
  5
458DE
100
AcDbEntity
 67
     1
  8
0
100
AcDbBlockEnd
  0
BLOCK
  5
461F5
100
AcDbEntity
  8
0
100
AcDbBlockBegin
  2
*D0
 70
     1
 10
0.0
 20
0.0
 30
0.0
  3
*D0
  1

  0
LINE
  5
462E9
100
AcDbEntity
  8
AREA1
 62
     0
100
AcDbLine
 10
6.1825
 20
0.180144
 30
0.0
 11
7.582336
 21
0.180144
 31
0.0
1001
ACAD
1000
RTLwPs
1070
   158
  0
LINE
  5
462EA
100
AcDbEntity
  8
AREA1
 62
     0
100
AcDbLine
 10
1.7575
 20
-5.310856
 30
0.0
 11
7.582336
 21
-5.310856
 31
0.0
1001
ACAD
1000
RTLwPs
1070
   158
  0
LINE
  5
462EB
100
AcDbEntity
  8
AREA1
 62
     0
100
AcDbLine
 10
7.402336
 20
0.000144
 30
0.0
 11
7.402336
 21
-1.335356
 31
0.0
1001
ACAD
1000
RTLwPs
1070
   158
  0
LINE
  5
462EC
100
AcDbEntity
  8
AREA1
 62
     0
100
AcDbLine
 10
7.402336
 20
-5.130856
 30
0.0
 11
7.402336
 21
-3.795356
 31
0.0
1001
ACAD
1000
RTLwPs
1070
   158
  0
SOLID
  5
462ED
100
AcDbEntity
  8
AREA1
 62
     0
100
AcDbTrace
 10
7.372336
 20
0.000144
 30
0.0
 11
7.432336
 21
0.000144
 31
0.0
 12
7.402336
 22
0.180144
 32
0.0
 13
7.402336
 23
0.180144
 33
0.0
  0
SOLID
  5
462EE
100
AcDbEntity
  8
AREA1
 62
     0
100
AcDbTrace
 10
7.372336
 20
-5.130856
 30
0.0
 11
7.432336
 21
-5.130856
 31
0.0
 12
7.402336
 22
-5.310856
 32
0.0
 13
7.402336
 23
-5.310856
 33
0.0
  0
MTEXT
  5
462EF
100
AcDbEntity
  8
AREA1
 62
     0
100
AcDbMText
 10
7.402336
 20
-2.565356
 30
0.0
 40
0.18
 41
0.0
 71
     5
 72
     1
  1
\A1;5 31/64 [139.5]
 11
0.0
 21
1.0
 31
0.0
1001
ACAD
1000
MTEXTBEGIN
1070
    73
1070
     1
1070
    44
1040
1.0
1070
    74
1070
     0
1000
MTEXTEND
  0
POINT
  5
462F0
100
AcDbEntity
  8
DEFPOINTS
 62
     0
100
AcDbPoint
 10
6.12
 20
0.180144
 30
0.0
  0
POINT
  5
462F1
100
AcDbEntity
  8
DEFPOINTS
 62
     0
100
AcDbPoint
 10
1.695
 20
-5.310856
 30
0.0
  0
POINT
  5
462F2
100
AcDbEntity
  8
DEFPOINTS
 62
     0
100
AcDbPoint
 10
7.402336
 20
-5.310856
 30
0.0
  0
ENDBLK
  5
461F6
100
AcDbEntity
  8
0
100
AcDbBlockEnd
  0
BLOCK
  5
46203
100
AcDbEntity
  8
0
100
AcDbBlockBegin
  2
*D1
 70
     1
 10
0.0
 20
0.0
 30
0.0
  3
*D1
  1

  0
LINE
  5
462DF
100
AcDbEntity
  8
AREA1
 62
     0
100
AcDbLine
 10
-0.33
 20
-0.046356
 30
0.0
 11
-0.33
 21
1.070654
 31
0.0
1001
ACAD
1000
RTLwPs
1070
   158
  0
LINE
  5
462E0
100
AcDbEntity
  8
AREA1
 62
     0
100
AcDbLine
 10
6.373
 20
-0.046356
 30
0.0
 11
6.373
 21
1.070654
 31
0.0
1001
ACAD
1000
RTLwPs
1070
   158
  0
LINE
  5
462E1
100
AcDbEntity
  8
AREA1
 62
     0
100
AcDbLine
 10
-0.15
 20
0.890654
 30
0.0
 11
1.7765
 21
0.890654
 31
0.0
1001
ACAD
1000
RTLwPs
1070
   158
  0
LINE
  5
462E2
100
AcDbEntity
  8
AREA1
 62
     0
100
AcDbLine
 10
6.193
 20
0.890654
 30
0.0
 11
4.2665
 21
0.890654
 31
0.0
1001
ACAD
1000
RTLwPs
1070
   158
  0
SOLID
  5
462E3
100
AcDbEntity
  8
AREA1
 62
     0
100
AcDbTrace
 10
-0.15
 20
0.920654
 30
0.0
 11
-0.15
 21
0.860654
 31
0.0
 12
-0.33
 22
0.890654
 32
0.0
 13
-0.33
 23
0.890654
 33
0.0
  0
SOLID
  5
462E4
100
AcDbEntity
  8
AREA1
 62
     0
100
AcDbTrace
 10
6.193
 20
0.920654
 30
0.0
 11
6.193
 21
0.860654
 31
0.0
 12
6.373
 22
0.890654
 32
0.0
 13
6.373
 23
0.890654
 33
0.0
  0
MTEXT
  5
462E5
100
AcDbEntity
  8
AREA1
 62
     0
100
AcDbMText
 10
3.0215
 20
0.890654
 30
0.0
 40
0.18
 41
0.0
 71
     5
 72
     1
  1
\A1;6 45/64 [170.3]
1001
ACAD
1000
MTEXTBEGIN
1070
    73
1070
     1
1070
    44
1040
1.0
1070
    74
1070
     0
1000
MTEXTEND
  0
POINT
  5
462E6
100
AcDbEntity
  8
DEFPOINTS
 62
     0
100
AcDbPoint
 10
-0.33
 20
-0.108856
 30
2.605
  0
POINT
  5
462E7
100
AcDbEntity
  8
DEFPOINTS
 62
     0
100
AcDbPoint
 10
6.373
 20
-0.108856
 30
0.0
  0
POINT
  5
462E8
100
AcDbEntity
  8
DEFPOINTS
 62
     0
100
AcDbPoint
 10
6.373
 20
0.890654
 30
0.0
  0
ENDBLK
  5
46204
100
AcDbEntity
  8
0
100
AcDbBlockEnd
  0
ENDSEC
  0
SECTION
  2
ENTITIES
  0
ATTDEF
  5
1
100
AcDbEntity
  8
ATTRIBUTES
100
AcDbText
 10
-0.195859
 20
-0.615558
 30
0.0
 40
0.24
  1
ALLEN-BRADLEY
100
AcDbAttributeDefinition
  3
MANUFACTURER NAME?
  2
AC_VND_LABEL
 70
     1
  0
ATTDEF
  5
2
100
AcDbEntity
  8
ATTRIBUTES
100
AcDbText
 10
-0.195859
 20
-1.115558
 30
0.0
 40
0.24
  1
1764-LSP+28BXB
100
AcDbAttributeDefinition
  3
CATALOG NUMBER?
  2
AC_PART_NO
 70
     1
  0
ATTDEF
  5
3
100
AcDbEntity
  8
ATTRIBUTES
100
AcDbText
 10
-0.195859
 20
-1.615558
 30
0.0
 40
0.24
  1
1764-LSP+28BXB: 24 PT PROCCESOR UNIT + BASE UNIT
100
AcDbAttributeDefinition
  3
PART DESCRIPTION?
  2
AC_DESCRIPTION
 70
     1
  0
ATTDEF
  5
4
100
AcDbEntity
  8
ATTRIBUTES
100
AcDbText
 10
-0.195859
 20
-2.115558
 30
0.0
 40
0.24
  1

100
AcDbAttributeDefinition
  3
DEVICE ID?
  2
DEVICE_ID
 70
     1
  0
ATTDEF
  5
5
100
AcDbEntity
  8
ATTRIBUTES
100
AcDbText
 10
-0.195859
 20
-2.615558
 30
0.0
 40
0.24
  1

100
AcDbAttributeDefinition
  3
CUSTOMER PART NUMBER?
  2
AC_CPART_NO
 70
     1
  0
ATTDEF
  5
6
100
AcDbEntity
  8
ATTRIBUTES
100
AcDbText
 10
-0.195859
 20
-3.115558
 30
0.0
 40
0.24
  1

100
AcDbAttributeDefinition
  3
CUSTOMER NOTE?
  2
AC_NOTE
 70
     1
  0
ATTDEF
  5
7
100
AcDbEntity
  8
ATTRIBUTES
100
AcDbText
 10
-0.195859
 20
-3.615558
 30
0.0
 40
0.24
  1

100
AcDbAttributeDefinition
  3
FASTENER DATA?
  2
FASTENER
 70
     1
  0
ATTDEF
  5
8
100
AcDbEntity
  8
ATTRIBUTES
100
AcDbText
 10
-0.195859
 20
-4.115558
 30
0.0
 40
0.24
  1
INCH
100
AcDbAttributeDefinition
  3
UNIT OF SCALE?
  2
AC_SCALE_UNIT
 70
     1
  0
ATTDEF
  5
9
100
AcDbEntity
  8
ATTRIBUTES
100
AcDbText
 10
-0.195859
 20
-4.615558
 30
0.0
 40
0.24
  1
0
100
AcDbAttributeDefinition
  3
VIEW CODE?
  2
AC_VIEW_CODE
 70
     1
  0
POLYLINE
  5
45DA3
100
AcDbEntity
  8
0
100
AcDbPolygonMesh
 66
     1
 10
0.0
 20
0.0
 30
0.0
 70
    16
 71
     6
 72
     3
  0
VERTEX
  5
45DA4
100
AcDbEntity
  8
0
100
AcDbVertex
100
AcDbPolygonMeshVertex
 10
0.345
 20
-0.108856
 30
2.605
 70
    64
  0
VERTEX
  5
45DA5
100
AcDbEntity
  8
0
100
AcDbVertex
100
AcDbPolygonMeshVertex
 10
0.345
 20
-0.108856
 30
0.183
 70
    64
  0
VERTEX
  5
45DA6
100
AcDbEntity
  8
0
100
AcDbVertex
100
AcDbPolygonMeshVertex
 10
0.345
 20
-0.108856
 30
0.183
 70
    64
  0
VERTEX
  5
45DA7
100
AcDbEntity
  8
0
100
AcDbVertex
100
AcDbPolygonMeshVertex
 10
0.345
 20
-4.750856
 30
2.605
 70
    64
  0
VERTEX
  5
45DA8
100
AcDbEntity
  8
0
100
AcDbVertex
100
AcDbPolygonMeshVertex
 10
0.345
 20
-4.750856
 30
0.183
 70
    64
  0
VERTEX
  5
45DA9
100
AcDbEntity
  8
0
100
AcDbVertex
100
AcDbPolygonMeshVertex
 10
0.345
 20
-4.750856
 30
0.183
 70
    64
  0
VERTEX
  5
45DAA
100
AcDbEntity
  8
0
100
AcDbVertex
100
AcDbPolygonMeshVertex
 10
-0.33
 20
-4.750856
 30
2.605
 70
    64
  0
VERTEX
  5
45DAB
100
AcDbEntity
  8
0
100
AcDbVertex
100
AcDbPolygonMeshVertex
 10
-0.33
 20
-4.750856
 30
0.183
 70
    64
  0
VERTEX
  5
45DAC
100
AcDbEntity
  8
0
100
AcDbVertex
100
AcDbPolygonMeshVertex
 10
0.345
 20
-4.750856
 30
0.183
 70
    64
  0
VERTEX
  5
45DAD
100
AcDbEntity
  8
0
100
AcDbVertex
100
AcDbPolygonMeshVertex
 10
-0.33
 20
-0.108856
 30
2.605
 70
    64
  0
VERTEX
  5
45DAE
100
AcDbEntity
  8
0
100
AcDbVertex
100
AcDbPolygonMeshVertex
 10
-0.33
 20
-0.108856
 30
0.183
 70
    64
  0
VERTEX
  5
45DAF
100
AcDbEntity
  8
0
100
AcDbVertex
100
AcDbPolygonMeshVertex
 10
0.345
 20
-0.108856
 30
0.183
 70
    64
  0
VERTEX
  5
45DB0
100
AcDbEntity
  8
0
100
AcDbVertex
100
AcDbPolygonMeshVertex
 10
-0.33
 20
-0.108856
 30
2.605
 70
    64
  0
VERTEX
  5
45DB1
100
AcDbEntity
  8
0
100
AcDbVertex
100
AcDbPolygonMeshVertex
 10
-0.33
 20
-0.108856
 30
2.605
 70
    64
  0
VERTEX
  5
45DB2
100
AcDbEntity
  8
0
100
AcDbVertex
100
AcDbPolygonMeshVertex
 10
0.345
 20
-0.108856
 30
2.605
 70
    64
  0
VERTEX
  5
45DB3
100
AcDbEntity
  8
0
100
AcDbVertex
100
AcDbPolygonMeshVertex
 10
-0.33
 20
-4.750856
 30
2.605
 70
    64
  0
VERTEX
  5
45DB4
100
AcDbEntity
  8
0
100
AcDbVertex
100
AcDbPolygonMeshVertex
 10
-0.33
 20
-4.750856
 30
2.605
 70
    64
  0
VERTEX
  5
45DB5
100
AcDbEntity
  8
0
100
AcDbVertex
100
AcDbPolygonMeshVertex
 10
0.345
 20
-4.750856
 30
2.605
 70
    64
  0
SEQEND
  5
45DB6
100
AcDbEntity
  8
0
  0
POLYLINE
  5
45DB7
100
AcDbEntity
  8
0
100
AcDbPolygonMesh
 66
     1
 10
0.0
 20
0.0
 30
0.0
 70
    16
 71
     6
 72
     3
  0
VERTEX
  5
45DB8
100
AcDbEntity
  8
0
100
AcDbVertex
100
AcDbPolygonMeshVertex
 10
6.373
 20
-0.108856
 30
2.605
 70
    64
  0
VERTEX
  5
45DB9
100
AcDbEntity
  8
0
100
AcDbVertex
100
AcDbPolygonMeshVertex
 10
6.373
 20
-0.108856
 30
0.183
 70
    64
  0
VERTEX
  5
45DBA
100
AcDbEntity
  8
0
100
AcDbVertex
100
AcDbPolygonMeshVertex
 10
6.373
 20
-0.108856
 30
0.183
 70
    64
  0
VERTEX
  5
45DBB
100
AcDbEntity
  8
0
100
AcDbVertex
100
AcDbPolygonMeshVertex
 10
6.373
 20
-4.750856
 30
2.605
 70
    64
  0
VERTEX
  5
45DBC
100
AcDbEntity
  8
0
100
AcDbVertex
100
AcDbPolygonMeshVertex
 10
6.373
 20
-4.750856
 30
0.183
 70
    64
  0
VERTEX
  5
45DBD
100
AcDbEntity
  8
0
100
AcDbVertex
100
AcDbPolygonMeshVertex
 10
6.373
 20
-4.750856
 30
0.183
 70
    64
  0
VERTEX
  5
45DBE
100
AcDbEntity
  8
0
100
AcDbVertex
100
AcDbPolygonMeshVertex
 10
5.273
 20
-4.750856
 30
2.605
 70
    64
  0
VERTEX
  5
45DBF
100
AcDbEntity
  8
0
100
AcDbVertex
100
AcDbPolygonMeshVertex
 10
5.273
 20
-4.750856
 30
0.183
 70
    64
  0
VERTEX
  5
45DC0
100
AcDbEntity
  8
0
100
AcDbVertex
100
AcDbPolygonMeshVertex
 10
6.373
 20
-4.750856
 30
0.183
 70
    64
  0
VERTEX
  5
45DC1
100
AcDbEntity
  8
0
100
AcDbVertex
100
AcDbPolygonMeshVertex
 10
5.273
 20
-0.108856
 30
2.605
 70
    64
  0
VERTEX
  5
45DC2
100
AcDbEntity
  8
0
100
AcDbVertex
100
AcDbPolygonMeshVertex
 10
5.273
 20
-0.108856
 30
0.183
 70
    64
  0
VERTEX
  5
45DC3
100
AcDbEntity
  8
0
100
AcDbVertex
100
AcDbPolygonMeshVertex
 10
6.373
 20
-0.108856
 30
0.183
 70
    64
  0
VERTEX
  5
45DC4
100
AcDbEntity
  8
0
100
AcDbVertex
100
AcDbPolygonMeshVertex
 10
5.273
 20
-0.108856
 30
2.605
 70
    64
  0
VERTEX
  5
45DC5
100
AcDbEntity
  8
0
100
AcDbVertex
100
AcDbPolygonMeshVertex
 10
5.273
 20
-0.108856
 30
2.605
 70
    64
  0
VERTEX
  5
45DC6
100
AcDbEntity
  8
0
100
AcDbVertex
100
AcDbPolygonMeshVertex
 10
6.373
 20
-0.108856
 30
2.605
 70
    64
  0
VERTEX
  5
45DC7
100
AcDbEntity
  8
0
100
AcDbVertex
100
AcDbPolygonMeshVertex
 10
5.273
 20
-4.750856
 30
2.605
 70
    64
  0
VERTEX
  5
45DC8
100
AcDbEntity
  8
0
100
AcDbVertex
100
AcDbPolygonMeshVertex
 10
5.273
 20
-4.750856
 30
2.605
 70
    64
  0
VERTEX
  5
45DC9
100
AcDbEntity
  8
0
100
AcDbVertex
100
AcDbPolygonMeshVertex
 10
6.373
 20
-4.750856
 30
2.605
 70
    64
  0
SEQEND
  5
45DCA
100
AcDbEntity
  8
0
  0
POLYLINE
  5
45DCB
100
AcDbEntity
  8
0
100
AcDbPolygonMesh
 66
     1
 10
0.0
 20
0.0
 30
0.0
 70
    16
 71
     6
 72
     3
  0
VERTEX
  5
45DCC
100
AcDbEntity
  8
0
100
AcDbVertex
100
AcDbPolygonMeshVertex
 10
5.273
 20
-0.108856
 30
1.786
 70
    64
  0
VERTEX
  5
45DCD
100
AcDbEntity
  8
0
100
AcDbVertex
100
AcDbPolygonMeshVertex
 10
5.273
 20
-0.108856
 30
0.183
 70
    64
  0
VERTEX
  5
45DCE
100
AcDbEntity
  8
0
100
AcDbVertex
100
AcDbPolygonMeshVertex
 10
5.273
 20
-0.108856
 30
0.183
 70
    64
  0
VERTEX
  5
45DCF
100
AcDbEntity
  8
0
100
AcDbVertex
100
AcDbPolygonMeshVertex
 10
5.273
 20
-4.750856
 30
1.786
 70
    64
  0
VERTEX
  5
45DD0
100
AcDbEntity
  8
0
100
AcDbVertex
100
AcDbPolygonMeshVertex
 10
5.273
 20
-4.750856
 30
0.183
 70
    64
  0
VERTEX
  5
45DD1
100
AcDbEntity
  8
0
100
AcDbVertex
100
AcDbPolygonMeshVertex
 10
5.273
 20
-4.750856
 30
0.183
 70
    64
  0
VERTEX
  5
45DD2
100
AcDbEntity
  8
0
100
AcDbVertex
100
AcDbPolygonMeshVertex
 10
0.345
 20
-4.750856
 30
1.786
 70
    64
  0
VERTEX
  5
45DD3
100
AcDbEntity
  8
0
100
AcDbVertex
100
AcDbPolygonMeshVertex
 10
0.345
 20
-4.750856
 30
0.183
 70
    64
  0
VERTEX
  5
45DD4
100
AcDbEntity
  8
0
100
AcDbVertex
100
AcDbPolygonMeshVertex
 10
5.273
 20
-4.750856
 30
0.183
 70
    64
  0
VERTEX
  5
45DD5
100
AcDbEntity
  8
0
100
AcDbVertex
100
AcDbPolygonMeshVertex
 10
0.345
 20
-0.108856
 30
1.786
 70
    64
  0
VERTEX
  5
45DD6
100
AcDbEntity
  8
0
100
AcDbVertex
100
AcDbPolygonMeshVertex
 10
0.345
 20
-0.108856
 30
0.183
 70
    64
  0
VERTEX
  5
45DD7
100
AcDbEntity
  8
0
100
AcDbVertex
100
AcDbPolygonMeshVertex
 10
5.273
 20
-0.108856
 30
0.183
 70
    64
  0
VERTEX
  5
45DD8
100
AcDbEntity
  8
0
100
AcDbVertex
100
AcDbPolygonMeshVertex
 10
0.345
 20
-0.108856
 30
1.786
 70
    64
  0
VERTEX
  5
45DD9
100
AcDbEntity
  8
0
100
AcDbVertex
100
AcDbPolygonMeshVertex
 10
0.345
 20
-0.108856
 30
1.786
 70
    64
  0
VERTEX
  5
45DDA
100
AcDbEntity
  8
0
100
AcDbVertex
100
AcDbPolygonMeshVertex
 10
5.273
 20
-0.108856
 30
1.786
 70
    64
  0
VERTEX
  5
45DDB
100
AcDbEntity
  8
0
100
AcDbVertex
100
AcDbPolygonMeshVertex
 10
0.345
 20
-4.750856
 30
1.786
 70
    64
  0
VERTEX
  5
45DDC
100
AcDbEntity
  8
0
100
AcDbVertex
100
AcDbPolygonMeshVertex
 10
0.345
 20
-4.750856
 30
1.786
 70
    64
  0
VERTEX
  5
45DDD
100
AcDbEntity
  8
0
100
AcDbVertex
100
AcDbPolygonMeshVertex
 10
5.273
 20
-4.750856
 30
1.786
 70
    64
  0
SEQEND
  5
45DDE
100
AcDbEntity
  8
0
  0
POLYLINE
  5
45DDF
100
AcDbEntity
  8
0
100
AcDbPolygonMesh
 66
     1
 10
0.0
 20
0.0
 30
0.0
 70
    16
 71
     6
 72
     3
  0
VERTEX
  5
45DE0
100
AcDbEntity
  8
0
100
AcDbVertex
100
AcDbPolygonMeshVertex
 10
6.373
 20
-0.108856
 30
0.183
 70
    64
  0
VERTEX
  5
45DE1
100
AcDbEntity
  8
0
100
AcDbVertex
100
AcDbPolygonMeshVertex
 10
6.373
 20
-0.108856
 30
0.0
 70
    64
  0
VERTEX
  5
45DE2
100
AcDbEntity
  8
0
100
AcDbVertex
100
AcDbPolygonMeshVertex
 10
6.373
 20
-0.108856
 30
0.0
 70
    64
  0
VERTEX
  5
45DE3
100
AcDbEntity
  8
0
100
AcDbVertex
100
AcDbPolygonMeshVertex
 10
6.373
 20
-1.809856
 30
0.183
 70
    64
  0
VERTEX
  5
45DE4
100
AcDbEntity
  8
0
100
AcDbVertex
100
AcDbPolygonMeshVertex
 10
6.373
 20
-1.809856
 30
0.0
 70
    64
  0
VERTEX
  5
45DE5
100
AcDbEntity
  8
0
100
AcDbVertex
100
AcDbPolygonMeshVertex
 10
6.373
 20
-1.809856
 30
0.0
 70
    64
  0
VERTEX
  5
45DE6
100
AcDbEntity
  8
0
100
AcDbVertex
100
AcDbPolygonMeshVertex
 10
-0.33
 20
-1.809856
 30
0.183
 70
    64
  0
VERTEX
  5
45DE7
100
AcDbEntity
  8
0
100
AcDbVertex
100
AcDbPolygonMeshVertex
 10
-0.33
 20
-1.809856
 30
0.0
 70
    64
  0
VERTEX
  5
45DE8
100
AcDbEntity
  8
0
100
AcDbVertex
100
AcDbPolygonMeshVertex
 10
6.373
 20
-1.809856
 30
0.0
 70
    64
  0
VERTEX
  5
45DE9
100
AcDbEntity
  8
0
100
AcDbVertex
100
AcDbPolygonMeshVertex
 10
-0.33
 20
-0.108856
 30
0.183
 70
    64
  0
VERTEX
  5
45DEA
100
AcDbEntity
  8
0
100
AcDbVertex
100
AcDbPolygonMeshVertex
 10
-0.33
 20
-0.108856
 30
0.0
 70
    64
  0
VERTEX
  5
45DEB
100
AcDbEntity
  8
0
100
AcDbVertex
100
AcDbPolygonMeshVertex
 10
6.373
 20
-0.108856
 30
0.0
 70
    64
  0
VERTEX
  5
45DEC
100
AcDbEntity
  8
0
100
AcDbVertex
100
AcDbPolygonMeshVertex
 10
-0.33
 20
-0.108856
 30
0.183
 70
    64
  0
VERTEX
  5
45DED
100
AcDbEntity
  8
0
100
AcDbVertex
100
AcDbPolygonMeshVertex
 10
-0.33
 20
-0.108856
 30
0.183
 70
    64
  0
VERTEX
  5
45DEE
100
AcDbEntity
  8
0
100
AcDbVertex
100
AcDbPolygonMeshVertex
 10
6.373
 20
-0.108856
 30
0.183
 70
    64
  0
VERTEX
  5
45DEF
100
AcDbEntity
  8
0
100
AcDbVertex
100
AcDbPolygonMeshVertex
 10
-0.33
 20
-1.809856
 30
0.183
 70
    64
  0
VERTEX
  5
45DF0
100
AcDbEntity
  8
0
100
AcDbVertex
100
AcDbPolygonMeshVertex
 10
-0.33
 20
-1.809856
 30
0.183
 70
    64
  0
VERTEX
  5
45DF1
100
AcDbEntity
  8
0
100
AcDbVertex
100
AcDbPolygonMeshVertex
 10
6.373
 20
-1.809856
 30
0.183
 70
    64
  0
SEQEND
  5
45DF2
100
AcDbEntity
  8
0
  0
POLYLINE
  5
45DF3
100
AcDbEntity
  8
0
100
AcDbPolygonMesh
 66
     1
 10
0.0
 20
0.0
 30
0.0
 70
    16
 71
     6
 72
     3
  0
VERTEX
  5
45DF4
100
AcDbEntity
  8
0
100
AcDbVertex
100
AcDbPolygonMeshVertex
 10
6.373
 20
-3.131856
 30
0.183
 70
    64
  0
VERTEX
  5
45DF5
100
AcDbEntity
  8
0
100
AcDbVertex
100
AcDbPolygonMeshVertex
 10
6.373
 20
-3.131856
 30
0.0
 70
    64
  0
VERTEX
  5
45DF6
100
AcDbEntity
  8
0
100
AcDbVertex
100
AcDbPolygonMeshVertex
 10
6.373
 20
-3.131856
 30
0.0
 70
    64
  0
VERTEX
  5
45DF7
100
AcDbEntity
  8
0
100
AcDbVertex
100
AcDbPolygonMeshVertex
 10
6.373
 20
-4.750856
 30
0.183
 70
    64
  0
VERTEX
  5
45DF8
100
AcDbEntity
  8
0
100
AcDbVertex
100
AcDbPolygonMeshVertex
 10
6.373
 20
-4.750856
 30
0.0
 70
    64
  0
VERTEX
  5
45DF9
100
AcDbEntity
  8
0
100
AcDbVertex
100
AcDbPolygonMeshVertex
 10
6.373
 20
-4.750856
 30
0.0
 70
    64
  0
VERTEX
  5
45DFA
100
AcDbEntity
  8
0
100
AcDbVertex
100
AcDbPolygonMeshVertex
 10
-0.33
 20
-4.750856
 30
0.183
 70
    64
  0
VERTEX
  5
45DFB
100
AcDbEntity
  8
0
100
AcDbVertex
100
AcDbPolygonMeshVertex
 10
-0.33
 20
-4.750856
 30
0.0
 70
    64
  0
VERTEX
  5
45DFC
100
AcDbEntity
  8
0
100
AcDbVertex
100
AcDbPolygonMeshVertex
 10
6.373
 20
-4.750856
 30
0.0
 70
    64
  0
VERTEX
  5
45DFD
100
AcDbEntity
  8
0
100
AcDbVertex
100
AcDbPolygonMeshVertex
 10
-0.33
 20
-3.131856
 30
0.183
 70
    64
  0
VERTEX
  5
45DFE
100
AcDbEntity
  8
0
100
AcDbVertex
100
AcDbPolygonMeshVertex
 10
-0.33
 20
-3.131856
 30
0.0
 70
    64
  0
VERTEX
  5
45DFF
100
AcDbEntity
  8
0
100
AcDbVertex
100
AcDbPolygonMeshVertex
 10
6.373
 20
-3.131856
 30
0.0
 70
    64
  0
VERTEX
  5
45E00
100
AcDbEntity
  8
0
100
AcDbVertex
100
AcDbPolygonMeshVertex
 10
-0.33
 20
-3.131856
 30
0.183
 70
    64
  0
VERTEX
  5
45E01
100
AcDbEntity
  8
0
100
AcDbVertex
100
AcDbPolygonMeshVertex
 10
-0.33
 20
-3.131856
 30
0.183
 70
    64
  0
VERTEX
  5
45E02
100
AcDbEntity
  8
0
100
AcDbVertex
100
AcDbPolygonMeshVertex
 10
6.373
 20
-3.131856
 30
0.183
 70
    64
  0
VERTEX
  5
45E03
100
AcDbEntity
  8
0
100
AcDbVertex
100
AcDbPolygonMeshVertex
 10
-0.33
 20
-4.750856
 30
0.183
 70
    64
  0
VERTEX
  5
45E04
100
AcDbEntity
  8
0
100
AcDbVertex
100
AcDbPolygonMeshVertex
 10
-0.33
 20
-4.750856
 30
0.183
 70
    64
  0
VERTEX
  5
45E05
100
AcDbEntity
  8
0
100
AcDbVertex
100
AcDbPolygonMeshVertex
 10
6.373
 20
-4.750856
 30
0.183
 70
    64
  0
SEQEND
  5
45E06
100
AcDbEntity
  8
0
  0
POLYLINE
  5
45E07
100
AcDbEntity
  8
0
100
AcDbPolygonMesh
 66
     1
 10
0.0
 20
0.0
 30
0.0
 70
    16
 71
     6
 72
     3
  0
VERTEX
  5
45E08
100
AcDbEntity
  8
0
100
AcDbVertex
100
AcDbPolygonMeshVertex
 10
0.248
 20
-4.750856
 30
0.166
 70
    64
  0
VERTEX
  5
45E09
100
AcDbEntity
  8
0
100
AcDbVertex
100
AcDbPolygonMeshVertex
 10
0.248
 20
-4.750856
 30
0.0
 70
    64
  0
VERTEX
  5
45E0A
100
AcDbEntity
  8
0
100
AcDbVertex
100
AcDbPolygonMeshVertex
 10
0.248
 20
-4.750856
 30
0.0
 70
    64
  0
VERTEX
  5
45E0B
100
AcDbEntity
  8
0
100
AcDbVertex
100
AcDbPolygonMeshVertex
 10
0.248
 20
-5.039856
 30
0.166
 70
    64
  0
VERTEX
  5
45E0C
100
AcDbEntity
  8
0
100
AcDbVertex
100
AcDbPolygonMeshVertex
 10
0.248
 20
-5.039856
 30
0.0
 70
    64
  0
VERTEX
  5
45E0D
100
AcDbEntity
  8
0
100
AcDbVertex
100
AcDbPolygonMeshVertex
 10
0.248
 20
-5.039856
 30
0.0
 70
    64
  0
VERTEX
  5
45E0E
100
AcDbEntity
  8
0
100
AcDbVertex
100
AcDbPolygonMeshVertex
 10
0.104
 20
-5.039856
 30
0.166
 70
    64
  0
VERTEX
  5
45E0F
100
AcDbEntity
  8
0
100
AcDbVertex
100
AcDbPolygonMeshVertex
 10
0.104
 20
-5.039856
 30
0.0
 70
    64
  0
VERTEX
  5
45E10
100
AcDbEntity
  8
0
100
AcDbVertex
100
AcDbPolygonMeshVertex
 10
0.248
 20
-5.039856
 30
0.0
 70
    64
  0
VERTEX
  5
45E11
100
AcDbEntity
  8
0
100
AcDbVertex
100
AcDbPolygonMeshVertex
 10
0.104
 20
-4.750856
 30
0.166
 70
    64
  0
VERTEX
  5
45E12
100
AcDbEntity
  8
0
100
AcDbVertex
100
AcDbPolygonMeshVertex
 10
0.104
 20
-4.750856
 30
0.0
 70
    64
  0
VERTEX
  5
45E13
100
AcDbEntity
  8
0
100
AcDbVertex
100
AcDbPolygonMeshVertex
 10
0.248
 20
-4.750856
 30
0.0
 70
    64
  0
VERTEX
  5
45E14
100
AcDbEntity
  8
0
100
AcDbVertex
100
AcDbPolygonMeshVertex
 10
0.104
 20
-4.750856
 30
0.166
 70
    64
  0
VERTEX
  5
45E15
100
AcDbEntity
  8
0
100
AcDbVertex
100
AcDbPolygonMeshVertex
 10
0.104
 20
-4.750856
 30
0.166
 70
    64
  0
VERTEX
  5
45E16
100
AcDbEntity
  8
0
100
AcDbVertex
100
AcDbPolygonMeshVertex
 10
0.248
 20
-4.750856
 30
0.166
 70
    64
  0
VERTEX
  5
45E17
100
AcDbEntity
  8
0
100
AcDbVertex
100
AcDbPolygonMeshVertex
 10
0.104
 20
-5.039856
 30
0.166
 70
    64
  0
VERTEX
  5
45E18
100
AcDbEntity
  8
0
100
AcDbVertex
100
AcDbPolygonMeshVertex
 10
0.104
 20
-5.039856
 30
0.166
 70
    64
  0
VERTEX
  5
45E19
100
AcDbEntity
  8
0
100
AcDbVertex
100
AcDbPolygonMeshVertex
 10
0.248
 20
-5.039856
 30
0.166
 70
    64
  0
SEQEND
  5
45E1A
100
AcDbEntity
  8
0
  0
POLYLINE
  5
45E1B
100
AcDbEntity
  8
0
100
AcDbPolygonMesh
 66
     1
 10
0.0
 20
0.0
 30
0.0
 70
    16
 71
     6
 72
     3
  0
VERTEX
  5
45E1C
100
AcDbEntity
  8
0
100
AcDbVertex
100
AcDbPolygonMeshVertex
 10
-0.076
 20
-4.750856
 30
0.166
 70
    64
  0
VERTEX
  5
45E1D
100
AcDbEntity
  8
0
100
AcDbVertex
100
AcDbPolygonMeshVertex
 10
-0.076
 20
-4.750856
 30
0.0
 70
    64
  0
VERTEX
  5
45E1E
100
AcDbEntity
  8
0
100
AcDbVertex
100
AcDbPolygonMeshVertex
 10
-0.076
 20
-4.750856
 30
0.0
 70
    64
  0
VERTEX
  5
45E1F
100
AcDbEntity
  8
0
100
AcDbVertex
100
AcDbPolygonMeshVertex
 10
-0.076
 20
-5.039856
 30
0.166
 70
    64
  0
VERTEX
  5
45E20
100
AcDbEntity
  8
0
100
AcDbVertex
100
AcDbPolygonMeshVertex
 10
-0.076
 20
-5.039856
 30
0.0
 70
    64
  0
VERTEX
  5
45E21
100
AcDbEntity
  8
0
100
AcDbVertex
100
AcDbPolygonMeshVertex
 10
-0.076
 20
-5.039856
 30
0.0
 70
    64
  0
VERTEX
  5
45E22
100
AcDbEntity
  8
0
100
AcDbVertex
100
AcDbPolygonMeshVertex
 10
-0.22
 20
-5.039856
 30
0.166
 70
    64
  0
VERTEX
  5
45E23
100
AcDbEntity
  8
0
100
AcDbVertex
100
AcDbPolygonMeshVertex
 10
-0.22
 20
-5.039856
 30
0.0
 70
    64
  0
VERTEX
  5
45E24
100
AcDbEntity
  8
0
100
AcDbVertex
100
AcDbPolygonMeshVertex
 10
-0.076
 20
-5.039856
 30
0.0
 70
    64
  0
VERTEX
  5
45E25
100
AcDbEntity
  8
0
100
AcDbVertex
100
AcDbPolygonMeshVertex
 10
-0.22
 20
-4.750856
 30
0.166
 70
    64
  0
VERTEX
  5
45E26
100
AcDbEntity
  8
0
100
AcDbVertex
100
AcDbPolygonMeshVertex
 10
-0.22
 20
-4.750856
 30
0.0
 70
    64
  0
VERTEX
  5
45E27
100
AcDbEntity
  8
0
100
AcDbVertex
100
AcDbPolygonMeshVertex
 10
-0.076
 20
-4.750856
 30
0.0
 70
    64
  0
VERTEX
  5
45E28
100
AcDbEntity
  8
0
100
AcDbVertex
100
AcDbPolygonMeshVertex
 10
-0.22
 20
-4.750856
 30
0.166
 70
    64
  0
VERTEX
  5
45E29
100
AcDbEntity
  8
0
100
AcDbVertex
100
AcDbPolygonMeshVertex
 10
-0.22
 20
-4.750856
 30
0.166
 70
    64
  0
VERTEX
  5
45E2A
100
AcDbEntity
  8
0
100
AcDbVertex
100
AcDbPolygonMeshVertex
 10
-0.076
 20
-4.750856
 30
0.166
 70
    64
  0
VERTEX
  5
45E2B
100
AcDbEntity
  8
0
100
AcDbVertex
100
AcDbPolygonMeshVertex
 10
-0.22
 20
-5.039856
 30
0.166
 70
    64
  0
VERTEX
  5
45E2C
100
AcDbEntity
  8
0
100
AcDbVertex
100
AcDbPolygonMeshVertex
 10
-0.22
 20
-5.039856
 30
0.166
 70
    64
  0
VERTEX
  5
45E2D
100
AcDbEntity
  8
0
100
AcDbVertex
100
AcDbPolygonMeshVertex
 10
-0.076
 20
-5.039856
 30
0.166
 70
    64
  0
SEQEND
  5
45E2E
100
AcDbEntity
  8
0
  0
LINE
  5
45E2F
100
AcDbEntity
  8
0
100
AcDbLine
 10
-0.186
 20
-4.750856
 30
0.0
 11
-0.006
 21
-4.750856
 31
0.0
  0
LINE
  5
45E30
100
AcDbEntity
  8
0
100
AcDbLine
 10
1.695
 20
-4.919856
 30
0.145
 11
1.607075
 21
-5.149046
 31
0.145
  0
LINE
  5
45E31
100
AcDbEntity
  8
0
100
AcDbLine
 10
1.27
 20
-4.919856
 30
0.145
 11
1.357925
 21
-5.149046
 31
0.145
  0
LINE
  5
45E32
100
AcDbEntity
  8
0
100
AcDbLine
 10
1.695
 20
-4.919856
 30
0.0
 11
1.607075
 21
-5.149046
 31
0.0
  0
LINE
  5
45E33
100
AcDbEntity
  8
0
100
AcDbLine
 10
1.27
 20
-4.919856
 30
0.0
 11
1.357925
 21
-5.149046
 31
0.0
  0
POLYLINE
  5
45E34
100
AcDbEntity
  8
0
100
AcDbPolygonMesh
 66
     1
 10
0.0
 20
0.0
 30
0.0
 70
    16
 71
     6
 72
     3
  0
VERTEX
  5
45E35
100
AcDbEntity
  8
0
100
AcDbVertex
100
AcDbPolygonMeshVertex
 10
1.845
 20
-4.919856
 30
0.145
 70
    64
  0
VERTEX
  5
45E36
100
AcDbEntity
  8
0
100
AcDbVertex
100
AcDbPolygonMeshVertex
 10
1.845
 20
-4.919856
 30
0.0
 70
    64
  0
VERTEX
  5
45E37
100
AcDbEntity
  8
0
100
AcDbVertex
100
AcDbPolygonMeshVertex
 10
1.845
 20
-4.919856
 30
0.0
 70
    64
  0
VERTEX
  5
45E38
100
AcDbEntity
  8
0
100
AcDbVertex
100
AcDbPolygonMeshVertex
 10
1.695
 20
-5.310856
 30
0.145
 70
    64
  0
VERTEX
  5
45E39
100
AcDbEntity
  8
0
100
AcDbVertex
100
AcDbPolygonMeshVertex
 10
1.695
 20
-5.310856
 30
0.0
 70
    64
  0
VERTEX
  5
45E3A
100
AcDbEntity
  8
0
100
AcDbVertex
100
AcDbPolygonMeshVertex
 10
1.695
 20
-5.310856
 30
0.0
 70
    64
  0
VERTEX
  5
45E3B
100
AcDbEntity
  8
0
100
AcDbVertex
100
AcDbPolygonMeshVertex
 10
1.27
 20
-5.310856
 30
0.145
 70
    64
  0
VERTEX
  5
45E3C
100
AcDbEntity
  8
0
100
AcDbVertex
100
AcDbPolygonMeshVertex
 10
1.27
 20
-5.310856
 30
0.0
 70
    64
  0
VERTEX
  5
45E3D
100
AcDbEntity
  8
0
100
AcDbVertex
100
AcDbPolygonMeshVertex
 10
1.695
 20
-5.310856
 30
0.0
 70
    64
  0
VERTEX
  5
45E3E
100
AcDbEntity
  8
0
100
AcDbVertex
100
AcDbPolygonMeshVertex
 10
1.12
 20
-4.919856
 30
0.145
 70
    64
  0
VERTEX
  5
45E3F
100
AcDbEntity
  8
0
100
AcDbVertex
100
AcDbPolygonMeshVertex
 10
1.12
 20
-4.919856
 30
0.0
 70
    64
  0
VERTEX
  5
45E40
100
AcDbEntity
  8
0
100
AcDbVertex
100
AcDbPolygonMeshVertex
 10
1.845
 20
-4.919856
 30
0.0
 70
    64
  0
VERTEX
  5
45E41
100
AcDbEntity
  8
0
100
AcDbVertex
100
AcDbPolygonMeshVertex
 10
1.12
 20
-4.919856
 30
0.145
 70
    64
  0
VERTEX
  5
45E42
100
AcDbEntity
  8
0
100
AcDbVertex
100
AcDbPolygonMeshVertex
 10
1.12
 20
-4.919856
 30
0.145
 70
    64
  0
VERTEX
  5
45E43
100
AcDbEntity
  8
0
100
AcDbVertex
100
AcDbPolygonMeshVertex
 10
1.845
 20
-4.919856
 30
0.145
 70
    64
  0
VERTEX
  5
45E44
100
AcDbEntity
  8
0
100
AcDbVertex
100
AcDbPolygonMeshVertex
 10
1.27
 20
-5.310856
 30
0.145
 70
    64
  0
VERTEX
  5
45E45
100
AcDbEntity
  8
0
100
AcDbVertex
100
AcDbPolygonMeshVertex
 10
1.27
 20
-5.310856
 30
0.145
 70
    64
  0
VERTEX
  5
45E46
100
AcDbEntity
  8
0
100
AcDbVertex
100
AcDbPolygonMeshVertex
 10
1.695
 20
-5.310856
 30
0.145
 70
    64
  0
SEQEND
  5
45E47
100
AcDbEntity
  8
0
  0
LINE
  5
45E48
100
AcDbEntity
  8
0
100
AcDbLine
 10
1.607075
 20
-5.149046
 30
0.0
 11
1.357925
 21
-5.149046
 31
0.0
  0
LINE
  5
45E49
100
AcDbEntity
  8
0
100
AcDbLine
 10
1.607075
 20
-5.149046
 30
0.145
 11
1.357925
 21
-5.149046
 31
0.145
  0
POLYLINE
  5
45E4A
100
AcDbEntity
  8
0
100
AcDbPolygonMesh
 66
     1
 10
0.0
 20
0.0
 30
0.0
 70
    16
 71
     6
 72
     3
  0
VERTEX
  5
45E4B
100
AcDbEntity
  8
0
100
AcDbVertex
100
AcDbPolygonMeshVertex
 10
1.12
 20
-4.750856
 30
0.145
 70
    64
  0
VERTEX
  5
45E4C
100
AcDbEntity
  8
0
100
AcDbVertex
100
AcDbPolygonMeshVertex
 10
1.12
 20
-4.750856
 30
0.0
 70
    64
  0
VERTEX
  5
45E4D
100
AcDbEntity
  8
0
100
AcDbVertex
100
AcDbPolygonMeshVertex
 10
1.12
 20
-4.750856
 30
0.0
 70
    64
  0
VERTEX
  5
45E4E
100
AcDbEntity
  8
0
100
AcDbVertex
100
AcDbPolygonMeshVertex
 10
1.845
 20
-4.750856
 30
0.145
 70
    64
  0
VERTEX
  5
45E4F
100
AcDbEntity
  8
0
100
AcDbVertex
100
AcDbPolygonMeshVertex
 10
1.845
 20
-4.750856
 30
0.0
 70
    64
  0
VERTEX
  5
45E50
100
AcDbEntity
  8
0
100
AcDbVertex
100
AcDbPolygonMeshVertex
 10
1.845
 20
-4.750856
 30
0.0
 70
    64
  0
VERTEX
  5
45E51
100
AcDbEntity
  8
0
100
AcDbVertex
100
AcDbPolygonMeshVertex
 10
1.845
 20
-4.919856
 30
0.145
 70
    64
  0
VERTEX
  5
45E52
100
AcDbEntity
  8
0
100
AcDbVertex
100
AcDbPolygonMeshVertex
 10
1.845
 20
-4.919856
 30
0.0
 70
    64
  0
VERTEX
  5
45E53
100
AcDbEntity
  8
0
100
AcDbVertex
100
AcDbPolygonMeshVertex
 10
1.845
 20
-4.750856
 30
0.0
 70
    64
  0
VERTEX
  5
45E54
100
AcDbEntity
  8
0
100
AcDbVertex
100
AcDbPolygonMeshVertex
 10
1.12
 20
-4.919856
 30
0.145
 70
    64
  0
VERTEX
  5
45E55
100
AcDbEntity
  8
0
100
AcDbVertex
100
AcDbPolygonMeshVertex
 10
1.12
 20
-4.919856
 30
0.0
 70
    64
  0
VERTEX
  5
45E56
100
AcDbEntity
  8
0
100
AcDbVertex
100
AcDbPolygonMeshVertex
 10
1.12
 20
-4.750856
 30
0.0
 70
    64
  0
VERTEX
  5
45E57
100
AcDbEntity
  8
0
100
AcDbVertex
100
AcDbPolygonMeshVertex
 10
1.12
 20
-4.919856
 30
0.145
 70
    64
  0
VERTEX
  5
45E58
100
AcDbEntity
  8
0
100
AcDbVertex
100
AcDbPolygonMeshVertex
 10
1.12
 20
-4.919856
 30
0.145
 70
    64
  0
VERTEX
  5
45E59
100
AcDbEntity
  8
0
100
AcDbVertex
100
AcDbPolygonMeshVertex
 10
1.12
 20
-4.750856
 30
0.145
 70
    64
  0
VERTEX
  5
45E5A
100
AcDbEntity
  8
0
100
AcDbVertex
100
AcDbPolygonMeshVertex
 10
1.845
 20
-4.919856
 30
0.145
 70
    64
  0
VERTEX
  5
45E5B
100
AcDbEntity
  8
0
100
AcDbVertex
100
AcDbPolygonMeshVertex
 10
1.845
 20
-4.919856
 30
0.145
 70
    64
  0
VERTEX
  5
45E5C
100
AcDbEntity
  8
0
100
AcDbVertex
100
AcDbPolygonMeshVertex
 10
1.845
 20
-4.750856
 30
0.145
 70
    64
  0
SEQEND
  5
45E5D
100
AcDbEntity
  8
0
  0
LINE
  5
45E5E
100
AcDbEntity
  8
0
100
AcDbLine
 10
1.12
 20
-4.750856
 30
0.0
 11
1.12
 21
-3.131856
 31
0.0
  0
LINE
  5
45E5F
100
AcDbEntity
  8
0
100
AcDbLine
 10
1.845
 20
-4.750856
 30
0.0
 11
1.845
 21
-3.131856
 31
0.0
  0
POLYLINE
  5
45E60
100
AcDbEntity
  8
0
100
AcDbPolygonMesh
 66
     1
 10
0.0
 20
0.0
 30
0.0
 70
    16
 71
     6
 72
     3
  0
VERTEX
  5
45E61
100
AcDbEntity
  8
0
100
AcDbVertex
100
AcDbPolygonMeshVertex
 10
-0.234
 20
0.180144
 30
0.166
 70
    64
  0
VERTEX
  5
45E62
100
AcDbEntity
  8
0
100
AcDbVertex
100
AcDbPolygonMeshVertex
 10
-0.234
 20
0.180144
 30
0.0
 70
    64
  0
VERTEX
  5
45E63
100
AcDbEntity
  8
0
100
AcDbVertex
100
AcDbPolygonMeshVertex
 10
-0.234
 20
0.180144
 30
0.0
 70
    64
  0
VERTEX
  5
45E64
100
AcDbEntity
  8
0
100
AcDbVertex
100
AcDbPolygonMeshVertex
 10
0.234
 20
0.180144
 30
0.166
 70
    64
  0
VERTEX
  5
45E65
100
AcDbEntity
  8
0
100
AcDbVertex
100
AcDbPolygonMeshVertex
 10
0.234
 20
0.180144
 30
0.0
 70
    64
  0
VERTEX
  5
45E66
100
AcDbEntity
  8
0
100
AcDbVertex
100
AcDbPolygonMeshVertex
 10
0.234
 20
0.180144
 30
0.0
 70
    64
  0
VERTEX
  5
45E67
100
AcDbEntity
  8
0
100
AcDbVertex
100
AcDbPolygonMeshVertex
 10
0.234
 20
-0.108856
 30
0.166
 70
    64
  0
VERTEX
  5
45E68
100
AcDbEntity
  8
0
100
AcDbVertex
100
AcDbPolygonMeshVertex
 10
0.234
 20
-0.108856
 30
0.0
 70
    64
  0
VERTEX
  5
45E69
100
AcDbEntity
  8
0
100
AcDbVertex
100
AcDbPolygonMeshVertex
 10
0.234
 20
0.180144
 30
0.0
 70
    64
  0
VERTEX
  5
45E6A
100
AcDbEntity
  8
0
100
AcDbVertex
100
AcDbPolygonMeshVertex
 10
-0.234
 20
-0.108856
 30
0.166
 70
    64
  0
VERTEX
  5
45E6B
100
AcDbEntity
  8
0
100
AcDbVertex
100
AcDbPolygonMeshVertex
 10
-0.234
 20
-0.108856
 30
0.0
 70
    64
  0
VERTEX
  5
45E6C
100
AcDbEntity
  8
0
100
AcDbVertex
100
AcDbPolygonMeshVertex
 10
-0.234
 20
0.180144
 30
0.0
 70
    64
  0
VERTEX
  5
45E6D
100
AcDbEntity
  8
0
100
AcDbVertex
100
AcDbPolygonMeshVertex
 10
-0.234
 20
-0.108856
 30
0.166
 70
    64
  0
VERTEX
  5
45E6E
100
AcDbEntity
  8
0
100
AcDbVertex
100
AcDbPolygonMeshVertex
 10
-0.234
 20
-0.108856
 30
0.166
 70
    64
  0
VERTEX
  5
45E6F
100
AcDbEntity
  8
0
100
AcDbVertex
100
AcDbPolygonMeshVertex
 10
-0.234
 20
0.180144
 30
0.166
 70
    64
  0
VERTEX
  5
45E70
100
AcDbEntity
  8
0
100
AcDbVertex
100
AcDbPolygonMeshVertex
 10
0.234
 20
-0.108856
 30
0.166
 70
    64
  0
VERTEX
  5
45E71
100
AcDbEntity
  8
0
100
AcDbVertex
100
AcDbPolygonMeshVertex
 10
0.234
 20
-0.108856
 30
0.166
 70
    64
  0
VERTEX
  5
45E72
100
AcDbEntity
  8
0
100
AcDbVertex
100
AcDbPolygonMeshVertex
 10
0.234
 20
0.180144
 30
0.166
 70
    64
  0
SEQEND
  5
45E73
100
AcDbEntity
  8
0
  0
CIRCLE
  5
45E75
100
AcDbEntity
  8
0
100
AcDbCircle
 10
0.0
 20
0.0
 30
0.0
 40
0.09
  0
CIRCLE
  5
45E77
100
AcDbEntity
  8
0
100
AcDbCircle
 10
0.0
 20
0.0
 30
0.166
 40
0.09
  0
LINE
  5
45E78
100
AcDbEntity
  8
0
100
AcDbLine
 10
6.049
 20
-4.750856
 30
0.0
 11
6.229
 21
-4.750856
 31
0.0
  0
POLYLINE
  5
45E79
100
AcDbEntity
  8
0
100
AcDbPolygonMesh
 66
     1
 10
0.0
 20
0.0
 30
0.0
 70
    16
 71
     6
 72
     3
  0
VERTEX
  5
45E7A
100
AcDbEntity
  8
0
100
AcDbVertex
100
AcDbPolygonMeshVertex
 10
6.111
 20
-4.750856
 30
0.166
 70
    64
  0
VERTEX
  5
45E7B
100
AcDbEntity
  8
0
100
AcDbVertex
100
AcDbPolygonMeshVertex
 10
6.111
 20
-4.750856
 30
0.0
 70
    64
  0
VERTEX
  5
45E7C
100
AcDbEntity
  8
0
100
AcDbVertex
100
AcDbPolygonMeshVertex
 10
6.111
 20
-4.750856
 30
0.0
 70
    64
  0
VERTEX
  5
45E7D
100
AcDbEntity
  8
0
100
AcDbVertex
100
AcDbPolygonMeshVertex
 10
6.111
 20
-5.039856
 30
0.166
 70
    64
  0
VERTEX
  5
45E7E
100
AcDbEntity
  8
0
100
AcDbVertex
100
AcDbPolygonMeshVertex
 10
6.111
 20
-5.039856
 30
0.0
 70
    64
  0
VERTEX
  5
45E7F
100
AcDbEntity
  8
0
100
AcDbVertex
100
AcDbPolygonMeshVertex
 10
6.111
 20
-5.039856
 30
0.0
 70
    64
  0
VERTEX
  5
45E80
100
AcDbEntity
  8
0
100
AcDbVertex
100
AcDbPolygonMeshVertex
 10
5.967
 20
-5.039856
 30
0.166
 70
    64
  0
VERTEX
  5
45E81
100
AcDbEntity
  8
0
100
AcDbVertex
100
AcDbPolygonMeshVertex
 10
5.967
 20
-5.039856
 30
0.0
 70
    64
  0
VERTEX
  5
45E82
100
AcDbEntity
  8
0
100
AcDbVertex
100
AcDbPolygonMeshVertex
 10
6.111
 20
-5.039856
 30
0.0
 70
    64
  0
VERTEX
  5
45E83
100
AcDbEntity
  8
0
100
AcDbVertex
100
AcDbPolygonMeshVertex
 10
5.967
 20
-4.750856
 30
0.166
 70
    64
  0
VERTEX
  5
45E84
100
AcDbEntity
  8
0
100
AcDbVertex
100
AcDbPolygonMeshVertex
 10
5.967
 20
-4.750856
 30
0.0
 70
    64
  0
VERTEX
  5
45E85
100
AcDbEntity
  8
0
100
AcDbVertex
100
AcDbPolygonMeshVertex
 10
6.111
 20
-4.750856
 30
0.0
 70
    64
  0
VERTEX
  5
45E86
100
AcDbEntity
  8
0
100
AcDbVertex
100
AcDbPolygonMeshVertex
 10
5.967
 20
-4.750856
 30
0.166
 70
    64
  0
VERTEX
  5
45E87
100
AcDbEntity
  8
0
100
AcDbVertex
100
AcDbPolygonMeshVertex
 10
5.967
 20
-4.750856
 30
0.166
 70
    64
  0
VERTEX
  5
45E88
100
AcDbEntity
  8
0
100
AcDbVertex
100
AcDbPolygonMeshVertex
 10
6.111
 20
-4.750856
 30
0.166
 70
    64
  0
VERTEX
  5
45E89
100
AcDbEntity
  8
0
100
AcDbVertex
100
AcDbPolygonMeshVertex
 10
5.967
 20
-5.039856
 30
0.166
 70
    64
  0
VERTEX
  5
45E8A
100
AcDbEntity
  8
0
100
AcDbVertex
100
AcDbPolygonMeshVertex
 10
5.967
 20
-5.039856
 30
0.166
 70
    64
  0
VERTEX
  5
45E8B
100
AcDbEntity
  8
0
100
AcDbVertex
100
AcDbPolygonMeshVertex
 10
6.111
 20
-5.039856
 30
0.166
 70
    64
  0
SEQEND
  5
45E8C
100
AcDbEntity
  8
0
  0
POLYLINE
  5
45E8D
100
AcDbEntity
  8
0
100
AcDbPolygonMesh
 66
     1
 10
0.0
 20
0.0
 30
0.0
 70
    16
 71
     6
 72
     3
  0
VERTEX
  5
45E8E
100
AcDbEntity
  8
0
100
AcDbVertex
100
AcDbPolygonMeshVertex
 10
4.198
 20
-4.750856
 30
0.145
 70
    64
  0
VERTEX
  5
45E8F
100
AcDbEntity
  8
0
100
AcDbVertex
100
AcDbPolygonMeshVertex
 10
4.198
 20
-4.750856
 30
0.0
 70
    64
  0
VERTEX
  5
45E90
100
AcDbEntity
  8
0
100
AcDbVertex
100
AcDbPolygonMeshVertex
 10
4.198
 20
-4.750856
 30
0.0
 70
    64
  0
VERTEX
  5
45E91
100
AcDbEntity
  8
0
100
AcDbVertex
100
AcDbPolygonMeshVertex
 10
4.348
 20
-5.141856
 30
0.145
 70
    64
  0
VERTEX
  5
45E92
100
AcDbEntity
  8
0
100
AcDbVertex
100
AcDbPolygonMeshVertex
 10
4.348
 20
-5.141856
 30
0.0
 70
    64
  0
VERTEX
  5
45E93
100
AcDbEntity
  8
0
100
AcDbVertex
100
AcDbPolygonMeshVertex
 10
4.348
 20
-5.141856
 30
0.0
 70
    64
  0
VERTEX
  5
45E94
100
AcDbEntity
  8
0
100
AcDbVertex
100
AcDbPolygonMeshVertex
 10
4.773
 20
-5.141856
 30
0.145
 70
    64
  0
VERTEX
  5
45E95
100
AcDbEntity
  8
0
100
AcDbVertex
100
AcDbPolygonMeshVertex
 10
4.773
 20
-5.141856
 30
0.0
 70
    64
  0
VERTEX
  5
45E96
100
AcDbEntity
  8
0
100
AcDbVertex
100
AcDbPolygonMeshVertex
 10
4.348
 20
-5.141856
 30
0.0
 70
    64
  0
VERTEX
  5
45E97
100
AcDbEntity
  8
0
100
AcDbVertex
100
AcDbPolygonMeshVertex
 10
4.923
 20
-4.750856
 30
0.145
 70
    64
  0
VERTEX
  5
45E98
100
AcDbEntity
  8
0
100
AcDbVertex
100
AcDbPolygonMeshVertex
 10
4.923
 20
-4.750856
 30
0.0
 70
    64
  0
VERTEX
  5
45E99
100
AcDbEntity
  8
0
100
AcDbVertex
100
AcDbPolygonMeshVertex
 10
4.198
 20
-4.750856
 30
0.0
 70
    64
  0
VERTEX
  5
45E9A
100
AcDbEntity
  8
0
100
AcDbVertex
100
AcDbPolygonMeshVertex
 10
4.923
 20
-4.750856
 30
0.145
 70
    64
  0
VERTEX
  5
45E9B
100
AcDbEntity
  8
0
100
AcDbVertex
100
AcDbPolygonMeshVertex
 10
4.923
 20
-4.750856
 30
0.145
 70
    64
  0
VERTEX
  5
45E9C
100
AcDbEntity
  8
0
100
AcDbVertex
100
AcDbPolygonMeshVertex
 10
4.198
 20
-4.750856
 30
0.145
 70
    64
  0
VERTEX
  5
45E9D
100
AcDbEntity
  8
0
100
AcDbVertex
100
AcDbPolygonMeshVertex
 10
4.773
 20
-5.141856
 30
0.145
 70
    64
  0
VERTEX
  5
45E9E
100
AcDbEntity
  8
0
100
AcDbVertex
100
AcDbPolygonMeshVertex
 10
4.773
 20
-5.141856
 30
0.145
 70
    64
  0
VERTEX
  5
45E9F
100
AcDbEntity
  8
0
100
AcDbVertex
100
AcDbPolygonMeshVertex
 10
4.348
 20
-5.141856
 30
0.145
 70
    64
  0
SEQEND
  5
45EA0
100
AcDbEntity
  8
0
  0
LINE
  5
45EA1
100
AcDbEntity
  8
0
100
AcDbLine
 10
4.773
 20
-4.750856
 30
0.0
 11
4.685075
 21
-4.980046
 31
0.0
  0
LINE
  5
45EA2
100
AcDbEntity
  8
0
100
AcDbLine
 10
4.348
 20
-4.750856
 30
0.0
 11
4.435925
 21
-4.980046
 31
0.0
  0
LINE
  5
45EA3
100
AcDbEntity
  8
0
100
AcDbLine
 10
4.348
 20
-4.750856
 30
0.145
 11
4.435925
 21
-4.980046
 31
0.145
  0
LINE
  5
45EA4
100
AcDbEntity
  8
0
100
AcDbLine
 10
4.773
 20
-4.750856
 30
0.145
 11
4.685075
 21
-4.980046
 31
0.145
  0
POLYLINE
  5
45EA5
100
AcDbEntity
  8
0
100
AcDbPolygonMesh
 66
     1
 10
0.0
 20
0.0
 30
0.0
 70
    16
 71
     6
 72
     3
  0
VERTEX
  5
45EA6
100
AcDbEntity
  8
0
100
AcDbVertex
100
AcDbPolygonMeshVertex
 10
5.787
 20
-4.750856
 30
0.166
 70
    64
  0
VERTEX
  5
45EA7
100
AcDbEntity
  8
0
100
AcDbVertex
100
AcDbPolygonMeshVertex
 10
5.787
 20
-4.750856
 30
0.0
 70
    64
  0
VERTEX
  5
45EA8
100
AcDbEntity
  8
0
100
AcDbVertex
100
AcDbPolygonMeshVertex
 10
5.787
 20
-4.750856
 30
0.0
 70
    64
  0
VERTEX
  5
45EA9
100
AcDbEntity
  8
0
100
AcDbVertex
100
AcDbPolygonMeshVertex
 10
5.787
 20
-5.039856
 30
0.166
 70
    64
  0
VERTEX
  5
45EAA
100
AcDbEntity
  8
0
100
AcDbVertex
100
AcDbPolygonMeshVertex
 10
5.787
 20
-5.039856
 30
0.0
 70
    64
  0
VERTEX
  5
45EAB
100
AcDbEntity
  8
0
100
AcDbVertex
100
AcDbPolygonMeshVertex
 10
5.787
 20
-5.039856
 30
0.0
 70
    64
  0
VERTEX
  5
45EAC
100
AcDbEntity
  8
0
100
AcDbVertex
100
AcDbPolygonMeshVertex
 10
5.643
 20
-5.039856
 30
0.166
 70
    64
  0
VERTEX
  5
45EAD
100
AcDbEntity
  8
0
100
AcDbVertex
100
AcDbPolygonMeshVertex
 10
5.643
 20
-5.039856
 30
0.0
 70
    64
  0
VERTEX
  5
45EAE
100
AcDbEntity
  8
0
100
AcDbVertex
100
AcDbPolygonMeshVertex
 10
5.787
 20
-5.039856
 30
0.0
 70
    64
  0
VERTEX
  5
45EAF
100
AcDbEntity
  8
0
100
AcDbVertex
100
AcDbPolygonMeshVertex
 10
5.643
 20
-4.750856
 30
0.166
 70
    64
  0
VERTEX
  5
45EB0
100
AcDbEntity
  8
0
100
AcDbVertex
100
AcDbPolygonMeshVertex
 10
5.643
 20
-4.750856
 30
0.0
 70
    64
  0
VERTEX
  5
45EB1
100
AcDbEntity
  8
0
100
AcDbVertex
100
AcDbPolygonMeshVertex
 10
5.787
 20
-4.750856
 30
0.0
 70
    64
  0
VERTEX
  5
45EB2
100
AcDbEntity
  8
0
100
AcDbVertex
100
AcDbPolygonMeshVertex
 10
5.643
 20
-4.750856
 30
0.166
 70
    64
  0
VERTEX
  5
45EB3
100
AcDbEntity
  8
0
100
AcDbVertex
100
AcDbPolygonMeshVertex
 10
5.643
 20
-4.750856
 30
0.166
 70
    64
  0
VERTEX
  5
45EB4
100
AcDbEntity
  8
0
100
AcDbVertex
100
AcDbPolygonMeshVertex
 10
5.787
 20
-4.750856
 30
0.166
 70
    64
  0
VERTEX
  5
45EB5
100
AcDbEntity
  8
0
100
AcDbVertex
100
AcDbPolygonMeshVertex
 10
5.643
 20
-5.039856
 30
0.166
 70
    64
  0
VERTEX
  5
45EB6
100
AcDbEntity
  8
0
100
AcDbVertex
100
AcDbPolygonMeshVertex
 10
5.643
 20
-5.039856
 30
0.166
 70
    64
  0
VERTEX
  5
45EB7
100
AcDbEntity
  8
0
100
AcDbVertex
100
AcDbPolygonMeshVertex
 10
5.787
 20
-5.039856
 30
0.166
 70
    64
  0
SEQEND
  5
45EB8
100
AcDbEntity
  8
0
  0
LINE
  5
45EB9
100
AcDbEntity
  8
0
100
AcDbLine
 10
4.435925
 20
-4.980046
 30
0.0
 11
4.685075
 21
-4.980046
 31
0.0
  0
LINE
  5
45EBA
100
AcDbEntity
  8
0
100
AcDbLine
 10
4.435925
 20
-4.980046
 30
0.145
 11
4.685075
 21
-4.980046
 31
0.145
  0
LINE
  5
45EBB
100
AcDbEntity
  8
0
100
AcDbLine
 10
4.198
 20
-4.750856
 30
0.0
 11
4.198
 21
-3.131856
 31
0.0
  0
LINE
  5
45EBC
100
AcDbEntity
  8
0
100
AcDbLine
 10
4.923
 20
-4.750856
 30
0.0
 11
4.923
 21
-3.131856
 31
0.0
  0
POLYLINE
  5
45EBD
100
AcDbEntity
  8
0
100
AcDbPolygonMesh
 66
     1
 10
0.0
 20
0.0
 30
0.0
 70
    16
 71
     6
 72
     3
  0
VERTEX
  5
45EBE
100
AcDbEntity
  8
0
100
AcDbVertex
100
AcDbPolygonMeshVertex
 10
5.652
 20
0.180144
 30
0.166
 70
    64
  0
VERTEX
  5
45EBF
100
AcDbEntity
  8
0
100
AcDbVertex
100
AcDbPolygonMeshVertex
 10
5.652
 20
0.180144
 30
0.0
 70
    64
  0
VERTEX
  5
45EC0
100
AcDbEntity
  8
0
100
AcDbVertex
100
AcDbPolygonMeshVertex
 10
5.652
 20
0.180144
 30
0.0
 70
    64
  0
VERTEX
  5
45EC1
100
AcDbEntity
  8
0
100
AcDbVertex
100
AcDbPolygonMeshVertex
 10
6.12
 20
0.180144
 30
0.166
 70
    64
  0
VERTEX
  5
45EC2
100
AcDbEntity
  8
0
100
AcDbVertex
100
AcDbPolygonMeshVertex
 10
6.12
 20
0.180144
 30
0.0
 70
    64
  0
VERTEX
  5
45EC3
100
AcDbEntity
  8
0
100
AcDbVertex
100
AcDbPolygonMeshVertex
 10
6.12
 20
0.180144
 30
0.0
 70
    64
  0
VERTEX
  5
45EC4
100
AcDbEntity
  8
0
100
AcDbVertex
100
AcDbPolygonMeshVertex
 10
6.12
 20
-0.108856
 30
0.166
 70
    64
  0
VERTEX
  5
45EC5
100
AcDbEntity
  8
0
100
AcDbVertex
100
AcDbPolygonMeshVertex
 10
6.12
 20
-0.108856
 30
0.0
 70
    64
  0
VERTEX
  5
45EC6
100
AcDbEntity
  8
0
100
AcDbVertex
100
AcDbPolygonMeshVertex
 10
6.12
 20
0.180144
 30
0.0
 70
    64
  0
VERTEX
  5
45EC7
100
AcDbEntity
  8
0
100
AcDbVertex
100
AcDbPolygonMeshVertex
 10
5.652
 20
-0.108856
 30
0.166
 70
    64
  0
VERTEX
  5
45EC8
100
AcDbEntity
  8
0
100
AcDbVertex
100
AcDbPolygonMeshVertex
 10
5.652
 20
-0.108856
 30
0.0
 70
    64
  0
VERTEX
  5
45EC9
100
AcDbEntity
  8
0
100
AcDbVertex
100
AcDbPolygonMeshVertex
 10
5.652
 20
0.180144
 30
0.0
 70
    64
  0
VERTEX
  5
45ECA
100
AcDbEntity
  8
0
100
AcDbVertex
100
AcDbPolygonMeshVertex
 10
5.652
 20
-0.108856
 30
0.166
 70
    64
  0
VERTEX
  5
45ECB
100
AcDbEntity
  8
0
100
AcDbVertex
100
AcDbPolygonMeshVertex
 10
5.652
 20
-0.108856
 30
0.166
 70
    64
  0
VERTEX
  5
45ECC
100
AcDbEntity
  8
0
100
AcDbVertex
100
AcDbPolygonMeshVertex
 10
5.652
 20
0.180144
 30
0.166
 70
    64
  0
VERTEX
  5
45ECD
100
AcDbEntity
  8
0
100
AcDbVertex
100
AcDbPolygonMeshVertex
 10
6.12
 20
-0.108856
 30
0.166
 70
    64
  0
VERTEX
  5
45ECE
100
AcDbEntity
  8
0
100
AcDbVertex
100
AcDbPolygonMeshVertex
 10
6.12
 20
-0.108856
 30
0.166
 70
    64
  0
VERTEX
  5
45ECF
100
AcDbEntity
  8
0
100
AcDbVertex
100
AcDbPolygonMeshVertex
 10
6.12
 20
0.180144
 30
0.166
 70
    64
  0
SEQEND
  5
45ED0
100
AcDbEntity
  8
0
  0
CIRCLE
  5
45ED2
100
AcDbEntity
  8
0
100
AcDbCircle
 10
5.886
 20
0.0
 30
0.0
 40
0.09
  0
CIRCLE
  5
45ED4
100
AcDbEntity
  8
0
100
AcDbCircle
 10
5.886
 20
0.0
 30
0.166
 40
0.09
  0
LWPOLYLINE
  5
45ED6
100
AcDbEntity
  8
0
100
AcDbPolyline
 90
        4
 70
     1
 43
0.0
 38
6.373
 10
-0.584856
 20
0.655
 10
-1.344856
 20
0.655
 10
-1.344856
 20
0.937
 10
-0.584856
 20
0.937
210
1.0
220
-0.0000000000000001
230
0.0000000000000001
  0
LINE
  5
45ED7
100
AcDbEntity
  8
0
100
AcDbLine
 10
3.140689
 20
-0.229547
 30
2.371
 11
3.19214
 21
-0.260416
 31
2.371
  0
LINE
  5
45ED8
100
AcDbEntity
  8
0
100
AcDbLine
 10
3.20586
 20
-0.315295
 30
2.371
 11
3.154233
 21
-0.401345
 31
2.371
  0
CIRCLE
  5
45ED9
100
AcDbEntity
  8
0
100
AcDbCircle
 10
3.199
 20
-0.287856
 30
2.371
 40
0.122
  0
POLYLINE
  5
45EDA
100
AcDbEntity
  8
0
100
AcDbPolygonMesh
 66
     1
 10
0.0
 20
0.0
 30
0.0
 70
    16
 71
     6
 72
     3
  0
VERTEX
  5
45EDB
100
AcDbEntity
  8
0
100
AcDbVertex
100
AcDbPolygonMeshVertex
 10
5.083
 20
-0.808856
 30
2.371
 70
    64
  0
VERTEX
  5
45EDC
100
AcDbEntity
  8
0
100
AcDbVertex
100
AcDbPolygonMeshVertex
 10
5.083
 20
-0.808856
 30
1.786
 70
    64
  0
VERTEX
  5
45EDD
100
AcDbEntity
  8
0
100
AcDbVertex
100
AcDbPolygonMeshVertex
 10
5.083
 20
-0.808856
 30
1.786
 70
    64
  0
VERTEX
  5
45EDE
100
AcDbEntity
  8
0
100
AcDbVertex
100
AcDbPolygonMeshVertex
 10
5.083
 20
-0.067856
 30
2.371
 70
    64
  0
VERTEX
  5
45EDF
100
AcDbEntity
  8
0
100
AcDbVertex
100
AcDbPolygonMeshVertex
 10
5.083
 20
-0.067856
 30
1.786
 70
    64
  0
VERTEX
  5
45EE0
100
AcDbEntity
  8
0
100
AcDbVertex
100
AcDbPolygonMeshVertex
 10
5.083
 20
-0.067856
 30
1.786
 70
    64
  0
VERTEX
  5
45EE1
100
AcDbEntity
  8
0
100
AcDbVertex
100
AcDbPolygonMeshVertex
 10
0.535
 20
-0.067856
 30
2.371
 70
    64
  0
VERTEX
  5
45EE2
100
AcDbEntity
  8
0
100
AcDbVertex
100
AcDbPolygonMeshVertex
 10
0.535
 20
-0.067856
 30
1.786
 70
    64
  0
VERTEX
  5
45EE3
100
AcDbEntity
  8
0
100
AcDbVertex
100
AcDbPolygonMeshVertex
 10
5.083
 20
-0.067856
 30
1.786
 70
    64
  0
VERTEX
  5
45EE4
100
AcDbEntity
  8
0
100
AcDbVertex
100
AcDbPolygonMeshVertex
 10
0.535
 20
-0.808856
 30
2.371
 70
    64
  0
VERTEX
  5
45EE5
100
AcDbEntity
  8
0
100
AcDbVertex
100
AcDbPolygonMeshVertex
 10
0.535
 20
-0.808856
 30
1.786
 70
    64
  0
VERTEX
  5
45EE6
100
AcDbEntity
  8
0
100
AcDbVertex
100
AcDbPolygonMeshVertex
 10
5.083
 20
-0.808856
 30
1.786
 70
    64
  0
VERTEX
  5
45EE7
100
AcDbEntity
  8
0
100
AcDbVertex
100
AcDbPolygonMeshVertex
 10
0.535
 20
-0.808856
 30
2.371
 70
    64
  0
VERTEX
  5
45EE8
100
AcDbEntity
  8
0
100
AcDbVertex
100
AcDbPolygonMeshVertex
 10
0.535
 20
-0.808856
 30
2.371
 70
    64
  0
VERTEX
  5
45EE9
100
AcDbEntity
  8
0
100
AcDbVertex
100
AcDbPolygonMeshVertex
 10
5.083
 20
-0.808856
 30
2.371
 70
    64
  0
VERTEX
  5
45EEA
100
AcDbEntity
  8
0
100
AcDbVertex
100
AcDbPolygonMeshVertex
 10
0.535
 20
-0.067856
 30
2.371
 70
    64
  0
VERTEX
  5
45EEB
100
AcDbEntity
  8
0
100
AcDbVertex
100
AcDbPolygonMeshVertex
 10
0.535
 20
-0.067856
 30
2.371
 70
    64
  0
VERTEX
  5
45EEC
100
AcDbEntity
  8
0
100
AcDbVertex
100
AcDbPolygonMeshVertex
 10
5.083
 20
-0.067856
 30
2.371
 70
    64
  0
SEQEND
  5
45EED
100
AcDbEntity
  8
0
  0
POLYLINE
  5
45EEE
100
AcDbEntity
  8
0
100
AcDbPolygonMesh
 66
     1
 10
0.0
 20
0.0
 30
0.0
 70
    16
 71
     6
 72
     3
  0
VERTEX
  5
45EEF
100
AcDbEntity
  8
0
100
AcDbVertex
100
AcDbPolygonMeshVertex
 10
0.7325
 20
-0.808856
 30
2.687
 70
    64
  0
VERTEX
  5
45EF0
100
AcDbEntity
  8
0
100
AcDbVertex
100
AcDbPolygonMeshVertex
 10
0.7325
 20
-0.808856
 30
2.371
 70
    64
  0
VERTEX
  5
45EF1
100
AcDbEntity
  8
0
100
AcDbVertex
100
AcDbPolygonMeshVertex
 10
0.7325
 20
-0.808856
 30
2.371
 70
    64
  0
VERTEX
  5
45EF2
100
AcDbEntity
  8
0
100
AcDbVertex
100
AcDbPolygonMeshVertex
 10
4.8855
 20
-0.808856
 30
2.687
 70
    64
  0
VERTEX
  5
45EF3
100
AcDbEntity
  8
0
100
AcDbVertex
100
AcDbPolygonMeshVertex
 10
4.8855
 20
-0.808856
 30
2.371
 70
    64
  0
VERTEX
  5
45EF4
100
AcDbEntity
  8
0
100
AcDbVertex
100
AcDbPolygonMeshVertex
 10
4.8855
 20
-0.808856
 30
2.371
 70
    64
  0
VERTEX
  5
45EF5
100
AcDbEntity
  8
0
100
AcDbVertex
100
AcDbPolygonMeshVertex
 10
4.8855
 20
-0.368856
 30
2.687
 70
    64
  0
VERTEX
  5
45EF6
100
AcDbEntity
  8
0
100
AcDbVertex
100
AcDbPolygonMeshVertex
 10
4.8855
 20
-0.368856
 30
2.371
 70
    64
  0
VERTEX
  5
45EF7
100
AcDbEntity
  8
0
100
AcDbVertex
100
AcDbPolygonMeshVertex
 10
4.8855
 20
-0.808856
 30
2.371
 70
    64
  0
VERTEX
  5
45EF8
100
AcDbEntity
  8
0
100
AcDbVertex
100
AcDbPolygonMeshVertex
 10
0.7325
 20
-0.368856
 30
2.687
 70
    64
  0
VERTEX
  5
45EF9
100
AcDbEntity
  8
0
100
AcDbVertex
100
AcDbPolygonMeshVertex
 10
0.7325
 20
-0.368856
 30
2.371
 70
    64
  0
VERTEX
  5
45EFA
100
AcDbEntity
  8
0
100
AcDbVertex
100
AcDbPolygonMeshVertex
 10
0.7325
 20
-0.808856
 30
2.371
 70
    64
  0
VERTEX
  5
45EFB
100
AcDbEntity
  8
0
100
AcDbVertex
100
AcDbPolygonMeshVertex
 10
0.7325
 20
-0.368856
 30
2.687
 70
    64
  0
VERTEX
  5
45EFC
100
AcDbEntity
  8
0
100
AcDbVertex
100
AcDbPolygonMeshVertex
 10
0.7325
 20
-0.368856
 30
2.687
 70
    64
  0
VERTEX
  5
45EFD
100
AcDbEntity
  8
0
100
AcDbVertex
100
AcDbPolygonMeshVertex
 10
0.7325
 20
-0.808856
 30
2.687
 70
    64
  0
VERTEX
  5
45EFE
100
AcDbEntity
  8
0
100
AcDbVertex
100
AcDbPolygonMeshVertex
 10
4.8855
 20
-0.368856
 30
2.687
 70
    64
  0
VERTEX
  5
45EFF
100
AcDbEntity
  8
0
100
AcDbVertex
100
AcDbPolygonMeshVertex
 10
4.8855
 20
-0.368856
 30
2.687
 70
    64
  0
VERTEX
  5
45F00
100
AcDbEntity
  8
0
100
AcDbVertex
100
AcDbPolygonMeshVertex
 10
4.8855
 20
-0.808856
 30
2.687
 70
    64
  0
SEQEND
  5
45F01
100
AcDbEntity
  8
0
  0
3DFACE
  5
45F02
100
AcDbEntity
  8
0
100
AcDbFace
 10
5.273
 20
-0.108856
 30
2.605
 11
5.273
 21
-0.808856
 31
3.445
 12
0.345
 22
-0.808856
 32
3.445
 13
0.345
 23
-0.108856
 33
2.605
  0
3DFACE
  5
45F03
100
AcDbEntity
  8
0
100
AcDbFace
 10
0.345
 20
-4.750856
 30
2.605
 11
0.345
 21
-4.050856
 31
3.445
 12
5.273
 22
-4.050856
 32
3.445
 13
5.273
 23
-4.750856
 33
2.605
  0
LINE
  5
45F04
100
AcDbEntity
  8
0
100
AcDbLine
 10
3.20586
 20
-4.544416
 30
2.371
 11
3.154233
 21
-4.458366
 31
2.371
  0
LINE
  5
45F05
100
AcDbEntity
  8
0
100
AcDbLine
 10
3.140689
 20
-4.630164
 30
2.371
 11
3.19214
 21
-4.599295
 31
2.371
  0
CIRCLE
  5
45F06
100
AcDbEntity
  8
0
100
AcDbCircle
 10
3.199
 20
-4.571856
 30
2.371
 40
0.122
  0
POLYLINE
  5
45F07
100
AcDbEntity
  8
0
100
AcDbPolygonMesh
 66
     1
 10
0.0
 20
0.0
 30
0.0
 70
    16
 71
     6
 72
     3
  0
VERTEX
  5
45F08
100
AcDbEntity
  8
0
100
AcDbVertex
100
AcDbPolygonMeshVertex
 10
5.083
 20
-4.050856
 30
2.371
 70
    64
  0
VERTEX
  5
45F09
100
AcDbEntity
  8
0
100
AcDbVertex
100
AcDbPolygonMeshVertex
 10
5.083
 20
-4.050856
 30
1.786
 70
    64
  0
VERTEX
  5
45F0A
100
AcDbEntity
  8
0
100
AcDbVertex
100
AcDbPolygonMeshVertex
 10
5.083
 20
-4.050856
 30
1.786
 70
    64
  0
VERTEX
  5
45F0B
100
AcDbEntity
  8
0
100
AcDbVertex
100
AcDbPolygonMeshVertex
 10
5.083
 20
-4.791856
 30
2.371
 70
    64
  0
VERTEX
  5
45F0C
100
AcDbEntity
  8
0
100
AcDbVertex
100
AcDbPolygonMeshVertex
 10
5.083
 20
-4.791856
 30
1.786
 70
    64
  0
VERTEX
  5
45F0D
100
AcDbEntity
  8
0
100
AcDbVertex
100
AcDbPolygonMeshVertex
 10
5.083
 20
-4.791856
 30
1.786
 70
    64
  0
VERTEX
  5
45F0E
100
AcDbEntity
  8
0
100
AcDbVertex
100
AcDbPolygonMeshVertex
 10
0.535
 20
-4.791856
 30
2.371
 70
    64
  0
VERTEX
  5
45F0F
100
AcDbEntity
  8
0
100
AcDbVertex
100
AcDbPolygonMeshVertex
 10
0.535
 20
-4.791856
 30
1.786
 70
    64
  0
VERTEX
  5
45F10
100
AcDbEntity
  8
0
100
AcDbVertex
100
AcDbPolygonMeshVertex
 10
5.083
 20
-4.791856
 30
1.786
 70
    64
  0
VERTEX
  5
45F11
100
AcDbEntity
  8
0
100
AcDbVertex
100
AcDbPolygonMeshVertex
 10
0.535
 20
-4.050856
 30
2.371
 70
    64
  0
VERTEX
  5
45F12
100
AcDbEntity
  8
0
100
AcDbVertex
100
AcDbPolygonMeshVertex
 10
0.535
 20
-4.050856
 30
1.786
 70
    64
  0
VERTEX
  5
45F13
100
AcDbEntity
  8
0
100
AcDbVertex
100
AcDbPolygonMeshVertex
 10
5.083
 20
-4.050856
 30
1.786
 70
    64
  0
VERTEX
  5
45F14
100
AcDbEntity
  8
0
100
AcDbVertex
100
AcDbPolygonMeshVertex
 10
0.535
 20
-4.050856
 30
2.371
 70
    64
  0
VERTEX
  5
45F15
100
AcDbEntity
  8
0
100
AcDbVertex
100
AcDbPolygonMeshVertex
 10
0.535
 20
-4.050856
 30
2.371
 70
    64
  0
VERTEX
  5
45F16
100
AcDbEntity
  8
0
100
AcDbVertex
100
AcDbPolygonMeshVertex
 10
5.083
 20
-4.050856
 30
2.371
 70
    64
  0
VERTEX
  5
45F17
100
AcDbEntity
  8
0
100
AcDbVertex
100
AcDbPolygonMeshVertex
 10
0.535
 20
-4.791856
 30
2.371
 70
    64
  0
VERTEX
  5
45F18
100
AcDbEntity
  8
0
100
AcDbVertex
100
AcDbPolygonMeshVertex
 10
0.535
 20
-4.791856
 30
2.371
 70
    64
  0
VERTEX
  5
45F19
100
AcDbEntity
  8
0
100
AcDbVertex
100
AcDbPolygonMeshVertex
 10
5.083
 20
-4.791856
 30
2.371
 70
    64
  0
SEQEND
  5
45F1A
100
AcDbEntity
  8
0
  0
POLYLINE
  5
45F1B
100
AcDbEntity
  8
0
100
AcDbPolygonMesh
 66
     1
 10
0.0
 20
0.0
 30
0.0
 70
    16
 71
     6
 72
     3
  0
VERTEX
  5
45F1C
100
AcDbEntity
  8
0
100
AcDbVertex
100
AcDbPolygonMeshVertex
 10
0.7325
 20
-4.050856
 30
2.687
 70
    64
  0
VERTEX
  5
45F1D
100
AcDbEntity
  8
0
100
AcDbVertex
100
AcDbPolygonMeshVertex
 10
0.7325
 20
-4.050856
 30
2.371
 70
    64
  0
VERTEX
  5
45F1E
100
AcDbEntity
  8
0
100
AcDbVertex
100
AcDbPolygonMeshVertex
 10
0.7325
 20
-4.050856
 30
2.371
 70
    64
  0
VERTEX
  5
45F1F
100
AcDbEntity
  8
0
100
AcDbVertex
100
AcDbPolygonMeshVertex
 10
4.8855
 20
-4.050856
 30
2.687
 70
    64
  0
VERTEX
  5
45F20
100
AcDbEntity
  8
0
100
AcDbVertex
100
AcDbPolygonMeshVertex
 10
4.8855
 20
-4.050856
 30
2.371
 70
    64
  0
VERTEX
  5
45F21
100
AcDbEntity
  8
0
100
AcDbVertex
100
AcDbPolygonMeshVertex
 10
4.8855
 20
-4.050856
 30
2.371
 70
    64
  0
VERTEX
  5
45F22
100
AcDbEntity
  8
0
100
AcDbVertex
100
AcDbPolygonMeshVertex
 10
4.8855
 20
-4.490856
 30
2.687
 70
    64
  0
VERTEX
  5
45F23
100
AcDbEntity
  8
0
100
AcDbVertex
100
AcDbPolygonMeshVertex
 10
4.8855
 20
-4.490856
 30
2.371
 70
    64
  0
VERTEX
  5
45F24
100
AcDbEntity
  8
0
100
AcDbVertex
100
AcDbPolygonMeshVertex
 10
4.8855
 20
-4.050856
 30
2.371
 70
    64
  0
VERTEX
  5
45F25
100
AcDbEntity
  8
0
100
AcDbVertex
100
AcDbPolygonMeshVertex
 10
0.7325
 20
-4.490856
 30
2.687
 70
    64
  0
VERTEX
  5
45F26
100
AcDbEntity
  8
0
100
AcDbVertex
100
AcDbPolygonMeshVertex
 10
0.7325
 20
-4.490856
 30
2.371
 70
    64
  0
VERTEX
  5
45F27
100
AcDbEntity
  8
0
100
AcDbVertex
100
AcDbPolygonMeshVertex
 10
0.7325
 20
-4.050856
 30
2.371
 70
    64
  0
VERTEX
  5
45F28
100
AcDbEntity
  8
0
100
AcDbVertex
100
AcDbPolygonMeshVertex
 10
0.7325
 20
-4.490856
 30
2.687
 70
    64
  0
VERTEX
  5
45F29
100
AcDbEntity
  8
0
100
AcDbVertex
100
AcDbPolygonMeshVertex
 10
0.7325
 20
-4.490856
 30
2.687
 70
    64
  0
VERTEX
  5
45F2A
100
AcDbEntity
  8
0
100
AcDbVertex
100
AcDbPolygonMeshVertex
 10
0.7325
 20
-4.050856
 30
2.687
 70
    64
  0
VERTEX
  5
45F2B
100
AcDbEntity
  8
0
100
AcDbVertex
100
AcDbPolygonMeshVertex
 10
4.8855
 20
-4.490856
 30
2.687
 70
    64
  0
VERTEX
  5
45F2C
100
AcDbEntity
  8
0
100
AcDbVertex
100
AcDbPolygonMeshVertex
 10
4.8855
 20
-4.490856
 30
2.687
 70
    64
  0
VERTEX
  5
45F2D
100
AcDbEntity
  8
0
100
AcDbVertex
100
AcDbPolygonMeshVertex
 10
4.8855
 20
-4.050856
 30
2.687
 70
    64
  0
SEQEND
  5
45F2E
100
AcDbEntity
  8
0
  0
POLYLINE
  5
45F2F
100
AcDbEntity
  8
0
100
AcDbPolygonMesh
 66
     1
 10
0.0
 20
0.0
 30
0.0
 70
    16
 71
     6
 72
     3
  0
VERTEX
  5
45F30
100
AcDbEntity
  8
0
100
AcDbVertex
100
AcDbPolygonMeshVertex
 10
5.273
 20
-0.808856
 30
3.445
 70
    64
  0
VERTEX
  5
45F31
100
AcDbEntity
  8
0
100
AcDbVertex
100
AcDbPolygonMeshVertex
 10
5.273
 20
-0.808856
 30
1.786
 70
    64
  0
VERTEX
  5
45F32
100
AcDbEntity
  8
0
100
AcDbVertex
100
AcDbPolygonMeshVertex
 10
5.273
 20
-0.808856
 30
1.786
 70
    64
  0
VERTEX
  5
45F33
100
AcDbEntity
  8
0
100
AcDbVertex
100
AcDbPolygonMeshVertex
 10
5.273
 20
-4.050856
 30
3.445
 70
    64
  0
VERTEX
  5
45F34
100
AcDbEntity
  8
0
100
AcDbVertex
100
AcDbPolygonMeshVertex
 10
5.273
 20
-4.050856
 30
1.786
 70
    64
  0
VERTEX
  5
45F35
100
AcDbEntity
  8
0
100
AcDbVertex
100
AcDbPolygonMeshVertex
 10
5.273
 20
-4.050856
 30
1.786
 70
    64
  0
VERTEX
  5
45F36
100
AcDbEntity
  8
0
100
AcDbVertex
100
AcDbPolygonMeshVertex
 10
0.345
 20
-4.050856
 30
3.445
 70
    64
  0
VERTEX
  5
45F37
100
AcDbEntity
  8
0
100
AcDbVertex
100
AcDbPolygonMeshVertex
 10
0.345
 20
-4.050856
 30
1.786
 70
    64
  0
VERTEX
  5
45F38
100
AcDbEntity
  8
0
100
AcDbVertex
100
AcDbPolygonMeshVertex
 10
5.273
 20
-4.050856
 30
1.786
 70
    64
  0
VERTEX
  5
45F39
100
AcDbEntity
  8
0
100
AcDbVertex
100
AcDbPolygonMeshVertex
 10
0.345
 20
-0.808856
 30
3.445
 70
    64
  0
VERTEX
  5
45F3A
100
AcDbEntity
  8
0
100
AcDbVertex
100
AcDbPolygonMeshVertex
 10
0.345
 20
-0.808856
 30
1.786
 70
    64
  0
VERTEX
  5
45F3B
100
AcDbEntity
  8
0
100
AcDbVertex
100
AcDbPolygonMeshVertex
 10
5.273
 20
-0.808856
 30
1.786
 70
    64
  0
VERTEX
  5
45F3C
100
AcDbEntity
  8
0
100
AcDbVertex
100
AcDbPolygonMeshVertex
 10
0.345
 20
-0.808856
 30
3.445
 70
    64
  0
VERTEX
  5
45F3D
100
AcDbEntity
  8
0
100
AcDbVertex
100
AcDbPolygonMeshVertex
 10
0.345
 20
-0.808856
 30
3.445
 70
    64
  0
VERTEX
  5
45F3E
100
AcDbEntity
  8
0
100
AcDbVertex
100
AcDbPolygonMeshVertex
 10
5.273
 20
-0.808856
 30
3.445
 70
    64
  0
VERTEX
  5
45F3F
100
AcDbEntity
  8
0
100
AcDbVertex
100
AcDbPolygonMeshVertex
 10
0.345
 20
-4.050856
 30
3.445
 70
    64
  0
VERTEX
  5
45F40
100
AcDbEntity
  8
0
100
AcDbVertex
100
AcDbPolygonMeshVertex
 10
0.345
 20
-4.050856
 30
3.445
 70
    64
  0
VERTEX
  5
45F41
100
AcDbEntity
  8
0
100
AcDbVertex
100
AcDbPolygonMeshVertex
 10
5.273
 20
-4.050856
 30
3.445
 70
    64
  0
SEQEND
  5
45F42
100
AcDbEntity
  8
0
  0
LINE
  5
45F43
100
AcDbEntity
  8
0
100
AcDbLine
 10
5.273
 20
-0.108856
 30
2.605
 11
0.345
 21
-0.108856
 31
2.605
  0
LINE
  5
45F44
100
AcDbEntity
  8
0
100
AcDbLine
 10
0.345
 20
-0.808856
 30
3.445
 11
5.273
 21
-0.808856
 31
3.445
  0
LINE
  5
45F45
100
AcDbEntity
  8
0
100
AcDbLine
 10
0.345
 20
-4.050856
 30
3.445
 11
5.273
 21
-4.050856
 31
3.445
  0
LINE
  5
45F46
100
AcDbEntity
  8
0
100
AcDbLine
 10
0.345
 20
-4.750856
 30
2.605
 11
5.273
 21
-4.750856
 31
2.605
  0
POLYLINE
  5
45F47
100
AcDbEntity
  8
0
100
AcDbPolygonMesh
 66
     1
 10
0.0
 20
0.0
 30
0.0
 70
    16
 71
     6
 72
     3
  0
VERTEX
  5
45F48
100
AcDbEntity
  8
0
100
AcDbVertex
100
AcDbPolygonMeshVertex
 10
0.345
 20
-0.808856
 30
3.445
 70
    64
  0
VERTEX
  5
45F49
100
AcDbEntity
  8
0
100
AcDbVertex
100
AcDbPolygonMeshVertex
 10
0.345
 20
-0.808856
 30
2.605
 70
    64
  0
VERTEX
  5
45F4A
100
AcDbEntity
  8
0
100
AcDbVertex
100
AcDbPolygonMeshVertex
 10
0.345
 20
-0.808856
 30
2.605
 70
    64
  0
VERTEX
  5
45F4B
100
AcDbEntity
  8
0
100
AcDbVertex
100
AcDbPolygonMeshVertex
 10
0.345
 20
-4.050856
 30
3.445
 70
    64
  0
VERTEX
  5
45F4C
100
AcDbEntity
  8
0
100
AcDbVertex
100
AcDbPolygonMeshVertex
 10
0.345
 20
-4.050856
 30
2.605
 70
    64
  0
VERTEX
  5
45F4D
100
AcDbEntity
  8
0
100
AcDbVertex
100
AcDbPolygonMeshVertex
 10
0.345
 20
-4.050856
 30
2.605
 70
    64
  0
VERTEX
  5
45F4E
100
AcDbEntity
  8
0
100
AcDbVertex
100
AcDbPolygonMeshVertex
 10
-0.33
 20
-4.050856
 30
3.445
 70
    64
  0
VERTEX
  5
45F4F
100
AcDbEntity
  8
0
100
AcDbVertex
100
AcDbPolygonMeshVertex
 10
-0.33
 20
-4.050856
 30
2.605
 70
    64
  0
VERTEX
  5
45F50
100
AcDbEntity
  8
0
100
AcDbVertex
100
AcDbPolygonMeshVertex
 10
0.345
 20
-4.050856
 30
2.605
 70
    64
  0
VERTEX
  5
45F51
100
AcDbEntity
  8
0
100
AcDbVertex
100
AcDbPolygonMeshVertex
 10
-0.33
 20
-0.808856
 30
3.445
 70
    64
  0
VERTEX
  5
45F52
100
AcDbEntity
  8
0
100
AcDbVertex
100
AcDbPolygonMeshVertex
 10
-0.33
 20
-0.808856
 30
2.605
 70
    64
  0
VERTEX
  5
45F53
100
AcDbEntity
  8
0
100
AcDbVertex
100
AcDbPolygonMeshVertex
 10
0.345
 20
-0.808856
 30
2.605
 70
    64
  0
VERTEX
  5
45F54
100
AcDbEntity
  8
0
100
AcDbVertex
100
AcDbPolygonMeshVertex
 10
-0.33
 20
-0.808856
 30
3.445
 70
    64
  0
VERTEX
  5
45F55
100
AcDbEntity
  8
0
100
AcDbVertex
100
AcDbPolygonMeshVertex
 10
-0.33
 20
-0.808856
 30
3.445
 70
    64
  0
VERTEX
  5
45F56
100
AcDbEntity
  8
0
100
AcDbVertex
100
AcDbPolygonMeshVertex
 10
0.345
 20
-0.808856
 30
3.445
 70
    64
  0
VERTEX
  5
45F57
100
AcDbEntity
  8
0
100
AcDbVertex
100
AcDbPolygonMeshVertex
 10
-0.33
 20
-4.050856
 30
3.445
 70
    64
  0
VERTEX
  5
45F58
100
AcDbEntity
  8
0
100
AcDbVertex
100
AcDbPolygonMeshVertex
 10
-0.33
 20
-4.050856
 30
3.445
 70
    64
  0
VERTEX
  5
45F59
100
AcDbEntity
  8
0
100
AcDbVertex
100
AcDbPolygonMeshVertex
 10
0.345
 20
-4.050856
 30
3.445
 70
    64
  0
SEQEND
  5
45F5A
100
AcDbEntity
  8
0
  0
POLYLINE
  5
45F5B
100
AcDbEntity
  8
0
100
AcDbPolygonMesh
 66
     1
 10
0.0
 20
0.0
 30
0.0
 70
    16
 71
     6
 72
     3
  0
VERTEX
  5
45F5C
100
AcDbEntity
  8
0
100
AcDbVertex
100
AcDbPolygonMeshVertex
 10
0.345
 20
-4.050856
 30
3.445
 70
    64
  0
VERTEX
  5
45F5D
100
AcDbEntity
  8
0
100
AcDbVertex
100
AcDbPolygonMeshVertex
 10
0.345
 20
-4.750856
 30
2.605
 70
    64
  0
VERTEX
  5
45F5E
100
AcDbEntity
  8
0
100
AcDbVertex
100
AcDbPolygonMeshVertex
 10
0.345
 20
-4.750856
 30
2.605
 70
    64
  0
VERTEX
  5
45F5F
100
AcDbEntity
  8
0
100
AcDbVertex
100
AcDbPolygonMeshVertex
 10
0.345
 20
-4.050856
 30
3.445
 70
    64
  0
VERTEX
  5
45F60
100
AcDbEntity
  8
0
100
AcDbVertex
100
AcDbPolygonMeshVertex
 10
0.345
 20
-4.050856
 30
2.605
 70
    64
  0
VERTEX
  5
45F61
100
AcDbEntity
  8
0
100
AcDbVertex
100
AcDbPolygonMeshVertex
 10
0.345
 20
-4.050856
 30
2.605
 70
    64
  0
VERTEX
  5
45F62
100
AcDbEntity
  8
0
100
AcDbVertex
100
AcDbPolygonMeshVertex
 10
-0.33
 20
-4.050856
 30
3.445
 70
    64
  0
VERTEX
  5
45F63
100
AcDbEntity
  8
0
100
AcDbVertex
100
AcDbPolygonMeshVertex
 10
-0.33
 20
-4.050856
 30
2.605
 70
    64
  0
VERTEX
  5
45F64
100
AcDbEntity
  8
0
100
AcDbVertex
100
AcDbPolygonMeshVertex
 10
0.345
 20
-4.050856
 30
2.605
 70
    64
  0
VERTEX
  5
45F65
100
AcDbEntity
  8
0
100
AcDbVertex
100
AcDbPolygonMeshVertex
 10
-0.33
 20
-4.050856
 30
3.445
 70
    64
  0
VERTEX
  5
45F66
100
AcDbEntity
  8
0
100
AcDbVertex
100
AcDbPolygonMeshVertex
 10
-0.33
 20
-4.750856
 30
2.605
 70
    64
  0
VERTEX
  5
45F67
100
AcDbEntity
  8
0
100
AcDbVertex
100
AcDbPolygonMeshVertex
 10
0.345
 20
-4.750856
 30
2.605
 70
    64
  0
VERTEX
  5
45F68
100
AcDbEntity
  8
0
100
AcDbVertex
100
AcDbPolygonMeshVertex
 10
-0.33
 20
-4.050856
 30
3.445
 70
    64
  0
VERTEX
  5
45F69
100
AcDbEntity
  8
0
100
AcDbVertex
100
AcDbPolygonMeshVertex
 10
-0.33
 20
-4.050856
 30
3.445
 70
    64
  0
VERTEX
  5
45F6A
100
AcDbEntity
  8
0
100
AcDbVertex
100
AcDbPolygonMeshVertex
 10
0.345
 20
-4.050856
 30
3.445
 70
    64
  0
VERTEX
  5
45F6B
100
AcDbEntity
  8
0
100
AcDbVertex
100
AcDbPolygonMeshVertex
 10
-0.33
 20
-4.050856
 30
3.445
 70
    64
  0
VERTEX
  5
45F6C
100
AcDbEntity
  8
0
100
AcDbVertex
100
AcDbPolygonMeshVertex
 10
-0.33
 20
-4.050856
 30
3.445
 70
    64
  0
VERTEX
  5
45F6D
100
AcDbEntity
  8
0
100
AcDbVertex
100
AcDbPolygonMeshVertex
 10
0.345
 20
-4.050856
 30
3.445
 70
    64
  0
SEQEND
  5
45F6E
100
AcDbEntity
  8
0
  0
CIRCLE
  5
45F6F
100
AcDbEntity
  8
0
100
AcDbCircle
 10
1.834
 20
-4.270856
 30
2.687
 40
0.122
  0
LINE
  5
45F70
100
AcDbEntity
  8
0
100
AcDbLine
 10
1.71789
 20
-4.547847
 30
2.371
 11
1.697311
 21
-4.513547
 31
2.371
  0
LINE
  5
45F71
100
AcDbEntity
  8
0
100
AcDbLine
 10
1.66644
 20
-4.578716
 30
2.371
 11
1.71789
 21
-4.547847
 31
2.371
  0
CIRCLE
  5
45F72
100
AcDbEntity
  8
0
100
AcDbCircle
 10
1.639
 20
-4.571856
 30
2.371
 40
0.122
  0
LINE
  5
45F73
100
AcDbEntity
  8
0
100
AcDbLine
 10
1.718067
 20
-4.664766
 30
2.371
 11
1.66644
 21
-4.578716
 31
2.371
  0
LINE
  5
45F74
100
AcDbEntity
  8
0
100
AcDbLine
 10
0.737
 20
-4.571856
 30
2.371
 11
0.737
 21
-4.351856
 31
2.371
  0
LINE
  5
45F75
100
AcDbEntity
  8
0
100
AcDbLine
 10
0.981
 20
-4.571856
 30
2.371
 11
0.981
 21
-4.351856
 31
2.371
  0
LINE
  5
45F76
100
AcDbEntity
  8
0
100
AcDbLine
 10
0.903767
 20
-4.685345
 30
2.371
 11
0.85214
 21
-4.599295
 31
2.371
  0
CIRCLE
  5
45F77
100
AcDbEntity
  8
0
100
AcDbCircle
 10
0.859
 20
-4.571856
 30
2.371
 40
0.122
  0
LINE
  5
45F78
100
AcDbEntity
  8
0
100
AcDbLine
 10
0.83156
 20
-4.564995
 30
2.371
 11
0.779933
 21
-4.478945
 31
2.371
  0
LINE
  5
45F79
100
AcDbEntity
  8
0
100
AcDbLine
 10
0.800689
 20
-4.630164
 30
2.371
 11
0.85214
 21
-4.599295
 31
2.371
  0
LINE
  5
45F7A
100
AcDbEntity
  8
0
100
AcDbLine
 10
0.78011
 20
-4.595864
 30
2.371
 11
0.83156
 21
-4.564995
 31
2.371
  0
LINE
  5
45F7B
100
AcDbEntity
  8
0
100
AcDbLine
 10
0.800689
 20
-4.630164
 30
2.371
 11
0.78011
 21
-4.595864
 31
2.371
  0
LINE
  5
45F7C
100
AcDbEntity
  8
0
100
AcDbLine
 10
0.88644
 20
-4.578716
 30
2.371
 11
0.93789
 21
-4.547847
 31
2.371
  0
LINE
  5
45F7D
100
AcDbEntity
  8
0
100
AcDbLine
 10
0.93789
 20
-4.547847
 30
2.371
 11
0.917311
 21
-4.513547
 31
2.371
  0
LINE
  5
45F7E
100
AcDbEntity
  8
0
100
AcDbLine
 10
0.86586
 20
-4.544416
 30
2.371
 11
0.917311
 21
-4.513547
 31
2.371
  0
LINE
  5
45F7F
100
AcDbEntity
  8
0
100
AcDbLine
 10
0.86586
 20
-4.544416
 30
2.371
 11
0.814233
 21
-4.458366
 31
2.371
  0
LINE
  5
45F80
100
AcDbEntity
  8
0
100
AcDbLine
 10
0.938067
 20
-4.664766
 30
2.371
 11
0.88644
 21
-4.578716
 31
2.371
  0
LINE
  5
45F81
100
AcDbEntity
  8
0
100
AcDbLine
 10
1.127
 20
-4.571856
 30
2.371
 11
1.127
 21
-4.351856
 31
2.371
  0
LINE
  5
45F82
100
AcDbEntity
  8
0
100
AcDbLine
 10
1.371
 20
-4.571856
 30
2.371
 11
1.371
 21
-4.351856
 31
2.371
  0
LINE
  5
45F83
100
AcDbEntity
  8
0
100
AcDbLine
 10
1.517
 20
-4.571856
 30
2.371
 11
1.517
 21
-4.351856
 31
2.371
  0
CIRCLE
  5
45F84
100
AcDbEntity
  8
0
100
AcDbCircle
 10
1.249
 20
-4.571856
 30
2.371
 40
0.122
  0
LINE
  5
45F85
100
AcDbEntity
  8
0
100
AcDbLine
 10
1.293767
 20
-4.685345
 30
2.371
 11
1.24214
 21
-4.599295
 31
2.371
  0
LINE
  5
45F86
100
AcDbEntity
  8
0
100
AcDbLine
 10
1.27644
 20
-4.578716
 30
2.371
 11
1.32789
 21
-4.547847
 31
2.371
  0
LINE
  5
45F87
100
AcDbEntity
  8
0
100
AcDbLine
 10
1.22156
 20
-4.564995
 30
2.371
 11
1.169933
 21
-4.478945
 31
2.371
  0
LINE
  5
45F88
100
AcDbEntity
  8
0
100
AcDbLine
 10
1.25586
 20
-4.544416
 30
2.371
 11
1.204233
 21
-4.458366
 31
2.371
  0
LINE
  5
45F89
100
AcDbEntity
  8
0
100
AcDbLine
 10
1.32789
 20
-4.547847
 30
2.371
 11
1.307311
 21
-4.513547
 31
2.371
  0
LINE
  5
45F8A
100
AcDbEntity
  8
0
100
AcDbLine
 10
1.25586
 20
-4.544416
 30
2.371
 11
1.307311
 21
-4.513547
 31
2.371
  0
LINE
  5
45F8B
100
AcDbEntity
  8
0
100
AcDbLine
 10
1.190689
 20
-4.630164
 30
2.371
 11
1.24214
 21
-4.599295
 31
2.371
  0
LINE
  5
45F8C
100
AcDbEntity
  8
0
100
AcDbLine
 10
1.190689
 20
-4.630164
 30
2.371
 11
1.17011
 21
-4.595864
 31
2.371
  0
LINE
  5
45F8D
100
AcDbEntity
  8
0
100
AcDbLine
 10
1.17011
 20
-4.595864
 30
2.371
 11
1.22156
 21
-4.564995
 31
2.371
  0
LINE
  5
45F8E
100
AcDbEntity
  8
0
100
AcDbLine
 10
1.328067
 20
-4.664766
 30
2.371
 11
1.27644
 21
-4.578716
 31
2.371
  0
LINE
  5
45F8F
100
AcDbEntity
  8
0
100
AcDbLine
 10
1.683767
 20
-4.685345
 30
2.371
 11
1.63214
 21
-4.599295
 31
2.371
  0
LINE
  5
45F90
100
AcDbEntity
  8
0
100
AcDbLine
 10
1.61156
 20
-4.564995
 30
2.371
 11
1.559933
 21
-4.478945
 31
2.371
  0
LINE
  5
45F91
100
AcDbEntity
  8
0
100
AcDbLine
 10
1.64586
 20
-4.544416
 30
2.371
 11
1.594233
 21
-4.458366
 31
2.371
  0
LINE
  5
45F92
100
AcDbEntity
  8
0
100
AcDbLine
 10
1.580689
 20
-4.630164
 30
2.371
 11
1.56011
 21
-4.595864
 31
2.371
  0
LINE
  5
45F93
100
AcDbEntity
  8
0
100
AcDbLine
 10
1.580689
 20
-4.630164
 30
2.371
 11
1.63214
 21
-4.599295
 31
2.371
  0
LINE
  5
45F94
100
AcDbEntity
  8
0
100
AcDbLine
 10
1.56011
 20
-4.595864
 30
2.371
 11
1.61156
 21
-4.564995
 31
2.371
  0
LINE
  5
45F95
100
AcDbEntity
  8
0
100
AcDbLine
 10
1.64586
 20
-4.544416
 30
2.371
 11
1.697311
 21
-4.513547
 31
2.371
  0
LINE
  5
45F96
100
AcDbEntity
  8
0
100
AcDbLine
 10
0.97511
 20
-4.294864
 30
2.687
 11
1.02656
 21
-4.263995
 31
2.687
  0
LINE
  5
45F97
100
AcDbEntity
  8
0
100
AcDbLine
 10
0.995689
 20
-4.329164
 30
2.687
 11
0.97511
 21
-4.294864
 31
2.687
  0
CIRCLE
  5
45F98
100
AcDbEntity
  8
0
100
AcDbCircle
 10
1.054
 20
-4.270856
 30
2.687
 40
0.122
  0
LINE
  5
45F99
100
AcDbEntity
  8
0
100
AcDbLine
 10
1.02656
 20
-4.263995
 30
2.687
 11
0.974933
 21
-4.177945
 31
2.687
  0
LINE
  5
45F9A
100
AcDbEntity
  8
0
100
AcDbLine
 10
0.932
 20
-4.270856
 30
2.687
 11
0.932
 21
-4.050856
 31
2.687
  0
CIRCLE
  5
45F9B
100
AcDbEntity
  8
0
100
AcDbCircle
 10
1.444
 20
-4.270856
 30
2.687
 40
0.122
  0
LINE
  5
45F9C
100
AcDbEntity
  8
0
100
AcDbLine
 10
1.06086
 20
-4.243416
 30
2.687
 11
1.009233
 21
-4.157366
 31
2.687
  0
LINE
  5
45F9D
100
AcDbEntity
  8
0
100
AcDbLine
 10
1.322
 20
-4.270856
 30
2.687
 11
1.322
 21
-4.050856
 31
2.687
  0
LINE
  5
45F9E
100
AcDbEntity
  8
0
100
AcDbLine
 10
1.176
 20
-4.270856
 30
2.687
 11
1.176
 21
-4.050856
 31
2.687
  0
LINE
  5
45F9F
100
AcDbEntity
  8
0
100
AcDbLine
 10
1.06086
 20
-4.243416
 30
2.687
 11
1.112311
 21
-4.212547
 31
2.687
  0
LINE
  5
45FA0
100
AcDbEntity
  8
0
100
AcDbLine
 10
1.13289
 20
-4.246847
 30
2.687
 11
1.112311
 21
-4.212547
 31
2.687
  0
LINE
  5
45FA1
100
AcDbEntity
  8
0
100
AcDbLine
 10
0.995689
 20
-4.329164
 30
2.687
 11
1.04714
 21
-4.298295
 31
2.687
  0
LINE
  5
45FA2
100
AcDbEntity
  8
0
100
AcDbLine
 10
1.098767
 20
-4.384345
 30
2.687
 11
1.04714
 21
-4.298295
 31
2.687
  0
LINE
  5
45FA3
100
AcDbEntity
  8
0
100
AcDbLine
 10
1.133067
 20
-4.363766
 30
2.687
 11
1.08144
 21
-4.277716
 31
2.687
  0
LINE
  5
45FA4
100
AcDbEntity
  8
0
100
AcDbLine
 10
1.08144
 20
-4.277716
 30
2.687
 11
1.13289
 21
-4.246847
 31
2.687
  0
LINE
  5
45FA5
100
AcDbEntity
  8
0
100
AcDbLine
 10
1.45086
 20
-4.243416
 30
2.687
 11
1.399233
 21
-4.157366
 31
2.687
  0
LINE
  5
45FA6
100
AcDbEntity
  8
0
100
AcDbLine
 10
1.566
 20
-4.270856
 30
2.687
 11
1.566
 21
-4.050856
 31
2.687
  0
LINE
  5
45FA7
100
AcDbEntity
  8
0
100
AcDbLine
 10
1.41656
 20
-4.263995
 30
2.687
 11
1.364933
 21
-4.177945
 31
2.687
  0
LINE
  5
45FA8
100
AcDbEntity
  8
0
100
AcDbLine
 10
1.712
 20
-4.270856
 30
2.687
 11
1.712
 21
-4.050856
 31
2.687
  0
LINE
  5
45FA9
100
AcDbEntity
  8
0
100
AcDbLine
 10
1.45086
 20
-4.243416
 30
2.687
 11
1.502311
 21
-4.212547
 31
2.687
  0
LINE
  5
45FAA
100
AcDbEntity
  8
0
100
AcDbLine
 10
1.52289
 20
-4.246847
 30
2.687
 11
1.502311
 21
-4.212547
 31
2.687
  0
LINE
  5
45FAB
100
AcDbEntity
  8
0
100
AcDbLine
 10
1.385689
 20
-4.329164
 30
2.687
 11
1.36511
 21
-4.294864
 31
2.687
  0
LINE
  5
45FAC
100
AcDbEntity
  8
0
100
AcDbLine
 10
1.523067
 20
-4.363766
 30
2.687
 11
1.47144
 21
-4.277716
 31
2.687
  0
LINE
  5
45FAD
100
AcDbEntity
  8
0
100
AcDbLine
 10
1.488767
 20
-4.384345
 30
2.687
 11
1.43714
 21
-4.298295
 31
2.687
  0
LINE
  5
45FAE
100
AcDbEntity
  8
0
100
AcDbLine
 10
1.36511
 20
-4.294864
 30
2.687
 11
1.41656
 21
-4.263995
 31
2.687
  0
LINE
  5
45FAF
100
AcDbEntity
  8
0
100
AcDbLine
 10
1.385689
 20
-4.329164
 30
2.687
 11
1.43714
 21
-4.298295
 31
2.687
  0
LINE
  5
45FB0
100
AcDbEntity
  8
0
100
AcDbLine
 10
1.47144
 20
-4.277716
 30
2.687
 11
1.52289
 21
-4.246847
 31
2.687
  0
LINE
  5
45FB1
100
AcDbEntity
  8
0
100
AcDbLine
 10
2.42586
 20
-4.544416
 30
2.371
 11
2.477311
 21
-4.513547
 31
2.371
  0
LINE
  5
45FB2
100
AcDbEntity
  8
0
100
AcDbLine
 10
2.463767
 20
-4.685345
 30
2.371
 11
2.41214
 21
-4.599295
 31
2.371
  0
CIRCLE
  5
45FB3
100
AcDbEntity
  8
0
100
AcDbCircle
 10
2.419
 20
-4.571856
 30
2.371
 40
0.122
  0
LINE
  5
45FB4
100
AcDbEntity
  8
0
100
AcDbLine
 10
1.761
 20
-4.571856
 30
2.371
 11
1.761
 21
-4.351856
 31
2.371
  0
LINE
  5
45FB5
100
AcDbEntity
  8
0
100
AcDbLine
 10
1.907
 20
-4.571856
 30
2.371
 11
1.907
 21
-4.351856
 31
2.371
  0
LINE
  5
45FB6
100
AcDbEntity
  8
0
100
AcDbLine
 10
2.151
 20
-4.571856
 30
2.371
 11
2.151
 21
-4.351856
 31
2.371
  0
LINE
  5
45FB7
100
AcDbEntity
  8
0
100
AcDbLine
 10
2.297
 20
-4.571856
 30
2.371
 11
2.297
 21
-4.351856
 31
2.371
  0
LINE
  5
45FB8
100
AcDbEntity
  8
0
100
AcDbLine
 10
2.05644
 20
-4.578716
 30
2.371
 11
2.10789
 21
-4.547847
 31
2.371
  0
LINE
  5
45FB9
100
AcDbEntity
  8
0
100
AcDbLine
 10
2.03586
 20
-4.544416
 30
2.371
 11
2.087311
 21
-4.513547
 31
2.371
  0
CIRCLE
  5
45FBA
100
AcDbEntity
  8
0
100
AcDbCircle
 10
2.029
 20
-4.571856
 30
2.371
 40
0.122
  0
LINE
  5
45FBB
100
AcDbEntity
  8
0
100
AcDbLine
 10
2.108067
 20
-4.664766
 30
2.371
 11
2.05644
 21
-4.578716
 31
2.371
  0
LINE
  5
45FBC
100
AcDbEntity
  8
0
100
AcDbLine
 10
2.073767
 20
-4.685345
 30
2.371
 11
2.02214
 21
-4.599295
 31
2.371
  0
LINE
  5
45FBD
100
AcDbEntity
  8
0
100
AcDbLine
 10
2.03586
 20
-4.544416
 30
2.371
 11
1.984233
 21
-4.458366
 31
2.371
  0
LINE
  5
45FBE
100
AcDbEntity
  8
0
100
AcDbLine
 10
2.00156
 20
-4.564995
 30
2.371
 11
1.949933
 21
-4.478945
 31
2.371
  0
LINE
  5
45FBF
100
AcDbEntity
  8
0
100
AcDbLine
 10
1.970689
 20
-4.630164
 30
2.371
 11
1.95011
 21
-4.595864
 31
2.371
  0
LINE
  5
45FC0
100
AcDbEntity
  8
0
100
AcDbLine
 10
1.970689
 20
-4.630164
 30
2.371
 11
2.02214
 21
-4.599295
 31
2.371
  0
LINE
  5
45FC1
100
AcDbEntity
  8
0
100
AcDbLine
 10
1.95011
 20
-4.595864
 30
2.371
 11
2.00156
 21
-4.564995
 31
2.371
  0
LINE
  5
45FC2
100
AcDbEntity
  8
0
100
AcDbLine
 10
2.10789
 20
-4.547847
 30
2.371
 11
2.087311
 21
-4.513547
 31
2.371
  0
LINE
  5
45FC3
100
AcDbEntity
  8
0
100
AcDbLine
 10
2.39156
 20
-4.564995
 30
2.371
 11
2.339933
 21
-4.478945
 31
2.371
  0
LINE
  5
45FC4
100
AcDbEntity
  8
0
100
AcDbLine
 10
2.42586
 20
-4.544416
 30
2.371
 11
2.374233
 21
-4.458366
 31
2.371
  0
LINE
  5
45FC5
100
AcDbEntity
  8
0
100
AcDbLine
 10
2.360689
 20
-4.630164
 30
2.371
 11
2.34011
 21
-4.595864
 31
2.371
  0
LINE
  5
45FC6
100
AcDbEntity
  8
0
100
AcDbLine
 10
2.360689
 20
-4.630164
 30
2.371
 11
2.41214
 21
-4.599295
 31
2.371
  0
LINE
  5
45FC7
100
AcDbEntity
  8
0
100
AcDbLine
 10
2.34011
 20
-4.595864
 30
2.371
 11
2.39156
 21
-4.564995
 31
2.371
  0
LINE
  5
45FC8
100
AcDbEntity
  8
0
100
AcDbLine
 10
2.687
 20
-4.571856
 30
2.371
 11
2.687
 21
-4.351856
 31
2.371
  0
LINE
  5
45FC9
100
AcDbEntity
  8
0
100
AcDbLine
 10
2.541
 20
-4.571856
 30
2.371
 11
2.541
 21
-4.351856
 31
2.371
  0
LINE
  5
45FCA
100
AcDbEntity
  8
0
100
AcDbLine
 10
2.931
 20
-4.571856
 30
2.371
 11
2.931
 21
-4.351856
 31
2.371
  0
LINE
  5
45FCB
100
AcDbEntity
  8
0
100
AcDbLine
 10
3.077
 20
-4.571856
 30
2.371
 11
3.077
 21
-4.351856
 31
2.371
  0
LINE
  5
45FCC
100
AcDbEntity
  8
0
100
AcDbLine
 10
2.81586
 20
-4.544416
 30
2.371
 11
2.764233
 21
-4.458366
 31
2.371
  0
LINE
  5
45FCD
100
AcDbEntity
  8
0
100
AcDbLine
 10
2.853767
 20
-4.685345
 30
2.371
 11
2.80214
 21
-4.599295
 31
2.371
  0
CIRCLE
  5
45FCE
100
AcDbEntity
  8
0
100
AcDbCircle
 10
2.809
 20
-4.571856
 30
2.371
 40
0.122
  0
LINE
  5
45FCF
100
AcDbEntity
  8
0
100
AcDbLine
 10
2.44644
 20
-4.578716
 30
2.371
 11
2.49789
 21
-4.547847
 31
2.371
  0
LINE
  5
45FD0
100
AcDbEntity
  8
0
100
AcDbLine
 10
2.49789
 20
-4.547847
 30
2.371
 11
2.477311
 21
-4.513547
 31
2.371
  0
LINE
  5
45FD1
100
AcDbEntity
  8
0
100
AcDbLine
 10
2.498067
 20
-4.664766
 30
2.371
 11
2.44644
 21
-4.578716
 31
2.371
  0
LINE
  5
45FD2
100
AcDbEntity
  8
0
100
AcDbLine
 10
2.78156
 20
-4.564995
 30
2.371
 11
2.729933
 21
-4.478945
 31
2.371
  0
LINE
  5
45FD3
100
AcDbEntity
  8
0
100
AcDbLine
 10
2.750689
 20
-4.630164
 30
2.371
 11
2.80214
 21
-4.599295
 31
2.371
  0
LINE
  5
45FD4
100
AcDbEntity
  8
0
100
AcDbLine
 10
2.750689
 20
-4.630164
 30
2.371
 11
2.73011
 21
-4.595864
 31
2.371
  0
LINE
  5
45FD5
100
AcDbEntity
  8
0
100
AcDbLine
 10
2.73011
 20
-4.595864
 30
2.371
 11
2.78156
 21
-4.564995
 31
2.371
  0
LINE
  5
45FD6
100
AcDbEntity
  8
0
100
AcDbLine
 10
2.88789
 20
-4.547847
 30
2.371
 11
2.867311
 21
-4.513547
 31
2.371
  0
LINE
  5
45FD7
100
AcDbEntity
  8
0
100
AcDbLine
 10
2.83644
 20
-4.578716
 30
2.371
 11
2.88789
 21
-4.547847
 31
2.371
  0
LINE
  5
45FD8
100
AcDbEntity
  8
0
100
AcDbLine
 10
2.888067
 20
-4.664766
 30
2.371
 11
2.83644
 21
-4.578716
 31
2.371
  0
LINE
  5
45FD9
100
AcDbEntity
  8
0
100
AcDbLine
 10
2.81586
 20
-4.544416
 30
2.371
 11
2.867311
 21
-4.513547
 31
2.371
  0
LINE
  5
45FDA
100
AcDbEntity
  8
0
100
AcDbLine
 10
3.17156
 20
-4.564995
 30
2.371
 11
3.119933
 21
-4.478945
 31
2.371
  0
LINE
  5
45FDB
100
AcDbEntity
  8
0
100
AcDbLine
 10
3.140689
 20
-4.630164
 30
2.371
 11
3.12011
 21
-4.595864
 31
2.371
  0
LINE
  5
45FDC
100
AcDbEntity
  8
0
100
AcDbLine
 10
3.12011
 20
-4.595864
 30
2.371
 11
3.17156
 21
-4.564995
 31
2.371
  0
LINE
  5
45FDD
100
AcDbEntity
  8
0
100
AcDbLine
 10
1.84086
 20
-4.243416
 30
2.687
 11
1.789233
 21
-4.157366
 31
2.687
  0
LINE
  5
45FDE
100
AcDbEntity
  8
0
100
AcDbLine
 10
1.956
 20
-4.270856
 30
2.687
 11
1.956
 21
-4.050856
 31
2.687
  0
LINE
  5
45FDF
100
AcDbEntity
  8
0
100
AcDbLine
 10
1.80656
 20
-4.263995
 30
2.687
 11
1.754933
 21
-4.177945
 31
2.687
  0
LINE
  5
45FE0
100
AcDbEntity
  8
0
100
AcDbLine
 10
1.91289
 20
-4.246847
 30
2.687
 11
1.892311
 21
-4.212547
 31
2.687
  0
LINE
  5
45FE1
100
AcDbEntity
  8
0
100
AcDbLine
 10
1.913067
 20
-4.363766
 30
2.687
 11
1.86144
 21
-4.277716
 31
2.687
  0
LINE
  5
45FE2
100
AcDbEntity
  8
0
100
AcDbLine
 10
1.86144
 20
-4.277716
 30
2.687
 11
1.91289
 21
-4.246847
 31
2.687
  0
LINE
  5
45FE3
100
AcDbEntity
  8
0
100
AcDbLine
 10
1.84086
 20
-4.243416
 30
2.687
 11
1.892311
 21
-4.212547
 31
2.687
  0
LINE
  5
45FE4
100
AcDbEntity
  8
0
100
AcDbLine
 10
1.75511
 20
-4.294864
 30
2.687
 11
1.80656
 21
-4.263995
 31
2.687
  0
LINE
  5
45FE5
100
AcDbEntity
  8
0
100
AcDbLine
 10
1.775689
 20
-4.329164
 30
2.687
 11
1.82714
 21
-4.298295
 31
2.687
  0
LINE
  5
45FE6
100
AcDbEntity
  8
0
100
AcDbLine
 10
1.878767
 20
-4.384345
 30
2.687
 11
1.82714
 21
-4.298295
 31
2.687
  0
LINE
  5
45FE7
100
AcDbEntity
  8
0
100
AcDbLine
 10
1.775689
 20
-4.329164
 30
2.687
 11
1.75511
 21
-4.294864
 31
2.687
  0
LINE
  5
45FE8
100
AcDbEntity
  8
0
100
AcDbLine
 10
2.23086
 20
-4.243416
 30
2.687
 11
2.179233
 21
-4.157366
 31
2.687
  0
CIRCLE
  5
45FE9
100
AcDbEntity
  8
0
100
AcDbCircle
 10
2.224
 20
-4.270856
 30
2.687
 40
0.122
  0
LINE
  5
45FEA
100
AcDbEntity
  8
0
100
AcDbLine
 10
2.346
 20
-4.270856
 30
2.687
 11
2.346
 21
-4.050856
 31
2.687
  0
LINE
  5
45FEB
100
AcDbEntity
  8
0
100
AcDbLine
 10
2.102
 20
-4.270856
 30
2.687
 11
2.102
 21
-4.050856
 31
2.687
  0
LINE
  5
45FEC
100
AcDbEntity
  8
0
100
AcDbLine
 10
2.19656
 20
-4.263995
 30
2.687
 11
2.144933
 21
-4.177945
 31
2.687
  0
LINE
  5
45FED
100
AcDbEntity
  8
0
100
AcDbLine
 10
2.23086
 20
-4.243416
 30
2.687
 11
2.282311
 21
-4.212547
 31
2.687
  0
LINE
  5
45FEE
100
AcDbEntity
  8
0
100
AcDbLine
 10
2.303067
 20
-4.363766
 30
2.687
 11
2.25144
 21
-4.277716
 31
2.687
  0
LINE
  5
45FEF
100
AcDbEntity
  8
0
100
AcDbLine
 10
2.268767
 20
-4.384345
 30
2.687
 11
2.21714
 21
-4.298295
 31
2.687
  0
LINE
  5
45FF0
100
AcDbEntity
  8
0
100
AcDbLine
 10
2.25144
 20
-4.277716
 30
2.687
 11
2.30289
 21
-4.246847
 31
2.687
  0
LINE
  5
45FF1
100
AcDbEntity
  8
0
100
AcDbLine
 10
2.14511
 20
-4.294864
 30
2.687
 11
2.19656
 21
-4.263995
 31
2.687
  0
LINE
  5
45FF2
100
AcDbEntity
  8
0
100
AcDbLine
 10
2.165689
 20
-4.329164
 30
2.687
 11
2.21714
 21
-4.298295
 31
2.687
  0
LINE
  5
45FF3
100
AcDbEntity
  8
0
100
AcDbLine
 10
2.165689
 20
-4.329164
 30
2.687
 11
2.14511
 21
-4.294864
 31
2.687
  0
LINE
  5
45FF4
100
AcDbEntity
  8
0
100
AcDbLine
 10
2.30289
 20
-4.246847
 30
2.687
 11
2.282311
 21
-4.212547
 31
2.687
  0
LINE
  5
45FF5
100
AcDbEntity
  8
0
100
AcDbLine
 10
2.62086
 20
-4.243416
 30
2.687
 11
2.569233
 21
-4.157366
 31
2.687
  0
CIRCLE
  5
45FF6
100
AcDbEntity
  8
0
100
AcDbCircle
 10
2.614
 20
-4.270856
 30
2.687
 40
0.122
  0
LINE
  5
45FF7
100
AcDbEntity
  8
0
100
AcDbLine
 10
2.736
 20
-4.270856
 30
2.687
 11
2.736
 21
-4.050856
 31
2.687
  0
LINE
  5
45FF8
100
AcDbEntity
  8
0
100
AcDbLine
 10
2.492
 20
-4.270856
 30
2.687
 11
2.492
 21
-4.050856
 31
2.687
  0
LINE
  5
45FF9
100
AcDbEntity
  8
0
100
AcDbLine
 10
2.58656
 20
-4.263995
 30
2.687
 11
2.534933
 21
-4.177945
 31
2.687
  0
LINE
  5
45FFA
100
AcDbEntity
  8
0
100
AcDbLine
 10
2.62086
 20
-4.243416
 30
2.687
 11
2.672311
 21
-4.212547
 31
2.687
  0
LINE
  5
45FFB
100
AcDbEntity
  8
0
100
AcDbLine
 10
2.658767
 20
-4.384345
 30
2.687
 11
2.60714
 21
-4.298295
 31
2.687
  0
LINE
  5
45FFC
100
AcDbEntity
  8
0
100
AcDbLine
 10
2.555689
 20
-4.329164
 30
2.687
 11
2.60714
 21
-4.298295
 31
2.687
  0
LINE
  5
45FFD
100
AcDbEntity
  8
0
100
AcDbLine
 10
2.53511
 20
-4.294864
 30
2.687
 11
2.58656
 21
-4.263995
 31
2.687
  0
LINE
  5
45FFE
100
AcDbEntity
  8
0
100
AcDbLine
 10
2.555689
 20
-4.329164
 30
2.687
 11
2.53511
 21
-4.294864
 31
2.687
  0
LINE
  5
45FFF
100
AcDbEntity
  8
0
100
AcDbLine
 10
2.69289
 20
-4.246847
 30
2.687
 11
2.672311
 21
-4.212547
 31
2.687
  0
LINE
  5
46000
100
AcDbEntity
  8
0
100
AcDbLine
 10
2.693067
 20
-4.363766
 30
2.687
 11
2.64144
 21
-4.277716
 31
2.687
  0
LINE
  5
46001
100
AcDbEntity
  8
0
100
AcDbLine
 10
2.64144
 20
-4.277716
 30
2.687
 11
2.69289
 21
-4.246847
 31
2.687
  0
LINE
  5
46002
100
AcDbEntity
  8
0
100
AcDbLine
 10
3.01086
 20
-4.243416
 30
2.687
 11
2.959233
 21
-4.157366
 31
2.687
  0
CIRCLE
  5
46003
100
AcDbEntity
  8
0
100
AcDbCircle
 10
3.004
 20
-4.270856
 30
2.687
 40
0.122
  0
LINE
  5
46004
100
AcDbEntity
  8
0
100
AcDbLine
 10
3.126
 20
-4.270856
 30
2.687
 11
3.126
 21
-4.050856
 31
2.687
  0
LINE
  5
46005
100
AcDbEntity
  8
0
100
AcDbLine
 10
2.882
 20
-4.270856
 30
2.687
 11
2.882
 21
-4.050856
 31
2.687
  0
LINE
  5
46006
100
AcDbEntity
  8
0
100
AcDbLine
 10
2.97656
 20
-4.263995
 30
2.687
 11
2.924933
 21
-4.177945
 31
2.687
  0
LINE
  5
46007
100
AcDbEntity
  8
0
100
AcDbLine
 10
2.945689
 20
-4.329164
 30
2.687
 11
2.99714
 21
-4.298295
 31
2.687
  0
LINE
  5
46008
100
AcDbEntity
  8
0
100
AcDbLine
 10
2.92511
 20
-4.294864
 30
2.687
 11
2.97656
 21
-4.263995
 31
2.687
  0
LINE
  5
46009
100
AcDbEntity
  8
0
100
AcDbLine
 10
2.945689
 20
-4.329164
 30
2.687
 11
2.92511
 21
-4.294864
 31
2.687
  0
LINE
  5
4600A
100
AcDbEntity
  8
0
100
AcDbLine
 10
3.01086
 20
-4.243416
 30
2.687
 11
3.062311
 21
-4.212547
 31
2.687
  0
LINE
  5
4600B
100
AcDbEntity
  8
0
100
AcDbLine
 10
3.08289
 20
-4.246847
 30
2.687
 11
3.062311
 21
-4.212547
 31
2.687
  0
LINE
  5
4600C
100
AcDbEntity
  8
0
100
AcDbLine
 10
3.083067
 20
-4.363766
 30
2.687
 11
3.03144
 21
-4.277716
 31
2.687
  0
LINE
  5
4600D
100
AcDbEntity
  8
0
100
AcDbLine
 10
3.048767
 20
-4.384345
 30
2.687
 11
2.99714
 21
-4.298295
 31
2.687
  0
LINE
  5
4600E
100
AcDbEntity
  8
0
100
AcDbLine
 10
3.03144
 20
-4.277716
 30
2.687
 11
3.08289
 21
-4.246847
 31
2.687
  0
POLYLINE
  5
4600F
100
AcDbEntity
  8
0
100
AcDbPolygonMesh
 66
     1
 10
0.0
 20
0.0
 30
0.0
 70
    16
 71
     6
 72
     3
  0
VERTEX
  5
46010
100
AcDbEntity
  8
0
100
AcDbVertex
100
AcDbPolygonMeshVertex
 10
0.345
 20
-0.808856
 30
3.445
 70
    64
  0
VERTEX
  5
46011
100
AcDbEntity
  8
0
100
AcDbVertex
100
AcDbPolygonMeshVertex
 10
0.345
 20
-0.108856
 30
2.605
 70
    64
  0
VERTEX
  5
46012
100
AcDbEntity
  8
0
100
AcDbVertex
100
AcDbPolygonMeshVertex
 10
0.345
 20
-0.108856
 30
2.605
 70
    64
  0
VERTEX
  5
46013
100
AcDbEntity
  8
0
100
AcDbVertex
100
AcDbPolygonMeshVertex
 10
0.345
 20
-0.808856
 30
3.445
 70
    64
  0
VERTEX
  5
46014
100
AcDbEntity
  8
0
100
AcDbVertex
100
AcDbPolygonMeshVertex
 10
0.345
 20
-0.808856
 30
2.605
 70
    64
  0
VERTEX
  5
46015
100
AcDbEntity
  8
0
100
AcDbVertex
100
AcDbPolygonMeshVertex
 10
0.345
 20
-0.808856
 30
2.605
 70
    64
  0
VERTEX
  5
46016
100
AcDbEntity
  8
0
100
AcDbVertex
100
AcDbPolygonMeshVertex
 10
-0.33
 20
-0.808856
 30
3.445
 70
    64
  0
VERTEX
  5
46017
100
AcDbEntity
  8
0
100
AcDbVertex
100
AcDbPolygonMeshVertex
 10
-0.33
 20
-0.808856
 30
2.605
 70
    64
  0
VERTEX
  5
46018
100
AcDbEntity
  8
0
100
AcDbVertex
100
AcDbPolygonMeshVertex
 10
0.345
 20
-0.808856
 30
2.605
 70
    64
  0
VERTEX
  5
46019
100
AcDbEntity
  8
0
100
AcDbVertex
100
AcDbPolygonMeshVertex
 10
-0.33
 20
-0.808856
 30
3.445
 70
    64
  0
VERTEX
  5
4601A
100
AcDbEntity
  8
0
100
AcDbVertex
100
AcDbPolygonMeshVertex
 10
-0.33
 20
-0.108856
 30
2.605
 70
    64
  0
VERTEX
  5
4601B
100
AcDbEntity
  8
0
100
AcDbVertex
100
AcDbPolygonMeshVertex
 10
0.345
 20
-0.108856
 30
2.605
 70
    64
  0
VERTEX
  5
4601C
100
AcDbEntity
  8
0
100
AcDbVertex
100
AcDbPolygonMeshVertex
 10
-0.33
 20
-0.808856
 30
3.445
 70
    64
  0
VERTEX
  5
4601D
100
AcDbEntity
  8
0
100
AcDbVertex
100
AcDbPolygonMeshVertex
 10
-0.33
 20
-0.808856
 30
3.445
 70
    64
  0
VERTEX
  5
4601E
100
AcDbEntity
  8
0
100
AcDbVertex
100
AcDbPolygonMeshVertex
 10
0.345
 20
-0.808856
 30
3.445
 70
    64
  0
VERTEX
  5
4601F
100
AcDbEntity
  8
0
100
AcDbVertex
100
AcDbPolygonMeshVertex
 10
-0.33
 20
-0.808856
 30
3.445
 70
    64
  0
VERTEX
  5
46020
100
AcDbEntity
  8
0
100
AcDbVertex
100
AcDbPolygonMeshVertex
 10
-0.33
 20
-0.808856
 30
3.445
 70
    64
  0
VERTEX
  5
46021
100
AcDbEntity
  8
0
100
AcDbVertex
100
AcDbPolygonMeshVertex
 10
0.345
 20
-0.808856
 30
3.445
 70
    64
  0
SEQEND
  5
46022
100
AcDbEntity
  8
0
  0
LINE
  5
46023
100
AcDbEntity
  8
0
100
AcDbLine
 10
1.71789
 20
-0.311864
 30
2.371
 11
1.697311
 21
-0.346164
 31
2.371
  0
LINE
  5
46024
100
AcDbEntity
  8
0
100
AcDbLine
 10
1.66644
 20
-0.280995
 30
2.371
 11
1.71789
 21
-0.311864
 31
2.371
  0
LINE
  5
46025
100
AcDbEntity
  8
0
100
AcDbLine
 10
1.718067
 20
-0.194945
 30
2.371
 11
1.66644
 21
-0.280995
 31
2.371
  0
CIRCLE
  5
46026
100
AcDbEntity
  8
0
100
AcDbCircle
 10
1.639
 20
-0.287856
 30
2.371
 40
0.122
  0
CIRCLE
  5
46027
100
AcDbEntity
  8
0
100
AcDbCircle
 10
1.834
 20
-0.588856
 30
2.687
 40
0.122
  0
LINE
  5
46028
100
AcDbEntity
  8
0
100
AcDbLine
 10
0.88644
 20
-0.280995
 30
2.371
 11
0.93789
 21
-0.311864
 31
2.371
  0
LINE
  5
46029
100
AcDbEntity
  8
0
100
AcDbLine
 10
0.78011
 20
-0.263847
 30
2.371
 11
0.83156
 21
-0.294716
 31
2.371
  0
CIRCLE
  5
4602A
100
AcDbEntity
  8
0
100
AcDbCircle
 10
0.859
 20
-0.287856
 30
2.371
 40
0.122
  0
LINE
  5
4602B
100
AcDbEntity
  8
0
100
AcDbLine
 10
0.83156
 20
-0.294716
 30
2.371
 11
0.779933
 21
-0.380766
 31
2.371
  0
LINE
  5
4602C
100
AcDbEntity
  8
0
100
AcDbLine
 10
0.737
 20
-0.287856
 30
2.371
 11
0.737
 21
-0.507856
 31
2.371
  0
LINE
  5
4602D
100
AcDbEntity
  8
0
100
AcDbLine
 10
0.981
 20
-0.287856
 30
2.371
 11
0.981
 21
-0.507856
 31
2.371
  0
LINE
  5
4602E
100
AcDbEntity
  8
0
100
AcDbLine
 10
0.86586
 20
-0.315295
 30
2.371
 11
0.917311
 21
-0.346164
 31
2.371
  0
LINE
  5
4602F
100
AcDbEntity
  8
0
100
AcDbLine
 10
0.93789
 20
-0.311864
 30
2.371
 11
0.917311
 21
-0.346164
 31
2.371
  0
LINE
  5
46030
100
AcDbEntity
  8
0
100
AcDbLine
 10
0.86586
 20
-0.315295
 30
2.371
 11
0.814233
 21
-0.401345
 31
2.371
  0
LINE
  5
46031
100
AcDbEntity
  8
0
100
AcDbLine
 10
0.800689
 20
-0.229547
 30
2.371
 11
0.85214
 21
-0.260416
 31
2.371
  0
LINE
  5
46032
100
AcDbEntity
  8
0
100
AcDbLine
 10
0.800689
 20
-0.229547
 30
2.371
 11
0.78011
 21
-0.263847
 31
2.371
  0
LINE
  5
46033
100
AcDbEntity
  8
0
100
AcDbLine
 10
0.938067
 20
-0.194945
 30
2.371
 11
0.88644
 21
-0.280995
 31
2.371
  0
LINE
  5
46034
100
AcDbEntity
  8
0
100
AcDbLine
 10
0.903767
 20
-0.174366
 30
2.371
 11
0.85214
 21
-0.260416
 31
2.371
  0
CIRCLE
  5
46035
100
AcDbEntity
  8
0
100
AcDbCircle
 10
1.249
 20
-0.287856
 30
2.371
 40
0.122
  0
LINE
  5
46036
100
AcDbEntity
  8
0
100
AcDbLine
 10
1.27644
 20
-0.280995
 30
2.371
 11
1.32789
 21
-0.311864
 31
2.371
  0
LINE
  5
46037
100
AcDbEntity
  8
0
100
AcDbLine
 10
1.17011
 20
-0.263847
 30
2.371
 11
1.22156
 21
-0.294716
 31
2.371
  0
LINE
  5
46038
100
AcDbEntity
  8
0
100
AcDbLine
 10
1.127
 20
-0.287856
 30
2.371
 11
1.127
 21
-0.507856
 31
2.371
  0
LINE
  5
46039
100
AcDbEntity
  8
0
100
AcDbLine
 10
1.25586
 20
-0.315295
 30
2.371
 11
1.307311
 21
-0.346164
 31
2.371
  0
LINE
  5
4603A
100
AcDbEntity
  8
0
100
AcDbLine
 10
1.32789
 20
-0.311864
 30
2.371
 11
1.307311
 21
-0.346164
 31
2.371
  0
LINE
  5
4603B
100
AcDbEntity
  8
0
100
AcDbLine
 10
1.22156
 20
-0.294716
 30
2.371
 11
1.169933
 21
-0.380766
 31
2.371
  0
LINE
  5
4603C
100
AcDbEntity
  8
0
100
AcDbLine
 10
1.25586
 20
-0.315295
 30
2.371
 11
1.204233
 21
-0.401345
 31
2.371
  0
LINE
  5
4603D
100
AcDbEntity
  8
0
100
AcDbLine
 10
1.328067
 20
-0.194945
 30
2.371
 11
1.27644
 21
-0.280995
 31
2.371
  0
LINE
  5
4603E
100
AcDbEntity
  8
0
100
AcDbLine
 10
1.190689
 20
-0.229547
 30
2.371
 11
1.17011
 21
-0.263847
 31
2.371
  0
LINE
  5
4603F
100
AcDbEntity
  8
0
100
AcDbLine
 10
1.293767
 20
-0.174366
 30
2.371
 11
1.24214
 21
-0.260416
 31
2.371
  0
LINE
  5
46040
100
AcDbEntity
  8
0
100
AcDbLine
 10
1.190689
 20
-0.229547
 30
2.371
 11
1.24214
 21
-0.260416
 31
2.371
  0
LINE
  5
46041
100
AcDbEntity
  8
0
100
AcDbLine
 10
1.56011
 20
-0.263847
 30
2.371
 11
1.61156
 21
-0.294716
 31
2.371
  0
LINE
  5
46042
100
AcDbEntity
  8
0
100
AcDbLine
 10
1.371
 20
-0.287856
 30
2.371
 11
1.371
 21
-0.507856
 31
2.371
  0
LINE
  5
46043
100
AcDbEntity
  8
0
100
AcDbLine
 10
1.517
 20
-0.287856
 30
2.371
 11
1.517
 21
-0.507856
 31
2.371
  0
LINE
  5
46044
100
AcDbEntity
  8
0
100
AcDbLine
 10
1.64586
 20
-0.315295
 30
2.371
 11
1.697311
 21
-0.346164
 31
2.371
  0
LINE
  5
46045
100
AcDbEntity
  8
0
100
AcDbLine
 10
1.61156
 20
-0.294716
 30
2.371
 11
1.559933
 21
-0.380766
 31
2.371
  0
LINE
  5
46046
100
AcDbEntity
  8
0
100
AcDbLine
 10
1.64586
 20
-0.315295
 30
2.371
 11
1.594233
 21
-0.401345
 31
2.371
  0
LINE
  5
46047
100
AcDbEntity
  8
0
100
AcDbLine
 10
1.580689
 20
-0.229547
 30
2.371
 11
1.56011
 21
-0.263847
 31
2.371
  0
LINE
  5
46048
100
AcDbEntity
  8
0
100
AcDbLine
 10
1.683767
 20
-0.174366
 30
2.371
 11
1.63214
 21
-0.260416
 31
2.371
  0
LINE
  5
46049
100
AcDbEntity
  8
0
100
AcDbLine
 10
1.580689
 20
-0.229547
 30
2.371
 11
1.63214
 21
-0.260416
 31
2.371
  0
LINE
  5
4604A
100
AcDbEntity
  8
0
100
AcDbLine
 10
1.02656
 20
-0.595716
 30
2.687
 11
0.974933
 21
-0.681766
 31
2.687
  0
CIRCLE
  5
4604B
100
AcDbEntity
  8
0
100
AcDbCircle
 10
1.054
 20
-0.588856
 30
2.687
 40
0.122
  0
LINE
  5
4604C
100
AcDbEntity
  8
0
100
AcDbLine
 10
0.97511
 20
-0.564847
 30
2.687
 11
1.02656
 21
-0.595716
 31
2.687
  0
LINE
  5
4604D
100
AcDbEntity
  8
0
100
AcDbLine
 10
0.932
 20
-0.588856
 30
2.687
 11
0.932
 21
-0.808856
 31
2.687
  0
LINE
  5
4604E
100
AcDbEntity
  8
0
100
AcDbLine
 10
1.133067
 20
-0.495945
 30
2.687
 11
1.08144
 21
-0.581995
 31
2.687
  0
LINE
  5
4604F
100
AcDbEntity
  8
0
100
AcDbLine
 10
1.523067
 20
-0.495945
 30
2.687
 11
1.47144
 21
-0.581995
 31
2.687
  0
CIRCLE
  5
46050
100
AcDbEntity
  8
0
100
AcDbCircle
 10
1.444
 20
-0.588856
 30
2.687
 40
0.122
  0
LINE
  5
46051
100
AcDbEntity
  8
0
100
AcDbLine
 10
1.176
 20
-0.588856
 30
2.687
 11
1.176
 21
-0.808856
 31
2.687
  0
LINE
  5
46052
100
AcDbEntity
  8
0
100
AcDbLine
 10
1.322
 20
-0.588856
 30
2.687
 11
1.322
 21
-0.808856
 31
2.687
  0
LINE
  5
46053
100
AcDbEntity
  8
0
100
AcDbLine
 10
0.995689
 20
-0.530547
 30
2.687
 11
1.04714
 21
-0.561416
 31
2.687
  0
LINE
  5
46054
100
AcDbEntity
  8
0
100
AcDbLine
 10
1.13289
 20
-0.612864
 30
2.687
 11
1.112311
 21
-0.647164
 31
2.687
  0
LINE
  5
46055
100
AcDbEntity
  8
0
100
AcDbLine
 10
1.06086
 20
-0.616295
 30
2.687
 11
1.112311
 21
-0.647164
 31
2.687
  0
LINE
  5
46056
100
AcDbEntity
  8
0
100
AcDbLine
 10
1.06086
 20
-0.616295
 30
2.687
 11
1.009233
 21
-0.702345
 31
2.687
  0
LINE
  5
46057
100
AcDbEntity
  8
0
100
AcDbLine
 10
1.08144
 20
-0.581995
 30
2.687
 11
1.13289
 21
-0.612864
 31
2.687
  0
LINE
  5
46058
100
AcDbEntity
  8
0
100
AcDbLine
 10
1.566
 20
-0.588856
 30
2.687
 11
1.566
 21
-0.808856
 31
2.687
  0
LINE
  5
46059
100
AcDbEntity
  8
0
100
AcDbLine
 10
1.712
 20
-0.588856
 30
2.687
 11
1.712
 21
-0.808856
 31
2.687
  0
LINE
  5
4605A
100
AcDbEntity
  8
0
100
AcDbLine
 10
1.385689
 20
-0.530547
 30
2.687
 11
1.43714
 21
-0.561416
 31
2.687
  0
LINE
  5
4605B
100
AcDbEntity
  8
0
100
AcDbLine
 10
1.52289
 20
-0.612864
 30
2.687
 11
1.502311
 21
-0.647164
 31
2.687
  0
LINE
  5
4605C
100
AcDbEntity
  8
0
100
AcDbLine
 10
1.45086
 20
-0.616295
 30
2.687
 11
1.502311
 21
-0.647164
 31
2.687
  0
LINE
  5
4605D
100
AcDbEntity
  8
0
100
AcDbLine
 10
1.45086
 20
-0.616295
 30
2.687
 11
1.399233
 21
-0.702345
 31
2.687
  0
LINE
  5
4605E
100
AcDbEntity
  8
0
100
AcDbLine
 10
1.41656
 20
-0.595716
 30
2.687
 11
1.364933
 21
-0.681766
 31
2.687
  0
LINE
  5
4605F
100
AcDbEntity
  8
0
100
AcDbLine
 10
1.47144
 20
-0.581995
 30
2.687
 11
1.52289
 21
-0.612864
 31
2.687
  0
LINE
  5
46060
100
AcDbEntity
  8
0
100
AcDbLine
 10
1.36511
 20
-0.564847
 30
2.687
 11
1.41656
 21
-0.595716
 31
2.687
  0
LINE
  5
46061
100
AcDbEntity
  8
0
100
AcDbLine
 10
2.42586
 20
-0.315295
 30
2.371
 11
2.477311
 21
-0.346164
 31
2.371
  0
LINE
  5
46062
100
AcDbEntity
  8
0
100
AcDbLine
 10
2.463767
 20
-0.174366
 30
2.371
 11
2.41214
 21
-0.260416
 31
2.371
  0
CIRCLE
  5
46063
100
AcDbEntity
  8
0
100
AcDbCircle
 10
2.419
 20
-0.287856
 30
2.371
 40
0.122
  0
LINE
  5
46064
100
AcDbEntity
  8
0
100
AcDbLine
 10
2.03586
 20
-0.315295
 30
2.371
 11
2.087311
 21
-0.346164
 31
2.371
  0
LINE
  5
46065
100
AcDbEntity
  8
0
100
AcDbLine
 10
2.05644
 20
-0.280995
 30
2.371
 11
2.10789
 21
-0.311864
 31
2.371
  0
LINE
  5
46066
100
AcDbEntity
  8
0
100
AcDbLine
 10
2.108067
 20
-0.194945
 30
2.371
 11
2.05644
 21
-0.280995
 31
2.371
  0
CIRCLE
  5
46067
100
AcDbEntity
  8
0
100
AcDbCircle
 10
2.029
 20
-0.287856
 30
2.371
 40
0.122
  0
LINE
  5
46068
100
AcDbEntity
  8
0
100
AcDbLine
 10
1.95011
 20
-0.263847
 30
2.371
 11
2.00156
 21
-0.294716
 31
2.371
  0
LINE
  5
46069
100
AcDbEntity
  8
0
100
AcDbLine
 10
1.761
 20
-0.287856
 30
2.371
 11
1.761
 21
-0.507856
 31
2.371
  0
LINE
  5
4606A
100
AcDbEntity
  8
0
100
AcDbLine
 10
1.907
 20
-0.287856
 30
2.371
 11
1.907
 21
-0.507856
 31
2.371
  0
LINE
  5
4606B
100
AcDbEntity
  8
0
100
AcDbLine
 10
2.00156
 20
-0.294716
 30
2.371
 11
1.949933
 21
-0.380766
 31
2.371
  0
LINE
  5
4606C
100
AcDbEntity
  8
0
100
AcDbLine
 10
2.03586
 20
-0.315295
 30
2.371
 11
1.984233
 21
-0.401345
 31
2.371
  0
LINE
  5
4606D
100
AcDbEntity
  8
0
100
AcDbLine
 10
1.970689
 20
-0.229547
 30
2.371
 11
1.95011
 21
-0.263847
 31
2.371
  0
LINE
  5
4606E
100
AcDbEntity
  8
0
100
AcDbLine
 10
2.073767
 20
-0.174366
 30
2.371
 11
2.02214
 21
-0.260416
 31
2.371
  0
LINE
  5
4606F
100
AcDbEntity
  8
0
100
AcDbLine
 10
1.970689
 20
-0.229547
 30
2.371
 11
2.02214
 21
-0.260416
 31
2.371
  0
LINE
  5
46070
100
AcDbEntity
  8
0
100
AcDbLine
 10
2.34011
 20
-0.263847
 30
2.371
 11
2.39156
 21
-0.294716
 31
2.371
  0
LINE
  5
46071
100
AcDbEntity
  8
0
100
AcDbLine
 10
2.151
 20
-0.287856
 30
2.371
 11
2.151
 21
-0.507856
 31
2.371
  0
LINE
  5
46072
100
AcDbEntity
  8
0
100
AcDbLine
 10
2.10789
 20
-0.311864
 30
2.371
 11
2.087311
 21
-0.346164
 31
2.371
  0
LINE
  5
46073
100
AcDbEntity
  8
0
100
AcDbLine
 10
2.297
 20
-0.287856
 30
2.371
 11
2.297
 21
-0.507856
 31
2.371
  0
LINE
  5
46074
100
AcDbEntity
  8
0
100
AcDbLine
 10
2.39156
 20
-0.294716
 30
2.371
 11
2.339933
 21
-0.380766
 31
2.371
  0
LINE
  5
46075
100
AcDbEntity
  8
0
100
AcDbLine
 10
2.42586
 20
-0.315295
 30
2.371
 11
2.374233
 21
-0.401345
 31
2.371
  0
LINE
  5
46076
100
AcDbEntity
  8
0
100
AcDbLine
 10
2.360689
 20
-0.229547
 30
2.371
 11
2.34011
 21
-0.263847
 31
2.371
  0
LINE
  5
46077
100
AcDbEntity
  8
0
100
AcDbLine
 10
2.360689
 20
-0.229547
 30
2.371
 11
2.41214
 21
-0.260416
 31
2.371
  0
LINE
  5
46078
100
AcDbEntity
  8
0
100
AcDbLine
 10
2.853767
 20
-0.174366
 30
2.371
 11
2.80214
 21
-0.260416
 31
2.371
  0
LINE
  5
46079
100
AcDbEntity
  8
0
100
AcDbLine
 10
2.81586
 20
-0.315295
 30
2.371
 11
2.764233
 21
-0.401345
 31
2.371
  0
CIRCLE
  5
4607A
100
AcDbEntity
  8
0
100
AcDbCircle
 10
2.809
 20
-0.287856
 30
2.371
 40
0.122
  0
LINE
  5
4607B
100
AcDbEntity
  8
0
100
AcDbLine
 10
2.44644
 20
-0.280995
 30
2.371
 11
2.49789
 21
-0.311864
 31
2.371
  0
LINE
  5
4607C
100
AcDbEntity
  8
0
100
AcDbLine
 10
2.73011
 20
-0.263847
 30
2.371
 11
2.78156
 21
-0.294716
 31
2.371
  0
LINE
  5
4607D
100
AcDbEntity
  8
0
100
AcDbLine
 10
2.541
 20
-0.287856
 30
2.371
 11
2.541
 21
-0.507856
 31
2.371
  0
LINE
  5
4607E
100
AcDbEntity
  8
0
100
AcDbLine
 10
2.49789
 20
-0.311864
 30
2.371
 11
2.477311
 21
-0.346164
 31
2.371
  0
LINE
  5
4607F
100
AcDbEntity
  8
0
100
AcDbLine
 10
2.687
 20
-0.287856
 30
2.371
 11
2.687
 21
-0.507856
 31
2.371
  0
LINE
  5
46080
100
AcDbEntity
  8
0
100
AcDbLine
 10
2.78156
 20
-0.294716
 30
2.371
 11
2.729933
 21
-0.380766
 31
2.371
  0
LINE
  5
46081
100
AcDbEntity
  8
0
100
AcDbLine
 10
2.498067
 20
-0.194945
 30
2.371
 11
2.44644
 21
-0.280995
 31
2.371
  0
LINE
  5
46082
100
AcDbEntity
  8
0
100
AcDbLine
 10
2.750689
 20
-0.229547
 30
2.371
 11
2.73011
 21
-0.263847
 31
2.371
  0
LINE
  5
46083
100
AcDbEntity
  8
0
100
AcDbLine
 10
2.750689
 20
-0.229547
 30
2.371
 11
2.80214
 21
-0.260416
 31
2.371
  0
LINE
  5
46084
100
AcDbEntity
  8
0
100
AcDbLine
 10
2.83644
 20
-0.280995
 30
2.371
 11
2.88789
 21
-0.311864
 31
2.371
  0
LINE
  5
46085
100
AcDbEntity
  8
0
100
AcDbLine
 10
3.12011
 20
-0.263847
 30
2.371
 11
3.17156
 21
-0.294716
 31
2.371
  0
LINE
  5
46086
100
AcDbEntity
  8
0
100
AcDbLine
 10
2.931
 20
-0.287856
 30
2.371
 11
2.931
 21
-0.507856
 31
2.371
  0
LINE
  5
46087
100
AcDbEntity
  8
0
100
AcDbLine
 10
2.81586
 20
-0.315295
 30
2.371
 11
2.867311
 21
-0.346164
 31
2.371
  0
LINE
  5
46088
100
AcDbEntity
  8
0
100
AcDbLine
 10
2.88789
 20
-0.311864
 30
2.371
 11
2.867311
 21
-0.346164
 31
2.371
  0
LINE
  5
46089
100
AcDbEntity
  8
0
100
AcDbLine
 10
3.077
 20
-0.287856
 30
2.371
 11
3.077
 21
-0.507856
 31
2.371
  0
LINE
  5
4608A
100
AcDbEntity
  8
0
100
AcDbLine
 10
3.17156
 20
-0.294716
 30
2.371
 11
3.119933
 21
-0.380766
 31
2.371
  0
LINE
  5
4608B
100
AcDbEntity
  8
0
100
AcDbLine
 10
2.888067
 20
-0.194945
 30
2.371
 11
2.83644
 21
-0.280995
 31
2.371
  0
LINE
  5
4608C
100
AcDbEntity
  8
0
100
AcDbLine
 10
3.140689
 20
-0.229547
 30
2.371
 11
3.12011
 21
-0.263847
 31
2.371
  0
LINE
  5
4608D
100
AcDbEntity
  8
0
100
AcDbLine
 10
1.913067
 20
-0.495945
 30
2.687
 11
1.86144
 21
-0.581995
 31
2.687
  0
LINE
  5
4608E
100
AcDbEntity
  8
0
100
AcDbLine
 10
2.303067
 20
-0.495945
 30
2.687
 11
2.25144
 21
-0.581995
 31
2.687
  0
CIRCLE
  5
4608F
100
AcDbEntity
  8
0
100
AcDbCircle
 10
2.224
 20
-0.588856
 30
2.687
 40
0.122
  0
LINE
  5
46090
100
AcDbEntity
  8
0
100
AcDbLine
 10
1.956
 20
-0.588856
 30
2.687
 11
1.956
 21
-0.808856
 31
2.687
  0
LINE
  5
46091
100
AcDbEntity
  8
0
100
AcDbLine
 10
1.91289
 20
-0.612864
 30
2.687
 11
1.892311
 21
-0.647164
 31
2.687
  0
LINE
  5
46092
100
AcDbEntity
  8
0
100
AcDbLine
 10
1.86144
 20
-0.581995
 30
2.687
 11
1.91289
 21
-0.612864
 31
2.687
  0
LINE
  5
46093
100
AcDbEntity
  8
0
100
AcDbLine
 10
1.775689
 20
-0.530547
 30
2.687
 11
1.82714
 21
-0.561416
 31
2.687
  0
LINE
  5
46094
100
AcDbEntity
  8
0
100
AcDbLine
 10
1.84086
 20
-0.616295
 30
2.687
 11
1.892311
 21
-0.647164
 31
2.687
  0
LINE
  5
46095
100
AcDbEntity
  8
0
100
AcDbLine
 10
1.84086
 20
-0.616295
 30
2.687
 11
1.789233
 21
-0.702345
 31
2.687
  0
LINE
  5
46096
100
AcDbEntity
  8
0
100
AcDbLine
 10
1.80656
 20
-0.595716
 30
2.687
 11
1.754933
 21
-0.681766
 31
2.687
  0
LINE
  5
46097
100
AcDbEntity
  8
0
100
AcDbLine
 10
1.75511
 20
-0.564847
 30
2.687
 11
1.80656
 21
-0.595716
 31
2.687
  0
LINE
  5
46098
100
AcDbEntity
  8
0
100
AcDbLine
 10
2.346
 20
-0.588856
 30
2.687
 11
2.346
 21
-0.808856
 31
2.687
  0
LINE
  5
46099
100
AcDbEntity
  8
0
100
AcDbLine
 10
2.102
 20
-0.588856
 30
2.687
 11
2.102
 21
-0.808856
 31
2.687
  0
LINE
  5
4609A
100
AcDbEntity
  8
0
100
AcDbLine
 10
2.23086
 20
-0.616295
 30
2.687
 11
2.282311
 21
-0.647164
 31
2.687
  0
LINE
  5
4609B
100
AcDbEntity
  8
0
100
AcDbLine
 10
2.25144
 20
-0.581995
 30
2.687
 11
2.30289
 21
-0.612864
 31
2.687
  0
LINE
  5
4609C
100
AcDbEntity
  8
0
100
AcDbLine
 10
2.165689
 20
-0.530547
 30
2.687
 11
2.21714
 21
-0.561416
 31
2.687
  0
LINE
  5
4609D
100
AcDbEntity
  8
0
100
AcDbLine
 10
2.23086
 20
-0.616295
 30
2.687
 11
2.179233
 21
-0.702345
 31
2.687
  0
LINE
  5
4609E
100
AcDbEntity
  8
0
100
AcDbLine
 10
2.19656
 20
-0.595716
 30
2.687
 11
2.144933
 21
-0.681766
 31
2.687
  0
LINE
  5
4609F
100
AcDbEntity
  8
0
100
AcDbLine
 10
2.14511
 20
-0.564847
 30
2.687
 11
2.19656
 21
-0.595716
 31
2.687
  0
LINE
  5
460A0
100
AcDbEntity
  8
0
100
AcDbLine
 10
2.30289
 20
-0.612864
 30
2.687
 11
2.282311
 21
-0.647164
 31
2.687
  0
LINE
  5
460A1
100
AcDbEntity
  8
0
100
AcDbLine
 10
2.693067
 20
-0.495945
 30
2.687
 11
2.64144
 21
-0.581995
 31
2.687
  0
CIRCLE
  5
460A2
100
AcDbEntity
  8
0
100
AcDbCircle
 10
2.614
 20
-0.588856
 30
2.687
 40
0.122
  0
LINE
  5
460A3
100
AcDbEntity
  8
0
100
AcDbLine
 10
3.083067
 20
-0.495945
 30
2.687
 11
3.03144
 21
-0.581995
 31
2.687
  0
CIRCLE
  5
460A4
100
AcDbEntity
  8
0
100
AcDbCircle
 10
3.004
 20
-0.588856
 30
2.687
 40
0.122
  0
LINE
  5
460A5
100
AcDbEntity
  8
0
100
AcDbLine
 10
2.736
 20
-0.588856
 30
2.687
 11
2.736
 21
-0.808856
 31
2.687
  0
LINE
  5
460A6
100
AcDbEntity
  8
0
100
AcDbLine
 10
2.492
 20
-0.588856
 30
2.687
 11
2.492
 21
-0.808856
 31
2.687
  0
LINE
  5
460A7
100
AcDbEntity
  8
0
100
AcDbLine
 10
2.62086
 20
-0.616295
 30
2.687
 11
2.672311
 21
-0.647164
 31
2.687
  0
LINE
  5
460A8
100
AcDbEntity
  8
0
100
AcDbLine
 10
2.555689
 20
-0.530547
 30
2.687
 11
2.60714
 21
-0.561416
 31
2.687
  0
LINE
  5
460A9
100
AcDbEntity
  8
0
100
AcDbLine
 10
2.62086
 20
-0.616295
 30
2.687
 11
2.569233
 21
-0.702345
 31
2.687
  0
LINE
  5
460AA
100
AcDbEntity
  8
0
100
AcDbLine
 10
2.58656
 20
-0.595716
 30
2.687
 11
2.534933
 21
-0.681766
 31
2.687
  0
LINE
  5
460AB
100
AcDbEntity
  8
0
100
AcDbLine
 10
2.53511
 20
-0.564847
 30
2.687
 11
2.58656
 21
-0.595716
 31
2.687
  0
LINE
  5
460AC
100
AcDbEntity
  8
0
100
AcDbLine
 10
2.69289
 20
-0.612864
 30
2.687
 11
2.672311
 21
-0.647164
 31
2.687
  0
LINE
  5
460AD
100
AcDbEntity
  8
0
100
AcDbLine
 10
2.64144
 20
-0.581995
 30
2.687
 11
2.69289
 21
-0.612864
 31
2.687
  0
LINE
  5
460AE
100
AcDbEntity
  8
0
100
AcDbLine
 10
3.126
 20
-0.588856
 30
2.687
 11
3.126
 21
-0.808856
 31
2.687
  0
LINE
  5
460AF
100
AcDbEntity
  8
0
100
AcDbLine
 10
2.882
 20
-0.588856
 30
2.687
 11
2.882
 21
-0.808856
 31
2.687
  0
LINE
  5
460B0
100
AcDbEntity
  8
0
100
AcDbLine
 10
2.945689
 20
-0.530547
 30
2.687
 11
2.99714
 21
-0.561416
 31
2.687
  0
LINE
  5
460B1
100
AcDbEntity
  8
0
100
AcDbLine
 10
3.01086
 20
-0.616295
 30
2.687
 11
2.959233
 21
-0.702345
 31
2.687
  0
LINE
  5
460B2
100
AcDbEntity
  8
0
100
AcDbLine
 10
2.97656
 20
-0.595716
 30
2.687
 11
2.924933
 21
-0.681766
 31
2.687
  0
LINE
  5
460B3
100
AcDbEntity
  8
0
100
AcDbLine
 10
2.92511
 20
-0.564847
 30
2.687
 11
2.97656
 21
-0.595716
 31
2.687
  0
LINE
  5
460B4
100
AcDbEntity
  8
0
100
AcDbLine
 10
3.08289
 20
-0.612864
 30
2.687
 11
3.062311
 21
-0.647164
 31
2.687
  0
LINE
  5
460B5
100
AcDbEntity
  8
0
100
AcDbLine
 10
3.01086
 20
-0.616295
 30
2.687
 11
3.062311
 21
-0.647164
 31
2.687
  0
LINE
  5
460B6
100
AcDbEntity
  8
0
100
AcDbLine
 10
3.03144
 20
-0.581995
 30
2.687
 11
3.08289
 21
-0.612864
 31
2.687
  0
POLYLINE
  5
460B7
100
AcDbEntity
  8
0
100
AcDbPolygonMesh
 66
     1
 10
0.0
 20
0.0
 30
0.0
 70
    16
 71
     6
 72
     3
  0
VERTEX
  5
460B8
100
AcDbEntity
  8
0
100
AcDbVertex
100
AcDbPolygonMeshVertex
 10
6.373
 20
-0.808856
 30
3.445
 70
    64
  0
VERTEX
  5
460B9
100
AcDbEntity
  8
0
100
AcDbVertex
100
AcDbPolygonMeshVertex
 10
6.373
 20
-0.808856
 30
2.605
 70
    64
  0
VERTEX
  5
460BA
100
AcDbEntity
  8
0
100
AcDbVertex
100
AcDbPolygonMeshVertex
 10
6.373
 20
-0.808856
 30
2.605
 70
    64
  0
VERTEX
  5
460BB
100
AcDbEntity
  8
0
100
AcDbVertex
100
AcDbPolygonMeshVertex
 10
6.373
 20
-3.300856
 30
3.445
 70
    64
  0
VERTEX
  5
460BC
100
AcDbEntity
  8
0
100
AcDbVertex
100
AcDbPolygonMeshVertex
 10
6.373
 20
-3.300856
 30
2.605
 70
    64
  0
VERTEX
  5
460BD
100
AcDbEntity
  8
0
100
AcDbVertex
100
AcDbPolygonMeshVertex
 10
6.373
 20
-3.300856
 30
2.605
 70
    64
  0
VERTEX
  5
460BE
100
AcDbEntity
  8
0
100
AcDbVertex
100
AcDbPolygonMeshVertex
 10
5.273
 20
-3.300856
 30
3.445
 70
    64
  0
VERTEX
  5
460BF
100
AcDbEntity
  8
0
100
AcDbVertex
100
AcDbPolygonMeshVertex
 10
5.273
 20
-3.300856
 30
2.605
 70
    64
  0
VERTEX
  5
460C0
100
AcDbEntity
  8
0
100
AcDbVertex
100
AcDbPolygonMeshVertex
 10
6.373
 20
-3.300856
 30
2.605
 70
    64
  0
VERTEX
  5
460C1
100
AcDbEntity
  8
0
100
AcDbVertex
100
AcDbPolygonMeshVertex
 10
5.273
 20
-0.808856
 30
3.445
 70
    64
  0
VERTEX
  5
460C2
100
AcDbEntity
  8
0
100
AcDbVertex
100
AcDbPolygonMeshVertex
 10
5.273
 20
-0.808856
 30
2.605
 70
    64
  0
VERTEX
  5
460C3
100
AcDbEntity
  8
0
100
AcDbVertex
100
AcDbPolygonMeshVertex
 10
6.373
 20
-0.808856
 30
2.605
 70
    64
  0
VERTEX
  5
460C4
100
AcDbEntity
  8
0
100
AcDbVertex
100
AcDbPolygonMeshVertex
 10
5.273
 20
-0.808856
 30
3.445
 70
    64
  0
VERTEX
  5
460C5
100
AcDbEntity
  8
0
100
AcDbVertex
100
AcDbPolygonMeshVertex
 10
5.273
 20
-0.808856
 30
3.445
 70
    64
  0
VERTEX
  5
460C6
100
AcDbEntity
  8
0
100
AcDbVertex
100
AcDbPolygonMeshVertex
 10
6.373
 20
-0.808856
 30
3.445
 70
    64
  0
VERTEX
  5
460C7
100
AcDbEntity
  8
0
100
AcDbVertex
100
AcDbPolygonMeshVertex
 10
5.273
 20
-3.300856
 30
3.445
 70
    64
  0
VERTEX
  5
460C8
100
AcDbEntity
  8
0
100
AcDbVertex
100
AcDbPolygonMeshVertex
 10
5.273
 20
-3.300856
 30
3.445
 70
    64
  0
VERTEX
  5
460C9
100
AcDbEntity
  8
0
100
AcDbVertex
100
AcDbPolygonMeshVertex
 10
6.373
 20
-3.300856
 30
3.445
 70
    64
  0
SEQEND
  5
460CA
100
AcDbEntity
  8
0
  0
3DFACE
  5
460CB
100
AcDbEntity
  8
0
100
AcDbFace
 10
5.273
 20
-4.750856
 30
2.605
 11
6.373
 21
-4.750856
 31
2.605
 12
6.373
 22
-4.050856
 32
3.445
 13
5.273
 23
-4.050856
 33
3.445
  0
POLYLINE
  5
460CC
100
AcDbEntity
  8
0
100
AcDbPolygonMesh
 66
     1
 10
0.0
 20
0.0
 30
0.0
 70
    16
 71
     6
 72
     3
  0
VERTEX
  5
460CD
100
AcDbEntity
  8
0
100
AcDbVertex
100
AcDbPolygonMeshVertex
 10
6.373
 20
-3.300856
 30
3.445
 70
    64
  0
VERTEX
  5
460CE
100
AcDbEntity
  8
0
100
AcDbVertex
100
AcDbPolygonMeshVertex
 10
6.373
 20
-3.300856
 30
2.605
 70
    64
  0
VERTEX
  5
460CF
100
AcDbEntity
  8
0
100
AcDbVertex
100
AcDbPolygonMeshVertex
 10
6.373
 20
-3.300856
 30
2.605
 70
    64
  0
VERTEX
  5
460D0
100
AcDbEntity
  8
0
100
AcDbVertex
100
AcDbPolygonMeshVertex
 10
6.373
 20
-4.050856
 30
3.445
 70
    64
  0
VERTEX
  5
460D1
100
AcDbEntity
  8
0
100
AcDbVertex
100
AcDbPolygonMeshVertex
 10
6.373
 20
-4.750856
 30
2.605
 70
    64
  0
VERTEX
  5
460D2
100
AcDbEntity
  8
0
100
AcDbVertex
100
AcDbPolygonMeshVertex
 10
6.373
 20
-4.750856
 30
2.605
 70
    64
  0
VERTEX
  5
460D3
100
AcDbEntity
  8
0
100
AcDbVertex
100
AcDbPolygonMeshVertex
 10
6.373
 20
-4.050856
 30
3.445
 70
    64
  0
VERTEX
  5
460D4
100
AcDbEntity
  8
0
100
AcDbVertex
100
AcDbPolygonMeshVertex
 10
6.373
 20
-4.750856
 30
2.605
 70
    64
  0
VERTEX
  5
460D5
100
AcDbEntity
  8
0
100
AcDbVertex
100
AcDbPolygonMeshVertex
 10
6.373
 20
-4.750856
 30
2.605
 70
    64
  0
VERTEX
  5
460D6
100
AcDbEntity
  8
0
100
AcDbVertex
100
AcDbPolygonMeshVertex
 10
6.373
 20
-3.300856
 30
3.445
 70
    64
  0
VERTEX
  5
460D7
100
AcDbEntity
  8
0
100
AcDbVertex
100
AcDbPolygonMeshVertex
 10
6.373
 20
-3.300856
 30
2.605
 70
    64
  0
VERTEX
  5
460D8
100
AcDbEntity
  8
0
100
AcDbVertex
100
AcDbPolygonMeshVertex
 10
6.373
 20
-3.300856
 30
2.605
 70
    64
  0
VERTEX
  5
460D9
100
AcDbEntity
  8
0
100
AcDbVertex
100
AcDbPolygonMeshVertex
 10
6.373
 20
-3.300856
 30
3.445
 70
    64
  0
VERTEX
  5
460DA
100
AcDbEntity
  8
0
100
AcDbVertex
100
AcDbPolygonMeshVertex
 10
6.373
 20
-3.300856
 30
3.445
 70
    64
  0
VERTEX
  5
460DB
100
AcDbEntity
  8
0
100
AcDbVertex
100
AcDbPolygonMeshVertex
 10
6.373
 20
-3.300856
 30
3.445
 70
    64
  0
VERTEX
  5
460DC
100
AcDbEntity
  8
0
100
AcDbVertex
100
AcDbPolygonMeshVertex
 10
6.373
 20
-4.050856
 30
3.445
 70
    64
  0
VERTEX
  5
460DD
100
AcDbEntity
  8
0
100
AcDbVertex
100
AcDbPolygonMeshVertex
 10
6.373
 20
-4.050856
 30
3.445
 70
    64
  0
VERTEX
  5
460DE
100
AcDbEntity
  8
0
100
AcDbVertex
100
AcDbPolygonMeshVertex
 10
6.373
 20
-4.050856
 30
3.445
 70
    64
  0
SEQEND
  5
460DF
100
AcDbEntity
  8
0
  0
POLYLINE
  5
460E0
100
AcDbEntity
  8
0
100
AcDbPolygonMesh
 66
     1
 10
0.0
 20
0.0
 30
0.0
 70
    16
 71
     6
 72
     3
  0
VERTEX
  5
460E1
100
AcDbEntity
  8
0
100
AcDbVertex
100
AcDbPolygonMeshVertex
 10
5.273
 20
-4.050856
 30
3.445
 70
    64
  0
VERTEX
  5
460E2
100
AcDbEntity
  8
0
100
AcDbVertex
100
AcDbPolygonMeshVertex
 10
5.273
 20
-4.750856
 30
2.605
 70
    64
  0
VERTEX
  5
460E3
100
AcDbEntity
  8
0
100
AcDbVertex
100
AcDbPolygonMeshVertex
 10
5.273
 20
-4.750856
 30
2.605
 70
    64
  0
VERTEX
  5
460E4
100
AcDbEntity
  8
0
100
AcDbVertex
100
AcDbPolygonMeshVertex
 10
5.273
 20
-4.050856
 30
3.445
 70
    64
  0
VERTEX
  5
460E5
100
AcDbEntity
  8
0
100
AcDbVertex
100
AcDbPolygonMeshVertex
 10
5.273
 20
-4.050856
 30
2.605
 70
    64
  0
VERTEX
  5
460E6
100
AcDbEntity
  8
0
100
AcDbVertex
100
AcDbPolygonMeshVertex
 10
5.273
 20
-4.050856
 30
2.605
 70
    64
  0
VERTEX
  5
460E7
100
AcDbEntity
  8
0
100
AcDbVertex
100
AcDbPolygonMeshVertex
 10
5.273
 20
-4.750856
 30
2.605
 70
    64
  0
VERTEX
  5
460E8
100
AcDbEntity
  8
0
100
AcDbVertex
100
AcDbPolygonMeshVertex
 10
5.273
 20
-4.750856
 30
2.605
 70
    64
  0
VERTEX
  5
460E9
100
AcDbEntity
  8
0
100
AcDbVertex
100
AcDbPolygonMeshVertex
 10
5.273
 20
-4.050856
 30
2.605
 70
    64
  0
VERTEX
  5
460EA
100
AcDbEntity
  8
0
100
AcDbVertex
100
AcDbPolygonMeshVertex
 10
5.273
 20
-4.750856
 30
2.605
 70
    64
  0
VERTEX
  5
460EB
100
AcDbEntity
  8
0
100
AcDbVertex
100
AcDbPolygonMeshVertex
 10
5.273
 20
-4.750856
 30
2.605
 70
    64
  0
VERTEX
  5
460EC
100
AcDbEntity
  8
0
100
AcDbVertex
100
AcDbPolygonMeshVertex
 10
5.273
 20
-4.750856
 30
2.605
 70
    64
  0
VERTEX
  5
460ED
100
AcDbEntity
  8
0
100
AcDbVertex
100
AcDbPolygonMeshVertex
 10
5.273
 20
-4.750856
 30
2.605
 70
    64
  0
VERTEX
  5
460EE
100
AcDbEntity
  8
0
100
AcDbVertex
100
AcDbPolygonMeshVertex
 10
5.273
 20
-4.750856
 30
2.605
 70
    64
  0
VERTEX
  5
460EF
100
AcDbEntity
  8
0
100
AcDbVertex
100
AcDbPolygonMeshVertex
 10
5.273
 20
-4.050856
 30
3.445
 70
    64
  0
VERTEX
  5
460F0
100
AcDbEntity
  8
0
100
AcDbVertex
100
AcDbPolygonMeshVertex
 10
5.273
 20
-4.750856
 30
2.605
 70
    64
  0
VERTEX
  5
460F1
100
AcDbEntity
  8
0
100
AcDbVertex
100
AcDbPolygonMeshVertex
 10
5.273
 20
-4.750856
 30
2.605
 70
    64
  0
VERTEX
  5
460F2
100
AcDbEntity
  8
0
100
AcDbVertex
100
AcDbPolygonMeshVertex
 10
5.273
 20
-4.050856
 30
3.445
 70
    64
  0
SEQEND
  5
460F3
100
AcDbEntity
  8
0
  0
LINE
  5
460F4
100
AcDbEntity
  8
0
100
AcDbLine
 10
5.273
 20
-4.050856
 30
3.445
 11
5.273
 21
-4.750856
 31
2.605
  0
LINE
  5
460F5
100
AcDbEntity
  8
0
100
AcDbLine
 10
6.373
 20
-4.750856
 30
2.605
 11
6.373
 21
-4.050856
 31
3.445
  0
LINE
  5
460F6
100
AcDbEntity
  8
0
100
AcDbLine
 10
4.64289
 20
-4.246847
 30
2.687
 11
4.622311
 21
-4.212547
 31
2.687
  0
LINE
  5
460F7
100
AcDbEntity
  8
0
100
AcDbLine
 10
4.643067
 20
-4.363766
 30
2.687
 11
4.59144
 21
-4.277716
 31
2.687
  0
CIRCLE
  5
460F8
100
AcDbEntity
  8
0
100
AcDbCircle
 10
4.564
 20
-4.270856
 30
2.687
 40
0.122
  0
LINE
  5
460F9
100
AcDbEntity
  8
0
100
AcDbLine
 10
4.59144
 20
-4.277716
 30
2.687
 11
4.64289
 21
-4.246847
 31
2.687
  0
CIRCLE
  5
460FA
100
AcDbEntity
  8
0
100
AcDbCircle
 10
4.759
 20
-4.571856
 30
2.371
 40
0.122
  0
LINE
  5
460FB
100
AcDbEntity
  8
0
100
AcDbLine
 10
3.920689
 20
-4.630164
 30
2.371
 11
3.90011
 21
-4.595864
 31
2.371
  0
LINE
  5
460FC
100
AcDbEntity
  8
0
100
AcDbLine
 10
3.95156
 20
-4.564995
 30
2.371
 11
3.899933
 21
-4.478945
 31
2.371
  0
CIRCLE
  5
460FD
100
AcDbEntity
  8
0
100
AcDbCircle
 10
3.979
 20
-4.571856
 30
2.371
 40
0.122
  0
LINE
  5
460FE
100
AcDbEntity
  8
0
100
AcDbLine
 10
3.90011
 20
-4.595864
 30
2.371
 11
3.95156
 21
-4.564995
 31
2.371
  0
LINE
  5
460FF
100
AcDbEntity
  8
0
100
AcDbLine
 10
3.321
 20
-4.571856
 30
2.371
 11
3.321
 21
-4.351856
 31
2.371
  0
LINE
  5
46100
100
AcDbEntity
  8
0
100
AcDbLine
 10
3.467
 20
-4.571856
 30
2.371
 11
3.467
 21
-4.351856
 31
2.371
  0
LINE
  5
46101
100
AcDbEntity
  8
0
100
AcDbLine
 10
3.711
 20
-4.571856
 30
2.371
 11
3.711
 21
-4.351856
 31
2.371
  0
LINE
  5
46102
100
AcDbEntity
  8
0
100
AcDbLine
 10
3.857
 20
-4.571856
 30
2.371
 11
3.857
 21
-4.351856
 31
2.371
  0
LINE
  5
46103
100
AcDbEntity
  8
0
100
AcDbLine
 10
3.56156
 20
-4.564995
 30
2.371
 11
3.509933
 21
-4.478945
 31
2.371
  0
LINE
  5
46104
100
AcDbEntity
  8
0
100
AcDbLine
 10
3.530689
 20
-4.630164
 30
2.371
 11
3.58214
 21
-4.599295
 31
2.371
  0
CIRCLE
  5
46105
100
AcDbEntity
  8
0
100
AcDbCircle
 10
3.589
 20
-4.571856
 30
2.371
 40
0.122
  0
LINE
  5
46106
100
AcDbEntity
  8
0
100
AcDbLine
 10
3.51011
 20
-4.595864
 30
2.371
 11
3.56156
 21
-4.564995
 31
2.371
  0
LINE
  5
46107
100
AcDbEntity
  8
0
100
AcDbLine
 10
3.243767
 20
-4.685345
 30
2.371
 11
3.19214
 21
-4.599295
 31
2.371
  0
LINE
  5
46108
100
AcDbEntity
  8
0
100
AcDbLine
 10
3.22644
 20
-4.578716
 30
2.371
 11
3.27789
 21
-4.547847
 31
2.371
  0
LINE
  5
46109
100
AcDbEntity
  8
0
100
AcDbLine
 10
3.27789
 20
-4.547847
 30
2.371
 11
3.257311
 21
-4.513547
 31
2.371
  0
LINE
  5
4610A
100
AcDbEntity
  8
0
100
AcDbLine
 10
3.20586
 20
-4.544416
 30
2.371
 11
3.257311
 21
-4.513547
 31
2.371
  0
LINE
  5
4610B
100
AcDbEntity
  8
0
100
AcDbLine
 10
3.278067
 20
-4.664766
 30
2.371
 11
3.22644
 21
-4.578716
 31
2.371
  0
LINE
  5
4610C
100
AcDbEntity
  8
0
100
AcDbLine
 10
3.530689
 20
-4.630164
 30
2.371
 11
3.51011
 21
-4.595864
 31
2.371
  0
LINE
  5
4610D
100
AcDbEntity
  8
0
100
AcDbLine
 10
3.633767
 20
-4.685345
 30
2.371
 11
3.58214
 21
-4.599295
 31
2.371
  0
LINE
  5
4610E
100
AcDbEntity
  8
0
100
AcDbLine
 10
3.59586
 20
-4.544416
 30
2.371
 11
3.544233
 21
-4.458366
 31
2.371
  0
LINE
  5
4610F
100
AcDbEntity
  8
0
100
AcDbLine
 10
3.59586
 20
-4.544416
 30
2.371
 11
3.647311
 21
-4.513547
 31
2.371
  0
LINE
  5
46110
100
AcDbEntity
  8
0
100
AcDbLine
 10
3.61644
 20
-4.578716
 30
2.371
 11
3.66789
 21
-4.547847
 31
2.371
  0
LINE
  5
46111
100
AcDbEntity
  8
0
100
AcDbLine
 10
3.66789
 20
-4.547847
 30
2.371
 11
3.647311
 21
-4.513547
 31
2.371
  0
LINE
  5
46112
100
AcDbEntity
  8
0
100
AcDbLine
 10
3.668067
 20
-4.664766
 30
2.371
 11
3.61644
 21
-4.578716
 31
2.371
  0
LINE
  5
46113
100
AcDbEntity
  8
0
100
AcDbLine
 10
4.101
 20
-4.571856
 30
2.371
 11
4.101
 21
-4.351856
 31
2.371
  0
LINE
  5
46114
100
AcDbEntity
  8
0
100
AcDbLine
 10
4.247
 20
-4.571856
 30
2.371
 11
4.247
 21
-4.351856
 31
2.371
  0
LINE
  5
46115
100
AcDbEntity
  8
0
100
AcDbLine
 10
4.491
 20
-4.571856
 30
2.371
 11
4.491
 21
-4.351856
 31
2.371
  0
LINE
  5
46116
100
AcDbEntity
  8
0
100
AcDbLine
 10
4.637
 20
-4.571856
 30
2.371
 11
4.637
 21
-4.351856
 31
2.371
  0
CIRCLE
  5
46117
100
AcDbEntity
  8
0
100
AcDbCircle
 10
4.369
 20
-4.571856
 30
2.371
 40
0.122
  0
LINE
  5
46118
100
AcDbEntity
  8
0
100
AcDbLine
 10
4.023767
 20
-4.685345
 30
2.371
 11
3.97214
 21
-4.599295
 31
2.371
  0
LINE
  5
46119
100
AcDbEntity
  8
0
100
AcDbLine
 10
4.00644
 20
-4.578716
 30
2.371
 11
4.05789
 21
-4.547847
 31
2.371
  0
LINE
  5
4611A
100
AcDbEntity
  8
0
100
AcDbLine
 10
4.05789
 20
-4.547847
 30
2.371
 11
4.037311
 21
-4.513547
 31
2.371
  0
LINE
  5
4611B
100
AcDbEntity
  8
0
100
AcDbLine
 10
3.98586
 20
-4.544416
 30
2.371
 11
4.037311
 21
-4.513547
 31
2.371
  0
LINE
  5
4611C
100
AcDbEntity
  8
0
100
AcDbLine
 10
4.058067
 20
-4.664766
 30
2.371
 11
4.00644
 21
-4.578716
 31
2.371
  0
LINE
  5
4611D
100
AcDbEntity
  8
0
100
AcDbLine
 10
3.920689
 20
-4.630164
 30
2.371
 11
3.97214
 21
-4.599295
 31
2.371
  0
LINE
  5
4611E
100
AcDbEntity
  8
0
100
AcDbLine
 10
3.98586
 20
-4.544416
 30
2.371
 11
3.934233
 21
-4.458366
 31
2.371
  0
LINE
  5
4611F
100
AcDbEntity
  8
0
100
AcDbLine
 10
4.413767
 20
-4.685345
 30
2.371
 11
4.36214
 21
-4.599295
 31
2.371
  0
LINE
  5
46120
100
AcDbEntity
  8
0
100
AcDbLine
 10
4.39644
 20
-4.578716
 30
2.371
 11
4.44789
 21
-4.547847
 31
2.371
  0
LINE
  5
46121
100
AcDbEntity
  8
0
100
AcDbLine
 10
4.34156
 20
-4.564995
 30
2.371
 11
4.289933
 21
-4.478945
 31
2.371
  0
LINE
  5
46122
100
AcDbEntity
  8
0
100
AcDbLine
 10
4.37586
 20
-4.544416
 30
2.371
 11
4.427311
 21
-4.513547
 31
2.371
  0
LINE
  5
46123
100
AcDbEntity
  8
0
100
AcDbLine
 10
4.44789
 20
-4.547847
 30
2.371
 11
4.427311
 21
-4.513547
 31
2.371
  0
LINE
  5
46124
100
AcDbEntity
  8
0
100
AcDbLine
 10
4.37586
 20
-4.544416
 30
2.371
 11
4.324233
 21
-4.458366
 31
2.371
  0
LINE
  5
46125
100
AcDbEntity
  8
0
100
AcDbLine
 10
4.310689
 20
-4.630164
 30
2.371
 11
4.29011
 21
-4.595864
 31
2.371
  0
LINE
  5
46126
100
AcDbEntity
  8
0
100
AcDbLine
 10
4.310689
 20
-4.630164
 30
2.371
 11
4.36214
 21
-4.599295
 31
2.371
  0
LINE
  5
46127
100
AcDbEntity
  8
0
100
AcDbLine
 10
4.448067
 20
-4.664766
 30
2.371
 11
4.39644
 21
-4.578716
 31
2.371
  0
LINE
  5
46128
100
AcDbEntity
  8
0
100
AcDbLine
 10
4.29011
 20
-4.595864
 30
2.371
 11
4.34156
 21
-4.564995
 31
2.371
  0
LINE
  5
46129
100
AcDbEntity
  8
0
100
AcDbLine
 10
3.40086
 20
-4.243416
 30
2.687
 11
3.349233
 21
-4.157366
 31
2.687
  0
CIRCLE
  5
4612A
100
AcDbEntity
  8
0
100
AcDbCircle
 10
3.394
 20
-4.270856
 30
2.687
 40
0.122
  0
LINE
  5
4612B
100
AcDbEntity
  8
0
100
AcDbLine
 10
3.516
 20
-4.270856
 30
2.687
 11
3.516
 21
-4.050856
 31
2.687
  0
LINE
  5
4612C
100
AcDbEntity
  8
0
100
AcDbLine
 10
3.272
 20
-4.270856
 30
2.687
 11
3.272
 21
-4.050856
 31
2.687
  0
LINE
  5
4612D
100
AcDbEntity
  8
0
100
AcDbLine
 10
3.36656
 20
-4.263995
 30
2.687
 11
3.314933
 21
-4.177945
 31
2.687
  0
LINE
  5
4612E
100
AcDbEntity
  8
0
100
AcDbLine
 10
3.31511
 20
-4.294864
 30
2.687
 11
3.36656
 21
-4.263995
 31
2.687
  0
LINE
  5
4612F
100
AcDbEntity
  8
0
100
AcDbLine
 10
3.335689
 20
-4.329164
 30
2.687
 11
3.38714
 21
-4.298295
 31
2.687
  0
LINE
  5
46130
100
AcDbEntity
  8
0
100
AcDbLine
 10
3.335689
 20
-4.329164
 30
2.687
 11
3.31511
 21
-4.294864
 31
2.687
  0
LINE
  5
46131
100
AcDbEntity
  8
0
100
AcDbLine
 10
3.40086
 20
-4.243416
 30
2.687
 11
3.452311
 21
-4.212547
 31
2.687
  0
LINE
  5
46132
100
AcDbEntity
  8
0
100
AcDbLine
 10
3.47289
 20
-4.246847
 30
2.687
 11
3.452311
 21
-4.212547
 31
2.687
  0
LINE
  5
46133
100
AcDbEntity
  8
0
100
AcDbLine
 10
3.473067
 20
-4.363766
 30
2.687
 11
3.42144
 21
-4.277716
 31
2.687
  0
LINE
  5
46134
100
AcDbEntity
  8
0
100
AcDbLine
 10
3.438767
 20
-4.384345
 30
2.687
 11
3.38714
 21
-4.298295
 31
2.687
  0
LINE
  5
46135
100
AcDbEntity
  8
0
100
AcDbLine
 10
3.42144
 20
-4.277716
 30
2.687
 11
3.47289
 21
-4.246847
 31
2.687
  0
LINE
  5
46136
100
AcDbEntity
  8
0
100
AcDbLine
 10
3.79086
 20
-4.243416
 30
2.687
 11
3.739233
 21
-4.157366
 31
2.687
  0
CIRCLE
  5
46137
100
AcDbEntity
  8
0
100
AcDbCircle
 10
3.784
 20
-4.270856
 30
2.687
 40
0.122
  0
LINE
  5
46138
100
AcDbEntity
  8
0
100
AcDbLine
 10
3.906
 20
-4.270856
 30
2.687
 11
3.906
 21
-4.050856
 31
2.687
  0
LINE
  5
46139
100
AcDbEntity
  8
0
100
AcDbLine
 10
3.662
 20
-4.270856
 30
2.687
 11
3.662
 21
-4.050856
 31
2.687
  0
LINE
  5
4613A
100
AcDbEntity
  8
0
100
AcDbLine
 10
3.75656
 20
-4.263995
 30
2.687
 11
3.704933
 21
-4.177945
 31
2.687
  0
LINE
  5
4613B
100
AcDbEntity
  8
0
100
AcDbLine
 10
3.70511
 20
-4.294864
 30
2.687
 11
3.75656
 21
-4.263995
 31
2.687
  0
LINE
  5
4613C
100
AcDbEntity
  8
0
100
AcDbLine
 10
3.725689
 20
-4.329164
 30
2.687
 11
3.70511
 21
-4.294864
 31
2.687
  0
LINE
  5
4613D
100
AcDbEntity
  8
0
100
AcDbLine
 10
3.79086
 20
-4.243416
 30
2.687
 11
3.842311
 21
-4.212547
 31
2.687
  0
LINE
  5
4613E
100
AcDbEntity
  8
0
100
AcDbLine
 10
3.86289
 20
-4.246847
 30
2.687
 11
3.842311
 21
-4.212547
 31
2.687
  0
LINE
  5
4613F
100
AcDbEntity
  8
0
100
AcDbLine
 10
3.725689
 20
-4.329164
 30
2.687
 11
3.77714
 21
-4.298295
 31
2.687
  0
LINE
  5
46140
100
AcDbEntity
  8
0
100
AcDbLine
 10
3.863067
 20
-4.363766
 30
2.687
 11
3.81144
 21
-4.277716
 31
2.687
  0
LINE
  5
46141
100
AcDbEntity
  8
0
100
AcDbLine
 10
3.828767
 20
-4.384345
 30
2.687
 11
3.77714
 21
-4.298295
 31
2.687
  0
LINE
  5
46142
100
AcDbEntity
  8
0
100
AcDbLine
 10
3.81144
 20
-4.277716
 30
2.687
 11
3.86289
 21
-4.246847
 31
2.687
  0
CIRCLE
  5
46143
100
AcDbEntity
  8
0
100
AcDbCircle
 10
4.174
 20
-4.270856
 30
2.687
 40
0.122
  0
LINE
  5
46144
100
AcDbEntity
  8
0
100
AcDbLine
 10
4.18086
 20
-4.243416
 30
2.687
 11
4.129233
 21
-4.157366
 31
2.687
  0
LINE
  5
46145
100
AcDbEntity
  8
0
100
AcDbLine
 10
4.052
 20
-4.270856
 30
2.687
 11
4.052
 21
-4.050856
 31
2.687
  0
LINE
  5
46146
100
AcDbEntity
  8
0
100
AcDbLine
 10
4.14656
 20
-4.263995
 30
2.687
 11
4.094933
 21
-4.177945
 31
2.687
  0
LINE
  5
46147
100
AcDbEntity
  8
0
100
AcDbLine
 10
4.25289
 20
-4.246847
 30
2.687
 11
4.232311
 21
-4.212547
 31
2.687
  0
LINE
  5
46148
100
AcDbEntity
  8
0
100
AcDbLine
 10
4.18086
 20
-4.243416
 30
2.687
 11
4.232311
 21
-4.212547
 31
2.687
  0
LINE
  5
46149
100
AcDbEntity
  8
0
100
AcDbLine
 10
4.09511
 20
-4.294864
 30
2.687
 11
4.14656
 21
-4.263995
 31
2.687
  0
LINE
  5
4614A
100
AcDbEntity
  8
0
100
AcDbLine
 10
4.115689
 20
-4.329164
 30
2.687
 11
4.16714
 21
-4.298295
 31
2.687
  0
LINE
  5
4614B
100
AcDbEntity
  8
0
100
AcDbLine
 10
4.218767
 20
-4.384345
 30
2.687
 11
4.16714
 21
-4.298295
 31
2.687
  0
LINE
  5
4614C
100
AcDbEntity
  8
0
100
AcDbLine
 10
4.115689
 20
-4.329164
 30
2.687
 11
4.09511
 21
-4.294864
 31
2.687
  0
LINE
  5
4614D
100
AcDbEntity
  8
0
100
AcDbLine
 10
4.253067
 20
-4.363766
 30
2.687
 11
4.20144
 21
-4.277716
 31
2.687
  0
LINE
  5
4614E
100
AcDbEntity
  8
0
100
AcDbLine
 10
4.20144
 20
-4.277716
 30
2.687
 11
4.25289
 21
-4.246847
 31
2.687
  0
LINE
  5
4614F
100
AcDbEntity
  8
0
100
AcDbLine
 10
4.57086
 20
-4.243416
 30
2.687
 11
4.519233
 21
-4.157366
 31
2.687
  0
LINE
  5
46150
100
AcDbEntity
  8
0
100
AcDbLine
 10
4.53656
 20
-4.263995
 30
2.687
 11
4.484933
 21
-4.177945
 31
2.687
  0
LINE
  5
46151
100
AcDbEntity
  8
0
100
AcDbLine
 10
4.442
 20
-4.270856
 30
2.687
 11
4.442
 21
-4.050856
 31
2.687
  0
LINE
  5
46152
100
AcDbEntity
  8
0
100
AcDbLine
 10
4.296
 20
-4.270856
 30
2.687
 11
4.296
 21
-4.050856
 31
2.687
  0
LINE
  5
46153
100
AcDbEntity
  8
0
100
AcDbLine
 10
4.57086
 20
-4.243416
 30
2.687
 11
4.622311
 21
-4.212547
 31
2.687
  0
LINE
  5
46154
100
AcDbEntity
  8
0
100
AcDbLine
 10
4.608767
 20
-4.384345
 30
2.687
 11
4.55714
 21
-4.298295
 31
2.687
  0
LINE
  5
46155
100
AcDbEntity
  8
0
100
AcDbLine
 10
4.505689
 20
-4.329164
 30
2.687
 11
4.55714
 21
-4.298295
 31
2.687
  0
LINE
  5
46156
100
AcDbEntity
  8
0
100
AcDbLine
 10
4.48511
 20
-4.294864
 30
2.687
 11
4.53656
 21
-4.263995
 31
2.687
  0
LINE
  5
46157
100
AcDbEntity
  8
0
100
AcDbLine
 10
4.505689
 20
-4.329164
 30
2.687
 11
4.48511
 21
-4.294864
 31
2.687
  0
CIRCLE
  5
46158
100
AcDbEntity
  8
0
100
AcDbCircle
 10
5.823
 20
-3.759916
 30
2.605
 40
0.19
  0
CIRCLE
  5
46159
100
AcDbEntity
  8
0
100
AcDbCircle
 10
5.823
 20
-3.759916
 30
2.605
 40
0.264
  0
LINE
  5
4615A
100
AcDbEntity
  8
0
100
AcDbLine
 10
4.881
 20
-4.571856
 30
2.371
 11
4.881
 21
-4.351856
 31
2.371
  0
LINE
  5
4615B
100
AcDbEntity
  8
0
100
AcDbLine
 10
4.803767
 20
-4.685345
 30
2.371
 11
4.75214
 21
-4.599295
 31
2.371
  0
LINE
  5
4615C
100
AcDbEntity
  8
0
100
AcDbLine
 10
4.78644
 20
-4.578716
 30
2.371
 11
4.83789
 21
-4.547847
 31
2.371
  0
LINE
  5
4615D
100
AcDbEntity
  8
0
100
AcDbLine
 10
4.83789
 20
-4.547847
 30
2.371
 11
4.817311
 21
-4.513547
 31
2.371
  0
LINE
  5
4615E
100
AcDbEntity
  8
0
100
AcDbLine
 10
4.838067
 20
-4.664766
 30
2.371
 11
4.78644
 21
-4.578716
 31
2.371
  0
LINE
  5
4615F
100
AcDbEntity
  8
0
100
AcDbLine
 10
4.73156
 20
-4.564995
 30
2.371
 11
4.679933
 21
-4.478945
 31
2.371
  0
LINE
  5
46160
100
AcDbEntity
  8
0
100
AcDbLine
 10
4.76586
 20
-4.544416
 30
2.371
 11
4.714233
 21
-4.458366
 31
2.371
  0
LINE
  5
46161
100
AcDbEntity
  8
0
100
AcDbLine
 10
4.76586
 20
-4.544416
 30
2.371
 11
4.817311
 21
-4.513547
 31
2.371
  0
LINE
  5
46162
100
AcDbEntity
  8
0
100
AcDbLine
 10
4.700689
 20
-4.630164
 30
2.371
 11
4.68011
 21
-4.595864
 31
2.371
  0
LINE
  5
46163
100
AcDbEntity
  8
0
100
AcDbLine
 10
4.700689
 20
-4.630164
 30
2.371
 11
4.75214
 21
-4.599295
 31
2.371
  0
LINE
  5
46164
100
AcDbEntity
  8
0
100
AcDbLine
 10
4.68011
 20
-4.595864
 30
2.371
 11
4.73156
 21
-4.564995
 31
2.371
  0
LINE
  5
46165
100
AcDbEntity
  8
0
100
AcDbLine
 10
4.686
 20
-4.270856
 30
2.687
 11
4.686
 21
-4.050856
 31
2.687
  0
LINE
  5
46166
100
AcDbEntity
  8
0
100
AcDbLine
 10
5.94596
 20
-3.615068
 30
2.605
 11
5.94596
 21
-3.904763
 31
2.605
  0
3DFACE
  5
46167
100
AcDbEntity
  8
0
100
AcDbFace
 10
6.373
 20
-3.300856
 30
3.445
 11
6.373
 21
-4.050856
 31
3.445
 12
5.273
 22
-4.050856
 32
3.445
 13
5.273
 23
-3.300856
 33
3.445
  0
LINE
  5
46168
100
AcDbEntity
  8
0
100
AcDbLine
 10
6.373
 20
-4.050856
 30
3.445
 11
5.273
 21
-4.050856
 31
3.445
  0
LINE
  5
46169
100
AcDbEntity
  8
0
100
AcDbLine
 10
6.373
 20
-4.050856
 30
3.445
 11
6.373
 21
-3.300856
 31
3.445
  0
POLYLINE
  5
4616A
100
AcDbEntity
  8
0
100
AcDbPolygonMesh
 66
     1
 10
0.0
 20
0.0
 30
0.0
 70
    16
 71
     6
 72
     3
  0
VERTEX
  5
4616B
100
AcDbEntity
  8
0
100
AcDbVertex
100
AcDbPolygonMeshVertex
 10
6.373
 20
-0.808856
 30
3.445
 70
    64
  0
VERTEX
  5
4616C
100
AcDbEntity
  8
0
100
AcDbVertex
100
AcDbPolygonMeshVertex
 10
6.373
 20
-0.108856
 30
2.605
 70
    64
  0
VERTEX
  5
4616D
100
AcDbEntity
  8
0
100
AcDbVertex
100
AcDbPolygonMeshVertex
 10
6.373
 20
-0.108856
 30
2.605
 70
    64
  0
VERTEX
  5
4616E
100
AcDbEntity
  8
0
100
AcDbVertex
100
AcDbPolygonMeshVertex
 10
6.373
 20
-0.808856
 30
3.445
 70
    64
  0
VERTEX
  5
4616F
100
AcDbEntity
  8
0
100
AcDbVertex
100
AcDbPolygonMeshVertex
 10
6.373
 20
-0.808856
 30
2.605
 70
    64
  0
VERTEX
  5
46170
100
AcDbEntity
  8
0
100
AcDbVertex
100
AcDbPolygonMeshVertex
 10
6.373
 20
-0.808856
 30
2.605
 70
    64
  0
VERTEX
  5
46171
100
AcDbEntity
  8
0
100
AcDbVertex
100
AcDbPolygonMeshVertex
 10
5.273
 20
-0.808856
 30
3.445
 70
    64
  0
VERTEX
  5
46172
100
AcDbEntity
  8
0
100
AcDbVertex
100
AcDbPolygonMeshVertex
 10
5.273
 20
-0.808856
 30
2.605
 70
    64
  0
VERTEX
  5
46173
100
AcDbEntity
  8
0
100
AcDbVertex
100
AcDbPolygonMeshVertex
 10
6.373
 20
-0.808856
 30
2.605
 70
    64
  0
VERTEX
  5
46174
100
AcDbEntity
  8
0
100
AcDbVertex
100
AcDbPolygonMeshVertex
 10
5.273
 20
-0.808856
 30
3.445
 70
    64
  0
VERTEX
  5
46175
100
AcDbEntity
  8
0
100
AcDbVertex
100
AcDbPolygonMeshVertex
 10
5.273
 20
-0.108856
 30
2.605
 70
    64
  0
VERTEX
  5
46176
100
AcDbEntity
  8
0
100
AcDbVertex
100
AcDbPolygonMeshVertex
 10
6.373
 20
-0.108856
 30
2.605
 70
    64
  0
VERTEX
  5
46177
100
AcDbEntity
  8
0
100
AcDbVertex
100
AcDbPolygonMeshVertex
 10
5.273
 20
-0.808856
 30
3.445
 70
    64
  0
VERTEX
  5
46178
100
AcDbEntity
  8
0
100
AcDbVertex
100
AcDbPolygonMeshVertex
 10
5.273
 20
-0.808856
 30
3.445
 70
    64
  0
VERTEX
  5
46179
100
AcDbEntity
  8
0
100
AcDbVertex
100
AcDbPolygonMeshVertex
 10
6.373
 20
-0.808856
 30
3.445
 70
    64
  0
VERTEX
  5
4617A
100
AcDbEntity
  8
0
100
AcDbVertex
100
AcDbPolygonMeshVertex
 10
5.273
 20
-0.808856
 30
3.445
 70
    64
  0
VERTEX
  5
4617B
100
AcDbEntity
  8
0
100
AcDbVertex
100
AcDbPolygonMeshVertex
 10
5.273
 20
-0.808856
 30
3.445
 70
    64
  0
VERTEX
  5
4617C
100
AcDbEntity
  8
0
100
AcDbVertex
100
AcDbPolygonMeshVertex
 10
6.373
 20
-0.808856
 30
3.445
 70
    64
  0
SEQEND
  5
4617D
100
AcDbEntity
  8
0
  0
CIRCLE
  5
4617E
100
AcDbEntity
  8
0
100
AcDbCircle
 10
4.759
 20
-0.287856
 30
2.371
 40
0.122
  0
LINE
  5
4617F
100
AcDbEntity
  8
0
100
AcDbLine
 10
4.59144
 20
-0.581995
 30
2.687
 11
4.64289
 21
-0.612864
 31
2.687
  0
CIRCLE
  5
46180
100
AcDbEntity
  8
0
100
AcDbCircle
 10
4.564
 20
-0.588856
 30
2.687
 40
0.122
  0
LINE
  5
46181
100
AcDbEntity
  8
0
100
AcDbLine
 10
4.643067
 20
-0.495945
 30
2.687
 11
4.59144
 21
-0.581995
 31
2.687
  0
LINE
  5
46182
100
AcDbEntity
  8
0
100
AcDbLine
 10
4.64289
 20
-0.612864
 30
2.687
 11
4.622311
 21
-0.647164
 31
2.687
  0
LINE
  5
46183
100
AcDbEntity
  8
0
100
AcDbLine
 10
3.920689
 20
-0.229547
 30
2.371
 11
3.90011
 21
-0.263847
 31
2.371
  0
LINE
  5
46184
100
AcDbEntity
  8
0
100
AcDbLine
 10
3.90011
 20
-0.263847
 30
2.371
 11
3.95156
 21
-0.294716
 31
2.371
  0
LINE
  5
46185
100
AcDbEntity
  8
0
100
AcDbLine
 10
3.95156
 20
-0.294716
 30
2.371
 11
3.899933
 21
-0.380766
 31
2.371
  0
CIRCLE
  5
46186
100
AcDbEntity
  8
0
100
AcDbCircle
 10
3.979
 20
-0.287856
 30
2.371
 40
0.122
  0
LINE
  5
46187
100
AcDbEntity
  8
0
100
AcDbLine
 10
3.530689
 20
-0.229547
 30
2.371
 11
3.58214
 21
-0.260416
 31
2.371
  0
LINE
  5
46188
100
AcDbEntity
  8
0
100
AcDbLine
 10
3.51011
 20
-0.263847
 30
2.371
 11
3.56156
 21
-0.294716
 31
2.371
  0
LINE
  5
46189
100
AcDbEntity
  8
0
100
AcDbLine
 10
3.56156
 20
-0.294716
 30
2.371
 11
3.509933
 21
-0.380766
 31
2.371
  0
CIRCLE
  5
4618A
100
AcDbEntity
  8
0
100
AcDbCircle
 10
3.589
 20
-0.287856
 30
2.371
 40
0.122
  0
LINE
  5
4618B
100
AcDbEntity
  8
0
100
AcDbLine
 10
3.22644
 20
-0.280995
 30
2.371
 11
3.27789
 21
-0.311864
 31
2.371
  0
LINE
  5
4618C
100
AcDbEntity
  8
0
100
AcDbLine
 10
3.321
 20
-0.287856
 30
2.371
 11
3.321
 21
-0.507856
 31
2.371
  0
LINE
  5
4618D
100
AcDbEntity
  8
0
100
AcDbLine
 10
3.20586
 20
-0.315295
 30
2.371
 11
3.257311
 21
-0.346164
 31
2.371
  0
LINE
  5
4618E
100
AcDbEntity
  8
0
100
AcDbLine
 10
3.27789
 20
-0.311864
 30
2.371
 11
3.257311
 21
-0.346164
 31
2.371
  0
LINE
  5
4618F
100
AcDbEntity
  8
0
100
AcDbLine
 10
3.467
 20
-0.287856
 30
2.371
 11
3.467
 21
-0.507856
 31
2.371
  0
LINE
  5
46190
100
AcDbEntity
  8
0
100
AcDbLine
 10
3.278067
 20
-0.194945
 30
2.371
 11
3.22644
 21
-0.280995
 31
2.371
  0
LINE
  5
46191
100
AcDbEntity
  8
0
100
AcDbLine
 10
3.243767
 20
-0.174366
 30
2.371
 11
3.19214
 21
-0.260416
 31
2.371
  0
LINE
  5
46192
100
AcDbEntity
  8
0
100
AcDbLine
 10
3.530689
 20
-0.229547
 30
2.371
 11
3.51011
 21
-0.263847
 31
2.371
  0
LINE
  5
46193
100
AcDbEntity
  8
0
100
AcDbLine
 10
3.61644
 20
-0.280995
 30
2.371
 11
3.66789
 21
-0.311864
 31
2.371
  0
LINE
  5
46194
100
AcDbEntity
  8
0
100
AcDbLine
 10
3.711
 20
-0.287856
 30
2.371
 11
3.711
 21
-0.507856
 31
2.371
  0
LINE
  5
46195
100
AcDbEntity
  8
0
100
AcDbLine
 10
3.59586
 20
-0.315295
 30
2.371
 11
3.647311
 21
-0.346164
 31
2.371
  0
LINE
  5
46196
100
AcDbEntity
  8
0
100
AcDbLine
 10
3.66789
 20
-0.311864
 30
2.371
 11
3.647311
 21
-0.346164
 31
2.371
  0
LINE
  5
46197
100
AcDbEntity
  8
0
100
AcDbLine
 10
3.59586
 20
-0.315295
 30
2.371
 11
3.544233
 21
-0.401345
 31
2.371
  0
LINE
  5
46198
100
AcDbEntity
  8
0
100
AcDbLine
 10
3.857
 20
-0.287856
 30
2.371
 11
3.857
 21
-0.507856
 31
2.371
  0
LINE
  5
46199
100
AcDbEntity
  8
0
100
AcDbLine
 10
3.668067
 20
-0.194945
 30
2.371
 11
3.61644
 21
-0.280995
 31
2.371
  0
LINE
  5
4619A
100
AcDbEntity
  8
0
100
AcDbLine
 10
3.633767
 20
-0.174366
 30
2.371
 11
3.58214
 21
-0.260416
 31
2.371
  0
CIRCLE
  5
4619B
100
AcDbEntity
  8
0
100
AcDbCircle
 10
4.369
 20
-0.287856
 30
2.371
 40
0.122
  0
LINE
  5
4619C
100
AcDbEntity
  8
0
100
AcDbLine
 10
4.00644
 20
-0.280995
 30
2.371
 11
4.05789
 21
-0.311864
 31
2.371
  0
LINE
  5
4619D
100
AcDbEntity
  8
0
100
AcDbLine
 10
3.98586
 20
-0.315295
 30
2.371
 11
4.037311
 21
-0.346164
 31
2.371
  0
LINE
  5
4619E
100
AcDbEntity
  8
0
100
AcDbLine
 10
4.05789
 20
-0.311864
 30
2.371
 11
4.037311
 21
-0.346164
 31
2.371
  0
LINE
  5
4619F
100
AcDbEntity
  8
0
100
AcDbLine
 10
3.98586
 20
-0.315295
 30
2.371
 11
3.934233
 21
-0.401345
 31
2.371
  0
LINE
  5
461A0
100
AcDbEntity
  8
0
100
AcDbLine
 10
4.101
 20
-0.287856
 30
2.371
 11
4.101
 21
-0.507856
 31
2.371
  0
LINE
  5
461A1
100
AcDbEntity
  8
0
100
AcDbLine
 10
4.247
 20
-0.287856
 30
2.371
 11
4.247
 21
-0.507856
 31
2.371
  0
LINE
  5
461A2
100
AcDbEntity
  8
0
100
AcDbLine
 10
4.058067
 20
-0.194945
 30
2.371
 11
4.00644
 21
-0.280995
 31
2.371
  0
LINE
  5
461A3
100
AcDbEntity
  8
0
100
AcDbLine
 10
4.023767
 20
-0.174366
 30
2.371
 11
3.97214
 21
-0.260416
 31
2.371
  0
LINE
  5
461A4
100
AcDbEntity
  8
0
100
AcDbLine
 10
3.920689
 20
-0.229547
 30
2.371
 11
3.97214
 21
-0.260416
 31
2.371
  0
LINE
  5
461A5
100
AcDbEntity
  8
0
100
AcDbLine
 10
4.29011
 20
-0.263847
 30
2.371
 11
4.34156
 21
-0.294716
 31
2.371
  0
LINE
  5
461A6
100
AcDbEntity
  8
0
100
AcDbLine
 10
4.39644
 20
-0.280995
 30
2.371
 11
4.44789
 21
-0.311864
 31
2.371
  0
LINE
  5
461A7
100
AcDbEntity
  8
0
100
AcDbLine
 10
4.37586
 20
-0.315295
 30
2.371
 11
4.324233
 21
-0.401345
 31
2.371
  0
LINE
  5
461A8
100
AcDbEntity
  8
0
100
AcDbLine
 10
4.34156
 20
-0.294716
 30
2.371
 11
4.289933
 21
-0.380766
 31
2.371
  0
LINE
  5
461A9
100
AcDbEntity
  8
0
100
AcDbLine
 10
4.44789
 20
-0.311864
 30
2.371
 11
4.427311
 21
-0.346164
 31
2.371
  0
LINE
  5
461AA
100
AcDbEntity
  8
0
100
AcDbLine
 10
4.37586
 20
-0.315295
 30
2.371
 11
4.427311
 21
-0.346164
 31
2.371
  0
LINE
  5
461AB
100
AcDbEntity
  8
0
100
AcDbLine
 10
4.637
 20
-0.287856
 30
2.371
 11
4.637
 21
-0.507856
 31
2.371
  0
LINE
  5
461AC
100
AcDbEntity
  8
0
100
AcDbLine
 10
4.491
 20
-0.287856
 30
2.371
 11
4.491
 21
-0.507856
 31
2.371
  0
LINE
  5
461AD
100
AcDbEntity
  8
0
100
AcDbLine
 10
4.310689
 20
-0.229547
 30
2.371
 11
4.36214
 21
-0.260416
 31
2.371
  0
LINE
  5
461AE
100
AcDbEntity
  8
0
100
AcDbLine
 10
4.413767
 20
-0.174366
 30
2.371
 11
4.36214
 21
-0.260416
 31
2.371
  0
LINE
  5
461AF
100
AcDbEntity
  8
0
100
AcDbLine
 10
4.310689
 20
-0.229547
 30
2.371
 11
4.29011
 21
-0.263847
 31
2.371
  0
LINE
  5
461B0
100
AcDbEntity
  8
0
100
AcDbLine
 10
4.448067
 20
-0.194945
 30
2.371
 11
4.39644
 21
-0.280995
 31
2.371
  0
LINE
  5
461B1
100
AcDbEntity
  8
0
100
AcDbLine
 10
3.473067
 20
-0.495945
 30
2.687
 11
3.42144
 21
-0.581995
 31
2.687
  0
CIRCLE
  5
461B2
100
AcDbEntity
  8
0
100
AcDbCircle
 10
3.394
 20
-0.588856
 30
2.687
 40
0.122
  0
LINE
  5
461B3
100
AcDbEntity
  8
0
100
AcDbLine
 10
3.863067
 20
-0.495945
 30
2.687
 11
3.81144
 21
-0.581995
 31
2.687
  0
CIRCLE
  5
461B4
100
AcDbEntity
  8
0
100
AcDbCircle
 10
3.784
 20
-0.588856
 30
2.687
 40
0.122
  0
LINE
  5
461B5
100
AcDbEntity
  8
0
100
AcDbLine
 10
3.516
 20
-0.588856
 30
2.687
 11
3.516
 21
-0.808856
 31
2.687
  0
LINE
  5
461B6
100
AcDbEntity
  8
0
100
AcDbLine
 10
3.272
 20
-0.588856
 30
2.687
 11
3.272
 21
-0.808856
 31
2.687
  0
LINE
  5
461B7
100
AcDbEntity
  8
0
100
AcDbLine
 10
3.335689
 20
-0.530547
 30
2.687
 11
3.38714
 21
-0.561416
 31
2.687
  0
LINE
  5
461B8
100
AcDbEntity
  8
0
100
AcDbLine
 10
3.40086
 20
-0.616295
 30
2.687
 11
3.349233
 21
-0.702345
 31
2.687
  0
LINE
  5
461B9
100
AcDbEntity
  8
0
100
AcDbLine
 10
3.36656
 20
-0.595716
 30
2.687
 11
3.314933
 21
-0.681766
 31
2.687
  0
LINE
  5
461BA
100
AcDbEntity
  8
0
100
AcDbLine
 10
3.31511
 20
-0.564847
 30
2.687
 11
3.36656
 21
-0.595716
 31
2.687
  0
LINE
  5
461BB
100
AcDbEntity
  8
0
100
AcDbLine
 10
3.47289
 20
-0.612864
 30
2.687
 11
3.452311
 21
-0.647164
 31
2.687
  0
LINE
  5
461BC
100
AcDbEntity
  8
0
100
AcDbLine
 10
3.40086
 20
-0.616295
 30
2.687
 11
3.452311
 21
-0.647164
 31
2.687
  0
LINE
  5
461BD
100
AcDbEntity
  8
0
100
AcDbLine
 10
3.42144
 20
-0.581995
 30
2.687
 11
3.47289
 21
-0.612864
 31
2.687
  0
LINE
  5
461BE
100
AcDbEntity
  8
0
100
AcDbLine
 10
3.906
 20
-0.588856
 30
2.687
 11
3.906
 21
-0.808856
 31
2.687
  0
LINE
  5
461BF
100
AcDbEntity
  8
0
100
AcDbLine
 10
3.662
 20
-0.588856
 30
2.687
 11
3.662
 21
-0.808856
 31
2.687
  0
LINE
  5
461C0
100
AcDbEntity
  8
0
100
AcDbLine
 10
3.75656
 20
-0.595716
 30
2.687
 11
3.704933
 21
-0.681766
 31
2.687
  0
LINE
  5
461C1
100
AcDbEntity
  8
0
100
AcDbLine
 10
3.70511
 20
-0.564847
 30
2.687
 11
3.75656
 21
-0.595716
 31
2.687
  0
LINE
  5
461C2
100
AcDbEntity
  8
0
100
AcDbLine
 10
3.725689
 20
-0.530547
 30
2.687
 11
3.77714
 21
-0.561416
 31
2.687
  0
LINE
  5
461C3
100
AcDbEntity
  8
0
100
AcDbLine
 10
3.86289
 20
-0.612864
 30
2.687
 11
3.842311
 21
-0.647164
 31
2.687
  0
LINE
  5
461C4
100
AcDbEntity
  8
0
100
AcDbLine
 10
3.79086
 20
-0.616295
 30
2.687
 11
3.842311
 21
-0.647164
 31
2.687
  0
LINE
  5
461C5
100
AcDbEntity
  8
0
100
AcDbLine
 10
3.79086
 20
-0.616295
 30
2.687
 11
3.739233
 21
-0.702345
 31
2.687
  0
LINE
  5
461C6
100
AcDbEntity
  8
0
100
AcDbLine
 10
3.81144
 20
-0.581995
 30
2.687
 11
3.86289
 21
-0.612864
 31
2.687
  0
LINE
  5
461C7
100
AcDbEntity
  8
0
100
AcDbLine
 10
4.253067
 20
-0.495945
 30
2.687
 11
4.20144
 21
-0.581995
 31
2.687
  0
CIRCLE
  5
461C8
100
AcDbEntity
  8
0
100
AcDbCircle
 10
4.174
 20
-0.588856
 30
2.687
 40
0.122
  0
LINE
  5
461C9
100
AcDbEntity
  8
0
100
AcDbLine
 10
4.608767
 20
-0.475366
 30
2.687
 11
4.55714
 21
-0.561416
 31
2.687
  0
LINE
  5
461CA
100
AcDbEntity
  8
0
100
AcDbLine
 10
4.052
 20
-0.588856
 30
2.687
 11
4.052
 21
-0.808856
 31
2.687
  0
LINE
  5
461CB
100
AcDbEntity
  8
0
100
AcDbLine
 10
4.14656
 20
-0.595716
 30
2.687
 11
4.094933
 21
-0.681766
 31
2.687
  0
LINE
  5
461CC
100
AcDbEntity
  8
0
100
AcDbLine
 10
4.09511
 20
-0.564847
 30
2.687
 11
4.14656
 21
-0.595716
 31
2.687
  0
LINE
  5
461CD
100
AcDbEntity
  8
0
100
AcDbLine
 10
4.18086
 20
-0.616295
 30
2.687
 11
4.129233
 21
-0.702345
 31
2.687
  0
LINE
  5
461CE
100
AcDbEntity
  8
0
100
AcDbLine
 10
4.115689
 20
-0.530547
 30
2.687
 11
4.16714
 21
-0.561416
 31
2.687
  0
LINE
  5
461CF
100
AcDbEntity
  8
0
100
AcDbLine
 10
4.20144
 20
-0.581995
 30
2.687
 11
4.25289
 21
-0.612864
 31
2.687
  0
LINE
  5
461D0
100
AcDbEntity
  8
0
100
AcDbLine
 10
4.18086
 20
-0.616295
 30
2.687
 11
4.232311
 21
-0.647164
 31
2.687
  0
LINE
  5
461D1
100
AcDbEntity
  8
0
100
AcDbLine
 10
4.25289
 20
-0.612864
 30
2.687
 11
4.232311
 21
-0.647164
 31
2.687
  0
LINE
  5
461D2
100
AcDbEntity
  8
0
100
AcDbLine
 10
4.296
 20
-0.588856
 30
2.687
 11
4.296
 21
-0.808856
 31
2.687
  0
LINE
  5
461D3
100
AcDbEntity
  8
0
100
AcDbLine
 10
4.442
 20
-0.588856
 30
2.687
 11
4.442
 21
-0.808856
 31
2.687
  0
LINE
  5
461D4
100
AcDbEntity
  8
0
100
AcDbLine
 10
4.53656
 20
-0.595716
 30
2.687
 11
4.484933
 21
-0.681766
 31
2.687
  0
LINE
  5
461D5
100
AcDbEntity
  8
0
100
AcDbLine
 10
4.48511
 20
-0.564847
 30
2.687
 11
4.53656
 21
-0.595716
 31
2.687
  0
LINE
  5
461D6
100
AcDbEntity
  8
0
100
AcDbLine
 10
4.57086
 20
-0.616295
 30
2.687
 11
4.519233
 21
-0.702345
 31
2.687
  0
LINE
  5
461D7
100
AcDbEntity
  8
0
100
AcDbLine
 10
4.57086
 20
-0.616295
 30
2.687
 11
4.622311
 21
-0.647164
 31
2.687
  0
LINE
  5
461D8
100
AcDbEntity
  8
0
100
AcDbLine
 10
4.505689
 20
-0.530547
 30
2.687
 11
4.48511
 21
-0.564847
 31
2.687
  0
LINE
  5
461D9
100
AcDbEntity
  8
0
100
AcDbLine
 10
4.505689
 20
-0.530547
 30
2.687
 11
4.55714
 21
-0.561416
 31
2.687
  0
LINE
  5
461DA
100
AcDbEntity
  8
0
100
AcDbLine
 10
4.68011
 20
-0.263847
 30
2.371
 11
4.73156
 21
-0.294716
 31
2.371
  0
LINE
  5
461DB
100
AcDbEntity
  8
0
100
AcDbLine
 10
4.78644
 20
-0.280995
 30
2.371
 11
4.83789
 21
-0.311864
 31
2.371
  0
LINE
  5
461DC
100
AcDbEntity
  8
0
100
AcDbLine
 10
4.83789
 20
-0.311864
 30
2.371
 11
4.817311
 21
-0.346164
 31
2.371
  0
LINE
  5
461DD
100
AcDbEntity
  8
0
100
AcDbLine
 10
4.76586
 20
-0.315295
 30
2.371
 11
4.817311
 21
-0.346164
 31
2.371
  0
LINE
  5
461DE
100
AcDbEntity
  8
0
100
AcDbLine
 10
4.76586
 20
-0.315295
 30
2.371
 11
4.714233
 21
-0.401345
 31
2.371
  0
LINE
  5
461DF
100
AcDbEntity
  8
0
100
AcDbLine
 10
4.73156
 20
-0.294716
 30
2.371
 11
4.679933
 21
-0.380766
 31
2.371
  0
LINE
  5
461E0
100
AcDbEntity
  8
0
100
AcDbLine
 10
4.881
 20
-0.287856
 30
2.371
 11
4.881
 21
-0.507856
 31
2.371
  0
LINE
  5
461E1
100
AcDbEntity
  8
0
100
AcDbLine
 10
4.838067
 20
-0.194945
 30
2.371
 11
4.78644
 21
-0.280995
 31
2.371
  0
LINE
  5
461E2
100
AcDbEntity
  8
0
100
AcDbLine
 10
4.803767
 20
-0.174366
 30
2.371
 11
4.75214
 21
-0.260416
 31
2.371
  0
LINE
  5
461E3
100
AcDbEntity
  8
0
100
AcDbLine
 10
4.700689
 20
-0.229547
 30
2.371
 11
4.75214
 21
-0.260416
 31
2.371
  0
LINE
  5
461E4
100
AcDbEntity
  8
0
100
AcDbLine
 10
4.700689
 20
-0.229547
 30
2.371
 11
4.68011
 21
-0.263847
 31
2.371
  0
LINE
  5
461E5
100
AcDbEntity
  8
0
100
AcDbLine
 10
4.686
 20
-0.588856
 30
2.687
 11
4.686
 21
-0.808856
 31
2.687
  0
POINT
  5
461E6
100
AcDbEntity
  8
DIMS-MTG-HOLES
100
AcDbPoint
 10
0.0
 20
0.0
 30
0.0
  0
POINT
  5
461E7
100
AcDbEntity
  8
DIMS-MTG-HOLES
100
AcDbPoint
 10
5.886
 20
0.0
 30
0.0
  0
POINT
  5
461E8
100
AcDbEntity
  8
SNAP_POINTS
100
AcDbPoint
 10
-0.33
 20
-1.809856
 30
0.0
  0
DIMENSION
  5
461E9
100
AcDbEntity
  8
AREA1
100
AcDbDimension
  2
*D0
 10
7.402336
 20
-5.310856
 30
0.0
 11
7.402336
 21
-2.565356
 31
0.0
 70
    32
  3
ABECAD_3D
100
AcDbAlignedDimension
 13
6.12
 23
0.180144
 33
0.0
 14
1.695
 24
-5.310856
 34
0.0
 50
90.0
100
AcDbRotatedDimension
  0
DIMENSION
  5
461F7
100
AcDbEntity
  8
AREA1
100
AcDbDimension
  2
*D1
 10
6.373
 20
0.890654
 30
0.0
 11
3.0215
 21
0.890654
 31
0.0
 70
    32
  3
ABECAD_3D
100
AcDbAlignedDimension
 13
-0.33
 23
-0.108856
 33
2.605
 14
6.373
 24
-0.108856
 34
0.0
100
AcDbRotatedDimension
  0
LINE
  5
4623A
100
AcDbEntity
  8
SCALE
100
AcDbLine
 10
-0.249415
 20
-5.68448
 30
0.0
 11
0.750585
 21
-5.68448
 31
0.0
  0
LINE
  5
4623B
100
AcDbEntity
  8
SCALE
100
AcDbLine
 10
0.750585
 20
-5.68448
 30
0.0
 11
0.750585
 21
-5.78448
 31
0.0
  0
LINE
  5
4623C
100
AcDbEntity
  8
SCALE
100
AcDbLine
 10
0.750585
 20
-5.78448
 30
0.0
 11
0.750585
 21
-5.58448
 31
0.0
  0
LINE
  5
4623D
100
AcDbEntity
  8
SCALE
100
AcDbLine
 10
-0.249415
 20
-5.78448
 30
0.0
 11
-0.249415
 21
-5.58448
 31
0.0
  0
LINE
  5
4623E
100
AcDbEntity
  8
SCALE
100
AcDbLine
 10
-0.249415
 20
-6.08448
 30
0.0
 11
-0.249415
 21
-5.88448
 31
0.0
  0
LINE
  5
4623F
100
AcDbEntity
  8
SCALE
100
AcDbLine
 10
0.144285
 20
-6.08448
 30
0.0
 11
0.144285
 21
-5.88448
 31
0.0
  0
LINE
  5
46240
100
AcDbEntity
  8
SCALE
100
AcDbLine
 10
-0.249415
 20
-5.98448
 30
0.0
 11
0.144285
 21
-5.98448
 31
0.0
  0
TEXT
  5
46241
100
AcDbEntity
  8
SCALE
100
AcDbText
 10
-0.189993
 20
-5.93874
 30
0.0
 40
0.0625
  1
[10mm]
100
AcDbText
  0
TEXT
  5
46242
100
AcDbEntity
  8
SCALE
100
AcDbText
 10
0.113868
 20
-5.615431
 30
0.0
 40
0.0625
  1
1 Inch
100
AcDbText
  0
TEXT
  5
46243
100
AcDbEntity
  8
SCALE
100
AcDbText
 10
-0.247885
 20
-5.409603
 30
0.0
 40
0.0625
  1
SCALE:
100
AcDbText
  0
LWPOLYLINE
  5
46244
100
AcDbEntity
  8
SCALE
100
AcDbPolyline
 90
        4
 70
     1
 43
0.0
 10
-0.307413
 20
-5.304402
 10
0.828215
 20
-5.304402
 10
0.828215
 20
-6.146011
 10
-0.307413
 20
-6.146011
  0
ENDSEC
  0
SECTION
  2
OBJECTS
  0
DICTIONARY
  5
458CB
100
AcDbDictionary
  3
ACAD_GROUP
350
458CC
  3
ACAD_LAYOUT
350
458FB
  3
ACAD_MLINESTYLE
350
458D9
  3
ACAD_PLOTSETTINGS
350
458FC
  3
ACAD_PLOTSTYLENAME
350
458F9
  3
ACDBHEADERROUNDTRIPXREC
350
462F8
  3
ACDBVARIABLEDICTIONARY
350
458E1
  3
DWGPROPS
350
45901
  0
DICTIONARY
  5
462F6
100
AcDbDictionary
280
     1
  3
ACAD_XREC_ROUNDTRIP
360
462F7
  0
DICTIONARY
  5
46321
100
AcDbDictionary
280
     1
  3
ACAD_XREC_ROUNDTRIP
360
46322
  0
DICTIONARY
  5
462F4
100
AcDbDictionary
280
     1
  3
ACAD_XREC_ROUNDTRIP
360
462F5
  0
DICTIONARY
  5
4631B
100
AcDbDictionary
280
     1
  3
ACAD_XREC_ROUNDTRIP
360
4631C
  0
DICTIONARY
  5
4631D
100
AcDbDictionary
280
     1
  3
ACAD_XREC_ROUNDTRIP
360
4631E
  0
DICTIONARY
  5
4592C
100
AcDbDictionary
280
     1
  3
ACAD_LAYOUTSELFREF
360
4631A
  0
DICTIONARY
  5
4592A
100
AcDbDictionary
280
     1
  3
ACAD_LAYOUTSELFREF
360
46319
  0
DICTIONARY
  5
458CC
102
{ACAD_REACTORS
330
458CB
102
}
100
AcDbDictionary
  0
DICTIONARY
  5
458FB
102
{ACAD_XDICTIONARY
360
4631F
102
}
102
{ACAD_REACTORS
330
458CB
102
}
100
AcDbDictionary
  3
LAYOUT1
350
458FE
  3
MODEL
350
458FD
  0
DICTIONARY
  5
458D9
102
{ACAD_REACTORS
330
458CB
102
}
100
AcDbDictionary
  3
STANDARD
350
458DA
  0
DICTIONARY
  5
458FC
102
{ACAD_REACTORS
330
458CB
102
}
100
AcDbDictionary
  0
ACAD_PROXY_OBJECT
  5
458F9
102
{ACAD_REACTORS
330
458CB
102
}
100
AcDbProxyObject
 90
      499
 91
      501
 93
       86
310
405010041939BDC9B585B0
350
458FA
340
458FA
 94
        0
  0
DICTIONARY
  5
462F8
102
{ACAD_REACTORS
330
458CB
102
}
100
AcDbDictionary
  3
CEPSNTYPE
350
46302
  3
DIMSTYLEDATA
350
46306
  3
FINGERPRINTGUID
350
46303
  3
HYPERLINKBASE
350
462FB
  3
INSUNITS
350
46301
  3
LAYOUTDICT
350
462FD
  3
LWETCUNION
350
46300
  3
PLOTSETDICT
350
462FE
  3
PLOTSTYLNAMDICT
350
462FF
  3
PSVPSCALE
350
46305
  3
PUCSBASE
350
46309
  3
PUCSORGBACK
350
4630F
  3
PUCSORGBOTTOM
350
4630B
  3
PUCSORGFRONT
350
4630E
  3
PUCSORGLEFT
350
4630C
  3
PUCSORGRIGHT
350
4630D
  3
PUCSORGTOP
350
4630A
  3
PUCSORTHOREF
350
46307
  3
PUCSORTHOVIEW
350
46308
  3
STYLESHEET
350
462FC
  3
TSTACKALIGN
350
462F9
  3
TSTACKSIZE
350
462FA
  3
UCSBASE
350
46312
  3
UCSORGBACK
350
46318
  3
UCSORGBOTTOM
350
46314
  3
UCSORGFRONT
350
46317
  3
UCSORGLEFT
350
46315
  3
UCSORGRIGHT
350
46316
  3
UCSORGTOP
350
46313
  3
UCSORTHOREF
350
46310
  3
UCSORTHOVIEW
350
46311
  3
VERSIONGUID
350
46304
  0
DICTIONARY
  5
458E1
102
{ACAD_REACTORS
330
458CB
102
}
100
AcDbDictionary
  3
DIMADEC
350
458E2
  0
XRECORD
  5
45901
102
{ACAD_REACTORS
330
458CB
102
}
100
AcDbXrecord
  1
DWGPROPS COOKIE
  2

  3

  4

  6

  7

  8
colin
  9

300
=
301
=
302
=
303
=
304
=
305
=
306
=
307
=
308
=
309
=
 40
0.000599
 41
2451670.444777
 42
2451670.445376
  1

 90
        0
  0
XRECORD
  5
462F7
102
{ACAD_REACTORS
330
462F6
102
}
100
AcDbXrecord
102
EXTNAMES
  1
*ACTIVE
  2
*Active
102
UCS
 74
     0
 71
     1
 10
0.0
 20
0.0
 30
0.0
 10
1.0
 20
0.0
 30
0.0
 10
0.0
 20
1.0
 30
0.0
146
0.0
 79
     1
102
VIEW
281
     0
  0
XRECORD
  5
46322
102
{ACAD_REACTORS
330
46321
102
}
100
AcDbXrecord
102
PLOTBIT
280
     0
  0
XRECORD
  5
462F5
102
{ACAD_REACTORS
330
462F4
102
}
100
AcDbXrecord
102
EXTNAMES
  1
DEFPOINTS
  2
Defpoints
102
PLOTBIT
280
     0
  0
XRECORD
  5
4631C
102
{ACAD_REACTORS
330
4631B
102
}
100
AcDbXrecord
102
ACADR14ROUNDTRIP
1000
DSTYLE
1002
{
1070
   276
 70
     2
1070
   277
 70
     5
1002
}
  0
XRECORD
  5
4631E
102
{ACAD_REACTORS
330
4631D
102
}
100
AcDbXrecord
102
ACADR14ROUNDTRIP
1000
DSTYLE
1002
{
1070
   276
 70
     2
1070
   277
 70
     5
1002
}
  0
XRECORD
  5
4631A
102
{ACAD_REACTORS
330
4592C
102
}
100
AcDbXrecord
340
458D6
  0
XRECORD
  5
46319
102
{ACAD_REACTORS
330
4592A
102
}
100
AcDbXrecord
340
458D3
  0
DICTIONARY
  5
4631F
100
AcDbDictionary
280
     1
  3
ACAD_XREC_ROUNDTRIP
360
46320
  0
ACAD_PROXY_OBJECT
  5
458FE
102
{ACAD_REACTORS
330
458FB
102
}
100
AcDbProxyObject
 90
      499
 91
      503
 93
     1348
310
91D4850204C617365724A65742035303030205365726965732050434C20362C00AAAAAA416AA547D11959985D5B1D08148C4D081C195B88185CDCDA59DB9B595B9D1CCB98DD1891069074C61796F75743140501A800000000000000000000000000000000000000000000A1000000000000008902A6A6A10232D5E076BC551
310
0408CB5781DAF154410232D5E076BC5510408CB5781DAF15C410232D5E076BC5710408CB5781DAF15C40
330
458D3
330
0
340
0
340
0
 94
        0
  0
ACAD_PROXY_OBJECT
  5
458FD
102
{ACAD_REACTORS
330
458FB
102
}
100
AcDbProxyObject
 90
      499
 91
      503
 93
      924
310
91D4850204C617365724A65742035303030205365726965732050434C20362C01AAAAAAAAA547D11959985D5B1D08148C4D081C195B88185CDCDA59DB9B595B9D1CCB98DD18A69054D6F64656C901A800000000000000000000000000000000000000000000A1000000000000008902A6A6AAAA0
330
458D6
330
0
340
0
340
0
 94
        0
  0
MLINESTYLE
  5
458DA
102
{ACAD_REACTORS
330
458D9
102
}
100
AcDbMlineStyle
  2
STANDARD
 70
     0
  3

 62
   256
 51
90.0
 52
90.0
 71
     2
 49
0.5
 62
   256
  6
BYLAYER
 49
-0.5
 62
   256
  6
BYLAYER
  0
ACAD_PROXY_OBJECT
  5
458FA
102
{ACAD_REACTORS
330
458F9
102
}
100
AcDbProxyObject
 90
      499
 91
      502
 93
        0
 94
        0
  0
XRECORD
  5
46302
102
{ACAD_REACTORS
330
462F8
102
}
100
AcDbXrecord
 90
        0
  0
XRECORD
  5
46306
102
{ACAD_REACTORS
330
462F8
102
}
100
AcDbXrecord
1000
DSTYLE
1002
{
1070
   276
 70
     2
1070
   277
 70
     5
1002
}
  0
XRECORD
  5
46303
102
{ACAD_REACTORS
330
462F8
102
}
100
AcDbXrecord
  1
{6E0CF4B8-225E-11D4-A150-00A0CC3303EC}
  0
XRECORD
  5
462FB
102
{ACAD_REACTORS
330
462F8
102
}
100
AcDbXrecord
  1

  0
XRECORD
  5
46301
102
{ACAD_REACTORS
330
462F8
102
}
100
AcDbXrecord
 90
        0
  0
XRECORD
  5
462FD
102
{ACAD_REACTORS
330
462F8
102
}
100
AcDbXrecord
340
458FB
  0
XRECORD
  5
46300
102
{ACAD_REACTORS
330
462F8
102
}
100
AcDbXrecord
 90
    14877
  0
XRECORD
  5
462FE
102
{ACAD_REACTORS
330
462F8
102
}
100
AcDbXrecord
340
458FC
  0
XRECORD
  5
462FF
102
{ACAD_REACTORS
330
462F8
102
}
100
AcDbXrecord
340
458F9
  0
XRECORD
  5
46305
102
{ACAD_REACTORS
330
462F8
102
}
100
AcDbXrecord
 40
0.0
  0
XRECORD
  5
46309
102
{ACAD_REACTORS
330
462F8
102
}
100
AcDbXrecord
340
0
  0
XRECORD
  5
4630F
102
{ACAD_REACTORS
330
462F8
102
}
100
AcDbXrecord
 10
0.0
 20
0.0
 30
0.0
  0
XRECORD
  5
4630B
102
{ACAD_REACTORS
330
462F8
102
}
100
AcDbXrecord
 10
0.0
 20
0.0
 30
0.0
  0
XRECORD
  5
4630E
102
{ACAD_REACTORS
330
462F8
102
}
100
AcDbXrecord
 10
0.0
 20
0.0
 30
0.0
  0
XRECORD
  5
4630C
102
{ACAD_REACTORS
330
462F8
102
}
100
AcDbXrecord
 10
0.0
 20
0.0
 30
0.0
  0
XRECORD
  5
4630D
102
{ACAD_REACTORS
330
462F8
102
}
100
AcDbXrecord
 10
0.0
 20
0.0
 30
0.0
  0
XRECORD
  5
4630A
102
{ACAD_REACTORS
330
462F8
102
}
100
AcDbXrecord
 10
0.0
 20
0.0
 30
0.0
  0
XRECORD
  5
46307
102
{ACAD_REACTORS
330
462F8
102
}
100
AcDbXrecord
340
0
  0
XRECORD
  5
46308
102
{ACAD_REACTORS
330
462F8
102
}
100
AcDbXrecord
 70
     0
  0
XRECORD
  5
462FC
102
{ACAD_REACTORS
330
462F8
102
}
100
AcDbXrecord
  1

  0
XRECORD
  5
462F9
102
{ACAD_REACTORS
330
462F8
102
}
100
AcDbXrecord
 90
        1
  0
XRECORD
  5
462FA
102
{ACAD_REACTORS
330
462F8
102
}
100
AcDbXrecord
 90
       70
  0
XRECORD
  5
46312
102
{ACAD_REACTORS
330
462F8
102
}
100
AcDbXrecord
340
0
  0
XRECORD
  5
46318
102
{ACAD_REACTORS
330
462F8
102
}
100
AcDbXrecord
 10
0.0
 20
0.0
 30
0.0
  0
XRECORD
  5
46314
102
{ACAD_REACTORS
330
462F8
102
}
100
AcDbXrecord
 10
0.0
 20
0.0
 30
0.0
  0
XRECORD
  5
46317
102
{ACAD_REACTORS
330
462F8
102
}
100
AcDbXrecord
 10
0.0
 20
0.0
 30
0.0
  0
XRECORD
  5
46315
102
{ACAD_REACTORS
330
462F8
102
}
100
AcDbXrecord
 10
0.0
 20
0.0
 30
0.0
  0
XRECORD
  5
46316
102
{ACAD_REACTORS
330
462F8
102
}
100
AcDbXrecord
 10
0.0
 20
0.0
 30
0.0
  0
XRECORD
  5
46313
102
{ACAD_REACTORS
330
462F8
102
}
100
AcDbXrecord
 10
0.0
 20
0.0
 30
0.0
  0
XRECORD
  5
46310
102
{ACAD_REACTORS
330
462F8
102
}
100
AcDbXrecord
340
0
  0
XRECORD
  5
46311
102
{ACAD_REACTORS
330
462F8
102
}
100
AcDbXrecord
 70
     1
  0
XRECORD
  5
46304
102
{ACAD_REACTORS
330
462F8
102
}
100
AcDbXrecord
  1
{5C4CAF71-7746-47BA-990A-F244F8CA8175}
  0
DICTIONARYVAR
  5
458E2
102
{ACAD_REACTORS
330
458E1
102
}
100
DictionaryVariables
280
     0
  1
0
  0
XRECORD
  5
46320
102
{ACAD_REACTORS
330
4631F
102
}
100
AcDbXrecord
102
EXTNAMES
  1
LAYOUT1
  2
Layout1
  1
MODEL
  2
Model
  0
ENDSEC
  0
EOF
