  0
SECTION
  2
HEADER
  9
$ACADVER
  1
AC1014
  9
$ACADMAINTVER
 70
     8
  9
$DWGCODEPAGE
  3
ANSI_1252
  9
$INSBASE
 10
0.0
 20
0.0
 30
0.0
  9
$EXTMIN
 10
-1.87
 20
-5.790336
 30
0.0
  9
$EXTMAX
 10
1.4257
 20
0.981105
 30
2.76
  9
$LIMMIN
 10
0.0
 20
0.0
  9
$LIMMAX
 10
12.0
 20
9.0
  9
$ORTHOMODE
 70
     0
  9
$REGENMODE
 70
     1
  9
$FILLMODE
 70
     1
  9
$QTEXTMODE
 70
     0
  9
$MIRRTEXT
 70
     1
  9
$DRAGMODE
 70
     2
  9
$LTSCALE
 40
1.0
  9
$OSMODE
 70
    45
  9
$ATTMODE
 70
     1
  9
$TEXTSIZE
 40
0.12
  9
$TRACEWID
 40
0.05
  9
$TEXTSTYLE
  7
STANDARD
  9
$CLAYER
  8
0
  9
$CELTYPE
  6
BYLAYER
  9
$CECOLOR
 62
   256
  9
$CELTSCALE
 40
1.0
  9
$DELOBJ
 70
     1
  9
$DISPSILH
 70
     0
  9
$DIMSCALE
 40
1.0
  9
$DIMASZ
 40
0.15
  9
$DIMEXO
 40
0.0625
  9
$DIMDLI
 40
0.375
  9
$DIMRND
 40
0.0
  9
$DIMDLE
 40
0.0
  9
$DIMEXE
 40
0.15
  9
$DIMTP
 40
0.0
  9
$DIMTM
 40
0.0
  9
$DIMTXT
 40
0.15
  9
$DIMCEN
 40
0.09
  9
$DIMTSZ
 40
0.0
  9
$DIMTOL
 70
     0
  9
$DIMLIM
 70
     0
  9
$DIMTIH
 70
     0
  9
$DIMTOH
 70
     1
  9
$DIMSE1
 70
     0
  9
$DIMSE2
 70
     0
  9
$DIMTAD
 70
     0
  9
$DIMZIN
 70
     4
  9
$DIMBLK
  1

  9
$DIMASO
 70
     1
  9
$DIMSHO
 70
     1
  9
$DIMPOST
  1

  9
$DIMAPOST
  1

  9
$DIMALT
 70
     1
  9
$DIMALTD
 70
     1
  9
$DIMALTF
 40
25.4
  9
$DIMLFAC
 40
1.0
  9
$DIMTOFL
 70
     0
  9
$DIMTVP
 40
0.0
  9
$DIMTIX
 70
     0
  9
$DIMSOXD
 70
     0
  9
$DIMSAH
 70
     0
  9
$DIMBLK1
  1

  9
$DIMBLK2
  1

  9
$DIMSTYLE
  2
ABECAD_3D
  9
$DIMCLRD
 70
     0
  9
$DIMCLRE
 70
     0
  9
$DIMCLRT
 70
     0
  9
$DIMTFAC
 40
1.5
  9
$DIMGAP
 40
0.07
  9
$DIMJUST
 70
     0
  9
$DIMSD1
 70
     0
  9
$DIMSD2
 70
     0
  9
$DIMTOLJ
 70
     1
  9
$DIMTZIN
 70
     4
  9
$DIMALTZ
 70
     4
  9
$DIMALTTZ
 70
     4
  9
$DIMFIT
 70
     3
  9
$DIMUPT
 70
     0
  9
$DIMUNIT
 70
     7
  9
$DIMDEC
 70
     6
  9
$DIMTDEC
 70
     6
  9
$DIMALTU
 70
     2
  9
$DIMALTTD
 70
     1
  9
$DIMTXSTY
  7
STANDARD
  9
$DIMAUNIT
 70
     0
  9
$LUNITS
 70
     2
  9
$LUPREC
 70
     4
  9
$SKETCHINC
 40
0.1
  9
$FILLETRAD
 40
0.0
  9
$AUNITS
 70
     0
  9
$AUPREC
 70
     0
  9
$MENU
  1
ACAD
  9
$ELEVATION
 40
0.0
  9
$PELEVATION
 40
0.0
  9
$THICKNESS
 40
0.0
  9
$LIMCHECK
 70
     0
  9
$BLIPMODE
 70
     0
  9
$CHAMFERA
 40
0.0
  9
$CHAMFERB
 40
0.0
  9
$CHAMFERC
 40
0.0
  9
$CHAMFERD
 40
0.0
  9
$SKPOLY
 70
     0
  9
$TDCREATE
 40
2451670.444776967
  9
$TDUPDATE
 40
2452128.457289004
  9
$TDINDWG
 40
0.0086093750
  9
$TDUSRTIMER
 40
0.0086093750
  9
$USRTIMER
 70
     1
  9
$ANGBASE
 50
0.0
  9
$ANGDIR
 70
     0
  9
$PDMODE
 70
     3
  9
$PDSIZE
 40
0.09
  9
$PLINEWID
 40
0.0
  9
$COORDS
 70
     1
  9
$SPLFRAME
 70
     1
  9
$SPLINETYPE
 70
     6
  9
$SPLINESEGS
 70
     8
  9
$ATTDIA
 70
     0
  9
$ATTREQ
 70
     1
  9
$HANDLING
 70
     1
  9
$HANDSEED
  5
45F3A
  9
$SURFTAB1
 70
     6
  9
$SURFTAB2
 70
     6
  9
$SURFTYPE
 70
     6
  9
$SURFU
 70
     6
  9
$SURFV
 70
     6
  9
$UCSNAME
  2

  9
$UCSORG
 10
0.0
 20
0.0
 30
0.0
  9
$UCSXDIR
 10
1.0
 20
0.0
 30
0.0
  9
$UCSYDIR
 10
0.0
 20
1.0
 30
0.0
  9
$PUCSNAME
  2

  9
$PUCSORG
 10
0.0
 20
0.0
 30
0.0
  9
$PUCSXDIR
 10
1.0
 20
0.0
 30
0.0
  9
$PUCSYDIR
 10
0.0
 20
1.0
 30
0.0
  9
$USERI1
 70
     0
  9
$USERI2
 70
     0
  9
$USERI3
 70
     0
  9
$USERI4
 70
     0
  9
$USERI5
 70
     0
  9
$USERR1
 40
0.0
  9
$USERR2
 40
0.0
  9
$USERR3
 40
0.0
  9
$USERR4
 40
0.0
  9
$USERR5
 40
0.0
  9
$WORLDVIEW
 70
     1
  9
$SHADEDGE
 70
     3
  9
$SHADEDIF
 70
    70
  9
$TILEMODE
 70
     1
  9
$MAXACTVP
 70
    16
  9
$PINSBASE
 10
0.0
 20
0.0
 30
0.0
  9
$PLIMCHECK
 70
     0
  9
$PEXTMIN
 10
1.000000E+20
 20
1.000000E+20
 30
1.000000E+20
  9
$PEXTMAX
 10
-1.000000E+20
 20
-1.000000E+20
 30
-1.000000E+20
  9
$PLIMMIN
 10
0.0
 20
0.0
  9
$PLIMMAX
 10
12.0
 20
9.0
  9
$UNITMODE
 70
     0
  9
$VISRETAIN
 70
     0
  9
$PLINEGEN
 70
     0
  9
$PSLTSCALE
 70
     1
  9
$TREEDEPTH
 70
  3020
  9
$PICKSTYLE
 70
     1
  9
$CMLSTYLE
  2
STANDARD
  9
$CMLJUST
 70
     0
  9
$CMLSCALE
 40
1.0
  9
$PROXYGRAPHICS
 70
     1
  9
$MEASUREMENT
 70
     0
  0
ENDSEC
  0
SECTION
  2
CLASSES
  0
CLASS
  1
DICTIONARYVAR
  2
AcDbDictionaryVar
  3
"AutoCAD"
 90
        0
280
     0
281
     0
  0
CLASS
  1
ACDBDICTIONARYWDFLT
  2
AcDbDictionaryWithDefault
  3
AutoCAD 2000
 90
        0
280
     0
281
     0
  0
CLASS
  1
ACDBPLACEHOLDER
  2
AcDbPlaceHolder
  3
AutoCAD 2000
 90
        0
280
     0
281
     0
  0
CLASS
  1
LAYOUT
  2
AcDbLayout
  3
AutoCAD 2000
 90
        0
280
     0
281
     0
  0
CLASS
  1
LONG_TRANSACTION
  2
AcDbLongTransaction
  3
AutoCAD 2000
 90
        0
280
     0
281
     0
  0
CLASS
  1
LWPOLYLINE
  2
AcDbPolyline
  3
"AutoCAD"
 90
        0
280
     0
281
     1
  0
CLASS
  1
HATCH
  2
AcDbHatch
  3
"ACAD_SEDONA"
 90
        0
280
     0
281
     1
  0
CLASS
  1
XRECORD
  2
AcDbXrecord
  3
"<Built In>"
 90
        0
280
     0
281
     0
  0
CLASS
  1
LONG_TRANSACTION
  2
AcDbLongTransaction
  3
AutoCAD 2000
 90
        0
280
     0
281
     0
  0
CLASS
  1
LWPOLYLINE
  2
AcDbPolyline
  3
"AutoCAD"
 90
        0
280
     0
281
     1
  0
CLASS
  1
HATCH
  2
AcDbHatch
  3
"ACAD_SEDONA"
 90
        0
280
     0
281
     1
  0
CLASS
  1
XRECORD
  2
AcDbXrecord
  3
"<Built In>"
 90
        0
280
     0
281
     0
  0
CLASS
  1
LONG_TRANSACTION
  2
AcDbLongTransaction
  3
AutoCAD 2000
 90
        0
280
     0
281
     0
  0
CLASS
  1
LWPOLYLINE
  2
AcDbPolyline
  3
"AutoCAD"
 90
        0
280
     0
281
     1
  0
CLASS
  1
HATCH
  2
AcDbHatch
  3
"ACAD_SEDONA"
 90
        0
280
     0
281
     1
  0
CLASS
  1
XRECORD
  2
AcDbXrecord
  3
"<Built In>"
 90
        0
280
     0
281
     0
  0
CLASS
  1
LONG_TRANSACTION
  2
AcDbLongTransaction
  3
AutoCAD 2000
 90
        0
280
     0
281
     0
  0
CLASS
  1
LWPOLYLINE
  2
AcDbPolyline
  3
"AutoCAD"
 90
        0
280
     0
281
     1
  0
CLASS
  1
HATCH
  2
AcDbHatch
  3
"ACAD_SEDONA"
 90
        0
280
     0
281
     1
  0
CLASS
  1
XRECORD
  2
AcDbXrecord
  3
"<Built In>"
 90
        0
280
     0
281
     0
  0
CLASS
  1
LONG_TRANSACTION
  2
AcDbLongTransaction
  3
AutoCAD 2000
 90
        0
280
     0
281
     0
  0
CLASS
  1
LWPOLYLINE
  2
AcDbPolyline
  3
"AutoCAD"
 90
        0
280
     0
281
     1
  0
CLASS
  1
HATCH
  2
AcDbHatch
  3
"ACAD_SEDONA"
 90
        0
280
     0
281
     1
  0
CLASS
  1
XRECORD
  2
AcDbXrecord
  3
"<Built In>"
 90
        0
280
     0
281
     0
  0
CLASS
  1
LONG_TRANSACTION
  2
AcDbLongTransaction
  3
AutoCAD 2000
 90
        0
280
     0
281
     0
  0
CLASS
  1
LWPOLYLINE
  2
AcDbPolyline
  3
"AutoCAD"
 90
        0
280
     0
281
     1
  0
CLASS
  1
HATCH
  2
AcDbHatch
  3
"ACAD_SEDONA"
 90
        0
280
     0
281
     1
  0
CLASS
  1
XRECORD
  2
AcDbXrecord
  3
"<Built In>"
 90
        0
280
     0
281
     0
  0
CLASS
  1
LONG_TRANSACTION
  2
AcDbLongTransaction
  3
AutoCAD 2000
 90
        0
280
     0
281
     0
  0
CLASS
  1
LWPOLYLINE
  2
AcDbPolyline
  3
"AutoCAD"
 90
        0
280
     0
281
     1
  0
CLASS
  1
HATCH
  2
AcDbHatch
  3
"ACAD_SEDONA"
 90
        0
280
     0
281
     1
  0
CLASS
  1
XRECORD
  2
AcDbXrecord
  3
"<Built In>"
 90
        0
280
     0
281
     0
  0
ENDSEC
  0
SECTION
  2
TABLES
  0
TABLE
  2
VPORT
  5
458C7
100
AcDbSymbolTable
 70
     1
  0
VPORT
  5
45F07
102
{ACAD_XDICTIONARY
360
45F0A
102
}
100
AcDbSymbolTableRecord
100
AcDbViewportTableRecord
  2
*ACTIVE
 70
     0
 10
0.0
 20
0.0
 11
1.0
 21
1.0
 12
-0.22215
 22
-2.404615
 13
0.0
 23
0.0
 14
0.25
 24
0.25
 15
0.25
 25
0.25
 16
0.0
 26
0.0
 36
1.0
 17
0.0
 27
0.0
 37
0.0
 40
6.843097
 41
1.855124
 42
50.0
 43
0.0
 44
0.0
 50
0.0
 51
0.0
 71
     0
 72
 20000
 73
     1
 74
     1
 75
     0
 76
     0
 77
     0
 78
     0
  0
ENDTAB
  0
TABLE
  2
LTYPE
  5
458C4
100
AcDbSymbolTable
 70
     1
  0
LTYPE
  5
458D0
100
AcDbSymbolTableRecord
100
AcDbLinetypeTableRecord
  2
BYBLOCK
 70
     0
  3

 72
    65
 73
     0
 40
0.0
  0
LTYPE
  5
458D1
100
AcDbSymbolTableRecord
100
AcDbLinetypeTableRecord
  2
BYLAYER
 70
     0
  3

 72
    65
 73
     0
 40
0.0
  0
LTYPE
  5
458D2
100
AcDbSymbolTableRecord
100
AcDbLinetypeTableRecord
  2
CONTINUOUS
 70
     0
  3
Solid line
 72
    65
 73
     0
 40
0.0
  0
ENDTAB
  0
TABLE
  2
LAYER
  5
458C1
100
AcDbSymbolTable
 70
     7
  0
LAYER
  5
458CD
100
AcDbSymbolTableRecord
100
AcDbLayerTableRecord
  2
0
 70
     0
 62
     7
  6
CONTINUOUS
  0
LAYER
  5
458EA
100
AcDbSymbolTableRecord
100
AcDbLayerTableRecord
  2
DIMS-MTG-HOLES
 70
     0
 62
     1
  6
CONTINUOUS
  0
LAYER
  5
458EB
100
AcDbSymbolTableRecord
100
AcDbLayerTableRecord
  2
ATTRIBUTES
 70
     0
 62
     7
  6
CONTINUOUS
  0
LAYER
  5
4593B
102
{ACAD_XDICTIONARY
360
45F35
102
}
100
AcDbSymbolTableRecord
100
AcDbLayerTableRecord
  2
AREA1
 70
     0
 62
    -7
  6
CONTINUOUS
  0
LAYER
  5
45940
102
{ACAD_XDICTIONARY
360
45F08
102
}
100
AcDbSymbolTableRecord
100
AcDbLayerTableRecord
  2
DEFPOINTS
 70
     0
 62
    -7
  6
CONTINUOUS
  0
LAYER
  5
45954
100
AcDbSymbolTableRecord
100
AcDbLayerTableRecord
  2
SCALE
 70
     0
 62
    -7
  6
CONTINUOUS
  0
LAYER
  5
45E26
100
AcDbSymbolTableRecord
100
AcDbLayerTableRecord
  2
SNAP_POINTS
 70
     0
 62
    -1
  6
CONTINUOUS
  0
ENDTAB
  0
TABLE
  2
STYLE
  5
458C2
100
AcDbSymbolTable
 70
     1
  0
STYLE
  5
458CE
100
AcDbSymbolTableRecord
100
AcDbTextStyleTableRecord
  2
STANDARD
 70
     0
 40
0.0
 41
1.0
 50
0.0
 71
     0
 42
0.12
  3
txt
  4

  0
ENDTAB
  0
TABLE
  2
VIEW
  5
458C5
100
AcDbSymbolTable
 70
     0
  0
ENDTAB
  0
TABLE
  2
UCS
  5
458C6
100
AcDbSymbolTable
 70
     0
  0
ENDTAB
  0
TABLE
  2
APPID
  5
458C8
100
AcDbSymbolTable
 70
     1
  0
APPID
  5
458CF
100
AcDbSymbolTableRecord
100
AcDbRegAppTableRecord
  2
ACAD
 70
     0
  0
ENDTAB
  0
TABLE
  2
DIMSTYLE
  5
458C9
100
AcDbSymbolTable
 70
     2
  0
DIMSTYLE
105
458F1
102
{ACAD_XDICTIONARY
360
45F2F
102
}
100
AcDbSymbolTableRecord
100
AcDbDimStyleTableRecord
  2
ABECAD
 70
     0
  3

  4

  5

  6

  7

 40
1.0
 41
0.18
 42
0.0625
 43
0.375
 44
0.18
 45
0.0
 46
0.0
 47
0.0
 48
0.0
140
0.18
141
0.09
142
0.0
143
25.4
144
1.0
145
0.0
146
1.5
147
0.09
 71
     0
 72
     0
 73
     0
 74
     1
 75
     0
 76
     0
 77
     0
 78
     4
170
     1
171
     1
172
     0
173
     0
174
     0
175
     0
176
     0
177
     0
178
     0
270
     7
271
     6
272
     6
273
     2
274
     1
340
458CE
275
     0
280
     0
281
     0
282
     0
283
     1
284
     4
285
     4
286
     4
287
     3
288
     0
  0
DIMSTYLE
105
458F6
102
{ACAD_XDICTIONARY
360
45F31
102
}
102
{ACAD_REACTORS
330
45DB5
330
45DC3
102
}
100
AcDbSymbolTableRecord
100
AcDbDimStyleTableRecord
  2
ABECAD_3D
 70
     0
  3

  4

  5

  6

  7

 40
1.0
 41
0.15
 42
0.0625
 43
0.375
 44
0.15
 45
0.0
 46
0.0
 47
0.0
 48
0.0
140
0.15
141
0.09
142
0.0
143
25.4
144
1.0
145
0.0
146
1.5
147
0.07
 71
     0
 72
     0
 73
     0
 74
     1
 75
     0
 76
     0
 77
     0
 78
     4
170
     1
171
     1
172
     0
173
     0
174
     0
175
     0
176
     0
177
     0
178
     0
270
     7
271
     6
272
     6
273
     2
274
     1
340
458CE
275
     0
280
     0
281
     0
282
     0
283
     1
284
     4
285
     4
286
     4
287
     3
288
     0
  0
ENDTAB
  0
TABLE
  2
BLOCK_RECORD
  5
458C0
100
AcDbSymbolTable
 70
     2
  0
BLOCK_RECORD
  5
458D6
102
{ACAD_XDICTIONARY
360
4592C
102
}
100
AcDbSymbolTableRecord
100
AcDbBlockTableRecord
  2
*MODEL_SPACE
  0
BLOCK_RECORD
  5
458D3
102
{ACAD_XDICTIONARY
360
4592A
102
}
100
AcDbSymbolTableRecord
100
AcDbBlockTableRecord
  2
*PAPER_SPACE
  0
BLOCK_RECORD
  5
45DB6
100
AcDbSymbolTableRecord
100
AcDbBlockTableRecord
  2
*D0
  0
BLOCK_RECORD
  5
45DC4
100
AcDbSymbolTableRecord
100
AcDbBlockTableRecord
  2
*D1
  0
ENDTAB
  0
ENDSEC
  0
SECTION
  2
BLOCKS
  0
BLOCK
  5
458DF
100
AcDbEntity
  8
0
100
AcDbBlockBegin
  2
*MODEL_SPACE
 70
     0
 10
0.0
 20
0.0
 30
0.0
  3
*MODEL_SPACE
  1

  0
ENDBLK
  5
458E0
100
AcDbEntity
  8
0
100
AcDbBlockEnd
  0
BLOCK
  5
458DD
100
AcDbEntity
 67
     1
  8
0
100
AcDbBlockBegin
  2
*PAPER_SPACE
 70
     0
 10
0.0
 20
0.0
 30
0.0
  3
*PAPER_SPACE
  1

  0
ENDBLK
  5
458DE
100
AcDbEntity
 67
     1
  8
0
100
AcDbBlockEnd
  0
BLOCK
  5
45DC1
100
AcDbEntity
  8
0
100
AcDbBlockBegin
  2
*D0
 70
     1
 10
0.0
 20
0.0
 30
0.0
  3
*D0
  1

  0
LINE
  5
45EFD
100
AcDbEntity
  8
AREA1
 62
     0
100
AcDbLine
 10
0.1925
 20
-4.728
 30
0.0
 11
1.4257
 21
-4.728
 31
0.0
1001
ACAD
1000
RTLwPs
1070
   158
  0
LINE
  5
45EFE
100
AcDbEntity
  8
AREA1
 62
     0
100
AcDbLine
 10
0.5425
 20
0.22
 30
0.0
 11
1.4257
 21
0.22
 31
0.0
1001
ACAD
1000
RTLwPs
1070
   158
  0
LINE
  5
45EFF
100
AcDbEntity
  8
AREA1
 62
     0
100
AcDbLine
 10
1.2757
 20
-4.578
 30
0.0
 11
1.2757
 21
-3.274
 31
0.0
1001
ACAD
1000
RTLwPs
1070
   158
  0
LINE
  5
45F00
100
AcDbEntity
  8
AREA1
 62
     0
100
AcDbLine
 10
1.2757
 20
0.07
 30
0.0
 11
1.2757
 21
-1.234
 31
0.0
1001
ACAD
1000
RTLwPs
1070
   158
  0
SOLID
  5
45F01
100
AcDbEntity
  8
AREA1
 62
     0
100
AcDbTrace
 10
1.2507
 20
-4.578
 30
0.0
 11
1.3007
 21
-4.578
 31
0.0
 12
1.2757
 22
-4.728
 32
0.0
 13
1.2757
 23
-4.728
 33
0.0
  0
SOLID
  5
45F02
100
AcDbEntity
  8
AREA1
 62
     0
100
AcDbTrace
 10
1.2507
 20
0.07
 30
0.0
 11
1.3007
 21
0.07
 31
0.0
 12
1.2757
 22
0.22
 32
0.0
 13
1.2757
 23
0.22
 33
0.0
  0
MTEXT
  5
45F03
100
AcDbEntity
  8
AREA1
 62
     0
100
AcDbMText
 10
1.2757
 20
-2.254
 30
0.0
 40
0.15
 41
0.0
 71
     5
 72
     1
  1
\A1;4 61/64 [125.7]
 11
0.0
 21
1.0
 31
0.0
1001
ACAD
1000
MTEXTBEGIN
1070
    73
1070
     1
1070
    44
1040
1.0
1070
    74
1070
     0
1000
MTEXTEND
  0
POINT
  5
45F04
100
AcDbEntity
  8
DEFPOINTS
 62
     0
100
AcDbPoint
 10
0.13
 20
-4.728
 30
0.58
  0
POINT
  5
45F05
100
AcDbEntity
  8
DEFPOINTS
 62
     0
100
AcDbPoint
 10
0.48
 20
0.22
 30
1.93
  0
POINT
  5
45F06
100
AcDbEntity
  8
DEFPOINTS
 62
     0
100
AcDbPoint
 10
1.2757
 20
0.22
 30
0.0
  0
ENDBLK
  5
45DC2
100
AcDbEntity
  8
0
100
AcDbBlockEnd
  0
BLOCK
  5
45DCF
100
AcDbEntity
  8
0
100
AcDbBlockBegin
  2
*D1
 70
     1
 10
0.0
 20
0.0
 30
0.0
  3
*D1
  1

  0
LINE
  5
45EF3
100
AcDbEntity
  8
AREA1
 62
     0
100
AcDbLine
 10
-1.57
 20
0.2825
 30
0.0
 11
-1.57
 21
0.981105
 31
0.0
1001
ACAD
1000
RTLwPs
1070
   158
  0
LINE
  5
45EF4
100
AcDbEntity
  8
AREA1
 62
     0
100
AcDbLine
 10
0.48
 20
0.2825
 30
0.0
 11
0.48
 21
0.981105
 31
0.0
1001
ACAD
1000
RTLwPs
1070
   158
  0
LINE
  5
45EF5
100
AcDbEntity
  8
AREA1
 62
     0
100
AcDbLine
 10
-1.72
 20
0.831105
 30
0.0
 11
-1.87
 21
0.831105
 31
0.0
1001
ACAD
1000
RTLwPs
1070
   158
  0
LINE
  5
45EF6
100
AcDbEntity
  8
AREA1
 62
     0
100
AcDbLine
 10
0.63
 20
0.831105
 30
0.0
 11
0.78
 21
0.831105
 31
0.0
1001
ACAD
1000
RTLwPs
1070
   158
  0
SOLID
  5
45EF7
100
AcDbEntity
  8
AREA1
 62
     0
100
AcDbTrace
 10
-1.72
 20
0.856105
 30
0.0
 11
-1.72
 21
0.806105
 31
0.0
 12
-1.57
 22
0.831105
 32
0.0
 13
-1.57
 23
0.831105
 33
0.0
  0
SOLID
  5
45EF8
100
AcDbEntity
  8
AREA1
 62
     0
100
AcDbTrace
 10
0.63
 20
0.856105
 30
0.0
 11
0.63
 21
0.806105
 31
0.0
 12
0.48
 22
0.831105
 32
0.0
 13
0.48
 23
0.831105
 33
0.0
  0
MTEXT
  5
45EF9
100
AcDbEntity
  8
AREA1
 62
     0
100
AcDbMText
 10
-0.545
 20
0.831105
 30
0.0
 40
0.15
 41
0.0
 71
     5
 72
     1
  1
\A1;2 3/64 [52.1]
1001
ACAD
1000
MTEXTBEGIN
1070
    73
1070
     1
1070
    44
1040
1.0
1070
    74
1070
     0
1000
MTEXTEND
  0
POINT
  5
45EFA
100
AcDbEntity
  8
DEFPOINTS
 62
     0
100
AcDbPoint
 10
-1.57
 20
0.22
 30
1.93
  0
POINT
  5
45EFB
100
AcDbEntity
  8
DEFPOINTS
 62
     0
100
AcDbPoint
 10
0.48
 20
0.22
 30
1.93
  0
POINT
  5
45EFC
100
AcDbEntity
  8
DEFPOINTS
 62
     0
100
AcDbPoint
 10
0.48
 20
0.831105
 30
0.0
  0
ENDBLK
  5
45DD0
100
AcDbEntity
  8
0
100
AcDbBlockEnd
  0
ENDSEC
  0
SECTION
  2
ENTITIES
  0
ATTDEF
  5
1
100
AcDbEntity
  8
ATTRIBUTES
100
AcDbText
 10
-1.488143
 20
-2.32124
 30
0.0
 40
0.12
  1
ALLEN-BRADLEY
100
AcDbAttributeDefinition
  3
MANUFACTURER NAME?
  2
AC_VND_LABEL
 70
     1
  0
ATTDEF
  5
2
100
AcDbEntity
  8
ATTRIBUTES
100
AcDbText
 10
-1.488143
 20
-2.57124
 30
0.0
 40
0.12
  1
1761-L16 -NET-AIC
100
AcDbAttributeDefinition
  3
CATALOG NUMBER?
  2
AC_PART_NO
 70
     1
  0
ATTDEF
  5
3
100
AcDbEntity
  8
ATTRIBUTES
100
AcDbText
 10
-1.488143
 20
-2.82124
 30
0.0
 40
0.12
  1
1761-L16 -NET-AIC: ADVANCED INTERFACE CONVERTER
100
AcDbAttributeDefinition
  3
PART DESCRIPTION?
  2
AC_DESCRIPTION
 70
     1
  0
ATTDEF
  5
4
100
AcDbEntity
  8
ATTRIBUTES
100
AcDbText
 10
-1.488143
 20
-3.07124
 30
0.0
 40
0.12
  1

100
AcDbAttributeDefinition
  3
DEVICE ID?
  2
DEVICE_ID
 70
     1
  0
ATTDEF
  5
5
100
AcDbEntity
  8
ATTRIBUTES
100
AcDbText
 10
-1.488143
 20
-3.32124
 30
0.0
 40
0.12
  1

100
AcDbAttributeDefinition
  3
CUSTOMER PART NUMBER?
  2
AC_CPART_NO
 70
     1
  0
ATTDEF
  5
6
100
AcDbEntity
  8
ATTRIBUTES
100
AcDbText
 10
-1.488143
 20
-3.57124
 30
0.0
 40
0.12
  1

100
AcDbAttributeDefinition
  3
CUSTOMER NOTE?
  2
AC_NOTE
 70
     1
  0
ATTDEF
  5
7
100
AcDbEntity
  8
ATTRIBUTES
100
AcDbText
 10
-1.488143
 20
-3.82124
 30
0.0
 40
0.12
  1

100
AcDbAttributeDefinition
  3
FASTENER DATA?
  2
FASTENER
 70
     1
  0
ATTDEF
  5
8
100
AcDbEntity
  8
ATTRIBUTES
100
AcDbText
 10
-1.488143
 20
-4.07124
 30
0.0
 40
0.12
  1
INCH
100
AcDbAttributeDefinition
  3
UNIT OF SCALE?
  2
AC_SCALE_UNIT
 70
     1
  0
ATTDEF
  5
9
100
AcDbEntity
  8
ATTRIBUTES
100
AcDbText
 10
-1.488143
 20
-4.32124
 30
0.0
 40
0.12
  1
0
100
AcDbAttributeDefinition
  3
VIEW CODE?
  2
AC_VIEW_CODE
 70
     1
  0
POLYLINE
  5
45B8A
100
AcDbEntity
  8
0
100
AcDbPolygonMesh
 66
     1
 10
0.0
 20
0.0
 30
0.0
 70
    16
 71
     6
 72
     3
  0
VERTEX
  5
45B8B
100
AcDbEntity
  8
0
100
AcDbVertex
100
AcDbPolygonMeshVertex
 10
0.13
 20
-4.728
 30
1.75
 70
    64
  0
VERTEX
  5
45B8C
100
AcDbEntity
  8
0
100
AcDbVertex
100
AcDbPolygonMeshVertex
 10
0.13
 20
-4.728
 30
0.75
 70
    64
  0
VERTEX
  5
45B8D
100
AcDbEntity
  8
0
100
AcDbVertex
100
AcDbPolygonMeshVertex
 10
0.13
 20
-4.728
 30
0.75
 70
    64
  0
VERTEX
  5
45B8E
100
AcDbEntity
  8
0
100
AcDbVertex
100
AcDbPolygonMeshVertex
 10
-0.32
 20
-4.728
 30
1.75
 70
    64
  0
VERTEX
  5
45B8F
100
AcDbEntity
  8
0
100
AcDbVertex
100
AcDbPolygonMeshVertex
 10
-0.32
 20
-4.728
 30
0.75
 70
    64
  0
VERTEX
  5
45B90
100
AcDbEntity
  8
0
100
AcDbVertex
100
AcDbPolygonMeshVertex
 10
-0.32
 20
-4.728
 30
0.75
 70
    64
  0
VERTEX
  5
45B91
100
AcDbEntity
  8
0
100
AcDbVertex
100
AcDbPolygonMeshVertex
 10
-0.32
 20
-4.428
 30
1.75
 70
    64
  0
VERTEX
  5
45B92
100
AcDbEntity
  8
0
100
AcDbVertex
100
AcDbPolygonMeshVertex
 10
-0.32
 20
-4.428
 30
0.75
 70
    64
  0
VERTEX
  5
45B93
100
AcDbEntity
  8
0
100
AcDbVertex
100
AcDbPolygonMeshVertex
 10
-0.32
 20
-4.728
 30
0.75
 70
    64
  0
VERTEX
  5
45B94
100
AcDbEntity
  8
0
100
AcDbVertex
100
AcDbPolygonMeshVertex
 10
0.13
 20
-4.428
 30
1.75
 70
    64
  0
VERTEX
  5
45B95
100
AcDbEntity
  8
0
100
AcDbVertex
100
AcDbPolygonMeshVertex
 10
0.13
 20
-4.428
 30
0.75
 70
    64
  0
VERTEX
  5
45B96
100
AcDbEntity
  8
0
100
AcDbVertex
100
AcDbPolygonMeshVertex
 10
0.13
 20
-4.728
 30
0.75
 70
    64
  0
VERTEX
  5
45B97
100
AcDbEntity
  8
0
100
AcDbVertex
100
AcDbPolygonMeshVertex
 10
0.13
 20
-4.428
 30
1.75
 70
    64
  0
VERTEX
  5
45B98
100
AcDbEntity
  8
0
100
AcDbVertex
100
AcDbPolygonMeshVertex
 10
0.13
 20
-4.428
 30
1.75
 70
    64
  0
VERTEX
  5
45B99
100
AcDbEntity
  8
0
100
AcDbVertex
100
AcDbPolygonMeshVertex
 10
0.13
 20
-4.728
 30
1.75
 70
    64
  0
VERTEX
  5
45B9A
100
AcDbEntity
  8
0
100
AcDbVertex
100
AcDbPolygonMeshVertex
 10
-0.32
 20
-4.428
 30
1.75
 70
    64
  0
VERTEX
  5
45B9B
100
AcDbEntity
  8
0
100
AcDbVertex
100
AcDbPolygonMeshVertex
 10
-0.32
 20
-4.428
 30
1.75
 70
    64
  0
VERTEX
  5
45B9C
100
AcDbEntity
  8
0
100
AcDbVertex
100
AcDbPolygonMeshVertex
 10
-0.32
 20
-4.728
 30
1.75
 70
    64
  0
SEQEND
  5
45B9D
100
AcDbEntity
  8
0
  0
POLYLINE
  5
45B9E
100
AcDbEntity
  8
0
100
AcDbPolygonMesh
 66
     1
 10
0.0
 20
0.0
 30
0.0
 70
    16
 71
     6
 72
     3
  0
VERTEX
  5
45B9F
100
AcDbEntity
  8
0
100
AcDbVertex
100
AcDbPolygonMeshVertex
 10
-0.17
 20
-0.13
 30
2.1
 70
    64
  0
VERTEX
  5
45BA0
100
AcDbEntity
  8
0
100
AcDbVertex
100
AcDbPolygonMeshVertex
 10
-0.17
 20
-0.13
 30
0.23
 70
    64
  0
VERTEX
  5
45BA1
100
AcDbEntity
  8
0
100
AcDbVertex
100
AcDbPolygonMeshVertex
 10
-0.17
 20
-0.13
 30
0.23
 70
    64
  0
VERTEX
  5
45BA2
100
AcDbEntity
  8
0
100
AcDbVertex
100
AcDbPolygonMeshVertex
 10
-1.57
 20
-0.13
 30
2.1
 70
    64
  0
VERTEX
  5
45BA3
100
AcDbEntity
  8
0
100
AcDbVertex
100
AcDbPolygonMeshVertex
 10
-1.57
 20
-0.13
 30
0.23
 70
    64
  0
VERTEX
  5
45BA4
100
AcDbEntity
  8
0
100
AcDbVertex
100
AcDbPolygonMeshVertex
 10
-1.57
 20
-0.13
 30
0.23
 70
    64
  0
VERTEX
  5
45BA5
100
AcDbEntity
  8
0
100
AcDbVertex
100
AcDbPolygonMeshVertex
 10
-1.57
 20
0.22
 30
2.1
 70
    64
  0
VERTEX
  5
45BA6
100
AcDbEntity
  8
0
100
AcDbVertex
100
AcDbPolygonMeshVertex
 10
-1.57
 20
0.22
 30
0.23
 70
    64
  0
VERTEX
  5
45BA7
100
AcDbEntity
  8
0
100
AcDbVertex
100
AcDbPolygonMeshVertex
 10
-1.57
 20
-0.13
 30
0.23
 70
    64
  0
VERTEX
  5
45BA8
100
AcDbEntity
  8
0
100
AcDbVertex
100
AcDbPolygonMeshVertex
 10
-0.17
 20
0.22
 30
2.1
 70
    64
  0
VERTEX
  5
45BA9
100
AcDbEntity
  8
0
100
AcDbVertex
100
AcDbPolygonMeshVertex
 10
-0.17
 20
0.22
 30
0.23
 70
    64
  0
VERTEX
  5
45BAA
100
AcDbEntity
  8
0
100
AcDbVertex
100
AcDbPolygonMeshVertex
 10
-0.17
 20
-0.13
 30
0.23
 70
    64
  0
VERTEX
  5
45BAB
100
AcDbEntity
  8
0
100
AcDbVertex
100
AcDbPolygonMeshVertex
 10
-0.17
 20
0.22
 30
2.1
 70
    64
  0
VERTEX
  5
45BAC
100
AcDbEntity
  8
0
100
AcDbVertex
100
AcDbPolygonMeshVertex
 10
-0.17
 20
0.22
 30
2.1
 70
    64
  0
VERTEX
  5
45BAD
100
AcDbEntity
  8
0
100
AcDbVertex
100
AcDbPolygonMeshVertex
 10
-0.17
 20
-0.13
 30
2.1
 70
    64
  0
VERTEX
  5
45BAE
100
AcDbEntity
  8
0
100
AcDbVertex
100
AcDbPolygonMeshVertex
 10
-1.57
 20
0.22
 30
2.1
 70
    64
  0
VERTEX
  5
45BAF
100
AcDbEntity
  8
0
100
AcDbVertex
100
AcDbPolygonMeshVertex
 10
-1.57
 20
0.22
 30
2.1
 70
    64
  0
VERTEX
  5
45BB0
100
AcDbEntity
  8
0
100
AcDbVertex
100
AcDbPolygonMeshVertex
 10
-1.57
 20
-0.13
 30
2.1
 70
    64
  0
SEQEND
  5
45BB1
100
AcDbEntity
  8
0
  0
POLYLINE
  5
45BB2
100
AcDbEntity
  8
0
100
AcDbPolygonMesh
 66
     1
 10
0.0
 20
0.0
 30
0.0
 70
    16
 71
     6
 72
     3
  0
VERTEX
  5
45BB3
100
AcDbEntity
  8
0
100
AcDbVertex
100
AcDbPolygonMeshVertex
 10
0.48
 20
-4.428
 30
2.1
 70
    64
  0
VERTEX
  5
45BB4
100
AcDbEntity
  8
0
100
AcDbVertex
100
AcDbPolygonMeshVertex
 10
0.48
 20
-4.428
 30
0.23
 70
    64
  0
VERTEX
  5
45BB5
100
AcDbEntity
  8
0
100
AcDbVertex
100
AcDbPolygonMeshVertex
 10
0.48
 20
-4.428
 30
0.23
 70
    64
  0
VERTEX
  5
45BB6
100
AcDbEntity
  8
0
100
AcDbVertex
100
AcDbPolygonMeshVertex
 10
-0.92
 20
-4.428
 30
2.1
 70
    64
  0
VERTEX
  5
45BB7
100
AcDbEntity
  8
0
100
AcDbVertex
100
AcDbPolygonMeshVertex
 10
-0.92
 20
-4.428
 30
0.23
 70
    64
  0
VERTEX
  5
45BB8
100
AcDbEntity
  8
0
100
AcDbVertex
100
AcDbPolygonMeshVertex
 10
-0.92
 20
-4.428
 30
0.23
 70
    64
  0
VERTEX
  5
45BB9
100
AcDbEntity
  8
0
100
AcDbVertex
100
AcDbPolygonMeshVertex
 10
-0.92
 20
-4.078
 30
2.1
 70
    64
  0
VERTEX
  5
45BBA
100
AcDbEntity
  8
0
100
AcDbVertex
100
AcDbPolygonMeshVertex
 10
-0.92
 20
-4.078
 30
0.23
 70
    64
  0
VERTEX
  5
45BBB
100
AcDbEntity
  8
0
100
AcDbVertex
100
AcDbPolygonMeshVertex
 10
-0.92
 20
-4.428
 30
0.23
 70
    64
  0
VERTEX
  5
45BBC
100
AcDbEntity
  8
0
100
AcDbVertex
100
AcDbPolygonMeshVertex
 10
0.48
 20
-4.078
 30
2.1
 70
    64
  0
VERTEX
  5
45BBD
100
AcDbEntity
  8
0
100
AcDbVertex
100
AcDbPolygonMeshVertex
 10
0.48
 20
-4.078
 30
0.23
 70
    64
  0
VERTEX
  5
45BBE
100
AcDbEntity
  8
0
100
AcDbVertex
100
AcDbPolygonMeshVertex
 10
0.48
 20
-4.428
 30
0.23
 70
    64
  0
VERTEX
  5
45BBF
100
AcDbEntity
  8
0
100
AcDbVertex
100
AcDbPolygonMeshVertex
 10
0.48
 20
-4.078
 30
2.1
 70
    64
  0
VERTEX
  5
45BC0
100
AcDbEntity
  8
0
100
AcDbVertex
100
AcDbPolygonMeshVertex
 10
0.48
 20
-4.078
 30
2.1
 70
    64
  0
VERTEX
  5
45BC1
100
AcDbEntity
  8
0
100
AcDbVertex
100
AcDbPolygonMeshVertex
 10
0.48
 20
-4.428
 30
2.1
 70
    64
  0
VERTEX
  5
45BC2
100
AcDbEntity
  8
0
100
AcDbVertex
100
AcDbPolygonMeshVertex
 10
-0.92
 20
-4.078
 30
2.1
 70
    64
  0
VERTEX
  5
45BC3
100
AcDbEntity
  8
0
100
AcDbVertex
100
AcDbPolygonMeshVertex
 10
-0.92
 20
-4.078
 30
2.1
 70
    64
  0
VERTEX
  5
45BC4
100
AcDbEntity
  8
0
100
AcDbVertex
100
AcDbPolygonMeshVertex
 10
-0.92
 20
-4.428
 30
2.1
 70
    64
  0
SEQEND
  5
45BC5
100
AcDbEntity
  8
0
  0
POLYLINE
  5
45BC6
100
AcDbEntity
  8
0
100
AcDbPolygonMesh
 66
     1
 10
0.0
 20
0.0
 30
0.0
 70
    16
 71
     6
 72
     3
  0
VERTEX
  5
45BC7
100
AcDbEntity
  8
0
100
AcDbVertex
100
AcDbPolygonMeshVertex
 10
0.48
 20
-0.13
 30
2.1
 70
    64
  0
VERTEX
  5
45BC8
100
AcDbEntity
  8
0
100
AcDbVertex
100
AcDbPolygonMeshVertex
 10
0.48
 20
-0.13
 30
0.23
 70
    64
  0
VERTEX
  5
45BC9
100
AcDbEntity
  8
0
100
AcDbVertex
100
AcDbPolygonMeshVertex
 10
0.48
 20
-0.13
 30
0.23
 70
    64
  0
VERTEX
  5
45BCA
100
AcDbEntity
  8
0
100
AcDbVertex
100
AcDbPolygonMeshVertex
 10
0.18
 20
-0.13
 30
2.1
 70
    64
  0
VERTEX
  5
45BCB
100
AcDbEntity
  8
0
100
AcDbVertex
100
AcDbPolygonMeshVertex
 10
0.18
 20
-0.13
 30
0.23
 70
    64
  0
VERTEX
  5
45BCC
100
AcDbEntity
  8
0
100
AcDbVertex
100
AcDbPolygonMeshVertex
 10
0.18
 20
-0.13
 30
0.23
 70
    64
  0
VERTEX
  5
45BCD
100
AcDbEntity
  8
0
100
AcDbVertex
100
AcDbPolygonMeshVertex
 10
0.18
 20
0.22
 30
2.1
 70
    64
  0
VERTEX
  5
45BCE
100
AcDbEntity
  8
0
100
AcDbVertex
100
AcDbPolygonMeshVertex
 10
0.18
 20
0.22
 30
0.23
 70
    64
  0
VERTEX
  5
45BCF
100
AcDbEntity
  8
0
100
AcDbVertex
100
AcDbPolygonMeshVertex
 10
0.18
 20
-0.13
 30
0.23
 70
    64
  0
VERTEX
  5
45BD0
100
AcDbEntity
  8
0
100
AcDbVertex
100
AcDbPolygonMeshVertex
 10
0.48
 20
0.22
 30
2.1
 70
    64
  0
VERTEX
  5
45BD1
100
AcDbEntity
  8
0
100
AcDbVertex
100
AcDbPolygonMeshVertex
 10
0.48
 20
0.22
 30
0.23
 70
    64
  0
VERTEX
  5
45BD2
100
AcDbEntity
  8
0
100
AcDbVertex
100
AcDbPolygonMeshVertex
 10
0.48
 20
-0.13
 30
0.23
 70
    64
  0
VERTEX
  5
45BD3
100
AcDbEntity
  8
0
100
AcDbVertex
100
AcDbPolygonMeshVertex
 10
0.48
 20
0.22
 30
2.1
 70
    64
  0
VERTEX
  5
45BD4
100
AcDbEntity
  8
0
100
AcDbVertex
100
AcDbPolygonMeshVertex
 10
0.48
 20
0.22
 30
2.1
 70
    64
  0
VERTEX
  5
45BD5
100
AcDbEntity
  8
0
100
AcDbVertex
100
AcDbPolygonMeshVertex
 10
0.48
 20
-0.13
 30
2.1
 70
    64
  0
VERTEX
  5
45BD6
100
AcDbEntity
  8
0
100
AcDbVertex
100
AcDbPolygonMeshVertex
 10
0.18
 20
0.22
 30
2.1
 70
    64
  0
VERTEX
  5
45BD7
100
AcDbEntity
  8
0
100
AcDbVertex
100
AcDbPolygonMeshVertex
 10
0.18
 20
0.22
 30
2.1
 70
    64
  0
VERTEX
  5
45BD8
100
AcDbEntity
  8
0
100
AcDbVertex
100
AcDbPolygonMeshVertex
 10
0.18
 20
-0.13
 30
2.1
 70
    64
  0
SEQEND
  5
45BD9
100
AcDbEntity
  8
0
  0
POLYLINE
  5
45BDA
100
AcDbEntity
  8
0
100
AcDbPolygonMesh
 66
     1
 10
0.0
 20
0.0
 30
0.0
 70
    16
 71
     6
 72
     3
  0
VERTEX
  5
45BDB
100
AcDbEntity
  8
0
100
AcDbVertex
100
AcDbPolygonMeshVertex
 10
0.48
 20
-4.078
 30
2.1
 70
    64
  0
VERTEX
  5
45BDC
100
AcDbEntity
  8
0
100
AcDbVertex
100
AcDbPolygonMeshVertex
 10
0.48
 20
-4.078
 30
0.23
 70
    64
  0
VERTEX
  5
45BDD
100
AcDbEntity
  8
0
100
AcDbVertex
100
AcDbPolygonMeshVertex
 10
0.48
 20
-4.078
 30
0.23
 70
    64
  0
VERTEX
  5
45BDE
100
AcDbEntity
  8
0
100
AcDbVertex
100
AcDbPolygonMeshVertex
 10
-1.57
 20
-4.078
 30
2.1
 70
    64
  0
VERTEX
  5
45BDF
100
AcDbEntity
  8
0
100
AcDbVertex
100
AcDbPolygonMeshVertex
 10
-1.57
 20
-4.078
 30
0.23
 70
    64
  0
VERTEX
  5
45BE0
100
AcDbEntity
  8
0
100
AcDbVertex
100
AcDbPolygonMeshVertex
 10
-1.57
 20
-4.078
 30
0.23
 70
    64
  0
VERTEX
  5
45BE1
100
AcDbEntity
  8
0
100
AcDbVertex
100
AcDbPolygonMeshVertex
 10
-1.57
 20
-0.13
 30
2.1
 70
    64
  0
VERTEX
  5
45BE2
100
AcDbEntity
  8
0
100
AcDbVertex
100
AcDbPolygonMeshVertex
 10
-1.57
 20
-0.13
 30
0.23
 70
    64
  0
VERTEX
  5
45BE3
100
AcDbEntity
  8
0
100
AcDbVertex
100
AcDbPolygonMeshVertex
 10
-1.57
 20
-4.078
 30
0.23
 70
    64
  0
VERTEX
  5
45BE4
100
AcDbEntity
  8
0
100
AcDbVertex
100
AcDbPolygonMeshVertex
 10
0.48
 20
-0.13
 30
2.1
 70
    64
  0
VERTEX
  5
45BE5
100
AcDbEntity
  8
0
100
AcDbVertex
100
AcDbPolygonMeshVertex
 10
0.48
 20
-0.13
 30
0.23
 70
    64
  0
VERTEX
  5
45BE6
100
AcDbEntity
  8
0
100
AcDbVertex
100
AcDbPolygonMeshVertex
 10
0.48
 20
-4.078
 30
0.23
 70
    64
  0
VERTEX
  5
45BE7
100
AcDbEntity
  8
0
100
AcDbVertex
100
AcDbPolygonMeshVertex
 10
0.48
 20
-0.13
 30
2.1
 70
    64
  0
VERTEX
  5
45BE8
100
AcDbEntity
  8
0
100
AcDbVertex
100
AcDbPolygonMeshVertex
 10
0.48
 20
-0.13
 30
2.1
 70
    64
  0
VERTEX
  5
45BE9
100
AcDbEntity
  8
0
100
AcDbVertex
100
AcDbPolygonMeshVertex
 10
0.48
 20
-4.078
 30
2.1
 70
    64
  0
VERTEX
  5
45BEA
100
AcDbEntity
  8
0
100
AcDbVertex
100
AcDbPolygonMeshVertex
 10
-1.57
 20
-0.13
 30
2.1
 70
    64
  0
VERTEX
  5
45BEB
100
AcDbEntity
  8
0
100
AcDbVertex
100
AcDbPolygonMeshVertex
 10
-1.57
 20
-0.13
 30
2.1
 70
    64
  0
VERTEX
  5
45BEC
100
AcDbEntity
  8
0
100
AcDbVertex
100
AcDbPolygonMeshVertex
 10
-1.57
 20
-4.078
 30
2.1
 70
    64
  0
SEQEND
  5
45BED
100
AcDbEntity
  8
0
  0
POLYLINE
  5
45BEE
100
AcDbEntity
  8
0
100
AcDbPolygonMesh
 66
     1
 10
0.0
 20
0.0
 30
0.0
 70
    16
 71
     6
 72
     3
  0
VERTEX
  5
45BEF
100
AcDbEntity
  8
0
100
AcDbVertex
100
AcDbPolygonMeshVertex
 10
-1.27
 20
-4.428
 30
2.1
 70
    64
  0
VERTEX
  5
45BF0
100
AcDbEntity
  8
0
100
AcDbVertex
100
AcDbPolygonMeshVertex
 10
-1.27
 20
-4.428
 30
0.23
 70
    64
  0
VERTEX
  5
45BF1
100
AcDbEntity
  8
0
100
AcDbVertex
100
AcDbPolygonMeshVertex
 10
-1.27
 20
-4.428
 30
0.23
 70
    64
  0
VERTEX
  5
45BF2
100
AcDbEntity
  8
0
100
AcDbVertex
100
AcDbPolygonMeshVertex
 10
-1.57
 20
-4.428
 30
2.1
 70
    64
  0
VERTEX
  5
45BF3
100
AcDbEntity
  8
0
100
AcDbVertex
100
AcDbPolygonMeshVertex
 10
-1.57
 20
-4.428
 30
0.23
 70
    64
  0
VERTEX
  5
45BF4
100
AcDbEntity
  8
0
100
AcDbVertex
100
AcDbPolygonMeshVertex
 10
-1.57
 20
-4.428
 30
0.23
 70
    64
  0
VERTEX
  5
45BF5
100
AcDbEntity
  8
0
100
AcDbVertex
100
AcDbPolygonMeshVertex
 10
-1.57
 20
-4.078
 30
2.1
 70
    64
  0
VERTEX
  5
45BF6
100
AcDbEntity
  8
0
100
AcDbVertex
100
AcDbPolygonMeshVertex
 10
-1.57
 20
-4.078
 30
0.23
 70
    64
  0
VERTEX
  5
45BF7
100
AcDbEntity
  8
0
100
AcDbVertex
100
AcDbPolygonMeshVertex
 10
-1.57
 20
-4.428
 30
0.23
 70
    64
  0
VERTEX
  5
45BF8
100
AcDbEntity
  8
0
100
AcDbVertex
100
AcDbPolygonMeshVertex
 10
-1.27
 20
-4.078
 30
2.1
 70
    64
  0
VERTEX
  5
45BF9
100
AcDbEntity
  8
0
100
AcDbVertex
100
AcDbPolygonMeshVertex
 10
-1.27
 20
-4.078
 30
0.23
 70
    64
  0
VERTEX
  5
45BFA
100
AcDbEntity
  8
0
100
AcDbVertex
100
AcDbPolygonMeshVertex
 10
-1.27
 20
-4.428
 30
0.23
 70
    64
  0
VERTEX
  5
45BFB
100
AcDbEntity
  8
0
100
AcDbVertex
100
AcDbPolygonMeshVertex
 10
-1.27
 20
-4.078
 30
2.1
 70
    64
  0
VERTEX
  5
45BFC
100
AcDbEntity
  8
0
100
AcDbVertex
100
AcDbPolygonMeshVertex
 10
-1.27
 20
-4.078
 30
2.1
 70
    64
  0
VERTEX
  5
45BFD
100
AcDbEntity
  8
0
100
AcDbVertex
100
AcDbPolygonMeshVertex
 10
-1.27
 20
-4.428
 30
2.1
 70
    64
  0
VERTEX
  5
45BFE
100
AcDbEntity
  8
0
100
AcDbVertex
100
AcDbPolygonMeshVertex
 10
-1.57
 20
-4.078
 30
2.1
 70
    64
  0
VERTEX
  5
45BFF
100
AcDbEntity
  8
0
100
AcDbVertex
100
AcDbPolygonMeshVertex
 10
-1.57
 20
-4.078
 30
2.1
 70
    64
  0
VERTEX
  5
45C00
100
AcDbEntity
  8
0
100
AcDbVertex
100
AcDbPolygonMeshVertex
 10
-1.57
 20
-4.428
 30
2.1
 70
    64
  0
SEQEND
  5
45C01
100
AcDbEntity
  8
0
  0
POLYLINE
  5
45C02
100
AcDbEntity
  8
0
100
AcDbPolygonMesh
 66
     1
 10
0.0
 20
0.0
 30
0.0
 70
    16
 71
     6
 72
     3
  0
VERTEX
  5
45C03
100
AcDbEntity
  8
0
100
AcDbVertex
100
AcDbPolygonMeshVertex
 10
0.48
 20
-4.428
 30
0.23
 70
    64
  0
VERTEX
  5
45C04
100
AcDbEntity
  8
0
100
AcDbVertex
100
AcDbPolygonMeshVertex
 10
0.48
 20
-4.428
 30
0.17
 70
    64
  0
VERTEX
  5
45C05
100
AcDbEntity
  8
0
100
AcDbVertex
100
AcDbPolygonMeshVertex
 10
0.48
 20
-4.428
 30
0.17
 70
    64
  0
VERTEX
  5
45C06
100
AcDbEntity
  8
0
100
AcDbVertex
100
AcDbPolygonMeshVertex
 10
-1.57
 20
-4.428
 30
0.23
 70
    64
  0
VERTEX
  5
45C07
100
AcDbEntity
  8
0
100
AcDbVertex
100
AcDbPolygonMeshVertex
 10
-1.57
 20
-4.428
 30
0.17
 70
    64
  0
VERTEX
  5
45C08
100
AcDbEntity
  8
0
100
AcDbVertex
100
AcDbPolygonMeshVertex
 10
-1.57
 20
-4.428
 30
0.17
 70
    64
  0
VERTEX
  5
45C09
100
AcDbEntity
  8
0
100
AcDbVertex
100
AcDbPolygonMeshVertex
 10
-1.57
 20
0.22
 30
0.23
 70
    64
  0
VERTEX
  5
45C0A
100
AcDbEntity
  8
0
100
AcDbVertex
100
AcDbPolygonMeshVertex
 10
-1.57
 20
0.22
 30
0.17
 70
    64
  0
VERTEX
  5
45C0B
100
AcDbEntity
  8
0
100
AcDbVertex
100
AcDbPolygonMeshVertex
 10
-1.57
 20
-4.428
 30
0.17
 70
    64
  0
VERTEX
  5
45C0C
100
AcDbEntity
  8
0
100
AcDbVertex
100
AcDbPolygonMeshVertex
 10
0.48
 20
0.22
 30
0.23
 70
    64
  0
VERTEX
  5
45C0D
100
AcDbEntity
  8
0
100
AcDbVertex
100
AcDbPolygonMeshVertex
 10
0.48
 20
0.22
 30
0.17
 70
    64
  0
VERTEX
  5
45C0E
100
AcDbEntity
  8
0
100
AcDbVertex
100
AcDbPolygonMeshVertex
 10
0.48
 20
-4.428
 30
0.17
 70
    64
  0
VERTEX
  5
45C0F
100
AcDbEntity
  8
0
100
AcDbVertex
100
AcDbPolygonMeshVertex
 10
0.48
 20
0.22
 30
0.23
 70
    64
  0
VERTEX
  5
45C10
100
AcDbEntity
  8
0
100
AcDbVertex
100
AcDbPolygonMeshVertex
 10
0.48
 20
0.22
 30
0.23
 70
    64
  0
VERTEX
  5
45C11
100
AcDbEntity
  8
0
100
AcDbVertex
100
AcDbPolygonMeshVertex
 10
0.48
 20
-4.428
 30
0.23
 70
    64
  0
VERTEX
  5
45C12
100
AcDbEntity
  8
0
100
AcDbVertex
100
AcDbPolygonMeshVertex
 10
-1.57
 20
0.22
 30
0.23
 70
    64
  0
VERTEX
  5
45C13
100
AcDbEntity
  8
0
100
AcDbVertex
100
AcDbPolygonMeshVertex
 10
-1.57
 20
0.22
 30
0.23
 70
    64
  0
VERTEX
  5
45C14
100
AcDbEntity
  8
0
100
AcDbVertex
100
AcDbPolygonMeshVertex
 10
-1.57
 20
-4.428
 30
0.23
 70
    64
  0
SEQEND
  5
45C15
100
AcDbEntity
  8
0
  0
POLYLINE
  5
45C16
100
AcDbEntity
  8
0
100
AcDbPolygonMesh
 66
     1
 10
0.0
 20
0.0
 30
0.0
 70
    16
 71
     6
 72
     3
  0
VERTEX
  5
45C17
100
AcDbEntity
  8
0
100
AcDbVertex
100
AcDbPolygonMeshVertex
 10
0.48
 20
-4.428
 30
0.17
 70
    64
  0
VERTEX
  5
45C18
100
AcDbEntity
  8
0
100
AcDbVertex
100
AcDbPolygonMeshVertex
 10
0.48
 20
-4.428
 30
0.0
 70
    64
  0
VERTEX
  5
45C19
100
AcDbEntity
  8
0
100
AcDbVertex
100
AcDbPolygonMeshVertex
 10
0.48
 20
-4.428
 30
0.0
 70
    64
  0
VERTEX
  5
45C1A
100
AcDbEntity
  8
0
100
AcDbVertex
100
AcDbPolygonMeshVertex
 10
-1.57
 20
-4.428
 30
0.17
 70
    64
  0
VERTEX
  5
45C1B
100
AcDbEntity
  8
0
100
AcDbVertex
100
AcDbPolygonMeshVertex
 10
-1.57
 20
-4.428
 30
0.0
 70
    64
  0
VERTEX
  5
45C1C
100
AcDbEntity
  8
0
100
AcDbVertex
100
AcDbPolygonMeshVertex
 10
-1.57
 20
-4.428
 30
0.0
 70
    64
  0
VERTEX
  5
45C1D
100
AcDbEntity
  8
0
100
AcDbVertex
100
AcDbPolygonMeshVertex
 10
-1.57
 20
-2.888
 30
0.17
 70
    64
  0
VERTEX
  5
45C1E
100
AcDbEntity
  8
0
100
AcDbVertex
100
AcDbPolygonMeshVertex
 10
-1.57
 20
-2.888
 30
0.0
 70
    64
  0
VERTEX
  5
45C1F
100
AcDbEntity
  8
0
100
AcDbVertex
100
AcDbPolygonMeshVertex
 10
-1.57
 20
-4.428
 30
0.0
 70
    64
  0
VERTEX
  5
45C20
100
AcDbEntity
  8
0
100
AcDbVertex
100
AcDbPolygonMeshVertex
 10
0.48
 20
-2.888
 30
0.17
 70
    64
  0
VERTEX
  5
45C21
100
AcDbEntity
  8
0
100
AcDbVertex
100
AcDbPolygonMeshVertex
 10
0.48
 20
-2.888
 30
0.0
 70
    64
  0
VERTEX
  5
45C22
100
AcDbEntity
  8
0
100
AcDbVertex
100
AcDbPolygonMeshVertex
 10
0.48
 20
-4.428
 30
0.0
 70
    64
  0
VERTEX
  5
45C23
100
AcDbEntity
  8
0
100
AcDbVertex
100
AcDbPolygonMeshVertex
 10
0.48
 20
-2.888
 30
0.17
 70
    64
  0
VERTEX
  5
45C24
100
AcDbEntity
  8
0
100
AcDbVertex
100
AcDbPolygonMeshVertex
 10
0.48
 20
-2.888
 30
0.17
 70
    64
  0
VERTEX
  5
45C25
100
AcDbEntity
  8
0
100
AcDbVertex
100
AcDbPolygonMeshVertex
 10
0.48
 20
-4.428
 30
0.17
 70
    64
  0
VERTEX
  5
45C26
100
AcDbEntity
  8
0
100
AcDbVertex
100
AcDbPolygonMeshVertex
 10
-1.57
 20
-2.888
 30
0.17
 70
    64
  0
VERTEX
  5
45C27
100
AcDbEntity
  8
0
100
AcDbVertex
100
AcDbPolygonMeshVertex
 10
-1.57
 20
-2.888
 30
0.17
 70
    64
  0
VERTEX
  5
45C28
100
AcDbEntity
  8
0
100
AcDbVertex
100
AcDbPolygonMeshVertex
 10
-1.57
 20
-4.428
 30
0.17
 70
    64
  0
SEQEND
  5
45C29
100
AcDbEntity
  8
0
  0
POLYLINE
  5
45C2A
100
AcDbEntity
  8
0
100
AcDbPolygonMesh
 66
     1
 10
0.0
 20
0.0
 30
0.0
 70
    16
 71
     6
 72
     3
  0
VERTEX
  5
45C2B
100
AcDbEntity
  8
0
100
AcDbVertex
100
AcDbPolygonMeshVertex
 10
-0.12
 20
-4.728
 30
0.1
 70
    64
  0
VERTEX
  5
45C2C
100
AcDbEntity
  8
0
100
AcDbVertex
100
AcDbPolygonMeshVertex
 10
-0.12
 20
-4.728
 30
0.0
 70
    64
  0
VERTEX
  5
45C2D
100
AcDbEntity
  8
0
100
AcDbVertex
100
AcDbPolygonMeshVertex
 10
-0.12
 20
-4.728
 30
0.0
 70
    64
  0
VERTEX
  5
45C2E
100
AcDbEntity
  8
0
100
AcDbVertex
100
AcDbPolygonMeshVertex
 10
-0.87
 20
-4.728
 30
0.1
 70
    64
  0
VERTEX
  5
45C2F
100
AcDbEntity
  8
0
100
AcDbVertex
100
AcDbPolygonMeshVertex
 10
-0.87
 20
-4.728
 30
0.0
 70
    64
  0
VERTEX
  5
45C30
100
AcDbEntity
  8
0
100
AcDbVertex
100
AcDbPolygonMeshVertex
 10
-0.87
 20
-4.728
 30
0.0
 70
    64
  0
VERTEX
  5
45C31
100
AcDbEntity
  8
0
100
AcDbVertex
100
AcDbPolygonMeshVertex
 10
-0.87
 20
-4.428
 30
0.1
 70
    64
  0
VERTEX
  5
45C32
100
AcDbEntity
  8
0
100
AcDbVertex
100
AcDbPolygonMeshVertex
 10
-0.87
 20
-4.428
 30
0.0
 70
    64
  0
VERTEX
  5
45C33
100
AcDbEntity
  8
0
100
AcDbVertex
100
AcDbPolygonMeshVertex
 10
-0.87
 20
-4.728
 30
0.0
 70
    64
  0
VERTEX
  5
45C34
100
AcDbEntity
  8
0
100
AcDbVertex
100
AcDbPolygonMeshVertex
 10
-0.12
 20
-4.428
 30
0.1
 70
    64
  0
VERTEX
  5
45C35
100
AcDbEntity
  8
0
100
AcDbVertex
100
AcDbPolygonMeshVertex
 10
-0.12
 20
-4.428
 30
0.0
 70
    64
  0
VERTEX
  5
45C36
100
AcDbEntity
  8
0
100
AcDbVertex
100
AcDbPolygonMeshVertex
 10
-0.12
 20
-4.728
 30
0.0
 70
    64
  0
VERTEX
  5
45C37
100
AcDbEntity
  8
0
100
AcDbVertex
100
AcDbPolygonMeshVertex
 10
-0.12
 20
-4.428
 30
0.1
 70
    64
  0
VERTEX
  5
45C38
100
AcDbEntity
  8
0
100
AcDbVertex
100
AcDbPolygonMeshVertex
 10
-0.12
 20
-4.428
 30
0.1
 70
    64
  0
VERTEX
  5
45C39
100
AcDbEntity
  8
0
100
AcDbVertex
100
AcDbPolygonMeshVertex
 10
-0.12
 20
-4.728
 30
0.1
 70
    64
  0
VERTEX
  5
45C3A
100
AcDbEntity
  8
0
100
AcDbVertex
100
AcDbPolygonMeshVertex
 10
-0.87
 20
-4.428
 30
0.1
 70
    64
  0
VERTEX
  5
45C3B
100
AcDbEntity
  8
0
100
AcDbVertex
100
AcDbPolygonMeshVertex
 10
-0.87
 20
-4.428
 30
0.1
 70
    64
  0
VERTEX
  5
45C3C
100
AcDbEntity
  8
0
100
AcDbVertex
100
AcDbPolygonMeshVertex
 10
-0.87
 20
-4.728
 30
0.1
 70
    64
  0
SEQEND
  5
45C3D
100
AcDbEntity
  8
0
  0
LINE
  5
45C3E
100
AcDbEntity
  8
0
100
AcDbLine
 10
-0.1916
 20
-4.656396
 30
0.1
 11
-0.7984
 21
-4.656396
 31
0.1
  0
LINE
  5
45C3F
100
AcDbEntity
  8
0
100
AcDbLine
 10
-0.7984
 20
-4.428
 30
0.1
 11
-0.7984
 21
-4.656396
 31
0.1
  0
LINE
  5
45C40
100
AcDbEntity
  8
0
100
AcDbLine
 10
-0.1916
 20
-4.428
 30
0.1
 11
-0.1916
 21
-4.656396
 31
0.1
  0
POINT
  5
45C42
100
AcDbEntity
  8
DIMS-MTG-HOLES
100
AcDbPoint
 10
-1.09
 20
-4.208
 30
0.0
  0
CIRCLE
  5
45C44
100
AcDbEntity
  8
0
100
AcDbCircle
 10
-1.09
 20
-4.208
 30
0.23
 40
0.094
  0
TEXT
  5
45C45
100
AcDbEntity
  8
0
100
AcDbText
 39
0.001
 10
-0.536667
 20
0.922
 30
4.428
 40
0.05
  1
CHS
 72
     1
 11
-0.47
 21
0.922
 31
4.428
210
0.0
220
-1.0
230
0.0
100
AcDbText
  0
LINE
  5
45C46
100
AcDbEntity
  8
0
100
AcDbLine
 10
-0.000187
 20
-4.728
 30
0.996209
 11
-0.191798
 21
-4.728
 31
0.835044
  0
LINE
  5
45C47
100
AcDbEntity
  8
0
100
AcDbLine
 10
-0.015342
 20
-4.728
 30
1.012974
 11
-0.203164
 21
-4.728
 31
0.855055
  0
CIRCLE
  5
45C48
100
AcDbEntity
  8
0
100
AcDbCircle
 10
-0.095
 20
0.9165
 30
4.728
 40
0.125
210
0.0
220
-1.0
230
0.0
  0
TEXT
  5
45C49
100
AcDbEntity
  8
0
100
AcDbText
 39
0.001
 10
-0.536667
 20
0.822
 30
4.428
 40
0.05
  1
GND
 72
     1
 11
-0.47
 21
0.822
 31
4.428
210
0.0
220
-1.0
230
0.0
100
AcDbText
  0
LINE
  5
45C4A
100
AcDbEntity
  8
0
100
AcDbLine
 10
0.13
 20
-4.728
 30
1.083
 11
-0.32
 21
-4.728
 31
1.083
  0
TEXT
  5
45C4B
100
AcDbEntity
  8
0
100
AcDbText
 39
0.001
 10
-0.561667
 20
1.152
 30
4.428
 40
0.05
  1
NEUT
 72
     1
 11
-0.47
 21
1.152
 31
4.428
210
0.0
220
-1.0
230
0.0
100
AcDbText
  0
TEXT
  5
45C4C
100
AcDbEntity
  8
0
100
AcDbText
 39
0.001
 10
-0.511667
 20
1.252
 30
4.428
 40
0.05
  1
DC
 72
     1
 11
-0.47
 21
1.252
 31
4.428
210
0.0
220
-1.0
230
0.0
100
AcDbText
  0
CIRCLE
  5
45C4D
100
AcDbEntity
  8
0
100
AcDbCircle
 10
-0.095
 20
1.2495
 30
4.728
 40
0.125
210
0.0
220
-1.0
230
0.0
  0
LINE
  5
45C4E
100
AcDbEntity
  8
0
100
AcDbLine
 10
-0.000187
 20
-4.728
 30
1.329209
 11
-0.191798
 21
-4.728
 31
1.168044
  0
LINE
  5
45C4F
100
AcDbEntity
  8
0
100
AcDbLine
 10
-0.015342
 20
-4.728
 30
1.345974
 11
-0.203164
 21
-4.728
 31
1.188055
  0
POLYLINE
  5
45C50
100
AcDbEntity
  8
0
100
AcDbPolygonMesh
 66
     1
 10
0.0
 20
0.0
 30
0.0
 70
    16
 71
     6
 72
     3
  0
VERTEX
  5
45C51
100
AcDbEntity
  8
0
100
AcDbVertex
100
AcDbPolygonMeshVertex
 10
0.48
 20
-1.48
 30
0.17
 70
    64
  0
VERTEX
  5
45C52
100
AcDbEntity
  8
0
100
AcDbVertex
100
AcDbPolygonMeshVertex
 10
0.48
 20
-1.48
 30
0.0
 70
    64
  0
VERTEX
  5
45C53
100
AcDbEntity
  8
0
100
AcDbVertex
100
AcDbPolygonMeshVertex
 10
0.48
 20
-1.48
 30
0.0
 70
    64
  0
VERTEX
  5
45C54
100
AcDbEntity
  8
0
100
AcDbVertex
100
AcDbPolygonMeshVertex
 10
-1.57
 20
-1.48
 30
0.17
 70
    64
  0
VERTEX
  5
45C55
100
AcDbEntity
  8
0
100
AcDbVertex
100
AcDbPolygonMeshVertex
 10
-1.57
 20
-1.48
 30
0.0
 70
    64
  0
VERTEX
  5
45C56
100
AcDbEntity
  8
0
100
AcDbVertex
100
AcDbPolygonMeshVertex
 10
-1.57
 20
-1.48
 30
0.0
 70
    64
  0
VERTEX
  5
45C57
100
AcDbEntity
  8
0
100
AcDbVertex
100
AcDbPolygonMeshVertex
 10
-1.57
 20
0.22
 30
0.17
 70
    64
  0
VERTEX
  5
45C58
100
AcDbEntity
  8
0
100
AcDbVertex
100
AcDbPolygonMeshVertex
 10
-1.57
 20
0.22
 30
0.0
 70
    64
  0
VERTEX
  5
45C59
100
AcDbEntity
  8
0
100
AcDbVertex
100
AcDbPolygonMeshVertex
 10
-1.57
 20
-1.48
 30
0.0
 70
    64
  0
VERTEX
  5
45C5A
100
AcDbEntity
  8
0
100
AcDbVertex
100
AcDbPolygonMeshVertex
 10
0.48
 20
0.22
 30
0.17
 70
    64
  0
VERTEX
  5
45C5B
100
AcDbEntity
  8
0
100
AcDbVertex
100
AcDbPolygonMeshVertex
 10
0.48
 20
0.22
 30
0.0
 70
    64
  0
VERTEX
  5
45C5C
100
AcDbEntity
  8
0
100
AcDbVertex
100
AcDbPolygonMeshVertex
 10
0.48
 20
-1.48
 30
0.0
 70
    64
  0
VERTEX
  5
45C5D
100
AcDbEntity
  8
0
100
AcDbVertex
100
AcDbPolygonMeshVertex
 10
0.48
 20
0.22
 30
0.17
 70
    64
  0
VERTEX
  5
45C5E
100
AcDbEntity
  8
0
100
AcDbVertex
100
AcDbPolygonMeshVertex
 10
0.48
 20
0.22
 30
0.17
 70
    64
  0
VERTEX
  5
45C5F
100
AcDbEntity
  8
0
100
AcDbVertex
100
AcDbPolygonMeshVertex
 10
0.48
 20
-1.48
 30
0.17
 70
    64
  0
VERTEX
  5
45C60
100
AcDbEntity
  8
0
100
AcDbVertex
100
AcDbPolygonMeshVertex
 10
-1.57
 20
0.22
 30
0.17
 70
    64
  0
VERTEX
  5
45C61
100
AcDbEntity
  8
0
100
AcDbVertex
100
AcDbPolygonMeshVertex
 10
-1.57
 20
0.22
 30
0.17
 70
    64
  0
VERTEX
  5
45C62
100
AcDbEntity
  8
0
100
AcDbVertex
100
AcDbPolygonMeshVertex
 10
-1.57
 20
-1.48
 30
0.17
 70
    64
  0
SEQEND
  5
45C63
100
AcDbEntity
  8
0
  0
POINT
  5
45C64
100
AcDbEntity
  8
SNAP_POINTS
100
AcDbPoint
 10
-1.57
 20
-1.48
 30
0.0
  0
POINT
  5
45C66
100
AcDbEntity
  8
DIMS-MTG-HOLES
100
AcDbPoint
 10
0.0
 20
0.0
 30
0.0
  0
CIRCLE
  5
45C69
100
AcDbEntity
  8
0
100
AcDbCircle
 10
0.0
 20
0.0
 30
0.23
 40
0.094
  0
CIRCLE
  5
45C6A
100
AcDbEntity
  8
0
100
AcDbCircle
 10
-0.11996
 20
-2.377959
 30
2.125
 40
0.0625
  0
CIRCLE
  5
45C6B
100
AcDbEntity
  8
0
100
AcDbCircle
 10
-0.91996
 20
-2.377959
 30
2.125
 40
0.0625
  0
POLYLINE
  5
45C6C
100
AcDbEntity
  8
0
100
AcDbPolygonMesh
 66
     1
 10
0.0
 20
0.0
 30
0.0
 70
    16
 71
     6
 72
     3
  0
VERTEX
  5
45C6D
100
AcDbEntity
  8
0
100
AcDbVertex
100
AcDbPolygonMeshVertex
 10
0.48
 20
-2.638
 30
2.55
 70
    64
  0
VERTEX
  5
45C6E
100
AcDbEntity
  8
0
100
AcDbVertex
100
AcDbPolygonMeshVertex
 10
0.48
 20
-2.638
 30
2.1
 70
    64
  0
VERTEX
  5
45C6F
100
AcDbEntity
  8
0
100
AcDbVertex
100
AcDbPolygonMeshVertex
 10
0.48
 20
-2.638
 30
2.1
 70
    64
  0
VERTEX
  5
45C70
100
AcDbEntity
  8
0
100
AcDbVertex
100
AcDbPolygonMeshVertex
 10
0.18
 20
-2.638
 30
2.55
 70
    64
  0
VERTEX
  5
45C71
100
AcDbEntity
  8
0
100
AcDbVertex
100
AcDbPolygonMeshVertex
 10
0.18
 20
-2.638
 30
2.1
 70
    64
  0
VERTEX
  5
45C72
100
AcDbEntity
  8
0
100
AcDbVertex
100
AcDbPolygonMeshVertex
 10
0.18
 20
-2.638
 30
2.1
 70
    64
  0
VERTEX
  5
45C73
100
AcDbEntity
  8
0
100
AcDbVertex
100
AcDbPolygonMeshVertex
 10
0.18
 20
-1.11
 30
2.55
 70
    64
  0
VERTEX
  5
45C74
100
AcDbEntity
  8
0
100
AcDbVertex
100
AcDbPolygonMeshVertex
 10
0.18
 20
-1.11
 30
2.1
 70
    64
  0
VERTEX
  5
45C75
100
AcDbEntity
  8
0
100
AcDbVertex
100
AcDbPolygonMeshVertex
 10
0.18
 20
-2.638
 30
2.1
 70
    64
  0
VERTEX
  5
45C76
100
AcDbEntity
  8
0
100
AcDbVertex
100
AcDbPolygonMeshVertex
 10
0.48
 20
-1.11
 30
2.55
 70
    64
  0
VERTEX
  5
45C77
100
AcDbEntity
  8
0
100
AcDbVertex
100
AcDbPolygonMeshVertex
 10
0.48
 20
-1.11
 30
2.1
 70
    64
  0
VERTEX
  5
45C78
100
AcDbEntity
  8
0
100
AcDbVertex
100
AcDbPolygonMeshVertex
 10
0.48
 20
-2.638
 30
2.1
 70
    64
  0
VERTEX
  5
45C79
100
AcDbEntity
  8
0
100
AcDbVertex
100
AcDbPolygonMeshVertex
 10
0.48
 20
-1.11
 30
2.55
 70
    64
  0
VERTEX
  5
45C7A
100
AcDbEntity
  8
0
100
AcDbVertex
100
AcDbPolygonMeshVertex
 10
0.48
 20
-1.11
 30
2.55
 70
    64
  0
VERTEX
  5
45C7B
100
AcDbEntity
  8
0
100
AcDbVertex
100
AcDbPolygonMeshVertex
 10
0.48
 20
-2.638
 30
2.55
 70
    64
  0
VERTEX
  5
45C7C
100
AcDbEntity
  8
0
100
AcDbVertex
100
AcDbPolygonMeshVertex
 10
0.18
 20
-1.11
 30
2.55
 70
    64
  0
VERTEX
  5
45C7D
100
AcDbEntity
  8
0
100
AcDbVertex
100
AcDbPolygonMeshVertex
 10
0.18
 20
-1.11
 30
2.55
 70
    64
  0
VERTEX
  5
45C7E
100
AcDbEntity
  8
0
100
AcDbVertex
100
AcDbPolygonMeshVertex
 10
0.18
 20
-2.638
 30
2.55
 70
    64
  0
SEQEND
  5
45C7F
100
AcDbEntity
  8
0
  0
POLYLINE
  5
45C80
100
AcDbEntity
  8
0
100
AcDbPolygonMesh
 66
     1
 10
0.0
 20
0.0
 30
0.0
 70
    16
 71
     6
 72
     3
  0
VERTEX
  5
45C81
100
AcDbEntity
  8
0
100
AcDbVertex
100
AcDbPolygonMeshVertex
 10
-1.27
 20
-2.638
 30
2.55
 70
    64
  0
VERTEX
  5
45C82
100
AcDbEntity
  8
0
100
AcDbVertex
100
AcDbPolygonMeshVertex
 10
-1.27
 20
-2.638
 30
2.1
 70
    64
  0
VERTEX
  5
45C83
100
AcDbEntity
  8
0
100
AcDbVertex
100
AcDbPolygonMeshVertex
 10
-1.27
 20
-2.638
 30
2.1
 70
    64
  0
VERTEX
  5
45C84
100
AcDbEntity
  8
0
100
AcDbVertex
100
AcDbPolygonMeshVertex
 10
-1.57
 20
-2.638
 30
2.55
 70
    64
  0
VERTEX
  5
45C85
100
AcDbEntity
  8
0
100
AcDbVertex
100
AcDbPolygonMeshVertex
 10
-1.57
 20
-2.638
 30
2.1
 70
    64
  0
VERTEX
  5
45C86
100
AcDbEntity
  8
0
100
AcDbVertex
100
AcDbPolygonMeshVertex
 10
-1.57
 20
-2.638
 30
2.1
 70
    64
  0
VERTEX
  5
45C87
100
AcDbEntity
  8
0
100
AcDbVertex
100
AcDbPolygonMeshVertex
 10
-1.57
 20
-1.11
 30
2.55
 70
    64
  0
VERTEX
  5
45C88
100
AcDbEntity
  8
0
100
AcDbVertex
100
AcDbPolygonMeshVertex
 10
-1.57
 20
-1.11
 30
2.1
 70
    64
  0
VERTEX
  5
45C89
100
AcDbEntity
  8
0
100
AcDbVertex
100
AcDbPolygonMeshVertex
 10
-1.57
 20
-2.638
 30
2.1
 70
    64
  0
VERTEX
  5
45C8A
100
AcDbEntity
  8
0
100
AcDbVertex
100
AcDbPolygonMeshVertex
 10
-1.27
 20
-1.11
 30
2.55
 70
    64
  0
VERTEX
  5
45C8B
100
AcDbEntity
  8
0
100
AcDbVertex
100
AcDbPolygonMeshVertex
 10
-1.27
 20
-1.11
 30
2.1
 70
    64
  0
VERTEX
  5
45C8C
100
AcDbEntity
  8
0
100
AcDbVertex
100
AcDbPolygonMeshVertex
 10
-1.27
 20
-2.638
 30
2.1
 70
    64
  0
VERTEX
  5
45C8D
100
AcDbEntity
  8
0
100
AcDbVertex
100
AcDbPolygonMeshVertex
 10
-1.27
 20
-1.11
 30
2.55
 70
    64
  0
VERTEX
  5
45C8E
100
AcDbEntity
  8
0
100
AcDbVertex
100
AcDbPolygonMeshVertex
 10
-1.27
 20
-1.11
 30
2.55
 70
    64
  0
VERTEX
  5
45C8F
100
AcDbEntity
  8
0
100
AcDbVertex
100
AcDbPolygonMeshVertex
 10
-1.27
 20
-2.638
 30
2.55
 70
    64
  0
VERTEX
  5
45C90
100
AcDbEntity
  8
0
100
AcDbVertex
100
AcDbPolygonMeshVertex
 10
-1.57
 20
-1.11
 30
2.55
 70
    64
  0
VERTEX
  5
45C91
100
AcDbEntity
  8
0
100
AcDbVertex
100
AcDbPolygonMeshVertex
 10
-1.57
 20
-1.11
 30
2.55
 70
    64
  0
VERTEX
  5
45C92
100
AcDbEntity
  8
0
100
AcDbVertex
100
AcDbPolygonMeshVertex
 10
-1.57
 20
-2.638
 30
2.55
 70
    64
  0
SEQEND
  5
45C93
100
AcDbEntity
  8
0
  0
POLYLINE
  5
45C94
100
AcDbEntity
  8
0
100
AcDbPolygonMesh
 66
     1
 10
0.0
 20
0.0
 30
0.0
 70
    16
 71
     6
 72
     3
  0
VERTEX
  5
45C95
100
AcDbEntity
  8
0
100
AcDbVertex
100
AcDbPolygonMeshVertex
 10
0.18
 20
-4.078
 30
2.125
 70
    64
  0
VERTEX
  5
45C96
100
AcDbEntity
  8
0
100
AcDbVertex
100
AcDbPolygonMeshVertex
 10
0.18
 20
-4.078
 30
2.1
 70
    64
  0
VERTEX
  5
45C97
100
AcDbEntity
  8
0
100
AcDbVertex
100
AcDbPolygonMeshVertex
 10
0.18
 20
-4.078
 30
2.1
 70
    64
  0
VERTEX
  5
45C98
100
AcDbEntity
  8
0
100
AcDbVertex
100
AcDbPolygonMeshVertex
 10
-1.27
 20
-4.078
 30
2.125
 70
    64
  0
VERTEX
  5
45C99
100
AcDbEntity
  8
0
100
AcDbVertex
100
AcDbPolygonMeshVertex
 10
-1.27
 20
-4.078
 30
2.1
 70
    64
  0
VERTEX
  5
45C9A
100
AcDbEntity
  8
0
100
AcDbVertex
100
AcDbPolygonMeshVertex
 10
-1.27
 20
-4.078
 30
2.1
 70
    64
  0
VERTEX
  5
45C9B
100
AcDbEntity
  8
0
100
AcDbVertex
100
AcDbPolygonMeshVertex
 10
-1.27
 20
-0.13
 30
2.125
 70
    64
  0
VERTEX
  5
45C9C
100
AcDbEntity
  8
0
100
AcDbVertex
100
AcDbPolygonMeshVertex
 10
-1.27
 20
-0.13
 30
2.1
 70
    64
  0
VERTEX
  5
45C9D
100
AcDbEntity
  8
0
100
AcDbVertex
100
AcDbPolygonMeshVertex
 10
-1.27
 20
-4.078
 30
2.1
 70
    64
  0
VERTEX
  5
45C9E
100
AcDbEntity
  8
0
100
AcDbVertex
100
AcDbPolygonMeshVertex
 10
0.18
 20
-0.13
 30
2.125
 70
    64
  0
VERTEX
  5
45C9F
100
AcDbEntity
  8
0
100
AcDbVertex
100
AcDbPolygonMeshVertex
 10
0.18
 20
-0.13
 30
2.1
 70
    64
  0
VERTEX
  5
45CA0
100
AcDbEntity
  8
0
100
AcDbVertex
100
AcDbPolygonMeshVertex
 10
0.18
 20
-4.078
 30
2.1
 70
    64
  0
VERTEX
  5
45CA1
100
AcDbEntity
  8
0
100
AcDbVertex
100
AcDbPolygonMeshVertex
 10
0.18
 20
-0.13
 30
2.125
 70
    64
  0
VERTEX
  5
45CA2
100
AcDbEntity
  8
0
100
AcDbVertex
100
AcDbPolygonMeshVertex
 10
0.18
 20
-0.13
 30
2.125
 70
    64
  0
VERTEX
  5
45CA3
100
AcDbEntity
  8
0
100
AcDbVertex
100
AcDbPolygonMeshVertex
 10
0.18
 20
-4.078
 30
2.125
 70
    64
  0
VERTEX
  5
45CA4
100
AcDbEntity
  8
0
100
AcDbVertex
100
AcDbPolygonMeshVertex
 10
-1.27
 20
-0.13
 30
2.125
 70
    64
  0
VERTEX
  5
45CA5
100
AcDbEntity
  8
0
100
AcDbVertex
100
AcDbPolygonMeshVertex
 10
-1.27
 20
-0.13
 30
2.125
 70
    64
  0
VERTEX
  5
45CA6
100
AcDbEntity
  8
0
100
AcDbVertex
100
AcDbPolygonMeshVertex
 10
-1.27
 20
-4.078
 30
2.125
 70
    64
  0
SEQEND
  5
45CA7
100
AcDbEntity
  8
0
  0
POLYLINE
  5
45CA8
100
AcDbEntity
  8
0
100
AcDbPolygonMesh
 66
     1
 10
0.0
 20
0.0
 30
0.0
 70
    16
 71
     6
 72
     3
  0
VERTEX
  5
45CA9
100
AcDbEntity
  8
0
100
AcDbVertex
100
AcDbPolygonMeshVertex
 10
0.18
 20
-4.428
 30
2.1
 70
    64
  0
VERTEX
  5
45CAA
100
AcDbEntity
  8
0
100
AcDbVertex
100
AcDbPolygonMeshVertex
 10
0.18
 20
-4.428
 30
2.1
 70
    64
  0
VERTEX
  5
45CAB
100
AcDbEntity
  8
0
100
AcDbVertex
100
AcDbPolygonMeshVertex
 10
0.18
 20
-4.428
 30
2.1
 70
    64
  0
VERTEX
  5
45CAC
100
AcDbEntity
  8
0
100
AcDbVertex
100
AcDbPolygonMeshVertex
 10
0.18
 20
-2.638
 30
2.55
 70
    64
  0
VERTEX
  5
45CAD
100
AcDbEntity
  8
0
100
AcDbVertex
100
AcDbPolygonMeshVertex
 10
0.18
 20
-2.638
 30
2.1
 70
    64
  0
VERTEX
  5
45CAE
100
AcDbEntity
  8
0
100
AcDbVertex
100
AcDbPolygonMeshVertex
 10
0.18
 20
-2.638
 30
2.1
 70
    64
  0
VERTEX
  5
45CAF
100
AcDbEntity
  8
0
100
AcDbVertex
100
AcDbPolygonMeshVertex
 10
0.48
 20
-2.638
 30
2.55
 70
    64
  0
VERTEX
  5
45CB0
100
AcDbEntity
  8
0
100
AcDbVertex
100
AcDbPolygonMeshVertex
 10
0.48
 20
-2.638
 30
2.1
 70
    64
  0
VERTEX
  5
45CB1
100
AcDbEntity
  8
0
100
AcDbVertex
100
AcDbPolygonMeshVertex
 10
0.18
 20
-2.638
 30
2.1
 70
    64
  0
VERTEX
  5
45CB2
100
AcDbEntity
  8
0
100
AcDbVertex
100
AcDbPolygonMeshVertex
 10
0.48
 20
-4.428
 30
2.1
 70
    64
  0
VERTEX
  5
45CB3
100
AcDbEntity
  8
0
100
AcDbVertex
100
AcDbPolygonMeshVertex
 10
0.48
 20
-4.428
 30
2.1
 70
    64
  0
VERTEX
  5
45CB4
100
AcDbEntity
  8
0
100
AcDbVertex
100
AcDbPolygonMeshVertex
 10
0.18
 20
-4.428
 30
2.1
 70
    64
  0
VERTEX
  5
45CB5
100
AcDbEntity
  8
0
100
AcDbVertex
100
AcDbPolygonMeshVertex
 10
0.48
 20
-4.428
 30
2.1
 70
    64
  0
VERTEX
  5
45CB6
100
AcDbEntity
  8
0
100
AcDbVertex
100
AcDbPolygonMeshVertex
 10
0.48
 20
-4.428
 30
2.1
 70
    64
  0
VERTEX
  5
45CB7
100
AcDbEntity
  8
0
100
AcDbVertex
100
AcDbPolygonMeshVertex
 10
0.18
 20
-4.428
 30
2.1
 70
    64
  0
VERTEX
  5
45CB8
100
AcDbEntity
  8
0
100
AcDbVertex
100
AcDbPolygonMeshVertex
 10
0.48
 20
-2.638
 30
2.55
 70
    64
  0
VERTEX
  5
45CB9
100
AcDbEntity
  8
0
100
AcDbVertex
100
AcDbPolygonMeshVertex
 10
0.48
 20
-2.638
 30
2.55
 70
    64
  0
VERTEX
  5
45CBA
100
AcDbEntity
  8
0
100
AcDbVertex
100
AcDbPolygonMeshVertex
 10
0.18
 20
-2.638
 30
2.55
 70
    64
  0
SEQEND
  5
45CBB
100
AcDbEntity
  8
0
  0
POLYLINE
  5
45CBC
100
AcDbEntity
  8
0
100
AcDbPolygonMesh
 66
     1
 10
0.0
 20
0.0
 30
0.0
 70
    16
 71
     6
 72
     3
  0
VERTEX
  5
45CBD
100
AcDbEntity
  8
0
100
AcDbVertex
100
AcDbPolygonMeshVertex
 10
-1.57
 20
-4.428
 30
2.1
 70
    64
  0
VERTEX
  5
45CBE
100
AcDbEntity
  8
0
100
AcDbVertex
100
AcDbPolygonMeshVertex
 10
-1.57
 20
-4.428
 30
2.1
 70
    64
  0
VERTEX
  5
45CBF
100
AcDbEntity
  8
0
100
AcDbVertex
100
AcDbPolygonMeshVertex
 10
-1.57
 20
-4.428
 30
2.1
 70
    64
  0
VERTEX
  5
45CC0
100
AcDbEntity
  8
0
100
AcDbVertex
100
AcDbPolygonMeshVertex
 10
-1.57
 20
-2.638
 30
2.55
 70
    64
  0
VERTEX
  5
45CC1
100
AcDbEntity
  8
0
100
AcDbVertex
100
AcDbPolygonMeshVertex
 10
-1.57
 20
-2.638
 30
2.1
 70
    64
  0
VERTEX
  5
45CC2
100
AcDbEntity
  8
0
100
AcDbVertex
100
AcDbPolygonMeshVertex
 10
-1.57
 20
-2.638
 30
2.1
 70
    64
  0
VERTEX
  5
45CC3
100
AcDbEntity
  8
0
100
AcDbVertex
100
AcDbPolygonMeshVertex
 10
-1.27
 20
-2.638
 30
2.55
 70
    64
  0
VERTEX
  5
45CC4
100
AcDbEntity
  8
0
100
AcDbVertex
100
AcDbPolygonMeshVertex
 10
-1.27
 20
-2.638
 30
2.1
 70
    64
  0
VERTEX
  5
45CC5
100
AcDbEntity
  8
0
100
AcDbVertex
100
AcDbPolygonMeshVertex
 10
-1.57
 20
-2.638
 30
2.1
 70
    64
  0
VERTEX
  5
45CC6
100
AcDbEntity
  8
0
100
AcDbVertex
100
AcDbPolygonMeshVertex
 10
-1.27
 20
-4.428
 30
2.1
 70
    64
  0
VERTEX
  5
45CC7
100
AcDbEntity
  8
0
100
AcDbVertex
100
AcDbPolygonMeshVertex
 10
-1.27
 20
-4.428
 30
2.1
 70
    64
  0
VERTEX
  5
45CC8
100
AcDbEntity
  8
0
100
AcDbVertex
100
AcDbPolygonMeshVertex
 10
-1.57
 20
-4.428
 30
2.1
 70
    64
  0
VERTEX
  5
45CC9
100
AcDbEntity
  8
0
100
AcDbVertex
100
AcDbPolygonMeshVertex
 10
-1.27
 20
-4.428
 30
2.1
 70
    64
  0
VERTEX
  5
45CCA
100
AcDbEntity
  8
0
100
AcDbVertex
100
AcDbPolygonMeshVertex
 10
-1.27
 20
-4.428
 30
2.1
 70
    64
  0
VERTEX
  5
45CCB
100
AcDbEntity
  8
0
100
AcDbVertex
100
AcDbPolygonMeshVertex
 10
-1.57
 20
-4.428
 30
2.1
 70
    64
  0
VERTEX
  5
45CCC
100
AcDbEntity
  8
0
100
AcDbVertex
100
AcDbPolygonMeshVertex
 10
-1.27
 20
-2.638
 30
2.55
 70
    64
  0
VERTEX
  5
45CCD
100
AcDbEntity
  8
0
100
AcDbVertex
100
AcDbPolygonMeshVertex
 10
-1.27
 20
-2.638
 30
2.55
 70
    64
  0
VERTEX
  5
45CCE
100
AcDbEntity
  8
0
100
AcDbVertex
100
AcDbPolygonMeshVertex
 10
-1.57
 20
-2.638
 30
2.55
 70
    64
  0
SEQEND
  5
45CCF
100
AcDbEntity
  8
0
  0
LINE
  5
45CD0
100
AcDbEntity
  8
0
100
AcDbLine
 10
0.13
 20
-4.728
 30
1.416
 11
-0.32
 21
-4.728
 31
1.416
  0
TEXT
  5
45CD1
100
AcDbEntity
  8
0
100
AcDbText
 39
0.001
 10
-0.595
 20
1.585
 30
4.428
 40
0.05
  1
24VDC
 72
     1
 11
-0.47
 21
1.585
 31
4.428
210
0.0
220
-1.0
230
0.0
100
AcDbText
  0
LINE
  5
45CD2
100
AcDbEntity
  8
0
100
AcDbLine
 10
-0.000187
 20
-4.728
 30
1.662209
 11
-0.191798
 21
-4.728
 31
1.501044
  0
LINE
  5
45CD3
100
AcDbEntity
  8
0
100
AcDbLine
 10
-0.015342
 20
-4.728
 30
1.678974
 11
-0.203164
 21
-4.728
 31
1.521055
  0
CIRCLE
  5
45CD4
100
AcDbEntity
  8
0
100
AcDbCircle
 10
-0.095
 20
1.5825
 30
4.728
 40
0.125
210
0.0
220
-1.0
230
0.0
  0
TEXT
  5
45CD5
100
AcDbEntity
  8
0
100
AcDbText
 39
0.001
 10
-0.436627
 20
-2.777959
 30
2.125
 40
0.05
  1
DC SOURCE
 72
     1
 11
-0.21996
 21
-2.777959
 31
2.125
100
AcDbText
  0
TEXT
  5
45CD6
100
AcDbEntity
  8
0
100
AcDbText
 39
0.001
 10
-0.411627
 20
-3.627959
 30
2.125
 40
0.05
  1
EXTERNAL
 72
     1
 11
-0.21996
 21
-3.627959
 31
2.125
100
AcDbText
  0
TEXT
  5
45CD7
100
AcDbEntity
  8
0
100
AcDbText
 39
0.001
 10
-0.336627
 20
-3.077959
 30
2.125
 40
0.05
  1
CABLE
 72
     1
 11
-0.21996
 21
-3.077959
 31
2.125
100
AcDbText
  0
LINE
  5
45CD8
100
AcDbEntity
  8
0
100
AcDbLine
 10
-0.31996
 20
-3.527959
 30
2.125
 11
-0.11996
 21
-3.527959
 31
2.125
  0
LINE
  5
45CD9
100
AcDbEntity
  8
0
100
AcDbLine
 10
-0.31996
 20
-3.127959
 30
2.125
 11
-0.11996
 21
-3.127959
 31
2.125
  0
LINE
  5
45CDA
100
AcDbEntity
  8
0
100
AcDbLine
 10
-0.31996
 20
-3.527959
 30
2.125
 11
-0.31996
 21
-3.127959
 31
2.125
  0
LINE
  5
45CDB
100
AcDbEntity
  8
0
100
AcDbLine
 10
-0.69496
 20
-3.530559
 30
2.125
 11
-0.69496
 21
-2.925359
 31
2.125
  0
CIRCLE
  5
45CDC
100
AcDbEntity
  8
0
100
AcDbCircle
 10
-0.857563
 20
-3.379368
 30
2.125
 40
0.025
  0
LINE
  5
45CDD
100
AcDbEntity
  8
0
100
AcDbLine
 10
-0.91996
 20
-3.430559
 30
2.125
 11
-0.91996
 21
-3.025359
 31
2.125
  0
LINE
  5
45CDE
100
AcDbEntity
  8
0
100
AcDbLine
 10
-0.61996
 20
-3.777959
 30
2.125
 11
-0.61996
 21
-2.677959
 31
2.125
  0
LINE
  5
45CDF
100
AcDbEntity
  8
0
100
AcDbLine
 10
-1.01996
 20
-3.777959
 30
2.125
 11
-1.01996
 21
-2.677959
 31
2.125
  0
LINE
  5
45CE0
100
AcDbEntity
  8
0
100
AcDbLine
 10
-0.91996
 20
-3.430559
 30
2.125
 11
-0.69496
 21
-3.530559
 31
2.125
  0
CIRCLE
  5
45CE1
100
AcDbEntity
  8
0
100
AcDbCircle
 10
-0.807563
 20
-3.579368
 30
2.125
 40
0.025
  0
LINE
  5
45CE2
100
AcDbEntity
  8
0
100
AcDbLine
 10
-0.61996
 20
-3.777959
 30
2.125
 11
-1.01996
 21
-3.777959
 31
2.125
  0
CIRCLE
  5
45CE3
100
AcDbEntity
  8
0
100
AcDbCircle
 10
-0.757563
 20
-3.429368
 30
2.125
 40
0.025
  0
LINE
  5
45CE4
100
AcDbEntity
  8
0
100
AcDbLine
 10
-0.51996
 20
-3.627959
 30
2.125
 11
-0.51996
 21
-3.427959
 31
2.125
  0
LINE
  5
45CE5
100
AcDbEntity
  8
0
100
AcDbLine
 10
-0.51996
 20
-3.427959
 30
2.125
 11
-0.36996
 21
-3.427959
 31
2.125
  0
LINE
  5
45CE6
100
AcDbEntity
  8
0
100
AcDbLine
 10
-0.91996
 20
-3.025359
 30
2.125
 11
-0.69496
 21
-2.925359
 31
2.125
  0
CIRCLE
  5
45CE7
100
AcDbEntity
  8
0
100
AcDbCircle
 10
-0.807563
 20
-2.879368
 30
2.125
 40
0.025
  0
LINE
  5
45CE8
100
AcDbEntity
  8
0
100
AcDbLine
 10
-1.01996
 20
-2.677959
 30
2.125
 11
-0.61996
 21
-2.677959
 31
2.125
  0
CIRCLE
  5
45CE9
100
AcDbEntity
  8
0
100
AcDbCircle
 10
-0.857563
 20
-3.179368
 30
2.125
 40
0.025
  0
CIRCLE
  5
45CEA
100
AcDbEntity
  8
0
100
AcDbCircle
 10
-0.857563
 20
-3.279368
 30
2.125
 40
0.025
  0
CIRCLE
  5
45CEB
100
AcDbEntity
  8
0
100
AcDbCircle
 10
-0.857563
 20
-3.079368
 30
2.125
 40
0.025
  0
LINE
  5
45CEC
100
AcDbEntity
  8
0
100
AcDbLine
 10
-0.51996
 20
-3.227959
 30
2.125
 11
-0.51996
 21
-2.827959
 31
2.125
  0
CIRCLE
  5
45CED
100
AcDbEntity
  8
0
100
AcDbCircle
 10
-0.757563
 20
-3.129368
 30
2.125
 40
0.025
  0
CIRCLE
  5
45CEE
100
AcDbEntity
  8
0
100
AcDbCircle
 10
-0.757563
 20
-3.229368
 30
2.125
 40
0.025
  0
CIRCLE
  5
45CEF
100
AcDbEntity
  8
0
100
AcDbCircle
 10
-0.757563
 20
-3.329368
 30
2.125
 40
0.025
  0
CIRCLE
  5
45CF0
100
AcDbEntity
  8
0
100
AcDbCircle
 10
-0.757563
 20
-3.029368
 30
2.125
 40
0.025
  0
LINE
  5
45CF1
100
AcDbEntity
  8
0
100
AcDbLine
 10
-0.51996
 20
-3.227959
 30
2.125
 11
-0.36996
 21
-3.227959
 31
2.125
  0
LINE
  5
45CF2
100
AcDbEntity
  8
0
100
AcDbLine
 10
-0.11996
 20
-3.527959
 30
2.125
 11
-0.11996
 21
-3.127959
 31
2.125
  0
POLYLINE
  5
45CF3
100
AcDbEntity
  8
0
100
AcDbPolygonMesh
 66
     1
 10
0.0
 20
0.0
 30
0.0
 70
    16
 71
     6
 72
     3
  0
VERTEX
  5
45CF4
100
AcDbEntity
  8
0
100
AcDbVertex
100
AcDbPolygonMeshVertex
 10
-0.57
 20
-1.199
 30
2.475
 70
    64
  0
VERTEX
  5
45CF5
100
AcDbEntity
  8
0
100
AcDbVertex
100
AcDbPolygonMeshVertex
 10
-0.57
 20
-1.199
 30
2.125
 70
    64
  0
VERTEX
  5
45CF6
100
AcDbEntity
  8
0
100
AcDbVertex
100
AcDbPolygonMeshVertex
 10
-0.57
 20
-1.199
 30
2.125
 70
    64
  0
VERTEX
  5
45CF7
100
AcDbEntity
  8
0
100
AcDbVertex
100
AcDbPolygonMeshVertex
 10
-1.07
 20
-1.199
 30
2.475
 70
    64
  0
VERTEX
  5
45CF8
100
AcDbEntity
  8
0
100
AcDbVertex
100
AcDbPolygonMeshVertex
 10
-1.07
 20
-1.199
 30
2.125
 70
    64
  0
VERTEX
  5
45CF9
100
AcDbEntity
  8
0
100
AcDbVertex
100
AcDbPolygonMeshVertex
 10
-1.07
 20
-1.199
 30
2.125
 70
    64
  0
VERTEX
  5
45CFA
100
AcDbEntity
  8
0
100
AcDbVertex
100
AcDbPolygonMeshVertex
 10
-1.07
 20
0.001
 30
2.475
 70
    64
  0
VERTEX
  5
45CFB
100
AcDbEntity
  8
0
100
AcDbVertex
100
AcDbPolygonMeshVertex
 10
-1.07
 20
0.001
 30
2.125
 70
    64
  0
VERTEX
  5
45CFC
100
AcDbEntity
  8
0
100
AcDbVertex
100
AcDbPolygonMeshVertex
 10
-1.07
 20
-1.199
 30
2.125
 70
    64
  0
VERTEX
  5
45CFD
100
AcDbEntity
  8
0
100
AcDbVertex
100
AcDbPolygonMeshVertex
 10
-0.57
 20
0.001
 30
2.475
 70
    64
  0
VERTEX
  5
45CFE
100
AcDbEntity
  8
0
100
AcDbVertex
100
AcDbPolygonMeshVertex
 10
-0.57
 20
0.001
 30
2.125
 70
    64
  0
VERTEX
  5
45CFF
100
AcDbEntity
  8
0
100
AcDbVertex
100
AcDbPolygonMeshVertex
 10
-0.57
 20
-1.199
 30
2.125
 70
    64
  0
VERTEX
  5
45D00
100
AcDbEntity
  8
0
100
AcDbVertex
100
AcDbPolygonMeshVertex
 10
-0.57
 20
0.001
 30
2.475
 70
    64
  0
VERTEX
  5
45D01
100
AcDbEntity
  8
0
100
AcDbVertex
100
AcDbPolygonMeshVertex
 10
-0.57
 20
0.001
 30
2.475
 70
    64
  0
VERTEX
  5
45D02
100
AcDbEntity
  8
0
100
AcDbVertex
100
AcDbPolygonMeshVertex
 10
-0.57
 20
-1.199
 30
2.475
 70
    64
  0
VERTEX
  5
45D03
100
AcDbEntity
  8
0
100
AcDbVertex
100
AcDbPolygonMeshVertex
 10
-1.07
 20
0.001
 30
2.475
 70
    64
  0
VERTEX
  5
45D04
100
AcDbEntity
  8
0
100
AcDbVertex
100
AcDbPolygonMeshVertex
 10
-1.07
 20
0.001
 30
2.475
 70
    64
  0
VERTEX
  5
45D05
100
AcDbEntity
  8
0
100
AcDbVertex
100
AcDbPolygonMeshVertex
 10
-1.07
 20
-1.199
 30
2.475
 70
    64
  0
SEQEND
  5
45D06
100
AcDbEntity
  8
0
  0
POLYLINE
  5
45D07
100
AcDbEntity
  8
0
100
AcDbPolygonMesh
 66
     1
 10
0.0
 20
0.0
 30
0.0
 70
    16
 71
     6
 72
     3
  0
VERTEX
  5
45D08
100
AcDbEntity
  8
0
100
AcDbVertex
100
AcDbPolygonMeshVertex
 10
0.18
 20
-2.249
 30
2.55
 70
    64
  0
VERTEX
  5
45D09
100
AcDbEntity
  8
0
100
AcDbVertex
100
AcDbPolygonMeshVertex
 10
0.18
 20
-2.249
 30
2.125
 70
    64
  0
VERTEX
  5
45D0A
100
AcDbEntity
  8
0
100
AcDbVertex
100
AcDbPolygonMeshVertex
 10
0.18
 20
-2.249
 30
2.125
 70
    64
  0
VERTEX
  5
45D0B
100
AcDbEntity
  8
0
100
AcDbVertex
100
AcDbPolygonMeshVertex
 10
-1.27
 20
-2.249
 30
2.55
 70
    64
  0
VERTEX
  5
45D0C
100
AcDbEntity
  8
0
100
AcDbVertex
100
AcDbPolygonMeshVertex
 10
-1.27
 20
-2.249
 30
2.125
 70
    64
  0
VERTEX
  5
45D0D
100
AcDbEntity
  8
0
100
AcDbVertex
100
AcDbPolygonMeshVertex
 10
-1.27
 20
-2.249
 30
2.125
 70
    64
  0
VERTEX
  5
45D0E
100
AcDbEntity
  8
0
100
AcDbVertex
100
AcDbPolygonMeshVertex
 10
-1.27
 20
-1.499
 30
2.55
 70
    64
  0
VERTEX
  5
45D0F
100
AcDbEntity
  8
0
100
AcDbVertex
100
AcDbPolygonMeshVertex
 10
-1.27
 20
-1.499
 30
2.125
 70
    64
  0
VERTEX
  5
45D10
100
AcDbEntity
  8
0
100
AcDbVertex
100
AcDbPolygonMeshVertex
 10
-1.27
 20
-2.249
 30
2.125
 70
    64
  0
VERTEX
  5
45D11
100
AcDbEntity
  8
0
100
AcDbVertex
100
AcDbPolygonMeshVertex
 10
0.18
 20
-1.499
 30
2.55
 70
    64
  0
VERTEX
  5
45D12
100
AcDbEntity
  8
0
100
AcDbVertex
100
AcDbPolygonMeshVertex
 10
0.18
 20
-1.499
 30
2.125
 70
    64
  0
VERTEX
  5
45D13
100
AcDbEntity
  8
0
100
AcDbVertex
100
AcDbPolygonMeshVertex
 10
0.18
 20
-2.249
 30
2.125
 70
    64
  0
VERTEX
  5
45D14
100
AcDbEntity
  8
0
100
AcDbVertex
100
AcDbPolygonMeshVertex
 10
0.18
 20
-1.499
 30
2.55
 70
    64
  0
VERTEX
  5
45D15
100
AcDbEntity
  8
0
100
AcDbVertex
100
AcDbPolygonMeshVertex
 10
0.18
 20
-1.499
 30
2.55
 70
    64
  0
VERTEX
  5
45D16
100
AcDbEntity
  8
0
100
AcDbVertex
100
AcDbPolygonMeshVertex
 10
0.18
 20
-2.249
 30
2.55
 70
    64
  0
VERTEX
  5
45D17
100
AcDbEntity
  8
0
100
AcDbVertex
100
AcDbPolygonMeshVertex
 10
-1.27
 20
-1.499
 30
2.55
 70
    64
  0
VERTEX
  5
45D18
100
AcDbEntity
  8
0
100
AcDbVertex
100
AcDbPolygonMeshVertex
 10
-1.27
 20
-1.499
 30
2.55
 70
    64
  0
VERTEX
  5
45D19
100
AcDbEntity
  8
0
100
AcDbVertex
100
AcDbPolygonMeshVertex
 10
-1.27
 20
-2.249
 30
2.55
 70
    64
  0
SEQEND
  5
45D1A
100
AcDbEntity
  8
0
  0
POLYLINE
  5
45D1B
100
AcDbEntity
  8
0
100
AcDbPolygonMesh
 66
     1
 10
0.0
 20
0.0
 30
0.0
 70
    16
 71
     6
 72
     3
  0
VERTEX
  5
45D1C
100
AcDbEntity
  8
0
100
AcDbVertex
100
AcDbPolygonMeshVertex
 10
0.18
 20
0.22
 30
2.1
 70
    64
  0
VERTEX
  5
45D1D
100
AcDbEntity
  8
0
100
AcDbVertex
100
AcDbPolygonMeshVertex
 10
0.18
 20
0.22
 30
2.1
 70
    64
  0
VERTEX
  5
45D1E
100
AcDbEntity
  8
0
100
AcDbVertex
100
AcDbPolygonMeshVertex
 10
0.18
 20
0.22
 30
2.1
 70
    64
  0
VERTEX
  5
45D1F
100
AcDbEntity
  8
0
100
AcDbVertex
100
AcDbPolygonMeshVertex
 10
0.18
 20
-1.11
 30
2.55
 70
    64
  0
VERTEX
  5
45D20
100
AcDbEntity
  8
0
100
AcDbVertex
100
AcDbPolygonMeshVertex
 10
0.18
 20
-1.11
 30
2.1
 70
    64
  0
VERTEX
  5
45D21
100
AcDbEntity
  8
0
100
AcDbVertex
100
AcDbPolygonMeshVertex
 10
0.18
 20
-1.11
 30
2.1
 70
    64
  0
VERTEX
  5
45D22
100
AcDbEntity
  8
0
100
AcDbVertex
100
AcDbPolygonMeshVertex
 10
0.48
 20
-1.11
 30
2.55
 70
    64
  0
VERTEX
  5
45D23
100
AcDbEntity
  8
0
100
AcDbVertex
100
AcDbPolygonMeshVertex
 10
0.48
 20
-1.11
 30
2.1
 70
    64
  0
VERTEX
  5
45D24
100
AcDbEntity
  8
0
100
AcDbVertex
100
AcDbPolygonMeshVertex
 10
0.18
 20
-1.11
 30
2.1
 70
    64
  0
VERTEX
  5
45D25
100
AcDbEntity
  8
0
100
AcDbVertex
100
AcDbPolygonMeshVertex
 10
0.48
 20
0.22
 30
2.1
 70
    64
  0
VERTEX
  5
45D26
100
AcDbEntity
  8
0
100
AcDbVertex
100
AcDbPolygonMeshVertex
 10
0.48
 20
0.22
 30
2.1
 70
    64
  0
VERTEX
  5
45D27
100
AcDbEntity
  8
0
100
AcDbVertex
100
AcDbPolygonMeshVertex
 10
0.18
 20
0.22
 30
2.1
 70
    64
  0
VERTEX
  5
45D28
100
AcDbEntity
  8
0
100
AcDbVertex
100
AcDbPolygonMeshVertex
 10
0.48
 20
0.22
 30
2.1
 70
    64
  0
VERTEX
  5
45D29
100
AcDbEntity
  8
0
100
AcDbVertex
100
AcDbPolygonMeshVertex
 10
0.48
 20
0.22
 30
2.1
 70
    64
  0
VERTEX
  5
45D2A
100
AcDbEntity
  8
0
100
AcDbVertex
100
AcDbPolygonMeshVertex
 10
0.18
 20
0.22
 30
2.1
 70
    64
  0
VERTEX
  5
45D2B
100
AcDbEntity
  8
0
100
AcDbVertex
100
AcDbPolygonMeshVertex
 10
0.48
 20
-1.11
 30
2.55
 70
    64
  0
VERTEX
  5
45D2C
100
AcDbEntity
  8
0
100
AcDbVertex
100
AcDbPolygonMeshVertex
 10
0.48
 20
-1.11
 30
2.55
 70
    64
  0
VERTEX
  5
45D2D
100
AcDbEntity
  8
0
100
AcDbVertex
100
AcDbPolygonMeshVertex
 10
0.18
 20
-1.11
 30
2.55
 70
    64
  0
SEQEND
  5
45D2E
100
AcDbEntity
  8
0
  0
POLYLINE
  5
45D2F
100
AcDbEntity
  8
0
100
AcDbPolygonMesh
 66
     1
 10
0.0
 20
0.0
 30
0.0
 70
    16
 71
     6
 72
     3
  0
VERTEX
  5
45D30
100
AcDbEntity
  8
0
100
AcDbVertex
100
AcDbPolygonMeshVertex
 10
-1.57
 20
0.22
 30
2.1
 70
    64
  0
VERTEX
  5
45D31
100
AcDbEntity
  8
0
100
AcDbVertex
100
AcDbPolygonMeshVertex
 10
-1.57
 20
0.22
 30
2.1
 70
    64
  0
VERTEX
  5
45D32
100
AcDbEntity
  8
0
100
AcDbVertex
100
AcDbPolygonMeshVertex
 10
-1.57
 20
0.22
 30
2.1
 70
    64
  0
VERTEX
  5
45D33
100
AcDbEntity
  8
0
100
AcDbVertex
100
AcDbPolygonMeshVertex
 10
-1.57
 20
-1.11
 30
2.55
 70
    64
  0
VERTEX
  5
45D34
100
AcDbEntity
  8
0
100
AcDbVertex
100
AcDbPolygonMeshVertex
 10
-1.57
 20
-1.11
 30
2.1
 70
    64
  0
VERTEX
  5
45D35
100
AcDbEntity
  8
0
100
AcDbVertex
100
AcDbPolygonMeshVertex
 10
-1.57
 20
-1.11
 30
2.1
 70
    64
  0
VERTEX
  5
45D36
100
AcDbEntity
  8
0
100
AcDbVertex
100
AcDbPolygonMeshVertex
 10
-1.27
 20
-1.11
 30
2.55
 70
    64
  0
VERTEX
  5
45D37
100
AcDbEntity
  8
0
100
AcDbVertex
100
AcDbPolygonMeshVertex
 10
-1.27
 20
-1.11
 30
2.1
 70
    64
  0
VERTEX
  5
45D38
100
AcDbEntity
  8
0
100
AcDbVertex
100
AcDbPolygonMeshVertex
 10
-1.57
 20
-1.11
 30
2.1
 70
    64
  0
VERTEX
  5
45D39
100
AcDbEntity
  8
0
100
AcDbVertex
100
AcDbPolygonMeshVertex
 10
-1.27
 20
0.22
 30
2.1
 70
    64
  0
VERTEX
  5
45D3A
100
AcDbEntity
  8
0
100
AcDbVertex
100
AcDbPolygonMeshVertex
 10
-1.27
 20
0.22
 30
2.1
 70
    64
  0
VERTEX
  5
45D3B
100
AcDbEntity
  8
0
100
AcDbVertex
100
AcDbPolygonMeshVertex
 10
-1.57
 20
0.22
 30
2.1
 70
    64
  0
VERTEX
  5
45D3C
100
AcDbEntity
  8
0
100
AcDbVertex
100
AcDbPolygonMeshVertex
 10
-1.27
 20
0.22
 30
2.1
 70
    64
  0
VERTEX
  5
45D3D
100
AcDbEntity
  8
0
100
AcDbVertex
100
AcDbPolygonMeshVertex
 10
-1.27
 20
0.22
 30
2.1
 70
    64
  0
VERTEX
  5
45D3E
100
AcDbEntity
  8
0
100
AcDbVertex
100
AcDbPolygonMeshVertex
 10
-1.57
 20
0.22
 30
2.1
 70
    64
  0
VERTEX
  5
45D3F
100
AcDbEntity
  8
0
100
AcDbVertex
100
AcDbPolygonMeshVertex
 10
-1.27
 20
-1.11
 30
2.55
 70
    64
  0
VERTEX
  5
45D40
100
AcDbEntity
  8
0
100
AcDbVertex
100
AcDbPolygonMeshVertex
 10
-1.27
 20
-1.11
 30
2.55
 70
    64
  0
VERTEX
  5
45D41
100
AcDbEntity
  8
0
100
AcDbVertex
100
AcDbPolygonMeshVertex
 10
-1.57
 20
-1.11
 30
2.55
 70
    64
  0
SEQEND
  5
45D42
100
AcDbEntity
  8
0
  0
TEXT
  5
45D43
100
AcDbEntity
  8
0
100
AcDbText
 39
0.001
 10
-0.711667
 20
-0.524
 30
2.125
 40
0.05
  1
B
 72
     1
 11
-0.695
 21
-0.524
 31
2.125
100
AcDbText
  0
LINE
  5
45D44
100
AcDbEntity
  8
0
100
AcDbLine
 10
-0.291951
 20
-0.454679
 30
2.125
 11
-0.291951
 21
-0.703452
 31
2.125
  0
CIRCLE
  5
45D45
100
AcDbEntity
  8
0
100
AcDbCircle
 10
-0.16996
 20
-0.577959
 30
2.125
 40
0.175
  0
CIRCLE
  5
45D46
100
AcDbEntity
  8
0
100
AcDbCircle
 10
-0.16996
 20
-0.577959
 30
2.125
 40
0.25
  0
TEXT
  5
45D47
100
AcDbEntity
  8
0
100
AcDbText
 39
0.001
 10
-0.361627
 20
-1.402959
 30
2.125
 40
0.05
  1
TX
 72
     1
 11
-0.31996
 21
-1.402959
 31
2.125
100
AcDbText
  0
TEXT
  5
45D48
100
AcDbEntity
  8
0
100
AcDbText
 39
0.001
 10
-0.39496
 20
-2.402959
 30
2.125
 40
0.05
  1
PWR
 72
     1
 11
-0.31996
 21
-2.402959
 31
2.125
100
AcDbText
  0
TEXT
  5
45D49
100
AcDbEntity
  8
0
100
AcDbText
 39
0.001
 10
-0.761627
 20
-2.402959
 30
2.125
 40
0.05
  1
TX
 72
     1
 11
-0.71996
 21
-2.402959
 31
2.125
100
AcDbText
  0
TEXT
  5
45D4A
100
AcDbEntity
  8
0
100
AcDbText
 39
0.001
 10
-0.786667
 20
-0.924
 30
2.125
 40
0.05
  1
SHLD
 72
     1
 11
-0.695
 21
-0.924
 31
2.125
100
AcDbText
  0
CIRCLE
  5
45D4B
100
AcDbEntity
  8
0
100
AcDbCircle
 10
-0.91996
 20
-1.377959
 30
2.125
 40
0.0625
  0
TEXT
  5
45D4C
100
AcDbEntity
  8
0
100
AcDbText
 39
0.001
 10
-0.761667
 20
-1.124
 30
2.125
 40
0.05
  1
CHS GND
 72
     1
 11
-0.595
 21
-1.124
 31
2.125
100
AcDbText
  0
TEXT
  5
45D4D
100
AcDbEntity
  8
0
100
AcDbText
 39
0.001
 10
-0.761627
 20
-1.402959
 30
2.125
 40
0.05
  1
TX
 72
     1
 11
-0.71996
 21
-1.402959
 31
2.125
100
AcDbText
  0
TEXT
  5
45D4E
100
AcDbEntity
  8
0
100
AcDbText
 39
0.001
 10
-0.761667
 20
-0.724
 30
2.125
 40
0.05
  1
COM
 72
     1
 11
-0.695
 21
-0.724
 31
2.125
100
AcDbText
  0
LINE
  5
45D4F
100
AcDbEntity
  8
0
100
AcDbLine
 10
-0.34496
 20
-0.577959
 30
2.125
 11
-0.34496
 21
-0.577959
 31
2.125
  0
CIRCLE
  5
45D50
100
AcDbEntity
  8
0
100
AcDbCircle
 10
-0.11996
 20
-1.377959
 30
2.125
 40
0.0625
  0
CIRCLE
  5
45D51
100
AcDbEntity
  8
0
100
AcDbCircle
 10
-0.24496
 20
-0.677959
 30
2.125
 40
0.01
  0
CIRCLE
  5
45D52
100
AcDbEntity
  8
0
100
AcDbCircle
 10
-0.24496
 20
-0.577959
 30
2.125
 40
0.01
  0
CIRCLE
  5
45D53
100
AcDbEntity
  8
0
100
AcDbCircle
 10
-0.09496
 20
-0.627959
 30
2.125
 40
0.01
  0
CIRCLE
  5
45D54
100
AcDbEntity
  8
0
100
AcDbCircle
 10
-0.09496
 20
-0.527959
 30
2.125
 40
0.01
  0
CIRCLE
  5
45D55
100
AcDbEntity
  8
0
100
AcDbCircle
 10
-0.16996
 20
-0.702959
 30
2.125
 40
0.01
  0
CIRCLE
  5
45D56
100
AcDbEntity
  8
0
100
AcDbCircle
 10
-0.16996
 20
-0.552959
 30
2.125
 40
0.01
  0
ARC
  5
45D57
100
AcDbEntity
  8
0
100
AcDbCircle
 10
0.019225
 20
-0.575801
 30
2.125
 40
0.054888
100
AcDbArc
 50
114.36349
 51
245.63651
  0
TEXT
  5
45D58
100
AcDbEntity
  8
0
100
AcDbText
 39
0.001
 10
-0.786667
 20
-0.124
 30
2.125
 40
0.05
  1
TERM
 72
     1
 11
-0.695
 21
-0.124
 31
2.125
100
AcDbText
  0
TEXT
  5
45D59
100
AcDbEntity
  8
0
100
AcDbText
 39
0.001
 10
-0.711667
 20
-0.324
 30
2.125
 40
0.05
  1
A
 72
     1
 11
-0.695
 21
-0.324
 31
2.125
100
AcDbText
  0
CIRCLE
  5
45D5A
100
AcDbEntity
  8
0
100
AcDbCircle
 10
-0.24496
 20
-0.477959
 30
2.125
 40
0.01
  0
CIRCLE
  5
45D5B
100
AcDbEntity
  8
0
100
AcDbCircle
 10
-0.16996
 20
-0.477959
 30
2.125
 40
0.01
  0
TEXT
  5
45D5C
100
AcDbEntity
  8
0
100
AcDbText
 39
0.001
 10
-1.295
 20
-1.899
 30
2.56
 40
0.05
  1
1200
 72
     1
 11
-1.22
 21
-1.899
 31
2.56
100
AcDbText
  0
POLYLINE
  5
45D5D
100
AcDbEntity
  8
0
100
AcDbPolygonMesh
 66
     1
 10
0.0
 20
0.0
 30
0.0
 70
    16
 71
     6
 72
     3
  0
VERTEX
  5
45D5E
100
AcDbEntity
  8
0
100
AcDbVertex
100
AcDbPolygonMeshVertex
 10
0.33
 20
-2.166
 30
2.55
 70
    64
  0
VERTEX
  5
45D5F
100
AcDbEntity
  8
0
100
AcDbVertex
100
AcDbPolygonMeshVertex
 10
0.33
 20
-2.166
 30
2.56
 70
    64
  0
VERTEX
  5
45D60
100
AcDbEntity
  8
0
100
AcDbVertex
100
AcDbPolygonMeshVertex
 10
0.33
 20
-2.166
 30
2.56
 70
    64
  0
VERTEX
  5
45D61
100
AcDbEntity
  8
0
100
AcDbVertex
100
AcDbPolygonMeshVertex
 10
-1.42
 20
-2.166
 30
2.55
 70
    64
  0
VERTEX
  5
45D62
100
AcDbEntity
  8
0
100
AcDbVertex
100
AcDbPolygonMeshVertex
 10
-1.42
 20
-2.166
 30
2.56
 70
    64
  0
VERTEX
  5
45D63
100
AcDbEntity
  8
0
100
AcDbVertex
100
AcDbPolygonMeshVertex
 10
-1.42
 20
-2.166
 30
2.56
 70
    64
  0
VERTEX
  5
45D64
100
AcDbEntity
  8
0
100
AcDbVertex
100
AcDbPolygonMeshVertex
 10
-1.42
 20
-1.582
 30
2.55
 70
    64
  0
VERTEX
  5
45D65
100
AcDbEntity
  8
0
100
AcDbVertex
100
AcDbPolygonMeshVertex
 10
-1.42
 20
-1.582
 30
2.56
 70
    64
  0
VERTEX
  5
45D66
100
AcDbEntity
  8
0
100
AcDbVertex
100
AcDbPolygonMeshVertex
 10
-1.42
 20
-2.166
 30
2.56
 70
    64
  0
VERTEX
  5
45D67
100
AcDbEntity
  8
0
100
AcDbVertex
100
AcDbPolygonMeshVertex
 10
0.33
 20
-1.582
 30
2.55
 70
    64
  0
VERTEX
  5
45D68
100
AcDbEntity
  8
0
100
AcDbVertex
100
AcDbPolygonMeshVertex
 10
0.33
 20
-1.582
 30
2.56
 70
    64
  0
VERTEX
  5
45D69
100
AcDbEntity
  8
0
100
AcDbVertex
100
AcDbPolygonMeshVertex
 10
0.33
 20
-2.166
 30
2.56
 70
    64
  0
VERTEX
  5
45D6A
100
AcDbEntity
  8
0
100
AcDbVertex
100
AcDbPolygonMeshVertex
 10
0.33
 20
-1.582
 30
2.55
 70
    64
  0
VERTEX
  5
45D6B
100
AcDbEntity
  8
0
100
AcDbVertex
100
AcDbPolygonMeshVertex
 10
0.33
 20
-1.582
 30
2.55
 70
    64
  0
VERTEX
  5
45D6C
100
AcDbEntity
  8
0
100
AcDbVertex
100
AcDbPolygonMeshVertex
 10
0.33
 20
-2.166
 30
2.55
 70
    64
  0
VERTEX
  5
45D6D
100
AcDbEntity
  8
0
100
AcDbVertex
100
AcDbPolygonMeshVertex
 10
-1.42
 20
-1.582
 30
2.55
 70
    64
  0
VERTEX
  5
45D6E
100
AcDbEntity
  8
0
100
AcDbVertex
100
AcDbPolygonMeshVertex
 10
-1.42
 20
-1.582
 30
2.55
 70
    64
  0
VERTEX
  5
45D6F
100
AcDbEntity
  8
0
100
AcDbVertex
100
AcDbPolygonMeshVertex
 10
-1.42
 20
-2.166
 30
2.55
 70
    64
  0
SEQEND
  5
45D70
100
AcDbEntity
  8
0
  0
LINE
  5
45D71
100
AcDbEntity
  8
0
100
AcDbLine
 10
-0.57
 20
-0.477574
 30
2.446456
 11
-0.57
 21
-0.543704
 31
2.313765
210
1.0
220
0.0
230
0.0
  0
CIRCLE
  5
45D72
100
AcDbEntity
  8
0
100
AcDbCircle
 10
-0.499
 20
2.375
 30
-0.57
 40
0.075
210
1.0
220
0.0
230
0.0
  0
LINE
  5
45D73
100
AcDbEntity
  8
0
100
AcDbLine
 10
-0.895
 20
-0.549
 30
2.475
 11
-0.895
 21
-0.449
 31
2.475
  0
LINE
  5
45D74
100
AcDbEntity
  8
0
100
AcDbLine
 10
-0.995
 20
-0.549
 30
2.475
 11
-0.995
 21
-0.449
 31
2.475
  0
POLYLINE
  5
45D75
100
AcDbEntity
  8
0
  6
CONTINUOUS
100
AcDb3dPolyline
 66
     1
 10
0.0
 20
0.0
 30
0.0
 70
     8
1001
ACAD
1000
R13OBJECT
1002
{
1005
45D86
1002
}
  0
VERTEX
  5
45D76
100
AcDbEntity
  8
0
  6
CONTINUOUS
100
AcDbVertex
100
AcDb3dPolylineVertex
 10
-1.045
 20
-1.874
 30
2.56
 70
    32
1001
ACAD
1000
R13OBJECT
1002
{
1005
45D86
1002
}
  0
VERTEX
  5
45D77
100
AcDbEntity
  8
0
  6
CONTINUOUS
100
AcDbVertex
100
AcDb3dPolylineVertex
 10
-1.045
 20
-1.874
 30
2.76
 70
    32
1001
ACAD
1000
R13OBJECT
1002
{
1005
45D86
1002
}
  0
SEQEND
  5
45D78
100
AcDbEntity
  8
0
  6
CONTINUOUS
1001
ACAD
1000
R13OBJECT
1002
{
1005
45D86
1002
}
  0
POLYLINE
  5
45D79
100
AcDbEntity
  8
0
  6
CONTINUOUS
100
AcDb3dPolyline
 66
     1
 10
0.0
 20
0.0
 30
0.0
 70
     8
1001
ACAD
1000
R13OBJECT
1002
{
1005
45D86
1002
}
  0
VERTEX
  5
45D7A
100
AcDbEntity
  8
0
  6
CONTINUOUS
100
AcDbVertex
100
AcDb3dPolylineVertex
 10
-0.92
 20
-1.749
 30
2.56
 70
    32
1001
ACAD
1000
R13OBJECT
1002
{
1005
45D86
1002
}
  0
VERTEX
  5
45D7B
100
AcDbEntity
  8
0
  6
CONTINUOUS
100
AcDbVertex
100
AcDb3dPolylineVertex
 10
-0.92
 20
-1.749
 30
2.76
 70
    32
1001
ACAD
1000
R13OBJECT
1002
{
1005
45D86
1002
}
  0
SEQEND
  5
45D7C
100
AcDbEntity
  8
0
  6
CONTINUOUS
1001
ACAD
1000
R13OBJECT
1002
{
1005
45D86
1002
}
  0
POLYLINE
  5
45D7D
100
AcDbEntity
  8
0
  6
CONTINUOUS
100
AcDb3dPolyline
 66
     1
 10
0.0
 20
0.0
 30
0.0
 70
     8
1001
ACAD
1000
R13OBJECT
1002
{
1005
45D86
1002
}
  0
VERTEX
  5
45D7E
100
AcDbEntity
  8
0
  6
CONTINUOUS
100
AcDbVertex
100
AcDb3dPolylineVertex
 10
-0.795
 20
-1.874
 30
2.56
 70
    32
1001
ACAD
1000
R13OBJECT
1002
{
1005
45D86
1002
}
  0
VERTEX
  5
45D7F
100
AcDbEntity
  8
0
  6
CONTINUOUS
100
AcDbVertex
100
AcDb3dPolylineVertex
 10
-0.795
 20
-1.874
 30
2.76
 70
    32
1001
ACAD
1000
R13OBJECT
1002
{
1005
45D86
1002
}
  0
SEQEND
  5
45D80
100
AcDbEntity
  8
0
  6
CONTINUOUS
1001
ACAD
1000
R13OBJECT
1002
{
1005
45D86
1002
}
  0
POLYLINE
  5
45D81
100
AcDbEntity
  8
0
  6
CONTINUOUS
100
AcDb3dPolyline
 66
     1
 10
0.0
 20
0.0
 30
0.0
 70
     8
1001
ACAD
1000
R13OBJECT
1002
{
1005
45D86
1002
}
  0
VERTEX
  5
45D82
100
AcDbEntity
  8
0
  6
CONTINUOUS
100
AcDbVertex
100
AcDb3dPolylineVertex
 10
-0.92
 20
-1.999
 30
2.56
 70
    32
1001
ACAD
1000
R13OBJECT
1002
{
1005
45D86
1002
}
  0
VERTEX
  5
45D83
100
AcDbEntity
  8
0
  6
CONTINUOUS
100
AcDbVertex
100
AcDb3dPolylineVertex
 10
-0.92
 20
-1.999
 30
2.76
 70
    32
1001
ACAD
1000
R13OBJECT
1002
{
1005
45D86
1002
}
  0
SEQEND
  5
45D84
100
AcDbEntity
  8
0
  6
CONTINUOUS
1001
ACAD
1000
R13OBJECT
1002
{
1005
45D86
1002
}
  0
TEXT
  5
45D85
100
AcDbEntity
  8
0
100
AcDbText
 39
0.001
 10
-0.795
 20
-1.774
 30
2.56
 40
0.05
  1
19200
 72
     1
 11
-0.695
 21
-1.774
 31
2.56
100
AcDbText
  0
CIRCLE
  5
45D86
100
AcDbEntity
  8
0
  6
CONTINUOUS
100
AcDbCircle
 10
0.92
 20
-1.874
 30
-2.56
 40
0.125
210
0.0
220
0.0
230
-1.0
  0
CIRCLE
  5
45D87
100
AcDbEntity
  8
0
100
AcDbCircle
 10
-0.92
 20
-1.874
 30
2.56
 40
0.125
  0
TEXT
  5
45D88
100
AcDbEntity
  8
0
100
AcDbText
 39
0.001
 10
-1.203333
 20
-2.049
 30
2.56
 40
0.05
  1
2400
 72
     1
 11
-1.12
 21
-2.049
 31
2.56
100
AcDbText
  0
TEXT
  5
45D89
100
AcDbEntity
  8
0
100
AcDbText
 39
0.001
 10
-0.978333
 20
-2.124
 30
2.56
 40
0.05
  1
4800
 72
     1
 11
-0.895
 21
-2.124
 31
2.56
100
AcDbText
  0
TEXT
  5
45D8A
100
AcDbEntity
  8
0
100
AcDbText
 39
0.001
 10
-1.178333
 20
-1.774
 30
2.56
 40
0.05
  1
600
 72
     1
 11
-1.12
 21
-1.774
 31
2.56
100
AcDbText
  0
TEXT
  5
45D8B
100
AcDbEntity
  8
0
100
AcDbText
 39
0.001
 10
-0.986667
 20
-1.674
 30
2.56
 40
0.05
  1
AUTO
 72
     1
 11
-0.895
 21
-1.674
 31
2.56
100
AcDbText
  0
TEXT
  5
45D8C
100
AcDbEntity
  8
0
100
AcDbText
 39
0.001
 10
-0.778333
 20
-2.049
 30
2.56
 40
0.05
  1
9600
 72
     1
 11
-0.695
 21
-2.049
 31
2.56
100
AcDbText
  0
TEXT
  5
45D8D
100
AcDbEntity
  8
0
100
AcDbText
 39
0.001
 10
-0.72
 20
-1.899
 30
2.56
 40
0.05
  1
14400
 72
     1
 11
-0.62
 21
-1.899
 31
2.56
100
AcDbText
  0
LINE
  5
45D8E
100
AcDbEntity
  8
0
100
AcDbLine
 10
-0.57
 20
-1.051651
 30
2.432711
 11
-0.57
 21
-1.117252
 31
2.302135
210
1.0
220
0.0
230
0.0
  0
LINE
  5
45D8F
100
AcDbEntity
  8
0
100
AcDbLine
 10
-0.57
 20
-1.077574
 30
2.446456
 11
-0.57
 21
-1.143704
 31
2.313765
210
1.0
220
0.0
230
0.0
  0
CIRCLE
  5
45D90
100
AcDbEntity
  8
0
100
AcDbCircle
 10
-1.099
 20
2.375
 30
-0.57
 40
0.075
210
1.0
220
0.0
230
0.0
  0
LINE
  5
45D91
100
AcDbEntity
  8
0
100
AcDbLine
 10
-0.57
 20
-0.651651
 30
2.432711
 11
-0.57
 21
-0.717252
 31
2.302135
210
1.0
220
0.0
230
0.0
  0
LINE
  5
45D92
100
AcDbEntity
  8
0
100
AcDbLine
 10
-0.57
 20
-0.677574
 30
2.446456
 11
-0.57
 21
-0.743704
 31
2.313765
210
1.0
220
0.0
230
0.0
  0
CIRCLE
  5
45D93
100
AcDbEntity
  8
0
100
AcDbCircle
 10
-0.699
 20
2.375
 30
-0.57
 40
0.075
210
1.0
220
0.0
230
0.0
  0
LINE
  5
45D94
100
AcDbEntity
  8
0
100
AcDbLine
 10
-0.57
 20
-0.877574
 30
2.446456
 11
-0.57
 21
-0.943704
 31
2.313765
210
1.0
220
0.0
230
0.0
  0
LINE
  5
45D95
100
AcDbEntity
  8
0
100
AcDbLine
 10
-0.57
 20
-0.851651
 30
2.432711
 11
-0.57
 21
-0.917252
 31
2.302135
210
1.0
220
0.0
230
0.0
  0
CIRCLE
  5
45D96
100
AcDbEntity
  8
0
100
AcDbCircle
 10
-0.899
 20
2.375
 30
-0.57
 40
0.075
210
1.0
220
0.0
230
0.0
  0
LINE
  5
45D97
100
AcDbEntity
  8
0
100
AcDbLine
 10
-0.995
 20
-1.149
 30
2.475
 11
-0.895
 21
-1.149
 31
2.475
  0
LINE
  5
45D98
100
AcDbEntity
  8
0
100
AcDbLine
 10
-0.995
 20
-1.049
 30
2.475
 11
-0.895
 21
-1.049
 31
2.475
  0
LINE
  5
45D99
100
AcDbEntity
  8
0
100
AcDbLine
 10
-0.995
 20
-1.149
 30
2.475
 11
-0.995
 21
-1.049
 31
2.475
  0
LINE
  5
45D9A
100
AcDbEntity
  8
0
100
AcDbLine
 10
-0.895
 20
-1.149
 30
2.475
 11
-0.895
 21
-1.049
 31
2.475
  0
LINE
  5
45D9B
100
AcDbEntity
  8
0
100
AcDbLine
 10
-0.995
 20
-0.849
 30
2.475
 11
-0.895
 21
-0.849
 31
2.475
  0
LINE
  5
45D9C
100
AcDbEntity
  8
0
100
AcDbLine
 10
-0.995
 20
-0.949
 30
2.475
 11
-0.895
 21
-0.949
 31
2.475
  0
LINE
  5
45D9D
100
AcDbEntity
  8
0
100
AcDbLine
 10
-0.995
 20
-0.949
 30
2.475
 11
-0.995
 21
-0.849
 31
2.475
  0
LINE
  5
45D9E
100
AcDbEntity
  8
0
100
AcDbLine
 10
-0.895
 20
-0.949
 30
2.475
 11
-0.895
 21
-0.849
 31
2.475
  0
LINE
  5
45D9F
100
AcDbEntity
  8
0
100
AcDbLine
 10
-0.995
 20
-0.649
 30
2.475
 11
-0.895
 21
-0.649
 31
2.475
  0
LINE
  5
45DA0
100
AcDbEntity
  8
0
100
AcDbLine
 10
-0.995
 20
-0.749
 30
2.475
 11
-0.895
 21
-0.749
 31
2.475
  0
LINE
  5
45DA1
100
AcDbEntity
  8
0
100
AcDbLine
 10
-0.995
 20
-0.549
 30
2.475
 11
-0.895
 21
-0.549
 31
2.475
  0
LINE
  5
45DA2
100
AcDbEntity
  8
0
100
AcDbLine
 10
-0.995
 20
-0.749
 30
2.475
 11
-0.995
 21
-0.649
 31
2.475
  0
LINE
  5
45DA3
100
AcDbEntity
  8
0
100
AcDbLine
 10
-0.895
 20
-0.749
 30
2.475
 11
-0.895
 21
-0.649
 31
2.475
  0
CIRCLE
  5
45DA4
100
AcDbEntity
  8
0
  6
CONTINUOUS
100
AcDbCircle
 10
-0.92
 20
-1.874
 30
2.76
 40
0.125
1001
ACAD
1000
R13OBJECT
1002
{
1005
45D86
1002
}
  0
CIRCLE
  5
45DA5
100
AcDbEntity
  8
0
100
AcDbCircle
 10
-0.099
 20
2.375
 30
-0.57
 40
0.075
210
1.0
220
0.0
230
0.0
  0
LINE
  5
45DA6
100
AcDbEntity
  8
0
100
AcDbLine
 10
-0.57
 20
-0.051651
 30
2.432711
 11
-0.57
 21
-0.117252
 31
2.302135
210
1.0
220
0.0
230
0.0
  0
LINE
  5
45DA7
100
AcDbEntity
  8
0
100
AcDbLine
 10
-0.57
 20
-0.077574
 30
2.446456
 11
-0.57
 21
-0.143704
 31
2.313765
210
1.0
220
0.0
230
0.0
  0
LINE
  5
45DA8
100
AcDbEntity
  8
0
100
AcDbLine
 10
-0.57
 20
-0.251651
 30
2.432711
 11
-0.57
 21
-0.317252
 31
2.302135
210
1.0
220
0.0
230
0.0
  0
LINE
  5
45DA9
100
AcDbEntity
  8
0
100
AcDbLine
 10
-0.57
 20
-0.277574
 30
2.446456
 11
-0.57
 21
-0.343704
 31
2.313765
210
1.0
220
0.0
230
0.0
  0
CIRCLE
  5
45DAA
100
AcDbEntity
  8
0
100
AcDbCircle
 10
-0.299
 20
2.375
 30
-0.57
 40
0.075
210
1.0
220
0.0
230
0.0
  0
LINE
  5
45DAB
100
AcDbEntity
  8
0
100
AcDbLine
 10
-0.57
 20
-0.451651
 30
2.432711
 11
-0.57
 21
-0.517252
 31
2.302135
210
1.0
220
0.0
230
0.0
  0
LINE
  5
45DAC
100
AcDbEntity
  8
0
100
AcDbLine
 10
-0.995
 20
-0.349
 30
2.475
 11
-0.995
 21
-0.249
 31
2.475
  0
LINE
  5
45DAD
100
AcDbEntity
  8
0
100
AcDbLine
 10
-0.895
 20
-0.349
 30
2.475
 11
-0.895
 21
-0.249
 31
2.475
  0
LINE
  5
45DAE
100
AcDbEntity
  8
0
100
AcDbLine
 10
-0.995
 20
-0.349
 30
2.475
 11
-0.895
 21
-0.349
 31
2.475
  0
LINE
  5
45DAF
100
AcDbEntity
  8
0
100
AcDbLine
 10
-0.995
 20
-0.449
 30
2.475
 11
-0.895
 21
-0.449
 31
2.475
  0
LINE
  5
45DB0
100
AcDbEntity
  8
0
100
AcDbLine
 10
-0.995
 20
-0.049
 30
2.475
 11
-0.895
 21
-0.049
 31
2.475
  0
LINE
  5
45DB1
100
AcDbEntity
  8
0
100
AcDbLine
 10
-0.995
 20
-0.149
 30
2.475
 11
-0.895
 21
-0.149
 31
2.475
  0
LINE
  5
45DB2
100
AcDbEntity
  8
0
100
AcDbLine
 10
-0.995
 20
-0.249
 30
2.475
 11
-0.895
 21
-0.249
 31
2.475
  0
LINE
  5
45DB3
100
AcDbEntity
  8
0
100
AcDbLine
 10
-0.995
 20
-0.149
 30
2.475
 11
-0.995
 21
-0.049
 31
2.475
  0
LINE
  5
45DB4
100
AcDbEntity
  8
0
100
AcDbLine
 10
-0.895
 20
-0.149
 30
2.475
 11
-0.895
 21
-0.049
 31
2.475
  0
DIMENSION
  5
45DB5
100
AcDbEntity
  8
AREA1
100
AcDbDimension
  2
*D0
 10
1.2757
 20
0.22
 30
0.0
 11
1.2757
 21
-2.254
 31
0.0
 70
    32
  3
ABECAD_3D
100
AcDbAlignedDimension
 13
0.13
 23
-4.728
 33
0.58
 14
0.48
 24
0.22
 34
1.93
 50
90.0
100
AcDbRotatedDimension
  0
DIMENSION
  5
45DC3
100
AcDbEntity
  8
AREA1
100
AcDbDimension
  2
*D1
 10
0.48
 20
0.831105
 30
0.0
 11
-0.545
 21
0.831105
 31
0.0
 70
    32
  3
ABECAD_3D
100
AcDbAlignedDimension
 13
-1.57
 23
0.22
 33
1.93
 14
0.48
 24
0.22
 34
1.93
100
AcDbRotatedDimension
  0
LINE
  5
45E1B
100
AcDbEntity
  8
SCALE
100
AcDbLine
 10
-1.462586
 20
-5.328805
 30
0.0
 11
-0.462586
 21
-5.328805
 31
0.0
  0
LINE
  5
45E1C
100
AcDbEntity
  8
SCALE
100
AcDbLine
 10
-0.462586
 20
-5.328805
 30
0.0
 11
-0.462586
 21
-5.428805
 31
0.0
  0
LINE
  5
45E1D
100
AcDbEntity
  8
SCALE
100
AcDbLine
 10
-0.462586
 20
-5.428805
 30
0.0
 11
-0.462586
 21
-5.228805
 31
0.0
  0
LINE
  5
45E1E
100
AcDbEntity
  8
SCALE
100
AcDbLine
 10
-1.462586
 20
-5.428805
 30
0.0
 11
-1.462586
 21
-5.228805
 31
0.0
  0
LINE
  5
45E1F
100
AcDbEntity
  8
SCALE
100
AcDbLine
 10
-1.462586
 20
-5.728805
 30
0.0
 11
-1.462586
 21
-5.528805
 31
0.0
  0
LINE
  5
45E20
100
AcDbEntity
  8
SCALE
100
AcDbLine
 10
-1.068886
 20
-5.728805
 30
0.0
 11
-1.068886
 21
-5.528805
 31
0.0
  0
LINE
  5
45E21
100
AcDbEntity
  8
SCALE
100
AcDbLine
 10
-1.462586
 20
-5.628805
 30
0.0
 11
-1.068886
 21
-5.628805
 31
0.0
  0
TEXT
  5
45E22
100
AcDbEntity
  8
SCALE
100
AcDbText
 10
-1.403164
 20
-5.583065
 30
0.0
 40
0.0625
  1
[10mm]
100
AcDbText
  0
TEXT
  5
45E23
100
AcDbEntity
  8
SCALE
100
AcDbText
 10
-1.099303
 20
-5.259756
 30
0.0
 40
0.0625
  1
1 Inch
100
AcDbText
  0
TEXT
  5
45E24
100
AcDbEntity
  8
SCALE
100
AcDbText
 10
-1.461055
 20
-5.053928
 30
0.0
 40
0.0625
  1
SCALE:
100
AcDbText
  0
LWPOLYLINE
  5
45E25
100
AcDbEntity
  8
SCALE
100
AcDbPolyline
 90
        4
 70
     1
 43
0.0
 10
-1.520584
 20
-4.948727
 10
-0.384956
 20
-4.948727
 10
-0.384956
 20
-5.790336
 10
-1.520584
 20
-5.790336
  0
ENDSEC
  0
SECTION
  2
OBJECTS
  0
DICTIONARY
  5
458CB
100
AcDbDictionary
  3
ACAD_GROUP
350
458CC
  3
ACAD_LAYOUT
350
458FB
  3
ACAD_MLINESTYLE
350
458D9
  3
ACAD_PLOTSETTINGS
350
458FC
  3
ACAD_PLOTSTYLENAME
350
458F9
  3
ACDBHEADERROUNDTRIPXREC
350
45F0C
  3
ACDBVARIABLEDICTIONARY
350
458E1
  3
DWGPROPS
350
45901
  0
DICTIONARY
  5
45F0A
100
AcDbDictionary
280
     1
  3
ACAD_XREC_ROUNDTRIP
360
45F0B
  0
DICTIONARY
  5
45F35
100
AcDbDictionary
280
     1
  3
ACAD_XREC_ROUNDTRIP
360
45F36
  0
DICTIONARY
  5
45F08
100
AcDbDictionary
280
     1
  3
ACAD_XREC_ROUNDTRIP
360
45F09
  0
DICTIONARY
  5
45F2F
100
AcDbDictionary
280
     1
  3
ACAD_XREC_ROUNDTRIP
360
45F30
  0
DICTIONARY
  5
45F31
100
AcDbDictionary
280
     1
  3
ACAD_XREC_ROUNDTRIP
360
45F32
  0
DICTIONARY
  5
4592C
100
AcDbDictionary
280
     1
  3
ACAD_LAYOUTSELFREF
360
45F2E
  0
DICTIONARY
  5
4592A
100
AcDbDictionary
280
     1
  3
ACAD_LAYOUTSELFREF
360
45F2D
  0
DICTIONARY
  5
458CC
102
{ACAD_REACTORS
330
458CB
102
}
100
AcDbDictionary
  0
DICTIONARY
  5
458FB
102
{ACAD_XDICTIONARY
360
45F33
102
}
102
{ACAD_REACTORS
330
458CB
102
}
100
AcDbDictionary
  3
LAYOUT1
350
458FE
  3
MODEL
350
458FD
  0
DICTIONARY
  5
458D9
102
{ACAD_REACTORS
330
458CB
102
}
100
AcDbDictionary
  3
STANDARD
350
458DA
  0
DICTIONARY
  5
458FC
102
{ACAD_REACTORS
330
458CB
102
}
100
AcDbDictionary
  0
ACAD_PROXY_OBJECT
  5
458F9
102
{ACAD_REACTORS
330
458CB
102
}
100
AcDbProxyObject
 90
      499
 91
      501
 93
       86
310
405010041939BDC9B585B0
350
458FA
340
458FA
 94
        0
  0
DICTIONARY
  5
45F0C
102
{ACAD_REACTORS
330
458CB
102
}
100
AcDbDictionary
  3
CEPSNTYPE
350
45F16
  3
DIMSTYLEDATA
350
45F1A
  3
FINGERPRINTGUID
350
45F17
  3
HYPERLINKBASE
350
45F0F
  3
INSUNITS
350
45F15
  3
LAYOUTDICT
350
45F11
  3
LWETCUNION
350
45F14
  3
PLOTSETDICT
350
45F12
  3
PLOTSTYLNAMDICT
350
45F13
  3
PSVPSCALE
350
45F19
  3
PUCSBASE
350
45F1D
  3
PUCSORGBACK
350
45F23
  3
PUCSORGBOTTOM
350
45F1F
  3
PUCSORGFRONT
350
45F22
  3
PUCSORGLEFT
350
45F20
  3
PUCSORGRIGHT
350
45F21
  3
PUCSORGTOP
350
45F1E
  3
PUCSORTHOREF
350
45F1B
  3
PUCSORTHOVIEW
350
45F1C
  3
STYLESHEET
350
45F10
  3
TSTACKALIGN
350
45F0D
  3
TSTACKSIZE
350
45F0E
  3
UCSBASE
350
45F26
  3
UCSORGBACK
350
45F2C
  3
UCSORGBOTTOM
350
45F28
  3
UCSORGFRONT
350
45F2B
  3
UCSORGLEFT
350
45F29
  3
UCSORGRIGHT
350
45F2A
  3
UCSORGTOP
350
45F27
  3
UCSORTHOREF
350
45F24
  3
UCSORTHOVIEW
350
45F25
  3
VERSIONGUID
350
45F18
  0
DICTIONARY
  5
458E1
102
{ACAD_REACTORS
330
458CB
102
}
100
AcDbDictionary
  3
DIMADEC
350
458E2
  0
XRECORD
  5
45901
102
{ACAD_REACTORS
330
458CB
102
}
100
AcDbXrecord
  1
DWGPROPS COOKIE
  2

  3

  4

  6

  7

  8
colin
  9

300
=
301
=
302
=
303
=
304
=
305
=
306
=
307
=
308
=
309
=
 40
0.000599
 41
2451670.444777
 42
2451670.445376
  1

 90
        0
  0
XRECORD
  5
45F0B
102
{ACAD_REACTORS
330
45F0A
102
}
100
AcDbXrecord
102
EXTNAMES
  1
*ACTIVE
  2
*Active
102
UCS
 74
     0
 71
     1
 10
0.0
 20
0.0
 30
0.0
 10
1.0
 20
0.0
 30
0.0
 10
0.0
 20
1.0
 30
0.0
146
0.0
 79
     1
102
VIEW
281
     0
  0
XRECORD
  5
45F36
102
{ACAD_REACTORS
330
45F35
102
}
100
AcDbXrecord
102
PLOTBIT
280
     0
  0
XRECORD
  5
45F09
102
{ACAD_REACTORS
330
45F08
102
}
100
AcDbXrecord
102
EXTNAMES
  1
DEFPOINTS
  2
Defpoints
102
PLOTBIT
280
     0
  0
XRECORD
  5
45F30
102
{ACAD_REACTORS
330
45F2F
102
}
100
AcDbXrecord
102
ACADR14ROUNDTRIP
1000
DSTYLE
1002
{
1070
   276
 70
     2
1070
   277
 70
     5
1002
}
  0
XRECORD
  5
45F32
102
{ACAD_REACTORS
330
45F31
102
}
100
AcDbXrecord
102
ACADR14ROUNDTRIP
1000
DSTYLE
1002
{
1070
   276
 70
     2
1070
   277
 70
     5
1002
}
  0
XRECORD
  5
45F2E
102
{ACAD_REACTORS
330
4592C
102
}
100
AcDbXrecord
340
458D6
  0
XRECORD
  5
45F2D
102
{ACAD_REACTORS
330
4592A
102
}
100
AcDbXrecord
340
458D3
  0
DICTIONARY
  5
45F33
100
AcDbDictionary
280
     1
  3
ACAD_XREC_ROUNDTRIP
360
45F34
  0
ACAD_PROXY_OBJECT
  5
458FE
102
{ACAD_REACTORS
330
458FB
102
}
100
AcDbProxyObject
 90
      499
 91
      503
 93
     1348
310
91D4850204C617365724A65742035303030205365726965732050434C20362C00AAAAAA416AA547D11959985D5B1D08148C4D081C195B88185CDCDA59DB9B595B9D1CCB98DD1891069074C61796F75743140501A800000000000000000000000000000000000000000000A1000000000000008902A6A6A10232D5E076BC551
310
0408CB5781DAF154410232D5E076BC5510408CB5781DAF15C410232D5E076BC5710408CB5781DAF15C40
330
458D3
330
0
340
0
340
0
 94
        0
  0
ACAD_PROXY_OBJECT
  5
458FD
102
{ACAD_REACTORS
330
458FB
102
}
100
AcDbProxyObject
 90
      499
 91
      503
 93
      924
310
91D4850204C617365724A65742035303030205365726965732050434C20362C01AAAAAAAAA547D11959985D5B1D08148C4D081C195B88185CDCDA59DB9B595B9D1CCB98DD18A69054D6F64656C901A800000000000000000000000000000000000000000000A1000000000000008902A6A6AAAA0
330
458D6
330
0
340
0
340
0
 94
        0
  0
MLINESTYLE
  5
458DA
102
{ACAD_REACTORS
330
458D9
102
}
100
AcDbMlineStyle
  2
STANDARD
 70
     0
  3

 62
   256
 51
90.0
 52
90.0
 71
     2
 49
0.5
 62
   256
  6
BYLAYER
 49
-0.5
 62
   256
  6
BYLAYER
  0
ACAD_PROXY_OBJECT
  5
458FA
102
{ACAD_REACTORS
330
458F9
102
}
100
AcDbProxyObject
 90
      499
 91
      502
 93
        0
 94
        0
  0
XRECORD
  5
45F16
102
{ACAD_REACTORS
330
45F0C
102
}
100
AcDbXrecord
 90
        0
  0
XRECORD
  5
45F1A
102
{ACAD_REACTORS
330
45F0C
102
}
100
AcDbXrecord
1000
DSTYLE
1002
{
1070
   276
 70
     2
1070
   277
 70
     5
1002
}
  0
XRECORD
  5
45F17
102
{ACAD_REACTORS
330
45F0C
102
}
100
AcDbXrecord
  1
{6E0CF4B8-225E-11D4-A150-00A0CC3303EC}
  0
XRECORD
  5
45F0F
102
{ACAD_REACTORS
330
45F0C
102
}
100
AcDbXrecord
  1

  0
XRECORD
  5
45F15
102
{ACAD_REACTORS
330
45F0C
102
}
100
AcDbXrecord
 90
        0
  0
XRECORD
  5
45F11
102
{ACAD_REACTORS
330
45F0C
102
}
100
AcDbXrecord
340
458FB
  0
XRECORD
  5
45F14
102
{ACAD_REACTORS
330
45F0C
102
}
100
AcDbXrecord
 90
    14877
  0
XRECORD
  5
45F12
102
{ACAD_REACTORS
330
45F0C
102
}
100
AcDbXrecord
340
458FC
  0
XRECORD
  5
45F13
102
{ACAD_REACTORS
330
45F0C
102
}
100
AcDbXrecord
340
458F9
  0
XRECORD
  5
45F19
102
{ACAD_REACTORS
330
45F0C
102
}
100
AcDbXrecord
 40
0.0
  0
XRECORD
  5
45F1D
102
{ACAD_REACTORS
330
45F0C
102
}
100
AcDbXrecord
340
0
  0
XRECORD
  5
45F23
102
{ACAD_REACTORS
330
45F0C
102
}
100
AcDbXrecord
 10
0.0
 20
0.0
 30
0.0
  0
XRECORD
  5
45F1F
102
{ACAD_REACTORS
330
45F0C
102
}
100
AcDbXrecord
 10
0.0
 20
0.0
 30
0.0
  0
XRECORD
  5
45F22
102
{ACAD_REACTORS
330
45F0C
102
}
100
AcDbXrecord
 10
0.0
 20
0.0
 30
0.0
  0
XRECORD
  5
45F20
102
{ACAD_REACTORS
330
45F0C
102
}
100
AcDbXrecord
 10
0.0
 20
0.0
 30
0.0
  0
XRECORD
  5
45F21
102
{ACAD_REACTORS
330
45F0C
102
}
100
AcDbXrecord
 10
0.0
 20
0.0
 30
0.0
  0
XRECORD
  5
45F1E
102
{ACAD_REACTORS
330
45F0C
102
}
100
AcDbXrecord
 10
0.0
 20
0.0
 30
0.0
  0
XRECORD
  5
45F1B
102
{ACAD_REACTORS
330
45F0C
102
}
100
AcDbXrecord
340
0
  0
XRECORD
  5
45F1C
102
{ACAD_REACTORS
330
45F0C
102
}
100
AcDbXrecord
 70
     0
  0
XRECORD
  5
45F10
102
{ACAD_REACTORS
330
45F0C
102
}
100
AcDbXrecord
  1

  0
XRECORD
  5
45F0D
102
{ACAD_REACTORS
330
45F0C
102
}
100
AcDbXrecord
 90
        1
  0
XRECORD
  5
45F0E
102
{ACAD_REACTORS
330
45F0C
102
}
100
AcDbXrecord
 90
       70
  0
XRECORD
  5
45F26
102
{ACAD_REACTORS
330
45F0C
102
}
100
AcDbXrecord
340
0
  0
XRECORD
  5
45F2C
102
{ACAD_REACTORS
330
45F0C
102
}
100
AcDbXrecord
 10
0.0
 20
0.0
 30
0.0
  0
XRECORD
  5
45F28
102
{ACAD_REACTORS
330
45F0C
102
}
100
AcDbXrecord
 10
0.0
 20
0.0
 30
0.0
  0
XRECORD
  5
45F2B
102
{ACAD_REACTORS
330
45F0C
102
}
100
AcDbXrecord
 10
0.0
 20
0.0
 30
0.0
  0
XRECORD
  5
45F29
102
{ACAD_REACTORS
330
45F0C
102
}
100
AcDbXrecord
 10
0.0
 20
0.0
 30
0.0
  0
XRECORD
  5
45F2A
102
{ACAD_REACTORS
330
45F0C
102
}
100
AcDbXrecord
 10
0.0
 20
0.0
 30
0.0
  0
XRECORD
  5
45F27
102
{ACAD_REACTORS
330
45F0C
102
}
100
AcDbXrecord
 10
0.0
 20
0.0
 30
0.0
  0
XRECORD
  5
45F24
102
{ACAD_REACTORS
330
45F0C
102
}
100
AcDbXrecord
340
0
  0
XRECORD
  5
45F25
102
{ACAD_REACTORS
330
45F0C
102
}
100
AcDbXrecord
 70
     1
  0
XRECORD
  5
45F18
102
{ACAD_REACTORS
330
45F0C
102
}
100
AcDbXrecord
  1
{C7A020D4-3A11-4ED5-9612-59E111844BAE}
  0
DICTIONARYVAR
  5
458E2
102
{ACAD_REACTORS
330
458E1
102
}
100
DictionaryVariables
280
     0
  1
0
  0
XRECORD
  5
45F34
102
{ACAD_REACTORS
330
45F33
102
}
100
AcDbXrecord
102
EXTNAMES
  1
LAYOUT1
  2
Layout1
  1
MODEL
  2
Model
  0
ENDSEC
  0
EOF
