  0
SECTION
  2
HEADER
  9
$ACADVER
  1
AC1014
  9
$ACADMAINTVER
 70
     8
  9
$DWGCODEPAGE
  3
ANSI_1252
  9
$INSBASE
 10
0.0
 20
0.0
 30
0.0
  9
$EXTMIN
 10
-0.238645
 20
-4.056453
 30
0.0
  9
$EXTMAX
 10
5.548013
 20
1.086241
 30
2.8147
  9
$LIMMIN
 10
0.0
 20
0.0
  9
$LIMMAX
 10
12.0
 20
9.0
  9
$ORTHOMODE
 70
     0
  9
$REGENMODE
 70
     1
  9
$FILLMODE
 70
     1
  9
$QTEXTMODE
 70
     0
  9
$MIRRTEXT
 70
     1
  9
$DRAGMODE
 70
     2
  9
$LTSCALE
 40
1.0
  9
$OSMODE
 70
    45
  9
$ATTMODE
 70
     1
  9
$TEXTSIZE
 40
0.12
  9
$TRACEWID
 40
0.05
  9
$TEXTSTYLE
  7
STANDARD
  9
$CLAYER
  8
0
  9
$CELTYPE
  6
BYLAYER
  9
$CECOLOR
 62
   256
  9
$CELTSCALE
 40
1.0
  9
$DELOBJ
 70
     1
  9
$DISPSILH
 70
     0
  9
$DIMSCALE
 40
1.0
  9
$DIMASZ
 40
0.18
  9
$DIMEXO
 40
0.0625
  9
$DIMDLI
 40
0.375
  9
$DIMRND
 40
0.0
  9
$DIMDLE
 40
0.0
  9
$DIMEXE
 40
0.18
  9
$DIMTP
 40
0.0
  9
$DIMTM
 40
0.0
  9
$DIMTXT
 40
0.18
  9
$DIMCEN
 40
0.09
  9
$DIMTSZ
 40
0.0
  9
$DIMTOL
 70
     0
  9
$DIMLIM
 70
     0
  9
$DIMTIH
 70
     0
  9
$DIMTOH
 70
     1
  9
$DIMSE1
 70
     0
  9
$DIMSE2
 70
     0
  9
$DIMTAD
 70
     0
  9
$DIMZIN
 70
     4
  9
$DIMBLK
  1

  9
$DIMASO
 70
     1
  9
$DIMSHO
 70
     1
  9
$DIMPOST
  1

  9
$DIMAPOST
  1

  9
$DIMALT
 70
     1
  9
$DIMALTD
 70
     1
  9
$DIMALTF
 40
25.4
  9
$DIMLFAC
 40
1.0
  9
$DIMTOFL
 70
     0
  9
$DIMTVP
 40
0.0
  9
$DIMTIX
 70
     0
  9
$DIMSOXD
 70
     0
  9
$DIMSAH
 70
     0
  9
$DIMBLK1
  1

  9
$DIMBLK2
  1

  9
$DIMSTYLE
  2
ABECAD_3D
  9
$DIMCLRD
 70
     0
  9
$DIMCLRE
 70
     0
  9
$DIMCLRT
 70
     0
  9
$DIMTFAC
 40
1.5
  9
$DIMGAP
 40
0.09
  9
$DIMJUST
 70
     0
  9
$DIMSD1
 70
     0
  9
$DIMSD2
 70
     0
  9
$DIMTOLJ
 70
     1
  9
$DIMTZIN
 70
     4
  9
$DIMALTZ
 70
     4
  9
$DIMALTTZ
 70
     4
  9
$DIMFIT
 70
     3
  9
$DIMUPT
 70
     0
  9
$DIMUNIT
 70
     7
  9
$DIMDEC
 70
     6
  9
$DIMTDEC
 70
     6
  9
$DIMALTU
 70
     2
  9
$DIMALTTD
 70
     1
  9
$DIMTXSTY
  7
STANDARD
  9
$DIMAUNIT
 70
     0
  9
$LUNITS
 70
     2
  9
$LUPREC
 70
     4
  9
$SKETCHINC
 40
0.1
  9
$FILLETRAD
 40
0.0
  9
$AUNITS
 70
     0
  9
$AUPREC
 70
     0
  9
$MENU
  1
ACAD
  9
$ELEVATION
 40
0.0
  9
$PELEVATION
 40
0.0
  9
$THICKNESS
 40
0.0
  9
$LIMCHECK
 70
     0
  9
$BLIPMODE
 70
     0
  9
$CHAMFERA
 40
0.0
  9
$CHAMFERB
 40
0.0
  9
$CHAMFERC
 40
0.0
  9
$CHAMFERD
 40
0.0
  9
$SKPOLY
 70
     0
  9
$TDCREATE
 40
2451670.444776967
  9
$TDUPDATE
 40
2452128.458868056
  9
$TDINDWG
 40
0.0092832176
  9
$TDUSRTIMER
 40
0.0092832176
  9
$USRTIMER
 70
     1
  9
$ANGBASE
 50
0.0
  9
$ANGDIR
 70
     0
  9
$PDMODE
 70
     3
  9
$PDSIZE
 40
0.09
  9
$PLINEWID
 40
0.0
  9
$COORDS
 70
     1
  9
$SPLFRAME
 70
     1
  9
$SPLINETYPE
 70
     6
  9
$SPLINESEGS
 70
     8
  9
$ATTDIA
 70
     0
  9
$ATTREQ
 70
     1
  9
$HANDLING
 70
     1
  9
$HANDSEED
  5
45DCD
  9
$SURFTAB1
 70
     6
  9
$SURFTAB2
 70
     6
  9
$SURFTYPE
 70
     6
  9
$SURFU
 70
     6
  9
$SURFV
 70
     6
  9
$UCSNAME
  2

  9
$UCSORG
 10
0.0
 20
0.0
 30
0.0
  9
$UCSXDIR
 10
1.0
 20
0.0
 30
0.0
  9
$UCSYDIR
 10
0.0
 20
1.0
 30
0.0
  9
$PUCSNAME
  2

  9
$PUCSORG
 10
0.0
 20
0.0
 30
0.0
  9
$PUCSXDIR
 10
1.0
 20
0.0
 30
0.0
  9
$PUCSYDIR
 10
0.0
 20
1.0
 30
0.0
  9
$USERI1
 70
     0
  9
$USERI2
 70
     0
  9
$USERI3
 70
     0
  9
$USERI4
 70
     0
  9
$USERI5
 70
     0
  9
$USERR1
 40
0.0
  9
$USERR2
 40
0.0
  9
$USERR3
 40
0.0
  9
$USERR4
 40
0.0
  9
$USERR5
 40
0.0
  9
$WORLDVIEW
 70
     1
  9
$SHADEDGE
 70
     3
  9
$SHADEDIF
 70
    70
  9
$TILEMODE
 70
     1
  9
$MAXACTVP
 70
    16
  9
$PINSBASE
 10
0.0
 20
0.0
 30
0.0
  9
$PLIMCHECK
 70
     0
  9
$PEXTMIN
 10
1.000000E+20
 20
1.000000E+20
 30
1.000000E+20
  9
$PEXTMAX
 10
-1.000000E+20
 20
-1.000000E+20
 30
-1.000000E+20
  9
$PLIMMIN
 10
0.0
 20
0.0
  9
$PLIMMAX
 10
12.0
 20
9.0
  9
$UNITMODE
 70
     0
  9
$VISRETAIN
 70
     0
  9
$PLINEGEN
 70
     0
  9
$PSLTSCALE
 70
     1
  9
$TREEDEPTH
 70
  3020
  9
$PICKSTYLE
 70
     1
  9
$CMLSTYLE
  2
STANDARD
  9
$CMLJUST
 70
     0
  9
$CMLSCALE
 40
1.0
  9
$PROXYGRAPHICS
 70
     1
  9
$MEASUREMENT
 70
     0
  0
ENDSEC
  0
SECTION
  2
CLASSES
  0
CLASS
  1
DICTIONARYVAR
  2
AcDbDictionaryVar
  3
"AutoCAD"
 90
        0
280
     0
281
     0
  0
CLASS
  1
ACDBDICTIONARYWDFLT
  2
AcDbDictionaryWithDefault
  3
AutoCAD 2000
 90
        0
280
     0
281
     0
  0
CLASS
  1
ACDBPLACEHOLDER
  2
AcDbPlaceHolder
  3
AutoCAD 2000
 90
        0
280
     0
281
     0
  0
CLASS
  1
LAYOUT
  2
AcDbLayout
  3
AutoCAD 2000
 90
        0
280
     0
281
     0
  0
CLASS
  1
LONG_TRANSACTION
  2
AcDbLongTransaction
  3
AutoCAD 2000
 90
        0
280
     0
281
     0
  0
CLASS
  1
LWPOLYLINE
  2
AcDbPolyline
  3
"AutoCAD"
 90
        0
280
     0
281
     1
  0
CLASS
  1
HATCH
  2
AcDbHatch
  3
"ACAD_SEDONA"
 90
        0
280
     0
281
     1
  0
CLASS
  1
XRECORD
  2
AcDbXrecord
  3
"<Built In>"
 90
        0
280
     0
281
     0
  0
CLASS
  1
LONG_TRANSACTION
  2
AcDbLongTransaction
  3
AutoCAD 2000
 90
        0
280
     0
281
     0
  0
CLASS
  1
LWPOLYLINE
  2
AcDbPolyline
  3
"AutoCAD"
 90
        0
280
     0
281
     1
  0
CLASS
  1
HATCH
  2
AcDbHatch
  3
"ACAD_SEDONA"
 90
        0
280
     0
281
     1
  0
CLASS
  1
XRECORD
  2
AcDbXrecord
  3
"<Built In>"
 90
        0
280
     0
281
     0
  0
CLASS
  1
LONG_TRANSACTION
  2
AcDbLongTransaction
  3
AutoCAD 2000
 90
        0
280
     0
281
     0
  0
CLASS
  1
LWPOLYLINE
  2
AcDbPolyline
  3
"AutoCAD"
 90
        0
280
     0
281
     1
  0
CLASS
  1
HATCH
  2
AcDbHatch
  3
"ACAD_SEDONA"
 90
        0
280
     0
281
     1
  0
CLASS
  1
XRECORD
  2
AcDbXrecord
  3
"<Built In>"
 90
        0
280
     0
281
     0
  0
CLASS
  1
LONG_TRANSACTION
  2
AcDbLongTransaction
  3
AutoCAD 2000
 90
        0
280
     0
281
     0
  0
CLASS
  1
LWPOLYLINE
  2
AcDbPolyline
  3
"AutoCAD"
 90
        0
280
     0
281
     1
  0
CLASS
  1
HATCH
  2
AcDbHatch
  3
"ACAD_SEDONA"
 90
        0
280
     0
281
     1
  0
CLASS
  1
XRECORD
  2
AcDbXrecord
  3
"<Built In>"
 90
        0
280
     0
281
     0
  0
CLASS
  1
LONG_TRANSACTION
  2
AcDbLongTransaction
  3
AutoCAD 2000
 90
        0
280
     0
281
     0
  0
CLASS
  1
LWPOLYLINE
  2
AcDbPolyline
  3
"AutoCAD"
 90
        0
280
     0
281
     1
  0
CLASS
  1
HATCH
  2
AcDbHatch
  3
"ACAD_SEDONA"
 90
        0
280
     0
281
     1
  0
CLASS
  1
XRECORD
  2
AcDbXrecord
  3
"<Built In>"
 90
        0
280
     0
281
     0
  0
CLASS
  1
LONG_TRANSACTION
  2
AcDbLongTransaction
  3
AutoCAD 2000
 90
        0
280
     0
281
     0
  0
CLASS
  1
LWPOLYLINE
  2
AcDbPolyline
  3
"AutoCAD"
 90
        0
280
     0
281
     1
  0
CLASS
  1
HATCH
  2
AcDbHatch
  3
"ACAD_SEDONA"
 90
        0
280
     0
281
     1
  0
CLASS
  1
XRECORD
  2
AcDbXrecord
  3
"<Built In>"
 90
        0
280
     0
281
     0
  0
CLASS
  1
LONG_TRANSACTION
  2
AcDbLongTransaction
  3
AutoCAD 2000
 90
        0
280
     0
281
     0
  0
CLASS
  1
LWPOLYLINE
  2
AcDbPolyline
  3
"AutoCAD"
 90
        0
280
     0
281
     1
  0
CLASS
  1
HATCH
  2
AcDbHatch
  3
"ACAD_SEDONA"
 90
        0
280
     0
281
     1
  0
CLASS
  1
XRECORD
  2
AcDbXrecord
  3
"<Built In>"
 90
        0
280
     0
281
     0
  0
ENDSEC
  0
SECTION
  2
TABLES
  0
TABLE
  2
VPORT
  5
458C7
100
AcDbSymbolTable
 70
     1
  0
VPORT
  5
45D9A
102
{ACAD_XDICTIONARY
360
45D9D
102
}
100
AcDbSymbolTableRecord
100
AcDbViewportTableRecord
  2
*ACTIVE
 70
     0
 10
0.0
 20
0.0
 11
1.0
 21
1.0
 12
2.654684
 22
-1.485106
 13
0.0
 23
0.0
 14
0.25
 24
0.25
 15
0.25
 25
0.25
 16
0.0
 26
0.0
 36
1.0
 17
0.0
 27
0.0
 37
0.0
 40
5.197115
 41
1.855124
 42
50.0
 43
0.0
 44
0.0
 50
0.0
 51
0.0
 71
     0
 72
 20000
 73
     1
 74
     1
 75
     0
 76
     0
 77
     0
 78
     0
  0
ENDTAB
  0
TABLE
  2
LTYPE
  5
458C4
100
AcDbSymbolTable
 70
     1
  0
LTYPE
  5
458D0
100
AcDbSymbolTableRecord
100
AcDbLinetypeTableRecord
  2
BYBLOCK
 70
     0
  3

 72
    65
 73
     0
 40
0.0
  0
LTYPE
  5
458D1
100
AcDbSymbolTableRecord
100
AcDbLinetypeTableRecord
  2
BYLAYER
 70
     0
  3

 72
    65
 73
     0
 40
0.0
  0
LTYPE
  5
458D2
100
AcDbSymbolTableRecord
100
AcDbLinetypeTableRecord
  2
CONTINUOUS
 70
     0
  3
Solid line
 72
    65
 73
     0
 40
0.0
  0
ENDTAB
  0
TABLE
  2
LAYER
  5
458C1
100
AcDbSymbolTable
 70
     7
  0
LAYER
  5
458CD
100
AcDbSymbolTableRecord
100
AcDbLayerTableRecord
  2
0
 70
     0
 62
     7
  6
CONTINUOUS
  0
LAYER
  5
458EA
100
AcDbSymbolTableRecord
100
AcDbLayerTableRecord
  2
DIMS-MTG-HOLES
 70
     0
 62
     1
  6
CONTINUOUS
  0
LAYER
  5
458EB
100
AcDbSymbolTableRecord
100
AcDbLayerTableRecord
  2
ATTRIBUTES
 70
     0
 62
     7
  6
CONTINUOUS
  0
LAYER
  5
4593B
102
{ACAD_XDICTIONARY
360
45DC8
102
}
100
AcDbSymbolTableRecord
100
AcDbLayerTableRecord
  2
AREA1
 70
     0
 62
    -7
  6
CONTINUOUS
  0
LAYER
  5
45940
102
{ACAD_XDICTIONARY
360
45D9B
102
}
100
AcDbSymbolTableRecord
100
AcDbLayerTableRecord
  2
DEFPOINTS
 70
     0
 62
    -7
  6
CONTINUOUS
  0
LAYER
  5
45954
100
AcDbSymbolTableRecord
100
AcDbLayerTableRecord
  2
SCALE
 70
     0
 62
    -7
  6
CONTINUOUS
  0
LAYER
  5
45CEC
100
AcDbSymbolTableRecord
100
AcDbLayerTableRecord
  2
SNAP_POINTS
 70
     0
 62
    -1
  6
CONTINUOUS
  0
ENDTAB
  0
TABLE
  2
STYLE
  5
458C2
100
AcDbSymbolTable
 70
     1
  0
STYLE
  5
458CE
100
AcDbSymbolTableRecord
100
AcDbTextStyleTableRecord
  2
STANDARD
 70
     0
 40
0.0
 41
1.0
 50
0.0
 71
     0
 42
0.12
  3
txt
  4

  0
ENDTAB
  0
TABLE
  2
VIEW
  5
458C5
100
AcDbSymbolTable
 70
     0
  0
ENDTAB
  0
TABLE
  2
UCS
  5
458C6
100
AcDbSymbolTable
 70
     0
  0
ENDTAB
  0
TABLE
  2
APPID
  5
458C8
100
AcDbSymbolTable
 70
     1
  0
APPID
  5
458CF
100
AcDbSymbolTableRecord
100
AcDbRegAppTableRecord
  2
ACAD
 70
     0
  0
ENDTAB
  0
TABLE
  2
DIMSTYLE
  5
458C9
100
AcDbSymbolTable
 70
     2
  0
DIMSTYLE
105
458F1
102
{ACAD_XDICTIONARY
360
45DC2
102
}
100
AcDbSymbolTableRecord
100
AcDbDimStyleTableRecord
  2
ABECAD
 70
     0
  3

  4

  5

  6

  7

 40
1.0
 41
0.18
 42
0.0625
 43
0.375
 44
0.18
 45
0.0
 46
0.0
 47
0.0
 48
0.0
140
0.18
141
0.09
142
0.0
143
25.4
144
1.0
145
0.0
146
1.5
147
0.09
 71
     0
 72
     0
 73
     0
 74
     1
 75
     0
 76
     0
 77
     0
 78
     4
170
     1
171
     1
172
     0
173
     0
174
     0
175
     0
176
     0
177
     0
178
     0
270
     7
271
     6
272
     6
273
     2
274
     1
340
458CE
275
     0
280
     0
281
     0
282
     0
283
     1
284
     4
285
     4
286
     4
287
     3
288
     0
  0
DIMSTYLE
105
458F6
102
{ACAD_XDICTIONARY
360
45DC4
102
}
102
{ACAD_REACTORS
330
45C47
330
45C55
102
}
100
AcDbSymbolTableRecord
100
AcDbDimStyleTableRecord
  2
ABECAD_3D
 70
     0
  3

  4

  5

  6

  7

 40
1.0
 41
0.18
 42
0.0625
 43
0.375
 44
0.18
 45
0.0
 46
0.0
 47
0.0
 48
0.0
140
0.18
141
0.09
142
0.0
143
25.4
144
1.0
145
0.0
146
1.5
147
0.09
 71
     0
 72
     0
 73
     0
 74
     1
 75
     0
 76
     0
 77
     0
 78
     4
170
     1
171
     1
172
     0
173
     0
174
     0
175
     0
176
     0
177
     0
178
     0
270
     7
271
     6
272
     6
273
     2
274
     1
340
458CE
275
     0
280
     0
281
     0
282
     0
283
     1
284
     4
285
     4
286
     4
287
     3
288
     0
  0
ENDTAB
  0
TABLE
  2
BLOCK_RECORD
  5
458C0
100
AcDbSymbolTable
 70
     2
  0
BLOCK_RECORD
  5
458D6
102
{ACAD_XDICTIONARY
360
4592C
102
}
100
AcDbSymbolTableRecord
100
AcDbBlockTableRecord
  2
*MODEL_SPACE
  0
BLOCK_RECORD
  5
458D3
102
{ACAD_XDICTIONARY
360
4592A
102
}
100
AcDbSymbolTableRecord
100
AcDbBlockTableRecord
  2
*PAPER_SPACE
  0
BLOCK_RECORD
  5
45C48
100
AcDbSymbolTableRecord
100
AcDbBlockTableRecord
  2
*D0
  0
BLOCK_RECORD
  5
45C56
100
AcDbSymbolTableRecord
100
AcDbBlockTableRecord
  2
*D1
  0
ENDTAB
  0
ENDSEC
  0
SECTION
  2
BLOCKS
  0
BLOCK
  5
458DF
100
AcDbEntity
  8
0
100
AcDbBlockBegin
  2
*MODEL_SPACE
 70
     0
 10
0.0
 20
0.0
 30
0.0
  3
*MODEL_SPACE
  1

  0
ENDBLK
  5
458E0
100
AcDbEntity
  8
0
100
AcDbBlockEnd
  0
BLOCK
  5
458DD
100
AcDbEntity
 67
     1
  8
0
100
AcDbBlockBegin
  2
*PAPER_SPACE
 70
     0
 10
0.0
 20
0.0
 30
0.0
  3
*PAPER_SPACE
  1

  0
ENDBLK
  5
458DE
100
AcDbEntity
 67
     1
  8
0
100
AcDbBlockEnd
  0
BLOCK
  5
45C53
100
AcDbEntity
  8
0
100
AcDbBlockBegin
  2
*D0
 70
     1
 10
0.0
 20
0.0
 30
0.0
  3
*D0
  1

  0
LINE
  5
45D90
100
AcDbEntity
  8
AREA1
 62
     0
100
AcDbLine
 10
4.613021
 20
0.174951
 30
0.0
 11
5.548013
 21
0.174951
 31
0.0
1001
ACAD
1000
RTLwPs
1070
   158
  0
LINE
  5
45D91
100
AcDbEntity
  8
AREA1
 62
     0
100
AcDbLine
 10
2.5485
 20
-3.138
 30
0.0
 11
5.548013
 21
-3.138
 31
0.0
1001
ACAD
1000
RTLwPs
1070
   158
  0
LINE
  5
45D92
100
AcDbEntity
  8
AREA1
 62
     0
100
AcDbLine
 10
5.368013
 20
-0.005049
 30
0.0
 11
5.368013
 21
-0.431525
 31
0.0
1001
ACAD
1000
RTLwPs
1070
   158
  0
LINE
  5
45D93
100
AcDbEntity
  8
AREA1
 62
     0
100
AcDbLine
 10
5.368013
 20
-2.958
 30
0.0
 11
5.368013
 21
-2.531525
 31
0.0
1001
ACAD
1000
RTLwPs
1070
   158
  0
SOLID
  5
45D94
100
AcDbEntity
  8
AREA1
 62
     0
100
AcDbTrace
 10
5.338013
 20
-0.005049
 30
0.0
 11
5.398013
 21
-0.005049
 31
0.0
 12
5.368013
 22
0.174951
 32
0.0
 13
5.368013
 23
0.174951
 33
0.0
  0
SOLID
  5
45D95
100
AcDbEntity
  8
AREA1
 62
     0
100
AcDbTrace
 10
5.338013
 20
-2.958
 30
0.0
 11
5.398013
 21
-2.958
 31
0.0
 12
5.368013
 22
-3.138
 32
0.0
 13
5.368013
 23
-3.138
 33
0.0
  0
MTEXT
  5
45D96
100
AcDbEntity
  8
AREA1
 62
     0
100
AcDbMText
 10
5.368013
 20
-1.481525
 30
0.0
 40
0.18
 41
0.0
 71
     5
 72
     1
  1
\A1;3 5/16 [84.1]
 11
0.0
 21
1.0
 31
0.0
1001
ACAD
1000
MTEXTBEGIN
1070
    73
1070
     1
1070
    44
1040
1.0
1070
    74
1070
     0
1000
MTEXTEND
  0
POINT
  5
45D97
100
AcDbEntity
  8
DEFPOINTS
 62
     0
100
AcDbPoint
 10
4.550521
 20
0.174951
 30
2.397373
  0
POINT
  5
45D98
100
AcDbEntity
  8
DEFPOINTS
 62
     0
100
AcDbPoint
 10
2.486
 20
-3.138
 30
-0.07
  0
POINT
  5
45D99
100
AcDbEntity
  8
DEFPOINTS
 62
     0
100
AcDbPoint
 10
5.368013
 20
-3.138
 30
0.0
  0
ENDBLK
  5
45C54
100
AcDbEntity
  8
0
100
AcDbBlockEnd
  0
BLOCK
  5
45C61
100
AcDbEntity
  8
0
100
AcDbBlockBegin
  2
*D1
 70
     1
 10
0.0
 20
0.0
 30
0.0
  3
*D1
  1

  0
LINE
  5
45D86
100
AcDbEntity
  8
AREA1
 62
     0
100
AcDbLine
 10
-0.175
 20
0.2375
 30
0.0
 11
-0.175
 21
1.086241
 31
0.0
1001
ACAD
1000
RTLwPs
1070
   158
  0
LINE
  5
45D87
100
AcDbEntity
  8
AREA1
 62
     0
100
AcDbLine
 10
4.571482
 20
0.237451
 30
0.0
 11
4.571482
 21
1.086241
 31
0.0
1001
ACAD
1000
RTLwPs
1070
   158
  0
LINE
  5
45D88
100
AcDbEntity
  8
AREA1
 62
     0
100
AcDbLine
 10
0.005
 20
0.906241
 30
0.0
 11
1.133241
 21
0.906241
 31
0.0
1001
ACAD
1000
RTLwPs
1070
   158
  0
LINE
  5
45D89
100
AcDbEntity
  8
AREA1
 62
     0
100
AcDbLine
 10
4.391482
 20
0.906241
 30
0.0
 11
3.263241
 21
0.906241
 31
0.0
1001
ACAD
1000
RTLwPs
1070
   158
  0
SOLID
  5
45D8A
100
AcDbEntity
  8
AREA1
 62
     0
100
AcDbTrace
 10
0.005
 20
0.936241
 30
0.0
 11
0.005
 21
0.876241
 31
0.0
 12
-0.175
 22
0.906241
 32
0.0
 13
-0.175
 23
0.906241
 33
0.0
  0
SOLID
  5
45D8B
100
AcDbEntity
  8
AREA1
 62
     0
100
AcDbTrace
 10
4.391482
 20
0.936241
 30
0.0
 11
4.391482
 21
0.876241
 31
0.0
 12
4.571482
 22
0.906241
 32
0.0
 13
4.571482
 23
0.906241
 33
0.0
  0
MTEXT
  5
45D8C
100
AcDbEntity
  8
AREA1
 62
     0
100
AcDbMText
 10
2.198241
 20
0.906241
 30
0.0
 40
0.18
 41
0.0
 71
     5
 72
     1
  1
\A1;4 3/4 [120.6]
1001
ACAD
1000
MTEXTBEGIN
1070
    73
1070
     1
1070
    44
1040
1.0
1070
    74
1070
     0
1000
MTEXTEND
  0
POINT
  5
45D8D
100
AcDbEntity
  8
DEFPOINTS
 62
     0
100
AcDbPoint
 10
-0.175
 20
0.175
 30
0.0
  0
POINT
  5
45D8E
100
AcDbEntity
  8
DEFPOINTS
 62
     0
100
AcDbPoint
 10
4.571482
 20
0.174951
 30
2.397373
  0
POINT
  5
45D8F
100
AcDbEntity
  8
DEFPOINTS
 62
     0
100
AcDbPoint
 10
4.571482
 20
0.906241
 30
0.0
  0
ENDBLK
  5
45C62
100
AcDbEntity
  8
0
100
AcDbBlockEnd
  0
ENDSEC
  0
SECTION
  2
ENTITIES
  0
ATTDEF
  5
1
100
AcDbEntity
  8
ATTRIBUTES
100
AcDbText
 10
-0.099109
 20
-0.398307
 30
0.0
 40
0.15
  1
ALLEN-BRADLEY
100
AcDbAttributeDefinition
  3
MANUFACTURER NAME?
  2
AC_VND_LABEL
 70
     1
  0
ATTDEF
  5
2
100
AcDbEntity
  8
ATTRIBUTES
100
AcDbText
 10
-0.099109
 20
-0.710807
 30
0.0
 40
0.15
  1
1761-L16 BWA
100
AcDbAttributeDefinition
  3
CATALOG NUMBER?
  2
AC_PART_NO
 70
     1
  0
ATTDEF
  5
3
100
AcDbEntity
  8
ATTRIBUTES
100
AcDbText
 10
-0.099109
 20
-1.023307
 30
0.0
 40
0.15
  1
1761-L16 BWA: DC RELAY
100
AcDbAttributeDefinition
  3
PART DESCRIPTION?
  2
AC_DESCRIPTION
 70
     1
  0
ATTDEF
  5
4
100
AcDbEntity
  8
ATTRIBUTES
100
AcDbText
 10
-0.099109
 20
-1.335807
 30
0.0
 40
0.15
  1

100
AcDbAttributeDefinition
  3
DEVICE ID?
  2
DEVICE_ID
 70
     1
  0
ATTDEF
  5
5
100
AcDbEntity
  8
ATTRIBUTES
100
AcDbText
 10
-0.099109
 20
-1.648307
 30
0.0
 40
0.15
  1

100
AcDbAttributeDefinition
  3
CUSTOMER PART NUMBER?
  2
AC_CPART_NO
 70
     1
  0
ATTDEF
  5
6
100
AcDbEntity
  8
ATTRIBUTES
100
AcDbText
 10
-0.099109
 20
-1.960807
 30
0.0
 40
0.15
  1

100
AcDbAttributeDefinition
  3
CUSTOMER NOTE?
  2
AC_NOTE
 70
     1
  0
ATTDEF
  5
7
100
AcDbEntity
  8
ATTRIBUTES
100
AcDbText
 10
-0.099109
 20
-2.273307
 30
0.0
 40
0.15
  1

100
AcDbAttributeDefinition
  3
FASTENER DATA?
  2
FASTENER
 70
     1
  0
ATTDEF
  5
8
100
AcDbEntity
  8
ATTRIBUTES
100
AcDbText
 10
-0.099109
 20
-2.585807
 30
0.0
 40
0.15
  1
INCH
100
AcDbAttributeDefinition
  3
UNIT OF SCALE?
  2
AC_SCALE_UNIT
 70
     1
  0
ATTDEF
  5
9
100
AcDbEntity
  8
ATTRIBUTES
100
AcDbText
 10
-0.099109
 20
-2.898307
 30
0.0
 40
0.15
  1
0
100
AcDbAttributeDefinition
  3
VIEW CODE?
  2
AC_VIEW_CODE
 70
     1
  0
POLYLINE
  5
45AD3
100
AcDbEntity
  8
0
100
AcDbPolygonMesh
 66
     1
 10
0.0
 20
0.0
 30
0.0
 70
    16
 71
     6
 72
     3
  0
VERTEX
  5
45AD4
100
AcDbEntity
  8
0
100
AcDbVertex
100
AcDbPolygonMeshVertex
 10
4.547
 20
-0.175
 30
2.595
 70
    64
  0
VERTEX
  5
45AD5
100
AcDbEntity
  8
0
100
AcDbVertex
100
AcDbPolygonMeshVertex
 10
4.547
 20
-0.175
 30
0.317
 70
    64
  0
VERTEX
  5
45AD6
100
AcDbEntity
  8
0
100
AcDbVertex
100
AcDbPolygonMeshVertex
 10
4.547
 20
-0.175
 30
0.317
 70
    64
  0
VERTEX
  5
45AD7
100
AcDbEntity
  8
0
100
AcDbVertex
100
AcDbPolygonMeshVertex
 10
4.547
 20
-2.638
 30
2.595
 70
    64
  0
VERTEX
  5
45AD8
100
AcDbEntity
  8
0
100
AcDbVertex
100
AcDbPolygonMeshVertex
 10
4.547
 20
-2.638
 30
0.317
 70
    64
  0
VERTEX
  5
45AD9
100
AcDbEntity
  8
0
100
AcDbVertex
100
AcDbPolygonMeshVertex
 10
4.547
 20
-2.638
 30
0.317
 70
    64
  0
VERTEX
  5
45ADA
100
AcDbEntity
  8
0
100
AcDbVertex
100
AcDbPolygonMeshVertex
 10
-0.175
 20
-2.638
 30
2.595
 70
    64
  0
VERTEX
  5
45ADB
100
AcDbEntity
  8
0
100
AcDbVertex
100
AcDbPolygonMeshVertex
 10
-0.175
 20
-2.638
 30
0.317
 70
    64
  0
VERTEX
  5
45ADC
100
AcDbEntity
  8
0
100
AcDbVertex
100
AcDbPolygonMeshVertex
 10
4.547
 20
-2.638
 30
0.317
 70
    64
  0
VERTEX
  5
45ADD
100
AcDbEntity
  8
0
100
AcDbVertex
100
AcDbPolygonMeshVertex
 10
-0.175
 20
-0.175
 30
2.595
 70
    64
  0
VERTEX
  5
45ADE
100
AcDbEntity
  8
0
100
AcDbVertex
100
AcDbPolygonMeshVertex
 10
-0.175
 20
-0.175
 30
0.317
 70
    64
  0
VERTEX
  5
45ADF
100
AcDbEntity
  8
0
100
AcDbVertex
100
AcDbPolygonMeshVertex
 10
4.547
 20
-0.175
 30
0.317
 70
    64
  0
VERTEX
  5
45AE0
100
AcDbEntity
  8
0
100
AcDbVertex
100
AcDbPolygonMeshVertex
 10
-0.175
 20
-0.175
 30
2.595
 70
    64
  0
VERTEX
  5
45AE1
100
AcDbEntity
  8
0
100
AcDbVertex
100
AcDbPolygonMeshVertex
 10
-0.175
 20
-0.175
 30
2.595
 70
    64
  0
VERTEX
  5
45AE2
100
AcDbEntity
  8
0
100
AcDbVertex
100
AcDbPolygonMeshVertex
 10
4.547
 20
-0.175
 30
2.595
 70
    64
  0
VERTEX
  5
45AE3
100
AcDbEntity
  8
0
100
AcDbVertex
100
AcDbPolygonMeshVertex
 10
-0.175
 20
-2.638
 30
2.595
 70
    64
  0
VERTEX
  5
45AE4
100
AcDbEntity
  8
0
100
AcDbVertex
100
AcDbPolygonMeshVertex
 10
-0.175
 20
-2.638
 30
2.595
 70
    64
  0
VERTEX
  5
45AE5
100
AcDbEntity
  8
0
100
AcDbVertex
100
AcDbPolygonMeshVertex
 10
4.547
 20
-2.638
 30
2.595
 70
    64
  0
SEQEND
  5
45AE6
100
AcDbEntity
  8
0
  0
POLYLINE
  5
45AE7
100
AcDbEntity
  8
0
100
AcDbPolygonMesh
 66
     1
 10
0.0
 20
0.0
 30
0.0
 70
    16
 71
     6
 72
     3
  0
VERTEX
  5
45AE8
100
AcDbEntity
  8
0
100
AcDbVertex
100
AcDbPolygonMeshVertex
 10
4.547
 20
0.175
 30
2.595
 70
    64
  0
VERTEX
  5
45AE9
100
AcDbEntity
  8
0
100
AcDbVertex
100
AcDbPolygonMeshVertex
 10
4.547
 20
0.175
 30
0.317
 70
    64
  0
VERTEX
  5
45AEA
100
AcDbEntity
  8
0
100
AcDbVertex
100
AcDbPolygonMeshVertex
 10
4.547
 20
0.175
 30
0.317
 70
    64
  0
VERTEX
  5
45AEB
100
AcDbEntity
  8
0
100
AcDbVertex
100
AcDbPolygonMeshVertex
 10
4.547
 20
-0.175
 30
2.595
 70
    64
  0
VERTEX
  5
45AEC
100
AcDbEntity
  8
0
100
AcDbVertex
100
AcDbPolygonMeshVertex
 10
4.547
 20
-0.175
 30
0.317
 70
    64
  0
VERTEX
  5
45AED
100
AcDbEntity
  8
0
100
AcDbVertex
100
AcDbPolygonMeshVertex
 10
4.547
 20
-0.175
 30
0.317
 70
    64
  0
VERTEX
  5
45AEE
100
AcDbEntity
  8
0
100
AcDbVertex
100
AcDbPolygonMeshVertex
 10
0.175
 20
-0.175
 30
2.595
 70
    64
  0
VERTEX
  5
45AEF
100
AcDbEntity
  8
0
100
AcDbVertex
100
AcDbPolygonMeshVertex
 10
0.175
 20
-0.175
 30
0.317
 70
    64
  0
VERTEX
  5
45AF0
100
AcDbEntity
  8
0
100
AcDbVertex
100
AcDbPolygonMeshVertex
 10
4.547
 20
-0.175
 30
0.317
 70
    64
  0
VERTEX
  5
45AF1
100
AcDbEntity
  8
0
100
AcDbVertex
100
AcDbPolygonMeshVertex
 10
0.175
 20
0.175
 30
2.595
 70
    64
  0
VERTEX
  5
45AF2
100
AcDbEntity
  8
0
100
AcDbVertex
100
AcDbPolygonMeshVertex
 10
0.175
 20
0.175
 30
0.317
 70
    64
  0
VERTEX
  5
45AF3
100
AcDbEntity
  8
0
100
AcDbVertex
100
AcDbPolygonMeshVertex
 10
4.547
 20
0.175
 30
0.317
 70
    64
  0
VERTEX
  5
45AF4
100
AcDbEntity
  8
0
100
AcDbVertex
100
AcDbPolygonMeshVertex
 10
0.175
 20
0.175
 30
2.595
 70
    64
  0
VERTEX
  5
45AF5
100
AcDbEntity
  8
0
100
AcDbVertex
100
AcDbPolygonMeshVertex
 10
0.175
 20
0.175
 30
2.595
 70
    64
  0
VERTEX
  5
45AF6
100
AcDbEntity
  8
0
100
AcDbVertex
100
AcDbPolygonMeshVertex
 10
4.547
 20
0.175
 30
2.595
 70
    64
  0
VERTEX
  5
45AF7
100
AcDbEntity
  8
0
100
AcDbVertex
100
AcDbPolygonMeshVertex
 10
0.175
 20
-0.175
 30
2.595
 70
    64
  0
VERTEX
  5
45AF8
100
AcDbEntity
  8
0
100
AcDbVertex
100
AcDbPolygonMeshVertex
 10
0.175
 20
-0.175
 30
2.595
 70
    64
  0
VERTEX
  5
45AF9
100
AcDbEntity
  8
0
100
AcDbVertex
100
AcDbPolygonMeshVertex
 10
4.547
 20
-0.175
 30
2.595
 70
    64
  0
SEQEND
  5
45AFA
100
AcDbEntity
  8
0
  0
POLYLINE
  5
45AFB
100
AcDbEntity
  8
0
100
AcDbPolygonMesh
 66
     1
 10
0.0
 20
0.0
 30
0.0
 70
    16
 71
     6
 72
     3
  0
VERTEX
  5
45AFC
100
AcDbEntity
  8
0
100
AcDbVertex
100
AcDbPolygonMeshVertex
 10
4.197
 20
-2.638
 30
2.595
 70
    64
  0
VERTEX
  5
45AFD
100
AcDbEntity
  8
0
100
AcDbVertex
100
AcDbPolygonMeshVertex
 10
4.197
 20
-2.638
 30
0.317
 70
    64
  0
VERTEX
  5
45AFE
100
AcDbEntity
  8
0
100
AcDbVertex
100
AcDbPolygonMeshVertex
 10
4.197
 20
-2.638
 30
0.317
 70
    64
  0
VERTEX
  5
45AFF
100
AcDbEntity
  8
0
100
AcDbVertex
100
AcDbPolygonMeshVertex
 10
4.197
 20
-2.988
 30
2.595
 70
    64
  0
VERTEX
  5
45B00
100
AcDbEntity
  8
0
100
AcDbVertex
100
AcDbPolygonMeshVertex
 10
4.197
 20
-2.988
 30
0.317
 70
    64
  0
VERTEX
  5
45B01
100
AcDbEntity
  8
0
100
AcDbVertex
100
AcDbPolygonMeshVertex
 10
4.197
 20
-2.988
 30
0.317
 70
    64
  0
VERTEX
  5
45B02
100
AcDbEntity
  8
0
100
AcDbVertex
100
AcDbPolygonMeshVertex
 10
-0.175
 20
-2.988
 30
2.595
 70
    64
  0
VERTEX
  5
45B03
100
AcDbEntity
  8
0
100
AcDbVertex
100
AcDbPolygonMeshVertex
 10
-0.175
 20
-2.988
 30
0.317
 70
    64
  0
VERTEX
  5
45B04
100
AcDbEntity
  8
0
100
AcDbVertex
100
AcDbPolygonMeshVertex
 10
4.197
 20
-2.988
 30
0.317
 70
    64
  0
VERTEX
  5
45B05
100
AcDbEntity
  8
0
100
AcDbVertex
100
AcDbPolygonMeshVertex
 10
-0.175
 20
-2.638
 30
2.595
 70
    64
  0
VERTEX
  5
45B06
100
AcDbEntity
  8
0
100
AcDbVertex
100
AcDbPolygonMeshVertex
 10
-0.175
 20
-2.638
 30
0.317
 70
    64
  0
VERTEX
  5
45B07
100
AcDbEntity
  8
0
100
AcDbVertex
100
AcDbPolygonMeshVertex
 10
4.197
 20
-2.638
 30
0.317
 70
    64
  0
VERTEX
  5
45B08
100
AcDbEntity
  8
0
100
AcDbVertex
100
AcDbPolygonMeshVertex
 10
-0.175
 20
-2.638
 30
2.595
 70
    64
  0
VERTEX
  5
45B09
100
AcDbEntity
  8
0
100
AcDbVertex
100
AcDbPolygonMeshVertex
 10
-0.175
 20
-2.638
 30
2.595
 70
    64
  0
VERTEX
  5
45B0A
100
AcDbEntity
  8
0
100
AcDbVertex
100
AcDbPolygonMeshVertex
 10
4.197
 20
-2.638
 30
2.595
 70
    64
  0
VERTEX
  5
45B0B
100
AcDbEntity
  8
0
100
AcDbVertex
100
AcDbPolygonMeshVertex
 10
-0.175
 20
-2.988
 30
2.595
 70
    64
  0
VERTEX
  5
45B0C
100
AcDbEntity
  8
0
100
AcDbVertex
100
AcDbPolygonMeshVertex
 10
-0.175
 20
-2.988
 30
2.595
 70
    64
  0
VERTEX
  5
45B0D
100
AcDbEntity
  8
0
100
AcDbVertex
100
AcDbPolygonMeshVertex
 10
4.197
 20
-2.988
 30
2.595
 70
    64
  0
SEQEND
  5
45B0E
100
AcDbEntity
  8
0
  0
LINE
  5
45B0F
100
AcDbEntity
  8
0
100
AcDbLine
 10
2.4144
 20
-3.066396
 30
0.1
 11
1.9576
 21
-3.066396
 31
0.1
  0
POLYLINE
  5
45B10
100
AcDbEntity
  8
0
100
AcDbPolygonMesh
 66
     1
 10
0.0
 20
0.0
 30
0.0
 70
    16
 71
     6
 72
     3
  0
VERTEX
  5
45B11
100
AcDbEntity
  8
0
100
AcDbVertex
100
AcDbPolygonMeshVertex
 10
2.486
 20
-3.138
 30
0.1
 70
    64
  0
VERTEX
  5
45B12
100
AcDbEntity
  8
0
100
AcDbVertex
100
AcDbPolygonMeshVertex
 10
2.486
 20
-3.138
 30
0.0
 70
    64
  0
VERTEX
  5
45B13
100
AcDbEntity
  8
0
100
AcDbVertex
100
AcDbPolygonMeshVertex
 10
2.486
 20
-3.138
 30
0.0
 70
    64
  0
VERTEX
  5
45B14
100
AcDbEntity
  8
0
100
AcDbVertex
100
AcDbPolygonMeshVertex
 10
1.886
 20
-3.138
 30
0.1
 70
    64
  0
VERTEX
  5
45B15
100
AcDbEntity
  8
0
100
AcDbVertex
100
AcDbPolygonMeshVertex
 10
1.886
 20
-3.138
 30
0.0
 70
    64
  0
VERTEX
  5
45B16
100
AcDbEntity
  8
0
100
AcDbVertex
100
AcDbPolygonMeshVertex
 10
1.886
 20
-3.138
 30
0.0
 70
    64
  0
VERTEX
  5
45B17
100
AcDbEntity
  8
0
100
AcDbVertex
100
AcDbPolygonMeshVertex
 10
1.886
 20
-2.988
 30
0.1
 70
    64
  0
VERTEX
  5
45B18
100
AcDbEntity
  8
0
100
AcDbVertex
100
AcDbPolygonMeshVertex
 10
1.886
 20
-2.988
 30
0.0
 70
    64
  0
VERTEX
  5
45B19
100
AcDbEntity
  8
0
100
AcDbVertex
100
AcDbPolygonMeshVertex
 10
1.886
 20
-3.138
 30
0.0
 70
    64
  0
VERTEX
  5
45B1A
100
AcDbEntity
  8
0
100
AcDbVertex
100
AcDbPolygonMeshVertex
 10
2.486
 20
-2.988
 30
0.1
 70
    64
  0
VERTEX
  5
45B1B
100
AcDbEntity
  8
0
100
AcDbVertex
100
AcDbPolygonMeshVertex
 10
2.486
 20
-2.988
 30
0.0
 70
    64
  0
VERTEX
  5
45B1C
100
AcDbEntity
  8
0
100
AcDbVertex
100
AcDbPolygonMeshVertex
 10
2.486
 20
-3.138
 30
0.0
 70
    64
  0
VERTEX
  5
45B1D
100
AcDbEntity
  8
0
100
AcDbVertex
100
AcDbPolygonMeshVertex
 10
2.486
 20
-2.988
 30
0.1
 70
    64
  0
VERTEX
  5
45B1E
100
AcDbEntity
  8
0
100
AcDbVertex
100
AcDbPolygonMeshVertex
 10
2.486
 20
-2.988
 30
0.1
 70
    64
  0
VERTEX
  5
45B1F
100
AcDbEntity
  8
0
100
AcDbVertex
100
AcDbPolygonMeshVertex
 10
2.486
 20
-3.138
 30
0.1
 70
    64
  0
VERTEX
  5
45B20
100
AcDbEntity
  8
0
100
AcDbVertex
100
AcDbPolygonMeshVertex
 10
1.886
 20
-2.988
 30
0.1
 70
    64
  0
VERTEX
  5
45B21
100
AcDbEntity
  8
0
100
AcDbVertex
100
AcDbPolygonMeshVertex
 10
1.886
 20
-2.988
 30
0.1
 70
    64
  0
VERTEX
  5
45B22
100
AcDbEntity
  8
0
100
AcDbVertex
100
AcDbPolygonMeshVertex
 10
1.886
 20
-3.138
 30
0.1
 70
    64
  0
SEQEND
  5
45B23
100
AcDbEntity
  8
0
  0
POLYLINE
  5
45B24
100
AcDbEntity
  8
0
100
AcDbPolygonMesh
 66
     1
 10
0.0
 20
0.0
 30
0.0
 70
    16
 71
     6
 72
     3
  0
VERTEX
  5
45B25
100
AcDbEntity
  8
0
100
AcDbVertex
100
AcDbPolygonMeshVertex
 10
4.547
 20
0.175
 30
0.317
 70
    64
  0
VERTEX
  5
45B26
100
AcDbEntity
  8
0
100
AcDbVertex
100
AcDbPolygonMeshVertex
 10
4.547
 20
0.175
 30
0.17
 70
    64
  0
VERTEX
  5
45B27
100
AcDbEntity
  8
0
100
AcDbVertex
100
AcDbPolygonMeshVertex
 10
4.547
 20
0.175
 30
0.17
 70
    64
  0
VERTEX
  5
45B28
100
AcDbEntity
  8
0
100
AcDbVertex
100
AcDbPolygonMeshVertex
 10
4.547
 20
-2.988
 30
0.317
 70
    64
  0
VERTEX
  5
45B29
100
AcDbEntity
  8
0
100
AcDbVertex
100
AcDbPolygonMeshVertex
 10
4.547
 20
-2.988
 30
0.17
 70
    64
  0
VERTEX
  5
45B2A
100
AcDbEntity
  8
0
100
AcDbVertex
100
AcDbPolygonMeshVertex
 10
4.547
 20
-2.988
 30
0.17
 70
    64
  0
VERTEX
  5
45B2B
100
AcDbEntity
  8
0
100
AcDbVertex
100
AcDbPolygonMeshVertex
 10
-0.175
 20
-2.988
 30
0.317
 70
    64
  0
VERTEX
  5
45B2C
100
AcDbEntity
  8
0
100
AcDbVertex
100
AcDbPolygonMeshVertex
 10
-0.175
 20
-2.988
 30
0.17
 70
    64
  0
VERTEX
  5
45B2D
100
AcDbEntity
  8
0
100
AcDbVertex
100
AcDbPolygonMeshVertex
 10
4.547
 20
-2.988
 30
0.17
 70
    64
  0
VERTEX
  5
45B2E
100
AcDbEntity
  8
0
100
AcDbVertex
100
AcDbPolygonMeshVertex
 10
-0.175
 20
0.175
 30
0.317
 70
    64
  0
VERTEX
  5
45B2F
100
AcDbEntity
  8
0
100
AcDbVertex
100
AcDbPolygonMeshVertex
 10
-0.175
 20
0.175
 30
0.17
 70
    64
  0
VERTEX
  5
45B30
100
AcDbEntity
  8
0
100
AcDbVertex
100
AcDbPolygonMeshVertex
 10
4.547
 20
0.175
 30
0.17
 70
    64
  0
VERTEX
  5
45B31
100
AcDbEntity
  8
0
100
AcDbVertex
100
AcDbPolygonMeshVertex
 10
-0.175
 20
0.175
 30
0.317
 70
    64
  0
VERTEX
  5
45B32
100
AcDbEntity
  8
0
100
AcDbVertex
100
AcDbPolygonMeshVertex
 10
-0.175
 20
0.175
 30
0.317
 70
    64
  0
VERTEX
  5
45B33
100
AcDbEntity
  8
0
100
AcDbVertex
100
AcDbPolygonMeshVertex
 10
4.547
 20
0.175
 30
0.317
 70
    64
  0
VERTEX
  5
45B34
100
AcDbEntity
  8
0
100
AcDbVertex
100
AcDbPolygonMeshVertex
 10
-0.175
 20
-2.988
 30
0.317
 70
    64
  0
VERTEX
  5
45B35
100
AcDbEntity
  8
0
100
AcDbVertex
100
AcDbPolygonMeshVertex
 10
-0.175
 20
-2.988
 30
0.317
 70
    64
  0
VERTEX
  5
45B36
100
AcDbEntity
  8
0
100
AcDbVertex
100
AcDbPolygonMeshVertex
 10
4.547
 20
-2.988
 30
0.317
 70
    64
  0
SEQEND
  5
45B37
100
AcDbEntity
  8
0
  0
POLYLINE
  5
45B38
100
AcDbEntity
  8
0
100
AcDbPolygonMesh
 66
     1
 10
0.0
 20
0.0
 30
0.0
 70
    16
 71
     6
 72
     3
  0
VERTEX
  5
45B39
100
AcDbEntity
  8
0
100
AcDbVertex
100
AcDbPolygonMeshVertex
 10
4.547
 20
-2.514
 30
0.17
 70
    64
  0
VERTEX
  5
45B3A
100
AcDbEntity
  8
0
100
AcDbVertex
100
AcDbPolygonMeshVertex
 10
4.547
 20
-2.514
 30
0.0
 70
    64
  0
VERTEX
  5
45B3B
100
AcDbEntity
  8
0
100
AcDbVertex
100
AcDbPolygonMeshVertex
 10
4.547
 20
-2.514
 30
0.0
 70
    64
  0
VERTEX
  5
45B3C
100
AcDbEntity
  8
0
100
AcDbVertex
100
AcDbPolygonMeshVertex
 10
4.547
 20
-2.988
 30
0.17
 70
    64
  0
VERTEX
  5
45B3D
100
AcDbEntity
  8
0
100
AcDbVertex
100
AcDbPolygonMeshVertex
 10
4.547
 20
-2.988
 30
0.0
 70
    64
  0
VERTEX
  5
45B3E
100
AcDbEntity
  8
0
100
AcDbVertex
100
AcDbPolygonMeshVertex
 10
4.547
 20
-2.988
 30
0.0
 70
    64
  0
VERTEX
  5
45B3F
100
AcDbEntity
  8
0
100
AcDbVertex
100
AcDbPolygonMeshVertex
 10
-0.175
 20
-2.988
 30
0.17
 70
    64
  0
VERTEX
  5
45B40
100
AcDbEntity
  8
0
100
AcDbVertex
100
AcDbPolygonMeshVertex
 10
-0.175
 20
-2.988
 30
0.0
 70
    64
  0
VERTEX
  5
45B41
100
AcDbEntity
  8
0
100
AcDbVertex
100
AcDbPolygonMeshVertex
 10
4.547
 20
-2.988
 30
0.0
 70
    64
  0
VERTEX
  5
45B42
100
AcDbEntity
  8
0
100
AcDbVertex
100
AcDbPolygonMeshVertex
 10
-0.175
 20
-2.514
 30
0.17
 70
    64
  0
VERTEX
  5
45B43
100
AcDbEntity
  8
0
100
AcDbVertex
100
AcDbPolygonMeshVertex
 10
-0.175
 20
-2.514
 30
0.0
 70
    64
  0
VERTEX
  5
45B44
100
AcDbEntity
  8
0
100
AcDbVertex
100
AcDbPolygonMeshVertex
 10
4.547
 20
-2.514
 30
0.0
 70
    64
  0
VERTEX
  5
45B45
100
AcDbEntity
  8
0
100
AcDbVertex
100
AcDbPolygonMeshVertex
 10
-0.175
 20
-2.514
 30
0.17
 70
    64
  0
VERTEX
  5
45B46
100
AcDbEntity
  8
0
100
AcDbVertex
100
AcDbPolygonMeshVertex
 10
-0.175
 20
-2.514
 30
0.17
 70
    64
  0
VERTEX
  5
45B47
100
AcDbEntity
  8
0
100
AcDbVertex
100
AcDbPolygonMeshVertex
 10
4.547
 20
-2.514
 30
0.17
 70
    64
  0
VERTEX
  5
45B48
100
AcDbEntity
  8
0
100
AcDbVertex
100
AcDbPolygonMeshVertex
 10
-0.175
 20
-2.988
 30
0.17
 70
    64
  0
VERTEX
  5
45B49
100
AcDbEntity
  8
0
100
AcDbVertex
100
AcDbPolygonMeshVertex
 10
-0.175
 20
-2.988
 30
0.17
 70
    64
  0
VERTEX
  5
45B4A
100
AcDbEntity
  8
0
100
AcDbVertex
100
AcDbPolygonMeshVertex
 10
4.547
 20
-2.988
 30
0.17
 70
    64
  0
SEQEND
  5
45B4B
100
AcDbEntity
  8
0
  0
POLYLINE
  5
45B4C
100
AcDbEntity
  8
0
100
AcDbPolygonMesh
 66
     1
 10
0.0
 20
0.0
 30
0.0
 70
    16
 71
     6
 72
     3
  0
VERTEX
  5
45B4D
100
AcDbEntity
  8
0
100
AcDbVertex
100
AcDbPolygonMeshVertex
 10
4.547
 20
0.175
 30
0.17
 70
    64
  0
VERTEX
  5
45B4E
100
AcDbEntity
  8
0
100
AcDbVertex
100
AcDbPolygonMeshVertex
 10
4.547
 20
0.175
 30
0.0
 70
    64
  0
VERTEX
  5
45B4F
100
AcDbEntity
  8
0
100
AcDbVertex
100
AcDbPolygonMeshVertex
 10
4.547
 20
0.175
 30
0.0
 70
    64
  0
VERTEX
  5
45B50
100
AcDbEntity
  8
0
100
AcDbVertex
100
AcDbPolygonMeshVertex
 10
4.547
 20
-1.106
 30
0.17
 70
    64
  0
VERTEX
  5
45B51
100
AcDbEntity
  8
0
100
AcDbVertex
100
AcDbPolygonMeshVertex
 10
4.547
 20
-1.106
 30
0.0
 70
    64
  0
VERTEX
  5
45B52
100
AcDbEntity
  8
0
100
AcDbVertex
100
AcDbPolygonMeshVertex
 10
4.547
 20
-1.106
 30
0.0
 70
    64
  0
VERTEX
  5
45B53
100
AcDbEntity
  8
0
100
AcDbVertex
100
AcDbPolygonMeshVertex
 10
-0.175
 20
-1.106
 30
0.17
 70
    64
  0
VERTEX
  5
45B54
100
AcDbEntity
  8
0
100
AcDbVertex
100
AcDbPolygonMeshVertex
 10
-0.175
 20
-1.106
 30
0.0
 70
    64
  0
VERTEX
  5
45B55
100
AcDbEntity
  8
0
100
AcDbVertex
100
AcDbPolygonMeshVertex
 10
4.547
 20
-1.106
 30
0.0
 70
    64
  0
VERTEX
  5
45B56
100
AcDbEntity
  8
0
100
AcDbVertex
100
AcDbPolygonMeshVertex
 10
-0.175
 20
0.175
 30
0.17
 70
    64
  0
VERTEX
  5
45B57
100
AcDbEntity
  8
0
100
AcDbVertex
100
AcDbPolygonMeshVertex
 10
-0.175
 20
0.175
 30
0.0
 70
    64
  0
VERTEX
  5
45B58
100
AcDbEntity
  8
0
100
AcDbVertex
100
AcDbPolygonMeshVertex
 10
4.547
 20
0.175
 30
0.0
 70
    64
  0
VERTEX
  5
45B59
100
AcDbEntity
  8
0
100
AcDbVertex
100
AcDbPolygonMeshVertex
 10
-0.175
 20
0.175
 30
0.17
 70
    64
  0
VERTEX
  5
45B5A
100
AcDbEntity
  8
0
100
AcDbVertex
100
AcDbPolygonMeshVertex
 10
-0.175
 20
0.175
 30
0.17
 70
    64
  0
VERTEX
  5
45B5B
100
AcDbEntity
  8
0
100
AcDbVertex
100
AcDbPolygonMeshVertex
 10
4.547
 20
0.175
 30
0.17
 70
    64
  0
VERTEX
  5
45B5C
100
AcDbEntity
  8
0
100
AcDbVertex
100
AcDbPolygonMeshVertex
 10
-0.175
 20
-1.106
 30
0.17
 70
    64
  0
VERTEX
  5
45B5D
100
AcDbEntity
  8
0
100
AcDbVertex
100
AcDbPolygonMeshVertex
 10
-0.175
 20
-1.106
 30
0.17
 70
    64
  0
VERTEX
  5
45B5E
100
AcDbEntity
  8
0
100
AcDbVertex
100
AcDbPolygonMeshVertex
 10
4.547
 20
-1.106
 30
0.17
 70
    64
  0
SEQEND
  5
45B5F
100
AcDbEntity
  8
0
  0
POINT
  5
45B60
100
AcDbEntity
  8
SNAP_POINTS
100
AcDbPoint
 10
-0.175
 20
-1.106
 30
0.0
  0
LINE
  5
45B61
100
AcDbEntity
  8
0
100
AcDbLine
 10
1.9576
 20
-2.988
 30
0.1
 11
1.9576
 21
-3.066396
 31
0.1
  0
POINT
  5
45B63
100
AcDbEntity
  8
DIMS-MTG-HOLES
100
AcDbPoint
 10
0.0
 20
0.0
 30
0.0
  0
CIRCLE
  5
45B65
100
AcDbEntity
  8
0
100
AcDbCircle
 10
0.0
 20
0.0
 30
0.317
 40
0.094
  0
LINE
  5
45B67
100
AcDbEntity
  8
0
100
AcDbLine
 10
2.4144
 20
-2.988
 30
0.1
 11
2.4144
 21
-3.066396
 31
0.1
  0
POINT
  5
45B68
100
AcDbEntity
  8
DIMS-MTG-HOLES
100
AcDbPoint
 10
4.372
 20
-2.813
 30
0.0
  0
CIRCLE
  5
45B6A
100
AcDbEntity
  8
0
100
AcDbCircle
 10
4.372
 20
-2.813
 30
0.317
 40
0.094
  0
LINE
  5
45B6C
100
AcDbEntity
  8
0
100
AcDbLine
 10
1.02748
 20
-0.425033
 30
2.6934
 11
2.238243
 21
-0.425033
 31
2.6934
  0
LWPOLYLINE
  5
45B6D
100
AcDbEntity
  8
0
100
AcDbPolyline
 90
        4
 70
     1
 43
0.0
 38
0.174951
 10
-2.045198
 20
2.567373
 10
-2.045198
 20
2.374843
 10
-1.77373
 20
2.374843
 10
-1.77373
 20
2.567373
210
0.0
220
1.0
230
0.0
  0
LWPOLYLINE
  5
45B6E
100
AcDbEntity
  8
0
100
AcDbPolyline
 90
        4
 70
     1
 43
0.0
 38
-2.988049
 10
-2.303594
 20
2.567373
 10
-2.303594
 20
2.374843
 10
-2.032126
 20
2.374843
 10
-2.032126
 20
2.567373
210
0.0
220
1.0
230
0.0
  0
LWPOLYLINE
  5
45B6F
100
AcDbEntity
  8
0
100
AcDbPolyline
 90
        8
 70
     1
 43
0.0
 38
2.805
 10
0.793862
 20
-2.156029
 42
0.414214
 10
0.893862
 20
-2.256029
 10
4.253862
 20
-2.256029
 42
0.414214
 10
4.353862
 20
-2.156029
 10
4.353862
 20
-0.666029
 42
0.414214
 10
4.253862
 20
-0.566029
 10
0.893862
 20
-0.566029
 42
0.414214
 10
0.793862
 20
-0.666029
  0
LWPOLYLINE
  5
45B70
100
AcDbEntity
  8
0
100
AcDbPolyline
 90
        4
 70
     1
 43
0.0
 38
2.805
 10
2.108737
 20
-0.946267
 10
2.108737
 20
-0.821267
 10
2.028737
 20
-0.821267
 10
2.028737
 20
-0.946267
  0
LINE
  5
45B71
100
AcDbEntity
  8
0
100
AcDbLine
 10
-0.095
 20
-0.5
 30
2.805
 11
4.467
 21
-0.5
 31
2.805
  0
LINE
  5
45B72
100
AcDbEntity
  8
0
100
AcDbLine
 10
-0.095
 20
-2.313
 30
2.805
 11
4.467
 21
-2.313
 31
2.805
  0
LINE
  5
45B73
100
AcDbEntity
  8
0
100
AcDbLine
 10
-0.175
 20
-2.648
 30
2.805
 11
4.547
 21
-2.648
 31
2.805
  0
POLYLINE
  5
45B74
100
AcDbEntity
  8
0
100
AcDbPolygonMesh
 66
     1
 10
0.0
 20
0.0
 30
0.0
 70
    16
 71
     6
 72
     3
  0
VERTEX
  5
45B75
100
AcDbEntity
  8
0
100
AcDbVertex
100
AcDbPolygonMeshVertex
 10
-0.175
 20
0.175
 30
2.72
 70
    64
  0
VERTEX
  5
45B76
100
AcDbEntity
  8
0
100
AcDbVertex
100
AcDbPolygonMeshVertex
 10
-0.175
 20
0.175
 30
2.595
 70
    64
  0
VERTEX
  5
45B77
100
AcDbEntity
  8
0
100
AcDbVertex
100
AcDbPolygonMeshVertex
 10
-0.175
 20
0.175
 30
2.595
 70
    64
  0
VERTEX
  5
45B78
100
AcDbEntity
  8
0
100
AcDbVertex
100
AcDbPolygonMeshVertex
 10
4.547
 20
0.175
 30
2.72
 70
    64
  0
VERTEX
  5
45B79
100
AcDbEntity
  8
0
100
AcDbVertex
100
AcDbPolygonMeshVertex
 10
4.547
 20
0.175
 30
2.595
 70
    64
  0
VERTEX
  5
45B7A
100
AcDbEntity
  8
0
100
AcDbVertex
100
AcDbPolygonMeshVertex
 10
4.547
 20
0.175
 30
2.595
 70
    64
  0
VERTEX
  5
45B7B
100
AcDbEntity
  8
0
100
AcDbVertex
100
AcDbPolygonMeshVertex
 10
4.547
 20
-2.988
 30
2.72
 70
    64
  0
VERTEX
  5
45B7C
100
AcDbEntity
  8
0
100
AcDbVertex
100
AcDbPolygonMeshVertex
 10
4.547
 20
-2.988
 30
2.595
 70
    64
  0
VERTEX
  5
45B7D
100
AcDbEntity
  8
0
100
AcDbVertex
100
AcDbPolygonMeshVertex
 10
4.547
 20
0.175
 30
2.595
 70
    64
  0
VERTEX
  5
45B7E
100
AcDbEntity
  8
0
100
AcDbVertex
100
AcDbPolygonMeshVertex
 10
-0.175
 20
-2.988
 30
2.72
 70
    64
  0
VERTEX
  5
45B7F
100
AcDbEntity
  8
0
100
AcDbVertex
100
AcDbPolygonMeshVertex
 10
-0.175
 20
-2.988
 30
2.595
 70
    64
  0
VERTEX
  5
45B80
100
AcDbEntity
  8
0
100
AcDbVertex
100
AcDbPolygonMeshVertex
 10
-0.175
 20
0.175
 30
2.595
 70
    64
  0
VERTEX
  5
45B81
100
AcDbEntity
  8
0
100
AcDbVertex
100
AcDbPolygonMeshVertex
 10
-0.175
 20
-2.988
 30
2.72
 70
    64
  0
VERTEX
  5
45B82
100
AcDbEntity
  8
0
100
AcDbVertex
100
AcDbPolygonMeshVertex
 10
-0.175
 20
-2.988
 30
2.72
 70
    64
  0
VERTEX
  5
45B83
100
AcDbEntity
  8
0
100
AcDbVertex
100
AcDbPolygonMeshVertex
 10
-0.175
 20
0.175
 30
2.72
 70
    64
  0
VERTEX
  5
45B84
100
AcDbEntity
  8
0
100
AcDbVertex
100
AcDbPolygonMeshVertex
 10
4.547
 20
-2.988
 30
2.72
 70
    64
  0
VERTEX
  5
45B85
100
AcDbEntity
  8
0
100
AcDbVertex
100
AcDbPolygonMeshVertex
 10
4.547
 20
-2.988
 30
2.72
 70
    64
  0
VERTEX
  5
45B86
100
AcDbEntity
  8
0
100
AcDbVertex
100
AcDbPolygonMeshVertex
 10
4.547
 20
0.175
 30
2.72
 70
    64
  0
SEQEND
  5
45B87
100
AcDbEntity
  8
0
  0
POLYLINE
  5
45B88
100
AcDbEntity
  8
0
100
AcDbPolygonMesh
 66
     1
 10
0.0
 20
0.0
 30
0.0
 70
    16
 71
     6
 72
     3
  0
VERTEX
  5
45B89
100
AcDbEntity
  8
0
100
AcDbVertex
100
AcDbPolygonMeshVertex
 10
4.547
 20
-0.165
 30
2.805
 70
    64
  0
VERTEX
  5
45B8A
100
AcDbEntity
  8
0
100
AcDbVertex
100
AcDbPolygonMeshVertex
 10
4.547
 20
-0.165
 30
2.72
 70
    64
  0
VERTEX
  5
45B8B
100
AcDbEntity
  8
0
100
AcDbVertex
100
AcDbPolygonMeshVertex
 10
4.547
 20
-0.165
 30
2.72
 70
    64
  0
VERTEX
  5
45B8C
100
AcDbEntity
  8
0
100
AcDbVertex
100
AcDbPolygonMeshVertex
 10
4.547
 20
-2.648
 30
2.805
 70
    64
  0
VERTEX
  5
45B8D
100
AcDbEntity
  8
0
100
AcDbVertex
100
AcDbPolygonMeshVertex
 10
4.547
 20
-2.648
 30
2.72
 70
    64
  0
VERTEX
  5
45B8E
100
AcDbEntity
  8
0
100
AcDbVertex
100
AcDbPolygonMeshVertex
 10
4.547
 20
-2.648
 30
2.72
 70
    64
  0
VERTEX
  5
45B8F
100
AcDbEntity
  8
0
100
AcDbVertex
100
AcDbPolygonMeshVertex
 10
-0.175
 20
-2.648
 30
2.805
 70
    64
  0
VERTEX
  5
45B90
100
AcDbEntity
  8
0
100
AcDbVertex
100
AcDbPolygonMeshVertex
 10
-0.175
 20
-2.648
 30
2.72
 70
    64
  0
VERTEX
  5
45B91
100
AcDbEntity
  8
0
100
AcDbVertex
100
AcDbPolygonMeshVertex
 10
4.547
 20
-2.648
 30
2.72
 70
    64
  0
VERTEX
  5
45B92
100
AcDbEntity
  8
0
100
AcDbVertex
100
AcDbPolygonMeshVertex
 10
-0.175
 20
-0.165
 30
2.805
 70
    64
  0
VERTEX
  5
45B93
100
AcDbEntity
  8
0
100
AcDbVertex
100
AcDbPolygonMeshVertex
 10
-0.175
 20
-0.165
 30
2.72
 70
    64
  0
VERTEX
  5
45B94
100
AcDbEntity
  8
0
100
AcDbVertex
100
AcDbPolygonMeshVertex
 10
4.547
 20
-0.165
 30
2.72
 70
    64
  0
VERTEX
  5
45B95
100
AcDbEntity
  8
0
100
AcDbVertex
100
AcDbPolygonMeshVertex
 10
-0.175
 20
-0.165
 30
2.805
 70
    64
  0
VERTEX
  5
45B96
100
AcDbEntity
  8
0
100
AcDbVertex
100
AcDbPolygonMeshVertex
 10
-0.175
 20
-0.165
 30
2.805
 70
    64
  0
VERTEX
  5
45B97
100
AcDbEntity
  8
0
100
AcDbVertex
100
AcDbPolygonMeshVertex
 10
4.547
 20
-0.165
 30
2.805
 70
    64
  0
VERTEX
  5
45B98
100
AcDbEntity
  8
0
100
AcDbVertex
100
AcDbPolygonMeshVertex
 10
-0.175
 20
-2.648
 30
2.805
 70
    64
  0
VERTEX
  5
45B99
100
AcDbEntity
  8
0
100
AcDbVertex
100
AcDbPolygonMeshVertex
 10
-0.175
 20
-2.648
 30
2.805
 70
    64
  0
VERTEX
  5
45B9A
100
AcDbEntity
  8
0
100
AcDbVertex
100
AcDbPolygonMeshVertex
 10
4.547
 20
-2.648
 30
2.805
 70
    64
  0
SEQEND
  5
45B9B
100
AcDbEntity
  8
0
  0
POLYLINE
  5
45B9C
100
AcDbEntity
  8
0
100
AcDbPolygonMesh
 66
     1
 10
0.0
 20
0.0
 30
0.0
 70
    16
 71
     6
 72
     3
  0
VERTEX
  5
45B9D
100
AcDbEntity
  8
0
100
AcDbVertex
100
AcDbPolygonMeshVertex
 10
4.547
 20
-2.988
 30
2.72
 70
    64
  0
VERTEX
  5
45B9E
100
AcDbEntity
  8
0
100
AcDbVertex
100
AcDbPolygonMeshVertex
 10
4.547
 20
-2.988
 30
2.72
 70
    64
  0
VERTEX
  5
45B9F
100
AcDbEntity
  8
0
100
AcDbVertex
100
AcDbPolygonMeshVertex
 10
4.547
 20
-2.988
 30
2.72
 70
    64
  0
VERTEX
  5
45BA0
100
AcDbEntity
  8
0
100
AcDbVertex
100
AcDbPolygonMeshVertex
 10
4.547
 20
-2.648
 30
2.805
 70
    64
  0
VERTEX
  5
45BA1
100
AcDbEntity
  8
0
100
AcDbVertex
100
AcDbPolygonMeshVertex
 10
4.547
 20
-2.648
 30
2.72
 70
    64
  0
VERTEX
  5
45BA2
100
AcDbEntity
  8
0
100
AcDbVertex
100
AcDbPolygonMeshVertex
 10
4.547
 20
-2.648
 30
2.72
 70
    64
  0
VERTEX
  5
45BA3
100
AcDbEntity
  8
0
100
AcDbVertex
100
AcDbPolygonMeshVertex
 10
-0.175
 20
-2.648
 30
2.805
 70
    64
  0
VERTEX
  5
45BA4
100
AcDbEntity
  8
0
100
AcDbVertex
100
AcDbPolygonMeshVertex
 10
-0.175
 20
-2.648
 30
2.72
 70
    64
  0
VERTEX
  5
45BA5
100
AcDbEntity
  8
0
100
AcDbVertex
100
AcDbPolygonMeshVertex
 10
4.547
 20
-2.648
 30
2.72
 70
    64
  0
VERTEX
  5
45BA6
100
AcDbEntity
  8
0
100
AcDbVertex
100
AcDbPolygonMeshVertex
 10
-0.175
 20
-2.988
 30
2.72
 70
    64
  0
VERTEX
  5
45BA7
100
AcDbEntity
  8
0
100
AcDbVertex
100
AcDbPolygonMeshVertex
 10
-0.175
 20
-2.988
 30
2.72
 70
    64
  0
VERTEX
  5
45BA8
100
AcDbEntity
  8
0
100
AcDbVertex
100
AcDbPolygonMeshVertex
 10
4.547
 20
-2.988
 30
2.72
 70
    64
  0
VERTEX
  5
45BA9
100
AcDbEntity
  8
0
100
AcDbVertex
100
AcDbPolygonMeshVertex
 10
-0.175
 20
-2.988
 30
2.72
 70
    64
  0
VERTEX
  5
45BAA
100
AcDbEntity
  8
0
100
AcDbVertex
100
AcDbPolygonMeshVertex
 10
-0.175
 20
-2.988
 30
2.72
 70
    64
  0
VERTEX
  5
45BAB
100
AcDbEntity
  8
0
100
AcDbVertex
100
AcDbPolygonMeshVertex
 10
4.547
 20
-2.988
 30
2.72
 70
    64
  0
VERTEX
  5
45BAC
100
AcDbEntity
  8
0
100
AcDbVertex
100
AcDbPolygonMeshVertex
 10
-0.175
 20
-2.648
 30
2.805
 70
    64
  0
VERTEX
  5
45BAD
100
AcDbEntity
  8
0
100
AcDbVertex
100
AcDbPolygonMeshVertex
 10
-0.175
 20
-2.648
 30
2.805
 70
    64
  0
VERTEX
  5
45BAE
100
AcDbEntity
  8
0
100
AcDbVertex
100
AcDbPolygonMeshVertex
 10
4.547
 20
-2.648
 30
2.805
 70
    64
  0
SEQEND
  5
45BAF
100
AcDbEntity
  8
0
  0
POLYLINE
  5
45BB0
100
AcDbEntity
  8
0
100
AcDbPolygonMesh
 66
     1
 10
0.0
 20
0.0
 30
0.0
 70
    16
 71
     6
 72
     3
  0
VERTEX
  5
45BB1
100
AcDbEntity
  8
0
100
AcDbVertex
100
AcDbPolygonMeshVertex
 10
4.547
 20
0.175
 30
2.72
 70
    64
  0
VERTEX
  5
45BB2
100
AcDbEntity
  8
0
100
AcDbVertex
100
AcDbPolygonMeshVertex
 10
4.547
 20
0.175
 30
2.72
 70
    64
  0
VERTEX
  5
45BB3
100
AcDbEntity
  8
0
100
AcDbVertex
100
AcDbPolygonMeshVertex
 10
4.547
 20
0.175
 30
2.72
 70
    64
  0
VERTEX
  5
45BB4
100
AcDbEntity
  8
0
100
AcDbVertex
100
AcDbPolygonMeshVertex
 10
4.547
 20
-0.165
 30
2.805
 70
    64
  0
VERTEX
  5
45BB5
100
AcDbEntity
  8
0
100
AcDbVertex
100
AcDbPolygonMeshVertex
 10
4.547
 20
-0.165
 30
2.72
 70
    64
  0
VERTEX
  5
45BB6
100
AcDbEntity
  8
0
100
AcDbVertex
100
AcDbPolygonMeshVertex
 10
4.547
 20
-0.165
 30
2.72
 70
    64
  0
VERTEX
  5
45BB7
100
AcDbEntity
  8
0
100
AcDbVertex
100
AcDbPolygonMeshVertex
 10
-0.175
 20
-0.165
 30
2.805
 70
    64
  0
VERTEX
  5
45BB8
100
AcDbEntity
  8
0
100
AcDbVertex
100
AcDbPolygonMeshVertex
 10
-0.175
 20
-0.165
 30
2.72
 70
    64
  0
VERTEX
  5
45BB9
100
AcDbEntity
  8
0
100
AcDbVertex
100
AcDbPolygonMeshVertex
 10
4.547
 20
-0.165
 30
2.72
 70
    64
  0
VERTEX
  5
45BBA
100
AcDbEntity
  8
0
100
AcDbVertex
100
AcDbPolygonMeshVertex
 10
-0.175
 20
0.175
 30
2.72
 70
    64
  0
VERTEX
  5
45BBB
100
AcDbEntity
  8
0
100
AcDbVertex
100
AcDbPolygonMeshVertex
 10
-0.175
 20
0.175
 30
2.72
 70
    64
  0
VERTEX
  5
45BBC
100
AcDbEntity
  8
0
100
AcDbVertex
100
AcDbPolygonMeshVertex
 10
4.547
 20
0.175
 30
2.72
 70
    64
  0
VERTEX
  5
45BBD
100
AcDbEntity
  8
0
100
AcDbVertex
100
AcDbPolygonMeshVertex
 10
-0.175
 20
0.175
 30
2.72
 70
    64
  0
VERTEX
  5
45BBE
100
AcDbEntity
  8
0
100
AcDbVertex
100
AcDbPolygonMeshVertex
 10
-0.175
 20
0.175
 30
2.72
 70
    64
  0
VERTEX
  5
45BBF
100
AcDbEntity
  8
0
100
AcDbVertex
100
AcDbPolygonMeshVertex
 10
4.547
 20
0.175
 30
2.72
 70
    64
  0
VERTEX
  5
45BC0
100
AcDbEntity
  8
0
100
AcDbVertex
100
AcDbPolygonMeshVertex
 10
-0.175
 20
-0.165
 30
2.805
 70
    64
  0
VERTEX
  5
45BC1
100
AcDbEntity
  8
0
100
AcDbVertex
100
AcDbPolygonMeshVertex
 10
-0.175
 20
-0.165
 30
2.805
 70
    64
  0
VERTEX
  5
45BC2
100
AcDbEntity
  8
0
100
AcDbVertex
100
AcDbPolygonMeshVertex
 10
4.547
 20
-0.165
 30
2.805
 70
    64
  0
SEQEND
  5
45BC3
100
AcDbEntity
  8
0
  0
LINE
  5
45BC4
100
AcDbEntity
  8
0
100
AcDbLine
 10
0.645
 20
-2.034
 30
2.805
 11
0.645
 21
-0.779
 31
2.805
  0
TEXT
  5
45BC5
100
AcDbEntity
  8
0
100
AcDbText
 39
0.001
 10
-0.101566
 20
-2.498049
 30
2.692373
 40
0.05
  1
85-264
 72
     1
 11
0.040101
 21
-2.498049
 31
2.692373
100
AcDbText
  0
LWPOLYLINE
  5
45BC6
100
AcDbEntity
  8
0
100
AcDbPolyline
 90
        4
 70
     1
 43
0.0
 38
-2.988049
 10
-0.174207
 20
2.567373
 10
-0.174207
 20
2.374843
 10
0.097261
 20
2.374843
 10
0.097261
 20
2.567373
210
0.0
220
1.0
230
0.0
  0
LINE
  5
45BC7
100
AcDbEntity
  8
0
100
AcDbLine
 10
0.645
 20
-2.034
 30
2.805
 11
-0.175
 21
-2.034
 31
2.805
  0
TEXT
  5
45BC8
100
AcDbEntity
  8
0
100
AcDbText
 39
0.001
 10
0.006767
 20
-2.598049
 30
2.692373
 40
0.05
  1
L1
 72
     1
 11
0.040101
 21
-2.598049
 31
2.692373
100
AcDbText
  0
LINE
  5
45BC9
100
AcDbEntity
  8
0
100
AcDbLine
 10
-0.095
 20
-2.188
 30
2.805
 11
-0.175
 21
-2.188
 31
2.805
  0
LINE
  5
45BCA
100
AcDbEntity
  8
0
100
AcDbLine
 10
-0.095
 20
-2.313
 30
2.805
 11
-0.095
 21
-2.188
 31
2.805
  0
LWPOLYLINE
  5
45BCB
100
AcDbEntity
  8
0
100
AcDbPolyline
 90
        4
 70
     1
 43
0.0
 38
-2.988049
 10
-0.478405
 20
2.567373
 10
-0.478405
 20
2.374843
 10
-0.206937
 20
2.374843
 10
-0.206937
 20
2.567373
210
0.0
220
1.0
230
0.0
  0
LWPOLYLINE
  5
45BCC
100
AcDbEntity
  8
0
100
AcDbPolyline
 90
        4
 70
     1
 43
0.0
 38
-2.988049
 10
-0.782603
 20
2.567373
 10
-0.782603
 20
2.374843
 10
-0.511135
 20
2.374843
 10
-0.511135
 20
2.567373
210
0.0
220
1.0
230
0.0
  0
LWPOLYLINE
  5
45BCD
100
AcDbEntity
  8
0
100
AcDbPolyline
 90
        4
 70
     1
 43
0.0
 38
-2.988049
 10
-1.086801
 20
2.567373
 10
-1.086801
 20
2.374843
 10
-0.815333
 20
2.374843
 10
-0.815333
 20
2.567373
210
0.0
220
1.0
230
0.0
  0
LWPOLYLINE
  5
45BCE
100
AcDbEntity
  8
0
100
AcDbPolyline
 90
        4
 70
     1
 43
0.0
 38
-2.988049
 10
-1.391
 20
2.567373
 10
-1.391
 20
2.374843
 10
-1.119531
 20
2.374843
 10
-1.119531
 20
2.567373
210
0.0
220
1.0
230
0.0
  0
LWPOLYLINE
  5
45BCF
100
AcDbEntity
  8
0
100
AcDbPolyline
 90
        4
 70
     1
 43
0.0
 38
-2.988049
 10
-1.695198
 20
2.567373
 10
-1.695198
 20
2.374843
 10
-1.42373
 20
2.374843
 10
-1.42373
 20
2.567373
210
0.0
220
1.0
230
0.0
  0
LWPOLYLINE
  5
45BD0
100
AcDbEntity
  8
0
100
AcDbPolyline
 90
        4
 70
     1
 43
0.0
 38
-2.988049
 10
-1.999396
 20
2.567373
 10
-1.999396
 20
2.374843
 10
-1.727928
 20
2.374843
 10
-1.727928
 20
2.567373
210
0.0
220
1.0
230
0.0
  0
LINE
  5
45BD1
100
AcDbEntity
  8
0
100
AcDbLine
 10
0.93888
 20
-2.386933
 30
2.6934
 11
1.249643
 21
-2.386933
 31
2.6934
  0
LINE
  5
45BD2
100
AcDbEntity
  8
0
100
AcDbLine
 10
0.665101
 20
-2.558049
 30
2.692373
 11
0.615101
 21
-2.558049
 31
2.692373
  0
LINE
  5
45BD3
100
AcDbEntity
  8
0
100
AcDbLine
 10
0.590101
 20
-2.533049
 30
2.692373
 11
0.690101
 21
-2.533049
 31
2.692373
  0
LINE
  5
45BD4
100
AcDbEntity
  8
0
100
AcDbLine
 10
0.565101
 20
-2.508049
 30
2.692373
 11
0.640101
 21
-2.508049
 31
2.692373
  0
CIRCLE
  5
45BD5
100
AcDbEntity
  8
0
100
AcDbCircle
 10
0.640101
 20
-2.508049
 30
2.692373
 40
0.1
  0
TEXT
  5
45BD6
100
AcDbEntity
  8
0
100
AcDbText
 39
0.001
 10
0.248434
 20
-2.598049
 30
2.692373
 40
0.05
  1
L2/N
 72
     1
 11
0.340101
 21
-2.598049
 31
2.692373
100
AcDbText
  0
TEXT
  5
45BD7
100
AcDbEntity
  8
0
100
AcDbText
 39
0.001
 10
0.265101
 20
-2.498049
 30
2.692373
 40
0.05
  1
VAC
 72
     1
 11
0.340101
 21
-2.498049
 31
2.692373
100
AcDbText
  0
LINE
  5
45BD8
100
AcDbEntity
  8
0
100
AcDbLine
 10
0.640101
 20
-2.508049
 30
2.692373
 11
0.715101
 21
-2.508049
 31
2.692373
  0
LINE
  5
45BD9
100
AcDbEntity
  8
0
100
AcDbLine
 10
0.640101
 20
-2.458049
 30
2.692373
 11
0.640101
 21
-2.508049
 31
2.692373
  0
TEXT
  5
45BDA
100
AcDbEntity
  8
0
100
AcDbText
 39
0.001
 10
0.865101
 20
-2.598049
 30
2.692373
 40
0.05
  1
VDC
 72
     1
 11
0.940101
 21
-2.598049
 31
2.692373
100
AcDbText
  0
TEXT
  5
45BDB
100
AcDbEntity
  8
0
100
AcDbText
 39
0.001
 10
0.865101
 20
-2.498049
 30
2.692373
 40
0.05
  1
VAC
 72
     1
 11
0.940101
 21
-2.498049
 31
2.692373
100
AcDbText
  0
LINE
  5
45BDC
100
AcDbEntity
  8
0
100
AcDbLine
 10
0.93888
 20
-2.40462
 30
2.6934
 11
0.93888
 21
-2.386933
 31
2.6934
  0
TEXT
  5
45BDD
100
AcDbEntity
  8
0
100
AcDbText
 39
0.001
 10
1.465101
 20
-2.498049
 30
2.692373
 40
0.05
  1
VAC
 72
     1
 11
1.540101
 21
-2.498049
 31
2.692373
100
AcDbText
  0
TEXT
  5
45BDE
100
AcDbEntity
  8
0
100
AcDbText
 39
0.001
 10
1.465101
 20
-2.598049
 30
2.692373
 40
0.05
  1
VDC
 72
     1
 11
1.540101
 21
-2.598049
 31
2.692373
100
AcDbText
  0
LINE
  5
45BDF
100
AcDbEntity
  8
0
100
AcDbLine
 10
1.53888
 20
-2.386933
 30
2.6934
 11
1.849643
 21
-2.386933
 31
2.6934
  0
TEXT
  5
45BE0
100
AcDbEntity
  8
0
100
AcDbText
 39
0.001
 10
1.177601
 20
-2.598049
 30
2.692373
 40
0.05
  1
O/0
 72
     1
 11
1.240101
 21
-2.598049
 31
2.692373
100
AcDbText
  0
LINE
  5
45BE1
100
AcDbEntity
  8
0
100
AcDbLine
 10
1.249643
 20
-2.40462
 30
2.6934
 11
1.249643
 21
-2.386933
 31
2.6934
  0
LINE
  5
45BE2
100
AcDbEntity
  8
0
100
AcDbLine
 10
1.53888
 20
-2.40462
 30
2.6934
 11
1.53888
 21
-2.386933
 31
2.6934
  0
TEXT
  5
45BE3
100
AcDbEntity
  8
0
100
AcDbText
 39
0.001
 10
1.781767
 20
-2.598049
 30
2.692373
 40
0.05
  1
O/1
 72
     1
 11
1.840101
 21
-2.598049
 31
2.692373
100
AcDbText
  0
LINE
  5
45BE4
100
AcDbEntity
  8
0
100
AcDbLine
 10
1.849643
 20
-2.40462
 30
2.6934
 11
1.849643
 21
-2.386933
 31
2.6934
  0
LWPOLYLINE
  5
45BE5
100
AcDbEntity
  8
0
100
AcDbPolyline
 90
        4
 70
     1
 43
0.0
 38
2.805
 10
1.163737
 20
-1.978267
 10
1.163737
 20
-1.853267
 10
1.083737
 20
-1.853267
 10
1.083737
 20
-1.978267
  0
LWPOLYLINE
  5
45BE6
100
AcDbEntity
  8
0
100
AcDbPolyline
 90
        4
 70
     1
 43
0.0
 38
2.805
 10
1.028737
 20
-1.978267
 10
1.028737
 20
-1.853267
 10
0.948737
 20
-1.853267
 10
0.948737
 20
-1.978267
  0
LWPOLYLINE
  5
45BE7
100
AcDbEntity
  8
0
100
AcDbPolyline
 90
        4
 70
     1
 43
0.0
 38
2.805
 10
0.93615
 20
-1.516856
 10
1.06115
 20
-1.516856
 10
1.06115
 20
-1.436856
 10
0.93615
 20
-1.436856
  0
LWPOLYLINE
  5
45BE8
100
AcDbEntity
  8
0
100
AcDbPolyline
 90
        4
 70
     1
 43
0.0
 38
2.805
 10
0.93615
 20
-1.651856
 10
1.06115
 20
-1.651856
 10
1.06115
 20
-1.571856
 10
0.93615
 20
-1.571856
  0
LWPOLYLINE
  5
45BE9
100
AcDbEntity
  8
0
100
AcDbPolyline
 90
        4
 70
     1
 43
0.0
 38
2.805
 10
0.93615
 20
-1.381856
 10
1.06115
 20
-1.381856
 10
1.06115
 20
-1.301856
 10
0.93615
 20
-1.301856
  0
LWPOLYLINE
  5
45BEA
100
AcDbEntity
  8
0
100
AcDbPolyline
 90
        4
 70
     1
 43
0.0
 38
2.805
 10
0.93615
 20
-1.246856
 10
1.06115
 20
-1.246856
 10
1.06115
 20
-1.166856
 10
0.93615
 20
-1.166856
  0
TEXT
  5
45BEB
100
AcDbEntity
  8
0
100
AcDbText
 10
1.79
 20
-1.953
 30
2.8147
 40
0.05
  1
OUT
100
AcDbText
  0
LWPOLYLINE
  5
45BEC
100
AcDbEntity
  8
0
100
AcDbPolyline
 90
        4
 70
     1
 43
0.0
 38
2.805
 10
1.703737
 20
-1.978267
 10
1.703737
 20
-1.853267
 10
1.623737
 20
-1.853267
 10
1.623737
 20
-1.978267
  0
LWPOLYLINE
  5
45BED
100
AcDbEntity
  8
0
100
AcDbPolyline
 90
        4
 70
     1
 43
0.0
 38
2.805
 10
1.568737
 20
-1.978267
 10
1.568737
 20
-1.853267
 10
1.488737
 20
-1.853267
 10
1.488737
 20
-1.978267
  0
LWPOLYLINE
  5
45BEE
100
AcDbEntity
  8
0
100
AcDbPolyline
 90
        4
 70
     1
 43
0.0
 38
2.805
 10
1.433737
 20
-1.978267
 10
1.433737
 20
-1.853267
 10
1.353737
 20
-1.853267
 10
1.353737
 20
-1.978267
  0
LWPOLYLINE
  5
45BEF
100
AcDbEntity
  8
0
100
AcDbPolyline
 90
        4
 70
     1
 43
0.0
 38
2.805
 10
1.298737
 20
-1.978267
 10
1.298737
 20
-1.853267
 10
1.218737
 20
-1.853267
 10
1.218737
 20
-1.978267
  0
TEXT
  5
45BF0
100
AcDbEntity
  8
0
100
AcDbText
 10
1.138825
 20
-1.504476
 30
2.8147
 40
0.05
  1
FAULT
100
AcDbText
  0
TEXT
  5
45BF1
100
AcDbEntity
  8
0
100
AcDbText
 10
1.138825
 20
-1.633604
 30
2.8147
 40
0.05
  1
FORCE
100
AcDbText
  0
TEXT
  5
45BF2
100
AcDbEntity
  8
0
100
AcDbText
 10
1.138825
 20
-1.233307
 30
2.8147
 40
0.05
  1
POWER
100
AcDbText
  0
TEXT
  5
45BF3
100
AcDbEntity
  8
0
100
AcDbText
 10
1.138825
 20
-1.366739
 30
2.8147
 40
0.05
  1
RUN
100
AcDbText
  0
LINE
  5
45BF4
100
AcDbEntity
  8
0
100
AcDbLine
 10
0.645
 20
-0.779
 30
2.805
 11
-0.175
 21
-0.779
 31
2.805
  0
LINE
  5
45BF5
100
AcDbEntity
  8
0
100
AcDbLine
 10
-0.175
 20
-0.625
 30
2.805
 11
-0.095
 21
-0.625
 31
2.805
  0
LINE
  5
45BF6
100
AcDbEntity
  8
0
100
AcDbLine
 10
-0.095
 20
-0.625
 30
2.805
 11
-0.095
 21
-0.5
 31
2.805
  0
LWPOLYLINE
  5
45BF7
100
AcDbEntity
  8
0
100
AcDbPolyline
 90
        4
 70
     1
 43
0.0
 38
0.174951
 10
-1.132603
 20
2.567373
 10
-1.132603
 20
2.374843
 10
-0.861135
 20
2.374843
 10
-0.861135
 20
2.567373
210
0.0
220
1.0
230
0.0
  0
LINE
  5
45BF8
100
AcDbEntity
  8
0
100
AcDbLine
 10
0.38188
 20
-0.425033
 30
2.6934
 11
0.692643
 21
-0.425033
 31
2.6934
  0
TEXT
  5
45BF9
100
AcDbEntity
  8
0
100
AcDbText
 39
0.001
 10
0.527434
 20
-0.386149
 30
2.692373
 40
0.05
  1
OUT
 72
     1
 11
0.594101
 21
-0.386149
 31
2.692373
100
AcDbText
  0
LINE
  5
45BFA
100
AcDbEntity
  8
0
100
AcDbLine
 10
0.38188
 20
-0.40732
 30
2.6934
 11
0.38188
 21
-0.425033
 31
2.6934
  0
TEXT
  5
45BFB
100
AcDbEntity
  8
0
100
AcDbText
 39
0.001
 10
0.352434
 20
-0.286149
 30
2.692373
 40
0.05
  1
+
 72
     1
 11
0.369101
 21
-0.286149
 31
2.692373
100
AcDbText
  0
TEXT
  5
45BFC
100
AcDbEntity
  8
0
100
AcDbText
 39
0.001
 10
0.469101
 20
-0.286149
 30
2.693373
 40
0.05
  1
24V
 72
     1
 11
0.544101
 21
-0.286149
 31
2.693373
100
AcDbText
  0
TEXT
  5
45BFD
100
AcDbEntity
  8
0
100
AcDbText
 39
0.001
 10
0.402434
 20
-0.386149
 30
2.692373
 40
0.05
  1
DC
 72
     1
 11
0.444101
 21
-0.386149
 31
2.692373
100
AcDbText
  0
LINE
  5
45BFE
100
AcDbEntity
  8
0
100
AcDbLine
 10
0.692643
 20
-0.40732
 30
2.6934
 11
0.692643
 21
-0.425033
 31
2.6934
  0
TEXT
  5
45BFF
100
AcDbEntity
  8
0
100
AcDbText
 39
0.001
 10
0.652434
 20
-0.286149
 30
2.692373
 40
0.05
  1
-
 72
     1
 11
0.669101
 21
-0.286149
 31
2.692373
100
AcDbText
  0
LINE
  5
45C00
100
AcDbEntity
  8
0
100
AcDbLine
 10
1.02748
 20
-0.40732
 30
2.6934
 11
1.02748
 21
-0.425033
 31
2.6934
  0
TEXT
  5
45C01
100
AcDbEntity
  8
0
100
AcDbText
 39
0.001
 10
0.948034
 20
-0.386149
 30
2.692373
 40
0.05
  1
COM
 72
     1
 11
1.014701
 21
-0.386149
 31
2.692373
100
AcDbText
  0
TEXT
  5
45C02
100
AcDbEntity
  8
0
100
AcDbText
 39
0.001
 10
0.973034
 20
-0.286149
 30
2.692373
 40
0.05
  1
DC
 72
     1
 11
1.014701
 21
-0.286149
 31
2.692373
100
AcDbText
  0
LWPOLYLINE
  5
45C03
100
AcDbEntity
  8
0
100
AcDbPolyline
 90
        4
 70
     1
 43
0.0
 38
0.174951
 10
-0.524207
 20
2.567373
 10
-0.524207
 20
2.374843
 10
-0.252739
 20
2.374843
 10
-0.252739
 20
2.567373
210
0.0
220
1.0
230
0.0
  0
LWPOLYLINE
  5
45C04
100
AcDbEntity
  8
0
100
AcDbPolyline
 90
        4
 70
     1
 43
0.0
 38
0.174951
 10
-0.828405
 20
2.567373
 10
-0.828405
 20
2.374843
 10
-0.556937
 20
2.374843
 10
-0.556937
 20
2.567373
210
0.0
220
1.0
230
0.0
  0
TEXT
  5
45C05
100
AcDbEntity
  8
0
100
AcDbText
 39
0.001
 10
1.564701
 20
-0.286149
 30
2.692373
 40
0.05
  1
I/1
 72
     1
 11
1.614701
 21
-0.286149
 31
2.692373
100
AcDbText
  0
TEXT
  5
45C06
100
AcDbEntity
  8
0
100
AcDbText
 39
0.001
 10
1.260534
 20
-0.286149
 30
2.692373
 40
0.05
  1
I/0
 72
     1
 11
1.314701
 21
-0.286149
 31
2.692373
100
AcDbText
  0
TEXT
  5
45C07
100
AcDbEntity
  8
0
100
AcDbText
 39
0.001
 10
1.856367
 20
-0.286149
 30
2.692373
 40
0.05
  1
I/2
 72
     1
 11
1.914701
 21
-0.286149
 31
2.692373
100
AcDbText
  0
LWPOLYLINE
  5
45C08
100
AcDbEntity
  8
0
100
AcDbPolyline
 90
        4
 70
     1
 43
0.0
 38
0.174951
 10
-1.436801
 20
2.567373
 10
-1.436801
 20
2.374843
 10
-1.165333
 20
2.374843
 10
-1.165333
 20
2.567373
210
0.0
220
1.0
230
0.0
  0
LWPOLYLINE
  5
45C09
100
AcDbEntity
  8
0
100
AcDbPolyline
 90
        4
 70
     1
 43
0.0
 38
0.174951
 10
-1.741
 20
2.567373
 10
-1.741
 20
2.374843
 10
-1.469531
 20
2.374843
 10
-1.469531
 20
2.567373
210
0.0
220
1.0
230
0.0
  0
LWPOLYLINE
  5
45C0A
100
AcDbEntity
  8
0
100
AcDbPolyline
 90
        4
 70
     1
 43
0.0
 38
2.805
 10
1.163737
 20
-0.946267
 10
1.163737
 20
-0.821267
 10
1.083737
 20
-0.821267
 10
1.083737
 20
-0.946267
  0
LWPOLYLINE
  5
45C0B
100
AcDbEntity
  8
0
100
AcDbPolyline
 90
        4
 70
     1
 43
0.0
 38
2.805
 10
1.028737
 20
-0.946267
 10
1.028737
 20
-0.821267
 10
0.948737
 20
-0.821267
 10
0.948737
 20
-0.946267
  0
LWPOLYLINE
  5
45C0C
100
AcDbEntity
  8
0
100
AcDbPolyline
 90
        4
 70
     1
 43
0.0
 38
2.805
 10
1.568737
 20
-0.946267
 10
1.568737
 20
-0.821267
 10
1.488737
 20
-0.821267
 10
1.488737
 20
-0.946267
  0
LWPOLYLINE
  5
45C0D
100
AcDbEntity
  8
0
100
AcDbPolyline
 90
        4
 70
     1
 43
0.0
 38
2.805
 10
1.298737
 20
-0.946267
 10
1.298737
 20
-0.821267
 10
1.218737
 20
-0.821267
 10
1.218737
 20
-0.946267
  0
LWPOLYLINE
  5
45C0E
100
AcDbEntity
  8
0
100
AcDbPolyline
 90
        4
 70
     1
 43
0.0
 38
2.805
 10
1.433737
 20
-0.946267
 10
1.433737
 20
-0.821267
 10
1.353737
 20
-0.821267
 10
1.353737
 20
-0.946267
  0
LWPOLYLINE
  5
45C0F
100
AcDbEntity
  8
0
100
AcDbPolyline
 90
        4
 70
     1
 43
0.0
 38
2.805
 10
1.838737
 20
-0.946267
 10
1.838737
 20
-0.821267
 10
1.758737
 20
-0.821267
 10
1.758737
 20
-0.946267
  0
LWPOLYLINE
  5
45C10
100
AcDbEntity
  8
0
100
AcDbPolyline
 90
        4
 70
     1
 43
0.0
 38
2.805
 10
1.703737
 20
-0.946267
 10
1.703737
 20
-0.821267
 10
1.623737
 20
-0.821267
 10
1.623737
 20
-0.946267
  0
LWPOLYLINE
  5
45C11
100
AcDbEntity
  8
0
100
AcDbPolyline
 90
        4
 70
     1
 43
0.0
 38
2.805
 10
1.973737
 20
-0.946267
 10
1.973737
 20
-0.821267
 10
1.893737
 20
-0.821267
 10
1.893737
 20
-0.946267
  0
TEXT
  5
45C12
100
AcDbEntity
  8
0
100
AcDbText
 39
0.001
 10
3.890227
 20
-2.598049
 30
2.692373
 40
0.05
  1
O/5
 72
     1
 11
3.956894
 21
-2.598049
 31
2.692373
100
AcDbText
  0
LINE
  5
45C13
100
AcDbEntity
  8
0
100
AcDbLine
 10
3.364069
 20
-2.386933
 30
2.6934
 11
3.979031
 21
-2.386933
 31
2.6934
  0
LWPOLYLINE
  5
45C14
100
AcDbEntity
  8
0
100
AcDbPolyline
 90
        4
 70
     1
 43
0.0
 38
-2.988049
 10
-4.128783
 20
2.567373
 10
-4.128783
 20
2.374843
 10
-3.857315
 20
2.374843
 10
-3.857315
 20
2.567373
210
0.0
220
1.0
230
0.0
  0
LWPOLYLINE
  5
45C15
100
AcDbEntity
  8
0
100
AcDbPolyline
 90
        4
 70
     1
 43
0.0
 38
-2.988049
 10
-3.216189
 20
2.567373
 10
-3.216189
 20
2.374843
 10
-2.944721
 20
2.374843
 10
-2.944721
 20
2.567373
210
0.0
220
1.0
230
0.0
  0
LWPOLYLINE
  5
45C16
100
AcDbEntity
  8
0
100
AcDbPolyline
 90
        4
 70
     1
 43
0.0
 38
-2.988049
 10
-2.607792
 20
2.567373
 10
-2.607792
 20
2.374843
 10
-2.336324
 20
2.374843
 10
-2.336324
 20
2.567373
210
0.0
220
1.0
230
0.0
  0
LWPOLYLINE
  5
45C17
100
AcDbEntity
  8
0
100
AcDbPolyline
 90
        4
 70
     1
 43
0.0
 38
-2.988049
 10
-2.911991
 20
2.567373
 10
-2.911991
 20
2.374843
 10
-2.640523
 20
2.374843
 10
-2.640523
 20
2.567373
210
0.0
220
1.0
230
0.0
  0
LWPOLYLINE
  5
45C18
100
AcDbEntity
  8
0
100
AcDbPolyline
 90
        4
 70
     1
 43
0.0
 38
-2.988049
 10
-3.520387
 20
2.567373
 10
-3.520387
 20
2.374843
 10
-3.248919
 20
2.374843
 10
-3.248919
 20
2.567373
210
0.0
220
1.0
230
0.0
  0
LWPOLYLINE
  5
45C19
100
AcDbEntity
  8
0
100
AcDbPolyline
 90
        4
 70
     1
 43
0.0
 38
-2.988049
 10
-3.824585
 20
2.567373
 10
-3.824585
 20
2.374843
 10
-3.553117
 20
2.374843
 10
-3.553117
 20
2.567373
210
0.0
220
1.0
230
0.0
  0
LINE
  5
45C1A
100
AcDbEntity
  8
0
100
AcDbLine
 10
2.755673
 20
-2.386933
 30
2.6934
 11
3.066436
 21
-2.386933
 31
2.6934
  0
TEXT
  5
45C1B
100
AcDbEntity
  8
0
100
AcDbText
 39
0.001
 10
2.977632
 20
-2.598049
 30
2.692373
 40
0.05
  1
O/3
 72
     1
 11
3.044299
 21
-2.598049
 31
2.692373
100
AcDbText
  0
LINE
  5
45C1C
100
AcDbEntity
  8
0
100
AcDbLine
 10
2.147276
 20
-2.386933
 30
2.6934
 11
2.45804
 21
-2.386933
 31
2.6934
  0
TEXT
  5
45C1D
100
AcDbEntity
  8
0
100
AcDbText
 39
0.001
 10
2.065101
 20
-2.598049
 30
2.692373
 40
0.05
  1
VDC
 72
     1
 11
2.140101
 21
-2.598049
 31
2.692373
100
AcDbText
  0
TEXT
  5
45C1E
100
AcDbEntity
  8
0
100
AcDbText
 39
0.001
 10
2.065101
 20
-2.498049
 30
2.692373
 40
0.05
  1
VAC
 72
     1
 11
2.140101
 21
-2.498049
 31
2.692373
100
AcDbText
  0
LINE
  5
45C1F
100
AcDbEntity
  8
0
100
AcDbLine
 10
2.147276
 20
-2.40462
 30
2.6934
 11
2.147276
 21
-2.386933
 31
2.6934
  0
TEXT
  5
45C20
100
AcDbEntity
  8
0
100
AcDbText
 39
0.001
 10
2.373434
 20
-2.598049
 30
2.692373
 40
0.05
  1
O/2
 72
     1
 11
2.440101
 21
-2.598049
 31
2.692373
100
AcDbText
  0
LINE
  5
45C21
100
AcDbEntity
  8
0
100
AcDbLine
 10
2.45804
 20
-2.40462
 30
2.6934
 11
2.45804
 21
-2.386933
 31
2.6934
  0
TEXT
  5
45C22
100
AcDbEntity
  8
0
100
AcDbText
 39
0.001
 10
2.673497
 20
-2.598049
 30
2.692373
 40
0.05
  1
VDC
 72
     1
 11
2.748497
 21
-2.598049
 31
2.692373
100
AcDbText
  0
TEXT
  5
45C23
100
AcDbEntity
  8
0
100
AcDbText
 39
0.001
 10
2.673497
 20
-2.498049
 30
2.692373
 40
0.05
  1
VAC
 72
     1
 11
2.748497
 21
-2.498049
 31
2.692373
100
AcDbText
  0
LINE
  5
45C24
100
AcDbEntity
  8
0
100
AcDbLine
 10
2.755673
 20
-2.40462
 30
2.6934
 11
2.755673
 21
-2.386933
 31
2.6934
  0
LINE
  5
45C25
100
AcDbEntity
  8
0
100
AcDbLine
 10
3.066436
 20
-2.40462
 30
2.6934
 11
3.066436
 21
-2.386933
 31
2.6934
  0
TEXT
  5
45C26
100
AcDbEntity
  8
0
100
AcDbText
 39
0.001
 10
3.281894
 20
-2.598049
 30
2.692373
 40
0.05
  1
VDC
 72
     1
 11
3.356894
 21
-2.598049
 31
2.692373
100
AcDbText
  0
TEXT
  5
45C27
100
AcDbEntity
  8
0
100
AcDbText
 39
0.001
 10
3.281894
 20
-2.498049
 30
2.692373
 40
0.05
  1
VAC
 72
     1
 11
3.356894
 21
-2.498049
 31
2.692373
100
AcDbText
  0
LINE
  5
45C28
100
AcDbEntity
  8
0
100
AcDbLine
 10
3.364069
 20
-2.40462
 30
2.6934
 11
3.364069
 21
-2.386933
 31
2.6934
  0
TEXT
  5
45C29
100
AcDbEntity
  8
0
100
AcDbText
 39
0.001
 10
3.586029
 20
-2.598049
 30
2.692373
 40
0.05
  1
O/4
 72
     1
 11
3.652695
 21
-2.598049
 31
2.692373
100
AcDbText
  0
LINE
  5
45C2A
100
AcDbEntity
  8
0
100
AcDbLine
 10
3.979031
 20
-2.40462
 30
2.6934
 11
3.979031
 21
-2.386933
 31
2.6934
  0
LINE
  5
45C2B
100
AcDbEntity
  8
0
100
AcDbLine
 10
4.547
 20
-2.188
 30
2.805
 11
4.467
 21
-2.188
 31
2.805
  0
LINE
  5
45C2C
100
AcDbEntity
  8
0
100
AcDbLine
 10
4.467
 20
-2.188
 30
2.805
 11
4.467
 21
-2.313
 31
2.805
  0
LINE
  5
45C2D
100
AcDbEntity
  8
0
100
AcDbLine
 10
2.55248
 20
-0.425033
 30
2.6934
 11
4.351157
 21
-0.425033
 31
2.6934
  0
LWPOLYLINE
  5
45C2E
100
AcDbEntity
  8
0
100
AcDbPolyline
 90
        4
 70
     1
 43
0.0
 38
0.174951
 10
-4.174585
 20
2.567373
 10
-4.174585
 20
2.374843
 10
-3.903117
 20
2.374843
 10
-3.903117
 20
2.567373
210
0.0
220
1.0
230
0.0
  0
TEXT
  5
45C2F
100
AcDbEntity
  8
0
100
AcDbText
 39
0.001
 10
2.498034
 20
-0.286149
 30
2.692373
 40
0.05
  1
DC
 72
     1
 11
2.539701
 21
-0.286149
 31
2.692373
100
AcDbText
  0
TEXT
  5
45C30
100
AcDbEntity
  8
0
100
AcDbText
 39
0.001
 10
2.473034
 20
-0.386149
 30
2.692373
 40
0.05
  1
COM
 72
     1
 11
2.539701
 21
-0.386149
 31
2.692373
100
AcDbText
  0
LINE
  5
45C31
100
AcDbEntity
  8
0
100
AcDbLine
 10
2.238243
 20
-0.40732
 30
2.6934
 11
2.238243
 21
-0.425033
 31
2.6934
  0
TEXT
  5
45C32
100
AcDbEntity
  8
0
100
AcDbText
 39
0.001
 10
2.156367
 20
-0.286149
 30
2.692373
 40
0.05
  1
I/3
 72
     1
 11
2.214701
 21
-0.286149
 31
2.692373
100
AcDbText
  0
LINE
  5
45C33
100
AcDbEntity
  8
0
100
AcDbLine
 10
2.55248
 20
-0.40732
 30
2.6934
 11
2.55248
 21
-0.425033
 31
2.6934
  0
TEXT
  5
45C34
100
AcDbEntity
  8
0
100
AcDbText
 39
0.001
 10
2.781367
 20
-0.286149
 30
2.692373
 40
0.05
  1
I/4
 72
     1
 11
2.839701
 21
-0.286149
 31
2.692373
100
AcDbText
  0
LWPOLYLINE
  5
45C35
100
AcDbEntity
  8
0
100
AcDbPolyline
 90
        4
 70
     1
 43
0.0
 38
0.174951
 10
-2.349396
 20
2.567373
 10
-2.349396
 20
2.374843
 10
-2.077928
 20
2.374843
 10
-2.077928
 20
2.567373
210
0.0
220
1.0
230
0.0
  0
LWPOLYLINE
  5
45C36
100
AcDbEntity
  8
0
100
AcDbPolyline
 90
        4
 70
     1
 43
0.0
 38
0.174951
 10
-2.653594
 20
2.567373
 10
-2.653594
 20
2.374843
 10
-2.382126
 20
2.374843
 10
-2.382126
 20
2.567373
210
0.0
220
1.0
230
0.0
  0
LWPOLYLINE
  5
45C37
100
AcDbEntity
  8
0
100
AcDbPolyline
 90
        4
 70
     1
 43
0.0
 38
0.174951
 10
-2.957792
 20
2.567373
 10
-2.957792
 20
2.374843
 10
-2.686324
 20
2.374843
 10
-2.686324
 20
2.567373
210
0.0
220
1.0
230
0.0
  0
TEXT
  5
45C38
100
AcDbEntity
  8
0
100
AcDbText
 39
0.001
 10
3.381367
 20
-0.286149
 30
2.692373
 40
0.05
  1
I/6
 72
     1
 11
3.439701
 21
-0.286149
 31
2.692373
100
AcDbText
  0
TEXT
  5
45C39
100
AcDbEntity
  8
0
100
AcDbText
 39
0.001
 10
3.081367
 20
-0.286149
 30
2.692373
 40
0.05
  1
I/5
 72
     1
 11
3.139701
 21
-0.286149
 31
2.692373
100
AcDbText
  0
TEXT
  5
45C3A
100
AcDbEntity
  8
0
100
AcDbText
 39
0.001
 10
3.681367
 20
-0.286149
 30
2.692373
 40
0.05
  1
I/7
 72
     1
 11
3.739701
 21
-0.286149
 31
2.692373
100
AcDbText
  0
LWPOLYLINE
  5
45C3B
100
AcDbEntity
  8
0
100
AcDbPolyline
 90
        4
 70
     1
 43
0.0
 38
0.174951
 10
-3.566189
 20
2.567373
 10
-3.566189
 20
2.374843
 10
-3.294721
 20
2.374843
 10
-3.294721
 20
2.567373
210
0.0
220
1.0
230
0.0
  0
LWPOLYLINE
  5
45C3C
100
AcDbEntity
  8
0
100
AcDbPolyline
 90
        4
 70
     1
 43
0.0
 38
0.174951
 10
-3.261991
 20
2.567373
 10
-3.261991
 20
2.374843
 10
-2.990523
 20
2.374843
 10
-2.990523
 20
2.567373
210
0.0
220
1.0
230
0.0
  0
LWPOLYLINE
  5
45C3D
100
AcDbEntity
  8
0
100
AcDbPolyline
 90
        4
 70
     1
 43
0.0
 38
0.174951
 10
-3.870387
 20
2.567373
 10
-3.870387
 20
2.374843
 10
-3.598919
 20
2.374843
 10
-3.598919
 20
2.567373
210
0.0
220
1.0
230
0.0
  0
LWPOLYLINE
  5
45C3E
100
AcDbEntity
  8
0
100
AcDbPolyline
 90
        4
 70
     1
 43
0.0
 38
2.805
 10
2.243737
 20
-0.946267
 10
2.243737
 20
-0.821267
 10
2.163737
 20
-0.821267
 10
2.163737
 20
-0.946267
  0
LINE
  5
45C3F
100
AcDbEntity
  8
0
100
AcDbLine
 10
2.243737
 20
-0.821267
 30
2.805
 11
2.243737
 21
-0.821267
 31
2.805
  0
TEXT
  5
45C40
100
AcDbEntity
  8
0
100
AcDbText
 10
2.306492
 20
-0.921524
 30
2.8147
 40
0.05
  1
IN
100
AcDbText
  0
TEXT
  5
45C41
100
AcDbEntity
  8
0
100
AcDbText
 39
0.001
 10
4.281367
 20
-0.286149
 30
2.692373
 40
0.05
  1
I/9
 72
     1
 11
4.339701
 21
-0.286149
 31
2.692373
100
AcDbText
  0
TEXT
  5
45C42
100
AcDbEntity
  8
0
100
AcDbText
 39
0.001
 10
3.981367
 20
-0.286149
 30
2.692373
 40
0.05
  1
I/8
 72
     1
 11
4.039701
 21
-0.286149
 31
2.692373
100
AcDbText
  0
LINE
  5
45C43
100
AcDbEntity
  8
0
100
AcDbLine
 10
4.351157
 20
-0.40732
 30
2.6934
 11
4.351157
 21
-0.425033
 31
2.6934
  0
LWPOLYLINE
  5
45C44
100
AcDbEntity
  8
0
100
AcDbPolyline
 90
        4
 70
     1
 43
0.0
 38
0.174951
 10
-4.478783
 20
2.567373
 10
-4.478783
 20
2.374843
 10
-4.207315
 20
2.374843
 10
-4.207315
 20
2.567373
210
0.0
220
1.0
230
0.0
  0
LINE
  5
45C45
100
AcDbEntity
  8
0
100
AcDbLine
 10
4.467
 20
-0.625
 30
2.805
 11
4.547
 21
-0.625
 31
2.805
  0
LINE
  5
45C46
100
AcDbEntity
  8
0
100
AcDbLine
 10
4.467
 20
-0.5
 30
2.805
 11
4.467
 21
-0.625
 31
2.805
  0
DIMENSION
  5
45C47
100
AcDbEntity
  8
AREA1
100
AcDbDimension
  2
*D0
 10
5.368013
 20
-3.138
 30
0.17
 11
5.368013
 21
-1.481525
 31
0.17
 70
    32
  3
ABECAD_3D
100
AcDbAlignedDimension
 13
4.550521
 23
0.174951
 33
2.567373
 14
2.486
 24
-3.138
 34
0.1
 50
90.0
100
AcDbRotatedDimension
  0
DIMENSION
  5
45C55
100
AcDbEntity
  8
AREA1
100
AcDbDimension
  2
*D1
 10
4.571482
 20
0.906241
 30
0.17
 11
2.198241
 21
0.906241
 31
0.17
 70
    32
  3
ABECAD_3D
100
AcDbAlignedDimension
 13
-0.175
 23
0.175
 33
0.17
 14
4.571482
 24
0.174951
 34
2.567373
100
AcDbRotatedDimension
  0
LINE
  5
45CE1
100
AcDbEntity
  8
SCALE
100
AcDbLine
 10
-0.083286
 20
-3.594922
 30
0.0
 11
0.916714
 21
-3.594922
 31
0.0
  0
LINE
  5
45CE2
100
AcDbEntity
  8
SCALE
100
AcDbLine
 10
0.916714
 20
-3.594922
 30
0.0
 11
0.916714
 21
-3.694922
 31
0.0
  0
LINE
  5
45CE3
100
AcDbEntity
  8
SCALE
100
AcDbLine
 10
0.916714
 20
-3.694922
 30
0.0
 11
0.916714
 21
-3.494922
 31
0.0
  0
LINE
  5
45CE4
100
AcDbEntity
  8
SCALE
100
AcDbLine
 10
-0.083286
 20
-3.694922
 30
0.0
 11
-0.083286
 21
-3.494922
 31
0.0
  0
LINE
  5
45CE5
100
AcDbEntity
  8
SCALE
100
AcDbLine
 10
-0.083286
 20
-3.994922
 30
0.0
 11
-0.083286
 21
-3.794922
 31
0.0
  0
LINE
  5
45CE6
100
AcDbEntity
  8
SCALE
100
AcDbLine
 10
0.310414
 20
-3.994922
 30
0.0
 11
0.310414
 21
-3.794922
 31
0.0
  0
LINE
  5
45CE7
100
AcDbEntity
  8
SCALE
100
AcDbLine
 10
-0.083286
 20
-3.894922
 30
0.0
 11
0.310414
 21
-3.894922
 31
0.0
  0
TEXT
  5
45CE8
100
AcDbEntity
  8
SCALE
100
AcDbText
 10
-0.023864
 20
-3.849183
 30
0.0
 40
0.0625
  1
[10mm]
100
AcDbText
  0
TEXT
  5
45CE9
100
AcDbEntity
  8
SCALE
100
AcDbText
 10
0.279997
 20
-3.525874
 30
0.0
 40
0.0625
  1
1 Inch
100
AcDbText
  0
TEXT
  5
45CEA
100
AcDbEntity
  8
SCALE
100
AcDbText
 10
-0.081756
 20
-3.320045
 30
0.0
 40
0.0625
  1
SCALE:
100
AcDbText
  0
LWPOLYLINE
  5
45CEB
100
AcDbEntity
  8
SCALE
100
AcDbPolyline
 90
        4
 70
     1
 43
0.0
 10
-0.141285
 20
-3.214844
 10
0.994344
 20
-3.214844
 10
0.994344
 20
-4.056453
 10
-0.141285
 20
-4.056453
  0
ENDSEC
  0
SECTION
  2
OBJECTS
  0
DICTIONARY
  5
458CB
100
AcDbDictionary
  3
ACAD_GROUP
350
458CC
  3
ACAD_LAYOUT
350
458FB
  3
ACAD_MLINESTYLE
350
458D9
  3
ACAD_PLOTSETTINGS
350
458FC
  3
ACAD_PLOTSTYLENAME
350
458F9
  3
ACDBHEADERROUNDTRIPXREC
350
45D9F
  3
ACDBVARIABLEDICTIONARY
350
458E1
  3
DWGPROPS
350
45901
  0
DICTIONARY
  5
45D9D
100
AcDbDictionary
280
     1
  3
ACAD_XREC_ROUNDTRIP
360
45D9E
  0
DICTIONARY
  5
45DC8
100
AcDbDictionary
280
     1
  3
ACAD_XREC_ROUNDTRIP
360
45DC9
  0
DICTIONARY
  5
45D9B
100
AcDbDictionary
280
     1
  3
ACAD_XREC_ROUNDTRIP
360
45D9C
  0
DICTIONARY
  5
45DC2
100
AcDbDictionary
280
     1
  3
ACAD_XREC_ROUNDTRIP
360
45DC3
  0
DICTIONARY
  5
45DC4
100
AcDbDictionary
280
     1
  3
ACAD_XREC_ROUNDTRIP
360
45DC5
  0
DICTIONARY
  5
4592C
100
AcDbDictionary
280
     1
  3
ACAD_LAYOUTSELFREF
360
45DC1
  0
DICTIONARY
  5
4592A
100
AcDbDictionary
280
     1
  3
ACAD_LAYOUTSELFREF
360
45DC0
  0
DICTIONARY
  5
458CC
102
{ACAD_REACTORS
330
458CB
102
}
100
AcDbDictionary
  0
DICTIONARY
  5
458FB
102
{ACAD_XDICTIONARY
360
45DC6
102
}
102
{ACAD_REACTORS
330
458CB
102
}
100
AcDbDictionary
  3
LAYOUT1
350
458FE
  3
MODEL
350
458FD
  0
DICTIONARY
  5
458D9
102
{ACAD_REACTORS
330
458CB
102
}
100
AcDbDictionary
  3
STANDARD
350
458DA
  0
DICTIONARY
  5
458FC
102
{ACAD_REACTORS
330
458CB
102
}
100
AcDbDictionary
  0
ACAD_PROXY_OBJECT
  5
458F9
102
{ACAD_REACTORS
330
458CB
102
}
100
AcDbProxyObject
 90
      499
 91
      501
 93
       86
310
405010041939BDC9B585B0
350
458FA
340
458FA
 94
        0
  0
DICTIONARY
  5
45D9F
102
{ACAD_REACTORS
330
458CB
102
}
100
AcDbDictionary
  3
CEPSNTYPE
350
45DA9
  3
DIMSTYLEDATA
350
45DAD
  3
FINGERPRINTGUID
350
45DAA
  3
HYPERLINKBASE
350
45DA2
  3
INSUNITS
350
45DA8
  3
LAYOUTDICT
350
45DA4
  3
LWETCUNION
350
45DA7
  3
PLOTSETDICT
350
45DA5
  3
PLOTSTYLNAMDICT
350
45DA6
  3
PSVPSCALE
350
45DAC
  3
PUCSBASE
350
45DB0
  3
PUCSORGBACK
350
45DB6
  3
PUCSORGBOTTOM
350
45DB2
  3
PUCSORGFRONT
350
45DB5
  3
PUCSORGLEFT
350
45DB3
  3
PUCSORGRIGHT
350
45DB4
  3
PUCSORGTOP
350
45DB1
  3
PUCSORTHOREF
350
45DAE
  3
PUCSORTHOVIEW
350
45DAF
  3
STYLESHEET
350
45DA3
  3
TSTACKALIGN
350
45DA0
  3
TSTACKSIZE
350
45DA1
  3
UCSBASE
350
45DB9
  3
UCSORGBACK
350
45DBF
  3
UCSORGBOTTOM
350
45DBB
  3
UCSORGFRONT
350
45DBE
  3
UCSORGLEFT
350
45DBC
  3
UCSORGRIGHT
350
45DBD
  3
UCSORGTOP
350
45DBA
  3
UCSORTHOREF
350
45DB7
  3
UCSORTHOVIEW
350
45DB8
  3
VERSIONGUID
350
45DAB
  0
DICTIONARY
  5
458E1
102
{ACAD_REACTORS
330
458CB
102
}
100
AcDbDictionary
  3
DIMADEC
350
458E2
  0
XRECORD
  5
45901
102
{ACAD_REACTORS
330
458CB
102
}
100
AcDbXrecord
  1
DWGPROPS COOKIE
  2

  3

  4

  6

  7

  8
colin
  9

300
=
301
=
302
=
303
=
304
=
305
=
306
=
307
=
308
=
309
=
 40
0.000599
 41
2451670.444777
 42
2451670.445376
  1

 90
        0
  0
XRECORD
  5
45D9E
102
{ACAD_REACTORS
330
45D9D
102
}
100
AcDbXrecord
102
EXTNAMES
  1
*ACTIVE
  2
*Active
102
UCS
 74
     0
 71
     1
 10
0.0
 20
0.0
 30
0.0
 10
1.0
 20
0.0
 30
0.0
 10
0.0
 20
1.0
 30
0.0
146
0.0
 79
     1
102
VIEW
281
     0
  0
XRECORD
  5
45DC9
102
{ACAD_REACTORS
330
45DC8
102
}
100
AcDbXrecord
102
PLOTBIT
280
     0
  0
XRECORD
  5
45D9C
102
{ACAD_REACTORS
330
45D9B
102
}
100
AcDbXrecord
102
EXTNAMES
  1
DEFPOINTS
  2
Defpoints
102
PLOTBIT
280
     0
  0
XRECORD
  5
45DC3
102
{ACAD_REACTORS
330
45DC2
102
}
100
AcDbXrecord
102
ACADR14ROUNDTRIP
1000
DSTYLE
1002
{
1070
   276
 70
     2
1070
   277
 70
     5
1002
}
  0
XRECORD
  5
45DC5
102
{ACAD_REACTORS
330
45DC4
102
}
100
AcDbXrecord
102
ACADR14ROUNDTRIP
1000
DSTYLE
1002
{
1070
   276
 70
     2
1070
   277
 70
     5
1002
}
  0
XRECORD
  5
45DC1
102
{ACAD_REACTORS
330
4592C
102
}
100
AcDbXrecord
340
458D6
  0
XRECORD
  5
45DC0
102
{ACAD_REACTORS
330
4592A
102
}
100
AcDbXrecord
340
458D3
  0
DICTIONARY
  5
45DC6
100
AcDbDictionary
280
     1
  3
ACAD_XREC_ROUNDTRIP
360
45DC7
  0
ACAD_PROXY_OBJECT
  5
458FE
102
{ACAD_REACTORS
330
458FB
102
}
100
AcDbProxyObject
 90
      499
 91
      503
 93
     1348
310
91D4850204C617365724A65742035303030205365726965732050434C20362C00AAAAAA416AA547D11959985D5B1D08148C4D081C195B88185CDCDA59DB9B595B9D1CCB98DD1891069074C61796F75743140501A800000000000000000000000000000000000000000000A1000000000000008902A6A6A10232D5E076BC551
310
0408CB5781DAF154410232D5E076BC5510408CB5781DAF15C410232D5E076BC5710408CB5781DAF15C40
330
458D3
330
0
340
0
340
0
 94
        0
  0
ACAD_PROXY_OBJECT
  5
458FD
102
{ACAD_REACTORS
330
458FB
102
}
100
AcDbProxyObject
 90
      499
 91
      503
 93
      924
310
91D4850204C617365724A65742035303030205365726965732050434C20362C01AAAAAAAAA547D11959985D5B1D08148C4D081C195B88185CDCDA59DB9B595B9D1CCB98DD18A69054D6F64656C901A800000000000000000000000000000000000000000000A1000000000000008902A6A6AAAA0
330
458D6
330
0
340
0
340
0
 94
        0
  0
MLINESTYLE
  5
458DA
102
{ACAD_REACTORS
330
458D9
102
}
100
AcDbMlineStyle
  2
STANDARD
 70
     0
  3

 62
   256
 51
90.0
 52
90.0
 71
     2
 49
0.5
 62
   256
  6
BYLAYER
 49
-0.5
 62
   256
  6
BYLAYER
  0
ACAD_PROXY_OBJECT
  5
458FA
102
{ACAD_REACTORS
330
458F9
102
}
100
AcDbProxyObject
 90
      499
 91
      502
 93
        0
 94
        0
  0
XRECORD
  5
45DA9
102
{ACAD_REACTORS
330
45D9F
102
}
100
AcDbXrecord
 90
        0
  0
XRECORD
  5
45DAD
102
{ACAD_REACTORS
330
45D9F
102
}
100
AcDbXrecord
1000
DSTYLE
1002
{
1070
   276
 70
     2
1070
   277
 70
     5
1002
}
  0
XRECORD
  5
45DAA
102
{ACAD_REACTORS
330
45D9F
102
}
100
AcDbXrecord
  1
{6E0CF4B8-225E-11D4-A150-00A0CC3303EC}
  0
XRECORD
  5
45DA2
102
{ACAD_REACTORS
330
45D9F
102
}
100
AcDbXrecord
  1

  0
XRECORD
  5
45DA8
102
{ACAD_REACTORS
330
45D9F
102
}
100
AcDbXrecord
 90
        0
  0
XRECORD
  5
45DA4
102
{ACAD_REACTORS
330
45D9F
102
}
100
AcDbXrecord
340
458FB
  0
XRECORD
  5
45DA7
102
{ACAD_REACTORS
330
45D9F
102
}
100
AcDbXrecord
 90
    14877
  0
XRECORD
  5
45DA5
102
{ACAD_REACTORS
330
45D9F
102
}
100
AcDbXrecord
340
458FC
  0
XRECORD
  5
45DA6
102
{ACAD_REACTORS
330
45D9F
102
}
100
AcDbXrecord
340
458F9
  0
XRECORD
  5
45DAC
102
{ACAD_REACTORS
330
45D9F
102
}
100
AcDbXrecord
 40
0.0
  0
XRECORD
  5
45DB0
102
{ACAD_REACTORS
330
45D9F
102
}
100
AcDbXrecord
340
0
  0
XRECORD
  5
45DB6
102
{ACAD_REACTORS
330
45D9F
102
}
100
AcDbXrecord
 10
0.0
 20
0.0
 30
0.0
  0
XRECORD
  5
45DB2
102
{ACAD_REACTORS
330
45D9F
102
}
100
AcDbXrecord
 10
0.0
 20
0.0
 30
0.0
  0
XRECORD
  5
45DB5
102
{ACAD_REACTORS
330
45D9F
102
}
100
AcDbXrecord
 10
0.0
 20
0.0
 30
0.0
  0
XRECORD
  5
45DB3
102
{ACAD_REACTORS
330
45D9F
102
}
100
AcDbXrecord
 10
0.0
 20
0.0
 30
0.0
  0
XRECORD
  5
45DB4
102
{ACAD_REACTORS
330
45D9F
102
}
100
AcDbXrecord
 10
0.0
 20
0.0
 30
0.0
  0
XRECORD
  5
45DB1
102
{ACAD_REACTORS
330
45D9F
102
}
100
AcDbXrecord
 10
0.0
 20
0.0
 30
0.0
  0
XRECORD
  5
45DAE
102
{ACAD_REACTORS
330
45D9F
102
}
100
AcDbXrecord
340
0
  0
XRECORD
  5
45DAF
102
{ACAD_REACTORS
330
45D9F
102
}
100
AcDbXrecord
 70
     0
  0
XRECORD
  5
45DA3
102
{ACAD_REACTORS
330
45D9F
102
}
100
AcDbXrecord
  1

  0
XRECORD
  5
45DA0
102
{ACAD_REACTORS
330
45D9F
102
}
100
AcDbXrecord
 90
        1
  0
XRECORD
  5
45DA1
102
{ACAD_REACTORS
330
45D9F
102
}
100
AcDbXrecord
 90
       70
  0
XRECORD
  5
45DB9
102
{ACAD_REACTORS
330
45D9F
102
}
100
AcDbXrecord
340
0
  0
XRECORD
  5
45DBF
102
{ACAD_REACTORS
330
45D9F
102
}
100
AcDbXrecord
 10
0.0
 20
0.0
 30
0.0
  0
XRECORD
  5
45DBB
102
{ACAD_REACTORS
330
45D9F
102
}
100
AcDbXrecord
 10
0.0
 20
0.0
 30
0.0
  0
XRECORD
  5
45DBE
102
{ACAD_REACTORS
330
45D9F
102
}
100
AcDbXrecord
 10
0.0
 20
0.0
 30
0.0
  0
XRECORD
  5
45DBC
102
{ACAD_REACTORS
330
45D9F
102
}
100
AcDbXrecord
 10
0.0
 20
0.0
 30
0.0
  0
XRECORD
  5
45DBD
102
{ACAD_REACTORS
330
45D9F
102
}
100
AcDbXrecord
 10
0.0
 20
0.0
 30
0.0
  0
XRECORD
  5
45DBA
102
{ACAD_REACTORS
330
45D9F
102
}
100
AcDbXrecord
 10
0.0
 20
0.0
 30
0.0
  0
XRECORD
  5
45DB7
102
{ACAD_REACTORS
330
45D9F
102
}
100
AcDbXrecord
340
0
  0
XRECORD
  5
45DB8
102
{ACAD_REACTORS
330
45D9F
102
}
100
AcDbXrecord
 70
     1
  0
XRECORD
  5
45DAB
102
{ACAD_REACTORS
330
45D9F
102
}
100
AcDbXrecord
  1
{081061FB-9EE9-4B4C-86C5-2026967A2349}
  0
DICTIONARYVAR
  5
458E2
102
{ACAD_REACTORS
330
458E1
102
}
100
DictionaryVariables
280
     0
  1
0
  0
XRECORD
  5
45DC7
102
{ACAD_REACTORS
330
45DC6
102
}
100
AcDbXrecord
102
EXTNAMES
  1
LAYOUT1
  2
Layout1
  1
MODEL
  2
Model
  0
ENDSEC
  0
EOF
