  0
SECTION
  2
HEADER
  9
$ACADVER
  1
AC1014
  9
$ACADMAINTVER
 70
     8
  9
$DWGCODEPAGE
  3
ANSI_1252
  9
$INSBASE
 10
0.0
 20
0.0
 30
0.0
  9
$EXTMIN
 10
-1.060356
 20
-2.992304
 30
0.0
  9
$EXTMAX
 10
8.955959
 20
2.244554
 30
2.8147
  9
$LIMMIN
 10
0.0
 20
0.0
  9
$LIMMAX
 10
12.0
 20
9.0
  9
$ORTHOMODE
 70
     0
  9
$REGENMODE
 70
     1
  9
$FILLMODE
 70
     1
  9
$QTEXTMODE
 70
     0
  9
$MIRRTEXT
 70
     1
  9
$DRAGMODE
 70
     2
  9
$LTSCALE
 40
1.0
  9
$OSMODE
 70
    23
  9
$ATTMODE
 70
     0
  9
$TEXTSIZE
 40
0.2
  9
$TRACEWID
 40
0.05
  9
$TEXTSTYLE
  7
STANDARD
  9
$CLAYER
  8
0
  9
$CELTYPE
  6
BYLAYER
  9
$CECOLOR
 62
   256
  9
$CELTSCALE
 40
1.0
  9
$DELOBJ
 70
     1
  9
$DISPSILH
 70
     0
  9
$DIMSCALE
 40
0.0
  9
$DIMASZ
 40
0.179688
  9
$DIMEXO
 40
0.0625
  9
$DIMDLI
 40
0.375
  9
$DIMRND
 40
0.0
  9
$DIMDLE
 40
0.0
  9
$DIMEXE
 40
0.179688
  9
$DIMTP
 40
0.0
  9
$DIMTM
 40
0.0
  9
$DIMTXT
 40
0.125
  9
$DIMCEN
 40
0.089844
  9
$DIMTSZ
 40
0.0
  9
$DIMTOL
 70
     0
  9
$DIMLIM
 70
     0
  9
$DIMTIH
 70
     0
  9
$DIMTOH
 70
     0
  9
$DIMSE1
 70
     0
  9
$DIMSE2
 70
     0
  9
$DIMTAD
 70
     0
  9
$DIMZIN
 70
     4
  9
$DIMBLK
  1

  9
$DIMASO
 70
     1
  9
$DIMSHO
 70
     1
  9
$DIMPOST
  1

  9
$DIMAPOST
  1

  9
$DIMALT
 70
     1
  9
$DIMALTD
 70
     1
  9
$DIMALTF
 40
25.4
  9
$DIMLFAC
 40
1.0
  9
$DIMTOFL
 70
     0
  9
$DIMTVP
 40
0.0
  9
$DIMTIX
 70
     1
  9
$DIMSOXD
 70
     0
  9
$DIMSAH
 70
     0
  9
$DIMBLK1
  1

  9
$DIMBLK2
  1

  9
$DIMSTYLE
  2
ABECAD_3V
  9
$DIMCLRD
 70
     0
  9
$DIMCLRE
 70
     0
  9
$DIMCLRT
 70
     0
  9
$DIMTFAC
 40
1.5
  9
$DIMGAP
 40
0.09375
  9
$DIMJUST
 70
     0
  9
$DIMSD1
 70
     0
  9
$DIMSD2
 70
     0
  9
$DIMTOLJ
 70
     1
  9
$DIMTZIN
 70
     4
  9
$DIMALTZ
 70
     4
  9
$DIMALTTZ
 70
     4
  9
$DIMFIT
 70
     5
  9
$DIMUPT
 70
     0
  9
$DIMUNIT
 70
     7
  9
$DIMDEC
 70
     6
  9
$DIMTDEC
 70
     6
  9
$DIMALTU
 70
     2
  9
$DIMALTTD
 70
     1
  9
$DIMTXSTY
  7
STANDARD
  9
$DIMAUNIT
 70
     0
  9
$LUNITS
 70
     5
  9
$LUPREC
 70
     6
  9
$SKETCHINC
 40
0.1
  9
$FILLETRAD
 40
0.0
  9
$AUNITS
 70
     0
  9
$AUPREC
 70
     0
  9
$MENU
  1
acad
  9
$ELEVATION
 40
0.0
  9
$PELEVATION
 40
0.0
  9
$THICKNESS
 40
0.0
  9
$LIMCHECK
 70
     0
  9
$BLIPMODE
 70
     0
  9
$CHAMFERA
 40
0.0
  9
$CHAMFERB
 40
0.0
  9
$CHAMFERC
 40
0.0
  9
$CHAMFERD
 40
0.0
  9
$SKPOLY
 70
     0
  9
$TDCREATE
 40
2451670.441490278
  9
$TDUPDATE
 40
2452577.382095139
  9
$TDINDWG
 40
0.0071082176
  9
$TDUSRTIMER
 40
0.0071082176
  9
$USRTIMER
 70
     1
  9
$ANGBASE
 50
0.0
  9
$ANGDIR
 70
     0
  9
$PDMODE
 70
     2
  9
$PDSIZE
 40
0.0
  9
$PLINEWID
 40
0.0
  9
$COORDS
 70
     1
  9
$SPLFRAME
 70
     0
  9
$SPLINETYPE
 70
     6
  9
$SPLINESEGS
 70
     8
  9
$ATTDIA
 70
     0
  9
$ATTREQ
 70
     1
  9
$HANDLING
 70
     1
  9
$HANDSEED
  5
868
  9
$SURFTAB1
 70
     6
  9
$SURFTAB2
 70
     6
  9
$SURFTYPE
 70
     6
  9
$SURFU
 70
     6
  9
$SURFV
 70
     6
  9
$UCSNAME
  2

  9
$UCSORG
 10
0.0
 20
0.0
 30
0.0
  9
$UCSXDIR
 10
1.0
 20
0.0
 30
0.0
  9
$UCSYDIR
 10
0.0
 20
1.0
 30
0.0
  9
$PUCSNAME
  2

  9
$PUCSORG
 10
0.0
 20
0.0
 30
0.0
  9
$PUCSXDIR
 10
1.0
 20
0.0
 30
0.0
  9
$PUCSYDIR
 10
0.0
 20
1.0
 30
0.0
  9
$USERI1
 70
     0
  9
$USERI2
 70
     0
  9
$USERI3
 70
     0
  9
$USERI4
 70
     0
  9
$USERI5
 70
     0
  9
$USERR1
 40
0.0
  9
$USERR2
 40
0.0
  9
$USERR3
 40
0.0
  9
$USERR4
 40
0.0
  9
$USERR5
 40
0.0
  9
$WORLDVIEW
 70
     1
  9
$SHADEDGE
 70
     3
  9
$SHADEDIF
 70
    70
  9
$TILEMODE
 70
     0
  9
$MAXACTVP
 70
    16
  9
$PINSBASE
 10
0.0
 20
0.0
 30
0.0
  9
$PLIMCHECK
 70
     0
  9
$PEXTMIN
 10
0.0
 20
0.0
 30
0.0
  9
$PEXTMAX
 10
10.0
 20
7.5
 30
0.0
  9
$PLIMMIN
 10
-0.187029
 20
-0.186938
  9
$PLIMMAX
 10
10.187518
 20
7.829757
  9
$UNITMODE
 70
     0
  9
$VISRETAIN
 70
     0
  9
$PLINEGEN
 70
     0
  9
$PSLTSCALE
 70
     1
  9
$TREEDEPTH
 70
  3020
  9
$PICKSTYLE
 70
     1
  9
$CMLSTYLE
  2
STANDARD
  9
$CMLJUST
 70
     0
  9
$CMLSCALE
 40
1.0
  9
$PROXYGRAPHICS
 70
     1
  9
$MEASUREMENT
 70
     0
  0
ENDSEC
  0
SECTION
  2
CLASSES
  0
CLASS
  1
DICTIONARYVAR
  2
AcDbDictionaryVar
  3
"AutoCAD"
 90
        0
280
     0
281
     0
  0
CLASS
  1
ACDBDICTIONARYWDFLT
  2
AcDbDictionaryWithDefault
  3
AutoCAD 2000
 90
        0
280
     0
281
     0
  0
CLASS
  1
ACDBPLACEHOLDER
  2
AcDbPlaceHolder
  3
AutoCAD 2000
 90
        0
280
     0
281
     0
  0
CLASS
  1
LAYOUT
  2
AcDbLayout
  3
AutoCAD 2000
 90
        0
280
     0
281
     0
  0
CLASS
  1
LONG_TRANSACTION
  2
AcDbLongTransaction
  3
AutoCAD 2000
 90
        0
280
     0
281
     0
  0
CLASS
  1
LWPOLYLINE
  2
AcDbPolyline
  3
"AutoCAD"
 90
        0
280
     0
281
     1
  0
CLASS
  1
HATCH
  2
AcDbHatch
  3
"ACAD_SEDONA"
 90
        0
280
     0
281
     1
  0
CLASS
  1
XRECORD
  2
AcDbXrecord
  3
"<Built In>"
 90
        0
280
     0
281
     0
  0
CLASS
  1
LONG_TRANSACTION
  2
AcDbLongTransaction
  3
AutoCAD 2000
 90
        0
280
     0
281
     0
  0
CLASS
  1
LWPOLYLINE
  2
AcDbPolyline
  3
"AutoCAD"
 90
        0
280
     0
281
     1
  0
CLASS
  1
HATCH
  2
AcDbHatch
  3
"ACAD_SEDONA"
 90
        0
280
     0
281
     1
  0
CLASS
  1
XRECORD
  2
AcDbXrecord
  3
"<Built In>"
 90
        0
280
     0
281
     0
  0
CLASS
  1
LONG_TRANSACTION
  2
AcDbLongTransaction
  3
AutoCAD 2000
 90
        0
280
     0
281
     0
  0
CLASS
  1
LWPOLYLINE
  2
AcDbPolyline
  3
"AutoCAD"
 90
        0
280
     0
281
     1
  0
CLASS
  1
HATCH
  2
AcDbHatch
  3
"ACAD_SEDONA"
 90
        0
280
     0
281
     1
  0
CLASS
  1
XRECORD
  2
AcDbXrecord
  3
"<Built In>"
 90
        0
280
     0
281
     0
  0
CLASS
  1
LONG_TRANSACTION
  2
AcDbLongTransaction
  3
AutoCAD 2000
 90
        0
280
     0
281
     0
  0
CLASS
  1
LWPOLYLINE
  2
AcDbPolyline
  3
"AutoCAD"
 90
        0
280
     0
281
     1
  0
CLASS
  1
HATCH
  2
AcDbHatch
  3
"ACAD_SEDONA"
 90
        0
280
     0
281
     1
  0
CLASS
  1
XRECORD
  2
AcDbXrecord
  3
"<Built In>"
 90
        0
280
     0
281
     0
  0
CLASS
  1
LONG_TRANSACTION
  2
AcDbLongTransaction
  3
AutoCAD 2000
 90
        0
280
     0
281
     0
  0
CLASS
  1
LWPOLYLINE
  2
AcDbPolyline
  3
"AutoCAD"
 90
        0
280
     0
281
     1
  0
CLASS
  1
HATCH
  2
AcDbHatch
  3
"ACAD_SEDONA"
 90
        0
280
     0
281
     1
  0
CLASS
  1
XRECORD
  2
AcDbXrecord
  3
"<Built In>"
 90
        0
280
     0
281
     0
  0
CLASS
  1
LONG_TRANSACTION
  2
AcDbLongTransaction
  3
AutoCAD 2000
 90
        0
280
     0
281
     0
  0
CLASS
  1
LWPOLYLINE
  2
AcDbPolyline
  3
"AutoCAD"
 90
        0
280
     0
281
     1
  0
CLASS
  1
HATCH
  2
AcDbHatch
  3
"ACAD_SEDONA"
 90
        0
280
     0
281
     1
  0
CLASS
  1
XRECORD
  2
AcDbXrecord
  3
"<Built In>"
 90
        0
280
     0
281
     0
  0
CLASS
  1
LONG_TRANSACTION
  2
AcDbLongTransaction
  3
AutoCAD 2000
 90
        0
280
     0
281
     0
  0
CLASS
  1
LWPOLYLINE
  2
AcDbPolyline
  3
"AutoCAD"
 90
        0
280
     0
281
     1
  0
CLASS
  1
HATCH
  2
AcDbHatch
  3
"ACAD_SEDONA"
 90
        0
280
     0
281
     1
  0
CLASS
  1
XRECORD
  2
AcDbXrecord
  3
"<Built In>"
 90
        0
280
     0
281
     0
  0
ENDSEC
  0
SECTION
  2
TABLES
  0
TABLE
  2
VPORT
  5
469
100
AcDbSymbolTable
 70
     1
  0
VPORT
  5
73B
102
{ACAD_XDICTIONARY
360
82E
102
}
100
AcDbSymbolTableRecord
100
AcDbViewportTableRecord
  2
*ACTIVE
 70
     0
 10
0.0
 20
0.0
 11
1.0
 21
1.0
 12
3.947801
 22
-0.373875
 13
0.0
 23
0.0
 14
1.0
 24
1.0
 15
0.0
 25
0.0
 16
0.0
 26
0.0
 36
1.0
 17
0.0
 27
0.0
 37
0.0
 40
5.346339
 41
2.531469
 42
50.0
 43
0.0
 44
0.0
 50
0.0
 51
0.0
 71
     0
 72
   100
 73
     1
 74
     1
 75
     0
 76
     0
 77
     0
 78
     0
  0
ENDTAB
  0
TABLE
  2
LTYPE
  5
466
100
AcDbSymbolTable
 70
     1
  0
LTYPE
  5
472
100
AcDbSymbolTableRecord
100
AcDbLinetypeTableRecord
  2
BYBLOCK
 70
     0
  3

 72
    65
 73
     0
 40
0.0
  0
LTYPE
  5
473
100
AcDbSymbolTableRecord
100
AcDbLinetypeTableRecord
  2
BYLAYER
 70
     0
  3

 72
    65
 73
     0
 40
0.0
  0
LTYPE
  5
474
100
AcDbSymbolTableRecord
100
AcDbLinetypeTableRecord
  2
CONTINUOUS
 70
     0
  3
Solid line
 72
    65
 73
     0
 40
0.0
  0
ENDTAB
  0
TABLE
  2
LAYER
  5
463
100
AcDbSymbolTable
 70
     8
  0
LAYER
  5
46F
100
AcDbSymbolTableRecord
100
AcDbLayerTableRecord
  2
0
 70
     0
 62
     7
  6
CONTINUOUS
  0
LAYER
  5
485
100
AcDbSymbolTableRecord
100
AcDbLayerTableRecord
  2
AREA1
 70
     0
 62
     7
  6
CONTINUOUS
  0
LAYER
  5
486
100
AcDbSymbolTableRecord
100
AcDbLayerTableRecord
  2
AREA2
 70
     0
 62
     7
  6
CONTINUOUS
  0
LAYER
  5
494
102
{ACAD_XDICTIONARY
360
85B
102
}
100
AcDbSymbolTableRecord
100
AcDbLayerTableRecord
  2
DEFPOINTS
 70
     0
 62
    -7
  6
CONTINUOUS
  0
LAYER
  5
495
100
AcDbSymbolTableRecord
100
AcDbLayerTableRecord
  2
DIMS-MTG-HOLES
 70
     0
 62
    -1
  6
CONTINUOUS
  0
LAYER
  5
4E9
100
AcDbSymbolTableRecord
100
AcDbLayerTableRecord
  2
SCALE
 70
     0
 62
    -7
  6
CONTINUOUS
  0
LAYER
  5
4EA
100
AcDbSymbolTableRecord
100
AcDbLayerTableRecord
  2
SNAP_POINTS
 70
     0
 62
    -1
  6
CONTINUOUS
  0
LAYER
  5
55F
100
AcDbSymbolTableRecord
100
AcDbLayerTableRecord
  2
ATTRIBUTES
 70
     0
 62
    -7
  6
CONTINUOUS
  0
ENDTAB
  0
TABLE
  2
STYLE
  5
464
100
AcDbSymbolTable
 70
     1
  0
STYLE
  5
470
100
AcDbSymbolTableRecord
100
AcDbTextStyleTableRecord
  2
STANDARD
 70
     0
 40
0.0
 41
1.0
 50
0.0
 71
     0
 42
0.2
  3
txt
  4

  0
ENDTAB
  0
TABLE
  2
VIEW
  5
467
100
AcDbSymbolTable
 70
     0
  0
ENDTAB
  0
TABLE
  2
UCS
  5
468
100
AcDbSymbolTable
 70
     0
  0
ENDTAB
  0
TABLE
  2
APPID
  5
46A
100
AcDbSymbolTable
 70
     2
  0
APPID
  5
471
100
AcDbSymbolTableRecord
100
AcDbRegAppTableRecord
  2
ACAD
 70
     0
  0
APPID
  5
47E
100
AcDbSymbolTableRecord
100
AcDbRegAppTableRecord
  2
AVE_RENDER
 70
     0
  0
ENDTAB
  0
TABLE
  2
DIMSTYLE
  5
46B
100
AcDbSymbolTable
 70
     3
  0
DIMSTYLE
105
496
102
{ACAD_XDICTIONARY
360
85D
102
}
100
AcDbSymbolTableRecord
100
AcDbDimStyleTableRecord
  2
ABECAD
 70
     0
  3

  4

  5

  6

  7

 40
0.0
 41
0.179688
 42
0.0625
 43
0.375
 44
0.179688
 45
0.0
 46
0.0
 47
0.0
 48
0.0
140
0.125
141
0.089844
142
0.0
143
25.4
144
1.0
145
0.0
146
1.5
147
0.09375
 71
     0
 72
     0
 73
     0
 74
     0
 75
     0
 76
     0
 77
     0
 78
     4
170
     1
171
     1
172
     0
173
     0
174
     1
175
     0
176
     0
177
     0
178
     0
270
     7
271
     6
272
     6
273
     2
274
     1
340
470
275
     0
280
     0
281
     0
282
     0
283
     1
284
     4
285
     4
286
     4
287
     5
288
     0
  0
DIMSTYLE
105
49A
102
{ACAD_XDICTIONARY
360
85F
102
}
102
{ACAD_REACTORS
330
72D
102
}
100
AcDbSymbolTableRecord
100
AcDbDimStyleTableRecord
  2
ABECAD_3V
 70
     0
  3

  4

  5

  6

  7

 40
0.0
 41
0.179688
 42
0.0625
 43
0.375
 44
0.179688
 45
0.0
 46
0.0
 47
0.0
 48
0.0
140
0.125
141
0.089844
142
0.0
143
25.4
144
1.0
145
0.0
146
1.5
147
0.09375
 71
     0
 72
     0
 73
     0
 74
     0
 75
     0
 76
     0
 77
     0
 78
     4
170
     1
171
     1
172
     0
173
     0
174
     1
175
     0
176
     0
177
     0
178
     0
270
     7
271
     6
272
     6
273
     2
274
     1
340
470
275
     0
280
     0
281
     0
282
     0
283
     1
284
     4
285
     4
286
     4
287
     5
288
     0
  0
DIMSTYLE
105
560
102
{ACAD_XDICTIONARY
360
863
102
}
102
{ACAD_REACTORS
330
713
330
714
102
}
100
AcDbSymbolTableRecord
100
AcDbDimStyleTableRecord
  2
ABECAD_3D
 70
     0
  3

  4

  5

  6

  7

 40
1.0
 41
0.18
 42
0.0625
 43
0.375
 44
0.18
 45
0.0
 46
0.0
 47
0.0
 48
0.0
140
0.18
141
0.09
142
0.0
143
25.4
144
1.0
145
0.0
146
1.5
147
0.09
 71
     0
 72
     0
 73
     0
 74
     1
 75
     0
 76
     0
 77
     0
 78
     4
170
     1
171
     1
172
     0
173
     0
174
     0
175
     0
176
     0
177
     0
178
     0
270
     7
271
     6
272
     6
273
     2
274
     1
340
470
275
     0
280
     0
281
     0
282
     0
283
     1
284
     4
285
     4
286
     4
287
     3
288
     0
  0
ENDTAB
  0
TABLE
  2
BLOCK_RECORD
  5
462
100
AcDbSymbolTable
 70
     4
  0
BLOCK_RECORD
  5
478
102
{ACAD_XDICTIONARY
360
4D2
102
}
100
AcDbSymbolTableRecord
100
AcDbBlockTableRecord
  2
*MODEL_SPACE
  0
BLOCK_RECORD
  5
475
102
{ACAD_XDICTIONARY
360
4D0
102
}
100
AcDbSymbolTableRecord
100
AcDbBlockTableRecord
  2
*PAPER_SPACE
  0
BLOCK_RECORD
  5
545
100
AcDbSymbolTableRecord
100
AcDbBlockTableRecord
  2
*D0
  0
BLOCK_RECORD
  5
552
100
AcDbSymbolTableRecord
100
AcDbBlockTableRecord
  2
*D1
  0
BLOCK_RECORD
  5
561
102
{ACAD_XDICTIONARY
360
82C
102
}
100
AcDbSymbolTableRecord
100
AcDbBlockTableRecord
  2
ABIOL020
  0
BLOCK_RECORD
  5
72E
100
AcDbSymbolTableRecord
100
AcDbBlockTableRecord
  2
*D3
  0
ENDTAB
  0
ENDSEC
  0
SECTION
  2
BLOCKS
  0
BLOCK
  5
48B
100
AcDbEntity
  8
0
100
AcDbBlockBegin
  2
*MODEL_SPACE
 70
     0
 10
0.0
 20
0.0
 30
0.0
  3
*MODEL_SPACE
  1

  0
ENDBLK
  5
48C
100
AcDbEntity
  8
0
100
AcDbBlockEnd
  0
BLOCK
  5
489
100
AcDbEntity
 67
     1
  8
0
100
AcDbBlockBegin
  2
*PAPER_SPACE
 70
     0
 10
0.0
 20
0.0
 30
0.0
  3
*PAPER_SPACE
  1

  0
ENDBLK
  5
48A
100
AcDbEntity
 67
     1
  8
0
100
AcDbBlockEnd
  0
BLOCK
  5
550
100
AcDbEntity
  8
0
100
AcDbBlockBegin
  2
*D0
 70
     1
 10
0.0
 20
0.0
 30
0.0
  3
*D0
  1

  0
LINE
  5
546
100
AcDbEntity
  8
AREA1
 62
     0
100
AcDbLine
 10
0.0
 20
1.3435
 30
0.0
 11
0.0
 21
2.244554
 31
0.0
1001
ACAD
1000
RTLwPs
1070
   158
  0
LINE
  5
547
100
AcDbEntity
  8
AREA1
 62
     0
100
AcDbLine
 10
7.876
 20
1.310974
 30
0.0
 11
7.876
 21
2.244554
 31
0.0
1001
ACAD
1000
RTLwPs
1070
   158
  0
LINE
  5
548
100
AcDbEntity
  8
AREA1
 62
     0
100
AcDbLine
 10
0.18
 20
2.064554
 30
0.0
 11
2.888
 21
2.064554
 31
0.0
1001
ACAD
1000
RTLwPs
1070
   158
  0
LINE
  5
549
100
AcDbEntity
  8
AREA1
 62
     0
100
AcDbLine
 10
7.696
 20
2.064554
 30
0.0
 11
4.988
 21
2.064554
 31
0.0
1001
ACAD
1000
RTLwPs
1070
   158
  0
SOLID
  5
54A
100
AcDbEntity
  8
AREA1
 62
     0
100
AcDbTrace
 10
0.18
 20
2.094554
 30
0.0
 11
0.18
 21
2.034554
 31
0.0
 12
0.0
 22
2.064554
 32
0.0
 13
0.0
 23
2.064554
 33
0.0
  0
SOLID
  5
54B
100
AcDbEntity
  8
AREA1
 62
     0
100
AcDbTrace
 10
7.696
 20
2.094554
 30
0.0
 11
7.696
 21
2.034554
 31
0.0
 12
7.876
 22
2.064554
 32
0.0
 13
7.876
 23
2.064554
 33
0.0
  0
MTEXT
  5
54C
100
AcDbEntity
  8
AREA1
 62
     0
100
AcDbMText
 10
3.938
 20
2.064554
 30
0.0
 40
0.18
 41
0.0
 71
     5
 72
     1
  1
\A1;7 7/8 [200.1]
1001
ACAD
1000
MTEXTBEGIN
1070
    73
1070
     1
1070
    44
1040
1.0
1070
    74
1070
     0
1000
MTEXTEND
1000
MTEXTBEGIN
1070
    73
1070
     1
1070
    44
1040
1.0
1070
    74
1070
     0
1000
MTEXTEND
1000
MTEXTBEGIN
1070
    73
1070
     1
1070
    44
1040
1.0
1070
    74
1070
     0
1000
MTEXTEND
1000
MTEXTBEGIN
1070
    73
1070
     1
1070
    44
1040
1.0
1070
    74
1070
     0
1000
MTEXTEND
1000
MTEXTBEGIN
1070
    73
1070
     1
1070
    44
1040
1.0
1070
    74
1070
     0
1000
MTEXTEND
1000
MTEXTBEGIN
1070
    73
1070
     1
1070
    44
1040
1.0
1070
    74
1070
     0
1000
MTEXTEND
1000
MTEXTBEGIN
1070
    73
1070
     1
1070
    44
1040
1.0
1070
    74
1070
     0
1000
MTEXTEND
  0
POINT
  5
54D
100
AcDbEntity
  8
DEFPOINTS
 62
     0
100
AcDbPoint
 10
0.0
 20
1.281
 30
0.0
  0
POINT
  5
54E
100
AcDbEntity
  8
DEFPOINTS
 62
     0
100
AcDbPoint
 10
7.876
 20
1.248474
 30
0.147
  0
POINT
  5
54F
100
AcDbEntity
  8
DEFPOINTS
 62
     0
100
AcDbPoint
 10
7.876
 20
2.064554
 30
0.0
  0
ENDBLK
  5
551
100
AcDbEntity
  8
0
100
AcDbBlockEnd
  0
BLOCK
  5
55D
100
AcDbEntity
  8
0
100
AcDbBlockBegin
  2
*D1
 70
     1
 10
0.0
 20
0.0
 30
0.0
  3
*D1
  1

  0
LINE
  5
553
100
AcDbEntity
  8
AREA1
 62
     0
100
AcDbLine
 10
7.9385
 20
1.280951
 30
0.0
 11
8.955959
 21
1.280951
 31
0.0
1001
ACAD
1000
RTLwPs
1070
   158
  0
LINE
  5
554
100
AcDbEntity
  8
AREA1
 62
     0
100
AcDbLine
 10
6.0025
 20
-2.032
 30
0.0
 11
8.955959
 21
-2.032
 31
0.0
1001
ACAD
1000
RTLwPs
1070
   158
  0
LINE
  5
555
100
AcDbEntity
  8
AREA1
 62
     0
100
AcDbLine
 10
8.775959
 20
1.100951
 30
0.0
 11
8.775959
 21
0.674475
 31
0.0
1001
ACAD
1000
RTLwPs
1070
   158
  0
LINE
  5
556
100
AcDbEntity
  8
AREA1
 62
     0
100
AcDbLine
 10
8.775959
 20
-1.852
 30
0.0
 11
8.775959
 21
-1.425525
 31
0.0
1001
ACAD
1000
RTLwPs
1070
   158
  0
SOLID
  5
557
100
AcDbEntity
  8
AREA1
 62
     0
100
AcDbTrace
 10
8.745959
 20
1.100951
 30
0.0
 11
8.805959
 21
1.100951
 31
0.0
 12
8.775959
 22
1.280951
 32
0.0
 13
8.775959
 23
1.280951
 33
0.0
  0
SOLID
  5
558
100
AcDbEntity
  8
AREA1
 62
     0
100
AcDbTrace
 10
8.745959
 20
-1.852
 30
0.0
 11
8.805959
 21
-1.852
 31
0.0
 12
8.775959
 22
-2.032
 32
0.0
 13
8.775959
 23
-2.032
 33
0.0
  0
MTEXT
  5
559
100
AcDbEntity
  8
AREA1
 62
     0
100
AcDbMText
 10
8.775959
 20
-0.375525
 30
0.0
 40
0.18
 41
0.0
 71
     5
 72
     1
  1
\A1;3 5/16 [84.1]
 11
0.0
 21
1.0
 31
0.0
1001
ACAD
1000
MTEXTBEGIN
1070
    73
1070
     1
1070
    44
1040
1.0
1070
    74
1070
     0
1000
MTEXTEND
1000
MTEXTBEGIN
1070
    73
1070
     1
1070
    44
1040
1.0
1070
    74
1070
     0
1000
MTEXTEND
1000
MTEXTBEGIN
1070
    73
1070
     1
1070
    44
1040
1.0
1070
    74
1070
     0
1000
MTEXTEND
1000
MTEXTBEGIN
1070
    73
1070
     1
1070
    44
1040
1.0
1070
    74
1070
     0
1000
MTEXTEND
1000
MTEXTBEGIN
1070
    73
1070
     1
1070
    44
1040
1.0
1070
    74
1070
     0
1000
MTEXTEND
1000
MTEXTBEGIN
1070
    73
1070
     1
1070
    44
1040
1.0
1070
    74
1070
     0
1000
MTEXTEND
1000
MTEXTBEGIN
1070
    73
1070
     1
1070
    44
1040
1.0
1070
    74
1070
     0
1000
MTEXTEND
  0
POINT
  5
55A
100
AcDbEntity
  8
DEFPOINTS
 62
     0
100
AcDbPoint
 10
7.876
 20
1.280951
 30
2.204843
  0
POINT
  5
55B
100
AcDbEntity
  8
DEFPOINTS
 62
     0
100
AcDbPoint
 10
5.94
 20
-2.032
 30
-0.07
  0
POINT
  5
55C
100
AcDbEntity
  8
DEFPOINTS
 62
     0
100
AcDbPoint
 10
8.775959
 20
-2.032
 30
0.0
  0
ENDBLK
  5
55E
100
AcDbEntity
  8
0
100
AcDbBlockEnd
  0
BLOCK
  5
720
100
AcDbEntity
  8
0
100
AcDbBlockBegin
  2
ABIOL020
 70
     2
 10
0.0
 20
0.0
 30
0.0
  3
ABIOL020
  1

  0
ATTDEF
  5
562
100
AcDbEntity
  8
ATTRIBUTES
100
AcDbText
 10
0.120904
 20
0.744001
 30
0.0
 40
0.15
  1
ALLEN-BRADLEY
100
AcDbAttributeDefinition
  3
MANUFACTURER NAME?
  2
AC_VND_LABEL
 70
     1
  0
ATTDEF
  5
563
100
AcDbEntity
  8
ATTRIBUTES
100
AcDbText
 10
0.120904
 20
0.431501
 30
0.0
 40
0.15
  1
1761-L32 AWA
100
AcDbAttributeDefinition
  3
CATALOG NUMBER?
  2
AC_PART_NO
 70
     1
  0
ATTDEF
  5
564
100
AcDbEntity
  8
ATTRIBUTES
100
AcDbText
 10
0.120904
 20
0.119001
 30
0.0
 40
0.15
  1
1761-L32 AWA: AC RELAY
100
AcDbAttributeDefinition
  3
PART DESCRIPTION?
  2
AC_DESCRIPTION
 70
     1
  0
ATTDEF
  5
565
100
AcDbEntity
  8
ATTRIBUTES
100
AcDbText
 10
0.120904
 20
-0.193499
 30
0.0
 40
0.15
  1

100
AcDbAttributeDefinition
  3
DEVICE ID?
  2
DEVICE_ID
 70
     1
  0
ATTDEF
  5
566
100
AcDbEntity
  8
ATTRIBUTES
100
AcDbText
 10
0.120904
 20
-0.505999
 30
0.0
 40
0.15
  1

100
AcDbAttributeDefinition
  3
CUSTOMER PART NUMBER?
  2
AC_CPART_NO
 70
     1
  0
ATTDEF
  5
567
100
AcDbEntity
  8
ATTRIBUTES
100
AcDbText
 10
0.120904
 20
-0.818499
 30
0.0
 40
0.15
  1

100
AcDbAttributeDefinition
  3
CUSTOMER NOTE?
  2
AC_NOTE
 70
     1
  0
ATTDEF
  5
568
100
AcDbEntity
  8
ATTRIBUTES
100
AcDbText
 10
0.120904
 20
-1.130999
 30
0.0
 40
0.15
  1

100
AcDbAttributeDefinition
  3
FASTENER DATA?
  2
FASTENER
 70
     1
  0
ATTDEF
  5
569
100
AcDbEntity
  8
ATTRIBUTES
100
AcDbText
 10
0.120904
 20
-1.443499
 30
0.0
 40
0.15
  1
INCH
100
AcDbAttributeDefinition
  3
UNIT OF SCALE?
  2
AC_SCALE_UNIT
 70
     1
  0
ATTDEF
  5
56A
100
AcDbEntity
  8
ATTRIBUTES
100
AcDbText
 10
0.120904
 20
-1.755999
 30
0.0
 40
0.15
  1
0
100
AcDbAttributeDefinition
  3
VIEW CODE?
  2
AC_VIEW_CODE
 70
     1
  0
LINE
  5
56B
100
AcDbEntity
  8
0
100
AcDbLine
 10
2.81708
 20
0.680967
 30
2.6934
 11
7.627843
 21
0.680967
 31
2.6934
  0
TEXT
  5
56C
100
AcDbEntity
  8
0
100
AcDbText
 39
0.001
 10
5.958101
 20
-1.392049
 30
2.692373
 40
0.05
  1
VAC
 72
     1
 11
6.033101
 21
-1.392049
 31
2.692373
100
AcDbText
  0
TEXT
  5
56D
100
AcDbEntity
  8
0
100
AcDbText
 39
0.001
 10
5.958101
 20
-1.492049
 30
2.692373
 40
0.05
  1
VDC
 72
     1
 11
6.033101
 21
-1.492049
 31
2.692373
100
AcDbText
  0
POLYLINE
  5
56E
100
AcDbEntity
  8
0
100
AcDbPolygonMesh
 66
     1
 10
0.0
 20
0.0
 30
0.0
 70
    16
 71
     6
 72
     3
  0
VERTEX
  5
56F
100
AcDbEntity
  8
0
100
AcDbVertex
100
AcDbPolygonMeshVertex
 10
7.876
 20
0.931
 30
2.595
 70
    64
  0
VERTEX
  5
570
100
AcDbEntity
  8
0
100
AcDbVertex
100
AcDbPolygonMeshVertex
 10
7.876
 20
0.931
 30
0.317
 70
    64
  0
VERTEX
  5
571
100
AcDbEntity
  8
0
100
AcDbVertex
100
AcDbPolygonMeshVertex
 10
7.876
 20
0.931
 30
0.317
 70
    64
  0
VERTEX
  5
572
100
AcDbEntity
  8
0
100
AcDbVertex
100
AcDbPolygonMeshVertex
 10
0.35
 20
0.931
 30
2.595
 70
    64
  0
VERTEX
  5
573
100
AcDbEntity
  8
0
100
AcDbVertex
100
AcDbPolygonMeshVertex
 10
0.35
 20
0.931
 30
0.317
 70
    64
  0
VERTEX
  5
574
100
AcDbEntity
  8
0
100
AcDbVertex
100
AcDbPolygonMeshVertex
 10
0.35
 20
0.931
 30
0.317
 70
    64
  0
VERTEX
  5
575
100
AcDbEntity
  8
0
100
AcDbVertex
100
AcDbPolygonMeshVertex
 10
0.35
 20
1.281
 30
2.595
 70
    64
  0
VERTEX
  5
576
100
AcDbEntity
  8
0
100
AcDbVertex
100
AcDbPolygonMeshVertex
 10
0.35
 20
1.281
 30
0.317
 70
    64
  0
VERTEX
  5
577
100
AcDbEntity
  8
0
100
AcDbVertex
100
AcDbPolygonMeshVertex
 10
0.35
 20
0.931
 30
0.317
 70
    64
  0
VERTEX
  5
578
100
AcDbEntity
  8
0
100
AcDbVertex
100
AcDbPolygonMeshVertex
 10
7.876
 20
1.281
 30
2.595
 70
    64
  0
VERTEX
  5
579
100
AcDbEntity
  8
0
100
AcDbVertex
100
AcDbPolygonMeshVertex
 10
7.876
 20
1.281
 30
0.317
 70
    64
  0
VERTEX
  5
57A
100
AcDbEntity
  8
0
100
AcDbVertex
100
AcDbPolygonMeshVertex
 10
7.876
 20
0.931
 30
0.317
 70
    64
  0
VERTEX
  5
57B
100
AcDbEntity
  8
0
100
AcDbVertex
100
AcDbPolygonMeshVertex
 10
7.876
 20
1.281
 30
2.595
 70
    64
  0
VERTEX
  5
57C
100
AcDbEntity
  8
0
100
AcDbVertex
100
AcDbPolygonMeshVertex
 10
7.876
 20
1.281
 30
2.595
 70
    64
  0
VERTEX
  5
57D
100
AcDbEntity
  8
0
100
AcDbVertex
100
AcDbPolygonMeshVertex
 10
7.876
 20
0.931
 30
2.595
 70
    64
  0
VERTEX
  5
57E
100
AcDbEntity
  8
0
100
AcDbVertex
100
AcDbPolygonMeshVertex
 10
0.35
 20
1.281
 30
2.595
 70
    64
  0
VERTEX
  5
57F
100
AcDbEntity
  8
0
100
AcDbVertex
100
AcDbPolygonMeshVertex
 10
0.35
 20
1.281
 30
2.595
 70
    64
  0
VERTEX
  5
580
100
AcDbEntity
  8
0
100
AcDbVertex
100
AcDbPolygonMeshVertex
 10
0.35
 20
0.931
 30
2.595
 70
    64
  0
SEQEND
  5
581
100
AcDbEntity
  8
0
  0
POLYLINE
  5
582
100
AcDbEntity
  8
0
100
AcDbPolygonMesh
 66
     1
 10
0.0
 20
0.0
 30
0.0
 70
    16
 71
     6
 72
     3
  0
VERTEX
  5
583
100
AcDbEntity
  8
0
100
AcDbVertex
100
AcDbPolygonMeshVertex
 10
7.876
 20
-1.532
 30
2.595
 70
    64
  0
VERTEX
  5
584
100
AcDbEntity
  8
0
100
AcDbVertex
100
AcDbPolygonMeshVertex
 10
7.876
 20
-1.532
 30
0.317
 70
    64
  0
VERTEX
  5
585
100
AcDbEntity
  8
0
100
AcDbVertex
100
AcDbPolygonMeshVertex
 10
7.876
 20
-1.532
 30
0.317
 70
    64
  0
VERTEX
  5
586
100
AcDbEntity
  8
0
100
AcDbVertex
100
AcDbPolygonMeshVertex
 10
0.0
 20
-1.532
 30
2.595
 70
    64
  0
VERTEX
  5
587
100
AcDbEntity
  8
0
100
AcDbVertex
100
AcDbPolygonMeshVertex
 10
0.0
 20
-1.532
 30
0.317
 70
    64
  0
VERTEX
  5
588
100
AcDbEntity
  8
0
100
AcDbVertex
100
AcDbPolygonMeshVertex
 10
0.0
 20
-1.532
 30
0.317
 70
    64
  0
VERTEX
  5
589
100
AcDbEntity
  8
0
100
AcDbVertex
100
AcDbPolygonMeshVertex
 10
0.0
 20
0.931
 30
2.595
 70
    64
  0
VERTEX
  5
58A
100
AcDbEntity
  8
0
100
AcDbVertex
100
AcDbPolygonMeshVertex
 10
0.0
 20
0.931
 30
0.317
 70
    64
  0
VERTEX
  5
58B
100
AcDbEntity
  8
0
100
AcDbVertex
100
AcDbPolygonMeshVertex
 10
0.0
 20
-1.532
 30
0.317
 70
    64
  0
VERTEX
  5
58C
100
AcDbEntity
  8
0
100
AcDbVertex
100
AcDbPolygonMeshVertex
 10
7.876
 20
0.931
 30
2.595
 70
    64
  0
VERTEX
  5
58D
100
AcDbEntity
  8
0
100
AcDbVertex
100
AcDbPolygonMeshVertex
 10
7.876
 20
0.931
 30
0.317
 70
    64
  0
VERTEX
  5
58E
100
AcDbEntity
  8
0
100
AcDbVertex
100
AcDbPolygonMeshVertex
 10
7.876
 20
-1.532
 30
0.317
 70
    64
  0
VERTEX
  5
58F
100
AcDbEntity
  8
0
100
AcDbVertex
100
AcDbPolygonMeshVertex
 10
7.876
 20
0.931
 30
2.595
 70
    64
  0
VERTEX
  5
590
100
AcDbEntity
  8
0
100
AcDbVertex
100
AcDbPolygonMeshVertex
 10
7.876
 20
0.931
 30
2.595
 70
    64
  0
VERTEX
  5
591
100
AcDbEntity
  8
0
100
AcDbVertex
100
AcDbPolygonMeshVertex
 10
7.876
 20
-1.532
 30
2.595
 70
    64
  0
VERTEX
  5
592
100
AcDbEntity
  8
0
100
AcDbVertex
100
AcDbPolygonMeshVertex
 10
0.0
 20
0.931
 30
2.595
 70
    64
  0
VERTEX
  5
593
100
AcDbEntity
  8
0
100
AcDbVertex
100
AcDbPolygonMeshVertex
 10
0.0
 20
0.931
 30
2.595
 70
    64
  0
VERTEX
  5
594
100
AcDbEntity
  8
0
100
AcDbVertex
100
AcDbPolygonMeshVertex
 10
0.0
 20
-1.532
 30
2.595
 70
    64
  0
SEQEND
  5
595
100
AcDbEntity
  8
0
  0
POLYLINE
  5
596
100
AcDbEntity
  8
0
100
AcDbPolygonMesh
 66
     1
 10
0.0
 20
0.0
 30
0.0
 70
    16
 71
     6
 72
     3
  0
VERTEX
  5
597
100
AcDbEntity
  8
0
100
AcDbVertex
100
AcDbPolygonMeshVertex
 10
7.526
 20
-1.882
 30
2.595
 70
    64
  0
VERTEX
  5
598
100
AcDbEntity
  8
0
100
AcDbVertex
100
AcDbPolygonMeshVertex
 10
7.526
 20
-1.882
 30
0.317
 70
    64
  0
VERTEX
  5
599
100
AcDbEntity
  8
0
100
AcDbVertex
100
AcDbPolygonMeshVertex
 10
7.526
 20
-1.882
 30
0.317
 70
    64
  0
VERTEX
  5
59A
100
AcDbEntity
  8
0
100
AcDbVertex
100
AcDbPolygonMeshVertex
 10
0.0
 20
-1.882
 30
2.595
 70
    64
  0
VERTEX
  5
59B
100
AcDbEntity
  8
0
100
AcDbVertex
100
AcDbPolygonMeshVertex
 10
0.0
 20
-1.882
 30
0.317
 70
    64
  0
VERTEX
  5
59C
100
AcDbEntity
  8
0
100
AcDbVertex
100
AcDbPolygonMeshVertex
 10
0.0
 20
-1.882
 30
0.317
 70
    64
  0
VERTEX
  5
59D
100
AcDbEntity
  8
0
100
AcDbVertex
100
AcDbPolygonMeshVertex
 10
0.0
 20
-1.532
 30
2.595
 70
    64
  0
VERTEX
  5
59E
100
AcDbEntity
  8
0
100
AcDbVertex
100
AcDbPolygonMeshVertex
 10
0.0
 20
-1.532
 30
0.317
 70
    64
  0
VERTEX
  5
59F
100
AcDbEntity
  8
0
100
AcDbVertex
100
AcDbPolygonMeshVertex
 10
0.0
 20
-1.882
 30
0.317
 70
    64
  0
VERTEX
  5
5A0
100
AcDbEntity
  8
0
100
AcDbVertex
100
AcDbPolygonMeshVertex
 10
7.526
 20
-1.532
 30
2.595
 70
    64
  0
VERTEX
  5
5A1
100
AcDbEntity
  8
0
100
AcDbVertex
100
AcDbPolygonMeshVertex
 10
7.526
 20
-1.532
 30
0.317
 70
    64
  0
VERTEX
  5
5A2
100
AcDbEntity
  8
0
100
AcDbVertex
100
AcDbPolygonMeshVertex
 10
7.526
 20
-1.882
 30
0.317
 70
    64
  0
VERTEX
  5
5A3
100
AcDbEntity
  8
0
100
AcDbVertex
100
AcDbPolygonMeshVertex
 10
7.526
 20
-1.532
 30
2.595
 70
    64
  0
VERTEX
  5
5A4
100
AcDbEntity
  8
0
100
AcDbVertex
100
AcDbPolygonMeshVertex
 10
7.526
 20
-1.532
 30
2.595
 70
    64
  0
VERTEX
  5
5A5
100
AcDbEntity
  8
0
100
AcDbVertex
100
AcDbPolygonMeshVertex
 10
7.526
 20
-1.882
 30
2.595
 70
    64
  0
VERTEX
  5
5A6
100
AcDbEntity
  8
0
100
AcDbVertex
100
AcDbPolygonMeshVertex
 10
0.0
 20
-1.532
 30
2.595
 70
    64
  0
VERTEX
  5
5A7
100
AcDbEntity
  8
0
100
AcDbVertex
100
AcDbPolygonMeshVertex
 10
0.0
 20
-1.532
 30
2.595
 70
    64
  0
VERTEX
  5
5A8
100
AcDbEntity
  8
0
100
AcDbVertex
100
AcDbPolygonMeshVertex
 10
0.0
 20
-1.882
 30
2.595
 70
    64
  0
SEQEND
  5
5A9
100
AcDbEntity
  8
0
  0
LWPOLYLINE
  5
5AA
100
AcDbEntity
  8
0
100
AcDbPolyline
 90
       10
 70
     1
 43
0.0
 38
2.805
 10
0.968862
 20
-1.050029
 42
0.414214
 10
1.068862
 20
-1.150029
 10
4.428862
 20
-1.150029
 10
7.582862
 20
-1.150029
 42
0.414214
 10
7.682862
 20
-1.050029
 10
7.682862
 20
0.439971
 42
0.414214
 10
7.582862
 20
0.539971
 10
4.428862
 20
0.539971
 10
1.068862
 20
0.539971
 42
0.414214
 10
0.968862
 20
0.439971
  0
LWPOLYLINE
  5
5AB
100
AcDbEntity
  8
0
100
AcDbPolyline
 90
        7
 70
     0
 43
0.0
 38
2.805
 10
0.0
 20
0.481
 10
0.08
 20
0.481
 10
0.08
 20
0.606
 10
4.642
 20
0.606
 10
7.796
 20
0.606
 10
7.796
 20
0.481
 10
7.876
 20
0.481
  0
LWPOLYLINE
  5
5AC
100
AcDbEntity
  8
0
100
AcDbPolyline
 90
        4
 70
     1
 43
0.0
 38
1.280951
 10
-6.236006
 20
2.567373
 10
-6.236006
 20
2.374843
 10
-5.964538
 20
2.374843
 10
-5.964538
 20
2.567373
210
0.0
220
1.0
230
0.0
  0
LWPOLYLINE
  5
5AD
100
AcDbEntity
  8
0
100
AcDbPolyline
 90
        7
 70
     0
 43
0.0
 38
2.805
 10
0.0
 20
-1.082
 10
0.08
 20
-1.082
 10
0.08
 20
-1.207
 10
4.642
 20
-1.207
 10
7.796
 20
-1.207
 10
7.796
 20
-1.082
 10
7.876
 20
-1.082
  0
POLYLINE
  5
5AE
100
AcDbEntity
  8
0
100
AcDbPolygonMesh
 66
     1
 10
0.0
 20
0.0
 30
0.0
 70
    16
 71
     6
 72
     3
  0
VERTEX
  5
5AF
100
AcDbEntity
  8
0
100
AcDbVertex
100
AcDbPolygonMeshVertex
 10
7.876
 20
-1.542
 30
2.805
 70
    64
  0
VERTEX
  5
5B0
100
AcDbEntity
  8
0
100
AcDbVertex
100
AcDbPolygonMeshVertex
 10
7.876
 20
-1.542
 30
2.72
 70
    64
  0
VERTEX
  5
5B1
100
AcDbEntity
  8
0
100
AcDbVertex
100
AcDbPolygonMeshVertex
 10
7.876
 20
-1.542
 30
2.72
 70
    64
  0
VERTEX
  5
5B2
100
AcDbEntity
  8
0
100
AcDbVertex
100
AcDbPolygonMeshVertex
 10
0.0
 20
-1.542
 30
2.805
 70
    64
  0
VERTEX
  5
5B3
100
AcDbEntity
  8
0
100
AcDbVertex
100
AcDbPolygonMeshVertex
 10
0.0
 20
-1.542
 30
2.72
 70
    64
  0
VERTEX
  5
5B4
100
AcDbEntity
  8
0
100
AcDbVertex
100
AcDbPolygonMeshVertex
 10
0.0
 20
-1.542
 30
2.72
 70
    64
  0
VERTEX
  5
5B5
100
AcDbEntity
  8
0
100
AcDbVertex
100
AcDbPolygonMeshVertex
 10
0.0
 20
0.941
 30
2.805
 70
    64
  0
VERTEX
  5
5B6
100
AcDbEntity
  8
0
100
AcDbVertex
100
AcDbPolygonMeshVertex
 10
0.0
 20
0.941
 30
2.72
 70
    64
  0
VERTEX
  5
5B7
100
AcDbEntity
  8
0
100
AcDbVertex
100
AcDbPolygonMeshVertex
 10
0.0
 20
-1.542
 30
2.72
 70
    64
  0
VERTEX
  5
5B8
100
AcDbEntity
  8
0
100
AcDbVertex
100
AcDbPolygonMeshVertex
 10
7.876
 20
0.941
 30
2.805
 70
    64
  0
VERTEX
  5
5B9
100
AcDbEntity
  8
0
100
AcDbVertex
100
AcDbPolygonMeshVertex
 10
7.876
 20
0.941
 30
2.72
 70
    64
  0
VERTEX
  5
5BA
100
AcDbEntity
  8
0
100
AcDbVertex
100
AcDbPolygonMeshVertex
 10
7.876
 20
-1.542
 30
2.72
 70
    64
  0
VERTEX
  5
5BB
100
AcDbEntity
  8
0
100
AcDbVertex
100
AcDbPolygonMeshVertex
 10
7.876
 20
0.941
 30
2.805
 70
    64
  0
VERTEX
  5
5BC
100
AcDbEntity
  8
0
100
AcDbVertex
100
AcDbPolygonMeshVertex
 10
7.876
 20
0.941
 30
2.805
 70
    64
  0
VERTEX
  5
5BD
100
AcDbEntity
  8
0
100
AcDbVertex
100
AcDbPolygonMeshVertex
 10
7.876
 20
-1.542
 30
2.805
 70
    64
  0
VERTEX
  5
5BE
100
AcDbEntity
  8
0
100
AcDbVertex
100
AcDbPolygonMeshVertex
 10
0.0
 20
0.941
 30
2.805
 70
    64
  0
VERTEX
  5
5BF
100
AcDbEntity
  8
0
100
AcDbVertex
100
AcDbPolygonMeshVertex
 10
0.0
 20
0.941
 30
2.805
 70
    64
  0
VERTEX
  5
5C0
100
AcDbEntity
  8
0
100
AcDbVertex
100
AcDbPolygonMeshVertex
 10
0.0
 20
-1.542
 30
2.805
 70
    64
  0
SEQEND
  5
5C1
100
AcDbEntity
  8
0
  0
POLYLINE
  5
5C2
100
AcDbEntity
  8
0
100
AcDbPolygonMesh
 66
     1
 10
0.0
 20
0.0
 30
0.0
 70
    16
 71
     6
 72
     3
  0
VERTEX
  5
5C3
100
AcDbEntity
  8
0
100
AcDbVertex
100
AcDbPolygonMeshVertex
 10
0.0
 20
1.281
 30
2.72
 70
    64
  0
VERTEX
  5
5C4
100
AcDbEntity
  8
0
100
AcDbVertex
100
AcDbPolygonMeshVertex
 10
0.0
 20
1.281
 30
2.72
 70
    64
  0
VERTEX
  5
5C5
100
AcDbEntity
  8
0
100
AcDbVertex
100
AcDbPolygonMeshVertex
 10
0.0
 20
1.281
 30
2.72
 70
    64
  0
VERTEX
  5
5C6
100
AcDbEntity
  8
0
100
AcDbVertex
100
AcDbPolygonMeshVertex
 10
0.0
 20
0.941
 30
2.805
 70
    64
  0
VERTEX
  5
5C7
100
AcDbEntity
  8
0
100
AcDbVertex
100
AcDbPolygonMeshVertex
 10
0.0
 20
0.941
 30
2.72
 70
    64
  0
VERTEX
  5
5C8
100
AcDbEntity
  8
0
100
AcDbVertex
100
AcDbPolygonMeshVertex
 10
0.0
 20
0.941
 30
2.72
 70
    64
  0
VERTEX
  5
5C9
100
AcDbEntity
  8
0
100
AcDbVertex
100
AcDbPolygonMeshVertex
 10
7.876
 20
0.941
 30
2.805
 70
    64
  0
VERTEX
  5
5CA
100
AcDbEntity
  8
0
100
AcDbVertex
100
AcDbPolygonMeshVertex
 10
7.876
 20
0.941
 30
2.72
 70
    64
  0
VERTEX
  5
5CB
100
AcDbEntity
  8
0
100
AcDbVertex
100
AcDbPolygonMeshVertex
 10
0.0
 20
0.941
 30
2.72
 70
    64
  0
VERTEX
  5
5CC
100
AcDbEntity
  8
0
100
AcDbVertex
100
AcDbPolygonMeshVertex
 10
7.876
 20
1.281
 30
2.72
 70
    64
  0
VERTEX
  5
5CD
100
AcDbEntity
  8
0
100
AcDbVertex
100
AcDbPolygonMeshVertex
 10
7.876
 20
1.281
 30
2.72
 70
    64
  0
VERTEX
  5
5CE
100
AcDbEntity
  8
0
100
AcDbVertex
100
AcDbPolygonMeshVertex
 10
0.0
 20
1.281
 30
2.72
 70
    64
  0
VERTEX
  5
5CF
100
AcDbEntity
  8
0
100
AcDbVertex
100
AcDbPolygonMeshVertex
 10
7.876
 20
1.281
 30
2.72
 70
    64
  0
VERTEX
  5
5D0
100
AcDbEntity
  8
0
100
AcDbVertex
100
AcDbPolygonMeshVertex
 10
7.876
 20
1.281
 30
2.72
 70
    64
  0
VERTEX
  5
5D1
100
AcDbEntity
  8
0
100
AcDbVertex
100
AcDbPolygonMeshVertex
 10
0.0
 20
1.281
 30
2.72
 70
    64
  0
VERTEX
  5
5D2
100
AcDbEntity
  8
0
100
AcDbVertex
100
AcDbPolygonMeshVertex
 10
7.876
 20
0.941
 30
2.805
 70
    64
  0
VERTEX
  5
5D3
100
AcDbEntity
  8
0
100
AcDbVertex
100
AcDbPolygonMeshVertex
 10
7.876
 20
0.941
 30
2.805
 70
    64
  0
VERTEX
  5
5D4
100
AcDbEntity
  8
0
100
AcDbVertex
100
AcDbPolygonMeshVertex
 10
0.0
 20
0.941
 30
2.805
 70
    64
  0
SEQEND
  5
5D5
100
AcDbEntity
  8
0
  0
POLYLINE
  5
5D6
100
AcDbEntity
  8
0
100
AcDbPolygonMesh
 66
     1
 10
0.0
 20
0.0
 30
0.0
 70
    16
 71
     6
 72
     3
  0
VERTEX
  5
5D7
100
AcDbEntity
  8
0
100
AcDbVertex
100
AcDbPolygonMeshVertex
 10
0.0
 20
-1.882
 30
2.72
 70
    64
  0
VERTEX
  5
5D8
100
AcDbEntity
  8
0
100
AcDbVertex
100
AcDbPolygonMeshVertex
 10
0.0
 20
-1.882
 30
2.72
 70
    64
  0
VERTEX
  5
5D9
100
AcDbEntity
  8
0
100
AcDbVertex
100
AcDbPolygonMeshVertex
 10
0.0
 20
-1.882
 30
2.72
 70
    64
  0
VERTEX
  5
5DA
100
AcDbEntity
  8
0
100
AcDbVertex
100
AcDbPolygonMeshVertex
 10
0.0
 20
-1.542
 30
2.805
 70
    64
  0
VERTEX
  5
5DB
100
AcDbEntity
  8
0
100
AcDbVertex
100
AcDbPolygonMeshVertex
 10
0.0
 20
-1.542
 30
2.72
 70
    64
  0
VERTEX
  5
5DC
100
AcDbEntity
  8
0
100
AcDbVertex
100
AcDbPolygonMeshVertex
 10
0.0
 20
-1.542
 30
2.72
 70
    64
  0
VERTEX
  5
5DD
100
AcDbEntity
  8
0
100
AcDbVertex
100
AcDbPolygonMeshVertex
 10
7.876
 20
-1.542
 30
2.805
 70
    64
  0
VERTEX
  5
5DE
100
AcDbEntity
  8
0
100
AcDbVertex
100
AcDbPolygonMeshVertex
 10
7.876
 20
-1.542
 30
2.72
 70
    64
  0
VERTEX
  5
5DF
100
AcDbEntity
  8
0
100
AcDbVertex
100
AcDbPolygonMeshVertex
 10
0.0
 20
-1.542
 30
2.72
 70
    64
  0
VERTEX
  5
5E0
100
AcDbEntity
  8
0
100
AcDbVertex
100
AcDbPolygonMeshVertex
 10
7.876
 20
-1.882
 30
2.72
 70
    64
  0
VERTEX
  5
5E1
100
AcDbEntity
  8
0
100
AcDbVertex
100
AcDbPolygonMeshVertex
 10
7.876
 20
-1.882
 30
2.72
 70
    64
  0
VERTEX
  5
5E2
100
AcDbEntity
  8
0
100
AcDbVertex
100
AcDbPolygonMeshVertex
 10
0.0
 20
-1.882
 30
2.72
 70
    64
  0
VERTEX
  5
5E3
100
AcDbEntity
  8
0
100
AcDbVertex
100
AcDbPolygonMeshVertex
 10
7.876
 20
-1.882
 30
2.72
 70
    64
  0
VERTEX
  5
5E4
100
AcDbEntity
  8
0
100
AcDbVertex
100
AcDbPolygonMeshVertex
 10
7.876
 20
-1.882
 30
2.72
 70
    64
  0
VERTEX
  5
5E5
100
AcDbEntity
  8
0
100
AcDbVertex
100
AcDbPolygonMeshVertex
 10
0.0
 20
-1.882
 30
2.72
 70
    64
  0
VERTEX
  5
5E6
100
AcDbEntity
  8
0
100
AcDbVertex
100
AcDbPolygonMeshVertex
 10
7.876
 20
-1.542
 30
2.805
 70
    64
  0
VERTEX
  5
5E7
100
AcDbEntity
  8
0
100
AcDbVertex
100
AcDbPolygonMeshVertex
 10
7.876
 20
-1.542
 30
2.805
 70
    64
  0
VERTEX
  5
5E8
100
AcDbEntity
  8
0
100
AcDbVertex
100
AcDbPolygonMeshVertex
 10
0.0
 20
-1.542
 30
2.805
 70
    64
  0
SEQEND
  5
5E9
100
AcDbEntity
  8
0
  0
POLYLINE
  5
5EA
100
AcDbEntity
  8
0
100
AcDbPolygonMesh
 66
     1
 10
0.0
 20
0.0
 30
0.0
 70
    16
 71
     6
 72
     3
  0
VERTEX
  5
5EB
100
AcDbEntity
  8
0
100
AcDbVertex
100
AcDbPolygonMeshVertex
 10
7.876
 20
-1.882
 30
2.72
 70
    64
  0
VERTEX
  5
5EC
100
AcDbEntity
  8
0
100
AcDbVertex
100
AcDbPolygonMeshVertex
 10
7.876
 20
-1.882
 30
2.595
 70
    64
  0
VERTEX
  5
5ED
100
AcDbEntity
  8
0
100
AcDbVertex
100
AcDbPolygonMeshVertex
 10
7.876
 20
-1.882
 30
2.595
 70
    64
  0
VERTEX
  5
5EE
100
AcDbEntity
  8
0
100
AcDbVertex
100
AcDbPolygonMeshVertex
 10
0.0
 20
-1.882
 30
2.72
 70
    64
  0
VERTEX
  5
5EF
100
AcDbEntity
  8
0
100
AcDbVertex
100
AcDbPolygonMeshVertex
 10
0.0
 20
-1.882
 30
2.595
 70
    64
  0
VERTEX
  5
5F0
100
AcDbEntity
  8
0
100
AcDbVertex
100
AcDbPolygonMeshVertex
 10
0.0
 20
-1.882
 30
2.595
 70
    64
  0
VERTEX
  5
5F1
100
AcDbEntity
  8
0
100
AcDbVertex
100
AcDbPolygonMeshVertex
 10
0.0
 20
1.281
 30
2.72
 70
    64
  0
VERTEX
  5
5F2
100
AcDbEntity
  8
0
100
AcDbVertex
100
AcDbPolygonMeshVertex
 10
0.0
 20
1.281
 30
2.595
 70
    64
  0
VERTEX
  5
5F3
100
AcDbEntity
  8
0
100
AcDbVertex
100
AcDbPolygonMeshVertex
 10
0.0
 20
-1.882
 30
2.595
 70
    64
  0
VERTEX
  5
5F4
100
AcDbEntity
  8
0
100
AcDbVertex
100
AcDbPolygonMeshVertex
 10
7.876
 20
1.281
 30
2.72
 70
    64
  0
VERTEX
  5
5F5
100
AcDbEntity
  8
0
100
AcDbVertex
100
AcDbPolygonMeshVertex
 10
7.876
 20
1.281
 30
2.595
 70
    64
  0
VERTEX
  5
5F6
100
AcDbEntity
  8
0
100
AcDbVertex
100
AcDbPolygonMeshVertex
 10
7.876
 20
-1.882
 30
2.595
 70
    64
  0
VERTEX
  5
5F7
100
AcDbEntity
  8
0
100
AcDbVertex
100
AcDbPolygonMeshVertex
 10
7.876
 20
1.281
 30
2.72
 70
    64
  0
VERTEX
  5
5F8
100
AcDbEntity
  8
0
100
AcDbVertex
100
AcDbPolygonMeshVertex
 10
7.876
 20
1.281
 30
2.72
 70
    64
  0
VERTEX
  5
5F9
100
AcDbEntity
  8
0
100
AcDbVertex
100
AcDbPolygonMeshVertex
 10
7.876
 20
-1.882
 30
2.72
 70
    64
  0
VERTEX
  5
5FA
100
AcDbEntity
  8
0
100
AcDbVertex
100
AcDbPolygonMeshVertex
 10
0.0
 20
1.281
 30
2.72
 70
    64
  0
VERTEX
  5
5FB
100
AcDbEntity
  8
0
100
AcDbVertex
100
AcDbPolygonMeshVertex
 10
0.0
 20
1.281
 30
2.72
 70
    64
  0
VERTEX
  5
5FC
100
AcDbEntity
  8
0
100
AcDbVertex
100
AcDbPolygonMeshVertex
 10
0.0
 20
-1.882
 30
2.72
 70
    64
  0
SEQEND
  5
5FD
100
AcDbEntity
  8
0
  0
POLYLINE
  5
5FE
100
AcDbEntity
  8
0
100
AcDbPolygonMesh
 66
     1
 10
0.0
 20
0.0
 30
0.0
 70
    16
 71
     6
 72
     3
  0
VERTEX
  5
5FF
100
AcDbEntity
  8
0
100
AcDbVertex
100
AcDbPolygonMeshVertex
 10
7.876
 20
0.0
 30
0.17
 70
    64
  0
VERTEX
  5
600
100
AcDbEntity
  8
0
100
AcDbVertex
100
AcDbPolygonMeshVertex
 10
7.876
 20
0.0
 30
0.0
 70
    64
  0
VERTEX
  5
601
100
AcDbEntity
  8
0
100
AcDbVertex
100
AcDbPolygonMeshVertex
 10
7.876
 20
0.0
 30
0.0
 70
    64
  0
VERTEX
  5
602
100
AcDbEntity
  8
0
100
AcDbVertex
100
AcDbPolygonMeshVertex
 10
0.0
 20
0.0
 30
0.17
 70
    64
  0
VERTEX
  5
603
100
AcDbEntity
  8
0
100
AcDbVertex
100
AcDbPolygonMeshVertex
 10
0.0
 20
0.0
 30
0.0
 70
    64
  0
VERTEX
  5
604
100
AcDbEntity
  8
0
100
AcDbVertex
100
AcDbPolygonMeshVertex
 10
0.0
 20
0.0
 30
0.0
 70
    64
  0
VERTEX
  5
605
100
AcDbEntity
  8
0
100
AcDbVertex
100
AcDbPolygonMeshVertex
 10
0.0
 20
1.281
 30
0.17
 70
    64
  0
VERTEX
  5
606
100
AcDbEntity
  8
0
100
AcDbVertex
100
AcDbPolygonMeshVertex
 10
0.0
 20
1.281
 30
0.0
 70
    64
  0
VERTEX
  5
607
100
AcDbEntity
  8
0
100
AcDbVertex
100
AcDbPolygonMeshVertex
 10
0.0
 20
0.0
 30
0.0
 70
    64
  0
VERTEX
  5
608
100
AcDbEntity
  8
0
100
AcDbVertex
100
AcDbPolygonMeshVertex
 10
7.876
 20
1.281
 30
0.17
 70
    64
  0
VERTEX
  5
609
100
AcDbEntity
  8
0
100
AcDbVertex
100
AcDbPolygonMeshVertex
 10
7.876
 20
1.281
 30
0.0
 70
    64
  0
VERTEX
  5
60A
100
AcDbEntity
  8
0
100
AcDbVertex
100
AcDbPolygonMeshVertex
 10
7.876
 20
0.0
 30
0.0
 70
    64
  0
VERTEX
  5
60B
100
AcDbEntity
  8
0
100
AcDbVertex
100
AcDbPolygonMeshVertex
 10
7.876
 20
1.281
 30
0.17
 70
    64
  0
VERTEX
  5
60C
100
AcDbEntity
  8
0
100
AcDbVertex
100
AcDbPolygonMeshVertex
 10
7.876
 20
1.281
 30
0.17
 70
    64
  0
VERTEX
  5
60D
100
AcDbEntity
  8
0
100
AcDbVertex
100
AcDbPolygonMeshVertex
 10
7.876
 20
0.0
 30
0.17
 70
    64
  0
VERTEX
  5
60E
100
AcDbEntity
  8
0
100
AcDbVertex
100
AcDbPolygonMeshVertex
 10
0.0
 20
1.281
 30
0.17
 70
    64
  0
VERTEX
  5
60F
100
AcDbEntity
  8
0
100
AcDbVertex
100
AcDbPolygonMeshVertex
 10
0.0
 20
1.281
 30
0.17
 70
    64
  0
VERTEX
  5
610
100
AcDbEntity
  8
0
100
AcDbVertex
100
AcDbPolygonMeshVertex
 10
0.0
 20
0.0
 30
0.17
 70
    64
  0
SEQEND
  5
611
100
AcDbEntity
  8
0
  0
POLYLINE
  5
612
100
AcDbEntity
  8
0
100
AcDbPolygonMesh
 66
     1
 10
0.0
 20
0.0
 30
0.0
 70
    16
 71
     6
 72
     3
  0
VERTEX
  5
613
100
AcDbEntity
  8
0
100
AcDbVertex
100
AcDbPolygonMeshVertex
 10
7.876
 20
-1.882
 30
0.317
 70
    64
  0
VERTEX
  5
614
100
AcDbEntity
  8
0
100
AcDbVertex
100
AcDbPolygonMeshVertex
 10
7.876
 20
-1.882
 30
0.17
 70
    64
  0
VERTEX
  5
615
100
AcDbEntity
  8
0
100
AcDbVertex
100
AcDbPolygonMeshVertex
 10
7.876
 20
-1.882
 30
0.17
 70
    64
  0
VERTEX
  5
616
100
AcDbEntity
  8
0
100
AcDbVertex
100
AcDbPolygonMeshVertex
 10
0.0
 20
-1.882
 30
0.317
 70
    64
  0
VERTEX
  5
617
100
AcDbEntity
  8
0
100
AcDbVertex
100
AcDbPolygonMeshVertex
 10
0.0
 20
-1.882
 30
0.17
 70
    64
  0
VERTEX
  5
618
100
AcDbEntity
  8
0
100
AcDbVertex
100
AcDbPolygonMeshVertex
 10
0.0
 20
-1.882
 30
0.17
 70
    64
  0
VERTEX
  5
619
100
AcDbEntity
  8
0
100
AcDbVertex
100
AcDbPolygonMeshVertex
 10
0.0
 20
1.281
 30
0.317
 70
    64
  0
VERTEX
  5
61A
100
AcDbEntity
  8
0
100
AcDbVertex
100
AcDbPolygonMeshVertex
 10
0.0
 20
1.281
 30
0.17
 70
    64
  0
VERTEX
  5
61B
100
AcDbEntity
  8
0
100
AcDbVertex
100
AcDbPolygonMeshVertex
 10
0.0
 20
-1.882
 30
0.17
 70
    64
  0
VERTEX
  5
61C
100
AcDbEntity
  8
0
100
AcDbVertex
100
AcDbPolygonMeshVertex
 10
7.876
 20
1.281
 30
0.317
 70
    64
  0
VERTEX
  5
61D
100
AcDbEntity
  8
0
100
AcDbVertex
100
AcDbPolygonMeshVertex
 10
7.876
 20
1.281
 30
0.17
 70
    64
  0
VERTEX
  5
61E
100
AcDbEntity
  8
0
100
AcDbVertex
100
AcDbPolygonMeshVertex
 10
7.876
 20
-1.882
 30
0.17
 70
    64
  0
VERTEX
  5
61F
100
AcDbEntity
  8
0
100
AcDbVertex
100
AcDbPolygonMeshVertex
 10
7.876
 20
1.281
 30
0.317
 70
    64
  0
VERTEX
  5
620
100
AcDbEntity
  8
0
100
AcDbVertex
100
AcDbPolygonMeshVertex
 10
7.876
 20
1.281
 30
0.317
 70
    64
  0
VERTEX
  5
621
100
AcDbEntity
  8
0
100
AcDbVertex
100
AcDbPolygonMeshVertex
 10
7.876
 20
-1.882
 30
0.317
 70
    64
  0
VERTEX
  5
622
100
AcDbEntity
  8
0
100
AcDbVertex
100
AcDbPolygonMeshVertex
 10
0.0
 20
1.281
 30
0.317
 70
    64
  0
VERTEX
  5
623
100
AcDbEntity
  8
0
100
AcDbVertex
100
AcDbPolygonMeshVertex
 10
0.0
 20
1.281
 30
0.317
 70
    64
  0
VERTEX
  5
624
100
AcDbEntity
  8
0
100
AcDbVertex
100
AcDbPolygonMeshVertex
 10
0.0
 20
-1.882
 30
0.317
 70
    64
  0
SEQEND
  5
625
100
AcDbEntity
  8
0
  0
POLYLINE
  5
626
100
AcDbEntity
  8
0
100
AcDbPolygonMesh
 66
     1
 10
0.0
 20
0.0
 30
0.0
 70
    16
 71
     6
 72
     3
  0
VERTEX
  5
627
100
AcDbEntity
  8
0
100
AcDbVertex
100
AcDbPolygonMeshVertex
 10
7.876
 20
-1.882
 30
0.17
 70
    64
  0
VERTEX
  5
628
100
AcDbEntity
  8
0
100
AcDbVertex
100
AcDbPolygonMeshVertex
 10
7.876
 20
-1.882
 30
0.0
 70
    64
  0
VERTEX
  5
629
100
AcDbEntity
  8
0
100
AcDbVertex
100
AcDbPolygonMeshVertex
 10
7.876
 20
-1.882
 30
0.0
 70
    64
  0
VERTEX
  5
62A
100
AcDbEntity
  8
0
100
AcDbVertex
100
AcDbPolygonMeshVertex
 10
0.0
 20
-1.882
 30
0.17
 70
    64
  0
VERTEX
  5
62B
100
AcDbEntity
  8
0
100
AcDbVertex
100
AcDbPolygonMeshVertex
 10
0.0
 20
-1.882
 30
0.0
 70
    64
  0
VERTEX
  5
62C
100
AcDbEntity
  8
0
100
AcDbVertex
100
AcDbPolygonMeshVertex
 10
0.0
 20
-1.882
 30
0.0
 70
    64
  0
VERTEX
  5
62D
100
AcDbEntity
  8
0
100
AcDbVertex
100
AcDbPolygonMeshVertex
 10
0.0
 20
-1.408
 30
0.17
 70
    64
  0
VERTEX
  5
62E
100
AcDbEntity
  8
0
100
AcDbVertex
100
AcDbPolygonMeshVertex
 10
0.0
 20
-1.408
 30
0.0
 70
    64
  0
VERTEX
  5
62F
100
AcDbEntity
  8
0
100
AcDbVertex
100
AcDbPolygonMeshVertex
 10
0.0
 20
-1.882
 30
0.0
 70
    64
  0
VERTEX
  5
630
100
AcDbEntity
  8
0
100
AcDbVertex
100
AcDbPolygonMeshVertex
 10
7.876
 20
-1.408
 30
0.17
 70
    64
  0
VERTEX
  5
631
100
AcDbEntity
  8
0
100
AcDbVertex
100
AcDbPolygonMeshVertex
 10
7.876
 20
-1.408
 30
0.0
 70
    64
  0
VERTEX
  5
632
100
AcDbEntity
  8
0
100
AcDbVertex
100
AcDbPolygonMeshVertex
 10
7.876
 20
-1.882
 30
0.0
 70
    64
  0
VERTEX
  5
633
100
AcDbEntity
  8
0
100
AcDbVertex
100
AcDbPolygonMeshVertex
 10
7.876
 20
-1.408
 30
0.17
 70
    64
  0
VERTEX
  5
634
100
AcDbEntity
  8
0
100
AcDbVertex
100
AcDbPolygonMeshVertex
 10
7.876
 20
-1.408
 30
0.17
 70
    64
  0
VERTEX
  5
635
100
AcDbEntity
  8
0
100
AcDbVertex
100
AcDbPolygonMeshVertex
 10
7.876
 20
-1.882
 30
0.17
 70
    64
  0
VERTEX
  5
636
100
AcDbEntity
  8
0
100
AcDbVertex
100
AcDbPolygonMeshVertex
 10
0.0
 20
-1.408
 30
0.17
 70
    64
  0
VERTEX
  5
637
100
AcDbEntity
  8
0
100
AcDbVertex
100
AcDbPolygonMeshVertex
 10
0.0
 20
-1.408
 30
0.17
 70
    64
  0
VERTEX
  5
638
100
AcDbEntity
  8
0
100
AcDbVertex
100
AcDbPolygonMeshVertex
 10
0.0
 20
-1.882
 30
0.17
 70
    64
  0
SEQEND
  5
639
100
AcDbEntity
  8
0
  0
LINE
  5
63A
100
AcDbEntity
  8
0
100
AcDbLine
 10
2.4644
 20
-1.960396
 30
0.1
 11
2.0076
 21
-1.960396
 31
0.1
  0
POLYLINE
  5
63B
100
AcDbEntity
  8
0
100
AcDbPolygonMesh
 66
     1
 10
0.0
 20
0.0
 30
0.0
 70
    16
 71
     6
 72
     3
  0
VERTEX
  5
63C
100
AcDbEntity
  8
0
100
AcDbVertex
100
AcDbPolygonMeshVertex
 10
2.536
 20
-2.032
 30
0.1
 70
    64
  0
VERTEX
  5
63D
100
AcDbEntity
  8
0
100
AcDbVertex
100
AcDbPolygonMeshVertex
 10
2.536
 20
-2.032
 30
0.0
 70
    64
  0
VERTEX
  5
63E
100
AcDbEntity
  8
0
100
AcDbVertex
100
AcDbPolygonMeshVertex
 10
2.536
 20
-2.032
 30
0.0
 70
    64
  0
VERTEX
  5
63F
100
AcDbEntity
  8
0
100
AcDbVertex
100
AcDbPolygonMeshVertex
 10
1.936
 20
-2.032
 30
0.1
 70
    64
  0
VERTEX
  5
640
100
AcDbEntity
  8
0
100
AcDbVertex
100
AcDbPolygonMeshVertex
 10
1.936
 20
-2.032
 30
0.0
 70
    64
  0
VERTEX
  5
641
100
AcDbEntity
  8
0
100
AcDbVertex
100
AcDbPolygonMeshVertex
 10
1.936
 20
-2.032
 30
0.0
 70
    64
  0
VERTEX
  5
642
100
AcDbEntity
  8
0
100
AcDbVertex
100
AcDbPolygonMeshVertex
 10
1.936
 20
-1.882
 30
0.1
 70
    64
  0
VERTEX
  5
643
100
AcDbEntity
  8
0
100
AcDbVertex
100
AcDbPolygonMeshVertex
 10
1.936
 20
-1.882
 30
0.0
 70
    64
  0
VERTEX
  5
644
100
AcDbEntity
  8
0
100
AcDbVertex
100
AcDbPolygonMeshVertex
 10
1.936
 20
-2.032
 30
0.0
 70
    64
  0
VERTEX
  5
645
100
AcDbEntity
  8
0
100
AcDbVertex
100
AcDbPolygonMeshVertex
 10
2.536
 20
-1.882
 30
0.1
 70
    64
  0
VERTEX
  5
646
100
AcDbEntity
  8
0
100
AcDbVertex
100
AcDbPolygonMeshVertex
 10
2.536
 20
-1.882
 30
0.0
 70
    64
  0
VERTEX
  5
647
100
AcDbEntity
  8
0
100
AcDbVertex
100
AcDbPolygonMeshVertex
 10
2.536
 20
-2.032
 30
0.0
 70
    64
  0
VERTEX
  5
648
100
AcDbEntity
  8
0
100
AcDbVertex
100
AcDbPolygonMeshVertex
 10
2.536
 20
-1.882
 30
0.1
 70
    64
  0
VERTEX
  5
649
100
AcDbEntity
  8
0
100
AcDbVertex
100
AcDbPolygonMeshVertex
 10
2.536
 20
-1.882
 30
0.1
 70
    64
  0
VERTEX
  5
64A
100
AcDbEntity
  8
0
100
AcDbVertex
100
AcDbPolygonMeshVertex
 10
2.536
 20
-2.032
 30
0.1
 70
    64
  0
VERTEX
  5
64B
100
AcDbEntity
  8
0
100
AcDbVertex
100
AcDbPolygonMeshVertex
 10
1.936
 20
-1.882
 30
0.1
 70
    64
  0
VERTEX
  5
64C
100
AcDbEntity
  8
0
100
AcDbVertex
100
AcDbPolygonMeshVertex
 10
1.936
 20
-1.882
 30
0.1
 70
    64
  0
VERTEX
  5
64D
100
AcDbEntity
  8
0
100
AcDbVertex
100
AcDbPolygonMeshVertex
 10
1.936
 20
-2.032
 30
0.1
 70
    64
  0
SEQEND
  5
64E
100
AcDbEntity
  8
0
  0
POINT
  5
64F
100
AcDbEntity
  8
SNAP_POINTS
100
AcDbPoint
 10
0.0
 20
0.0
 30
0.0
  0
LINE
  5
650
100
AcDbEntity
  8
0
100
AcDbLine
 10
2.0076
 20
-1.882
 30
0.1
 11
2.0076
 21
-1.960396
 31
0.1
  0
POINT
  5
651
100
AcDbEntity
  8
DIMS-MTG-HOLES
100
AcDbPoint
 10
0.175
 20
1.106
 30
0.0
  0
CIRCLE
  5
652
100
AcDbEntity
  8
0
100
AcDbCircle
 10
0.175
 20
1.106
 30
0.317
 40
0.094
  0
LINE
  5
653
100
AcDbEntity
  8
0
100
AcDbLine
 10
2.4644
 20
-1.882
 30
0.1
 11
2.4644
 21
-1.960396
 31
0.1
  0
POLYLINE
  5
654
100
AcDbEntity
  8
0
100
AcDbPolygonMesh
 66
     1
 10
0.0
 20
0.0
 30
0.0
 70
    16
 71
     6
 72
     3
  0
VERTEX
  5
655
100
AcDbEntity
  8
0
100
AcDbVertex
100
AcDbPolygonMeshVertex
 10
5.34
 20
-2.032
 30
0.1
 70
    64
  0
VERTEX
  5
656
100
AcDbEntity
  8
0
100
AcDbVertex
100
AcDbPolygonMeshVertex
 10
5.34
 20
-2.032
 30
0.0
 70
    64
  0
VERTEX
  5
657
100
AcDbEntity
  8
0
100
AcDbVertex
100
AcDbPolygonMeshVertex
 10
5.34
 20
-2.032
 30
0.0
 70
    64
  0
VERTEX
  5
658
100
AcDbEntity
  8
0
100
AcDbVertex
100
AcDbPolygonMeshVertex
 10
5.94
 20
-2.032
 30
0.1
 70
    64
  0
VERTEX
  5
659
100
AcDbEntity
  8
0
100
AcDbVertex
100
AcDbPolygonMeshVertex
 10
5.94
 20
-2.032
 30
0.0
 70
    64
  0
VERTEX
  5
65A
100
AcDbEntity
  8
0
100
AcDbVertex
100
AcDbPolygonMeshVertex
 10
5.94
 20
-2.032
 30
0.0
 70
    64
  0
VERTEX
  5
65B
100
AcDbEntity
  8
0
100
AcDbVertex
100
AcDbPolygonMeshVertex
 10
5.94
 20
-1.882
 30
0.1
 70
    64
  0
VERTEX
  5
65C
100
AcDbEntity
  8
0
100
AcDbVertex
100
AcDbPolygonMeshVertex
 10
5.94
 20
-1.882
 30
0.0
 70
    64
  0
VERTEX
  5
65D
100
AcDbEntity
  8
0
100
AcDbVertex
100
AcDbPolygonMeshVertex
 10
5.94
 20
-2.032
 30
0.0
 70
    64
  0
VERTEX
  5
65E
100
AcDbEntity
  8
0
100
AcDbVertex
100
AcDbPolygonMeshVertex
 10
5.34
 20
-1.882
 30
0.1
 70
    64
  0
VERTEX
  5
65F
100
AcDbEntity
  8
0
100
AcDbVertex
100
AcDbPolygonMeshVertex
 10
5.34
 20
-1.882
 30
0.0
 70
    64
  0
VERTEX
  5
660
100
AcDbEntity
  8
0
100
AcDbVertex
100
AcDbPolygonMeshVertex
 10
5.34
 20
-2.032
 30
0.0
 70
    64
  0
VERTEX
  5
661
100
AcDbEntity
  8
0
100
AcDbVertex
100
AcDbPolygonMeshVertex
 10
5.34
 20
-1.882
 30
0.1
 70
    64
  0
VERTEX
  5
662
100
AcDbEntity
  8
0
100
AcDbVertex
100
AcDbPolygonMeshVertex
 10
5.34
 20
-1.882
 30
0.1
 70
    64
  0
VERTEX
  5
663
100
AcDbEntity
  8
0
100
AcDbVertex
100
AcDbPolygonMeshVertex
 10
5.34
 20
-2.032
 30
0.1
 70
    64
  0
VERTEX
  5
664
100
AcDbEntity
  8
0
100
AcDbVertex
100
AcDbPolygonMeshVertex
 10
5.94
 20
-1.882
 30
0.1
 70
    64
  0
VERTEX
  5
665
100
AcDbEntity
  8
0
100
AcDbVertex
100
AcDbPolygonMeshVertex
 10
5.94
 20
-1.882
 30
0.1
 70
    64
  0
VERTEX
  5
666
100
AcDbEntity
  8
0
100
AcDbVertex
100
AcDbPolygonMeshVertex
 10
5.94
 20
-2.032
 30
0.1
 70
    64
  0
SEQEND
  5
667
100
AcDbEntity
  8
0
  0
LINE
  5
668
100
AcDbEntity
  8
0
100
AcDbLine
 10
5.4116
 20
-1.960396
 30
0.1
 11
5.8684
 21
-1.960396
 31
0.1
  0
LINE
  5
669
100
AcDbEntity
  8
0
100
AcDbLine
 10
5.4116
 20
-1.882
 30
0.1
 11
5.4116
 21
-1.960396
 31
0.1
  0
LINE
  5
66A
100
AcDbEntity
  8
0
100
AcDbLine
 10
5.8684
 20
-1.882
 30
0.1
 11
5.8684
 21
-1.960396
 31
0.1
  0
LINE
  5
66B
100
AcDbEntity
  8
0
100
AcDbLine
 10
1.31708
 20
0.680967
 30
2.6934
 11
2.527843
 21
0.680967
 31
2.6934
  0
TEXT
  5
66C
100
AcDbEntity
  8
0
100
AcDbText
 39
0.001
 10
2.145967
 20
0.819851
 30
2.692373
 40
0.05
  1
I/2
 72
     1
 11
2.204301
 21
0.819851
 31
2.692373
100
AcDbText
  0
LINE
  5
66D
100
AcDbEntity
  8
0
100
AcDbLine
 10
2.133101
 20
-1.402049
 30
2.692373
 11
2.208101
 21
-1.402049
 31
2.692373
  0
CIRCLE
  5
66E
100
AcDbEntity
  8
0
100
AcDbCircle
 10
2.133101
 20
-1.402049
 30
2.692373
 40
0.1
  0
LWPOLYLINE
  5
66F
100
AcDbEntity
  8
0
100
AcDbPolyline
 90
        4
 70
     1
 43
0.0
 38
1.280951
 10
-2.281429
 20
2.567373
 10
-2.281429
 20
2.374843
 10
-2.009961
 20
2.374843
 10
-2.009961
 20
2.567373
210
0.0
220
1.0
230
0.0
  0
LWPOLYLINE
  5
670
100
AcDbEntity
  8
0
100
AcDbPolyline
 90
        4
 70
     1
 43
0.0
 38
-1.882049
 10
-2.289965
 20
2.567373
 10
-2.289965
 20
2.374843
 10
-2.018497
 20
2.374843
 10
-2.018497
 20
2.567373
210
0.0
220
1.0
230
0.0
  0
LINE
  5
671
100
AcDbEntity
  8
0
100
AcDbLine
 10
0.82
 20
-0.928
 30
2.805
 11
0.82
 21
0.327
 31
2.805
  0
LINE
  5
672
100
AcDbEntity
  8
0
100
AcDbLine
 10
0.82
 20
-0.928
 30
2.805
 11
0.0
 21
-0.928
 31
2.805
  0
LWPOLYLINE
  5
673
100
AcDbEntity
  8
0
100
AcDbPolyline
 90
        4
 70
     1
 43
0.0
 38
-1.882049
 10
-1.681568
 20
2.567373
 10
-1.681568
 20
2.374843
 10
-1.4101
 20
2.374843
 10
-1.4101
 20
2.567373
210
0.0
220
1.0
230
0.0
  0
LWPOLYLINE
  5
674
100
AcDbEntity
  8
0
100
AcDbPolyline
 90
        4
 70
     1
 43
0.0
 38
-1.882049
 10
-1.985767
 20
2.567373
 10
-1.985767
 20
2.374843
 10
-1.714299
 20
2.374843
 10
-1.714299
 20
2.567373
210
0.0
220
1.0
230
0.0
  0
TEXT
  5
675
100
AcDbEntity
  8
0
100
AcDbText
 39
0.001
 10
1.391434
 20
-1.392049
 30
2.692373
 40
0.05
  1
85-264
 72
     1
 11
1.533101
 21
-1.392049
 31
2.692373
100
AcDbText
  0
TEXT
  5
676
100
AcDbEntity
  8
0
100
AcDbText
 39
0.001
 10
1.499767
 20
-1.492049
 30
2.692373
 40
0.05
  1
L1
 72
     1
 11
1.533101
 21
-1.492049
 31
2.692373
100
AcDbText
  0
TEXT
  5
677
100
AcDbEntity
  8
0
100
AcDbText
 39
0.001
 10
1.741434
 20
-1.492049
 30
2.692373
 40
0.05
  1
L2/N
 72
     1
 11
1.833101
 21
-1.492049
 31
2.692373
100
AcDbText
  0
TEXT
  5
678
100
AcDbEntity
  8
0
100
AcDbText
 39
0.001
 10
1.758101
 20
-1.392049
 30
2.692373
 40
0.05
  1
VAC
 72
     1
 11
1.833101
 21
-1.392049
 31
2.692373
100
AcDbText
  0
LINE
  5
679
100
AcDbEntity
  8
0
100
AcDbLine
 10
2.058101
 20
-1.402049
 30
2.692373
 11
2.133101
 21
-1.402049
 31
2.692373
  0
LINE
  5
67A
100
AcDbEntity
  8
0
100
AcDbLine
 10
2.158101
 20
-1.452049
 30
2.692373
 11
2.108101
 21
-1.452049
 31
2.692373
  0
LINE
  5
67B
100
AcDbEntity
  8
0
100
AcDbLine
 10
2.083101
 20
-1.427049
 30
2.692373
 11
2.183101
 21
-1.427049
 31
2.692373
  0
LINE
  5
67C
100
AcDbEntity
  8
0
100
AcDbLine
 10
2.133101
 20
-1.352049
 30
2.692373
 11
2.133101
 21
-1.402049
 31
2.692373
  0
LWPOLYLINE
  5
67D
100
AcDbEntity
  8
0
100
AcDbPolyline
 90
        4
 70
     1
 43
0.0
 38
2.805
 10
1.203737
 20
-0.850718
 10
1.203737
 20
-0.725718
 10
1.123737
 20
-0.725718
 10
1.123737
 20
-0.850718
  0
LWPOLYLINE
  5
67E
100
AcDbEntity
  8
0
100
AcDbPolyline
 90
        4
 70
     1
 43
0.0
 38
2.805
 10
1.203737
 20
-1.033887
 10
1.203737
 20
-0.908887
 10
1.123737
 20
-0.908887
 10
1.123737
 20
-1.033887
  0
LWPOLYLINE
  5
67F
100
AcDbEntity
  8
0
100
AcDbPolyline
 90
        4
 70
     1
 43
0.0
 38
2.805
 10
1.11115
 20
-0.410856
 10
1.23615
 20
-0.410856
 10
1.23615
 20
-0.330856
 10
1.11115
 20
-0.330856
  0
LWPOLYLINE
  5
680
100
AcDbEntity
  8
0
100
AcDbPolyline
 90
        4
 70
     1
 43
0.0
 38
2.805
 10
1.11115
 20
-0.545856
 10
1.23615
 20
-0.545856
 10
1.23615
 20
-0.465856
 10
1.11115
 20
-0.465856
  0
LWPOLYLINE
  5
681
100
AcDbEntity
  8
0
100
AcDbPolyline
 90
        4
 70
     1
 43
0.0
 38
2.805
 10
1.11115
 20
-0.275856
 10
1.23615
 20
-0.275856
 10
1.23615
 20
-0.195856
 10
1.11115
 20
-0.195856
  0
LWPOLYLINE
  5
682
100
AcDbEntity
  8
0
100
AcDbPolyline
 90
        4
 70
     1
 43
0.0
 38
2.805
 10
1.11115
 20
-0.140856
 10
1.23615
 20
-0.140856
 10
1.23615
 20
-0.060856
 10
1.11115
 20
-0.060856
  0
LWPOLYLINE
  5
683
100
AcDbEntity
  8
0
100
AcDbPolyline
 90
        4
 70
     1
 43
0.0
 38
2.805
 10
1.878737
 20
-0.850718
 10
1.878737
 20
-0.725718
 10
1.798737
 20
-0.725718
 10
1.798737
 20
-0.850718
  0
LWPOLYLINE
  5
684
100
AcDbEntity
  8
0
100
AcDbPolyline
 90
        4
 70
     1
 43
0.0
 38
2.805
 10
1.743737
 20
-0.850718
 10
1.743737
 20
-0.725718
 10
1.663737
 20
-0.725718
 10
1.663737
 20
-0.850718
  0
LWPOLYLINE
  5
685
100
AcDbEntity
  8
0
100
AcDbPolyline
 90
        4
 70
     1
 43
0.0
 38
2.805
 10
1.608737
 20
-0.850718
 10
1.608737
 20
-0.725718
 10
1.528737
 20
-0.725718
 10
1.528737
 20
-0.850718
  0
LWPOLYLINE
  5
686
100
AcDbEntity
  8
0
100
AcDbPolyline
 90
        4
 70
     1
 43
0.0
 38
2.805
 10
1.473737
 20
-0.850718
 10
1.473737
 20
-0.725718
 10
1.393737
 20
-0.725718
 10
1.393737
 20
-0.850718
  0
LWPOLYLINE
  5
687
100
AcDbEntity
  8
0
100
AcDbPolyline
 90
        4
 70
     1
 43
0.0
 38
2.805
 10
1.338737
 20
-0.850718
 10
1.338737
 20
-0.725718
 10
1.258737
 20
-0.725718
 10
1.258737
 20
-0.850718
  0
LWPOLYLINE
  5
688
100
AcDbEntity
  8
0
100
AcDbPolyline
 90
        4
 70
     1
 43
0.0
 38
2.805
 10
1.743737
 20
-1.033887
 10
1.743737
 20
-0.908887
 10
1.663737
 20
-0.908887
 10
1.663737
 20
-1.033887
  0
LWPOLYLINE
  5
689
100
AcDbEntity
  8
0
100
AcDbPolyline
 90
        4
 70
     1
 43
0.0
 38
2.805
 10
1.338737
 20
-1.033887
 10
1.338737
 20
-0.908887
 10
1.258737
 20
-0.908887
 10
1.258737
 20
-1.033887
  0
LWPOLYLINE
  5
68A
100
AcDbEntity
  8
0
100
AcDbPolyline
 90
        4
 70
     1
 43
0.0
 38
2.805
 10
1.473737
 20
-1.033887
 10
1.473737
 20
-0.908887
 10
1.393737
 20
-0.908887
 10
1.393737
 20
-1.033887
  0
LWPOLYLINE
  5
68B
100
AcDbEntity
  8
0
100
AcDbPolyline
 90
        4
 70
     1
 43
0.0
 38
2.805
 10
1.608737
 20
-1.033887
 10
1.608737
 20
-0.908887
 10
1.528737
 20
-0.908887
 10
1.528737
 20
-1.033887
  0
LWPOLYLINE
  5
68C
100
AcDbEntity
  8
0
100
AcDbPolyline
 90
        4
 70
     1
 43
0.0
 38
2.805
 10
1.878737
 20
-1.033887
 10
1.878737
 20
-0.908887
 10
1.798737
 20
-0.908887
 10
1.798737
 20
-1.033887
  0
TEXT
  5
68D
100
AcDbEntity
  8
0
100
AcDbText
 10
1.965
 20
-0.897
 30
2.8147
 40
0.05
  1
OUT
100
AcDbText
  0
TEXT
  5
68E
100
AcDbEntity
  8
0
100
AcDbText
 10
1.313825
 20
-0.398476
 30
2.8147
 40
0.05
  1
FAULT
100
AcDbText
  0
TEXT
  5
68F
100
AcDbEntity
  8
0
100
AcDbText
 10
1.313825
 20
-0.527604
 30
2.8147
 40
0.05
  1
FORCE
100
AcDbText
  0
TEXT
  5
690
100
AcDbEntity
  8
0
100
AcDbText
 10
1.313825
 20
-0.127307
 30
2.8147
 40
0.05
  1
POWER
100
AcDbText
  0
TEXT
  5
691
100
AcDbEntity
  8
0
100
AcDbText
 10
1.313825
 20
-0.260739
 30
2.8147
 40
0.05
  1
RUN
100
AcDbText
  0
LINE
  5
692
100
AcDbEntity
  8
0
100
AcDbLine
 10
0.82
 20
0.327
 30
2.805
 11
0.0
 21
0.327
 31
2.805
  0
TEXT
  5
693
100
AcDbEntity
  8
0
100
AcDbText
 39
0.001
 10
1.237634
 20
0.719851
 30
2.692373
 40
0.05
  1
COM
 72
     1
 11
1.304301
 21
0.719851
 31
2.692373
100
AcDbText
  0
LWPOLYLINE
  5
694
100
AcDbEntity
  8
0
100
AcDbPolyline
 90
        4
 70
     1
 43
0.0
 38
1.280951
 10
-1.368835
 20
2.567373
 10
-1.368835
 20
2.374843
 10
-1.097367
 20
2.374843
 10
-1.097367
 20
2.567373
210
0.0
220
1.0
230
0.0
  0
TEXT
  5
695
100
AcDbEntity
  8
0
100
AcDbText
 39
0.001
 10
0.612634
 20
0.719851
 30
2.692373
 40
0.05
  1
USED
 72
     1
 11
0.704301
 21
0.719851
 31
2.692373
100
AcDbText
  0
TEXT
  5
696
100
AcDbEntity
  8
0
100
AcDbText
 39
0.001
 10
0.637634
 20
0.819851
 30
2.692373
 40
0.05
  1
NOT
 72
     1
 11
0.704301
 21
0.819851
 31
2.692373
100
AcDbText
  0
TEXT
  5
697
100
AcDbEntity
  8
0
100
AcDbText
 39
0.001
 10
0.912634
 20
0.719851
 30
2.692373
 40
0.05
  1
USED
 72
     1
 11
1.004301
 21
0.719851
 31
2.692373
100
AcDbText
  0
TEXT
  5
698
100
AcDbEntity
  8
0
100
AcDbText
 39
0.001
 10
0.937634
 20
0.819851
 30
2.692373
 40
0.05
  1
NOT
 72
     1
 11
1.004301
 21
0.819851
 31
2.692373
100
AcDbText
  0
LWPOLYLINE
  5
699
100
AcDbEntity
  8
0
100
AcDbPolyline
 90
        4
 70
     1
 43
0.0
 38
1.280951
 10
-0.760438
 20
2.567373
 10
-0.760438
 20
2.374843
 10
-0.48897
 20
2.374843
 10
-0.48897
 20
2.567373
210
0.0
220
1.0
230
0.0
  0
LWPOLYLINE
  5
69A
100
AcDbEntity
  8
0
100
AcDbPolyline
 90
        4
 70
     1
 43
0.0
 38
1.280951
 10
-1.064637
 20
2.567373
 10
-1.064637
 20
2.374843
 10
-0.793168
 20
2.374843
 10
-0.793168
 20
2.567373
210
0.0
220
1.0
230
0.0
  0
LINE
  5
69B
100
AcDbEntity
  8
0
100
AcDbLine
 10
1.31708
 20
0.69868
 30
2.6934
 11
1.31708
 21
0.680967
 31
2.6934
  0
TEXT
  5
69C
100
AcDbEntity
  8
0
100
AcDbText
 39
0.001
 10
1.262634
 20
0.819851
 30
2.692373
 40
0.05
  1
AC
 72
     1
 11
1.304301
 21
0.819851
 31
2.692373
100
AcDbText
  0
TEXT
  5
69D
100
AcDbEntity
  8
0
100
AcDbText
 39
0.001
 10
1.550134
 20
0.819851
 30
2.692373
 40
0.05
  1
I/0
 72
     1
 11
1.604301
 21
0.819851
 31
2.692373
100
AcDbText
  0
TEXT
  5
69E
100
AcDbEntity
  8
0
100
AcDbText
 39
0.001
 10
1.854301
 20
0.819851
 30
2.692373
 40
0.05
  1
I/1
 72
     1
 11
1.904301
 21
0.819851
 31
2.692373
100
AcDbText
  0
LWPOLYLINE
  5
69F
100
AcDbEntity
  8
0
100
AcDbPolyline
 90
        4
 70
     1
 43
0.0
 38
1.280951
 10
-1.673033
 20
2.567373
 10
-1.673033
 20
2.374843
 10
-1.401565
 20
2.374843
 10
-1.401565
 20
2.567373
210
0.0
220
1.0
230
0.0
  0
LWPOLYLINE
  5
6A0
100
AcDbEntity
  8
0
100
AcDbPolyline
 90
        4
 70
     1
 43
0.0
 38
1.280951
 10
-1.977231
 20
2.567373
 10
-1.977231
 20
2.374843
 10
-1.705763
 20
2.374843
 10
-1.705763
 20
2.567373
210
0.0
220
1.0
230
0.0
  0
LWPOLYLINE
  5
6A1
100
AcDbEntity
  8
0
100
AcDbPolyline
 90
        4
 70
     1
 43
0.0
 38
2.805
 10
1.203737
 20
0.127409
 10
1.203737
 20
0.252409
 10
1.123737
 20
0.252409
 10
1.123737
 20
0.127409
  0
LWPOLYLINE
  5
6A2
100
AcDbEntity
  8
0
100
AcDbPolyline
 90
        4
 70
     1
 43
0.0
 38
2.805
 10
1.203737
 20
0.310578
 10
1.203737
 20
0.435578
 10
1.123737
 20
0.435578
 10
1.123737
 20
0.310578
  0
LWPOLYLINE
  5
6A3
100
AcDbEntity
  8
0
100
AcDbPolyline
 90
        4
 70
     1
 43
0.0
 38
2.805
 10
1.743737
 20
0.310578
 10
1.743737
 20
0.435578
 10
1.663737
 20
0.435578
 10
1.663737
 20
0.310578
  0
LWPOLYLINE
  5
6A4
100
AcDbEntity
  8
0
100
AcDbPolyline
 90
        4
 70
     1
 43
0.0
 38
2.805
 10
1.743737
 20
0.127409
 10
1.743737
 20
0.252409
 10
1.663737
 20
0.252409
 10
1.663737
 20
0.127409
  0
LWPOLYLINE
  5
6A5
100
AcDbEntity
  8
0
100
AcDbPolyline
 90
        4
 70
     1
 43
0.0
 38
2.805
 10
1.338737
 20
0.127409
 10
1.338737
 20
0.252409
 10
1.258737
 20
0.252409
 10
1.258737
 20
0.127409
  0
LWPOLYLINE
  5
6A6
100
AcDbEntity
  8
0
100
AcDbPolyline
 90
        4
 70
     1
 43
0.0
 38
2.805
 10
1.473737
 20
0.127409
 10
1.473737
 20
0.252409
 10
1.393737
 20
0.252409
 10
1.393737
 20
0.127409
  0
LWPOLYLINE
  5
6A7
100
AcDbEntity
  8
0
100
AcDbPolyline
 90
        4
 70
     1
 43
0.0
 38
2.805
 10
1.338737
 20
0.310578
 10
1.338737
 20
0.435578
 10
1.258737
 20
0.435578
 10
1.258737
 20
0.310578
  0
LWPOLYLINE
  5
6A8
100
AcDbEntity
  8
0
100
AcDbPolyline
 90
        4
 70
     1
 43
0.0
 38
2.805
 10
1.473737
 20
0.310578
 10
1.473737
 20
0.435578
 10
1.393737
 20
0.435578
 10
1.393737
 20
0.310578
  0
LWPOLYLINE
  5
6A9
100
AcDbEntity
  8
0
100
AcDbPolyline
 90
        4
 70
     1
 43
0.0
 38
2.805
 10
1.608737
 20
0.127409
 10
1.608737
 20
0.252409
 10
1.528737
 20
0.252409
 10
1.528737
 20
0.127409
  0
LWPOLYLINE
  5
6AA
100
AcDbEntity
  8
0
100
AcDbPolyline
 90
        4
 70
     1
 43
0.0
 38
2.805
 10
1.608737
 20
0.310578
 10
1.608737
 20
0.435578
 10
1.528737
 20
0.435578
 10
1.528737
 20
0.310578
  0
LWPOLYLINE
  5
6AB
100
AcDbEntity
  8
0
100
AcDbPolyline
 90
        4
 70
     1
 43
0.0
 38
2.805
 10
2.013737
 20
0.310578
 10
2.013737
 20
0.435578
 10
1.933737
 20
0.435578
 10
1.933737
 20
0.310578
  0
LWPOLYLINE
  5
6AC
100
AcDbEntity
  8
0
100
AcDbPolyline
 90
        4
 70
     1
 43
0.0
 38
2.805
 10
2.013737
 20
0.127409
 10
2.013737
 20
0.252409
 10
1.933737
 20
0.252409
 10
1.933737
 20
0.127409
  0
LWPOLYLINE
  5
6AD
100
AcDbEntity
  8
0
100
AcDbPolyline
 90
        4
 70
     1
 43
0.0
 38
2.805
 10
1.878737
 20
0.127409
 10
1.878737
 20
0.252409
 10
1.798737
 20
0.252409
 10
1.798737
 20
0.127409
  0
LWPOLYLINE
  5
6AE
100
AcDbEntity
  8
0
100
AcDbPolyline
 90
        4
 70
     1
 43
0.0
 38
2.805
 10
1.878737
 20
0.310578
 10
1.878737
 20
0.435578
 10
1.798737
 20
0.435578
 10
1.798737
 20
0.310578
  0
LWPOLYLINE
  5
6AF
100
AcDbEntity
  8
0
100
AcDbPolyline
 90
        4
 70
     1
 43
0.0
 38
2.805
 10
2.148737
 20
0.127409
 10
2.148737
 20
0.252409
 10
2.068737
 20
0.252409
 10
2.068737
 20
0.127409
  0
LWPOLYLINE
  5
6B0
100
AcDbEntity
  8
0
100
AcDbPolyline
 90
        4
 70
     1
 43
0.0
 38
2.805
 10
2.148737
 20
0.310578
 10
2.148737
 20
0.435578
 10
2.068737
 20
0.435578
 10
2.068737
 20
0.310578
  0
LINE
  5
6B1
100
AcDbEntity
  8
0
100
AcDbLine
 10
3.63188
 20
-1.280933
 30
2.6934
 11
4.242643
 21
-1.280933
 31
2.6934
  0
LWPOLYLINE
  5
6B2
100
AcDbEntity
  8
0
100
AcDbPolyline
 90
        4
 70
     1
 43
0.0
 38
-1.882049
 10
-4.115154
 20
2.567373
 10
-4.115154
 20
2.374843
 10
-3.843686
 20
2.374843
 10
-3.843686
 20
2.567373
210
0.0
220
1.0
230
0.0
  0
LWPOLYLINE
  5
6B3
100
AcDbEntity
  8
0
100
AcDbPolyline
 90
        4
 70
     1
 43
0.0
 38
-1.882049
 10
-3.202559
 20
2.567373
 10
-3.202559
 20
2.374843
 10
-2.931091
 20
2.374843
 10
-2.931091
 20
2.567373
210
0.0
220
1.0
230
0.0
  0
LWPOLYLINE
  5
6B4
100
AcDbEntity
  8
0
100
AcDbPolyline
 90
        4
 70
     1
 43
0.0
 38
-1.882049
 10
-2.594163
 20
2.567373
 10
-2.594163
 20
2.374843
 10
-2.322695
 20
2.374843
 10
-2.322695
 20
2.567373
210
0.0
220
1.0
230
0.0
  0
LWPOLYLINE
  5
6B5
100
AcDbEntity
  8
0
100
AcDbPolyline
 90
        4
 70
     1
 43
0.0
 38
-1.882049
 10
-2.898361
 20
2.567373
 10
-2.898361
 20
2.374843
 10
-2.626893
 20
2.374843
 10
-2.626893
 20
2.567373
210
0.0
220
1.0
230
0.0
  0
LWPOLYLINE
  5
6B6
100
AcDbEntity
  8
0
100
AcDbPolyline
 90
        4
 70
     1
 43
0.0
 38
-1.882049
 10
-3.506758
 20
2.567373
 10
-3.506758
 20
2.374843
 10
-3.23529
 20
2.374843
 10
-3.23529
 20
2.567373
210
0.0
220
1.0
230
0.0
  0
LWPOLYLINE
  5
6B7
100
AcDbEntity
  8
0
100
AcDbPolyline
 90
        4
 70
     1
 43
0.0
 38
-1.882049
 10
-3.810956
 20
2.567373
 10
-3.810956
 20
2.374843
 10
-3.539488
 20
2.374843
 10
-3.539488
 20
2.567373
210
0.0
220
1.0
230
0.0
  0
LINE
  5
6B8
100
AcDbEntity
  8
0
100
AcDbLine
 10
3.03188
 20
-1.280933
 30
2.6934
 11
3.342643
 21
-1.280933
 31
2.6934
  0
LINE
  5
6B9
100
AcDbEntity
  8
0
100
AcDbLine
 10
2.43188
 20
-1.280933
 30
2.6934
 11
2.742643
 21
-1.280933
 31
2.6934
  0
TEXT
  5
6BA
100
AcDbEntity
  8
0
100
AcDbText
 39
0.001
 10
2.358101
 20
-1.492049
 30
2.692373
 40
0.05
  1
VDC
 72
     1
 11
2.433101
 21
-1.492049
 31
2.692373
100
AcDbText
  0
TEXT
  5
6BB
100
AcDbEntity
  8
0
100
AcDbText
 39
0.001
 10
2.358101
 20
-1.392049
 30
2.692373
 40
0.05
  1
VAC
 72
     1
 11
2.433101
 21
-1.392049
 31
2.692373
100
AcDbText
  0
LINE
  5
6BC
100
AcDbEntity
  8
0
100
AcDbLine
 10
2.43188
 20
-1.29862
 30
2.6934
 11
2.43188
 21
-1.280933
 31
2.6934
  0
TEXT
  5
6BD
100
AcDbEntity
  8
0
100
AcDbText
 39
0.001
 10
2.670601
 20
-1.492049
 30
2.692373
 40
0.05
  1
O/0
 72
     1
 11
2.733101
 21
-1.492049
 31
2.692373
100
AcDbText
  0
LINE
  5
6BE
100
AcDbEntity
  8
0
100
AcDbLine
 10
2.742643
 20
-1.29862
 30
2.6934
 11
2.742643
 21
-1.280933
 31
2.6934
  0
TEXT
  5
6BF
100
AcDbEntity
  8
0
100
AcDbText
 39
0.001
 10
2.958101
 20
-1.492049
 30
2.692373
 40
0.05
  1
VDC
 72
     1
 11
3.033101
 21
-1.492049
 31
2.692373
100
AcDbText
  0
TEXT
  5
6C0
100
AcDbEntity
  8
0
100
AcDbText
 39
0.001
 10
2.958101
 20
-1.392049
 30
2.692373
 40
0.05
  1
VAC
 72
     1
 11
3.033101
 21
-1.392049
 31
2.692373
100
AcDbText
  0
LINE
  5
6C1
100
AcDbEntity
  8
0
100
AcDbLine
 10
3.03188
 20
-1.29862
 30
2.6934
 11
3.03188
 21
-1.280933
 31
2.6934
  0
TEXT
  5
6C2
100
AcDbEntity
  8
0
100
AcDbText
 39
0.001
 10
3.558101
 20
-1.492049
 30
2.692373
 40
0.05
  1
VDC
 72
     1
 11
3.633101
 21
-1.492049
 31
2.692373
100
AcDbText
  0
TEXT
  5
6C3
100
AcDbEntity
  8
0
100
AcDbText
 39
0.001
 10
3.558101
 20
-1.392049
 30
2.692373
 40
0.05
  1
VAC
 72
     1
 11
3.633101
 21
-1.392049
 31
2.692373
100
AcDbText
  0
TEXT
  5
6C4
100
AcDbEntity
  8
0
100
AcDbText
 39
0.001
 10
3.274767
 20
-1.492049
 30
2.692373
 40
0.05
  1
O/1
 72
     1
 11
3.333101
 21
-1.492049
 31
2.692373
100
AcDbText
  0
LINE
  5
6C5
100
AcDbEntity
  8
0
100
AcDbLine
 10
3.342643
 20
-1.29862
 30
2.6934
 11
3.342643
 21
-1.280933
 31
2.6934
  0
LINE
  5
6C6
100
AcDbEntity
  8
0
100
AcDbLine
 10
3.63188
 20
-1.29862
 30
2.6934
 11
3.63188
 21
-1.280933
 31
2.6934
  0
TEXT
  5
6C7
100
AcDbEntity
  8
0
100
AcDbText
 39
0.001
 10
3.866434
 20
-1.492049
 30
2.692373
 40
0.05
  1
O/2
 72
     1
 11
3.933101
 21
-1.492049
 31
2.692373
100
AcDbText
  0
LWPOLYLINE
  5
6C8
100
AcDbEntity
  8
0
100
AcDbPolyline
 90
        4
 70
     1
 43
0.0
 38
-1.882049
 10
-5.027749
 20
2.567373
 10
-5.027749
 20
2.374843
 10
-4.756281
 20
2.374843
 10
-4.756281
 20
2.567373
210
0.0
220
1.0
230
0.0
  0
LWPOLYLINE
  5
6C9
100
AcDbEntity
  8
0
100
AcDbPolyline
 90
        4
 70
     1
 43
0.0
 38
-1.882049
 10
-4.419352
 20
2.567373
 10
-4.419352
 20
2.374843
 10
-4.147884
 20
2.374843
 10
-4.147884
 20
2.567373
210
0.0
220
1.0
230
0.0
  0
LWPOLYLINE
  5
6CA
100
AcDbEntity
  8
0
100
AcDbPolyline
 90
        4
 70
     1
 43
0.0
 38
-1.882049
 10
-4.72355
 20
2.567373
 10
-4.72355
 20
2.374843
 10
-4.452082
 20
2.374843
 10
-4.452082
 20
2.567373
210
0.0
220
1.0
230
0.0
  0
LWPOLYLINE
  5
6CB
100
AcDbEntity
  8
0
100
AcDbPolyline
 90
        4
 70
     1
 43
0.0
 38
-1.882049
 10
-5.331947
 20
2.567373
 10
-5.331947
 20
2.374843
 10
-5.060479
 20
2.374843
 10
-5.060479
 20
2.567373
210
0.0
220
1.0
230
0.0
  0
LWPOLYLINE
  5
6CC
100
AcDbEntity
  8
0
100
AcDbPolyline
 90
        4
 70
     1
 43
0.0
 38
-1.882049
 10
-5.636145
 20
2.567373
 10
-5.636145
 20
2.374843
 10
-5.364677
 20
2.374843
 10
-5.364677
 20
2.567373
210
0.0
220
1.0
230
0.0
  0
LWPOLYLINE
  5
6CD
100
AcDbEntity
  8
0
100
AcDbPolyline
 90
        4
 70
     1
 43
0.0
 38
-1.882049
 10
-5.940343
 20
2.567373
 10
-5.940343
 20
2.374843
 10
-5.668875
 20
2.374843
 10
-5.668875
 20
2.567373
210
0.0
220
1.0
230
0.0
  0
LINE
  5
6CE
100
AcDbEntity
  8
0
100
AcDbLine
 10
4.53188
 20
-1.280933
 30
2.6934
 11
5.742643
 21
-1.280933
 31
2.6934
  0
TEXT
  5
6CF
100
AcDbEntity
  8
0
100
AcDbText
 39
0.001
 10
4.458101
 20
-1.392049
 30
2.692373
 40
0.05
  1
VAC
 72
     1
 11
4.533101
 21
-1.392049
 31
2.692373
100
AcDbText
  0
TEXT
  5
6D0
100
AcDbEntity
  8
0
100
AcDbText
 39
0.001
 10
4.458101
 20
-1.492049
 30
2.692373
 40
0.05
  1
VDC
 72
     1
 11
4.533101
 21
-1.492049
 31
2.692373
100
AcDbText
  0
TEXT
  5
6D1
100
AcDbEntity
  8
0
100
AcDbText
 39
0.001
 10
4.166434
 20
-1.492049
 30
2.692373
 40
0.05
  1
O/3
 72
     1
 11
4.233101
 21
-1.492049
 31
2.692373
100
AcDbText
  0
LINE
  5
6D2
100
AcDbEntity
  8
0
100
AcDbLine
 10
4.242643
 20
-1.29862
 30
2.6934
 11
4.242643
 21
-1.280933
 31
2.6934
  0
LINE
  5
6D3
100
AcDbEntity
  8
0
100
AcDbLine
 10
4.53188
 20
-1.29862
 30
2.6934
 11
4.53188
 21
-1.280933
 31
2.6934
  0
TEXT
  5
6D4
100
AcDbEntity
  8
0
100
AcDbText
 39
0.001
 10
4.766434
 20
-1.492049
 30
2.692373
 40
0.05
  1
O/4
 72
     1
 11
4.833101
 21
-1.492049
 31
2.692373
100
AcDbText
  0
TEXT
  5
6D5
100
AcDbEntity
  8
0
100
AcDbText
 39
0.001
 10
5.366434
 20
-1.492049
 30
2.692373
 40
0.05
  1
O/6
 72
     1
 11
5.433101
 21
-1.492049
 31
2.692373
100
AcDbText
  0
TEXT
  5
6D6
100
AcDbEntity
  8
0
100
AcDbText
 39
0.001
 10
5.066434
 20
-1.492049
 30
2.692373
 40
0.05
  1
O/5
 72
     1
 11
5.133101
 21
-1.492049
 31
2.692373
100
AcDbText
  0
TEXT
  5
6D7
100
AcDbEntity
  8
0
100
AcDbText
 39
0.001
 10
5.666434
 20
-1.492049
 30
2.692373
 40
0.05
  1
O/7
 72
     1
 11
5.733101
 21
-1.492049
 31
2.692373
100
AcDbText
  0
LINE
  5
6D8
100
AcDbEntity
  8
0
100
AcDbLine
 10
5.742643
 20
-1.29862
 30
2.6934
 11
5.742643
 21
-1.280933
 31
2.6934
  0
LWPOLYLINE
  5
6D9
100
AcDbEntity
  8
0
100
AcDbPolyline
 90
        4
 70
     1
 43
0.0
 38
1.280951
 10
-4.106619
 20
2.567373
 10
-4.106619
 20
2.374843
 10
-3.835151
 20
2.374843
 10
-3.835151
 20
2.567373
210
0.0
220
1.0
230
0.0
  0
TEXT
  5
6DA
100
AcDbEntity
  8
0
100
AcDbText
 39
0.001
 10
3.045967
 20
0.819851
 30
2.692373
 40
0.05
  1
I/4
 72
     1
 11
3.104301
 21
0.819851
 31
2.692373
100
AcDbText
  0
LWPOLYLINE
  5
6DB
100
AcDbEntity
  8
0
100
AcDbPolyline
 90
        4
 70
     1
 43
0.0
 38
1.280951
 10
-3.194024
 20
2.567373
 10
-3.194024
 20
2.374843
 10
-2.922556
 20
2.374843
 10
-2.922556
 20
2.567373
210
0.0
220
1.0
230
0.0
  0
LINE
  5
6DC
100
AcDbEntity
  8
0
100
AcDbLine
 10
2.527843
 20
0.69868
 30
2.6934
 11
2.527843
 21
0.680967
 31
2.6934
  0
TEXT
  5
6DD
100
AcDbEntity
  8
0
100
AcDbText
 39
0.001
 10
2.445967
 20
0.819851
 30
2.692373
 40
0.05
  1
I/3
 72
     1
 11
2.504301
 21
0.819851
 31
2.692373
100
AcDbText
  0
LINE
  5
6DE
100
AcDbEntity
  8
0
100
AcDbLine
 10
2.81708
 20
0.69868
 30
2.6934
 11
2.81708
 21
0.680967
 31
2.6934
  0
TEXT
  5
6DF
100
AcDbEntity
  8
0
100
AcDbText
 39
0.001
 10
2.762634
 20
0.819851
 30
2.692373
 40
0.05
  1
AC
 72
     1
 11
2.804301
 21
0.819851
 31
2.692373
100
AcDbText
  0
TEXT
  5
6E0
100
AcDbEntity
  8
0
100
AcDbText
 39
0.001
 10
2.737634
 20
0.719851
 30
2.692373
 40
0.05
  1
COM
 72
     1
 11
2.804301
 21
0.719851
 31
2.692373
100
AcDbText
  0
LWPOLYLINE
  5
6E1
100
AcDbEntity
  8
0
100
AcDbPolyline
 90
        4
 70
     1
 43
0.0
 38
1.280951
 10
-2.585628
 20
2.567373
 10
-2.585628
 20
2.374843
 10
-2.314159
 20
2.374843
 10
-2.314159
 20
2.567373
210
0.0
220
1.0
230
0.0
  0
LWPOLYLINE
  5
6E2
100
AcDbEntity
  8
0
100
AcDbPolyline
 90
        4
 70
     1
 43
0.0
 38
1.280951
 10
-2.889826
 20
2.567373
 10
-2.889826
 20
2.374843
 10
-2.618358
 20
2.374843
 10
-2.618358
 20
2.567373
210
0.0
220
1.0
230
0.0
  0
TEXT
  5
6E3
100
AcDbEntity
  8
0
100
AcDbText
 39
0.001
 10
3.345967
 20
0.819851
 30
2.692373
 40
0.05
  1
I/5
 72
     1
 11
3.404301
 21
0.819851
 31
2.692373
100
AcDbText
  0
TEXT
  5
6E4
100
AcDbEntity
  8
0
100
AcDbText
 39
0.001
 10
3.645967
 20
0.819851
 30
2.692373
 40
0.05
  1
I/6
 72
     1
 11
3.704301
 21
0.819851
 31
2.692373
100
AcDbText
  0
TEXT
  5
6E5
100
AcDbEntity
  8
0
100
AcDbText
 39
0.001
 10
3.945967
 20
0.819851
 30
2.692373
 40
0.05
  1
I/7
 72
     1
 11
4.004301
 21
0.819851
 31
2.692373
100
AcDbText
  0
LWPOLYLINE
  5
6E6
100
AcDbEntity
  8
0
100
AcDbPolyline
 90
        4
 70
     1
 43
0.0
 38
1.280951
 10
-3.80242
 20
2.567373
 10
-3.80242
 20
2.374843
 10
-3.530952
 20
2.374843
 10
-3.530952
 20
2.567373
210
0.0
220
1.0
230
0.0
  0
LWPOLYLINE
  5
6E7
100
AcDbEntity
  8
0
100
AcDbPolyline
 90
        4
 70
     1
 43
0.0
 38
1.280951
 10
-3.498222
 20
2.567373
 10
-3.498222
 20
2.374843
 10
-3.226754
 20
2.374843
 10
-3.226754
 20
2.567373
210
0.0
220
1.0
230
0.0
  0
LWPOLYLINE
  5
6E8
100
AcDbEntity
  8
0
100
AcDbPolyline
 90
        4
 70
     1
 43
0.0
 38
2.805
 10
2.283737
 20
0.127409
 10
2.283737
 20
0.252409
 10
2.203737
 20
0.252409
 10
2.203737
 20
0.127409
  0
LWPOLYLINE
  5
6E9
100
AcDbEntity
  8
0
100
AcDbPolyline
 90
        4
 70
     1
 43
0.0
 38
2.805
 10
2.418737
 20
0.127409
 10
2.418737
 20
0.252409
 10
2.338737
 20
0.252409
 10
2.338737
 20
0.127409
  0
LWPOLYLINE
  5
6EA
100
AcDbEntity
  8
0
100
AcDbPolyline
 90
        4
 70
     1
 43
0.0
 38
2.805
 10
2.283737
 20
0.310578
 10
2.283737
 20
0.435578
 10
2.203737
 20
0.435578
 10
2.203737
 20
0.310578
  0
LWPOLYLINE
  5
6EB
100
AcDbEntity
  8
0
100
AcDbPolyline
 90
        4
 70
     1
 43
0.0
 38
2.805
 10
2.418737
 20
0.310578
 10
2.418737
 20
0.435578
 10
2.338737
 20
0.435578
 10
2.338737
 20
0.310578
  0
TEXT
  5
6EC
100
AcDbEntity
  8
0
100
AcDbText
 10
2.481492
 20
0.234476
 30
2.8147
 40
0.05
  1
IN
100
AcDbText
  0
TEXT
  5
6ED
100
AcDbEntity
  8
0
100
AcDbText
 39
0.001
 10
4.545967
 20
0.819851
 30
2.692373
 40
0.05
  1
I/9
 72
     1
 11
4.604301
 21
0.819851
 31
2.692373
100
AcDbText
  0
TEXT
  5
6EE
100
AcDbEntity
  8
0
100
AcDbText
 39
0.001
 10
4.245967
 20
0.819851
 30
2.692373
 40
0.05
  1
I/8
 72
     1
 11
4.304301
 21
0.819851
 31
2.692373
100
AcDbText
  0
TEXT
  5
6EF
100
AcDbEntity
  8
0
100
AcDbText
 39
0.001
 10
4.833467
 20
0.819851
 30
2.692373
 40
0.05
  1
I/10
 72
     1
 11
4.904301
 21
0.819851
 31
2.692373
100
AcDbText
  0
LWPOLYLINE
  5
6F0
100
AcDbEntity
  8
0
100
AcDbPolyline
 90
        4
 70
     1
 43
0.0
 38
1.280951
 10
-5.019213
 20
2.567373
 10
-5.019213
 20
2.374843
 10
-4.747745
 20
2.374843
 10
-4.747745
 20
2.567373
210
0.0
220
1.0
230
0.0
  0
LWPOLYLINE
  5
6F1
100
AcDbEntity
  8
0
100
AcDbPolyline
 90
        4
 70
     1
 43
0.0
 38
1.280951
 10
-4.410817
 20
2.567373
 10
-4.410817
 20
2.374843
 10
-4.139349
 20
2.374843
 10
-4.139349
 20
2.567373
210
0.0
220
1.0
230
0.0
  0
LWPOLYLINE
  5
6F2
100
AcDbEntity
  8
0
100
AcDbPolyline
 90
        4
 70
     1
 43
0.0
 38
1.280951
 10
-4.715015
 20
2.567373
 10
-4.715015
 20
2.374843
 10
-4.443547
 20
2.374843
 10
-4.443547
 20
2.567373
210
0.0
220
1.0
230
0.0
  0
TEXT
  5
6F3
100
AcDbEntity
  8
0
100
AcDbText
 39
0.001
 10
5.429301
 20
0.819851
 30
2.692373
 40
0.05
  1
I/12
 72
     1
 11
5.504301
 21
0.819851
 31
2.692373
100
AcDbText
  0
TEXT
  5
6F4
100
AcDbEntity
  8
0
100
AcDbText
 39
0.001
 10
5.137634
 20
0.819851
 30
2.692373
 40
0.05
  1
I/11
 72
     1
 11
5.204301
 21
0.819851
 31
2.692373
100
AcDbText
  0
TEXT
  5
6F5
100
AcDbEntity
  8
0
100
AcDbText
 39
0.001
 10
5.729301
 20
0.819851
 30
2.692373
 40
0.05
  1
I/13
 72
     1
 11
5.804301
 21
0.819851
 31
2.692373
100
AcDbText
  0
LWPOLYLINE
  5
6F6
100
AcDbEntity
  8
0
100
AcDbPolyline
 90
        4
 70
     1
 43
0.0
 38
1.280951
 10
-5.931808
 20
2.567373
 10
-5.931808
 20
2.374843
 10
-5.66034
 20
2.374843
 10
-5.66034
 20
2.567373
210
0.0
220
1.0
230
0.0
  0
LWPOLYLINE
  5
6F7
100
AcDbEntity
  8
0
100
AcDbPolyline
 90
        4
 70
     1
 43
0.0
 38
1.280951
 10
-5.62761
 20
2.567373
 10
-5.62761
 20
2.374843
 10
-5.356142
 20
2.374843
 10
-5.356142
 20
2.567373
210
0.0
220
1.0
230
0.0
  0
LWPOLYLINE
  5
6F8
100
AcDbEntity
  8
0
100
AcDbPolyline
 90
        4
 70
     1
 43
0.0
 38
1.280951
 10
-5.323411
 20
2.567373
 10
-5.323411
 20
2.374843
 10
-5.051943
 20
2.374843
 10
-5.051943
 20
2.567373
210
0.0
220
1.0
230
0.0
  0
POINT
  5
6F9
100
AcDbEntity
  8
DIMS-MTG-HOLES
100
AcDbPoint
 10
7.701
 20
-1.707
 30
0.0
  0
CIRCLE
  5
6FA
100
AcDbEntity
  8
0
100
AcDbCircle
 10
7.701
 20
-1.707
 30
0.317
 40
0.094
  0
LWPOLYLINE
  5
6FB
100
AcDbEntity
  8
0
100
AcDbPolyline
 90
        4
 70
     1
 43
0.0
 38
-1.882049
 10
-7.157136
 20
2.567373
 10
-7.157136
 20
2.374843
 10
-6.885668
 20
2.374843
 10
-6.885668
 20
2.567373
210
0.0
220
1.0
230
0.0
  0
LWPOLYLINE
  5
6FC
100
AcDbEntity
  8
0
100
AcDbPolyline
 90
        4
 70
     1
 43
0.0
 38
-1.882049
 10
-6.244541
 20
2.567373
 10
-6.244541
 20
2.374843
 10
-5.973073
 20
2.374843
 10
-5.973073
 20
2.567373
210
0.0
220
1.0
230
0.0
  0
LWPOLYLINE
  5
6FD
100
AcDbEntity
  8
0
100
AcDbPolyline
 90
        4
 70
     1
 43
0.0
 38
-1.882049
 10
-6.54874
 20
2.567373
 10
-6.54874
 20
2.374843
 10
-6.277272
 20
2.374843
 10
-6.277272
 20
2.567373
210
0.0
220
1.0
230
0.0
  0
LWPOLYLINE
  5
6FE
100
AcDbEntity
  8
0
100
AcDbPolyline
 90
        4
 70
     1
 43
0.0
 38
-1.882049
 10
-6.852938
 20
2.567373
 10
-6.852938
 20
2.374843
 10
-6.58147
 20
2.374843
 10
-6.58147
 20
2.567373
210
0.0
220
1.0
230
0.0
  0
LWPOLYLINE
  5
6FF
100
AcDbEntity
  8
0
100
AcDbPolyline
 90
        4
 70
     1
 43
0.0
 38
-1.882049
 10
-7.461334
 20
2.567373
 10
-7.461334
 20
2.374843
 10
-7.189866
 20
2.374843
 10
-7.189866
 20
2.567373
210
0.0
220
1.0
230
0.0
  0
TEXT
  5
700
100
AcDbEntity
  8
0
100
AcDbText
 39
0.001
 10
6.853934
 20
-1.492049
 30
2.692373
 40
0.05
  1
O/10
 72
     1
 11
6.933101
 21
-1.492049
 31
2.692373
100
AcDbText
  0
LINE
  5
701
100
AcDbEntity
  8
0
100
AcDbLine
 10
6.03188
 20
-1.280933
 30
2.6934
 11
7.242643
 21
-1.280933
 31
2.6934
  0
LINE
  5
702
100
AcDbEntity
  8
0
100
AcDbLine
 10
6.03188
 20
-1.29862
 30
2.6934
 11
6.03188
 21
-1.280933
 31
2.6934
  0
TEXT
  5
703
100
AcDbEntity
  8
0
100
AcDbText
 39
0.001
 10
6.266434
 20
-1.492049
 30
2.692373
 40
0.05
  1
O/8
 72
     1
 11
6.333101
 21
-1.492049
 31
2.692373
100
AcDbText
  0
TEXT
  5
704
100
AcDbEntity
  8
0
100
AcDbText
 39
0.001
 10
6.566434
 20
-1.492049
 30
2.692373
 40
0.05
  1
O/9
 72
     1
 11
6.633101
 21
-1.492049
 31
2.692373
100
AcDbText
  0
TEXT
  5
705
100
AcDbEntity
  8
0
100
AcDbText
 39
0.001
 10
7.158101
 20
-1.492049
 30
2.692373
 40
0.05
  1
O/11
 72
     1
 11
7.233101
 21
-1.492049
 31
2.692373
100
AcDbText
  0
LINE
  5
706
100
AcDbEntity
  8
0
100
AcDbLine
 10
7.242643
 20
-1.29862
 30
2.6934
 11
7.242643
 21
-1.280933
 31
2.6934
  0
LWPOLYLINE
  5
707
100
AcDbEntity
  8
0
100
AcDbPolyline
 90
        4
 70
     1
 43
0.0
 38
1.280951
 10
-7.148601
 20
2.567373
 10
-7.148601
 20
2.374843
 10
-6.877133
 20
2.374843
 10
-6.877133
 20
2.567373
210
0.0
220
1.0
230
0.0
  0
TEXT
  5
708
100
AcDbEntity
  8
0
100
AcDbText
 39
0.001
 10
6.329301
 20
0.819851
 30
2.692373
 40
0.05
  1
I/15
 72
     1
 11
6.404301
 21
0.819851
 31
2.692373
100
AcDbText
  0
TEXT
  5
709
100
AcDbEntity
  8
0
100
AcDbText
 39
0.001
 10
6.029301
 20
0.819851
 30
2.692373
 40
0.05
  1
I/14
 72
     1
 11
6.104301
 21
0.819851
 31
2.692373
100
AcDbText
  0
TEXT
  5
70A
100
AcDbEntity
  8
0
100
AcDbText
 39
0.001
 10
6.629301
 20
0.819851
 30
2.692373
 40
0.05
  1
I/16
 72
     1
 11
6.704301
 21
0.819851
 31
2.692373
100
AcDbText
  0
LWPOLYLINE
  5
70B
100
AcDbEntity
  8
0
100
AcDbPolyline
 90
        4
 70
     1
 43
0.0
 38
1.280951
 10
-6.844402
 20
2.567373
 10
-6.844402
 20
2.374843
 10
-6.572934
 20
2.374843
 10
-6.572934
 20
2.567373
210
0.0
220
1.0
230
0.0
  0
LWPOLYLINE
  5
70C
100
AcDbEntity
  8
0
100
AcDbPolyline
 90
        4
 70
     1
 43
0.0
 38
1.280951
 10
-6.540204
 20
2.567373
 10
-6.540204
 20
2.374843
 10
-6.268736
 20
2.374843
 10
-6.268736
 20
2.567373
210
0.0
220
1.0
230
0.0
  0
TEXT
  5
70D
100
AcDbEntity
  8
0
100
AcDbText
 39
0.001
 10
6.929301
 20
0.819851
 30
2.692373
 40
0.05
  1
I/17
 72
     1
 11
7.004301
 21
0.819851
 31
2.692373
100
AcDbText
  0
TEXT
  5
70E
100
AcDbEntity
  8
0
100
AcDbText
 39
0.001
 10
7.229301
 20
0.819851
 30
2.692373
 40
0.05
  1
I/18
 72
     1
 11
7.304301
 21
0.819851
 31
2.692373
100
AcDbText
  0
TEXT
  5
70F
100
AcDbEntity
  8
0
100
AcDbText
 39
0.001
 10
7.529301
 20
0.819851
 30
2.692373
 40
0.05
  1
I/19
 72
     1
 11
7.604301
 21
0.819851
 31
2.692373
100
AcDbText
  0
LINE
  5
710
100
AcDbEntity
  8
0
100
AcDbLine
 10
7.627843
 20
0.69868
 30
2.6934
 11
7.627843
 21
0.680967
 31
2.6934
  0
LWPOLYLINE
  5
711
100
AcDbEntity
  8
0
100
AcDbPolyline
 90
        4
 70
     1
 43
0.0
 38
1.280951
 10
-7.756997
 20
2.567373
 10
-7.756997
 20
2.374843
 10
-7.485529
 20
2.374843
 10
-7.485529
 20
2.567373
210
0.0
220
1.0
230
0.0
  0
LWPOLYLINE
  5
712
100
AcDbEntity
  8
0
100
AcDbPolyline
 90
        4
 70
     1
 43
0.0
 38
1.280951
 10
-7.452799
 20
2.567373
 10
-7.452799
 20
2.374843
 10
-7.181331
 20
2.374843
 10
-7.181331
 20
2.567373
210
0.0
220
1.0
230
0.0
  0
DIMENSION
  5
713
100
AcDbEntity
  8
AREA1
100
AcDbDimension
  2
*D0
 10
7.876
 20
2.064554
 30
0.17
 11
3.938
 21
2.064554
 31
0.17
 70
    32
  3
ABECAD_3D
100
AcDbAlignedDimension
 13
0.0
 23
1.281
 33
0.17
 14
7.876
 24
1.248474
 34
0.317
100
AcDbRotatedDimension
  0
DIMENSION
  5
714
100
AcDbEntity
  8
AREA1
100
AcDbDimension
  2
*D1
 10
8.775959
 20
-2.032
 30
0.17
 11
8.775959
 21
-0.375525
 31
0.17
 70
    32
  3
ABECAD_3D
100
AcDbAlignedDimension
 13
7.876
 23
1.280951
 33
2.374843
 14
5.94
 24
-2.032
 34
0.1
 50
90.0
100
AcDbRotatedDimension
  0
LINE
  5
715
100
AcDbEntity
  8
SCALE
100
AcDbLine
 10
0.091714
 20
-2.530772
 30
0.0
 11
1.091714
 21
-2.530772
 31
0.0
  0
LINE
  5
716
100
AcDbEntity
  8
SCALE
100
AcDbLine
 10
1.091714
 20
-2.530772
 30
0.0
 11
1.091714
 21
-2.630772
 31
0.0
  0
LINE
  5
717
100
AcDbEntity
  8
SCALE
100
AcDbLine
 10
1.091714
 20
-2.630772
 30
0.0
 11
1.091714
 21
-2.430772
 31
0.0
  0
LINE
  5
718
100
AcDbEntity
  8
SCALE
100
AcDbLine
 10
0.091714
 20
-2.630772
 30
0.0
 11
0.091714
 21
-2.430772
 31
0.0
  0
LINE
  5
719
100
AcDbEntity
  8
SCALE
100
AcDbLine
 10
0.091714
 20
-2.930772
 30
0.0
 11
0.091714
 21
-2.730772
 31
0.0
  0
LINE
  5
71A
100
AcDbEntity
  8
SCALE
100
AcDbLine
 10
0.485414
 20
-2.930772
 30
0.0
 11
0.485414
 21
-2.730772
 31
0.0
  0
LINE
  5
71B
100
AcDbEntity
  8
SCALE
100
AcDbLine
 10
0.091714
 20
-2.830772
 30
0.0
 11
0.485414
 21
-2.830772
 31
0.0
  0
TEXT
  5
71C
100
AcDbEntity
  8
SCALE
100
AcDbText
 10
0.151136
 20
-2.785033
 30
0.0
 40
0.0625
  1
[10mm]
100
AcDbText
  0
TEXT
  5
71D
100
AcDbEntity
  8
SCALE
100
AcDbText
 10
0.454997
 20
-2.461724
 30
0.0
 40
0.0625
  1
1 Inch
100
AcDbText
  0
TEXT
  5
71E
100
AcDbEntity
  8
SCALE
100
AcDbText
 10
0.093244
 20
-2.255895
 30
0.0
 40
0.0625
  1
SCALE:
100
AcDbText
  0
LWPOLYLINE
  5
71F
100
AcDbEntity
  8
SCALE
100
AcDbPolyline
 90
        4
 70
     1
 43
0.0
 10
0.033715
 20
-2.150694
 10
1.169344
 20
-2.150694
 10
1.169344
 20
-2.992304
 10
0.033715
 20
-2.992304
  0
ENDBLK
  5
721
100
AcDbEntity
  8
0
100
AcDbBlockEnd
  0
BLOCK
  5
739
100
AcDbEntity
  8
0
100
AcDbBlockBegin
  2
*D3
 70
     1
 10
0.0
 20
0.0
 30
0.0
  3
*D3
  1

  0
LINE
  5
72F
100
AcDbEntity
  8
AREA2
 62
     0
100
AcDbLine
 10
-0.0625
 20
0.0
 30
0.0
 11
-1.060356
 21
0.0
 31
0.0
1001
ACAD
1000
RTLwPs
1070
   158
  0
LINE
  5
730
100
AcDbEntity
  8
AREA2
 62
     0
100
AcDbLine
 10
0.0175
 20
2.805
 30
0.0
 11
-1.060356
 21
2.805
 31
0.0
1001
ACAD
1000
RTLwPs
1070
   158
  0
LINE
  5
731
100
AcDbEntity
  8
AREA2
 62
     0
100
AcDbLine
 10
-0.880669
 20
0.179688
 30
0.0
 11
-0.880669
 21
0.600417
 31
0.0
1001
ACAD
1000
RTLwPs
1070
   158
  0
LINE
  5
732
100
AcDbEntity
  8
AREA2
 62
     0
100
AcDbLine
 10
-0.880669
 20
2.625313
 30
0.0
 11
-0.880669
 21
2.204583
 31
0.0
1001
ACAD
1000
RTLwPs
1070
   158
  0
SOLID
  5
733
100
AcDbEntity
  8
AREA2
 62
     0
100
AcDbTrace
 10
-0.910617
 20
0.179688
 30
0.0
 11
-0.850721
 21
0.179688
 31
0.0
 12
-0.880669
 22
0.0
 32
0.0
 13
-0.880669
 23
0.0
 33
0.0
  0
SOLID
  5
734
100
AcDbEntity
  8
AREA2
 62
     0
100
AcDbTrace
 10
-0.910617
 20
2.625313
 30
0.0
 11
-0.850721
 21
2.625313
 31
0.0
 12
-0.880669
 22
2.805
 32
0.0
 13
-0.880669
 23
2.805
 33
0.0
  0
MTEXT
  5
735
100
AcDbEntity
  8
AREA2
 62
     0
100
AcDbMText
 10
-0.880669
 20
1.4025
 30
0.0
 40
0.125
 41
0.0
 71
     5
 72
     1
  1
\A1;2 13/16 [71.2]
 11
0.0
 21
1.0
 31
0.0
1001
ACAD
1000
MTEXTBEGIN
1070
    73
1070
     1
1070
    44
1040
1.0
1070
    74
1070
     0
1000
MTEXTEND
1000
MTEXTBEGIN
1070
    73
1070
     1
1070
    44
1040
1.0
1070
    74
1070
     0
1000
MTEXTEND
1000
MTEXTBEGIN
1070
    73
1070
     1
1070
    44
1040
1.0
1070
    74
1070
     0
1000
MTEXTEND
1000
MTEXTBEGIN
1070
    73
1070
     1
1070
    44
1040
1.0
1070
    74
1070
     0
1000
MTEXTEND
1000
MTEXTBEGIN
1070
    73
1070
     1
1070
    44
1040
1.0
1070
    74
1070
     0
1000
MTEXTEND
  0
POINT
  5
736
100
AcDbEntity
  8
DEFPOINTS
 62
     0
100
AcDbPoint
 10
0.0
 20
0.0
 30
0.0
  0
POINT
  5
737
100
AcDbEntity
  8
DEFPOINTS
 62
     0
100
AcDbPoint
 10
0.08
 20
2.805
 30
-0.606
  0
POINT
  5
738
100
AcDbEntity
  8
DEFPOINTS
 62
     0
100
AcDbPoint
 10
-0.880669
 20
2.805
 30
0.0
  0
ENDBLK
  5
73A
100
AcDbEntity
  8
0
100
AcDbBlockEnd
  0
ENDSEC
  0
SECTION
  2
ENTITIES
  0
INSERT
  5
722
100
AcDbEntity
  8
0
100
AcDbBlockReference
 66
     1
  2
ABIOL020
 10
0.0
 20
0.0
 30
0.0
  0
ATTRIB
  5
723
100
AcDbEntity
  8
ATTRIBUTES
100
AcDbText
 10
0.120904
 20
0.744001
 30
0.0
 40
0.15
  1
ALLEN-BRADLEY
100
AcDbAttribute
  2
AC_VND_LABEL
 70
     1
  0
ATTRIB
  5
724
100
AcDbEntity
  8
ATTRIBUTES
100
AcDbText
 10
0.120904
 20
0.431501
 30
0.0
 40
0.15
  1
1761-L32 AWA
100
AcDbAttribute
  2
AC_PART_NO
 70
     1
  0
ATTRIB
  5
725
100
AcDbEntity
  8
ATTRIBUTES
100
AcDbText
 10
0.120904
 20
0.119001
 30
0.0
 40
0.15
  1
1761-L32 AWA: AC RELAY
100
AcDbAttribute
  2
AC_DESCRIPTION
 70
     1
  0
ATTRIB
  5
726
100
AcDbEntity
  8
ATTRIBUTES
100
AcDbText
 10
0.120904
 20
-0.193499
 30
0.0
 40
0.15
  1

100
AcDbAttribute
  2
DEVICE_ID
 70
     1
  0
ATTRIB
  5
727
100
AcDbEntity
  8
ATTRIBUTES
100
AcDbText
 10
0.120904
 20
-0.505999
 30
0.0
 40
0.15
  1

100
AcDbAttribute
  2
AC_CPART_NO
 70
     1
  0
ATTRIB
  5
728
100
AcDbEntity
  8
ATTRIBUTES
100
AcDbText
 10
0.120904
 20
-0.818499
 30
0.0
 40
0.15
  1

100
AcDbAttribute
  2
AC_NOTE
 70
     1
  0
ATTRIB
  5
729
100
AcDbEntity
  8
ATTRIBUTES
100
AcDbText
 10
0.120904
 20
-1.130999
 30
0.0
 40
0.15
  1

100
AcDbAttribute
  2
FASTENER
 70
     1
  0
ATTRIB
  5
72A
100
AcDbEntity
  8
ATTRIBUTES
100
AcDbText
 10
0.120904
 20
-1.443499
 30
0.0
 40
0.15
  1
INCH
100
AcDbAttribute
  2
AC_SCALE_UNIT
 70
     1
  0
ATTRIB
  5
72B
100
AcDbEntity
  8
ATTRIBUTES
100
AcDbText
 10
0.120904
 20
-1.755999
 30
0.0
 40
0.15
  1
0
100
AcDbAttribute
  2
AC_VIEW_CODE
 70
     1
  0
SEQEND
  5
72C
100
AcDbEntity
  8
0
  0
DIMENSION
  5
72D
100
AcDbEntity
  8
AREA2
100
AcDbDimension
  2
*D3
 10
-0.880669
 20
0.0
 30
2.805
 11
-0.880669
 21
1.4025
 31
0.0
 70
    32
210
0.0
220
-1.0
230
0.0
  3
ABECAD_3V
100
AcDbAlignedDimension
 13
0.0
 23
0.0
 33
0.0
 14
0.08
 24
0.606
 34
2.805
 50
90.0
100
AcDbRotatedDimension
1001
ACAD
1000
DSTYLE
1002
{
1070
    40
1040
1.0
1002
}
  0
VIEWPORT
  5
2C
102
{ACAD_XDICTIONARY
360
851
102
}
100
AcDbEntity
 67
     1
  8
0
100
AcDbViewport
 10
4.999849
 20
3.750155
 30
0.0
 40
13.389022
 41
7.577951
 68
     1
 69
     1
1001
ACAD
1000
MVIEW
1002
{
1070
    16
1010
0.0
1020
0.0
1030
0.0
1010
0.0
1020
0.0
1030
1.0
1040
0.0
1040
7.577951
1040
4.999849
1040
3.750155
1040
50.0
1040
0.0
1040
0.0
1070
     0
1070
   100
1070
     1
1070
     1
1070
     0
1070
     0
1070
     0
1070
     0
1040
0.0
1040
0.0
1040
0.0
1040
1.0
1040
1.0
1040
0.0
1040
0.0
1070
     0
1002
{
1002
}
1002
}
  0
VIEWPORT
  5
2D
102
{ACAD_XDICTIONARY
360
853
102
}
100
AcDbEntity
 67
     1
  8
0
100
AcDbViewport
 10
2.5
 20
5.625
 30
0.0
 40
5.0
 41
3.75
 68
     4
 69
     2
1001
ACAD
1000
MVIEW
1002
{
1070
    16
1010
0.0
1020
0.0
1030
0.0
1010
0.0
1020
0.0
1030
1.0
1040
0.0
1040
7.769799
1040
3.947801
1040
-0.373875
1040
50.0
1040
0.0
1040
0.0
1070
     0
1070
   100
1070
     1
1070
     0
1070
     0
1070
     0
1070
     0
1070
     0
1040
0.0
1040
0.0
1040
0.0
1040
1.0
1040
1.0
1040
0.0
1040
0.0
1070
     0
1002
{
1003
AREA2
1002
}
1002
}
  0
VIEWPORT
  5
2E
102
{ACAD_XDICTIONARY
360
855
102
}
100
AcDbEntity
 67
     1
  8
0
100
AcDbViewport
 10
2.5
 20
1.875
 30
0.0
 40
5.0
 41
3.75
 68
     3
 69
     3
1001
ACAD
1000
MVIEW
1002
{
1070
    16
1010
0.0
1020
0.0
1030
0.0
1010
0.0
1020
-1.0
1030
0.0
1040
0.0
1040
7.769799
1040
3.947801
1040
1.40735
1040
50.0
1040
0.0
1040
0.0
1070
     0
1070
   100
1070
     1
1070
     0
1070
     0
1070
     0
1070
     0
1070
     0
1040
0.0
1040
0.0
1040
0.0
1040
1.0
1040
1.0
1040
0.0
1040
0.0
1070
     0
1002
{
1003
AREA1
1002
}
1002
}
  0
VIEWPORT
  5
2F
102
{ACAD_XDICTIONARY
360
857
102
}
100
AcDbEntity
 67
     1
  8
0
100
AcDbViewport
 10
7.5
 20
3.75
 30
0.0
 40
5.0
 41
7.5
 68
     2
 69
     4
1001
ACAD
1000
MVIEW
1002
{
1070
    16
1010
0.0
1020
0.0
1030
0.0
1010
-1.0
1020
-1.0
1030
1.0
1040
0.0
1040
13.109289
1040
3.125552
1040
4.341395
1040
50.0
1040
0.0
1040
0.0
1070
     0
1070
   100
1070
     1
1070
     0
1070
     0
1070
     0
1070
     0
1070
     0
1040
0.0
1040
0.0
1040
0.0
1040
1.0
1040
1.0
1040
0.0
1040
0.0
1070
     0
1002
{
1003
AREA1
1003
AREA2
1002
}
1002
}
  0
TEXT
  5
42D
100
AcDbEntity
 67
     1
  8
0
100
AcDbText
 10
5.253785
 20
7.092701
 30
0.0
 40
0.2
  1
1761-L32 AWA
100
AcDbText
  0
TEXT
  5
431
100
AcDbEntity
 67
     1
  8
0
100
AcDbText
 10
5.253785
 20
6.759368
 30
0.0
 40
0.2
  1
1761-L32 AWA: AC RELAY
100
AcDbText
1001
ACAD
1000
R13OBJECT
1002
{
1005
42D
1002
}
  0
TEXT
  5
52E
100
AcDbEntity
 67
     1
  8
0
100
AcDbText
 10
5.240015
 20
6.436423
 30
0.0
 40
0.2
  1

100
AcDbText
  0
TEXT
  5
52F
100
AcDbEntity
 67
     1
  8
0
100
AcDbText
 10
5.240015
 20
6.10309
 30
0.0
 40
0.2
  1

100
AcDbText
  0
TEXT
  5
530
100
AcDbEntity
 67
     1
  8
0
100
AcDbText
 10
5.240015
 20
5.769757
 30
0.0
 40
0.2
  1

100
AcDbText
  0
ENDSEC
  0
SECTION
  2
OBJECTS
  0
DICTIONARY
  5
46D
100
AcDbDictionary
  3
ACAD_GROUP
350
46E
  3
ACAD_LAYOUT
350
49E
  3
ACAD_MLINESTYLE
350
47B
  3
ACAD_PLOTSETTINGS
350
49F
  3
ACAD_PLOTSTYLENAME
350
49C
  3
ACDBHEADERROUNDTRIPXREC
350
830
  3
ACDBVARIABLEDICTIONARY
350
48D
  0
DICTIONARY
  5
82E
100
AcDbDictionary
280
     1
  3
ACAD_XREC_ROUNDTRIP
360
82F
  0
DICTIONARY
  5
85B
100
AcDbDictionary
280
     1
  3
ACAD_XREC_ROUNDTRIP
360
85C
  0
DICTIONARY
  5
85D
100
AcDbDictionary
280
     1
  3
ACAD_XREC_ROUNDTRIP
360
85E
  0
DICTIONARY
  5
85F
100
AcDbDictionary
280
     1
  3
ACAD_XREC_ROUNDTRIP
360
860
  0
DICTIONARY
  5
863
100
AcDbDictionary
280
     1
  3
ACAD_XREC_ROUNDTRIP
360
864
  0
DICTIONARY
  5
4D2
100
AcDbDictionary
280
     1
  3
ACAD_LAYOUTSELFREF
360
85A
  0
DICTIONARY
  5
4D0
100
AcDbDictionary
280
     1
  3
ACAD_LAYOUTSELFREF
360
859
  0
DICTIONARY
  5
82C
100
AcDbDictionary
280
     1
  3
ACAD_XREC_ROUNDTRIP
360
82D
  0
DICTIONARY
  5
851
100
AcDbDictionary
280
     1
  3
ACAD_XREC_ROUNDTRIP
360
852
  0
DICTIONARY
  5
853
100
AcDbDictionary
280
     1
  3
ACAD_XREC_ROUNDTRIP
360
854
  0
DICTIONARY
  5
855
100
AcDbDictionary
280
     1
  3
ACAD_XREC_ROUNDTRIP
360
856
  0
DICTIONARY
  5
857
100
AcDbDictionary
280
     1
  3
ACAD_XREC_ROUNDTRIP
360
858
  0
DICTIONARY
  5
46E
102
{ACAD_REACTORS
330
46D
102
}
100
AcDbDictionary
  0
DICTIONARY
  5
49E
102
{ACAD_XDICTIONARY
360
861
102
}
102
{ACAD_REACTORS
330
46D
102
}
100
AcDbDictionary
  3
LAYOUT1
350
4A1
  3
MODEL
350
4A0
  0
DICTIONARY
  5
47B
102
{ACAD_REACTORS
330
46D
102
}
100
AcDbDictionary
  3
STANDARD
350
47C
  0
DICTIONARY
  5
49F
102
{ACAD_REACTORS
330
46D
102
}
100
AcDbDictionary
  0
ACAD_PROXY_OBJECT
  5
49C
102
{ACAD_REACTORS
330
46D
102
}
100
AcDbProxyObject
 90
      499
 91
      501
 93
       86
310
405010041939BDC9B585B0
350
49D
340
49D
 94
        0
  0
DICTIONARY
  5
830
102
{ACAD_REACTORS
330
46D
102
}
100
AcDbDictionary
  3
CEPSNTYPE
350
83A
  3
DIMSTYLEDATA
350
83E
  3
FINGERPRINTGUID
350
83B
  3
HYPERLINKBASE
350
833
  3
INSUNITS
350
839
  3
LAYOUTDICT
350
835
  3
LWETCUNION
350
838
  3
PLOTSETDICT
350
836
  3
PLOTSTYLNAMDICT
350
837
  3
PSVPSCALE
350
83D
  3
PUCSBASE
350
841
  3
PUCSORGBACK
350
847
  3
PUCSORGBOTTOM
350
843
  3
PUCSORGFRONT
350
846
  3
PUCSORGLEFT
350
844
  3
PUCSORGRIGHT
350
845
  3
PUCSORGTOP
350
842
  3
PUCSORTHOREF
350
83F
  3
PUCSORTHOVIEW
350
840
  3
STYLESHEET
350
834
  3
TSTACKALIGN
350
831
  3
TSTACKSIZE
350
832
  3
UCSBASE
350
84A
  3
UCSORGBACK
350
850
  3
UCSORGBOTTOM
350
84C
  3
UCSORGFRONT
350
84F
  3
UCSORGLEFT
350
84D
  3
UCSORGRIGHT
350
84E
  3
UCSORGTOP
350
84B
  3
UCSORTHOREF
350
848
  3
UCSORTHOVIEW
350
849
  3
VERSIONGUID
350
83C
  0
DICTIONARY
  5
48D
102
{ACAD_REACTORS
330
46D
102
}
100
AcDbDictionary
  3
DIMADEC
350
48E
  0
XRECORD
  5
82F
102
{ACAD_REACTORS
330
82E
102
}
100
AcDbXrecord
102
EXTNAMES
  1
*ACTIVE
  2
*Active
102
UCS
 74
     0
 71
     1
 10
0.0
 20
0.0
 30
0.0
 10
1.0
 20
0.0
 30
0.0
 10
0.0
 20
1.0
 30
0.0
146
0.0
 79
     1
102
VIEW
281
     0
  0
XRECORD
  5
85C
102
{ACAD_REACTORS
330
85B
102
}
100
AcDbXrecord
102
PLOTBIT
280
     0
  0
XRECORD
  5
85E
102
{ACAD_REACTORS
330
85D
102
}
100
AcDbXrecord
102
ACADR14ROUNDTRIP
1000
DSTYLE
1002
{
1070
   276
 70
     2
1070
   277
 70
     5
1070
   279
 70
     2
1002
}
  0
XRECORD
  5
860
102
{ACAD_REACTORS
330
85F
102
}
100
AcDbXrecord
102
ACADR14ROUNDTRIP
1000
DSTYLE
1002
{
1070
   276
 70
     2
1070
   277
 70
     5
1070
   279
 70
     2
1002
}
  0
XRECORD
  5
864
102
{ACAD_REACTORS
330
863
102
}
100
AcDbXrecord
102
ACADR14ROUNDTRIP
1000
DSTYLE
1002
{
1070
   276
 70
     2
1070
   277
 70
     5
1002
}
  0
XRECORD
  5
85A
102
{ACAD_REACTORS
330
4D2
102
}
100
AcDbXrecord
340
478
  0
XRECORD
  5
859
102
{ACAD_REACTORS
330
4D0
102
}
100
AcDbXrecord
340
475
  0
XRECORD
  5
82D
102
{ACAD_REACTORS
330
82C
102
}
100
AcDbXrecord
102
EXTNAMES
  1
ABIOL020
  2
Abiol020
  0
XRECORD
  5
852
102
{ACAD_REACTORS
330
851
102
}
100
AcDbXrecord
102
UCS
 74
     0
 71
     1
 10
0.0
 20
0.0
 30
0.0
 10
1.0
 20
0.0
 30
0.0
 10
0.0
 20
1.0
 30
0.0
146
0.0
 79
     0
102
VIEW
281
     0
102
NEWVIEWCONTROL
280
     4
  0
XRECORD
  5
854
102
{ACAD_REACTORS
330
853
102
}
100
AcDbXrecord
102
UCS
 74
     0
 71
     1
 10
0.0
 20
0.0
 30
0.0
 10
1.0
 20
0.0
 30
0.0
 10
0.0
 20
1.0
 30
0.0
146
0.0
 79
     1
102
VIEW
281
     0
102
NEWVIEWCONTROL
280
     4
  0
XRECORD
  5
856
102
{ACAD_REACTORS
330
855
102
}
100
AcDbXrecord
102
UCS
 74
     0
 71
     1
 10
0.0
 20
0.0
 30
0.0
 10
1.0
 20
0.0
 30
0.0
 10
0.0
 20
0.0
 30
1.0
146
0.0
 79
     3
102
VIEW
281
     0
102
NEWVIEWCONTROL
280
     4
  0
XRECORD
  5
858
102
{ACAD_REACTORS
330
857
102
}
100
AcDbXrecord
102
UCS
 74
     0
 71
     1
 10
0.0
 20
0.0
 30
0.0
 10
1.0
 20
0.0
 30
0.0
 10
0.0
 20
1.0
 30
0.0
146
0.0
 79
     0
102
VIEW
281
     0
102
NEWVIEWCONTROL
280
     4
  0
DICTIONARY
  5
861
100
AcDbDictionary
280
     1
  3
ACAD_XREC_ROUNDTRIP
360
862
  0
ACAD_PROXY_OBJECT
  5
4A1
102
{ACAD_REACTORS
330
49E
102
}
100
AcDbProxyObject
 90
      499
 91
      503
 93
     2044
310
91D4850204C617365724A65742035303030205365726965732050434C20362C008000000C0BB1B1440000000102F06C510000000000BC1B1440000000002E06C5100000000C0CCFC6A4000000018199D9C501064C6574746572A901406AA427D84144352EEE3F47D11959985D5B1D08148C4D081C195B88185CDCDA59DB9B5
310
95B9D1CCB98DD18A30EDE3B1BBFDBC0FC1D572C8D6D0C833F1A2B3054E9249F0FD074C61796F75743140501A97D7DB4AA43C31EFF91E46EBA53B71EFD1B32A15809809100B2537F8EAD447D02A6A6A00200C0093BD106FC0000F06EE366FABE00001413D8FD3E6F04424FF2920002440160B7F435600079000000CF48875D0
310
73D0
330
475
330
2C
340
0
340
0
 94
        0
  0
ACAD_PROXY_OBJECT
  5
4A0
102
{ACAD_REACTORS
330
49E
102
}
100
AcDbProxyObject
 90
      499
 91
      503
 93
      924
310
91D4850204C617365724A65742035303030205365726965732050434C20362C01AAAAAAAAA547D11959985D5B1D08148C4D081C195B88185CDCDA59DB9B595B9D1CCB98DD18A69054D6F64656C901A800000000000000000000000000000000000000000000A1000000000000008902A6A6AAAA0
330
478
330
0
340
0
340
0
 94
        0
  0
MLINESTYLE
  5
47C
102
{ACAD_REACTORS
330
47B
102
}
100
AcDbMlineStyle
  2
STANDARD
 70
     0
  3

 62
   256
 51
90.0
 52
90.0
 71
     2
 49
0.5
 62
   256
  6
BYLAYER
 49
-0.5
 62
   256
  6
BYLAYER
  0
ACAD_PROXY_OBJECT
  5
49D
102
{ACAD_REACTORS
330
49C
102
}
100
AcDbProxyObject
 90
      499
 91
      502
 93
        0
 94
        0
  0
XRECORD
  5
83A
102
{ACAD_REACTORS
330
830
102
}
100
AcDbXrecord
 90
        0
  0
XRECORD
  5
83E
102
{ACAD_REACTORS
330
830
102
}
100
AcDbXrecord
1000
DSTYLE
1002
{
1070
   276
 70
     2
1070
   277
 70
     5
1070
   279
 70
     2
1002
}
  0
XRECORD
  5
83B
102
{ACAD_REACTORS
330
830
102
}
100
AcDbXrecord
  1
{6E0CF4B5-225E-11D4-A150-00A0CC3303EC}
  0
XRECORD
  5
833
102
{ACAD_REACTORS
330
830
102
}
100
AcDbXrecord
  1

  0
XRECORD
  5
839
102
{ACAD_REACTORS
330
830
102
}
100
AcDbXrecord
 90
        0
  0
XRECORD
  5
835
102
{ACAD_REACTORS
330
830
102
}
100
AcDbXrecord
340
49E
  0
XRECORD
  5
838
102
{ACAD_REACTORS
330
830
102
}
100
AcDbXrecord
 90
    14877
  0
XRECORD
  5
836
102
{ACAD_REACTORS
330
830
102
}
100
AcDbXrecord
340
49F
  0
XRECORD
  5
837
102
{ACAD_REACTORS
330
830
102
}
100
AcDbXrecord
340
49C
  0
XRECORD
  5
83D
102
{ACAD_REACTORS
330
830
102
}
100
AcDbXrecord
 40
0.0
  0
XRECORD
  5
841
102
{ACAD_REACTORS
330
830
102
}
100
AcDbXrecord
340
0
  0
XRECORD
  5
847
102
{ACAD_REACTORS
330
830
102
}
100
AcDbXrecord
 10
0.0
 20
0.0
 30
0.0
  0
XRECORD
  5
843
102
{ACAD_REACTORS
330
830
102
}
100
AcDbXrecord
 10
0.0
 20
0.0
 30
0.0
  0
XRECORD
  5
846
102
{ACAD_REACTORS
330
830
102
}
100
AcDbXrecord
 10
0.0
 20
0.0
 30
0.0
  0
XRECORD
  5
844
102
{ACAD_REACTORS
330
830
102
}
100
AcDbXrecord
 10
0.0
 20
0.0
 30
0.0
  0
XRECORD
  5
845
102
{ACAD_REACTORS
330
830
102
}
100
AcDbXrecord
 10
0.0
 20
0.0
 30
0.0
  0
XRECORD
  5
842
102
{ACAD_REACTORS
330
830
102
}
100
AcDbXrecord
 10
0.0
 20
0.0
 30
0.0
  0
XRECORD
  5
83F
102
{ACAD_REACTORS
330
830
102
}
100
AcDbXrecord
340
0
  0
XRECORD
  5
840
102
{ACAD_REACTORS
330
830
102
}
100
AcDbXrecord
 70
     0
  0
XRECORD
  5
834
102
{ACAD_REACTORS
330
830
102
}
100
AcDbXrecord
  1

  0
XRECORD
  5
831
102
{ACAD_REACTORS
330
830
102
}
100
AcDbXrecord
 90
        1
  0
XRECORD
  5
832
102
{ACAD_REACTORS
330
830
102
}
100
AcDbXrecord
 90
       70
  0
XRECORD
  5
84A
102
{ACAD_REACTORS
330
830
102
}
100
AcDbXrecord
340
0
  0
XRECORD
  5
850
102
{ACAD_REACTORS
330
830
102
}
100
AcDbXrecord
 10
0.0
 20
0.0
 30
0.0
  0
XRECORD
  5
84C
102
{ACAD_REACTORS
330
830
102
}
100
AcDbXrecord
 10
0.0
 20
0.0
 30
0.0
  0
XRECORD
  5
84F
102
{ACAD_REACTORS
330
830
102
}
100
AcDbXrecord
 10
0.0
 20
0.0
 30
0.0
  0
XRECORD
  5
84D
102
{ACAD_REACTORS
330
830
102
}
100
AcDbXrecord
 10
0.0
 20
0.0
 30
0.0
  0
XRECORD
  5
84E
102
{ACAD_REACTORS
330
830
102
}
100
AcDbXrecord
 10
0.0
 20
0.0
 30
0.0
  0
XRECORD
  5
84B
102
{ACAD_REACTORS
330
830
102
}
100
AcDbXrecord
 10
0.0
 20
0.0
 30
0.0
  0
XRECORD
  5
848
102
{ACAD_REACTORS
330
830
102
}
100
AcDbXrecord
340
0
  0
XRECORD
  5
849
102
{ACAD_REACTORS
330
830
102
}
100
AcDbXrecord
 70
     0
  0
XRECORD
  5
83C
102
{ACAD_REACTORS
330
830
102
}
100
AcDbXrecord
  1
{B5CCD37C-60F8-47C8-81B0-5B8FDB074B51}
  0
DICTIONARYVAR
  5
48E
102
{ACAD_REACTORS
330
48D
102
}
100
DictionaryVariables
280
     0
  1
0
  0
XRECORD
  5
862
102
{ACAD_REACTORS
330
861
102
}
100
AcDbXrecord
102
EXTNAMES
  1
LAYOUT1
  2
Layout1
  1
MODEL
  2
Model
  0
ENDSEC
  0
EOF
