  0
SECTION
  2
HEADER
  9
$ACADVER
  1
AC1014
  9
$ACADMAINTVER
 70
     8
  9
$DWGCODEPAGE
  3
ANSI_1252
  9
$INSBASE
 10
0.0
 20
0.0
 30
0.0
  9
$EXTMIN
 10
-0.238645
 20
-4.098304
 30
0.0
  9
$EXTMAX
 10
8.780959
 20
1.138554
 30
2.8147
  9
$LIMMIN
 10
0.0
 20
0.0
  9
$LIMMAX
 10
12.0
 20
9.0
  9
$ORTHOMODE
 70
     0
  9
$REGENMODE
 70
     1
  9
$FILLMODE
 70
     1
  9
$QTEXTMODE
 70
     0
  9
$MIRRTEXT
 70
     1
  9
$DRAGMODE
 70
     2
  9
$LTSCALE
 40
1.0
  9
$OSMODE
 70
    45
  9
$ATTMODE
 70
     1
  9
$TEXTSIZE
 40
0.12
  9
$TRACEWID
 40
0.05
  9
$TEXTSTYLE
  7
STANDARD
  9
$CLAYER
  8
0
  9
$CELTYPE
  6
BYLAYER
  9
$CECOLOR
 62
   256
  9
$CELTSCALE
 40
1.0
  9
$DELOBJ
 70
     1
  9
$DISPSILH
 70
     0
  9
$DIMSCALE
 40
1.0
  9
$DIMASZ
 40
0.18
  9
$DIMEXO
 40
0.0625
  9
$DIMDLI
 40
0.375
  9
$DIMRND
 40
0.0
  9
$DIMDLE
 40
0.0
  9
$DIMEXE
 40
0.18
  9
$DIMTP
 40
0.0
  9
$DIMTM
 40
0.0
  9
$DIMTXT
 40
0.18
  9
$DIMCEN
 40
0.09
  9
$DIMTSZ
 40
0.0
  9
$DIMTOL
 70
     0
  9
$DIMLIM
 70
     0
  9
$DIMTIH
 70
     0
  9
$DIMTOH
 70
     1
  9
$DIMSE1
 70
     0
  9
$DIMSE2
 70
     0
  9
$DIMTAD
 70
     0
  9
$DIMZIN
 70
     4
  9
$DIMBLK
  1

  9
$DIMASO
 70
     1
  9
$DIMSHO
 70
     1
  9
$DIMPOST
  1

  9
$DIMAPOST
  1

  9
$DIMALT
 70
     1
  9
$DIMALTD
 70
     1
  9
$DIMALTF
 40
25.4
  9
$DIMLFAC
 40
1.0
  9
$DIMTOFL
 70
     0
  9
$DIMTVP
 40
0.0
  9
$DIMTIX
 70
     0
  9
$DIMSOXD
 70
     0
  9
$DIMSAH
 70
     0
  9
$DIMBLK1
  1

  9
$DIMBLK2
  1

  9
$DIMSTYLE
  2
ABECAD_3D
  9
$DIMCLRD
 70
     0
  9
$DIMCLRE
 70
     0
  9
$DIMCLRT
 70
     0
  9
$DIMTFAC
 40
1.5
  9
$DIMGAP
 40
0.09
  9
$DIMJUST
 70
     0
  9
$DIMSD1
 70
     0
  9
$DIMSD2
 70
     0
  9
$DIMTOLJ
 70
     1
  9
$DIMTZIN
 70
     4
  9
$DIMALTZ
 70
     4
  9
$DIMALTTZ
 70
     4
  9
$DIMFIT
 70
     3
  9
$DIMUPT
 70
     0
  9
$DIMUNIT
 70
     7
  9
$DIMDEC
 70
     6
  9
$DIMTDEC
 70
     6
  9
$DIMALTU
 70
     2
  9
$DIMALTTD
 70
     1
  9
$DIMTXSTY
  7
STANDARD
  9
$DIMAUNIT
 70
     0
  9
$LUNITS
 70
     2
  9
$LUPREC
 70
     4
  9
$SKETCHINC
 40
0.1
  9
$FILLETRAD
 40
0.0
  9
$AUNITS
 70
     0
  9
$AUPREC
 70
     0
  9
$MENU
  1
ACAD
  9
$ELEVATION
 40
0.0
  9
$PELEVATION
 40
0.0
  9
$THICKNESS
 40
0.0
  9
$LIMCHECK
 70
     0
  9
$BLIPMODE
 70
     0
  9
$CHAMFERA
 40
0.0
  9
$CHAMFERB
 40
0.0
  9
$CHAMFERC
 40
0.0
  9
$CHAMFERD
 40
0.0
  9
$SKPOLY
 70
     0
  9
$TDCREATE
 40
2451670.444776967
  9
$TDUPDATE
 40
2452128.459104629
  9
$TDINDWG
 40
0.0104587963
  9
$TDUSRTIMER
 40
0.0104587963
  9
$USRTIMER
 70
     1
  9
$ANGBASE
 50
0.0
  9
$ANGDIR
 70
     0
  9
$PDMODE
 70
     3
  9
$PDSIZE
 40
0.09
  9
$PLINEWID
 40
0.0
  9
$COORDS
 70
     1
  9
$SPLFRAME
 70
     1
  9
$SPLINETYPE
 70
     6
  9
$SPLINESEGS
 70
     8
  9
$ATTDIA
 70
     0
  9
$ATTREQ
 70
     1
  9
$HANDLING
 70
     1
  9
$HANDSEED
  5
45E4D
  9
$SURFTAB1
 70
     6
  9
$SURFTAB2
 70
     6
  9
$SURFTYPE
 70
     6
  9
$SURFU
 70
     6
  9
$SURFV
 70
     6
  9
$UCSNAME
  2

  9
$UCSORG
 10
0.0
 20
0.0
 30
0.0
  9
$UCSXDIR
 10
1.0
 20
0.0
 30
0.0
  9
$UCSYDIR
 10
0.0
 20
1.0
 30
0.0
  9
$PUCSNAME
  2

  9
$PUCSORG
 10
0.0
 20
0.0
 30
0.0
  9
$PUCSXDIR
 10
1.0
 20
0.0
 30
0.0
  9
$PUCSYDIR
 10
0.0
 20
1.0
 30
0.0
  9
$USERI1
 70
     0
  9
$USERI2
 70
     0
  9
$USERI3
 70
     0
  9
$USERI4
 70
     0
  9
$USERI5
 70
     0
  9
$USERR1
 40
0.0
  9
$USERR2
 40
0.0
  9
$USERR3
 40
0.0
  9
$USERR4
 40
0.0
  9
$USERR5
 40
0.0
  9
$WORLDVIEW
 70
     1
  9
$SHADEDGE
 70
     3
  9
$SHADEDIF
 70
    70
  9
$TILEMODE
 70
     1
  9
$MAXACTVP
 70
    16
  9
$PINSBASE
 10
0.0
 20
0.0
 30
0.0
  9
$PLIMCHECK
 70
     0
  9
$PEXTMIN
 10
1.000000E+20
 20
1.000000E+20
 30
1.000000E+20
  9
$PEXTMAX
 10
-1.000000E+20
 20
-1.000000E+20
 30
-1.000000E+20
  9
$PLIMMIN
 10
0.0
 20
0.0
  9
$PLIMMAX
 10
12.0
 20
9.0
  9
$UNITMODE
 70
     0
  9
$VISRETAIN
 70
     0
  9
$PLINEGEN
 70
     0
  9
$PSLTSCALE
 70
     1
  9
$TREEDEPTH
 70
  3020
  9
$PICKSTYLE
 70
     1
  9
$CMLSTYLE
  2
STANDARD
  9
$CMLJUST
 70
     0
  9
$CMLSCALE
 40
1.0
  9
$PROXYGRAPHICS
 70
     1
  9
$MEASUREMENT
 70
     0
  0
ENDSEC
  0
SECTION
  2
CLASSES
  0
CLASS
  1
DICTIONARYVAR
  2
AcDbDictionaryVar
  3
"AutoCAD"
 90
        0
280
     0
281
     0
  0
CLASS
  1
ACDBDICTIONARYWDFLT
  2
AcDbDictionaryWithDefault
  3
AutoCAD 2000
 90
        0
280
     0
281
     0
  0
CLASS
  1
ACDBPLACEHOLDER
  2
AcDbPlaceHolder
  3
AutoCAD 2000
 90
        0
280
     0
281
     0
  0
CLASS
  1
LAYOUT
  2
AcDbLayout
  3
AutoCAD 2000
 90
        0
280
     0
281
     0
  0
CLASS
  1
LONG_TRANSACTION
  2
AcDbLongTransaction
  3
AutoCAD 2000
 90
        0
280
     0
281
     0
  0
CLASS
  1
LWPOLYLINE
  2
AcDbPolyline
  3
"AutoCAD"
 90
        0
280
     0
281
     1
  0
CLASS
  1
HATCH
  2
AcDbHatch
  3
"ACAD_SEDONA"
 90
        0
280
     0
281
     1
  0
CLASS
  1
XRECORD
  2
AcDbXrecord
  3
"<Built In>"
 90
        0
280
     0
281
     0
  0
CLASS
  1
LONG_TRANSACTION
  2
AcDbLongTransaction
  3
AutoCAD 2000
 90
        0
280
     0
281
     0
  0
CLASS
  1
LWPOLYLINE
  2
AcDbPolyline
  3
"AutoCAD"
 90
        0
280
     0
281
     1
  0
CLASS
  1
HATCH
  2
AcDbHatch
  3
"ACAD_SEDONA"
 90
        0
280
     0
281
     1
  0
CLASS
  1
XRECORD
  2
AcDbXrecord
  3
"<Built In>"
 90
        0
280
     0
281
     0
  0
CLASS
  1
LONG_TRANSACTION
  2
AcDbLongTransaction
  3
AutoCAD 2000
 90
        0
280
     0
281
     0
  0
CLASS
  1
LWPOLYLINE
  2
AcDbPolyline
  3
"AutoCAD"
 90
        0
280
     0
281
     1
  0
CLASS
  1
HATCH
  2
AcDbHatch
  3
"ACAD_SEDONA"
 90
        0
280
     0
281
     1
  0
CLASS
  1
XRECORD
  2
AcDbXrecord
  3
"<Built In>"
 90
        0
280
     0
281
     0
  0
CLASS
  1
LONG_TRANSACTION
  2
AcDbLongTransaction
  3
AutoCAD 2000
 90
        0
280
     0
281
     0
  0
CLASS
  1
LWPOLYLINE
  2
AcDbPolyline
  3
"AutoCAD"
 90
        0
280
     0
281
     1
  0
CLASS
  1
HATCH
  2
AcDbHatch
  3
"ACAD_SEDONA"
 90
        0
280
     0
281
     1
  0
CLASS
  1
XRECORD
  2
AcDbXrecord
  3
"<Built In>"
 90
        0
280
     0
281
     0
  0
CLASS
  1
LONG_TRANSACTION
  2
AcDbLongTransaction
  3
AutoCAD 2000
 90
        0
280
     0
281
     0
  0
CLASS
  1
LWPOLYLINE
  2
AcDbPolyline
  3
"AutoCAD"
 90
        0
280
     0
281
     1
  0
CLASS
  1
HATCH
  2
AcDbHatch
  3
"ACAD_SEDONA"
 90
        0
280
     0
281
     1
  0
CLASS
  1
XRECORD
  2
AcDbXrecord
  3
"<Built In>"
 90
        0
280
     0
281
     0
  0
CLASS
  1
LONG_TRANSACTION
  2
AcDbLongTransaction
  3
AutoCAD 2000
 90
        0
280
     0
281
     0
  0
CLASS
  1
LWPOLYLINE
  2
AcDbPolyline
  3
"AutoCAD"
 90
        0
280
     0
281
     1
  0
CLASS
  1
HATCH
  2
AcDbHatch
  3
"ACAD_SEDONA"
 90
        0
280
     0
281
     1
  0
CLASS
  1
XRECORD
  2
AcDbXrecord
  3
"<Built In>"
 90
        0
280
     0
281
     0
  0
CLASS
  1
LONG_TRANSACTION
  2
AcDbLongTransaction
  3
AutoCAD 2000
 90
        0
280
     0
281
     0
  0
CLASS
  1
LWPOLYLINE
  2
AcDbPolyline
  3
"AutoCAD"
 90
        0
280
     0
281
     1
  0
CLASS
  1
HATCH
  2
AcDbHatch
  3
"ACAD_SEDONA"
 90
        0
280
     0
281
     1
  0
CLASS
  1
XRECORD
  2
AcDbXrecord
  3
"<Built In>"
 90
        0
280
     0
281
     0
  0
ENDSEC
  0
SECTION
  2
TABLES
  0
TABLE
  2
VPORT
  5
458C7
100
AcDbSymbolTable
 70
     1
  0
VPORT
  5
45E1A
102
{ACAD_XDICTIONARY
360
45E1D
102
}
100
AcDbSymbolTableRecord
100
AcDbViewportTableRecord
  2
*ACTIVE
 70
     0
 10
0.0
 20
0.0
 11
1.0
 21
1.0
 12
4.271157
 22
-1.479875
 13
0.0
 23
0.0
 14
0.25
 24
0.25
 15
0.25
 25
0.25
 16
0.0
 26
0.0
 36
1.0
 17
0.0
 27
0.0
 37
0.0
 40
5.292274
 41
1.855124
 42
50.0
 43
0.0
 44
0.0
 50
0.0
 51
0.0
 71
     0
 72
 20000
 73
     1
 74
     1
 75
     0
 76
     0
 77
     0
 78
     0
  0
ENDTAB
  0
TABLE
  2
LTYPE
  5
458C4
100
AcDbSymbolTable
 70
     1
  0
LTYPE
  5
458D0
100
AcDbSymbolTableRecord
100
AcDbLinetypeTableRecord
  2
BYBLOCK
 70
     0
  3

 72
    65
 73
     0
 40
0.0
  0
LTYPE
  5
458D1
100
AcDbSymbolTableRecord
100
AcDbLinetypeTableRecord
  2
BYLAYER
 70
     0
  3

 72
    65
 73
     0
 40
0.0
  0
LTYPE
  5
458D2
100
AcDbSymbolTableRecord
100
AcDbLinetypeTableRecord
  2
CONTINUOUS
 70
     0
  3
Solid line
 72
    65
 73
     0
 40
0.0
  0
ENDTAB
  0
TABLE
  2
LAYER
  5
458C1
100
AcDbSymbolTable
 70
     7
  0
LAYER
  5
458CD
100
AcDbSymbolTableRecord
100
AcDbLayerTableRecord
  2
0
 70
     0
 62
     7
  6
CONTINUOUS
  0
LAYER
  5
458EA
100
AcDbSymbolTableRecord
100
AcDbLayerTableRecord
  2
DIMS-MTG-HOLES
 70
     0
 62
     1
  6
CONTINUOUS
  0
LAYER
  5
458EB
100
AcDbSymbolTableRecord
100
AcDbLayerTableRecord
  2
ATTRIBUTES
 70
     0
 62
     7
  6
CONTINUOUS
  0
LAYER
  5
4593B
102
{ACAD_XDICTIONARY
360
45E48
102
}
100
AcDbSymbolTableRecord
100
AcDbLayerTableRecord
  2
AREA1
 70
     0
 62
    -7
  6
CONTINUOUS
  0
LAYER
  5
45940
102
{ACAD_XDICTIONARY
360
45E1B
102
}
100
AcDbSymbolTableRecord
100
AcDbLayerTableRecord
  2
DEFPOINTS
 70
     0
 62
    -7
  6
CONTINUOUS
  0
LAYER
  5
45954
100
AcDbSymbolTableRecord
100
AcDbLayerTableRecord
  2
SCALE
 70
     0
 62
    -7
  6
CONTINUOUS
  0
LAYER
  5
45D6C
100
AcDbSymbolTableRecord
100
AcDbLayerTableRecord
  2
SNAP_POINTS
 70
     0
 62
    -1
  6
CONTINUOUS
  0
ENDTAB
  0
TABLE
  2
STYLE
  5
458C2
100
AcDbSymbolTable
 70
     1
  0
STYLE
  5
458CE
100
AcDbSymbolTableRecord
100
AcDbTextStyleTableRecord
  2
STANDARD
 70
     0
 40
0.0
 41
1.0
 50
0.0
 71
     0
 42
0.12
  3
txt
  4

  0
ENDTAB
  0
TABLE
  2
VIEW
  5
458C5
100
AcDbSymbolTable
 70
     0
  0
ENDTAB
  0
TABLE
  2
UCS
  5
458C6
100
AcDbSymbolTable
 70
     0
  0
ENDTAB
  0
TABLE
  2
APPID
  5
458C8
100
AcDbSymbolTable
 70
     1
  0
APPID
  5
458CF
100
AcDbSymbolTableRecord
100
AcDbRegAppTableRecord
  2
ACAD
 70
     0
  0
ENDTAB
  0
TABLE
  2
DIMSTYLE
  5
458C9
100
AcDbSymbolTable
 70
     2
  0
DIMSTYLE
105
458F1
102
{ACAD_XDICTIONARY
360
45E42
102
}
100
AcDbSymbolTableRecord
100
AcDbDimStyleTableRecord
  2
ABECAD
 70
     0
  3

  4

  5

  6

  7

 40
1.0
 41
0.18
 42
0.0625
 43
0.375
 44
0.18
 45
0.0
 46
0.0
 47
0.0
 48
0.0
140
0.18
141
0.09
142
0.0
143
25.4
144
1.0
145
0.0
146
1.5
147
0.09
 71
     0
 72
     0
 73
     0
 74
     1
 75
     0
 76
     0
 77
     0
 78
     4
170
     1
171
     1
172
     0
173
     0
174
     0
175
     0
176
     0
177
     0
178
     0
270
     7
271
     6
272
     6
273
     2
274
     1
340
458CE
275
     0
280
     0
281
     0
282
     0
283
     1
284
     4
285
     4
286
     4
287
     3
288
     0
  0
DIMSTYLE
105
458F6
102
{ACAD_XDICTIONARY
360
45E44
102
}
102
{ACAD_REACTORS
330
45CC7
330
45CD5
102
}
100
AcDbSymbolTableRecord
100
AcDbDimStyleTableRecord
  2
ABECAD_3D
 70
     0
  3

  4

  5

  6

  7

 40
1.0
 41
0.18
 42
0.0625
 43
0.375
 44
0.18
 45
0.0
 46
0.0
 47
0.0
 48
0.0
140
0.18
141
0.09
142
0.0
143
25.4
144
1.0
145
0.0
146
1.5
147
0.09
 71
     0
 72
     0
 73
     0
 74
     1
 75
     0
 76
     0
 77
     0
 78
     4
170
     1
171
     1
172
     0
173
     0
174
     0
175
     0
176
     0
177
     0
178
     0
270
     7
271
     6
272
     6
273
     2
274
     1
340
458CE
275
     0
280
     0
281
     0
282
     0
283
     1
284
     4
285
     4
286
     4
287
     3
288
     0
  0
ENDTAB
  0
TABLE
  2
BLOCK_RECORD
  5
458C0
100
AcDbSymbolTable
 70
     2
  0
BLOCK_RECORD
  5
458D6
102
{ACAD_XDICTIONARY
360
4592C
102
}
100
AcDbSymbolTableRecord
100
AcDbBlockTableRecord
  2
*MODEL_SPACE
  0
BLOCK_RECORD
  5
458D3
102
{ACAD_XDICTIONARY
360
4592A
102
}
100
AcDbSymbolTableRecord
100
AcDbBlockTableRecord
  2
*PAPER_SPACE
  0
BLOCK_RECORD
  5
45CC8
100
AcDbSymbolTableRecord
100
AcDbBlockTableRecord
  2
*D0
  0
BLOCK_RECORD
  5
45CD6
100
AcDbSymbolTableRecord
100
AcDbBlockTableRecord
  2
*D1
  0
ENDTAB
  0
ENDSEC
  0
SECTION
  2
BLOCKS
  0
BLOCK
  5
458DF
100
AcDbEntity
  8
0
100
AcDbBlockBegin
  2
*MODEL_SPACE
 70
     0
 10
0.0
 20
0.0
 30
0.0
  3
*MODEL_SPACE
  1

  0
ENDBLK
  5
458E0
100
AcDbEntity
  8
0
100
AcDbBlockEnd
  0
BLOCK
  5
458DD
100
AcDbEntity
 67
     1
  8
0
100
AcDbBlockBegin
  2
*PAPER_SPACE
 70
     0
 10
0.0
 20
0.0
 30
0.0
  3
*PAPER_SPACE
  1

  0
ENDBLK
  5
458DE
100
AcDbEntity
 67
     1
  8
0
100
AcDbBlockEnd
  0
BLOCK
  5
45CD3
100
AcDbEntity
  8
0
100
AcDbBlockBegin
  2
*D0
 70
     1
 10
0.0
 20
0.0
 30
0.0
  3
*D0
  1

  0
LINE
  5
45E10
100
AcDbEntity
  8
AREA1
 62
     0
100
AcDbLine
 10
-0.175
 20
0.2375
 30
0.0
 11
-0.175
 21
1.138554
 31
0.0
1001
ACAD
1000
RTLwPs
1070
   158
  0
LINE
  5
45E11
100
AcDbEntity
  8
AREA1
 62
     0
100
AcDbLine
 10
7.701
 20
0.204974
 30
0.0
 11
7.701
 21
1.138554
 31
0.0
1001
ACAD
1000
RTLwPs
1070
   158
  0
LINE
  5
45E12
100
AcDbEntity
  8
AREA1
 62
     0
100
AcDbLine
 10
0.005
 20
0.958554
 30
0.0
 11
2.713
 21
0.958554
 31
0.0
1001
ACAD
1000
RTLwPs
1070
   158
  0
LINE
  5
45E13
100
AcDbEntity
  8
AREA1
 62
     0
100
AcDbLine
 10
7.521
 20
0.958554
 30
0.0
 11
4.813
 21
0.958554
 31
0.0
1001
ACAD
1000
RTLwPs
1070
   158
  0
SOLID
  5
45E14
100
AcDbEntity
  8
AREA1
 62
     0
100
AcDbTrace
 10
0.005
 20
0.988554
 30
0.0
 11
0.005
 21
0.928554
 31
0.0
 12
-0.175
 22
0.958554
 32
0.0
 13
-0.175
 23
0.958554
 33
0.0
  0
SOLID
  5
45E15
100
AcDbEntity
  8
AREA1
 62
     0
100
AcDbTrace
 10
7.521
 20
0.988554
 30
0.0
 11
7.521
 21
0.928554
 31
0.0
 12
7.701
 22
0.958554
 32
0.0
 13
7.701
 23
0.958554
 33
0.0
  0
MTEXT
  5
45E16
100
AcDbEntity
  8
AREA1
 62
     0
100
AcDbMText
 10
3.763
 20
0.958554
 30
0.0
 40
0.18
 41
0.0
 71
     5
 72
     1
  1
\A1;7 7/8 [200.1]
1001
ACAD
1000
MTEXTBEGIN
1070
    73
1070
     1
1070
    44
1040
1.0
1070
    74
1070
     0
1000
MTEXTEND
  0
POINT
  5
45E17
100
AcDbEntity
  8
DEFPOINTS
 62
     0
100
AcDbPoint
 10
-0.175
 20
0.175
 30
0.0
  0
POINT
  5
45E18
100
AcDbEntity
  8
DEFPOINTS
 62
     0
100
AcDbPoint
 10
7.701
 20
0.142474
 30
0.147
  0
POINT
  5
45E19
100
AcDbEntity
  8
DEFPOINTS
 62
     0
100
AcDbPoint
 10
7.701
 20
0.958554
 30
0.0
  0
ENDBLK
  5
45CD4
100
AcDbEntity
  8
0
100
AcDbBlockEnd
  0
BLOCK
  5
45CE1
100
AcDbEntity
  8
0
100
AcDbBlockBegin
  2
*D1
 70
     1
 10
0.0
 20
0.0
 30
0.0
  3
*D1
  1

  0
LINE
  5
45E06
100
AcDbEntity
  8
AREA1
 62
     0
100
AcDbLine
 10
7.7635
 20
0.174951
 30
0.0
 11
8.780959
 21
0.174951
 31
0.0
1001
ACAD
1000
RTLwPs
1070
   158
  0
LINE
  5
45E07
100
AcDbEntity
  8
AREA1
 62
     0
100
AcDbLine
 10
5.8275
 20
-3.138
 30
0.0
 11
8.780959
 21
-3.138
 31
0.0
1001
ACAD
1000
RTLwPs
1070
   158
  0
LINE
  5
45E08
100
AcDbEntity
  8
AREA1
 62
     0
100
AcDbLine
 10
8.600959
 20
-0.005049
 30
0.0
 11
8.600959
 21
-0.431525
 31
0.0
1001
ACAD
1000
RTLwPs
1070
   158
  0
LINE
  5
45E09
100
AcDbEntity
  8
AREA1
 62
     0
100
AcDbLine
 10
8.600959
 20
-2.958
 30
0.0
 11
8.600959
 21
-2.531525
 31
0.0
1001
ACAD
1000
RTLwPs
1070
   158
  0
SOLID
  5
45E0A
100
AcDbEntity
  8
AREA1
 62
     0
100
AcDbTrace
 10
8.570959
 20
-0.005049
 30
0.0
 11
8.630959
 21
-0.005049
 31
0.0
 12
8.600959
 22
0.174951
 32
0.0
 13
8.600959
 23
0.174951
 33
0.0
  0
SOLID
  5
45E0B
100
AcDbEntity
  8
AREA1
 62
     0
100
AcDbTrace
 10
8.570959
 20
-2.958
 30
0.0
 11
8.630959
 21
-2.958
 31
0.0
 12
8.600959
 22
-3.138
 32
0.0
 13
8.600959
 23
-3.138
 33
0.0
  0
MTEXT
  5
45E0C
100
AcDbEntity
  8
AREA1
 62
     0
100
AcDbMText
 10
8.600959
 20
-1.481525
 30
0.0
 40
0.18
 41
0.0
 71
     5
 72
     1
  1
\A1;3 5/16 [84.1]
 11
0.0
 21
1.0
 31
0.0
1001
ACAD
1000
MTEXTBEGIN
1070
    73
1070
     1
1070
    44
1040
1.0
1070
    74
1070
     0
1000
MTEXTEND
  0
POINT
  5
45E0D
100
AcDbEntity
  8
DEFPOINTS
 62
     0
100
AcDbPoint
 10
7.701
 20
0.174951
 30
2.204843
  0
POINT
  5
45E0E
100
AcDbEntity
  8
DEFPOINTS
 62
     0
100
AcDbPoint
 10
5.765
 20
-3.138
 30
-0.07
  0
POINT
  5
45E0F
100
AcDbEntity
  8
DEFPOINTS
 62
     0
100
AcDbPoint
 10
8.600959
 20
-3.138
 30
0.0
  0
ENDBLK
  5
45CE2
100
AcDbEntity
  8
0
100
AcDbBlockEnd
  0
ENDSEC
  0
SECTION
  2
ENTITIES
  0
ATTDEF
  5
1
100
AcDbEntity
  8
ATTRIBUTES
100
AcDbText
 10
-0.054096
 20
-0.361999
 30
0.0
 40
0.15
  1
ALLEN-BRADLEY
100
AcDbAttributeDefinition
  3
MANUFACTURER NAME?
  2
AC_VND_LABEL
 70
     1
  0
ATTDEF
  5
2
100
AcDbEntity
  8
ATTRIBUTES
100
AcDbText
 10
-0.054096
 20
-0.674499
 30
0.0
 40
0.15
  1
1761-L32 AWA
100
AcDbAttributeDefinition
  3
CATALOG NUMBER?
  2
AC_PART_NO
 70
     1
  0
ATTDEF
  5
3
100
AcDbEntity
  8
ATTRIBUTES
100
AcDbText
 10
-0.054096
 20
-0.986999
 30
0.0
 40
0.15
  1
1761-L32 AWA: AC RELAY
100
AcDbAttributeDefinition
  3
PART DESCRIPTION?
  2
AC_DESCRIPTION
 70
     1
  0
ATTDEF
  5
4
100
AcDbEntity
  8
ATTRIBUTES
100
AcDbText
 10
-0.054096
 20
-1.299499
 30
0.0
 40
0.15
  1

100
AcDbAttributeDefinition
  3
DEVICE ID?
  2
DEVICE_ID
 70
     1
  0
ATTDEF
  5
5
100
AcDbEntity
  8
ATTRIBUTES
100
AcDbText
 10
-0.054096
 20
-1.611999
 30
0.0
 40
0.15
  1

100
AcDbAttributeDefinition
  3
CUSTOMER PART NUMBER?
  2
AC_CPART_NO
 70
     1
  0
ATTDEF
  5
6
100
AcDbEntity
  8
ATTRIBUTES
100
AcDbText
 10
-0.054096
 20
-1.924499
 30
0.0
 40
0.15
  1

100
AcDbAttributeDefinition
  3
CUSTOMER NOTE?
  2
AC_NOTE
 70
     1
  0
ATTDEF
  5
7
100
AcDbEntity
  8
ATTRIBUTES
100
AcDbText
 10
-0.054096
 20
-2.236999
 30
0.0
 40
0.15
  1

100
AcDbAttributeDefinition
  3
FASTENER DATA?
  2
FASTENER
 70
     1
  0
ATTDEF
  5
8
100
AcDbEntity
  8
ATTRIBUTES
100
AcDbText
 10
-0.054096
 20
-2.549499
 30
0.0
 40
0.15
  1
INCH
100
AcDbAttributeDefinition
  3
UNIT OF SCALE?
  2
AC_SCALE_UNIT
 70
     1
  0
ATTDEF
  5
9
100
AcDbEntity
  8
ATTRIBUTES
100
AcDbText
 10
-0.054096
 20
-2.861999
 30
0.0
 40
0.15
  1
0
100
AcDbAttributeDefinition
  3
VIEW CODE?
  2
AC_VIEW_CODE
 70
     1
  0
LINE
  5
45B0C
100
AcDbEntity
  8
0
100
AcDbLine
 10
2.64208
 20
-0.425033
 30
2.6934
 11
7.452843
 21
-0.425033
 31
2.6934
  0
TEXT
  5
45B0D
100
AcDbEntity
  8
0
100
AcDbText
 39
0.001
 10
5.783101
 20
-2.498049
 30
2.692373
 40
0.05
  1
VAC
 72
     1
 11
5.858101
 21
-2.498049
 31
2.692373
100
AcDbText
  0
TEXT
  5
45B0E
100
AcDbEntity
  8
0
100
AcDbText
 39
0.001
 10
5.783101
 20
-2.598049
 30
2.692373
 40
0.05
  1
VDC
 72
     1
 11
5.858101
 21
-2.598049
 31
2.692373
100
AcDbText
  0
POLYLINE
  5
45B0F
100
AcDbEntity
  8
0
100
AcDbPolygonMesh
 66
     1
 10
0.0
 20
0.0
 30
0.0
 70
    16
 71
     6
 72
     3
  0
VERTEX
  5
45B10
100
AcDbEntity
  8
0
100
AcDbVertex
100
AcDbPolygonMeshVertex
 10
7.701
 20
-0.175
 30
2.595
 70
    64
  0
VERTEX
  5
45B11
100
AcDbEntity
  8
0
100
AcDbVertex
100
AcDbPolygonMeshVertex
 10
7.701
 20
-0.175
 30
0.317
 70
    64
  0
VERTEX
  5
45B12
100
AcDbEntity
  8
0
100
AcDbVertex
100
AcDbPolygonMeshVertex
 10
7.701
 20
-0.175
 30
0.317
 70
    64
  0
VERTEX
  5
45B13
100
AcDbEntity
  8
0
100
AcDbVertex
100
AcDbPolygonMeshVertex
 10
0.175
 20
-0.175
 30
2.595
 70
    64
  0
VERTEX
  5
45B14
100
AcDbEntity
  8
0
100
AcDbVertex
100
AcDbPolygonMeshVertex
 10
0.175
 20
-0.175
 30
0.317
 70
    64
  0
VERTEX
  5
45B15
100
AcDbEntity
  8
0
100
AcDbVertex
100
AcDbPolygonMeshVertex
 10
0.175
 20
-0.175
 30
0.317
 70
    64
  0
VERTEX
  5
45B16
100
AcDbEntity
  8
0
100
AcDbVertex
100
AcDbPolygonMeshVertex
 10
0.175
 20
0.175
 30
2.595
 70
    64
  0
VERTEX
  5
45B17
100
AcDbEntity
  8
0
100
AcDbVertex
100
AcDbPolygonMeshVertex
 10
0.175
 20
0.175
 30
0.317
 70
    64
  0
VERTEX
  5
45B18
100
AcDbEntity
  8
0
100
AcDbVertex
100
AcDbPolygonMeshVertex
 10
0.175
 20
-0.175
 30
0.317
 70
    64
  0
VERTEX
  5
45B19
100
AcDbEntity
  8
0
100
AcDbVertex
100
AcDbPolygonMeshVertex
 10
7.701
 20
0.175
 30
2.595
 70
    64
  0
VERTEX
  5
45B1A
100
AcDbEntity
  8
0
100
AcDbVertex
100
AcDbPolygonMeshVertex
 10
7.701
 20
0.175
 30
0.317
 70
    64
  0
VERTEX
  5
45B1B
100
AcDbEntity
  8
0
100
AcDbVertex
100
AcDbPolygonMeshVertex
 10
7.701
 20
-0.175
 30
0.317
 70
    64
  0
VERTEX
  5
45B1C
100
AcDbEntity
  8
0
100
AcDbVertex
100
AcDbPolygonMeshVertex
 10
7.701
 20
0.175
 30
2.595
 70
    64
  0
VERTEX
  5
45B1D
100
AcDbEntity
  8
0
100
AcDbVertex
100
AcDbPolygonMeshVertex
 10
7.701
 20
0.175
 30
2.595
 70
    64
  0
VERTEX
  5
45B1E
100
AcDbEntity
  8
0
100
AcDbVertex
100
AcDbPolygonMeshVertex
 10
7.701
 20
-0.175
 30
2.595
 70
    64
  0
VERTEX
  5
45B1F
100
AcDbEntity
  8
0
100
AcDbVertex
100
AcDbPolygonMeshVertex
 10
0.175
 20
0.175
 30
2.595
 70
    64
  0
VERTEX
  5
45B20
100
AcDbEntity
  8
0
100
AcDbVertex
100
AcDbPolygonMeshVertex
 10
0.175
 20
0.175
 30
2.595
 70
    64
  0
VERTEX
  5
45B21
100
AcDbEntity
  8
0
100
AcDbVertex
100
AcDbPolygonMeshVertex
 10
0.175
 20
-0.175
 30
2.595
 70
    64
  0
SEQEND
  5
45B22
100
AcDbEntity
  8
0
  0
POLYLINE
  5
45B23
100
AcDbEntity
  8
0
100
AcDbPolygonMesh
 66
     1
 10
0.0
 20
0.0
 30
0.0
 70
    16
 71
     6
 72
     3
  0
VERTEX
  5
45B24
100
AcDbEntity
  8
0
100
AcDbVertex
100
AcDbPolygonMeshVertex
 10
7.701
 20
-2.638
 30
2.595
 70
    64
  0
VERTEX
  5
45B25
100
AcDbEntity
  8
0
100
AcDbVertex
100
AcDbPolygonMeshVertex
 10
7.701
 20
-2.638
 30
0.317
 70
    64
  0
VERTEX
  5
45B26
100
AcDbEntity
  8
0
100
AcDbVertex
100
AcDbPolygonMeshVertex
 10
7.701
 20
-2.638
 30
0.317
 70
    64
  0
VERTEX
  5
45B27
100
AcDbEntity
  8
0
100
AcDbVertex
100
AcDbPolygonMeshVertex
 10
-0.175
 20
-2.638
 30
2.595
 70
    64
  0
VERTEX
  5
45B28
100
AcDbEntity
  8
0
100
AcDbVertex
100
AcDbPolygonMeshVertex
 10
-0.175
 20
-2.638
 30
0.317
 70
    64
  0
VERTEX
  5
45B29
100
AcDbEntity
  8
0
100
AcDbVertex
100
AcDbPolygonMeshVertex
 10
-0.175
 20
-2.638
 30
0.317
 70
    64
  0
VERTEX
  5
45B2A
100
AcDbEntity
  8
0
100
AcDbVertex
100
AcDbPolygonMeshVertex
 10
-0.175
 20
-0.175
 30
2.595
 70
    64
  0
VERTEX
  5
45B2B
100
AcDbEntity
  8
0
100
AcDbVertex
100
AcDbPolygonMeshVertex
 10
-0.175
 20
-0.175
 30
0.317
 70
    64
  0
VERTEX
  5
45B2C
100
AcDbEntity
  8
0
100
AcDbVertex
100
AcDbPolygonMeshVertex
 10
-0.175
 20
-2.638
 30
0.317
 70
    64
  0
VERTEX
  5
45B2D
100
AcDbEntity
  8
0
100
AcDbVertex
100
AcDbPolygonMeshVertex
 10
7.701
 20
-0.175
 30
2.595
 70
    64
  0
VERTEX
  5
45B2E
100
AcDbEntity
  8
0
100
AcDbVertex
100
AcDbPolygonMeshVertex
 10
7.701
 20
-0.175
 30
0.317
 70
    64
  0
VERTEX
  5
45B2F
100
AcDbEntity
  8
0
100
AcDbVertex
100
AcDbPolygonMeshVertex
 10
7.701
 20
-2.638
 30
0.317
 70
    64
  0
VERTEX
  5
45B30
100
AcDbEntity
  8
0
100
AcDbVertex
100
AcDbPolygonMeshVertex
 10
7.701
 20
-0.175
 30
2.595
 70
    64
  0
VERTEX
  5
45B31
100
AcDbEntity
  8
0
100
AcDbVertex
100
AcDbPolygonMeshVertex
 10
7.701
 20
-0.175
 30
2.595
 70
    64
  0
VERTEX
  5
45B32
100
AcDbEntity
  8
0
100
AcDbVertex
100
AcDbPolygonMeshVertex
 10
7.701
 20
-2.638
 30
2.595
 70
    64
  0
VERTEX
  5
45B33
100
AcDbEntity
  8
0
100
AcDbVertex
100
AcDbPolygonMeshVertex
 10
-0.175
 20
-0.175
 30
2.595
 70
    64
  0
VERTEX
  5
45B34
100
AcDbEntity
  8
0
100
AcDbVertex
100
AcDbPolygonMeshVertex
 10
-0.175
 20
-0.175
 30
2.595
 70
    64
  0
VERTEX
  5
45B35
100
AcDbEntity
  8
0
100
AcDbVertex
100
AcDbPolygonMeshVertex
 10
-0.175
 20
-2.638
 30
2.595
 70
    64
  0
SEQEND
  5
45B36
100
AcDbEntity
  8
0
  0
POLYLINE
  5
45B37
100
AcDbEntity
  8
0
100
AcDbPolygonMesh
 66
     1
 10
0.0
 20
0.0
 30
0.0
 70
    16
 71
     6
 72
     3
  0
VERTEX
  5
45B38
100
AcDbEntity
  8
0
100
AcDbVertex
100
AcDbPolygonMeshVertex
 10
7.351
 20
-2.988
 30
2.595
 70
    64
  0
VERTEX
  5
45B39
100
AcDbEntity
  8
0
100
AcDbVertex
100
AcDbPolygonMeshVertex
 10
7.351
 20
-2.988
 30
0.317
 70
    64
  0
VERTEX
  5
45B3A
100
AcDbEntity
  8
0
100
AcDbVertex
100
AcDbPolygonMeshVertex
 10
7.351
 20
-2.988
 30
0.317
 70
    64
  0
VERTEX
  5
45B3B
100
AcDbEntity
  8
0
100
AcDbVertex
100
AcDbPolygonMeshVertex
 10
-0.175
 20
-2.988
 30
2.595
 70
    64
  0
VERTEX
  5
45B3C
100
AcDbEntity
  8
0
100
AcDbVertex
100
AcDbPolygonMeshVertex
 10
-0.175
 20
-2.988
 30
0.317
 70
    64
  0
VERTEX
  5
45B3D
100
AcDbEntity
  8
0
100
AcDbVertex
100
AcDbPolygonMeshVertex
 10
-0.175
 20
-2.988
 30
0.317
 70
    64
  0
VERTEX
  5
45B3E
100
AcDbEntity
  8
0
100
AcDbVertex
100
AcDbPolygonMeshVertex
 10
-0.175
 20
-2.638
 30
2.595
 70
    64
  0
VERTEX
  5
45B3F
100
AcDbEntity
  8
0
100
AcDbVertex
100
AcDbPolygonMeshVertex
 10
-0.175
 20
-2.638
 30
0.317
 70
    64
  0
VERTEX
  5
45B40
100
AcDbEntity
  8
0
100
AcDbVertex
100
AcDbPolygonMeshVertex
 10
-0.175
 20
-2.988
 30
0.317
 70
    64
  0
VERTEX
  5
45B41
100
AcDbEntity
  8
0
100
AcDbVertex
100
AcDbPolygonMeshVertex
 10
7.351
 20
-2.638
 30
2.595
 70
    64
  0
VERTEX
  5
45B42
100
AcDbEntity
  8
0
100
AcDbVertex
100
AcDbPolygonMeshVertex
 10
7.351
 20
-2.638
 30
0.317
 70
    64
  0
VERTEX
  5
45B43
100
AcDbEntity
  8
0
100
AcDbVertex
100
AcDbPolygonMeshVertex
 10
7.351
 20
-2.988
 30
0.317
 70
    64
  0
VERTEX
  5
45B44
100
AcDbEntity
  8
0
100
AcDbVertex
100
AcDbPolygonMeshVertex
 10
7.351
 20
-2.638
 30
2.595
 70
    64
  0
VERTEX
  5
45B45
100
AcDbEntity
  8
0
100
AcDbVertex
100
AcDbPolygonMeshVertex
 10
7.351
 20
-2.638
 30
2.595
 70
    64
  0
VERTEX
  5
45B46
100
AcDbEntity
  8
0
100
AcDbVertex
100
AcDbPolygonMeshVertex
 10
7.351
 20
-2.988
 30
2.595
 70
    64
  0
VERTEX
  5
45B47
100
AcDbEntity
  8
0
100
AcDbVertex
100
AcDbPolygonMeshVertex
 10
-0.175
 20
-2.638
 30
2.595
 70
    64
  0
VERTEX
  5
45B48
100
AcDbEntity
  8
0
100
AcDbVertex
100
AcDbPolygonMeshVertex
 10
-0.175
 20
-2.638
 30
2.595
 70
    64
  0
VERTEX
  5
45B49
100
AcDbEntity
  8
0
100
AcDbVertex
100
AcDbPolygonMeshVertex
 10
-0.175
 20
-2.988
 30
2.595
 70
    64
  0
SEQEND
  5
45B4A
100
AcDbEntity
  8
0
  0
LWPOLYLINE
  5
45B4B
100
AcDbEntity
  8
0
100
AcDbPolyline
 90
       10
 70
     1
 43
0.0
 38
2.805
 10
0.793862
 20
-2.156029
 42
0.414214
 10
0.893862
 20
-2.256029
 10
4.253862
 20
-2.256029
 10
7.407862
 20
-2.256029
 42
0.414214
 10
7.507862
 20
-2.156029
 10
7.507862
 20
-0.666029
 42
0.414214
 10
7.407862
 20
-0.566029
 10
4.253862
 20
-0.566029
 10
0.893862
 20
-0.566029
 42
0.414214
 10
0.793862
 20
-0.666029
  0
LWPOLYLINE
  5
45B4C
100
AcDbEntity
  8
0
100
AcDbPolyline
 90
        7
 70
     0
 43
0.0
 38
2.805
 10
-0.175
 20
-0.625
 10
-0.095
 20
-0.625
 10
-0.095
 20
-0.5
 10
4.467
 20
-0.5
 10
7.621
 20
-0.5
 10
7.621
 20
-0.625
 10
7.701
 20
-0.625
  0
LWPOLYLINE
  5
45B4D
100
AcDbEntity
  8
0
100
AcDbPolyline
 90
        4
 70
     1
 43
0.0
 38
0.174951
 10
-6.061006
 20
2.567373
 10
-6.061006
 20
2.374843
 10
-5.789538
 20
2.374843
 10
-5.789538
 20
2.567373
210
0.0
220
1.0
230
0.0
  0
LWPOLYLINE
  5
45B4E
100
AcDbEntity
  8
0
100
AcDbPolyline
 90
        7
 70
     0
 43
0.0
 38
2.805
 10
-0.175
 20
-2.188
 10
-0.095
 20
-2.188
 10
-0.095
 20
-2.313
 10
4.467
 20
-2.313
 10
7.621
 20
-2.313
 10
7.621
 20
-2.188
 10
7.701
 20
-2.188
  0
POLYLINE
  5
45B4F
100
AcDbEntity
  8
0
100
AcDbPolygonMesh
 66
     1
 10
0.0
 20
0.0
 30
0.0
 70
    16
 71
     6
 72
     3
  0
VERTEX
  5
45B50
100
AcDbEntity
  8
0
100
AcDbVertex
100
AcDbPolygonMeshVertex
 10
7.701
 20
-2.648
 30
2.805
 70
    64
  0
VERTEX
  5
45B51
100
AcDbEntity
  8
0
100
AcDbVertex
100
AcDbPolygonMeshVertex
 10
7.701
 20
-2.648
 30
2.72
 70
    64
  0
VERTEX
  5
45B52
100
AcDbEntity
  8
0
100
AcDbVertex
100
AcDbPolygonMeshVertex
 10
7.701
 20
-2.648
 30
2.72
 70
    64
  0
VERTEX
  5
45B53
100
AcDbEntity
  8
0
100
AcDbVertex
100
AcDbPolygonMeshVertex
 10
-0.175
 20
-2.648
 30
2.805
 70
    64
  0
VERTEX
  5
45B54
100
AcDbEntity
  8
0
100
AcDbVertex
100
AcDbPolygonMeshVertex
 10
-0.175
 20
-2.648
 30
2.72
 70
    64
  0
VERTEX
  5
45B55
100
AcDbEntity
  8
0
100
AcDbVertex
100
AcDbPolygonMeshVertex
 10
-0.175
 20
-2.648
 30
2.72
 70
    64
  0
VERTEX
  5
45B56
100
AcDbEntity
  8
0
100
AcDbVertex
100
AcDbPolygonMeshVertex
 10
-0.175
 20
-0.165
 30
2.805
 70
    64
  0
VERTEX
  5
45B57
100
AcDbEntity
  8
0
100
AcDbVertex
100
AcDbPolygonMeshVertex
 10
-0.175
 20
-0.165
 30
2.72
 70
    64
  0
VERTEX
  5
45B58
100
AcDbEntity
  8
0
100
AcDbVertex
100
AcDbPolygonMeshVertex
 10
-0.175
 20
-2.648
 30
2.72
 70
    64
  0
VERTEX
  5
45B59
100
AcDbEntity
  8
0
100
AcDbVertex
100
AcDbPolygonMeshVertex
 10
7.701
 20
-0.165
 30
2.805
 70
    64
  0
VERTEX
  5
45B5A
100
AcDbEntity
  8
0
100
AcDbVertex
100
AcDbPolygonMeshVertex
 10
7.701
 20
-0.165
 30
2.72
 70
    64
  0
VERTEX
  5
45B5B
100
AcDbEntity
  8
0
100
AcDbVertex
100
AcDbPolygonMeshVertex
 10
7.701
 20
-2.648
 30
2.72
 70
    64
  0
VERTEX
  5
45B5C
100
AcDbEntity
  8
0
100
AcDbVertex
100
AcDbPolygonMeshVertex
 10
7.701
 20
-0.165
 30
2.805
 70
    64
  0
VERTEX
  5
45B5D
100
AcDbEntity
  8
0
100
AcDbVertex
100
AcDbPolygonMeshVertex
 10
7.701
 20
-0.165
 30
2.805
 70
    64
  0
VERTEX
  5
45B5E
100
AcDbEntity
  8
0
100
AcDbVertex
100
AcDbPolygonMeshVertex
 10
7.701
 20
-2.648
 30
2.805
 70
    64
  0
VERTEX
  5
45B5F
100
AcDbEntity
  8
0
100
AcDbVertex
100
AcDbPolygonMeshVertex
 10
-0.175
 20
-0.165
 30
2.805
 70
    64
  0
VERTEX
  5
45B60
100
AcDbEntity
  8
0
100
AcDbVertex
100
AcDbPolygonMeshVertex
 10
-0.175
 20
-0.165
 30
2.805
 70
    64
  0
VERTEX
  5
45B61
100
AcDbEntity
  8
0
100
AcDbVertex
100
AcDbPolygonMeshVertex
 10
-0.175
 20
-2.648
 30
2.805
 70
    64
  0
SEQEND
  5
45B62
100
AcDbEntity
  8
0
  0
POLYLINE
  5
45B63
100
AcDbEntity
  8
0
100
AcDbPolygonMesh
 66
     1
 10
0.0
 20
0.0
 30
0.0
 70
    16
 71
     6
 72
     3
  0
VERTEX
  5
45B64
100
AcDbEntity
  8
0
100
AcDbVertex
100
AcDbPolygonMeshVertex
 10
-0.175
 20
0.175
 30
2.72
 70
    64
  0
VERTEX
  5
45B65
100
AcDbEntity
  8
0
100
AcDbVertex
100
AcDbPolygonMeshVertex
 10
-0.175
 20
0.175
 30
2.72
 70
    64
  0
VERTEX
  5
45B66
100
AcDbEntity
  8
0
100
AcDbVertex
100
AcDbPolygonMeshVertex
 10
-0.175
 20
0.175
 30
2.72
 70
    64
  0
VERTEX
  5
45B67
100
AcDbEntity
  8
0
100
AcDbVertex
100
AcDbPolygonMeshVertex
 10
-0.175
 20
-0.165
 30
2.805
 70
    64
  0
VERTEX
  5
45B68
100
AcDbEntity
  8
0
100
AcDbVertex
100
AcDbPolygonMeshVertex
 10
-0.175
 20
-0.165
 30
2.72
 70
    64
  0
VERTEX
  5
45B69
100
AcDbEntity
  8
0
100
AcDbVertex
100
AcDbPolygonMeshVertex
 10
-0.175
 20
-0.165
 30
2.72
 70
    64
  0
VERTEX
  5
45B6A
100
AcDbEntity
  8
0
100
AcDbVertex
100
AcDbPolygonMeshVertex
 10
7.701
 20
-0.165
 30
2.805
 70
    64
  0
VERTEX
  5
45B6B
100
AcDbEntity
  8
0
100
AcDbVertex
100
AcDbPolygonMeshVertex
 10
7.701
 20
-0.165
 30
2.72
 70
    64
  0
VERTEX
  5
45B6C
100
AcDbEntity
  8
0
100
AcDbVertex
100
AcDbPolygonMeshVertex
 10
-0.175
 20
-0.165
 30
2.72
 70
    64
  0
VERTEX
  5
45B6D
100
AcDbEntity
  8
0
100
AcDbVertex
100
AcDbPolygonMeshVertex
 10
7.701
 20
0.175
 30
2.72
 70
    64
  0
VERTEX
  5
45B6E
100
AcDbEntity
  8
0
100
AcDbVertex
100
AcDbPolygonMeshVertex
 10
7.701
 20
0.175
 30
2.72
 70
    64
  0
VERTEX
  5
45B6F
100
AcDbEntity
  8
0
100
AcDbVertex
100
AcDbPolygonMeshVertex
 10
-0.175
 20
0.175
 30
2.72
 70
    64
  0
VERTEX
  5
45B70
100
AcDbEntity
  8
0
100
AcDbVertex
100
AcDbPolygonMeshVertex
 10
7.701
 20
0.175
 30
2.72
 70
    64
  0
VERTEX
  5
45B71
100
AcDbEntity
  8
0
100
AcDbVertex
100
AcDbPolygonMeshVertex
 10
7.701
 20
0.175
 30
2.72
 70
    64
  0
VERTEX
  5
45B72
100
AcDbEntity
  8
0
100
AcDbVertex
100
AcDbPolygonMeshVertex
 10
-0.175
 20
0.175
 30
2.72
 70
    64
  0
VERTEX
  5
45B73
100
AcDbEntity
  8
0
100
AcDbVertex
100
AcDbPolygonMeshVertex
 10
7.701
 20
-0.165
 30
2.805
 70
    64
  0
VERTEX
  5
45B74
100
AcDbEntity
  8
0
100
AcDbVertex
100
AcDbPolygonMeshVertex
 10
7.701
 20
-0.165
 30
2.805
 70
    64
  0
VERTEX
  5
45B75
100
AcDbEntity
  8
0
100
AcDbVertex
100
AcDbPolygonMeshVertex
 10
-0.175
 20
-0.165
 30
2.805
 70
    64
  0
SEQEND
  5
45B76
100
AcDbEntity
  8
0
  0
POLYLINE
  5
45B77
100
AcDbEntity
  8
0
100
AcDbPolygonMesh
 66
     1
 10
0.0
 20
0.0
 30
0.0
 70
    16
 71
     6
 72
     3
  0
VERTEX
  5
45B78
100
AcDbEntity
  8
0
100
AcDbVertex
100
AcDbPolygonMeshVertex
 10
-0.175
 20
-2.988
 30
2.72
 70
    64
  0
VERTEX
  5
45B79
100
AcDbEntity
  8
0
100
AcDbVertex
100
AcDbPolygonMeshVertex
 10
-0.175
 20
-2.988
 30
2.72
 70
    64
  0
VERTEX
  5
45B7A
100
AcDbEntity
  8
0
100
AcDbVertex
100
AcDbPolygonMeshVertex
 10
-0.175
 20
-2.988
 30
2.72
 70
    64
  0
VERTEX
  5
45B7B
100
AcDbEntity
  8
0
100
AcDbVertex
100
AcDbPolygonMeshVertex
 10
-0.175
 20
-2.648
 30
2.805
 70
    64
  0
VERTEX
  5
45B7C
100
AcDbEntity
  8
0
100
AcDbVertex
100
AcDbPolygonMeshVertex
 10
-0.175
 20
-2.648
 30
2.72
 70
    64
  0
VERTEX
  5
45B7D
100
AcDbEntity
  8
0
100
AcDbVertex
100
AcDbPolygonMeshVertex
 10
-0.175
 20
-2.648
 30
2.72
 70
    64
  0
VERTEX
  5
45B7E
100
AcDbEntity
  8
0
100
AcDbVertex
100
AcDbPolygonMeshVertex
 10
7.701
 20
-2.648
 30
2.805
 70
    64
  0
VERTEX
  5
45B7F
100
AcDbEntity
  8
0
100
AcDbVertex
100
AcDbPolygonMeshVertex
 10
7.701
 20
-2.648
 30
2.72
 70
    64
  0
VERTEX
  5
45B80
100
AcDbEntity
  8
0
100
AcDbVertex
100
AcDbPolygonMeshVertex
 10
-0.175
 20
-2.648
 30
2.72
 70
    64
  0
VERTEX
  5
45B81
100
AcDbEntity
  8
0
100
AcDbVertex
100
AcDbPolygonMeshVertex
 10
7.701
 20
-2.988
 30
2.72
 70
    64
  0
VERTEX
  5
45B82
100
AcDbEntity
  8
0
100
AcDbVertex
100
AcDbPolygonMeshVertex
 10
7.701
 20
-2.988
 30
2.72
 70
    64
  0
VERTEX
  5
45B83
100
AcDbEntity
  8
0
100
AcDbVertex
100
AcDbPolygonMeshVertex
 10
-0.175
 20
-2.988
 30
2.72
 70
    64
  0
VERTEX
  5
45B84
100
AcDbEntity
  8
0
100
AcDbVertex
100
AcDbPolygonMeshVertex
 10
7.701
 20
-2.988
 30
2.72
 70
    64
  0
VERTEX
  5
45B85
100
AcDbEntity
  8
0
100
AcDbVertex
100
AcDbPolygonMeshVertex
 10
7.701
 20
-2.988
 30
2.72
 70
    64
  0
VERTEX
  5
45B86
100
AcDbEntity
  8
0
100
AcDbVertex
100
AcDbPolygonMeshVertex
 10
-0.175
 20
-2.988
 30
2.72
 70
    64
  0
VERTEX
  5
45B87
100
AcDbEntity
  8
0
100
AcDbVertex
100
AcDbPolygonMeshVertex
 10
7.701
 20
-2.648
 30
2.805
 70
    64
  0
VERTEX
  5
45B88
100
AcDbEntity
  8
0
100
AcDbVertex
100
AcDbPolygonMeshVertex
 10
7.701
 20
-2.648
 30
2.805
 70
    64
  0
VERTEX
  5
45B89
100
AcDbEntity
  8
0
100
AcDbVertex
100
AcDbPolygonMeshVertex
 10
-0.175
 20
-2.648
 30
2.805
 70
    64
  0
SEQEND
  5
45B8A
100
AcDbEntity
  8
0
  0
POLYLINE
  5
45B8B
100
AcDbEntity
  8
0
100
AcDbPolygonMesh
 66
     1
 10
0.0
 20
0.0
 30
0.0
 70
    16
 71
     6
 72
     3
  0
VERTEX
  5
45B8C
100
AcDbEntity
  8
0
100
AcDbVertex
100
AcDbPolygonMeshVertex
 10
7.701
 20
-2.988
 30
2.72
 70
    64
  0
VERTEX
  5
45B8D
100
AcDbEntity
  8
0
100
AcDbVertex
100
AcDbPolygonMeshVertex
 10
7.701
 20
-2.988
 30
2.595
 70
    64
  0
VERTEX
  5
45B8E
100
AcDbEntity
  8
0
100
AcDbVertex
100
AcDbPolygonMeshVertex
 10
7.701
 20
-2.988
 30
2.595
 70
    64
  0
VERTEX
  5
45B8F
100
AcDbEntity
  8
0
100
AcDbVertex
100
AcDbPolygonMeshVertex
 10
-0.175
 20
-2.988
 30
2.72
 70
    64
  0
VERTEX
  5
45B90
100
AcDbEntity
  8
0
100
AcDbVertex
100
AcDbPolygonMeshVertex
 10
-0.175
 20
-2.988
 30
2.595
 70
    64
  0
VERTEX
  5
45B91
100
AcDbEntity
  8
0
100
AcDbVertex
100
AcDbPolygonMeshVertex
 10
-0.175
 20
-2.988
 30
2.595
 70
    64
  0
VERTEX
  5
45B92
100
AcDbEntity
  8
0
100
AcDbVertex
100
AcDbPolygonMeshVertex
 10
-0.175
 20
0.175
 30
2.72
 70
    64
  0
VERTEX
  5
45B93
100
AcDbEntity
  8
0
100
AcDbVertex
100
AcDbPolygonMeshVertex
 10
-0.175
 20
0.175
 30
2.595
 70
    64
  0
VERTEX
  5
45B94
100
AcDbEntity
  8
0
100
AcDbVertex
100
AcDbPolygonMeshVertex
 10
-0.175
 20
-2.988
 30
2.595
 70
    64
  0
VERTEX
  5
45B95
100
AcDbEntity
  8
0
100
AcDbVertex
100
AcDbPolygonMeshVertex
 10
7.701
 20
0.175
 30
2.72
 70
    64
  0
VERTEX
  5
45B96
100
AcDbEntity
  8
0
100
AcDbVertex
100
AcDbPolygonMeshVertex
 10
7.701
 20
0.175
 30
2.595
 70
    64
  0
VERTEX
  5
45B97
100
AcDbEntity
  8
0
100
AcDbVertex
100
AcDbPolygonMeshVertex
 10
7.701
 20
-2.988
 30
2.595
 70
    64
  0
VERTEX
  5
45B98
100
AcDbEntity
  8
0
100
AcDbVertex
100
AcDbPolygonMeshVertex
 10
7.701
 20
0.175
 30
2.72
 70
    64
  0
VERTEX
  5
45B99
100
AcDbEntity
  8
0
100
AcDbVertex
100
AcDbPolygonMeshVertex
 10
7.701
 20
0.175
 30
2.72
 70
    64
  0
VERTEX
  5
45B9A
100
AcDbEntity
  8
0
100
AcDbVertex
100
AcDbPolygonMeshVertex
 10
7.701
 20
-2.988
 30
2.72
 70
    64
  0
VERTEX
  5
45B9B
100
AcDbEntity
  8
0
100
AcDbVertex
100
AcDbPolygonMeshVertex
 10
-0.175
 20
0.175
 30
2.72
 70
    64
  0
VERTEX
  5
45B9C
100
AcDbEntity
  8
0
100
AcDbVertex
100
AcDbPolygonMeshVertex
 10
-0.175
 20
0.175
 30
2.72
 70
    64
  0
VERTEX
  5
45B9D
100
AcDbEntity
  8
0
100
AcDbVertex
100
AcDbPolygonMeshVertex
 10
-0.175
 20
-2.988
 30
2.72
 70
    64
  0
SEQEND
  5
45B9E
100
AcDbEntity
  8
0
  0
POLYLINE
  5
45B9F
100
AcDbEntity
  8
0
100
AcDbPolygonMesh
 66
     1
 10
0.0
 20
0.0
 30
0.0
 70
    16
 71
     6
 72
     3
  0
VERTEX
  5
45BA0
100
AcDbEntity
  8
0
100
AcDbVertex
100
AcDbPolygonMeshVertex
 10
7.701
 20
-1.106
 30
0.17
 70
    64
  0
VERTEX
  5
45BA1
100
AcDbEntity
  8
0
100
AcDbVertex
100
AcDbPolygonMeshVertex
 10
7.701
 20
-1.106
 30
0.0
 70
    64
  0
VERTEX
  5
45BA2
100
AcDbEntity
  8
0
100
AcDbVertex
100
AcDbPolygonMeshVertex
 10
7.701
 20
-1.106
 30
0.0
 70
    64
  0
VERTEX
  5
45BA3
100
AcDbEntity
  8
0
100
AcDbVertex
100
AcDbPolygonMeshVertex
 10
-0.175
 20
-1.106
 30
0.17
 70
    64
  0
VERTEX
  5
45BA4
100
AcDbEntity
  8
0
100
AcDbVertex
100
AcDbPolygonMeshVertex
 10
-0.175
 20
-1.106
 30
0.0
 70
    64
  0
VERTEX
  5
45BA5
100
AcDbEntity
  8
0
100
AcDbVertex
100
AcDbPolygonMeshVertex
 10
-0.175
 20
-1.106
 30
0.0
 70
    64
  0
VERTEX
  5
45BA6
100
AcDbEntity
  8
0
100
AcDbVertex
100
AcDbPolygonMeshVertex
 10
-0.175
 20
0.175
 30
0.17
 70
    64
  0
VERTEX
  5
45BA7
100
AcDbEntity
  8
0
100
AcDbVertex
100
AcDbPolygonMeshVertex
 10
-0.175
 20
0.175
 30
0.0
 70
    64
  0
VERTEX
  5
45BA8
100
AcDbEntity
  8
0
100
AcDbVertex
100
AcDbPolygonMeshVertex
 10
-0.175
 20
-1.106
 30
0.0
 70
    64
  0
VERTEX
  5
45BA9
100
AcDbEntity
  8
0
100
AcDbVertex
100
AcDbPolygonMeshVertex
 10
7.701
 20
0.175
 30
0.17
 70
    64
  0
VERTEX
  5
45BAA
100
AcDbEntity
  8
0
100
AcDbVertex
100
AcDbPolygonMeshVertex
 10
7.701
 20
0.175
 30
0.0
 70
    64
  0
VERTEX
  5
45BAB
100
AcDbEntity
  8
0
100
AcDbVertex
100
AcDbPolygonMeshVertex
 10
7.701
 20
-1.106
 30
0.0
 70
    64
  0
VERTEX
  5
45BAC
100
AcDbEntity
  8
0
100
AcDbVertex
100
AcDbPolygonMeshVertex
 10
7.701
 20
0.175
 30
0.17
 70
    64
  0
VERTEX
  5
45BAD
100
AcDbEntity
  8
0
100
AcDbVertex
100
AcDbPolygonMeshVertex
 10
7.701
 20
0.175
 30
0.17
 70
    64
  0
VERTEX
  5
45BAE
100
AcDbEntity
  8
0
100
AcDbVertex
100
AcDbPolygonMeshVertex
 10
7.701
 20
-1.106
 30
0.17
 70
    64
  0
VERTEX
  5
45BAF
100
AcDbEntity
  8
0
100
AcDbVertex
100
AcDbPolygonMeshVertex
 10
-0.175
 20
0.175
 30
0.17
 70
    64
  0
VERTEX
  5
45BB0
100
AcDbEntity
  8
0
100
AcDbVertex
100
AcDbPolygonMeshVertex
 10
-0.175
 20
0.175
 30
0.17
 70
    64
  0
VERTEX
  5
45BB1
100
AcDbEntity
  8
0
100
AcDbVertex
100
AcDbPolygonMeshVertex
 10
-0.175
 20
-1.106
 30
0.17
 70
    64
  0
SEQEND
  5
45BB2
100
AcDbEntity
  8
0
  0
POLYLINE
  5
45BB3
100
AcDbEntity
  8
0
100
AcDbPolygonMesh
 66
     1
 10
0.0
 20
0.0
 30
0.0
 70
    16
 71
     6
 72
     3
  0
VERTEX
  5
45BB4
100
AcDbEntity
  8
0
100
AcDbVertex
100
AcDbPolygonMeshVertex
 10
7.701
 20
-2.988
 30
0.317
 70
    64
  0
VERTEX
  5
45BB5
100
AcDbEntity
  8
0
100
AcDbVertex
100
AcDbPolygonMeshVertex
 10
7.701
 20
-2.988
 30
0.17
 70
    64
  0
VERTEX
  5
45BB6
100
AcDbEntity
  8
0
100
AcDbVertex
100
AcDbPolygonMeshVertex
 10
7.701
 20
-2.988
 30
0.17
 70
    64
  0
VERTEX
  5
45BB7
100
AcDbEntity
  8
0
100
AcDbVertex
100
AcDbPolygonMeshVertex
 10
-0.175
 20
-2.988
 30
0.317
 70
    64
  0
VERTEX
  5
45BB8
100
AcDbEntity
  8
0
100
AcDbVertex
100
AcDbPolygonMeshVertex
 10
-0.175
 20
-2.988
 30
0.17
 70
    64
  0
VERTEX
  5
45BB9
100
AcDbEntity
  8
0
100
AcDbVertex
100
AcDbPolygonMeshVertex
 10
-0.175
 20
-2.988
 30
0.17
 70
    64
  0
VERTEX
  5
45BBA
100
AcDbEntity
  8
0
100
AcDbVertex
100
AcDbPolygonMeshVertex
 10
-0.175
 20
0.175
 30
0.317
 70
    64
  0
VERTEX
  5
45BBB
100
AcDbEntity
  8
0
100
AcDbVertex
100
AcDbPolygonMeshVertex
 10
-0.175
 20
0.175
 30
0.17
 70
    64
  0
VERTEX
  5
45BBC
100
AcDbEntity
  8
0
100
AcDbVertex
100
AcDbPolygonMeshVertex
 10
-0.175
 20
-2.988
 30
0.17
 70
    64
  0
VERTEX
  5
45BBD
100
AcDbEntity
  8
0
100
AcDbVertex
100
AcDbPolygonMeshVertex
 10
7.701
 20
0.175
 30
0.317
 70
    64
  0
VERTEX
  5
45BBE
100
AcDbEntity
  8
0
100
AcDbVertex
100
AcDbPolygonMeshVertex
 10
7.701
 20
0.175
 30
0.17
 70
    64
  0
VERTEX
  5
45BBF
100
AcDbEntity
  8
0
100
AcDbVertex
100
AcDbPolygonMeshVertex
 10
7.701
 20
-2.988
 30
0.17
 70
    64
  0
VERTEX
  5
45BC0
100
AcDbEntity
  8
0
100
AcDbVertex
100
AcDbPolygonMeshVertex
 10
7.701
 20
0.175
 30
0.317
 70
    64
  0
VERTEX
  5
45BC1
100
AcDbEntity
  8
0
100
AcDbVertex
100
AcDbPolygonMeshVertex
 10
7.701
 20
0.175
 30
0.317
 70
    64
  0
VERTEX
  5
45BC2
100
AcDbEntity
  8
0
100
AcDbVertex
100
AcDbPolygonMeshVertex
 10
7.701
 20
-2.988
 30
0.317
 70
    64
  0
VERTEX
  5
45BC3
100
AcDbEntity
  8
0
100
AcDbVertex
100
AcDbPolygonMeshVertex
 10
-0.175
 20
0.175
 30
0.317
 70
    64
  0
VERTEX
  5
45BC4
100
AcDbEntity
  8
0
100
AcDbVertex
100
AcDbPolygonMeshVertex
 10
-0.175
 20
0.175
 30
0.317
 70
    64
  0
VERTEX
  5
45BC5
100
AcDbEntity
  8
0
100
AcDbVertex
100
AcDbPolygonMeshVertex
 10
-0.175
 20
-2.988
 30
0.317
 70
    64
  0
SEQEND
  5
45BC6
100
AcDbEntity
  8
0
  0
POLYLINE
  5
45BC7
100
AcDbEntity
  8
0
100
AcDbPolygonMesh
 66
     1
 10
0.0
 20
0.0
 30
0.0
 70
    16
 71
     6
 72
     3
  0
VERTEX
  5
45BC8
100
AcDbEntity
  8
0
100
AcDbVertex
100
AcDbPolygonMeshVertex
 10
7.701
 20
-2.988
 30
0.17
 70
    64
  0
VERTEX
  5
45BC9
100
AcDbEntity
  8
0
100
AcDbVertex
100
AcDbPolygonMeshVertex
 10
7.701
 20
-2.988
 30
0.0
 70
    64
  0
VERTEX
  5
45BCA
100
AcDbEntity
  8
0
100
AcDbVertex
100
AcDbPolygonMeshVertex
 10
7.701
 20
-2.988
 30
0.0
 70
    64
  0
VERTEX
  5
45BCB
100
AcDbEntity
  8
0
100
AcDbVertex
100
AcDbPolygonMeshVertex
 10
-0.175
 20
-2.988
 30
0.17
 70
    64
  0
VERTEX
  5
45BCC
100
AcDbEntity
  8
0
100
AcDbVertex
100
AcDbPolygonMeshVertex
 10
-0.175
 20
-2.988
 30
0.0
 70
    64
  0
VERTEX
  5
45BCD
100
AcDbEntity
  8
0
100
AcDbVertex
100
AcDbPolygonMeshVertex
 10
-0.175
 20
-2.988
 30
0.0
 70
    64
  0
VERTEX
  5
45BCE
100
AcDbEntity
  8
0
100
AcDbVertex
100
AcDbPolygonMeshVertex
 10
-0.175
 20
-2.514
 30
0.17
 70
    64
  0
VERTEX
  5
45BCF
100
AcDbEntity
  8
0
100
AcDbVertex
100
AcDbPolygonMeshVertex
 10
-0.175
 20
-2.514
 30
0.0
 70
    64
  0
VERTEX
  5
45BD0
100
AcDbEntity
  8
0
100
AcDbVertex
100
AcDbPolygonMeshVertex
 10
-0.175
 20
-2.988
 30
0.0
 70
    64
  0
VERTEX
  5
45BD1
100
AcDbEntity
  8
0
100
AcDbVertex
100
AcDbPolygonMeshVertex
 10
7.701
 20
-2.514
 30
0.17
 70
    64
  0
VERTEX
  5
45BD2
100
AcDbEntity
  8
0
100
AcDbVertex
100
AcDbPolygonMeshVertex
 10
7.701
 20
-2.514
 30
0.0
 70
    64
  0
VERTEX
  5
45BD3
100
AcDbEntity
  8
0
100
AcDbVertex
100
AcDbPolygonMeshVertex
 10
7.701
 20
-2.988
 30
0.0
 70
    64
  0
VERTEX
  5
45BD4
100
AcDbEntity
  8
0
100
AcDbVertex
100
AcDbPolygonMeshVertex
 10
7.701
 20
-2.514
 30
0.17
 70
    64
  0
VERTEX
  5
45BD5
100
AcDbEntity
  8
0
100
AcDbVertex
100
AcDbPolygonMeshVertex
 10
7.701
 20
-2.514
 30
0.17
 70
    64
  0
VERTEX
  5
45BD6
100
AcDbEntity
  8
0
100
AcDbVertex
100
AcDbPolygonMeshVertex
 10
7.701
 20
-2.988
 30
0.17
 70
    64
  0
VERTEX
  5
45BD7
100
AcDbEntity
  8
0
100
AcDbVertex
100
AcDbPolygonMeshVertex
 10
-0.175
 20
-2.514
 30
0.17
 70
    64
  0
VERTEX
  5
45BD8
100
AcDbEntity
  8
0
100
AcDbVertex
100
AcDbPolygonMeshVertex
 10
-0.175
 20
-2.514
 30
0.17
 70
    64
  0
VERTEX
  5
45BD9
100
AcDbEntity
  8
0
100
AcDbVertex
100
AcDbPolygonMeshVertex
 10
-0.175
 20
-2.988
 30
0.17
 70
    64
  0
SEQEND
  5
45BDA
100
AcDbEntity
  8
0
  0
LINE
  5
45BDB
100
AcDbEntity
  8
0
100
AcDbLine
 10
2.2894
 20
-3.066396
 30
0.1
 11
1.8326
 21
-3.066396
 31
0.1
  0
POLYLINE
  5
45BDC
100
AcDbEntity
  8
0
100
AcDbPolygonMesh
 66
     1
 10
0.0
 20
0.0
 30
0.0
 70
    16
 71
     6
 72
     3
  0
VERTEX
  5
45BDD
100
AcDbEntity
  8
0
100
AcDbVertex
100
AcDbPolygonMeshVertex
 10
2.361
 20
-3.138
 30
0.1
 70
    64
  0
VERTEX
  5
45BDE
100
AcDbEntity
  8
0
100
AcDbVertex
100
AcDbPolygonMeshVertex
 10
2.361
 20
-3.138
 30
0.0
 70
    64
  0
VERTEX
  5
45BDF
100
AcDbEntity
  8
0
100
AcDbVertex
100
AcDbPolygonMeshVertex
 10
2.361
 20
-3.138
 30
0.0
 70
    64
  0
VERTEX
  5
45BE0
100
AcDbEntity
  8
0
100
AcDbVertex
100
AcDbPolygonMeshVertex
 10
1.761
 20
-3.138
 30
0.1
 70
    64
  0
VERTEX
  5
45BE1
100
AcDbEntity
  8
0
100
AcDbVertex
100
AcDbPolygonMeshVertex
 10
1.761
 20
-3.138
 30
0.0
 70
    64
  0
VERTEX
  5
45BE2
100
AcDbEntity
  8
0
100
AcDbVertex
100
AcDbPolygonMeshVertex
 10
1.761
 20
-3.138
 30
0.0
 70
    64
  0
VERTEX
  5
45BE3
100
AcDbEntity
  8
0
100
AcDbVertex
100
AcDbPolygonMeshVertex
 10
1.761
 20
-2.988
 30
0.1
 70
    64
  0
VERTEX
  5
45BE4
100
AcDbEntity
  8
0
100
AcDbVertex
100
AcDbPolygonMeshVertex
 10
1.761
 20
-2.988
 30
0.0
 70
    64
  0
VERTEX
  5
45BE5
100
AcDbEntity
  8
0
100
AcDbVertex
100
AcDbPolygonMeshVertex
 10
1.761
 20
-3.138
 30
0.0
 70
    64
  0
VERTEX
  5
45BE6
100
AcDbEntity
  8
0
100
AcDbVertex
100
AcDbPolygonMeshVertex
 10
2.361
 20
-2.988
 30
0.1
 70
    64
  0
VERTEX
  5
45BE7
100
AcDbEntity
  8
0
100
AcDbVertex
100
AcDbPolygonMeshVertex
 10
2.361
 20
-2.988
 30
0.0
 70
    64
  0
VERTEX
  5
45BE8
100
AcDbEntity
  8
0
100
AcDbVertex
100
AcDbPolygonMeshVertex
 10
2.361
 20
-3.138
 30
0.0
 70
    64
  0
VERTEX
  5
45BE9
100
AcDbEntity
  8
0
100
AcDbVertex
100
AcDbPolygonMeshVertex
 10
2.361
 20
-2.988
 30
0.1
 70
    64
  0
VERTEX
  5
45BEA
100
AcDbEntity
  8
0
100
AcDbVertex
100
AcDbPolygonMeshVertex
 10
2.361
 20
-2.988
 30
0.1
 70
    64
  0
VERTEX
  5
45BEB
100
AcDbEntity
  8
0
100
AcDbVertex
100
AcDbPolygonMeshVertex
 10
2.361
 20
-3.138
 30
0.1
 70
    64
  0
VERTEX
  5
45BEC
100
AcDbEntity
  8
0
100
AcDbVertex
100
AcDbPolygonMeshVertex
 10
1.761
 20
-2.988
 30
0.1
 70
    64
  0
VERTEX
  5
45BED
100
AcDbEntity
  8
0
100
AcDbVertex
100
AcDbPolygonMeshVertex
 10
1.761
 20
-2.988
 30
0.1
 70
    64
  0
VERTEX
  5
45BEE
100
AcDbEntity
  8
0
100
AcDbVertex
100
AcDbPolygonMeshVertex
 10
1.761
 20
-3.138
 30
0.1
 70
    64
  0
SEQEND
  5
45BEF
100
AcDbEntity
  8
0
  0
POINT
  5
45BF0
100
AcDbEntity
  8
SNAP_POINTS
100
AcDbPoint
 10
-0.175
 20
-1.106
 30
0.0
  0
LINE
  5
45BF1
100
AcDbEntity
  8
0
100
AcDbLine
 10
1.8326
 20
-2.988
 30
0.1
 11
1.8326
 21
-3.066396
 31
0.1
  0
POINT
  5
45BF2
100
AcDbEntity
  8
DIMS-MTG-HOLES
100
AcDbPoint
 10
0.0
 20
0.0
 30
0.0
  0
CIRCLE
  5
45BF5
100
AcDbEntity
  8
0
100
AcDbCircle
 10
0.0
 20
0.0
 30
0.317
 40
0.094
  0
LINE
  5
45BF6
100
AcDbEntity
  8
0
100
AcDbLine
 10
2.2894
 20
-2.988
 30
0.1
 11
2.2894
 21
-3.066396
 31
0.1
  0
POLYLINE
  5
45BF7
100
AcDbEntity
  8
0
100
AcDbPolygonMesh
 66
     1
 10
0.0
 20
0.0
 30
0.0
 70
    16
 71
     6
 72
     3
  0
VERTEX
  5
45BF8
100
AcDbEntity
  8
0
100
AcDbVertex
100
AcDbPolygonMeshVertex
 10
5.165
 20
-3.138
 30
0.1
 70
    64
  0
VERTEX
  5
45BF9
100
AcDbEntity
  8
0
100
AcDbVertex
100
AcDbPolygonMeshVertex
 10
5.165
 20
-3.138
 30
0.0
 70
    64
  0
VERTEX
  5
45BFA
100
AcDbEntity
  8
0
100
AcDbVertex
100
AcDbPolygonMeshVertex
 10
5.165
 20
-3.138
 30
0.0
 70
    64
  0
VERTEX
  5
45BFB
100
AcDbEntity
  8
0
100
AcDbVertex
100
AcDbPolygonMeshVertex
 10
5.765
 20
-3.138
 30
0.1
 70
    64
  0
VERTEX
  5
45BFC
100
AcDbEntity
  8
0
100
AcDbVertex
100
AcDbPolygonMeshVertex
 10
5.765
 20
-3.138
 30
0.0
 70
    64
  0
VERTEX
  5
45BFD
100
AcDbEntity
  8
0
100
AcDbVertex
100
AcDbPolygonMeshVertex
 10
5.765
 20
-3.138
 30
0.0
 70
    64
  0
VERTEX
  5
45BFE
100
AcDbEntity
  8
0
100
AcDbVertex
100
AcDbPolygonMeshVertex
 10
5.765
 20
-2.988
 30
0.1
 70
    64
  0
VERTEX
  5
45BFF
100
AcDbEntity
  8
0
100
AcDbVertex
100
AcDbPolygonMeshVertex
 10
5.765
 20
-2.988
 30
0.0
 70
    64
  0
VERTEX
  5
45C00
100
AcDbEntity
  8
0
100
AcDbVertex
100
AcDbPolygonMeshVertex
 10
5.765
 20
-3.138
 30
0.0
 70
    64
  0
VERTEX
  5
45C01
100
AcDbEntity
  8
0
100
AcDbVertex
100
AcDbPolygonMeshVertex
 10
5.165
 20
-2.988
 30
0.1
 70
    64
  0
VERTEX
  5
45C02
100
AcDbEntity
  8
0
100
AcDbVertex
100
AcDbPolygonMeshVertex
 10
5.165
 20
-2.988
 30
0.0
 70
    64
  0
VERTEX
  5
45C03
100
AcDbEntity
  8
0
100
AcDbVertex
100
AcDbPolygonMeshVertex
 10
5.165
 20
-3.138
 30
0.0
 70
    64
  0
VERTEX
  5
45C04
100
AcDbEntity
  8
0
100
AcDbVertex
100
AcDbPolygonMeshVertex
 10
5.165
 20
-2.988
 30
0.1
 70
    64
  0
VERTEX
  5
45C05
100
AcDbEntity
  8
0
100
AcDbVertex
100
AcDbPolygonMeshVertex
 10
5.165
 20
-2.988
 30
0.1
 70
    64
  0
VERTEX
  5
45C06
100
AcDbEntity
  8
0
100
AcDbVertex
100
AcDbPolygonMeshVertex
 10
5.165
 20
-3.138
 30
0.1
 70
    64
  0
VERTEX
  5
45C07
100
AcDbEntity
  8
0
100
AcDbVertex
100
AcDbPolygonMeshVertex
 10
5.765
 20
-2.988
 30
0.1
 70
    64
  0
VERTEX
  5
45C08
100
AcDbEntity
  8
0
100
AcDbVertex
100
AcDbPolygonMeshVertex
 10
5.765
 20
-2.988
 30
0.1
 70
    64
  0
VERTEX
  5
45C09
100
AcDbEntity
  8
0
100
AcDbVertex
100
AcDbPolygonMeshVertex
 10
5.765
 20
-3.138
 30
0.1
 70
    64
  0
SEQEND
  5
45C0A
100
AcDbEntity
  8
0
  0
LINE
  5
45C0B
100
AcDbEntity
  8
0
100
AcDbLine
 10
5.2366
 20
-3.066396
 30
0.1
 11
5.6934
 21
-3.066396
 31
0.1
  0
LINE
  5
45C0C
100
AcDbEntity
  8
0
100
AcDbLine
 10
5.2366
 20
-2.988
 30
0.1
 11
5.2366
 21
-3.066396
 31
0.1
  0
LINE
  5
45C0D
100
AcDbEntity
  8
0
100
AcDbLine
 10
5.6934
 20
-2.988
 30
0.1
 11
5.6934
 21
-3.066396
 31
0.1
  0
LINE
  5
45C0E
100
AcDbEntity
  8
0
100
AcDbLine
 10
1.14208
 20
-0.425033
 30
2.6934
 11
2.352843
 21
-0.425033
 31
2.6934
  0
TEXT
  5
45C0F
100
AcDbEntity
  8
0
100
AcDbText
 39
0.001
 10
1.970967
 20
-0.286149
 30
2.692373
 40
0.05
  1
I/2
 72
     1
 11
2.029301
 21
-0.286149
 31
2.692373
100
AcDbText
  0
LINE
  5
45C10
100
AcDbEntity
  8
0
100
AcDbLine
 10
1.958101
 20
-2.508049
 30
2.692373
 11
2.033101
 21
-2.508049
 31
2.692373
  0
CIRCLE
  5
45C11
100
AcDbEntity
  8
0
100
AcDbCircle
 10
1.958101
 20
-2.508049
 30
2.692373
 40
0.1
  0
LWPOLYLINE
  5
45C12
100
AcDbEntity
  8
0
100
AcDbPolyline
 90
        4
 70
     1
 43
0.0
 38
0.174951
 10
-2.106429
 20
2.567373
 10
-2.106429
 20
2.374843
 10
-1.834961
 20
2.374843
 10
-1.834961
 20
2.567373
210
0.0
220
1.0
230
0.0
  0
LWPOLYLINE
  5
45C13
100
AcDbEntity
  8
0
100
AcDbPolyline
 90
        4
 70
     1
 43
0.0
 38
-2.988049
 10
-2.114965
 20
2.567373
 10
-2.114965
 20
2.374843
 10
-1.843497
 20
2.374843
 10
-1.843497
 20
2.567373
210
0.0
220
1.0
230
0.0
  0
LINE
  5
45C14
100
AcDbEntity
  8
0
100
AcDbLine
 10
0.645
 20
-2.034
 30
2.805
 11
0.645
 21
-0.779
 31
2.805
  0
LINE
  5
45C15
100
AcDbEntity
  8
0
100
AcDbLine
 10
0.645
 20
-2.034
 30
2.805
 11
-0.175
 21
-2.034
 31
2.805
  0
LWPOLYLINE
  5
45C16
100
AcDbEntity
  8
0
100
AcDbPolyline
 90
        4
 70
     1
 43
0.0
 38
-2.988049
 10
-1.506568
 20
2.567373
 10
-1.506568
 20
2.374843
 10
-1.2351
 20
2.374843
 10
-1.2351
 20
2.567373
210
0.0
220
1.0
230
0.0
  0
LWPOLYLINE
  5
45C17
100
AcDbEntity
  8
0
100
AcDbPolyline
 90
        4
 70
     1
 43
0.0
 38
-2.988049
 10
-1.810767
 20
2.567373
 10
-1.810767
 20
2.374843
 10
-1.539299
 20
2.374843
 10
-1.539299
 20
2.567373
210
0.0
220
1.0
230
0.0
  0
TEXT
  5
45C18
100
AcDbEntity
  8
0
100
AcDbText
 39
0.001
 10
1.216434
 20
-2.498049
 30
2.692373
 40
0.05
  1
85-264
 72
     1
 11
1.358101
 21
-2.498049
 31
2.692373
100
AcDbText
  0
TEXT
  5
45C19
100
AcDbEntity
  8
0
100
AcDbText
 39
0.001
 10
1.324767
 20
-2.598049
 30
2.692373
 40
0.05
  1
L1
 72
     1
 11
1.358101
 21
-2.598049
 31
2.692373
100
AcDbText
  0
TEXT
  5
45C1A
100
AcDbEntity
  8
0
100
AcDbText
 39
0.001
 10
1.566434
 20
-2.598049
 30
2.692373
 40
0.05
  1
L2/N
 72
     1
 11
1.658101
 21
-2.598049
 31
2.692373
100
AcDbText
  0
TEXT
  5
45C1B
100
AcDbEntity
  8
0
100
AcDbText
 39
0.001
 10
1.583101
 20
-2.498049
 30
2.692373
 40
0.05
  1
VAC
 72
     1
 11
1.658101
 21
-2.498049
 31
2.692373
100
AcDbText
  0
LINE
  5
45C1C
100
AcDbEntity
  8
0
100
AcDbLine
 10
1.883101
 20
-2.508049
 30
2.692373
 11
1.958101
 21
-2.508049
 31
2.692373
  0
LINE
  5
45C1D
100
AcDbEntity
  8
0
100
AcDbLine
 10
1.983101
 20
-2.558049
 30
2.692373
 11
1.933101
 21
-2.558049
 31
2.692373
  0
LINE
  5
45C1E
100
AcDbEntity
  8
0
100
AcDbLine
 10
1.908101
 20
-2.533049
 30
2.692373
 11
2.008101
 21
-2.533049
 31
2.692373
  0
LINE
  5
45C1F
100
AcDbEntity
  8
0
100
AcDbLine
 10
1.958101
 20
-2.458049
 30
2.692373
 11
1.958101
 21
-2.508049
 31
2.692373
  0
LWPOLYLINE
  5
45C20
100
AcDbEntity
  8
0
100
AcDbPolyline
 90
        4
 70
     1
 43
0.0
 38
2.805
 10
1.028737
 20
-1.956718
 10
1.028737
 20
-1.831718
 10
0.948737
 20
-1.831718
 10
0.948737
 20
-1.956718
  0
LWPOLYLINE
  5
45C21
100
AcDbEntity
  8
0
100
AcDbPolyline
 90
        4
 70
     1
 43
0.0
 38
2.805
 10
1.028737
 20
-2.139887
 10
1.028737
 20
-2.014887
 10
0.948737
 20
-2.014887
 10
0.948737
 20
-2.139887
  0
LWPOLYLINE
  5
45C22
100
AcDbEntity
  8
0
100
AcDbPolyline
 90
        4
 70
     1
 43
0.0
 38
2.805
 10
0.93615
 20
-1.516856
 10
1.06115
 20
-1.516856
 10
1.06115
 20
-1.436856
 10
0.93615
 20
-1.436856
  0
LWPOLYLINE
  5
45C23
100
AcDbEntity
  8
0
100
AcDbPolyline
 90
        4
 70
     1
 43
0.0
 38
2.805
 10
0.93615
 20
-1.651856
 10
1.06115
 20
-1.651856
 10
1.06115
 20
-1.571856
 10
0.93615
 20
-1.571856
  0
LWPOLYLINE
  5
45C24
100
AcDbEntity
  8
0
100
AcDbPolyline
 90
        4
 70
     1
 43
0.0
 38
2.805
 10
0.93615
 20
-1.381856
 10
1.06115
 20
-1.381856
 10
1.06115
 20
-1.301856
 10
0.93615
 20
-1.301856
  0
LWPOLYLINE
  5
45C25
100
AcDbEntity
  8
0
100
AcDbPolyline
 90
        4
 70
     1
 43
0.0
 38
2.805
 10
0.93615
 20
-1.246856
 10
1.06115
 20
-1.246856
 10
1.06115
 20
-1.166856
 10
0.93615
 20
-1.166856
  0
LWPOLYLINE
  5
45C26
100
AcDbEntity
  8
0
100
AcDbPolyline
 90
        4
 70
     1
 43
0.0
 38
2.805
 10
1.703737
 20
-1.956718
 10
1.703737
 20
-1.831718
 10
1.623737
 20
-1.831718
 10
1.623737
 20
-1.956718
  0
LWPOLYLINE
  5
45C27
100
AcDbEntity
  8
0
100
AcDbPolyline
 90
        4
 70
     1
 43
0.0
 38
2.805
 10
1.568737
 20
-1.956718
 10
1.568737
 20
-1.831718
 10
1.488737
 20
-1.831718
 10
1.488737
 20
-1.956718
  0
LWPOLYLINE
  5
45C28
100
AcDbEntity
  8
0
100
AcDbPolyline
 90
        4
 70
     1
 43
0.0
 38
2.805
 10
1.433737
 20
-1.956718
 10
1.433737
 20
-1.831718
 10
1.353737
 20
-1.831718
 10
1.353737
 20
-1.956718
  0
LWPOLYLINE
  5
45C29
100
AcDbEntity
  8
0
100
AcDbPolyline
 90
        4
 70
     1
 43
0.0
 38
2.805
 10
1.298737
 20
-1.956718
 10
1.298737
 20
-1.831718
 10
1.218737
 20
-1.831718
 10
1.218737
 20
-1.956718
  0
LWPOLYLINE
  5
45C2A
100
AcDbEntity
  8
0
100
AcDbPolyline
 90
        4
 70
     1
 43
0.0
 38
2.805
 10
1.163737
 20
-1.956718
 10
1.163737
 20
-1.831718
 10
1.083737
 20
-1.831718
 10
1.083737
 20
-1.956718
  0
LWPOLYLINE
  5
45C2B
100
AcDbEntity
  8
0
100
AcDbPolyline
 90
        4
 70
     1
 43
0.0
 38
2.805
 10
1.568737
 20
-2.139887
 10
1.568737
 20
-2.014887
 10
1.488737
 20
-2.014887
 10
1.488737
 20
-2.139887
  0
LWPOLYLINE
  5
45C2C
100
AcDbEntity
  8
0
100
AcDbPolyline
 90
        4
 70
     1
 43
0.0
 38
2.805
 10
1.163737
 20
-2.139887
 10
1.163737
 20
-2.014887
 10
1.083737
 20
-2.014887
 10
1.083737
 20
-2.139887
  0
LWPOLYLINE
  5
45C2D
100
AcDbEntity
  8
0
100
AcDbPolyline
 90
        4
 70
     1
 43
0.0
 38
2.805
 10
1.298737
 20
-2.139887
 10
1.298737
 20
-2.014887
 10
1.218737
 20
-2.014887
 10
1.218737
 20
-2.139887
  0
LWPOLYLINE
  5
45C2E
100
AcDbEntity
  8
0
100
AcDbPolyline
 90
        4
 70
     1
 43
0.0
 38
2.805
 10
1.433737
 20
-2.139887
 10
1.433737
 20
-2.014887
 10
1.353737
 20
-2.014887
 10
1.353737
 20
-2.139887
  0
LWPOLYLINE
  5
45C2F
100
AcDbEntity
  8
0
100
AcDbPolyline
 90
        4
 70
     1
 43
0.0
 38
2.805
 10
1.703737
 20
-2.139887
 10
1.703737
 20
-2.014887
 10
1.623737
 20
-2.014887
 10
1.623737
 20
-2.139887
  0
TEXT
  5
45C30
100
AcDbEntity
  8
0
100
AcDbText
 10
1.79
 20
-2.003
 30
2.8147
 40
0.05
  1
OUT
100
AcDbText
  0
TEXT
  5
45C31
100
AcDbEntity
  8
0
100
AcDbText
 10
1.138825
 20
-1.504476
 30
2.8147
 40
0.05
  1
FAULT
100
AcDbText
  0
TEXT
  5
45C32
100
AcDbEntity
  8
0
100
AcDbText
 10
1.138825
 20
-1.633604
 30
2.8147
 40
0.05
  1
FORCE
100
AcDbText
  0
TEXT
  5
45C33
100
AcDbEntity
  8
0
100
AcDbText
 10
1.138825
 20
-1.233307
 30
2.8147
 40
0.05
  1
POWER
100
AcDbText
  0
TEXT
  5
45C34
100
AcDbEntity
  8
0
100
AcDbText
 10
1.138825
 20
-1.366739
 30
2.8147
 40
0.05
  1
RUN
100
AcDbText
  0
LINE
  5
45C35
100
AcDbEntity
  8
0
100
AcDbLine
 10
0.645
 20
-0.779
 30
2.805
 11
-0.175
 21
-0.779
 31
2.805
  0
TEXT
  5
45C36
100
AcDbEntity
  8
0
100
AcDbText
 39
0.001
 10
1.062634
 20
-0.386149
 30
2.692373
 40
0.05
  1
COM
 72
     1
 11
1.129301
 21
-0.386149
 31
2.692373
100
AcDbText
  0
LWPOLYLINE
  5
45C37
100
AcDbEntity
  8
0
100
AcDbPolyline
 90
        4
 70
     1
 43
0.0
 38
0.174951
 10
-1.193835
 20
2.567373
 10
-1.193835
 20
2.374843
 10
-0.922367
 20
2.374843
 10
-0.922367
 20
2.567373
210
0.0
220
1.0
230
0.0
  0
TEXT
  5
45C38
100
AcDbEntity
  8
0
100
AcDbText
 39
0.001
 10
0.437634
 20
-0.386149
 30
2.692373
 40
0.05
  1
USED
 72
     1
 11
0.529301
 21
-0.386149
 31
2.692373
100
AcDbText
  0
TEXT
  5
45C39
100
AcDbEntity
  8
0
100
AcDbText
 39
0.001
 10
0.462634
 20
-0.286149
 30
2.692373
 40
0.05
  1
NOT
 72
     1
 11
0.529301
 21
-0.286149
 31
2.692373
100
AcDbText
  0
TEXT
  5
45C3A
100
AcDbEntity
  8
0
100
AcDbText
 39
0.001
 10
0.737634
 20
-0.386149
 30
2.692373
 40
0.05
  1
USED
 72
     1
 11
0.829301
 21
-0.386149
 31
2.692373
100
AcDbText
  0
TEXT
  5
45C3B
100
AcDbEntity
  8
0
100
AcDbText
 39
0.001
 10
0.762634
 20
-0.286149
 30
2.692373
 40
0.05
  1
NOT
 72
     1
 11
0.829301
 21
-0.286149
 31
2.692373
100
AcDbText
  0
LWPOLYLINE
  5
45C3C
100
AcDbEntity
  8
0
100
AcDbPolyline
 90
        4
 70
     1
 43
0.0
 38
0.174951
 10
-0.585438
 20
2.567373
 10
-0.585438
 20
2.374843
 10
-0.31397
 20
2.374843
 10
-0.31397
 20
2.567373
210
0.0
220
1.0
230
0.0
  0
LWPOLYLINE
  5
45C3D
100
AcDbEntity
  8
0
100
AcDbPolyline
 90
        4
 70
     1
 43
0.0
 38
0.174951
 10
-0.889637
 20
2.567373
 10
-0.889637
 20
2.374843
 10
-0.618168
 20
2.374843
 10
-0.618168
 20
2.567373
210
0.0
220
1.0
230
0.0
  0
LINE
  5
45C3E
100
AcDbEntity
  8
0
100
AcDbLine
 10
1.14208
 20
-0.40732
 30
2.6934
 11
1.14208
 21
-0.425033
 31
2.6934
  0
TEXT
  5
45C3F
100
AcDbEntity
  8
0
100
AcDbText
 39
0.001
 10
1.087634
 20
-0.286149
 30
2.692373
 40
0.05
  1
AC
 72
     1
 11
1.129301
 21
-0.286149
 31
2.692373
100
AcDbText
  0
TEXT
  5
45C40
100
AcDbEntity
  8
0
100
AcDbText
 39
0.001
 10
1.375134
 20
-0.286149
 30
2.692373
 40
0.05
  1
I/0
 72
     1
 11
1.429301
 21
-0.286149
 31
2.692373
100
AcDbText
  0
TEXT
  5
45C41
100
AcDbEntity
  8
0
100
AcDbText
 39
0.001
 10
1.679301
 20
-0.286149
 30
2.692373
 40
0.05
  1
I/1
 72
     1
 11
1.729301
 21
-0.286149
 31
2.692373
100
AcDbText
  0
LWPOLYLINE
  5
45C42
100
AcDbEntity
  8
0
100
AcDbPolyline
 90
        4
 70
     1
 43
0.0
 38
0.174951
 10
-1.498033
 20
2.567373
 10
-1.498033
 20
2.374843
 10
-1.226565
 20
2.374843
 10
-1.226565
 20
2.567373
210
0.0
220
1.0
230
0.0
  0
LWPOLYLINE
  5
45C43
100
AcDbEntity
  8
0
100
AcDbPolyline
 90
        4
 70
     1
 43
0.0
 38
0.174951
 10
-1.802231
 20
2.567373
 10
-1.802231
 20
2.374843
 10
-1.530763
 20
2.374843
 10
-1.530763
 20
2.567373
210
0.0
220
1.0
230
0.0
  0
LWPOLYLINE
  5
45C44
100
AcDbEntity
  8
0
100
AcDbPolyline
 90
        4
 70
     1
 43
0.0
 38
2.805
 10
1.028737
 20
-0.978591
 10
1.028737
 20
-0.853591
 10
0.948737
 20
-0.853591
 10
0.948737
 20
-0.978591
  0
LWPOLYLINE
  5
45C45
100
AcDbEntity
  8
0
100
AcDbPolyline
 90
        4
 70
     1
 43
0.0
 38
2.805
 10
1.028737
 20
-0.795422
 10
1.028737
 20
-0.670422
 10
0.948737
 20
-0.670422
 10
0.948737
 20
-0.795422
  0
LWPOLYLINE
  5
45C46
100
AcDbEntity
  8
0
100
AcDbPolyline
 90
        4
 70
     1
 43
0.0
 38
2.805
 10
1.568737
 20
-0.795422
 10
1.568737
 20
-0.670422
 10
1.488737
 20
-0.670422
 10
1.488737
 20
-0.795422
  0
LWPOLYLINE
  5
45C47
100
AcDbEntity
  8
0
100
AcDbPolyline
 90
        4
 70
     1
 43
0.0
 38
2.805
 10
1.568737
 20
-0.978591
 10
1.568737
 20
-0.853591
 10
1.488737
 20
-0.853591
 10
1.488737
 20
-0.978591
  0
LWPOLYLINE
  5
45C48
100
AcDbEntity
  8
0
100
AcDbPolyline
 90
        4
 70
     1
 43
0.0
 38
2.805
 10
1.163737
 20
-0.978591
 10
1.163737
 20
-0.853591
 10
1.083737
 20
-0.853591
 10
1.083737
 20
-0.978591
  0
LWPOLYLINE
  5
45C49
100
AcDbEntity
  8
0
100
AcDbPolyline
 90
        4
 70
     1
 43
0.0
 38
2.805
 10
1.298737
 20
-0.978591
 10
1.298737
 20
-0.853591
 10
1.218737
 20
-0.853591
 10
1.218737
 20
-0.978591
  0
LWPOLYLINE
  5
45C4A
100
AcDbEntity
  8
0
100
AcDbPolyline
 90
        4
 70
     1
 43
0.0
 38
2.805
 10
1.163737
 20
-0.795422
 10
1.163737
 20
-0.670422
 10
1.083737
 20
-0.670422
 10
1.083737
 20
-0.795422
  0
LWPOLYLINE
  5
45C4B
100
AcDbEntity
  8
0
100
AcDbPolyline
 90
        4
 70
     1
 43
0.0
 38
2.805
 10
1.298737
 20
-0.795422
 10
1.298737
 20
-0.670422
 10
1.218737
 20
-0.670422
 10
1.218737
 20
-0.795422
  0
LWPOLYLINE
  5
45C4C
100
AcDbEntity
  8
0
100
AcDbPolyline
 90
        4
 70
     1
 43
0.0
 38
2.805
 10
1.433737
 20
-0.978591
 10
1.433737
 20
-0.853591
 10
1.353737
 20
-0.853591
 10
1.353737
 20
-0.978591
  0
LWPOLYLINE
  5
45C4D
100
AcDbEntity
  8
0
100
AcDbPolyline
 90
        4
 70
     1
 43
0.0
 38
2.805
 10
1.433737
 20
-0.795422
 10
1.433737
 20
-0.670422
 10
1.353737
 20
-0.670422
 10
1.353737
 20
-0.795422
  0
LWPOLYLINE
  5
45C4E
100
AcDbEntity
  8
0
100
AcDbPolyline
 90
        4
 70
     1
 43
0.0
 38
2.805
 10
1.838737
 20
-0.795422
 10
1.838737
 20
-0.670422
 10
1.758737
 20
-0.670422
 10
1.758737
 20
-0.795422
  0
LWPOLYLINE
  5
45C4F
100
AcDbEntity
  8
0
100
AcDbPolyline
 90
        4
 70
     1
 43
0.0
 38
2.805
 10
1.838737
 20
-0.978591
 10
1.838737
 20
-0.853591
 10
1.758737
 20
-0.853591
 10
1.758737
 20
-0.978591
  0
LWPOLYLINE
  5
45C50
100
AcDbEntity
  8
0
100
AcDbPolyline
 90
        4
 70
     1
 43
0.0
 38
2.805
 10
1.703737
 20
-0.978591
 10
1.703737
 20
-0.853591
 10
1.623737
 20
-0.853591
 10
1.623737
 20
-0.978591
  0
LWPOLYLINE
  5
45C51
100
AcDbEntity
  8
0
100
AcDbPolyline
 90
        4
 70
     1
 43
0.0
 38
2.805
 10
1.703737
 20
-0.795422
 10
1.703737
 20
-0.670422
 10
1.623737
 20
-0.670422
 10
1.623737
 20
-0.795422
  0
LWPOLYLINE
  5
45C52
100
AcDbEntity
  8
0
100
AcDbPolyline
 90
        4
 70
     1
 43
0.0
 38
2.805
 10
1.973737
 20
-0.978591
 10
1.973737
 20
-0.853591
 10
1.893737
 20
-0.853591
 10
1.893737
 20
-0.978591
  0
LWPOLYLINE
  5
45C53
100
AcDbEntity
  8
0
100
AcDbPolyline
 90
        4
 70
     1
 43
0.0
 38
2.805
 10
1.973737
 20
-0.795422
 10
1.973737
 20
-0.670422
 10
1.893737
 20
-0.670422
 10
1.893737
 20
-0.795422
  0
LINE
  5
45C54
100
AcDbEntity
  8
0
100
AcDbLine
 10
3.45688
 20
-2.386933
 30
2.6934
 11
4.067643
 21
-2.386933
 31
2.6934
  0
LWPOLYLINE
  5
45C55
100
AcDbEntity
  8
0
100
AcDbPolyline
 90
        4
 70
     1
 43
0.0
 38
-2.988049
 10
-3.940154
 20
2.567373
 10
-3.940154
 20
2.374843
 10
-3.668686
 20
2.374843
 10
-3.668686
 20
2.567373
210
0.0
220
1.0
230
0.0
  0
LWPOLYLINE
  5
45C56
100
AcDbEntity
  8
0
100
AcDbPolyline
 90
        4
 70
     1
 43
0.0
 38
-2.988049
 10
-3.027559
 20
2.567373
 10
-3.027559
 20
2.374843
 10
-2.756091
 20
2.374843
 10
-2.756091
 20
2.567373
210
0.0
220
1.0
230
0.0
  0
LWPOLYLINE
  5
45C57
100
AcDbEntity
  8
0
100
AcDbPolyline
 90
        4
 70
     1
 43
0.0
 38
-2.988049
 10
-2.419163
 20
2.567373
 10
-2.419163
 20
2.374843
 10
-2.147695
 20
2.374843
 10
-2.147695
 20
2.567373
210
0.0
220
1.0
230
0.0
  0
LWPOLYLINE
  5
45C58
100
AcDbEntity
  8
0
100
AcDbPolyline
 90
        4
 70
     1
 43
0.0
 38
-2.988049
 10
-2.723361
 20
2.567373
 10
-2.723361
 20
2.374843
 10
-2.451893
 20
2.374843
 10
-2.451893
 20
2.567373
210
0.0
220
1.0
230
0.0
  0
LWPOLYLINE
  5
45C59
100
AcDbEntity
  8
0
100
AcDbPolyline
 90
        4
 70
     1
 43
0.0
 38
-2.988049
 10
-3.331758
 20
2.567373
 10
-3.331758
 20
2.374843
 10
-3.06029
 20
2.374843
 10
-3.06029
 20
2.567373
210
0.0
220
1.0
230
0.0
  0
LWPOLYLINE
  5
45C5A
100
AcDbEntity
  8
0
100
AcDbPolyline
 90
        4
 70
     1
 43
0.0
 38
-2.988049
 10
-3.635956
 20
2.567373
 10
-3.635956
 20
2.374843
 10
-3.364488
 20
2.374843
 10
-3.364488
 20
2.567373
210
0.0
220
1.0
230
0.0
  0
LINE
  5
45C5B
100
AcDbEntity
  8
0
100
AcDbLine
 10
2.85688
 20
-2.386933
 30
2.6934
 11
3.167643
 21
-2.386933
 31
2.6934
  0
LINE
  5
45C5C
100
AcDbEntity
  8
0
100
AcDbLine
 10
2.25688
 20
-2.386933
 30
2.6934
 11
2.567643
 21
-2.386933
 31
2.6934
  0
TEXT
  5
45C5D
100
AcDbEntity
  8
0
100
AcDbText
 39
0.001
 10
2.183101
 20
-2.598049
 30
2.692373
 40
0.05
  1
VDC
 72
     1
 11
2.258101
 21
-2.598049
 31
2.692373
100
AcDbText
  0
TEXT
  5
45C5E
100
AcDbEntity
  8
0
100
AcDbText
 39
0.001
 10
2.183101
 20
-2.498049
 30
2.692373
 40
0.05
  1
VAC
 72
     1
 11
2.258101
 21
-2.498049
 31
2.692373
100
AcDbText
  0
LINE
  5
45C5F
100
AcDbEntity
  8
0
100
AcDbLine
 10
2.25688
 20
-2.40462
 30
2.6934
 11
2.25688
 21
-2.386933
 31
2.6934
  0
TEXT
  5
45C60
100
AcDbEntity
  8
0
100
AcDbText
 39
0.001
 10
2.495601
 20
-2.598049
 30
2.692373
 40
0.05
  1
O/0
 72
     1
 11
2.558101
 21
-2.598049
 31
2.692373
100
AcDbText
  0
LINE
  5
45C61
100
AcDbEntity
  8
0
100
AcDbLine
 10
2.567643
 20
-2.40462
 30
2.6934
 11
2.567643
 21
-2.386933
 31
2.6934
  0
TEXT
  5
45C62
100
AcDbEntity
  8
0
100
AcDbText
 39
0.001
 10
2.783101
 20
-2.598049
 30
2.692373
 40
0.05
  1
VDC
 72
     1
 11
2.858101
 21
-2.598049
 31
2.692373
100
AcDbText
  0
TEXT
  5
45C63
100
AcDbEntity
  8
0
100
AcDbText
 39
0.001
 10
2.783101
 20
-2.498049
 30
2.692373
 40
0.05
  1
VAC
 72
     1
 11
2.858101
 21
-2.498049
 31
2.692373
100
AcDbText
  0
LINE
  5
45C64
100
AcDbEntity
  8
0
100
AcDbLine
 10
2.85688
 20
-2.40462
 30
2.6934
 11
2.85688
 21
-2.386933
 31
2.6934
  0
TEXT
  5
45C65
100
AcDbEntity
  8
0
100
AcDbText
 39
0.001
 10
3.383101
 20
-2.598049
 30
2.692373
 40
0.05
  1
VDC
 72
     1
 11
3.458101
 21
-2.598049
 31
2.692373
100
AcDbText
  0
TEXT
  5
45C66
100
AcDbEntity
  8
0
100
AcDbText
 39
0.001
 10
3.383101
 20
-2.498049
 30
2.692373
 40
0.05
  1
VAC
 72
     1
 11
3.458101
 21
-2.498049
 31
2.692373
100
AcDbText
  0
TEXT
  5
45C67
100
AcDbEntity
  8
0
100
AcDbText
 39
0.001
 10
3.099767
 20
-2.598049
 30
2.692373
 40
0.05
  1
O/1
 72
     1
 11
3.158101
 21
-2.598049
 31
2.692373
100
AcDbText
  0
LINE
  5
45C68
100
AcDbEntity
  8
0
100
AcDbLine
 10
3.167643
 20
-2.40462
 30
2.6934
 11
3.167643
 21
-2.386933
 31
2.6934
  0
LINE
  5
45C69
100
AcDbEntity
  8
0
100
AcDbLine
 10
3.45688
 20
-2.40462
 30
2.6934
 11
3.45688
 21
-2.386933
 31
2.6934
  0
TEXT
  5
45C6A
100
AcDbEntity
  8
0
100
AcDbText
 39
0.001
 10
3.691434
 20
-2.598049
 30
2.692373
 40
0.05
  1
O/2
 72
     1
 11
3.758101
 21
-2.598049
 31
2.692373
100
AcDbText
  0
LWPOLYLINE
  5
45C6B
100
AcDbEntity
  8
0
100
AcDbPolyline
 90
        4
 70
     1
 43
0.0
 38
-2.988049
 10
-4.852749
 20
2.567373
 10
-4.852749
 20
2.374843
 10
-4.581281
 20
2.374843
 10
-4.581281
 20
2.567373
210
0.0
220
1.0
230
0.0
  0
LWPOLYLINE
  5
45C6C
100
AcDbEntity
  8
0
100
AcDbPolyline
 90
        4
 70
     1
 43
0.0
 38
-2.988049
 10
-4.244352
 20
2.567373
 10
-4.244352
 20
2.374843
 10
-3.972884
 20
2.374843
 10
-3.972884
 20
2.567373
210
0.0
220
1.0
230
0.0
  0
LWPOLYLINE
  5
45C6D
100
AcDbEntity
  8
0
100
AcDbPolyline
 90
        4
 70
     1
 43
0.0
 38
-2.988049
 10
-4.54855
 20
2.567373
 10
-4.54855
 20
2.374843
 10
-4.277082
 20
2.374843
 10
-4.277082
 20
2.567373
210
0.0
220
1.0
230
0.0
  0
LWPOLYLINE
  5
45C6E
100
AcDbEntity
  8
0
100
AcDbPolyline
 90
        4
 70
     1
 43
0.0
 38
-2.988049
 10
-5.156947
 20
2.567373
 10
-5.156947
 20
2.374843
 10
-4.885479
 20
2.374843
 10
-4.885479
 20
2.567373
210
0.0
220
1.0
230
0.0
  0
LWPOLYLINE
  5
45C6F
100
AcDbEntity
  8
0
100
AcDbPolyline
 90
        4
 70
     1
 43
0.0
 38
-2.988049
 10
-5.461145
 20
2.567373
 10
-5.461145
 20
2.374843
 10
-5.189677
 20
2.374843
 10
-5.189677
 20
2.567373
210
0.0
220
1.0
230
0.0
  0
LWPOLYLINE
  5
45C70
100
AcDbEntity
  8
0
100
AcDbPolyline
 90
        4
 70
     1
 43
0.0
 38
-2.988049
 10
-5.765343
 20
2.567373
 10
-5.765343
 20
2.374843
 10
-5.493875
 20
2.374843
 10
-5.493875
 20
2.567373
210
0.0
220
1.0
230
0.0
  0
LINE
  5
45C71
100
AcDbEntity
  8
0
100
AcDbLine
 10
4.35688
 20
-2.386933
 30
2.6934
 11
5.567643
 21
-2.386933
 31
2.6934
  0
TEXT
  5
45C72
100
AcDbEntity
  8
0
100
AcDbText
 39
0.001
 10
4.283101
 20
-2.498049
 30
2.692373
 40
0.05
  1
VAC
 72
     1
 11
4.358101
 21
-2.498049
 31
2.692373
100
AcDbText
  0
TEXT
  5
45C73
100
AcDbEntity
  8
0
100
AcDbText
 39
0.001
 10
4.283101
 20
-2.598049
 30
2.692373
 40
0.05
  1
VDC
 72
     1
 11
4.358101
 21
-2.598049
 31
2.692373
100
AcDbText
  0
TEXT
  5
45C74
100
AcDbEntity
  8
0
100
AcDbText
 39
0.001
 10
3.991434
 20
-2.598049
 30
2.692373
 40
0.05
  1
O/3
 72
     1
 11
4.058101
 21
-2.598049
 31
2.692373
100
AcDbText
  0
LINE
  5
45C75
100
AcDbEntity
  8
0
100
AcDbLine
 10
4.067643
 20
-2.40462
 30
2.6934
 11
4.067643
 21
-2.386933
 31
2.6934
  0
LINE
  5
45C76
100
AcDbEntity
  8
0
100
AcDbLine
 10
4.35688
 20
-2.40462
 30
2.6934
 11
4.35688
 21
-2.386933
 31
2.6934
  0
TEXT
  5
45C77
100
AcDbEntity
  8
0
100
AcDbText
 39
0.001
 10
4.591434
 20
-2.598049
 30
2.692373
 40
0.05
  1
O/4
 72
     1
 11
4.658101
 21
-2.598049
 31
2.692373
100
AcDbText
  0
TEXT
  5
45C78
100
AcDbEntity
  8
0
100
AcDbText
 39
0.001
 10
5.191434
 20
-2.598049
 30
2.692373
 40
0.05
  1
O/6
 72
     1
 11
5.258101
 21
-2.598049
 31
2.692373
100
AcDbText
  0
TEXT
  5
45C79
100
AcDbEntity
  8
0
100
AcDbText
 39
0.001
 10
4.891434
 20
-2.598049
 30
2.692373
 40
0.05
  1
O/5
 72
     1
 11
4.958101
 21
-2.598049
 31
2.692373
100
AcDbText
  0
TEXT
  5
45C7A
100
AcDbEntity
  8
0
100
AcDbText
 39
0.001
 10
5.491434
 20
-2.598049
 30
2.692373
 40
0.05
  1
O/7
 72
     1
 11
5.558101
 21
-2.598049
 31
2.692373
100
AcDbText
  0
LINE
  5
45C7B
100
AcDbEntity
  8
0
100
AcDbLine
 10
5.567643
 20
-2.40462
 30
2.6934
 11
5.567643
 21
-2.386933
 31
2.6934
  0
LWPOLYLINE
  5
45C7C
100
AcDbEntity
  8
0
100
AcDbPolyline
 90
        4
 70
     1
 43
0.0
 38
0.174951
 10
-3.931619
 20
2.567373
 10
-3.931619
 20
2.374843
 10
-3.660151
 20
2.374843
 10
-3.660151
 20
2.567373
210
0.0
220
1.0
230
0.0
  0
TEXT
  5
45C7D
100
AcDbEntity
  8
0
100
AcDbText
 39
0.001
 10
2.870967
 20
-0.286149
 30
2.692373
 40
0.05
  1
I/4
 72
     1
 11
2.929301
 21
-0.286149
 31
2.692373
100
AcDbText
  0
LWPOLYLINE
  5
45C7E
100
AcDbEntity
  8
0
100
AcDbPolyline
 90
        4
 70
     1
 43
0.0
 38
0.174951
 10
-3.019024
 20
2.567373
 10
-3.019024
 20
2.374843
 10
-2.747556
 20
2.374843
 10
-2.747556
 20
2.567373
210
0.0
220
1.0
230
0.0
  0
LINE
  5
45C7F
100
AcDbEntity
  8
0
100
AcDbLine
 10
2.352843
 20
-0.40732
 30
2.6934
 11
2.352843
 21
-0.425033
 31
2.6934
  0
TEXT
  5
45C80
100
AcDbEntity
  8
0
100
AcDbText
 39
0.001
 10
2.270967
 20
-0.286149
 30
2.692373
 40
0.05
  1
I/3
 72
     1
 11
2.329301
 21
-0.286149
 31
2.692373
100
AcDbText
  0
LINE
  5
45C81
100
AcDbEntity
  8
0
100
AcDbLine
 10
2.64208
 20
-0.40732
 30
2.6934
 11
2.64208
 21
-0.425033
 31
2.6934
  0
TEXT
  5
45C82
100
AcDbEntity
  8
0
100
AcDbText
 39
0.001
 10
2.587634
 20
-0.286149
 30
2.692373
 40
0.05
  1
AC
 72
     1
 11
2.629301
 21
-0.286149
 31
2.692373
100
AcDbText
  0
TEXT
  5
45C83
100
AcDbEntity
  8
0
100
AcDbText
 39
0.001
 10
2.562634
 20
-0.386149
 30
2.692373
 40
0.05
  1
COM
 72
     1
 11
2.629301
 21
-0.386149
 31
2.692373
100
AcDbText
  0
LWPOLYLINE
  5
45C84
100
AcDbEntity
  8
0
100
AcDbPolyline
 90
        4
 70
     1
 43
0.0
 38
0.174951
 10
-2.410628
 20
2.567373
 10
-2.410628
 20
2.374843
 10
-2.139159
 20
2.374843
 10
-2.139159
 20
2.567373
210
0.0
220
1.0
230
0.0
  0
LWPOLYLINE
  5
45C85
100
AcDbEntity
  8
0
100
AcDbPolyline
 90
        4
 70
     1
 43
0.0
 38
0.174951
 10
-2.714826
 20
2.567373
 10
-2.714826
 20
2.374843
 10
-2.443358
 20
2.374843
 10
-2.443358
 20
2.567373
210
0.0
220
1.0
230
0.0
  0
TEXT
  5
45C86
100
AcDbEntity
  8
0
100
AcDbText
 39
0.001
 10
3.170967
 20
-0.286149
 30
2.692373
 40
0.05
  1
I/5
 72
     1
 11
3.229301
 21
-0.286149
 31
2.692373
100
AcDbText
  0
TEXT
  5
45C87
100
AcDbEntity
  8
0
100
AcDbText
 39
0.001
 10
3.470967
 20
-0.286149
 30
2.692373
 40
0.05
  1
I/6
 72
     1
 11
3.529301
 21
-0.286149
 31
2.692373
100
AcDbText
  0
TEXT
  5
45C88
100
AcDbEntity
  8
0
100
AcDbText
 39
0.001
 10
3.770967
 20
-0.286149
 30
2.692373
 40
0.05
  1
I/7
 72
     1
 11
3.829301
 21
-0.286149
 31
2.692373
100
AcDbText
  0
LWPOLYLINE
  5
45C89
100
AcDbEntity
  8
0
100
AcDbPolyline
 90
        4
 70
     1
 43
0.0
 38
0.174951
 10
-3.62742
 20
2.567373
 10
-3.62742
 20
2.374843
 10
-3.355952
 20
2.374843
 10
-3.355952
 20
2.567373
210
0.0
220
1.0
230
0.0
  0
LWPOLYLINE
  5
45C8A
100
AcDbEntity
  8
0
100
AcDbPolyline
 90
        4
 70
     1
 43
0.0
 38
0.174951
 10
-3.323222
 20
2.567373
 10
-3.323222
 20
2.374843
 10
-3.051754
 20
2.374843
 10
-3.051754
 20
2.567373
210
0.0
220
1.0
230
0.0
  0
LWPOLYLINE
  5
45C8B
100
AcDbEntity
  8
0
100
AcDbPolyline
 90
        4
 70
     1
 43
0.0
 38
2.805
 10
2.108737
 20
-0.978591
 10
2.108737
 20
-0.853591
 10
2.028737
 20
-0.853591
 10
2.028737
 20
-0.978591
  0
LWPOLYLINE
  5
45C8C
100
AcDbEntity
  8
0
100
AcDbPolyline
 90
        4
 70
     1
 43
0.0
 38
2.805
 10
2.243737
 20
-0.978591
 10
2.243737
 20
-0.853591
 10
2.163737
 20
-0.853591
 10
2.163737
 20
-0.978591
  0
LWPOLYLINE
  5
45C8D
100
AcDbEntity
  8
0
100
AcDbPolyline
 90
        4
 70
     1
 43
0.0
 38
2.805
 10
2.108737
 20
-0.795422
 10
2.108737
 20
-0.670422
 10
2.028737
 20
-0.670422
 10
2.028737
 20
-0.795422
  0
LWPOLYLINE
  5
45C8E
100
AcDbEntity
  8
0
100
AcDbPolyline
 90
        4
 70
     1
 43
0.0
 38
2.805
 10
2.243737
 20
-0.795422
 10
2.243737
 20
-0.670422
 10
2.163737
 20
-0.670422
 10
2.163737
 20
-0.795422
  0
TEXT
  5
45C8F
100
AcDbEntity
  8
0
100
AcDbText
 10
2.306492
 20
-0.871524
 30
2.8147
 40
0.05
  1
IN
100
AcDbText
  0
TEXT
  5
45C90
100
AcDbEntity
  8
0
100
AcDbText
 39
0.001
 10
4.370967
 20
-0.286149
 30
2.692373
 40
0.05
  1
I/9
 72
     1
 11
4.429301
 21
-0.286149
 31
2.692373
100
AcDbText
  0
TEXT
  5
45C91
100
AcDbEntity
  8
0
100
AcDbText
 39
0.001
 10
4.070967
 20
-0.286149
 30
2.692373
 40
0.05
  1
I/8
 72
     1
 11
4.129301
 21
-0.286149
 31
2.692373
100
AcDbText
  0
TEXT
  5
45C92
100
AcDbEntity
  8
0
100
AcDbText
 39
0.001
 10
4.658467
 20
-0.286149
 30
2.692373
 40
0.05
  1
I/10
 72
     1
 11
4.729301
 21
-0.286149
 31
2.692373
100
AcDbText
  0
LWPOLYLINE
  5
45C93
100
AcDbEntity
  8
0
100
AcDbPolyline
 90
        4
 70
     1
 43
0.0
 38
0.174951
 10
-4.844213
 20
2.567373
 10
-4.844213
 20
2.374843
 10
-4.572745
 20
2.374843
 10
-4.572745
 20
2.567373
210
0.0
220
1.0
230
0.0
  0
LWPOLYLINE
  5
45C94
100
AcDbEntity
  8
0
100
AcDbPolyline
 90
        4
 70
     1
 43
0.0
 38
0.174951
 10
-4.235817
 20
2.567373
 10
-4.235817
 20
2.374843
 10
-3.964349
 20
2.374843
 10
-3.964349
 20
2.567373
210
0.0
220
1.0
230
0.0
  0
LWPOLYLINE
  5
45C95
100
AcDbEntity
  8
0
100
AcDbPolyline
 90
        4
 70
     1
 43
0.0
 38
0.174951
 10
-4.540015
 20
2.567373
 10
-4.540015
 20
2.374843
 10
-4.268547
 20
2.374843
 10
-4.268547
 20
2.567373
210
0.0
220
1.0
230
0.0
  0
TEXT
  5
45C96
100
AcDbEntity
  8
0
100
AcDbText
 39
0.001
 10
5.254301
 20
-0.286149
 30
2.692373
 40
0.05
  1
I/12
 72
     1
 11
5.329301
 21
-0.286149
 31
2.692373
100
AcDbText
  0
TEXT
  5
45C97
100
AcDbEntity
  8
0
100
AcDbText
 39
0.001
 10
4.962634
 20
-0.286149
 30
2.692373
 40
0.05
  1
I/11
 72
     1
 11
5.029301
 21
-0.286149
 31
2.692373
100
AcDbText
  0
TEXT
  5
45C98
100
AcDbEntity
  8
0
100
AcDbText
 39
0.001
 10
5.554301
 20
-0.286149
 30
2.692373
 40
0.05
  1
I/13
 72
     1
 11
5.629301
 21
-0.286149
 31
2.692373
100
AcDbText
  0
LWPOLYLINE
  5
45C99
100
AcDbEntity
  8
0
100
AcDbPolyline
 90
        4
 70
     1
 43
0.0
 38
0.174951
 10
-5.756808
 20
2.567373
 10
-5.756808
 20
2.374843
 10
-5.48534
 20
2.374843
 10
-5.48534
 20
2.567373
210
0.0
220
1.0
230
0.0
  0
LWPOLYLINE
  5
45C9A
100
AcDbEntity
  8
0
100
AcDbPolyline
 90
        4
 70
     1
 43
0.0
 38
0.174951
 10
-5.45261
 20
2.567373
 10
-5.45261
 20
2.374843
 10
-5.181142
 20
2.374843
 10
-5.181142
 20
2.567373
210
0.0
220
1.0
230
0.0
  0
LWPOLYLINE
  5
45C9B
100
AcDbEntity
  8
0
100
AcDbPolyline
 90
        4
 70
     1
 43
0.0
 38
0.174951
 10
-5.148411
 20
2.567373
 10
-5.148411
 20
2.374843
 10
-4.876943
 20
2.374843
 10
-4.876943
 20
2.567373
210
0.0
220
1.0
230
0.0
  0
POINT
  5
45C9D
100
AcDbEntity
  8
DIMS-MTG-HOLES
100
AcDbPoint
 10
7.526
 20
-2.813
 30
0.0
  0
CIRCLE
  5
45C9F
100
AcDbEntity
  8
0
100
AcDbCircle
 10
7.526
 20
-2.813
 30
0.317
 40
0.094
  0
LWPOLYLINE
  5
45CA1
100
AcDbEntity
  8
0
100
AcDbPolyline
 90
        4
 70
     1
 43
0.0
 38
-2.988049
 10
-6.982136
 20
2.567373
 10
-6.982136
 20
2.374843
 10
-6.710668
 20
2.374843
 10
-6.710668
 20
2.567373
210
0.0
220
1.0
230
0.0
  0
LWPOLYLINE
  5
45CA2
100
AcDbEntity
  8
0
100
AcDbPolyline
 90
        4
 70
     1
 43
0.0
 38
-2.988049
 10
-6.069541
 20
2.567373
 10
-6.069541
 20
2.374843
 10
-5.798073
 20
2.374843
 10
-5.798073
 20
2.567373
210
0.0
220
1.0
230
0.0
  0
LWPOLYLINE
  5
45CA3
100
AcDbEntity
  8
0
100
AcDbPolyline
 90
        4
 70
     1
 43
0.0
 38
-2.988049
 10
-6.37374
 20
2.567373
 10
-6.37374
 20
2.374843
 10
-6.102272
 20
2.374843
 10
-6.102272
 20
2.567373
210
0.0
220
1.0
230
0.0
  0
LWPOLYLINE
  5
45CA4
100
AcDbEntity
  8
0
100
AcDbPolyline
 90
        4
 70
     1
 43
0.0
 38
-2.988049
 10
-6.677938
 20
2.567373
 10
-6.677938
 20
2.374843
 10
-6.40647
 20
2.374843
 10
-6.40647
 20
2.567373
210
0.0
220
1.0
230
0.0
  0
LWPOLYLINE
  5
45CA5
100
AcDbEntity
  8
0
100
AcDbPolyline
 90
        4
 70
     1
 43
0.0
 38
-2.988049
 10
-7.286334
 20
2.567373
 10
-7.286334
 20
2.374843
 10
-7.014866
 20
2.374843
 10
-7.014866
 20
2.567373
210
0.0
220
1.0
230
0.0
  0
TEXT
  5
45CA6
100
AcDbEntity
  8
0
100
AcDbText
 39
0.001
 10
6.678934
 20
-2.598049
 30
2.692373
 40
0.05
  1
O/10
 72
     1
 11
6.758101
 21
-2.598049
 31
2.692373
100
AcDbText
  0
LINE
  5
45CA7
100
AcDbEntity
  8
0
100
AcDbLine
 10
5.85688
 20
-2.386933
 30
2.6934
 11
7.067643
 21
-2.386933
 31
2.6934
  0
LINE
  5
45CA8
100
AcDbEntity
  8
0
100
AcDbLine
 10
5.85688
 20
-2.40462
 30
2.6934
 11
5.85688
 21
-2.386933
 31
2.6934
  0
TEXT
  5
45CA9
100
AcDbEntity
  8
0
100
AcDbText
 39
0.001
 10
6.091434
 20
-2.598049
 30
2.692373
 40
0.05
  1
O/8
 72
     1
 11
6.158101
 21
-2.598049
 31
2.692373
100
AcDbText
  0
TEXT
  5
45CAA
100
AcDbEntity
  8
0
100
AcDbText
 39
0.001
 10
6.391434
 20
-2.598049
 30
2.692373
 40
0.05
  1
O/9
 72
     1
 11
6.458101
 21
-2.598049
 31
2.692373
100
AcDbText
  0
TEXT
  5
45CAB
100
AcDbEntity
  8
0
100
AcDbText
 39
0.001
 10
6.983101
 20
-2.598049
 30
2.692373
 40
0.05
  1
O/11
 72
     1
 11
7.058101
 21
-2.598049
 31
2.692373
100
AcDbText
  0
LINE
  5
45CAC
100
AcDbEntity
  8
0
100
AcDbLine
 10
7.067643
 20
-2.40462
 30
2.6934
 11
7.067643
 21
-2.386933
 31
2.6934
  0
LWPOLYLINE
  5
45CAD
100
AcDbEntity
  8
0
100
AcDbPolyline
 90
        4
 70
     1
 43
0.0
 38
0.174951
 10
-6.973601
 20
2.567373
 10
-6.973601
 20
2.374843
 10
-6.702133
 20
2.374843
 10
-6.702133
 20
2.567373
210
0.0
220
1.0
230
0.0
  0
TEXT
  5
45CAE
100
AcDbEntity
  8
0
100
AcDbText
 39
0.001
 10
6.154301
 20
-0.286149
 30
2.692373
 40
0.05
  1
I/15
 72
     1
 11
6.229301
 21
-0.286149
 31
2.692373
100
AcDbText
  0
TEXT
  5
45CAF
100
AcDbEntity
  8
0
100
AcDbText
 39
0.001
 10
5.854301
 20
-0.286149
 30
2.692373
 40
0.05
  1
I/14
 72
     1
 11
5.929301
 21
-0.286149
 31
2.692373
100
AcDbText
  0
TEXT
  5
45CB0
100
AcDbEntity
  8
0
100
AcDbText
 39
0.001
 10
6.454301
 20
-0.286149
 30
2.692373
 40
0.05
  1
I/16
 72
     1
 11
6.529301
 21
-0.286149
 31
2.692373
100
AcDbText
  0
LWPOLYLINE
  5
45CB1
100
AcDbEntity
  8
0
100
AcDbPolyline
 90
        4
 70
     1
 43
0.0
 38
0.174951
 10
-6.669402
 20
2.567373
 10
-6.669402
 20
2.374843
 10
-6.397934
 20
2.374843
 10
-6.397934
 20
2.567373
210
0.0
220
1.0
230
0.0
  0
LWPOLYLINE
  5
45CB2
100
AcDbEntity
  8
0
100
AcDbPolyline
 90
        4
 70
     1
 43
0.0
 38
0.174951
 10
-6.365204
 20
2.567373
 10
-6.365204
 20
2.374843
 10
-6.093736
 20
2.374843
 10
-6.093736
 20
2.567373
210
0.0
220
1.0
230
0.0
  0
TEXT
  5
45CB3
100
AcDbEntity
  8
0
100
AcDbText
 39
0.001
 10
6.754301
 20
-0.286149
 30
2.692373
 40
0.05
  1
I/17
 72
     1
 11
6.829301
 21
-0.286149
 31
2.692373
100
AcDbText
  0
TEXT
  5
45CB4
100
AcDbEntity
  8
0
100
AcDbText
 39
0.001
 10
7.054301
 20
-0.286149
 30
2.692373
 40
0.05
  1
I/18
 72
     1
 11
7.129301
 21
-0.286149
 31
2.692373
100
AcDbText
  0
TEXT
  5
45CB5
100
AcDbEntity
  8
0
100
AcDbText
 39
0.001
 10
7.354301
 20
-0.286149
 30
2.692373
 40
0.05
  1
I/19
 72
     1
 11
7.429301
 21
-0.286149
 31
2.692373
100
AcDbText
  0
LINE
  5
45CB6
100
AcDbEntity
  8
0
100
AcDbLine
 10
7.452843
 20
-0.40732
 30
2.6934
 11
7.452843
 21
-0.425033
 31
2.6934
  0
LWPOLYLINE
  5
45CB7
100
AcDbEntity
  8
0
100
AcDbPolyline
 90
        4
 70
     1
 43
0.0
 38
0.174951
 10
-7.581997
 20
2.567373
 10
-7.581997
 20
2.374843
 10
-7.310529
 20
2.374843
 10
-7.310529
 20
2.567373
210
0.0
220
1.0
230
0.0
  0
LWPOLYLINE
  5
45CB8
100
AcDbEntity
  8
0
100
AcDbPolyline
 90
        4
 70
     1
 43
0.0
 38
0.174951
 10
-7.277799
 20
2.567373
 10
-7.277799
 20
2.374843
 10
-7.006331
 20
2.374843
 10
-7.006331
 20
2.567373
210
0.0
220
1.0
230
0.0
  0
DIMENSION
  5
45CC7
100
AcDbEntity
  8
AREA1
100
AcDbDimension
  2
*D0
 10
7.701
 20
0.958554
 30
0.17
 11
3.763
 21
0.958554
 31
0.17
 70
    32
  3
ABECAD_3D
100
AcDbAlignedDimension
 13
-0.175
 23
0.175
 33
0.17
 14
7.701
 24
0.142474
 34
0.317
100
AcDbRotatedDimension
  0
DIMENSION
  5
45CD5
100
AcDbEntity
  8
AREA1
100
AcDbDimension
  2
*D1
 10
8.600959
 20
-3.138
 30
0.17
 11
8.600959
 21
-1.481525
 31
0.17
 70
    32
  3
ABECAD_3D
100
AcDbAlignedDimension
 13
7.701
 23
0.174951
 33
2.374843
 14
5.765
 24
-3.138
 34
0.1
 50
90.0
100
AcDbRotatedDimension
  0
LINE
  5
45D61
100
AcDbEntity
  8
SCALE
100
AcDbLine
 10
-0.083286
 20
-3.636772
 30
0.0
 11
0.916714
 21
-3.636772
 31
0.0
  0
LINE
  5
45D62
100
AcDbEntity
  8
SCALE
100
AcDbLine
 10
0.916714
 20
-3.636772
 30
0.0
 11
0.916714
 21
-3.736772
 31
0.0
  0
LINE
  5
45D63
100
AcDbEntity
  8
SCALE
100
AcDbLine
 10
0.916714
 20
-3.736772
 30
0.0
 11
0.916714
 21
-3.536772
 31
0.0
  0
LINE
  5
45D64
100
AcDbEntity
  8
SCALE
100
AcDbLine
 10
-0.083286
 20
-3.736772
 30
0.0
 11
-0.083286
 21
-3.536772
 31
0.0
  0
LINE
  5
45D65
100
AcDbEntity
  8
SCALE
100
AcDbLine
 10
-0.083286
 20
-4.036772
 30
0.0
 11
-0.083286
 21
-3.836772
 31
0.0
  0
LINE
  5
45D66
100
AcDbEntity
  8
SCALE
100
AcDbLine
 10
0.310414
 20
-4.036772
 30
0.0
 11
0.310414
 21
-3.836772
 31
0.0
  0
LINE
  5
45D67
100
AcDbEntity
  8
SCALE
100
AcDbLine
 10
-0.083286
 20
-3.936772
 30
0.0
 11
0.310414
 21
-3.936772
 31
0.0
  0
TEXT
  5
45D68
100
AcDbEntity
  8
SCALE
100
AcDbText
 10
-0.023864
 20
-3.891033
 30
0.0
 40
0.0625
  1
[10mm]
100
AcDbText
  0
TEXT
  5
45D69
100
AcDbEntity
  8
SCALE
100
AcDbText
 10
0.279997
 20
-3.567724
 30
0.0
 40
0.0625
  1
1 Inch
100
AcDbText
  0
TEXT
  5
45D6A
100
AcDbEntity
  8
SCALE
100
AcDbText
 10
-0.081756
 20
-3.361895
 30
0.0
 40
0.0625
  1
SCALE:
100
AcDbText
  0
LWPOLYLINE
  5
45D6B
100
AcDbEntity
  8
SCALE
100
AcDbPolyline
 90
        4
 70
     1
 43
0.0
 10
-0.141285
 20
-3.256694
 10
0.994344
 20
-3.256694
 10
0.994344
 20
-4.098304
 10
-0.141285
 20
-4.098304
  0
ENDSEC
  0
SECTION
  2
OBJECTS
  0
DICTIONARY
  5
458CB
100
AcDbDictionary
  3
ACAD_GROUP
350
458CC
  3
ACAD_LAYOUT
350
458FB
  3
ACAD_MLINESTYLE
350
458D9
  3
ACAD_PLOTSETTINGS
350
458FC
  3
ACAD_PLOTSTYLENAME
350
458F9
  3
ACDBHEADERROUNDTRIPXREC
350
45E1F
  3
ACDBVARIABLEDICTIONARY
350
458E1
  3
DWGPROPS
350
45901
  0
DICTIONARY
  5
45E1D
100
AcDbDictionary
280
     1
  3
ACAD_XREC_ROUNDTRIP
360
45E1E
  0
DICTIONARY
  5
45E48
100
AcDbDictionary
280
     1
  3
ACAD_XREC_ROUNDTRIP
360
45E49
  0
DICTIONARY
  5
45E1B
100
AcDbDictionary
280
     1
  3
ACAD_XREC_ROUNDTRIP
360
45E1C
  0
DICTIONARY
  5
45E42
100
AcDbDictionary
280
     1
  3
ACAD_XREC_ROUNDTRIP
360
45E43
  0
DICTIONARY
  5
45E44
100
AcDbDictionary
280
     1
  3
ACAD_XREC_ROUNDTRIP
360
45E45
  0
DICTIONARY
  5
4592C
100
AcDbDictionary
280
     1
  3
ACAD_LAYOUTSELFREF
360
45E41
  0
DICTIONARY
  5
4592A
100
AcDbDictionary
280
     1
  3
ACAD_LAYOUTSELFREF
360
45E40
  0
DICTIONARY
  5
458CC
102
{ACAD_REACTORS
330
458CB
102
}
100
AcDbDictionary
  0
DICTIONARY
  5
458FB
102
{ACAD_XDICTIONARY
360
45E46
102
}
102
{ACAD_REACTORS
330
458CB
102
}
100
AcDbDictionary
  3
LAYOUT1
350
458FE
  3
MODEL
350
458FD
  0
DICTIONARY
  5
458D9
102
{ACAD_REACTORS
330
458CB
102
}
100
AcDbDictionary
  3
STANDARD
350
458DA
  0
DICTIONARY
  5
458FC
102
{ACAD_REACTORS
330
458CB
102
}
100
AcDbDictionary
  0
ACAD_PROXY_OBJECT
  5
458F9
102
{ACAD_REACTORS
330
458CB
102
}
100
AcDbProxyObject
 90
      499
 91
      501
 93
       86
310
405010041939BDC9B585B0
350
458FA
340
458FA
 94
        0
  0
DICTIONARY
  5
45E1F
102
{ACAD_REACTORS
330
458CB
102
}
100
AcDbDictionary
  3
CEPSNTYPE
350
45E29
  3
DIMSTYLEDATA
350
45E2D
  3
FINGERPRINTGUID
350
45E2A
  3
HYPERLINKBASE
350
45E22
  3
INSUNITS
350
45E28
  3
LAYOUTDICT
350
45E24
  3
LWETCUNION
350
45E27
  3
PLOTSETDICT
350
45E25
  3
PLOTSTYLNAMDICT
350
45E26
  3
PSVPSCALE
350
45E2C
  3
PUCSBASE
350
45E30
  3
PUCSORGBACK
350
45E36
  3
PUCSORGBOTTOM
350
45E32
  3
PUCSORGFRONT
350
45E35
  3
PUCSORGLEFT
350
45E33
  3
PUCSORGRIGHT
350
45E34
  3
PUCSORGTOP
350
45E31
  3
PUCSORTHOREF
350
45E2E
  3
PUCSORTHOVIEW
350
45E2F
  3
STYLESHEET
350
45E23
  3
TSTACKALIGN
350
45E20
  3
TSTACKSIZE
350
45E21
  3
UCSBASE
350
45E39
  3
UCSORGBACK
350
45E3F
  3
UCSORGBOTTOM
350
45E3B
  3
UCSORGFRONT
350
45E3E
  3
UCSORGLEFT
350
45E3C
  3
UCSORGRIGHT
350
45E3D
  3
UCSORGTOP
350
45E3A
  3
UCSORTHOREF
350
45E37
  3
UCSORTHOVIEW
350
45E38
  3
VERSIONGUID
350
45E2B
  0
DICTIONARY
  5
458E1
102
{ACAD_REACTORS
330
458CB
102
}
100
AcDbDictionary
  3
DIMADEC
350
458E2
  0
XRECORD
  5
45901
102
{ACAD_REACTORS
330
458CB
102
}
100
AcDbXrecord
  1
DWGPROPS COOKIE
  2

  3

  4

  6

  7

  8
colin
  9

300
=
301
=
302
=
303
=
304
=
305
=
306
=
307
=
308
=
309
=
 40
0.000599
 41
2451670.444777
 42
2451670.445376
  1

 90
        0
  0
XRECORD
  5
45E1E
102
{ACAD_REACTORS
330
45E1D
102
}
100
AcDbXrecord
102
EXTNAMES
  1
*ACTIVE
  2
*Active
102
UCS
 74
     0
 71
     1
 10
0.0
 20
0.0
 30
0.0
 10
1.0
 20
0.0
 30
0.0
 10
0.0
 20
1.0
 30
0.0
146
0.0
 79
     1
102
VIEW
281
     0
  0
XRECORD
  5
45E49
102
{ACAD_REACTORS
330
45E48
102
}
100
AcDbXrecord
102
PLOTBIT
280
     0
  0
XRECORD
  5
45E1C
102
{ACAD_REACTORS
330
45E1B
102
}
100
AcDbXrecord
102
EXTNAMES
  1
DEFPOINTS
  2
Defpoints
102
PLOTBIT
280
     0
  0
XRECORD
  5
45E43
102
{ACAD_REACTORS
330
45E42
102
}
100
AcDbXrecord
102
ACADR14ROUNDTRIP
1000
DSTYLE
1002
{
1070
   276
 70
     2
1070
   277
 70
     5
1002
}
  0
XRECORD
  5
45E45
102
{ACAD_REACTORS
330
45E44
102
}
100
AcDbXrecord
102
ACADR14ROUNDTRIP
1000
DSTYLE
1002
{
1070
   276
 70
     2
1070
   277
 70
     5
1002
}
  0
XRECORD
  5
45E41
102
{ACAD_REACTORS
330
4592C
102
}
100
AcDbXrecord
340
458D6
  0
XRECORD
  5
45E40
102
{ACAD_REACTORS
330
4592A
102
}
100
AcDbXrecord
340
458D3
  0
DICTIONARY
  5
45E46
100
AcDbDictionary
280
     1
  3
ACAD_XREC_ROUNDTRIP
360
45E47
  0
ACAD_PROXY_OBJECT
  5
458FE
102
{ACAD_REACTORS
330
458FB
102
}
100
AcDbProxyObject
 90
      499
 91
      503
 93
     1348
310
91D4850204C617365724A65742035303030205365726965732050434C20362C00AAAAAA416AA547D11959985D5B1D08148C4D081C195B88185CDCDA59DB9B595B9D1CCB98DD1891069074C61796F75743140501A800000000000000000000000000000000000000000000A1000000000000008902A6A6A10232D5E076BC551
310
0408CB5781DAF154410232D5E076BC5510408CB5781DAF15C410232D5E076BC5710408CB5781DAF15C40
330
458D3
330
0
340
0
340
0
 94
        0
  0
ACAD_PROXY_OBJECT
  5
458FD
102
{ACAD_REACTORS
330
458FB
102
}
100
AcDbProxyObject
 90
      499
 91
      503
 93
      924
310
91D4850204C617365724A65742035303030205365726965732050434C20362C01AAAAAAAAA547D11959985D5B1D08148C4D081C195B88185CDCDA59DB9B595B9D1CCB98DD18A69054D6F64656C901A800000000000000000000000000000000000000000000A1000000000000008902A6A6AAAA0
330
458D6
330
0
340
0
340
0
 94
        0
  0
MLINESTYLE
  5
458DA
102
{ACAD_REACTORS
330
458D9
102
}
100
AcDbMlineStyle
  2
STANDARD
 70
     0
  3

 62
   256
 51
90.0
 52
90.0
 71
     2
 49
0.5
 62
   256
  6
BYLAYER
 49
-0.5
 62
   256
  6
BYLAYER
  0
ACAD_PROXY_OBJECT
  5
458FA
102
{ACAD_REACTORS
330
458F9
102
}
100
AcDbProxyObject
 90
      499
 91
      502
 93
        0
 94
        0
  0
XRECORD
  5
45E29
102
{ACAD_REACTORS
330
45E1F
102
}
100
AcDbXrecord
 90
        0
  0
XRECORD
  5
45E2D
102
{ACAD_REACTORS
330
45E1F
102
}
100
AcDbXrecord
1000
DSTYLE
1002
{
1070
   276
 70
     2
1070
   277
 70
     5
1002
}
  0
XRECORD
  5
45E2A
102
{ACAD_REACTORS
330
45E1F
102
}
100
AcDbXrecord
  1
{6E0CF4B8-225E-11D4-A150-00A0CC3303EC}
  0
XRECORD
  5
45E22
102
{ACAD_REACTORS
330
45E1F
102
}
100
AcDbXrecord
  1

  0
XRECORD
  5
45E28
102
{ACAD_REACTORS
330
45E1F
102
}
100
AcDbXrecord
 90
        0
  0
XRECORD
  5
45E24
102
{ACAD_REACTORS
330
45E1F
102
}
100
AcDbXrecord
340
458FB
  0
XRECORD
  5
45E27
102
{ACAD_REACTORS
330
45E1F
102
}
100
AcDbXrecord
 90
    14877
  0
XRECORD
  5
45E25
102
{ACAD_REACTORS
330
45E1F
102
}
100
AcDbXrecord
340
458FC
  0
XRECORD
  5
45E26
102
{ACAD_REACTORS
330
45E1F
102
}
100
AcDbXrecord
340
458F9
  0
XRECORD
  5
45E2C
102
{ACAD_REACTORS
330
45E1F
102
}
100
AcDbXrecord
 40
0.0
  0
XRECORD
  5
45E30
102
{ACAD_REACTORS
330
45E1F
102
}
100
AcDbXrecord
340
0
  0
XRECORD
  5
45E36
102
{ACAD_REACTORS
330
45E1F
102
}
100
AcDbXrecord
 10
0.0
 20
0.0
 30
0.0
  0
XRECORD
  5
45E32
102
{ACAD_REACTORS
330
45E1F
102
}
100
AcDbXrecord
 10
0.0
 20
0.0
 30
0.0
  0
XRECORD
  5
45E35
102
{ACAD_REACTORS
330
45E1F
102
}
100
AcDbXrecord
 10
0.0
 20
0.0
 30
0.0
  0
XRECORD
  5
45E33
102
{ACAD_REACTORS
330
45E1F
102
}
100
AcDbXrecord
 10
0.0
 20
0.0
 30
0.0
  0
XRECORD
  5
45E34
102
{ACAD_REACTORS
330
45E1F
102
}
100
AcDbXrecord
 10
0.0
 20
0.0
 30
0.0
  0
XRECORD
  5
45E31
102
{ACAD_REACTORS
330
45E1F
102
}
100
AcDbXrecord
 10
0.0
 20
0.0
 30
0.0
  0
XRECORD
  5
45E2E
102
{ACAD_REACTORS
330
45E1F
102
}
100
AcDbXrecord
340
0
  0
XRECORD
  5
45E2F
102
{ACAD_REACTORS
330
45E1F
102
}
100
AcDbXrecord
 70
     0
  0
XRECORD
  5
45E23
102
{ACAD_REACTORS
330
45E1F
102
}
100
AcDbXrecord
  1

  0
XRECORD
  5
45E20
102
{ACAD_REACTORS
330
45E1F
102
}
100
AcDbXrecord
 90
        1
  0
XRECORD
  5
45E21
102
{ACAD_REACTORS
330
45E1F
102
}
100
AcDbXrecord
 90
       70
  0
XRECORD
  5
45E39
102
{ACAD_REACTORS
330
45E1F
102
}
100
AcDbXrecord
340
0
  0
XRECORD
  5
45E3F
102
{ACAD_REACTORS
330
45E1F
102
}
100
AcDbXrecord
 10
0.0
 20
0.0
 30
0.0
  0
XRECORD
  5
45E3B
102
{ACAD_REACTORS
330
45E1F
102
}
100
AcDbXrecord
 10
0.0
 20
0.0
 30
0.0
  0
XRECORD
  5
45E3E
102
{ACAD_REACTORS
330
45E1F
102
}
100
AcDbXrecord
 10
0.0
 20
0.0
 30
0.0
  0
XRECORD
  5
45E3C
102
{ACAD_REACTORS
330
45E1F
102
}
100
AcDbXrecord
 10
0.0
 20
0.0
 30
0.0
  0
XRECORD
  5
45E3D
102
{ACAD_REACTORS
330
45E1F
102
}
100
AcDbXrecord
 10
0.0
 20
0.0
 30
0.0
  0
XRECORD
  5
45E3A
102
{ACAD_REACTORS
330
45E1F
102
}
100
AcDbXrecord
 10
0.0
 20
0.0
 30
0.0
  0
XRECORD
  5
45E37
102
{ACAD_REACTORS
330
45E1F
102
}
100
AcDbXrecord
340
0
  0
XRECORD
  5
45E38
102
{ACAD_REACTORS
330
45E1F
102
}
100
AcDbXrecord
 70
     1
  0
XRECORD
  5
45E2B
102
{ACAD_REACTORS
330
45E1F
102
}
100
AcDbXrecord
  1
{CCCF42D4-41CB-4E97-B297-108AF83B1249}
  0
DICTIONARYVAR
  5
458E2
102
{ACAD_REACTORS
330
458E1
102
}
100
DictionaryVariables
280
     0
  1
0
  0
XRECORD
  5
45E47
102
{ACAD_REACTORS
330
45E46
102
}
100
AcDbXrecord
102
EXTNAMES
  1
LAYOUT1
  2
Layout1
  1
MODEL
  2
Model
  0
ENDSEC
  0
EOF
