  0
SECTION
  2
HEADER
  9
$ACADVER
  1
AC1014
  9
$ACADMAINTVER
 70
     8
  9
$DWGCODEPAGE
  3
ANSI_1252
  9
$INSBASE
 10
0.0
 20
0.0
 30
0.0
  9
$EXTMIN
 10
-1.14478
 20
-2.963636
 30
0.0
  9
$EXTMAX
 10
6.344039
 20
2.205852
 30
2.8147
  9
$LIMMIN
 10
0.0
 20
0.0
  9
$LIMMAX
 10
12.0
 20
9.0
  9
$ORTHOMODE
 70
     0
  9
$REGENMODE
 70
     1
  9
$FILLMODE
 70
     1
  9
$QTEXTMODE
 70
     0
  9
$MIRRTEXT
 70
     1
  9
$DRAGMODE
 70
     2
  9
$LTSCALE
 40
1.0
  9
$OSMODE
 70
    23
  9
$ATTMODE
 70
     0
  9
$TEXTSIZE
 40
0.2
  9
$TRACEWID
 40
0.05
  9
$TEXTSTYLE
  7
STANDARD
  9
$CLAYER
  8
0
  9
$CELTYPE
  6
BYLAYER
  9
$CECOLOR
 62
   256
  9
$CELTSCALE
 40
1.0
  9
$DELOBJ
 70
     1
  9
$DISPSILH
 70
     0
  9
$DIMSCALE
 40
0.0
  9
$DIMASZ
 40
0.179688
  9
$DIMEXO
 40
0.0625
  9
$DIMDLI
 40
0.375
  9
$DIMRND
 40
0.0
  9
$DIMDLE
 40
0.0
  9
$DIMEXE
 40
0.179688
  9
$DIMTP
 40
0.0
  9
$DIMTM
 40
0.0
  9
$DIMTXT
 40
0.125
  9
$DIMCEN
 40
0.089844
  9
$DIMTSZ
 40
0.0
  9
$DIMTOL
 70
     0
  9
$DIMLIM
 70
     0
  9
$DIMTIH
 70
     0
  9
$DIMTOH
 70
     0
  9
$DIMSE1
 70
     0
  9
$DIMSE2
 70
     0
  9
$DIMTAD
 70
     0
  9
$DIMZIN
 70
     4
  9
$DIMBLK
  1

  9
$DIMASO
 70
     1
  9
$DIMSHO
 70
     1
  9
$DIMPOST
  1

  9
$DIMAPOST
  1

  9
$DIMALT
 70
     1
  9
$DIMALTD
 70
     1
  9
$DIMALTF
 40
25.4
  9
$DIMLFAC
 40
1.0
  9
$DIMTOFL
 70
     0
  9
$DIMTVP
 40
0.0
  9
$DIMTIX
 70
     1
  9
$DIMSOXD
 70
     0
  9
$DIMSAH
 70
     0
  9
$DIMBLK1
  1

  9
$DIMBLK2
  1

  9
$DIMSTYLE
  2
ABECAD_3V
  9
$DIMCLRD
 70
     0
  9
$DIMCLRE
 70
     0
  9
$DIMCLRT
 70
     0
  9
$DIMTFAC
 40
1.5
  9
$DIMGAP
 40
0.09375
  9
$DIMJUST
 70
     0
  9
$DIMSD1
 70
     0
  9
$DIMSD2
 70
     0
  9
$DIMTOLJ
 70
     1
  9
$DIMTZIN
 70
     4
  9
$DIMALTZ
 70
     4
  9
$DIMALTTZ
 70
     4
  9
$DIMFIT
 70
     5
  9
$DIMUPT
 70
     0
  9
$DIMUNIT
 70
     7
  9
$DIMDEC
 70
     6
  9
$DIMTDEC
 70
     6
  9
$DIMALTU
 70
     2
  9
$DIMALTTD
 70
     1
  9
$DIMTXSTY
  7
STANDARD
  9
$DIMAUNIT
 70
     0
  9
$LUNITS
 70
     5
  9
$LUPREC
 70
     6
  9
$SKETCHINC
 40
0.1
  9
$FILLETRAD
 40
0.0
  9
$AUNITS
 70
     0
  9
$AUPREC
 70
     0
  9
$MENU
  1
acad
  9
$ELEVATION
 40
0.0
  9
$PELEVATION
 40
0.0
  9
$THICKNESS
 40
0.0
  9
$LIMCHECK
 70
     0
  9
$BLIPMODE
 70
     0
  9
$CHAMFERA
 40
0.0
  9
$CHAMFERB
 40
0.0
  9
$CHAMFERC
 40
0.0
  9
$CHAMFERD
 40
0.0
  9
$SKPOLY
 70
     0
  9
$TDCREATE
 40
2451670.441490278
  9
$TDUPDATE
 40
2452577.382203819
  9
$TDINDWG
 40
0.0081182870
  9
$TDUSRTIMER
 40
0.0081182870
  9
$USRTIMER
 70
     1
  9
$ANGBASE
 50
0.0
  9
$ANGDIR
 70
     0
  9
$PDMODE
 70
     2
  9
$PDSIZE
 40
0.0
  9
$PLINEWID
 40
0.0
  9
$COORDS
 70
     1
  9
$SPLFRAME
 70
     0
  9
$SPLINETYPE
 70
     6
  9
$SPLINESEGS
 70
     8
  9
$ATTDIA
 70
     0
  9
$ATTREQ
 70
     1
  9
$HANDLING
 70
     1
  9
$HANDSEED
  5
82B
  9
$SURFTAB1
 70
     6
  9
$SURFTAB2
 70
     6
  9
$SURFTYPE
 70
     6
  9
$SURFU
 70
     6
  9
$SURFV
 70
     6
  9
$UCSNAME
  2

  9
$UCSORG
 10
0.0
 20
0.0
 30
0.0
  9
$UCSXDIR
 10
1.0
 20
0.0
 30
0.0
  9
$UCSYDIR
 10
0.0
 20
1.0
 30
0.0
  9
$PUCSNAME
  2

  9
$PUCSORG
 10
0.0
 20
0.0
 30
0.0
  9
$PUCSXDIR
 10
1.0
 20
0.0
 30
0.0
  9
$PUCSYDIR
 10
0.0
 20
1.0
 30
0.0
  9
$USERI1
 70
     0
  9
$USERI2
 70
     0
  9
$USERI3
 70
     0
  9
$USERI4
 70
     0
  9
$USERI5
 70
     0
  9
$USERR1
 40
0.0
  9
$USERR2
 40
0.0
  9
$USERR3
 40
0.0
  9
$USERR4
 40
0.0
  9
$USERR5
 40
0.0
  9
$WORLDVIEW
 70
     1
  9
$SHADEDGE
 70
     3
  9
$SHADEDIF
 70
    70
  9
$TILEMODE
 70
     0
  9
$MAXACTVP
 70
    16
  9
$PINSBASE
 10
0.0
 20
0.0
 30
0.0
  9
$PLIMCHECK
 70
     0
  9
$PEXTMIN
 10
0.0
 20
0.0
 30
0.0
  9
$PEXTMAX
 10
10.0
 20
7.5
 30
0.0
  9
$PLIMMIN
 10
-0.187029
 20
-0.186938
  9
$PLIMMAX
 10
10.187518
 20
7.829757
  9
$UNITMODE
 70
     0
  9
$VISRETAIN
 70
     0
  9
$PLINEGEN
 70
     0
  9
$PSLTSCALE
 70
     1
  9
$TREEDEPTH
 70
  3020
  9
$PICKSTYLE
 70
     1
  9
$CMLSTYLE
  2
STANDARD
  9
$CMLJUST
 70
     0
  9
$CMLSCALE
 40
1.0
  9
$PROXYGRAPHICS
 70
     1
  9
$MEASUREMENT
 70
     0
  0
ENDSEC
  0
SECTION
  2
CLASSES
  0
CLASS
  1
DICTIONARYVAR
  2
AcDbDictionaryVar
  3
"AutoCAD"
 90
        0
280
     0
281
     0
  0
CLASS
  1
ACDBDICTIONARYWDFLT
  2
AcDbDictionaryWithDefault
  3
AutoCAD 2000
 90
        0
280
     0
281
     0
  0
CLASS
  1
ACDBPLACEHOLDER
  2
AcDbPlaceHolder
  3
AutoCAD 2000
 90
        0
280
     0
281
     0
  0
CLASS
  1
LAYOUT
  2
AcDbLayout
  3
AutoCAD 2000
 90
        0
280
     0
281
     0
  0
CLASS
  1
LONG_TRANSACTION
  2
AcDbLongTransaction
  3
AutoCAD 2000
 90
        0
280
     0
281
     0
  0
CLASS
  1
LWPOLYLINE
  2
AcDbPolyline
  3
"AutoCAD"
 90
        0
280
     0
281
     1
  0
CLASS
  1
HATCH
  2
AcDbHatch
  3
"ACAD_SEDONA"
 90
        0
280
     0
281
     1
  0
CLASS
  1
XRECORD
  2
AcDbXrecord
  3
"<Built In>"
 90
        0
280
     0
281
     0
  0
CLASS
  1
LONG_TRANSACTION
  2
AcDbLongTransaction
  3
AutoCAD 2000
 90
        0
280
     0
281
     0
  0
CLASS
  1
LWPOLYLINE
  2
AcDbPolyline
  3
"AutoCAD"
 90
        0
280
     0
281
     1
  0
CLASS
  1
HATCH
  2
AcDbHatch
  3
"ACAD_SEDONA"
 90
        0
280
     0
281
     1
  0
CLASS
  1
XRECORD
  2
AcDbXrecord
  3
"<Built In>"
 90
        0
280
     0
281
     0
  0
CLASS
  1
LONG_TRANSACTION
  2
AcDbLongTransaction
  3
AutoCAD 2000
 90
        0
280
     0
281
     0
  0
CLASS
  1
LWPOLYLINE
  2
AcDbPolyline
  3
"AutoCAD"
 90
        0
280
     0
281
     1
  0
CLASS
  1
HATCH
  2
AcDbHatch
  3
"ACAD_SEDONA"
 90
        0
280
     0
281
     1
  0
CLASS
  1
XRECORD
  2
AcDbXrecord
  3
"<Built In>"
 90
        0
280
     0
281
     0
  0
CLASS
  1
LONG_TRANSACTION
  2
AcDbLongTransaction
  3
AutoCAD 2000
 90
        0
280
     0
281
     0
  0
CLASS
  1
LWPOLYLINE
  2
AcDbPolyline
  3
"AutoCAD"
 90
        0
280
     0
281
     1
  0
CLASS
  1
HATCH
  2
AcDbHatch
  3
"ACAD_SEDONA"
 90
        0
280
     0
281
     1
  0
CLASS
  1
XRECORD
  2
AcDbXrecord
  3
"<Built In>"
 90
        0
280
     0
281
     0
  0
CLASS
  1
LONG_TRANSACTION
  2
AcDbLongTransaction
  3
AutoCAD 2000
 90
        0
280
     0
281
     0
  0
CLASS
  1
LWPOLYLINE
  2
AcDbPolyline
  3
"AutoCAD"
 90
        0
280
     0
281
     1
  0
CLASS
  1
HATCH
  2
AcDbHatch
  3
"ACAD_SEDONA"
 90
        0
280
     0
281
     1
  0
CLASS
  1
XRECORD
  2
AcDbXrecord
  3
"<Built In>"
 90
        0
280
     0
281
     0
  0
CLASS
  1
LONG_TRANSACTION
  2
AcDbLongTransaction
  3
AutoCAD 2000
 90
        0
280
     0
281
     0
  0
CLASS
  1
LWPOLYLINE
  2
AcDbPolyline
  3
"AutoCAD"
 90
        0
280
     0
281
     1
  0
CLASS
  1
HATCH
  2
AcDbHatch
  3
"ACAD_SEDONA"
 90
        0
280
     0
281
     1
  0
CLASS
  1
XRECORD
  2
AcDbXrecord
  3
"<Built In>"
 90
        0
280
     0
281
     0
  0
CLASS
  1
LONG_TRANSACTION
  2
AcDbLongTransaction
  3
AutoCAD 2000
 90
        0
280
     0
281
     0
  0
CLASS
  1
LWPOLYLINE
  2
AcDbPolyline
  3
"AutoCAD"
 90
        0
280
     0
281
     1
  0
CLASS
  1
HATCH
  2
AcDbHatch
  3
"ACAD_SEDONA"
 90
        0
280
     0
281
     1
  0
CLASS
  1
XRECORD
  2
AcDbXrecord
  3
"<Built In>"
 90
        0
280
     0
281
     0
  0
ENDSEC
  0
SECTION
  2
TABLES
  0
TABLE
  2
VPORT
  5
469
100
AcDbSymbolTable
 70
     1
  0
VPORT
  5
6FE
102
{ACAD_XDICTIONARY
360
7F1
102
}
100
AcDbSymbolTableRecord
100
AcDbViewportTableRecord
  2
*ACTIVE
 70
     0
 10
0.0
 20
0.0
 11
1.0
 21
1.0
 12
2.59963
 22
-0.378892
 13
0.0
 23
0.0
 14
1.0
 24
1.0
 15
0.0
 25
0.0
 16
0.0
 26
0.0
 36
1.0
 17
0.0
 27
0.0
 37
0.0
 40
5.277561
 41
2.531469
 42
50.0
 43
0.0
 44
0.0
 50
0.0
 51
0.0
 71
     0
 72
   100
 73
     1
 74
     1
 75
     0
 76
     0
 77
     0
 78
     0
  0
ENDTAB
  0
TABLE
  2
LTYPE
  5
466
100
AcDbSymbolTable
 70
     1
  0
LTYPE
  5
472
100
AcDbSymbolTableRecord
100
AcDbLinetypeTableRecord
  2
BYBLOCK
 70
     0
  3

 72
    65
 73
     0
 40
0.0
  0
LTYPE
  5
473
100
AcDbSymbolTableRecord
100
AcDbLinetypeTableRecord
  2
BYLAYER
 70
     0
  3

 72
    65
 73
     0
 40
0.0
  0
LTYPE
  5
474
100
AcDbSymbolTableRecord
100
AcDbLinetypeTableRecord
  2
CONTINUOUS
 70
     0
  3
Solid line
 72
    65
 73
     0
 40
0.0
  0
ENDTAB
  0
TABLE
  2
LAYER
  5
463
100
AcDbSymbolTable
 70
     8
  0
LAYER
  5
46F
100
AcDbSymbolTableRecord
100
AcDbLayerTableRecord
  2
0
 70
     0
 62
     7
  6
CONTINUOUS
  0
LAYER
  5
485
100
AcDbSymbolTableRecord
100
AcDbLayerTableRecord
  2
AREA1
 70
     0
 62
     7
  6
CONTINUOUS
  0
LAYER
  5
486
100
AcDbSymbolTableRecord
100
AcDbLayerTableRecord
  2
AREA2
 70
     0
 62
     7
  6
CONTINUOUS
  0
LAYER
  5
494
102
{ACAD_XDICTIONARY
360
81E
102
}
100
AcDbSymbolTableRecord
100
AcDbLayerTableRecord
  2
DEFPOINTS
 70
     0
 62
    -7
  6
CONTINUOUS
  0
LAYER
  5
495
100
AcDbSymbolTableRecord
100
AcDbLayerTableRecord
  2
DIMS-MTG-HOLES
 70
     0
 62
    -1
  6
CONTINUOUS
  0
LAYER
  5
4E9
100
AcDbSymbolTableRecord
100
AcDbLayerTableRecord
  2
SCALE
 70
     0
 62
    -7
  6
CONTINUOUS
  0
LAYER
  5
4EA
100
AcDbSymbolTableRecord
100
AcDbLayerTableRecord
  2
SNAP_POINTS
 70
     0
 62
    -1
  6
CONTINUOUS
  0
LAYER
  5
55F
100
AcDbSymbolTableRecord
100
AcDbLayerTableRecord
  2
ATTRIBUTES
 70
     0
 62
    -7
  6
CONTINUOUS
  0
ENDTAB
  0
TABLE
  2
STYLE
  5
464
100
AcDbSymbolTable
 70
     1
  0
STYLE
  5
470
100
AcDbSymbolTableRecord
100
AcDbTextStyleTableRecord
  2
STANDARD
 70
     0
 40
0.0
 41
1.0
 50
0.0
 71
     0
 42
0.2
  3
txt
  4

  0
ENDTAB
  0
TABLE
  2
VIEW
  5
467
100
AcDbSymbolTable
 70
     0
  0
ENDTAB
  0
TABLE
  2
UCS
  5
468
100
AcDbSymbolTable
 70
     0
  0
ENDTAB
  0
TABLE
  2
APPID
  5
46A
100
AcDbSymbolTable
 70
     2
  0
APPID
  5
471
100
AcDbSymbolTableRecord
100
AcDbRegAppTableRecord
  2
ACAD
 70
     0
  0
APPID
  5
47E
100
AcDbSymbolTableRecord
100
AcDbRegAppTableRecord
  2
AVE_RENDER
 70
     0
  0
ENDTAB
  0
TABLE
  2
DIMSTYLE
  5
46B
100
AcDbSymbolTable
 70
     3
  0
DIMSTYLE
105
496
102
{ACAD_XDICTIONARY
360
820
102
}
100
AcDbSymbolTableRecord
100
AcDbDimStyleTableRecord
  2
ABECAD
 70
     0
  3

  4

  5

  6

  7

 40
0.0
 41
0.179688
 42
0.0625
 43
0.375
 44
0.179688
 45
0.0
 46
0.0
 47
0.0
 48
0.0
140
0.125
141
0.089844
142
0.0
143
25.4
144
1.0
145
0.0
146
1.5
147
0.09375
 71
     0
 72
     0
 73
     0
 74
     0
 75
     0
 76
     0
 77
     0
 78
     4
170
     1
171
     1
172
     0
173
     0
174
     1
175
     0
176
     0
177
     0
178
     0
270
     7
271
     6
272
     6
273
     2
274
     1
340
470
275
     0
280
     0
281
     0
282
     0
283
     1
284
     4
285
     4
286
     4
287
     5
288
     0
  0
DIMSTYLE
105
49A
102
{ACAD_XDICTIONARY
360
822
102
}
102
{ACAD_REACTORS
330
6F0
102
}
100
AcDbSymbolTableRecord
100
AcDbDimStyleTableRecord
  2
ABECAD_3V
 70
     0
  3

  4

  5

  6

  7

 40
0.0
 41
0.179688
 42
0.0625
 43
0.375
 44
0.179688
 45
0.0
 46
0.0
 47
0.0
 48
0.0
140
0.125
141
0.089844
142
0.0
143
25.4
144
1.0
145
0.0
146
1.5
147
0.09375
 71
     0
 72
     0
 73
     0
 74
     0
 75
     0
 76
     0
 77
     0
 78
     4
170
     1
171
     1
172
     0
173
     0
174
     1
175
     0
176
     0
177
     0
178
     0
270
     7
271
     6
272
     6
273
     2
274
     1
340
470
275
     0
280
     0
281
     0
282
     0
283
     1
284
     4
285
     4
286
     4
287
     5
288
     0
  0
DIMSTYLE
105
560
102
{ACAD_XDICTIONARY
360
826
102
}
102
{ACAD_REACTORS
330
6D5
330
6D6
102
}
100
AcDbSymbolTableRecord
100
AcDbDimStyleTableRecord
  2
ABECAD_3D
 70
     0
  3

  4

  5

  6

  7

 40
1.0
 41
0.18
 42
0.0625
 43
0.375
 44
0.18
 45
0.0
 46
0.0
 47
0.0
 48
0.0
140
0.18
141
0.09
142
0.0
143
25.4
144
1.0
145
0.0
146
1.5
147
0.09
 71
     0
 72
     0
 73
     0
 74
     1
 75
     0
 76
     0
 77
     0
 78
     4
170
     1
171
     1
172
     0
173
     0
174
     0
175
     0
176
     0
177
     0
178
     0
270
     7
271
     6
272
     6
273
     2
274
     1
340
470
275
     0
280
     0
281
     0
282
     0
283
     1
284
     4
285
     4
286
     4
287
     3
288
     0
  0
ENDTAB
  0
TABLE
  2
BLOCK_RECORD
  5
462
100
AcDbSymbolTable
 70
     4
  0
BLOCK_RECORD
  5
478
102
{ACAD_XDICTIONARY
360
4D2
102
}
100
AcDbSymbolTableRecord
100
AcDbBlockTableRecord
  2
*MODEL_SPACE
  0
BLOCK_RECORD
  5
475
102
{ACAD_XDICTIONARY
360
4D0
102
}
100
AcDbSymbolTableRecord
100
AcDbBlockTableRecord
  2
*PAPER_SPACE
  0
BLOCK_RECORD
  5
545
100
AcDbSymbolTableRecord
100
AcDbBlockTableRecord
  2
*D0
  0
BLOCK_RECORD
  5
552
100
AcDbSymbolTableRecord
100
AcDbBlockTableRecord
  2
*D1
  0
BLOCK_RECORD
  5
561
102
{ACAD_XDICTIONARY
360
7EF
102
}
100
AcDbSymbolTableRecord
100
AcDbBlockTableRecord
  2
ABIOL010
  0
BLOCK_RECORD
  5
6F1
100
AcDbSymbolTableRecord
100
AcDbBlockTableRecord
  2
*D3
  0
ENDTAB
  0
ENDSEC
  0
SECTION
  2
BLOCKS
  0
BLOCK
  5
48B
100
AcDbEntity
  8
0
100
AcDbBlockBegin
  2
*MODEL_SPACE
 70
     0
 10
0.0
 20
0.0
 30
0.0
  3
*MODEL_SPACE
  1

  0
ENDBLK
  5
48C
100
AcDbEntity
  8
0
100
AcDbBlockEnd
  0
BLOCK
  5
489
100
AcDbEntity
 67
     1
  8
0
100
AcDbBlockBegin
  2
*PAPER_SPACE
 70
     0
 10
0.0
 20
0.0
 30
0.0
  3
*PAPER_SPACE
  1

  0
ENDBLK
  5
48A
100
AcDbEntity
 67
     1
  8
0
100
AcDbBlockEnd
  0
BLOCK
  5
550
100
AcDbEntity
  8
0
100
AcDbBlockBegin
  2
*D0
 70
     1
 10
0.0
 20
0.0
 30
0.0
  3
*D0
  1

  0
LINE
  5
546
100
AcDbEntity
  8
AREA1
 62
     0
100
AcDbLine
 10
5.3045
 20
-1.882
 30
0.0
 11
6.344039
 21
-1.882
 31
0.0
1001
ACAD
1000
RTLwPs
1070
   158
  0
LINE
  5
547
100
AcDbEntity
  8
AREA1
 62
     0
100
AcDbLine
 10
4.964815
 20
1.280951
 30
0.0
 11
6.344039
 21
1.280951
 31
0.0
1001
ACAD
1000
RTLwPs
1070
   158
  0
LINE
  5
548
100
AcDbEntity
  8
AREA1
 62
     0
100
AcDbLine
 10
6.164039
 20
-1.702
 30
0.0
 11
6.164039
 21
-1.395525
 31
0.0
1001
ACAD
1000
RTLwPs
1070
   158
  0
LINE
  5
549
100
AcDbEntity
  8
AREA1
 62
     0
100
AcDbLine
 10
6.164039
 20
1.100951
 30
0.0
 11
6.164039
 21
0.794475
 31
0.0
1001
ACAD
1000
RTLwPs
1070
   158
  0
SOLID
  5
54A
100
AcDbEntity
  8
AREA1
 62
     0
100
AcDbTrace
 10
6.134039
 20
-1.702
 30
0.0
 11
6.194039
 21
-1.702
 31
0.0
 12
6.164039
 22
-1.882
 32
0.0
 13
6.164039
 23
-1.882
 33
0.0
  0
SOLID
  5
54B
100
AcDbEntity
  8
AREA1
 62
     0
100
AcDbTrace
 10
6.134039
 20
1.100951
 30
0.0
 11
6.194039
 21
1.100951
 31
0.0
 12
6.164039
 22
1.280951
 32
0.0
 13
6.164039
 23
1.280951
 33
0.0
  0
MTEXT
  5
54C
100
AcDbEntity
  8
AREA1
 62
     0
100
AcDbMText
 10
6.164039
 20
-0.300525
 30
0.0
 40
0.18
 41
0.0
 71
     5
 72
     1
  1
\A1;3 5/32 [80.3]
 11
0.0
 21
1.0
 31
0.0
1001
ACAD
1000
MTEXTBEGIN
1070
    73
1070
     1
1070
    44
1040
1.0
1070
    74
1070
     0
1000
MTEXTEND
1000
MTEXTBEGIN
1070
    73
1070
     1
1070
    44
1040
1.0
1070
    74
1070
     0
1000
MTEXTEND
1000
MTEXTBEGIN
1070
    73
1070
     1
1070
    44
1040
1.0
1070
    74
1070
     0
1000
MTEXTEND
1000
MTEXTBEGIN
1070
    73
1070
     1
1070
    44
1040
1.0
1070
    74
1070
     0
1000
MTEXTEND
1000
MTEXTBEGIN
1070
    73
1070
     1
1070
    44
1040
1.0
1070
    74
1070
     0
1000
MTEXTEND
1000
MTEXTBEGIN
1070
    73
1070
     1
1070
    44
1040
1.0
1070
    74
1070
     0
1000
MTEXTEND
1000
MTEXTBEGIN
1070
    73
1070
     1
1070
    44
1040
1.0
1070
    74
1070
     0
1000
MTEXTEND
  0
POINT
  5
54D
100
AcDbEntity
  8
DEFPOINTS
 62
     0
100
AcDbPoint
 10
5.242
 20
-1.882
 30
0.0
  0
POINT
  5
54E
100
AcDbEntity
  8
DEFPOINTS
 62
     0
100
AcDbPoint
 10
4.902315
 20
1.280951
 30
2.204843
  0
POINT
  5
54F
100
AcDbEntity
  8
DEFPOINTS
 62
     0
100
AcDbPoint
 10
6.164039
 20
1.280951
 30
0.0
  0
ENDBLK
  5
551
100
AcDbEntity
  8
0
100
AcDbBlockEnd
  0
BLOCK
  5
55D
100
AcDbEntity
  8
0
100
AcDbBlockBegin
  2
*D1
 70
     1
 10
0.0
 20
0.0
 30
0.0
  3
*D1
  1

  0
LINE
  5
553
100
AcDbEntity
  8
AREA1
 62
     0
100
AcDbLine
 10
5.242
 20
0.5435
 30
0.0
 11
5.242
 21
2.205852
 31
0.0
1001
ACAD
1000
RTLwPs
1070
   158
  0
LINE
  5
554
100
AcDbEntity
  8
AREA1
 62
     0
100
AcDbLine
 10
0.0
 20
1.3435
 30
0.0
 11
0.0
 21
2.205852
 31
0.0
1001
ACAD
1000
RTLwPs
1070
   158
  0
LINE
  5
555
100
AcDbEntity
  8
AREA1
 62
     0
100
AcDbLine
 10
5.062
 20
2.025852
 30
0.0
 11
3.821
 21
2.025852
 31
0.0
1001
ACAD
1000
RTLwPs
1070
   158
  0
LINE
  5
556
100
AcDbEntity
  8
AREA1
 62
     0
100
AcDbLine
 10
0.18
 20
2.025852
 30
0.0
 11
1.421
 21
2.025852
 31
0.0
1001
ACAD
1000
RTLwPs
1070
   158
  0
SOLID
  5
557
100
AcDbEntity
  8
AREA1
 62
     0
100
AcDbTrace
 10
5.062
 20
2.055852
 30
0.0
 11
5.062
 21
1.995852
 31
0.0
 12
5.242
 22
2.025852
 32
0.0
 13
5.242
 23
2.025852
 33
0.0
  0
SOLID
  5
558
100
AcDbEntity
  8
AREA1
 62
     0
100
AcDbTrace
 10
0.18
 20
2.055852
 30
0.0
 11
0.18
 21
1.995852
 31
0.0
 12
0.0
 22
2.025852
 32
0.0
 13
0.0
 23
2.025852
 33
0.0
  0
MTEXT
  5
559
100
AcDbEntity
  8
AREA1
 62
     0
100
AcDbMText
 10
2.621
 20
2.025852
 30
0.0
 40
0.18
 41
0.0
 71
     5
 72
     1
  1
\A1;5 15/64 [133.1]
1001
ACAD
1000
MTEXTBEGIN
1070
    73
1070
     1
1070
    44
1040
1.0
1070
    74
1070
     0
1000
MTEXTEND
1000
MTEXTBEGIN
1070
    73
1070
     1
1070
    44
1040
1.0
1070
    74
1070
     0
1000
MTEXTEND
1000
MTEXTBEGIN
1070
    73
1070
     1
1070
    44
1040
1.0
1070
    74
1070
     0
1000
MTEXTEND
1000
MTEXTBEGIN
1070
    73
1070
     1
1070
    44
1040
1.0
1070
    74
1070
     0
1000
MTEXTEND
1000
MTEXTBEGIN
1070
    73
1070
     1
1070
    44
1040
1.0
1070
    74
1070
     0
1000
MTEXTEND
1000
MTEXTBEGIN
1070
    73
1070
     1
1070
    44
1040
1.0
1070
    74
1070
     0
1000
MTEXTEND
1000
MTEXTBEGIN
1070
    73
1070
     1
1070
    44
1040
1.0
1070
    74
1070
     0
1000
MTEXTEND
  0
POINT
  5
55A
100
AcDbEntity
  8
DEFPOINTS
 62
     0
100
AcDbPoint
 10
5.242
 20
0.481
 30
2.635
  0
POINT
  5
55B
100
AcDbEntity
  8
DEFPOINTS
 62
     0
100
AcDbPoint
 10
0.0
 20
1.281
 30
0.0
  0
POINT
  5
55C
100
AcDbEntity
  8
DEFPOINTS
 62
     0
100
AcDbPoint
 10
0.0
 20
2.025852
 30
0.0
  0
ENDBLK
  5
55E
100
AcDbEntity
  8
0
100
AcDbBlockEnd
  0
BLOCK
  5
6E3
100
AcDbEntity
  8
0
100
AcDbBlockBegin
  2
ABIOL010
 70
     2
 10
0.0
 20
0.0
 30
0.0
  3
ABIOL010
  1

  0
ATTDEF
  5
562
100
AcDbEntity
  8
ATTRIBUTES
100
AcDbText
 10
0.058108
 20
0.695854
 30
0.0
 40
0.15
  1
ALLEN-BRADLEY
100
AcDbAttributeDefinition
  3
MANUFACTURER NAME?
  2
AC_VND_LABEL
 70
     1
  0
ATTDEF
  5
563
100
AcDbEntity
  8
ATTRIBUTES
100
AcDbText
 10
0.058108
 20
0.383354
 30
0.0
 40
0.15
  1
1761-L16 AWA
100
AcDbAttributeDefinition
  3
CATALOG NUMBER?
  2
AC_PART_NO
 70
     1
  0
ATTDEF
  5
564
100
AcDbEntity
  8
ATTRIBUTES
100
AcDbText
 10
0.058108
 20
0.070854
 30
0.0
 40
0.15
  1
1761-L16 AWA: AC RELAY
100
AcDbAttributeDefinition
  3
PART DESCRIPTION?
  2
AC_DESCRIPTION
 70
     1
  0
ATTDEF
  5
565
100
AcDbEntity
  8
ATTRIBUTES
100
AcDbText
 10
0.058108
 20
-0.241646
 30
0.0
 40
0.15
  1

100
AcDbAttributeDefinition
  3
DEVICE ID?
  2
DEVICE_ID
 70
     1
  0
ATTDEF
  5
566
100
AcDbEntity
  8
ATTRIBUTES
100
AcDbText
 10
0.058108
 20
-0.554146
 30
0.0
 40
0.15
  1

100
AcDbAttributeDefinition
  3
CUSTOMER PART NUMBER?
  2
AC_CPART_NO
 70
     1
  0
ATTDEF
  5
567
100
AcDbEntity
  8
ATTRIBUTES
100
AcDbText
 10
0.058108
 20
-0.866646
 30
0.0
 40
0.15
  1

100
AcDbAttributeDefinition
  3
CUSTOMER NOTE?
  2
AC_NOTE
 70
     1
  0
ATTDEF
  5
568
100
AcDbEntity
  8
ATTRIBUTES
100
AcDbText
 10
0.058108
 20
-1.179146
 30
0.0
 40
0.15
  1

100
AcDbAttributeDefinition
  3
FASTENER DATA?
  2
FASTENER
 70
     1
  0
ATTDEF
  5
569
100
AcDbEntity
  8
ATTRIBUTES
100
AcDbText
 10
0.058108
 20
-1.491646
 30
0.0
 40
0.15
  1
INCH
100
AcDbAttributeDefinition
  3
UNIT OF SCALE?
  2
AC_SCALE_UNIT
 70
     1
  0
ATTDEF
  5
56A
100
AcDbEntity
  8
ATTRIBUTES
100
AcDbText
 10
0.058108
 20
-1.804146
 30
0.0
 40
0.15
  1
0
100
AcDbAttributeDefinition
  3
VIEW CODE?
  2
AC_VIEW_CODE
 70
     1
  0
POLYLINE
  5
56B
100
AcDbEntity
  8
0
100
AcDbPolygonMesh
 66
     1
 10
0.0
 20
0.0
 30
0.0
 70
    16
 71
     6
 72
     3
  0
VERTEX
  5
56C
100
AcDbEntity
  8
0
100
AcDbVertex
100
AcDbPolygonMeshVertex
 10
5.242
 20
0.931
 30
2.595
 70
    64
  0
VERTEX
  5
56D
100
AcDbEntity
  8
0
100
AcDbVertex
100
AcDbPolygonMeshVertex
 10
5.242
 20
0.931
 30
0.317
 70
    64
  0
VERTEX
  5
56E
100
AcDbEntity
  8
0
100
AcDbVertex
100
AcDbPolygonMeshVertex
 10
5.242
 20
0.931
 30
0.317
 70
    64
  0
VERTEX
  5
56F
100
AcDbEntity
  8
0
100
AcDbVertex
100
AcDbPolygonMeshVertex
 10
5.242
 20
-1.532
 30
2.595
 70
    64
  0
VERTEX
  5
570
100
AcDbEntity
  8
0
100
AcDbVertex
100
AcDbPolygonMeshVertex
 10
5.242
 20
-1.532
 30
0.317
 70
    64
  0
VERTEX
  5
571
100
AcDbEntity
  8
0
100
AcDbVertex
100
AcDbPolygonMeshVertex
 10
5.242
 20
-1.532
 30
0.317
 70
    64
  0
VERTEX
  5
572
100
AcDbEntity
  8
0
100
AcDbVertex
100
AcDbPolygonMeshVertex
 10
0.0
 20
-1.532
 30
2.595
 70
    64
  0
VERTEX
  5
573
100
AcDbEntity
  8
0
100
AcDbVertex
100
AcDbPolygonMeshVertex
 10
0.0
 20
-1.532
 30
0.317
 70
    64
  0
VERTEX
  5
574
100
AcDbEntity
  8
0
100
AcDbVertex
100
AcDbPolygonMeshVertex
 10
5.242
 20
-1.532
 30
0.317
 70
    64
  0
VERTEX
  5
575
100
AcDbEntity
  8
0
100
AcDbVertex
100
AcDbPolygonMeshVertex
 10
0.0
 20
0.931
 30
2.595
 70
    64
  0
VERTEX
  5
576
100
AcDbEntity
  8
0
100
AcDbVertex
100
AcDbPolygonMeshVertex
 10
0.0
 20
0.931
 30
0.317
 70
    64
  0
VERTEX
  5
577
100
AcDbEntity
  8
0
100
AcDbVertex
100
AcDbPolygonMeshVertex
 10
5.242
 20
0.931
 30
0.317
 70
    64
  0
VERTEX
  5
578
100
AcDbEntity
  8
0
100
AcDbVertex
100
AcDbPolygonMeshVertex
 10
0.0
 20
0.931
 30
2.595
 70
    64
  0
VERTEX
  5
579
100
AcDbEntity
  8
0
100
AcDbVertex
100
AcDbPolygonMeshVertex
 10
0.0
 20
0.931
 30
2.595
 70
    64
  0
VERTEX
  5
57A
100
AcDbEntity
  8
0
100
AcDbVertex
100
AcDbPolygonMeshVertex
 10
5.242
 20
0.931
 30
2.595
 70
    64
  0
VERTEX
  5
57B
100
AcDbEntity
  8
0
100
AcDbVertex
100
AcDbPolygonMeshVertex
 10
0.0
 20
-1.532
 30
2.595
 70
    64
  0
VERTEX
  5
57C
100
AcDbEntity
  8
0
100
AcDbVertex
100
AcDbPolygonMeshVertex
 10
0.0
 20
-1.532
 30
2.595
 70
    64
  0
VERTEX
  5
57D
100
AcDbEntity
  8
0
100
AcDbVertex
100
AcDbPolygonMeshVertex
 10
5.242
 20
-1.532
 30
2.595
 70
    64
  0
SEQEND
  5
57E
100
AcDbEntity
  8
0
  0
POLYLINE
  5
57F
100
AcDbEntity
  8
0
100
AcDbPolygonMesh
 66
     1
 10
0.0
 20
0.0
 30
0.0
 70
    16
 71
     6
 72
     3
  0
VERTEX
  5
580
100
AcDbEntity
  8
0
100
AcDbVertex
100
AcDbPolygonMeshVertex
 10
5.242
 20
1.281
 30
2.595
 70
    64
  0
VERTEX
  5
581
100
AcDbEntity
  8
0
100
AcDbVertex
100
AcDbPolygonMeshVertex
 10
5.242
 20
1.281
 30
0.317
 70
    64
  0
VERTEX
  5
582
100
AcDbEntity
  8
0
100
AcDbVertex
100
AcDbPolygonMeshVertex
 10
5.242
 20
1.281
 30
0.317
 70
    64
  0
VERTEX
  5
583
100
AcDbEntity
  8
0
100
AcDbVertex
100
AcDbPolygonMeshVertex
 10
5.242
 20
0.931
 30
2.595
 70
    64
  0
VERTEX
  5
584
100
AcDbEntity
  8
0
100
AcDbVertex
100
AcDbPolygonMeshVertex
 10
5.242
 20
0.931
 30
0.317
 70
    64
  0
VERTEX
  5
585
100
AcDbEntity
  8
0
100
AcDbVertex
100
AcDbPolygonMeshVertex
 10
5.242
 20
0.931
 30
0.317
 70
    64
  0
VERTEX
  5
586
100
AcDbEntity
  8
0
100
AcDbVertex
100
AcDbPolygonMeshVertex
 10
0.35
 20
0.931
 30
2.595
 70
    64
  0
VERTEX
  5
587
100
AcDbEntity
  8
0
100
AcDbVertex
100
AcDbPolygonMeshVertex
 10
0.35
 20
0.931
 30
0.317
 70
    64
  0
VERTEX
  5
588
100
AcDbEntity
  8
0
100
AcDbVertex
100
AcDbPolygonMeshVertex
 10
5.242
 20
0.931
 30
0.317
 70
    64
  0
VERTEX
  5
589
100
AcDbEntity
  8
0
100
AcDbVertex
100
AcDbPolygonMeshVertex
 10
0.35
 20
1.281
 30
2.595
 70
    64
  0
VERTEX
  5
58A
100
AcDbEntity
  8
0
100
AcDbVertex
100
AcDbPolygonMeshVertex
 10
0.35
 20
1.281
 30
0.317
 70
    64
  0
VERTEX
  5
58B
100
AcDbEntity
  8
0
100
AcDbVertex
100
AcDbPolygonMeshVertex
 10
5.242
 20
1.281
 30
0.317
 70
    64
  0
VERTEX
  5
58C
100
AcDbEntity
  8
0
100
AcDbVertex
100
AcDbPolygonMeshVertex
 10
0.35
 20
1.281
 30
2.595
 70
    64
  0
VERTEX
  5
58D
100
AcDbEntity
  8
0
100
AcDbVertex
100
AcDbPolygonMeshVertex
 10
0.35
 20
1.281
 30
2.595
 70
    64
  0
VERTEX
  5
58E
100
AcDbEntity
  8
0
100
AcDbVertex
100
AcDbPolygonMeshVertex
 10
5.242
 20
1.281
 30
2.595
 70
    64
  0
VERTEX
  5
58F
100
AcDbEntity
  8
0
100
AcDbVertex
100
AcDbPolygonMeshVertex
 10
0.35
 20
0.931
 30
2.595
 70
    64
  0
VERTEX
  5
590
100
AcDbEntity
  8
0
100
AcDbVertex
100
AcDbPolygonMeshVertex
 10
0.35
 20
0.931
 30
2.595
 70
    64
  0
VERTEX
  5
591
100
AcDbEntity
  8
0
100
AcDbVertex
100
AcDbPolygonMeshVertex
 10
5.242
 20
0.931
 30
2.595
 70
    64
  0
SEQEND
  5
592
100
AcDbEntity
  8
0
  0
POLYLINE
  5
593
100
AcDbEntity
  8
0
100
AcDbPolygonMesh
 66
     1
 10
0.0
 20
0.0
 30
0.0
 70
    16
 71
     6
 72
     3
  0
VERTEX
  5
594
100
AcDbEntity
  8
0
100
AcDbVertex
100
AcDbPolygonMeshVertex
 10
4.892
 20
-1.532
 30
2.595
 70
    64
  0
VERTEX
  5
595
100
AcDbEntity
  8
0
100
AcDbVertex
100
AcDbPolygonMeshVertex
 10
4.892
 20
-1.532
 30
0.317
 70
    64
  0
VERTEX
  5
596
100
AcDbEntity
  8
0
100
AcDbVertex
100
AcDbPolygonMeshVertex
 10
4.892
 20
-1.532
 30
0.317
 70
    64
  0
VERTEX
  5
597
100
AcDbEntity
  8
0
100
AcDbVertex
100
AcDbPolygonMeshVertex
 10
4.892
 20
-1.882
 30
2.595
 70
    64
  0
VERTEX
  5
598
100
AcDbEntity
  8
0
100
AcDbVertex
100
AcDbPolygonMeshVertex
 10
4.892
 20
-1.882
 30
0.317
 70
    64
  0
VERTEX
  5
599
100
AcDbEntity
  8
0
100
AcDbVertex
100
AcDbPolygonMeshVertex
 10
4.892
 20
-1.882
 30
0.317
 70
    64
  0
VERTEX
  5
59A
100
AcDbEntity
  8
0
100
AcDbVertex
100
AcDbPolygonMeshVertex
 10
0.0
 20
-1.882
 30
2.595
 70
    64
  0
VERTEX
  5
59B
100
AcDbEntity
  8
0
100
AcDbVertex
100
AcDbPolygonMeshVertex
 10
0.0
 20
-1.882
 30
0.317
 70
    64
  0
VERTEX
  5
59C
100
AcDbEntity
  8
0
100
AcDbVertex
100
AcDbPolygonMeshVertex
 10
4.892
 20
-1.882
 30
0.317
 70
    64
  0
VERTEX
  5
59D
100
AcDbEntity
  8
0
100
AcDbVertex
100
AcDbPolygonMeshVertex
 10
0.0
 20
-1.532
 30
2.595
 70
    64
  0
VERTEX
  5
59E
100
AcDbEntity
  8
0
100
AcDbVertex
100
AcDbPolygonMeshVertex
 10
0.0
 20
-1.532
 30
0.317
 70
    64
  0
VERTEX
  5
59F
100
AcDbEntity
  8
0
100
AcDbVertex
100
AcDbPolygonMeshVertex
 10
4.892
 20
-1.532
 30
0.317
 70
    64
  0
VERTEX
  5
5A0
100
AcDbEntity
  8
0
100
AcDbVertex
100
AcDbPolygonMeshVertex
 10
0.0
 20
-1.532
 30
2.595
 70
    64
  0
VERTEX
  5
5A1
100
AcDbEntity
  8
0
100
AcDbVertex
100
AcDbPolygonMeshVertex
 10
0.0
 20
-1.532
 30
2.595
 70
    64
  0
VERTEX
  5
5A2
100
AcDbEntity
  8
0
100
AcDbVertex
100
AcDbPolygonMeshVertex
 10
4.892
 20
-1.532
 30
2.595
 70
    64
  0
VERTEX
  5
5A3
100
AcDbEntity
  8
0
100
AcDbVertex
100
AcDbPolygonMeshVertex
 10
0.0
 20
-1.882
 30
2.595
 70
    64
  0
VERTEX
  5
5A4
100
AcDbEntity
  8
0
100
AcDbVertex
100
AcDbPolygonMeshVertex
 10
0.0
 20
-1.882
 30
2.595
 70
    64
  0
VERTEX
  5
5A5
100
AcDbEntity
  8
0
100
AcDbVertex
100
AcDbPolygonMeshVertex
 10
4.892
 20
-1.882
 30
2.595
 70
    64
  0
SEQEND
  5
5A6
100
AcDbEntity
  8
0
  0
LINE
  5
5A7
100
AcDbEntity
  8
0
100
AcDbLine
 10
2.5894
 20
-1.960396
 30
0.1
 11
2.1326
 21
-1.960396
 31
0.1
  0
POLYLINE
  5
5A8
100
AcDbEntity
  8
0
100
AcDbPolygonMesh
 66
     1
 10
0.0
 20
0.0
 30
0.0
 70
    16
 71
     6
 72
     3
  0
VERTEX
  5
5A9
100
AcDbEntity
  8
0
100
AcDbVertex
100
AcDbPolygonMeshVertex
 10
2.661
 20
-2.032
 30
0.1
 70
    64
  0
VERTEX
  5
5AA
100
AcDbEntity
  8
0
100
AcDbVertex
100
AcDbPolygonMeshVertex
 10
2.661
 20
-2.032
 30
0.0
 70
    64
  0
VERTEX
  5
5AB
100
AcDbEntity
  8
0
100
AcDbVertex
100
AcDbPolygonMeshVertex
 10
2.661
 20
-2.032
 30
0.0
 70
    64
  0
VERTEX
  5
5AC
100
AcDbEntity
  8
0
100
AcDbVertex
100
AcDbPolygonMeshVertex
 10
2.061
 20
-2.032
 30
0.1
 70
    64
  0
VERTEX
  5
5AD
100
AcDbEntity
  8
0
100
AcDbVertex
100
AcDbPolygonMeshVertex
 10
2.061
 20
-2.032
 30
0.0
 70
    64
  0
VERTEX
  5
5AE
100
AcDbEntity
  8
0
100
AcDbVertex
100
AcDbPolygonMeshVertex
 10
2.061
 20
-2.032
 30
0.0
 70
    64
  0
VERTEX
  5
5AF
100
AcDbEntity
  8
0
100
AcDbVertex
100
AcDbPolygonMeshVertex
 10
2.061
 20
-1.882
 30
0.1
 70
    64
  0
VERTEX
  5
5B0
100
AcDbEntity
  8
0
100
AcDbVertex
100
AcDbPolygonMeshVertex
 10
2.061
 20
-1.882
 30
0.0
 70
    64
  0
VERTEX
  5
5B1
100
AcDbEntity
  8
0
100
AcDbVertex
100
AcDbPolygonMeshVertex
 10
2.061
 20
-2.032
 30
0.0
 70
    64
  0
VERTEX
  5
5B2
100
AcDbEntity
  8
0
100
AcDbVertex
100
AcDbPolygonMeshVertex
 10
2.661
 20
-1.882
 30
0.1
 70
    64
  0
VERTEX
  5
5B3
100
AcDbEntity
  8
0
100
AcDbVertex
100
AcDbPolygonMeshVertex
 10
2.661
 20
-1.882
 30
0.0
 70
    64
  0
VERTEX
  5
5B4
100
AcDbEntity
  8
0
100
AcDbVertex
100
AcDbPolygonMeshVertex
 10
2.661
 20
-2.032
 30
0.0
 70
    64
  0
VERTEX
  5
5B5
100
AcDbEntity
  8
0
100
AcDbVertex
100
AcDbPolygonMeshVertex
 10
2.661
 20
-1.882
 30
0.1
 70
    64
  0
VERTEX
  5
5B6
100
AcDbEntity
  8
0
100
AcDbVertex
100
AcDbPolygonMeshVertex
 10
2.661
 20
-1.882
 30
0.1
 70
    64
  0
VERTEX
  5
5B7
100
AcDbEntity
  8
0
100
AcDbVertex
100
AcDbPolygonMeshVertex
 10
2.661
 20
-2.032
 30
0.1
 70
    64
  0
VERTEX
  5
5B8
100
AcDbEntity
  8
0
100
AcDbVertex
100
AcDbPolygonMeshVertex
 10
2.061
 20
-1.882
 30
0.1
 70
    64
  0
VERTEX
  5
5B9
100
AcDbEntity
  8
0
100
AcDbVertex
100
AcDbPolygonMeshVertex
 10
2.061
 20
-1.882
 30
0.1
 70
    64
  0
VERTEX
  5
5BA
100
AcDbEntity
  8
0
100
AcDbVertex
100
AcDbPolygonMeshVertex
 10
2.061
 20
-2.032
 30
0.1
 70
    64
  0
SEQEND
  5
5BB
100
AcDbEntity
  8
0
  0
POLYLINE
  5
5BC
100
AcDbEntity
  8
0
100
AcDbPolygonMesh
 66
     1
 10
0.0
 20
0.0
 30
0.0
 70
    16
 71
     6
 72
     3
  0
VERTEX
  5
5BD
100
AcDbEntity
  8
0
100
AcDbVertex
100
AcDbPolygonMeshVertex
 10
5.242
 20
1.281
 30
0.317
 70
    64
  0
VERTEX
  5
5BE
100
AcDbEntity
  8
0
100
AcDbVertex
100
AcDbPolygonMeshVertex
 10
5.242
 20
1.281
 30
0.17
 70
    64
  0
VERTEX
  5
5BF
100
AcDbEntity
  8
0
100
AcDbVertex
100
AcDbPolygonMeshVertex
 10
5.242
 20
1.281
 30
0.17
 70
    64
  0
VERTEX
  5
5C0
100
AcDbEntity
  8
0
100
AcDbVertex
100
AcDbPolygonMeshVertex
 10
5.242
 20
-1.882
 30
0.317
 70
    64
  0
VERTEX
  5
5C1
100
AcDbEntity
  8
0
100
AcDbVertex
100
AcDbPolygonMeshVertex
 10
5.242
 20
-1.882
 30
0.17
 70
    64
  0
VERTEX
  5
5C2
100
AcDbEntity
  8
0
100
AcDbVertex
100
AcDbPolygonMeshVertex
 10
5.242
 20
-1.882
 30
0.17
 70
    64
  0
VERTEX
  5
5C3
100
AcDbEntity
  8
0
100
AcDbVertex
100
AcDbPolygonMeshVertex
 10
0.0
 20
-1.882
 30
0.317
 70
    64
  0
VERTEX
  5
5C4
100
AcDbEntity
  8
0
100
AcDbVertex
100
AcDbPolygonMeshVertex
 10
0.0
 20
-1.882
 30
0.17
 70
    64
  0
VERTEX
  5
5C5
100
AcDbEntity
  8
0
100
AcDbVertex
100
AcDbPolygonMeshVertex
 10
5.242
 20
-1.882
 30
0.17
 70
    64
  0
VERTEX
  5
5C6
100
AcDbEntity
  8
0
100
AcDbVertex
100
AcDbPolygonMeshVertex
 10
0.0
 20
1.281
 30
0.317
 70
    64
  0
VERTEX
  5
5C7
100
AcDbEntity
  8
0
100
AcDbVertex
100
AcDbPolygonMeshVertex
 10
0.0
 20
1.281
 30
0.17
 70
    64
  0
VERTEX
  5
5C8
100
AcDbEntity
  8
0
100
AcDbVertex
100
AcDbPolygonMeshVertex
 10
5.242
 20
1.281
 30
0.17
 70
    64
  0
VERTEX
  5
5C9
100
AcDbEntity
  8
0
100
AcDbVertex
100
AcDbPolygonMeshVertex
 10
0.0
 20
1.281
 30
0.317
 70
    64
  0
VERTEX
  5
5CA
100
AcDbEntity
  8
0
100
AcDbVertex
100
AcDbPolygonMeshVertex
 10
0.0
 20
1.281
 30
0.317
 70
    64
  0
VERTEX
  5
5CB
100
AcDbEntity
  8
0
100
AcDbVertex
100
AcDbPolygonMeshVertex
 10
5.242
 20
1.281
 30
0.317
 70
    64
  0
VERTEX
  5
5CC
100
AcDbEntity
  8
0
100
AcDbVertex
100
AcDbPolygonMeshVertex
 10
0.0
 20
-1.882
 30
0.317
 70
    64
  0
VERTEX
  5
5CD
100
AcDbEntity
  8
0
100
AcDbVertex
100
AcDbPolygonMeshVertex
 10
0.0
 20
-1.882
 30
0.317
 70
    64
  0
VERTEX
  5
5CE
100
AcDbEntity
  8
0
100
AcDbVertex
100
AcDbPolygonMeshVertex
 10
5.242
 20
-1.882
 30
0.317
 70
    64
  0
SEQEND
  5
5CF
100
AcDbEntity
  8
0
  0
POLYLINE
  5
5D0
100
AcDbEntity
  8
0
100
AcDbPolygonMesh
 66
     1
 10
0.0
 20
0.0
 30
0.0
 70
    16
 71
     6
 72
     3
  0
VERTEX
  5
5D1
100
AcDbEntity
  8
0
100
AcDbVertex
100
AcDbPolygonMeshVertex
 10
5.242
 20
-1.408
 30
0.17
 70
    64
  0
VERTEX
  5
5D2
100
AcDbEntity
  8
0
100
AcDbVertex
100
AcDbPolygonMeshVertex
 10
5.242
 20
-1.408
 30
0.0
 70
    64
  0
VERTEX
  5
5D3
100
AcDbEntity
  8
0
100
AcDbVertex
100
AcDbPolygonMeshVertex
 10
5.242
 20
-1.408
 30
0.0
 70
    64
  0
VERTEX
  5
5D4
100
AcDbEntity
  8
0
100
AcDbVertex
100
AcDbPolygonMeshVertex
 10
5.242
 20
-1.882
 30
0.17
 70
    64
  0
VERTEX
  5
5D5
100
AcDbEntity
  8
0
100
AcDbVertex
100
AcDbPolygonMeshVertex
 10
5.242
 20
-1.882
 30
0.0
 70
    64
  0
VERTEX
  5
5D6
100
AcDbEntity
  8
0
100
AcDbVertex
100
AcDbPolygonMeshVertex
 10
5.242
 20
-1.882
 30
0.0
 70
    64
  0
VERTEX
  5
5D7
100
AcDbEntity
  8
0
100
AcDbVertex
100
AcDbPolygonMeshVertex
 10
0.0
 20
-1.882
 30
0.17
 70
    64
  0
VERTEX
  5
5D8
100
AcDbEntity
  8
0
100
AcDbVertex
100
AcDbPolygonMeshVertex
 10
0.0
 20
-1.882
 30
0.0
 70
    64
  0
VERTEX
  5
5D9
100
AcDbEntity
  8
0
100
AcDbVertex
100
AcDbPolygonMeshVertex
 10
5.242
 20
-1.882
 30
0.0
 70
    64
  0
VERTEX
  5
5DA
100
AcDbEntity
  8
0
100
AcDbVertex
100
AcDbPolygonMeshVertex
 10
0.0
 20
-1.408
 30
0.17
 70
    64
  0
VERTEX
  5
5DB
100
AcDbEntity
  8
0
100
AcDbVertex
100
AcDbPolygonMeshVertex
 10
0.0
 20
-1.408
 30
0.0
 70
    64
  0
VERTEX
  5
5DC
100
AcDbEntity
  8
0
100
AcDbVertex
100
AcDbPolygonMeshVertex
 10
5.242
 20
-1.408
 30
0.0
 70
    64
  0
VERTEX
  5
5DD
100
AcDbEntity
  8
0
100
AcDbVertex
100
AcDbPolygonMeshVertex
 10
0.0
 20
-1.408
 30
0.17
 70
    64
  0
VERTEX
  5
5DE
100
AcDbEntity
  8
0
100
AcDbVertex
100
AcDbPolygonMeshVertex
 10
0.0
 20
-1.408
 30
0.17
 70
    64
  0
VERTEX
  5
5DF
100
AcDbEntity
  8
0
100
AcDbVertex
100
AcDbPolygonMeshVertex
 10
5.242
 20
-1.408
 30
0.17
 70
    64
  0
VERTEX
  5
5E0
100
AcDbEntity
  8
0
100
AcDbVertex
100
AcDbPolygonMeshVertex
 10
0.0
 20
-1.882
 30
0.17
 70
    64
  0
VERTEX
  5
5E1
100
AcDbEntity
  8
0
100
AcDbVertex
100
AcDbPolygonMeshVertex
 10
0.0
 20
-1.882
 30
0.17
 70
    64
  0
VERTEX
  5
5E2
100
AcDbEntity
  8
0
100
AcDbVertex
100
AcDbPolygonMeshVertex
 10
5.242
 20
-1.882
 30
0.17
 70
    64
  0
SEQEND
  5
5E3
100
AcDbEntity
  8
0
  0
POLYLINE
  5
5E4
100
AcDbEntity
  8
0
100
AcDbPolygonMesh
 66
     1
 10
0.0
 20
0.0
 30
0.0
 70
    16
 71
     6
 72
     3
  0
VERTEX
  5
5E5
100
AcDbEntity
  8
0
100
AcDbVertex
100
AcDbPolygonMeshVertex
 10
5.242
 20
1.281
 30
0.17
 70
    64
  0
VERTEX
  5
5E6
100
AcDbEntity
  8
0
100
AcDbVertex
100
AcDbPolygonMeshVertex
 10
5.242
 20
1.281
 30
0.0
 70
    64
  0
VERTEX
  5
5E7
100
AcDbEntity
  8
0
100
AcDbVertex
100
AcDbPolygonMeshVertex
 10
5.242
 20
1.281
 30
0.0
 70
    64
  0
VERTEX
  5
5E8
100
AcDbEntity
  8
0
100
AcDbVertex
100
AcDbPolygonMeshVertex
 10
5.242
 20
0.0
 30
0.17
 70
    64
  0
VERTEX
  5
5E9
100
AcDbEntity
  8
0
100
AcDbVertex
100
AcDbPolygonMeshVertex
 10
5.242
 20
0.0
 30
0.0
 70
    64
  0
VERTEX
  5
5EA
100
AcDbEntity
  8
0
100
AcDbVertex
100
AcDbPolygonMeshVertex
 10
5.242
 20
0.0
 30
0.0
 70
    64
  0
VERTEX
  5
5EB
100
AcDbEntity
  8
0
100
AcDbVertex
100
AcDbPolygonMeshVertex
 10
0.0
 20
0.0
 30
0.17
 70
    64
  0
VERTEX
  5
5EC
100
AcDbEntity
  8
0
100
AcDbVertex
100
AcDbPolygonMeshVertex
 10
0.0
 20
0.0
 30
0.0
 70
    64
  0
VERTEX
  5
5ED
100
AcDbEntity
  8
0
100
AcDbVertex
100
AcDbPolygonMeshVertex
 10
5.242
 20
0.0
 30
0.0
 70
    64
  0
VERTEX
  5
5EE
100
AcDbEntity
  8
0
100
AcDbVertex
100
AcDbPolygonMeshVertex
 10
0.0
 20
1.281
 30
0.17
 70
    64
  0
VERTEX
  5
5EF
100
AcDbEntity
  8
0
100
AcDbVertex
100
AcDbPolygonMeshVertex
 10
0.0
 20
1.281
 30
0.0
 70
    64
  0
VERTEX
  5
5F0
100
AcDbEntity
  8
0
100
AcDbVertex
100
AcDbPolygonMeshVertex
 10
5.242
 20
1.281
 30
0.0
 70
    64
  0
VERTEX
  5
5F1
100
AcDbEntity
  8
0
100
AcDbVertex
100
AcDbPolygonMeshVertex
 10
0.0
 20
1.281
 30
0.17
 70
    64
  0
VERTEX
  5
5F2
100
AcDbEntity
  8
0
100
AcDbVertex
100
AcDbPolygonMeshVertex
 10
0.0
 20
1.281
 30
0.17
 70
    64
  0
VERTEX
  5
5F3
100
AcDbEntity
  8
0
100
AcDbVertex
100
AcDbPolygonMeshVertex
 10
5.242
 20
1.281
 30
0.17
 70
    64
  0
VERTEX
  5
5F4
100
AcDbEntity
  8
0
100
AcDbVertex
100
AcDbPolygonMeshVertex
 10
0.0
 20
0.0
 30
0.17
 70
    64
  0
VERTEX
  5
5F5
100
AcDbEntity
  8
0
100
AcDbVertex
100
AcDbPolygonMeshVertex
 10
0.0
 20
0.0
 30
0.17
 70
    64
  0
VERTEX
  5
5F6
100
AcDbEntity
  8
0
100
AcDbVertex
100
AcDbPolygonMeshVertex
 10
5.242
 20
0.0
 30
0.17
 70
    64
  0
SEQEND
  5
5F7
100
AcDbEntity
  8
0
  0
LINE
  5
5F8
100
AcDbEntity
  8
0
100
AcDbLine
 10
2.1326
 20
-1.882
 30
0.1
 11
2.1326
 21
-1.960396
 31
0.1
  0
POINT
  5
5F9
100
AcDbEntity
  8
DIMS-MTG-HOLES
100
AcDbPoint
 10
0.175
 20
1.106
 30
0.0
  0
CIRCLE
  5
5FA
100
AcDbEntity
  8
0
100
AcDbCircle
 10
0.175
 20
1.106
 30
0.317
 40
0.094
  0
LINE
  5
5FB
100
AcDbEntity
  8
0
100
AcDbLine
 10
2.5894
 20
-1.882
 30
0.1
 11
2.5894
 21
-1.960396
 31
0.1
  0
POINT
  5
5FC
100
AcDbEntity
  8
DIMS-MTG-HOLES
100
AcDbPoint
 10
5.067
 20
-1.707
 30
0.0
  0
CIRCLE
  5
5FD
100
AcDbEntity
  8
0
100
AcDbCircle
 10
5.067
 20
-1.707
 30
0.317
 40
0.094
  0
LINE
  5
5FE
100
AcDbEntity
  8
0
100
AcDbLine
 10
1.72248
 20
0.680967
 30
2.6934
 11
2.933243
 21
0.680967
 31
2.6934
  0
TEXT
  5
5FF
100
AcDbEntity
  8
0
100
AcDbText
 39
0.001
 10
2.160101
 20
-1.392049
 30
2.692373
 40
0.05
  1
VAC
 72
     1
 11
2.235101
 21
-1.392049
 31
2.692373
100
AcDbText
  0
TEXT
  5
600
100
AcDbEntity
  8
0
100
AcDbText
 39
0.001
 10
2.160101
 20
-1.492049
 30
2.692373
 40
0.05
  1
VDC
 72
     1
 11
2.235101
 21
-1.492049
 31
2.692373
100
AcDbText
  0
LWPOLYLINE
  5
601
100
AcDbEntity
  8
0
100
AcDbPolyline
 90
        4
 70
     1
 43
0.0
 38
1.280951
 10
-2.436
 20
2.567373
 10
-2.436
 20
2.374843
 10
-2.164531
 20
2.374843
 10
-2.164531
 20
2.567373
210
0.0
220
1.0
230
0.0
  0
LWPOLYLINE
  5
602
100
AcDbEntity
  8
0
100
AcDbPolyline
 90
        4
 70
     1
 43
0.0
 38
-1.882049
 10
-2.390198
 20
2.567373
 10
-2.390198
 20
2.374843
 10
-2.11873
 20
2.374843
 10
-2.11873
 20
2.567373
210
0.0
220
1.0
230
0.0
  0
LWPOLYLINE
  5
603
100
AcDbEntity
  8
0
100
AcDbPolyline
 90
        8
 70
     1
 43
0.0
 38
2.805
 10
0.968862
 20
-1.050029
 42
0.414214
 10
1.068862
 20
-1.150029
 10
4.948862
 20
-1.150029
 42
0.414214
 10
5.048862
 20
-1.050029
 10
5.048862
 20
0.439971
 42
0.414214
 10
4.948862
 20
0.539971
 10
1.068862
 20
0.539971
 42
0.414214
 10
0.968862
 20
0.439971
  0
LWPOLYLINE
  5
604
100
AcDbEntity
  8
0
100
AcDbPolyline
 90
        4
 70
     1
 43
0.0
 38
2.805
 10
2.283737
 20
0.159733
 10
2.283737
 20
0.284733
 10
2.203737
 20
0.284733
 10
2.203737
 20
0.159733
  0
LINE
  5
605
100
AcDbEntity
  8
0
100
AcDbLine
 10
0.08
 20
0.606
 30
2.805
 11
5.162
 21
0.606
 31
2.805
  0
LINE
  5
606
100
AcDbEntity
  8
0
100
AcDbLine
 10
0.08
 20
-1.207
 30
2.805
 11
5.162
 21
-1.207
 31
2.805
  0
LINE
  5
607
100
AcDbEntity
  8
0
100
AcDbLine
 10
0.0
 20
-1.542
 30
2.805
 11
5.242
 21
-1.542
 31
2.805
  0
POLYLINE
  5
608
100
AcDbEntity
  8
0
100
AcDbPolygonMesh
 66
     1
 10
0.0
 20
0.0
 30
0.0
 70
    16
 71
     6
 72
     3
  0
VERTEX
  5
609
100
AcDbEntity
  8
0
100
AcDbVertex
100
AcDbPolygonMeshVertex
 10
0.0
 20
1.281
 30
2.72
 70
    64
  0
VERTEX
  5
60A
100
AcDbEntity
  8
0
100
AcDbVertex
100
AcDbPolygonMeshVertex
 10
0.0
 20
1.281
 30
2.595
 70
    64
  0
VERTEX
  5
60B
100
AcDbEntity
  8
0
100
AcDbVertex
100
AcDbPolygonMeshVertex
 10
0.0
 20
1.281
 30
2.595
 70
    64
  0
VERTEX
  5
60C
100
AcDbEntity
  8
0
100
AcDbVertex
100
AcDbPolygonMeshVertex
 10
5.242
 20
1.281
 30
2.72
 70
    64
  0
VERTEX
  5
60D
100
AcDbEntity
  8
0
100
AcDbVertex
100
AcDbPolygonMeshVertex
 10
5.242
 20
1.281
 30
2.595
 70
    64
  0
VERTEX
  5
60E
100
AcDbEntity
  8
0
100
AcDbVertex
100
AcDbPolygonMeshVertex
 10
5.242
 20
1.281
 30
2.595
 70
    64
  0
VERTEX
  5
60F
100
AcDbEntity
  8
0
100
AcDbVertex
100
AcDbPolygonMeshVertex
 10
5.242
 20
-1.882
 30
2.72
 70
    64
  0
VERTEX
  5
610
100
AcDbEntity
  8
0
100
AcDbVertex
100
AcDbPolygonMeshVertex
 10
5.242
 20
-1.882
 30
2.595
 70
    64
  0
VERTEX
  5
611
100
AcDbEntity
  8
0
100
AcDbVertex
100
AcDbPolygonMeshVertex
 10
5.242
 20
1.281
 30
2.595
 70
    64
  0
VERTEX
  5
612
100
AcDbEntity
  8
0
100
AcDbVertex
100
AcDbPolygonMeshVertex
 10
0.0
 20
-1.882
 30
2.72
 70
    64
  0
VERTEX
  5
613
100
AcDbEntity
  8
0
100
AcDbVertex
100
AcDbPolygonMeshVertex
 10
0.0
 20
-1.882
 30
2.595
 70
    64
  0
VERTEX
  5
614
100
AcDbEntity
  8
0
100
AcDbVertex
100
AcDbPolygonMeshVertex
 10
0.0
 20
1.281
 30
2.595
 70
    64
  0
VERTEX
  5
615
100
AcDbEntity
  8
0
100
AcDbVertex
100
AcDbPolygonMeshVertex
 10
0.0
 20
-1.882
 30
2.72
 70
    64
  0
VERTEX
  5
616
100
AcDbEntity
  8
0
100
AcDbVertex
100
AcDbPolygonMeshVertex
 10
0.0
 20
-1.882
 30
2.72
 70
    64
  0
VERTEX
  5
617
100
AcDbEntity
  8
0
100
AcDbVertex
100
AcDbPolygonMeshVertex
 10
0.0
 20
1.281
 30
2.72
 70
    64
  0
VERTEX
  5
618
100
AcDbEntity
  8
0
100
AcDbVertex
100
AcDbPolygonMeshVertex
 10
5.242
 20
-1.882
 30
2.72
 70
    64
  0
VERTEX
  5
619
100
AcDbEntity
  8
0
100
AcDbVertex
100
AcDbPolygonMeshVertex
 10
5.242
 20
-1.882
 30
2.72
 70
    64
  0
VERTEX
  5
61A
100
AcDbEntity
  8
0
100
AcDbVertex
100
AcDbPolygonMeshVertex
 10
5.242
 20
1.281
 30
2.72
 70
    64
  0
SEQEND
  5
61B
100
AcDbEntity
  8
0
  0
POLYLINE
  5
61C
100
AcDbEntity
  8
0
100
AcDbPolygonMesh
 66
     1
 10
0.0
 20
0.0
 30
0.0
 70
    16
 71
     6
 72
     3
  0
VERTEX
  5
61D
100
AcDbEntity
  8
0
100
AcDbVertex
100
AcDbPolygonMeshVertex
 10
5.242
 20
0.941
 30
2.805
 70
    64
  0
VERTEX
  5
61E
100
AcDbEntity
  8
0
100
AcDbVertex
100
AcDbPolygonMeshVertex
 10
5.242
 20
0.941
 30
2.72
 70
    64
  0
VERTEX
  5
61F
100
AcDbEntity
  8
0
100
AcDbVertex
100
AcDbPolygonMeshVertex
 10
5.242
 20
0.941
 30
2.72
 70
    64
  0
VERTEX
  5
620
100
AcDbEntity
  8
0
100
AcDbVertex
100
AcDbPolygonMeshVertex
 10
5.242
 20
-1.542
 30
2.805
 70
    64
  0
VERTEX
  5
621
100
AcDbEntity
  8
0
100
AcDbVertex
100
AcDbPolygonMeshVertex
 10
5.242
 20
-1.542
 30
2.72
 70
    64
  0
VERTEX
  5
622
100
AcDbEntity
  8
0
100
AcDbVertex
100
AcDbPolygonMeshVertex
 10
5.242
 20
-1.542
 30
2.72
 70
    64
  0
VERTEX
  5
623
100
AcDbEntity
  8
0
100
AcDbVertex
100
AcDbPolygonMeshVertex
 10
0.0
 20
-1.542
 30
2.805
 70
    64
  0
VERTEX
  5
624
100
AcDbEntity
  8
0
100
AcDbVertex
100
AcDbPolygonMeshVertex
 10
0.0
 20
-1.542
 30
2.72
 70
    64
  0
VERTEX
  5
625
100
AcDbEntity
  8
0
100
AcDbVertex
100
AcDbPolygonMeshVertex
 10
5.242
 20
-1.542
 30
2.72
 70
    64
  0
VERTEX
  5
626
100
AcDbEntity
  8
0
100
AcDbVertex
100
AcDbPolygonMeshVertex
 10
0.0
 20
0.941
 30
2.805
 70
    64
  0
VERTEX
  5
627
100
AcDbEntity
  8
0
100
AcDbVertex
100
AcDbPolygonMeshVertex
 10
0.0
 20
0.941
 30
2.72
 70
    64
  0
VERTEX
  5
628
100
AcDbEntity
  8
0
100
AcDbVertex
100
AcDbPolygonMeshVertex
 10
5.242
 20
0.941
 30
2.72
 70
    64
  0
VERTEX
  5
629
100
AcDbEntity
  8
0
100
AcDbVertex
100
AcDbPolygonMeshVertex
 10
0.0
 20
0.941
 30
2.805
 70
    64
  0
VERTEX
  5
62A
100
AcDbEntity
  8
0
100
AcDbVertex
100
AcDbPolygonMeshVertex
 10
0.0
 20
0.941
 30
2.805
 70
    64
  0
VERTEX
  5
62B
100
AcDbEntity
  8
0
100
AcDbVertex
100
AcDbPolygonMeshVertex
 10
5.242
 20
0.941
 30
2.805
 70
    64
  0
VERTEX
  5
62C
100
AcDbEntity
  8
0
100
AcDbVertex
100
AcDbPolygonMeshVertex
 10
0.0
 20
-1.542
 30
2.805
 70
    64
  0
VERTEX
  5
62D
100
AcDbEntity
  8
0
100
AcDbVertex
100
AcDbPolygonMeshVertex
 10
0.0
 20
-1.542
 30
2.805
 70
    64
  0
VERTEX
  5
62E
100
AcDbEntity
  8
0
100
AcDbVertex
100
AcDbPolygonMeshVertex
 10
5.242
 20
-1.542
 30
2.805
 70
    64
  0
SEQEND
  5
62F
100
AcDbEntity
  8
0
  0
POLYLINE
  5
630
100
AcDbEntity
  8
0
100
AcDbPolygonMesh
 66
     1
 10
0.0
 20
0.0
 30
0.0
 70
    16
 71
     6
 72
     3
  0
VERTEX
  5
631
100
AcDbEntity
  8
0
100
AcDbVertex
100
AcDbPolygonMeshVertex
 10
5.242
 20
-1.882
 30
2.72
 70
    64
  0
VERTEX
  5
632
100
AcDbEntity
  8
0
100
AcDbVertex
100
AcDbPolygonMeshVertex
 10
5.242
 20
-1.882
 30
2.72
 70
    64
  0
VERTEX
  5
633
100
AcDbEntity
  8
0
100
AcDbVertex
100
AcDbPolygonMeshVertex
 10
5.242
 20
-1.882
 30
2.72
 70
    64
  0
VERTEX
  5
634
100
AcDbEntity
  8
0
100
AcDbVertex
100
AcDbPolygonMeshVertex
 10
5.242
 20
-1.542
 30
2.805
 70
    64
  0
VERTEX
  5
635
100
AcDbEntity
  8
0
100
AcDbVertex
100
AcDbPolygonMeshVertex
 10
5.242
 20
-1.542
 30
2.72
 70
    64
  0
VERTEX
  5
636
100
AcDbEntity
  8
0
100
AcDbVertex
100
AcDbPolygonMeshVertex
 10
5.242
 20
-1.542
 30
2.72
 70
    64
  0
VERTEX
  5
637
100
AcDbEntity
  8
0
100
AcDbVertex
100
AcDbPolygonMeshVertex
 10
0.0
 20
-1.542
 30
2.805
 70
    64
  0
VERTEX
  5
638
100
AcDbEntity
  8
0
100
AcDbVertex
100
AcDbPolygonMeshVertex
 10
0.0
 20
-1.542
 30
2.72
 70
    64
  0
VERTEX
  5
639
100
AcDbEntity
  8
0
100
AcDbVertex
100
AcDbPolygonMeshVertex
 10
5.242
 20
-1.542
 30
2.72
 70
    64
  0
VERTEX
  5
63A
100
AcDbEntity
  8
0
100
AcDbVertex
100
AcDbPolygonMeshVertex
 10
0.0
 20
-1.882
 30
2.72
 70
    64
  0
VERTEX
  5
63B
100
AcDbEntity
  8
0
100
AcDbVertex
100
AcDbPolygonMeshVertex
 10
0.0
 20
-1.882
 30
2.72
 70
    64
  0
VERTEX
  5
63C
100
AcDbEntity
  8
0
100
AcDbVertex
100
AcDbPolygonMeshVertex
 10
5.242
 20
-1.882
 30
2.72
 70
    64
  0
VERTEX
  5
63D
100
AcDbEntity
  8
0
100
AcDbVertex
100
AcDbPolygonMeshVertex
 10
0.0
 20
-1.882
 30
2.72
 70
    64
  0
VERTEX
  5
63E
100
AcDbEntity
  8
0
100
AcDbVertex
100
AcDbPolygonMeshVertex
 10
0.0
 20
-1.882
 30
2.72
 70
    64
  0
VERTEX
  5
63F
100
AcDbEntity
  8
0
100
AcDbVertex
100
AcDbPolygonMeshVertex
 10
5.242
 20
-1.882
 30
2.72
 70
    64
  0
VERTEX
  5
640
100
AcDbEntity
  8
0
100
AcDbVertex
100
AcDbPolygonMeshVertex
 10
0.0
 20
-1.542
 30
2.805
 70
    64
  0
VERTEX
  5
641
100
AcDbEntity
  8
0
100
AcDbVertex
100
AcDbPolygonMeshVertex
 10
0.0
 20
-1.542
 30
2.805
 70
    64
  0
VERTEX
  5
642
100
AcDbEntity
  8
0
100
AcDbVertex
100
AcDbPolygonMeshVertex
 10
5.242
 20
-1.542
 30
2.805
 70
    64
  0
SEQEND
  5
643
100
AcDbEntity
  8
0
  0
POLYLINE
  5
644
100
AcDbEntity
  8
0
100
AcDbPolygonMesh
 66
     1
 10
0.0
 20
0.0
 30
0.0
 70
    16
 71
     6
 72
     3
  0
VERTEX
  5
645
100
AcDbEntity
  8
0
100
AcDbVertex
100
AcDbPolygonMeshVertex
 10
5.242
 20
1.281
 30
2.72
 70
    64
  0
VERTEX
  5
646
100
AcDbEntity
  8
0
100
AcDbVertex
100
AcDbPolygonMeshVertex
 10
5.242
 20
1.281
 30
2.72
 70
    64
  0
VERTEX
  5
647
100
AcDbEntity
  8
0
100
AcDbVertex
100
AcDbPolygonMeshVertex
 10
5.242
 20
1.281
 30
2.72
 70
    64
  0
VERTEX
  5
648
100
AcDbEntity
  8
0
100
AcDbVertex
100
AcDbPolygonMeshVertex
 10
5.242
 20
0.941
 30
2.805
 70
    64
  0
VERTEX
  5
649
100
AcDbEntity
  8
0
100
AcDbVertex
100
AcDbPolygonMeshVertex
 10
5.242
 20
0.941
 30
2.72
 70
    64
  0
VERTEX
  5
64A
100
AcDbEntity
  8
0
100
AcDbVertex
100
AcDbPolygonMeshVertex
 10
5.242
 20
0.941
 30
2.72
 70
    64
  0
VERTEX
  5
64B
100
AcDbEntity
  8
0
100
AcDbVertex
100
AcDbPolygonMeshVertex
 10
0.0
 20
0.941
 30
2.805
 70
    64
  0
VERTEX
  5
64C
100
AcDbEntity
  8
0
100
AcDbVertex
100
AcDbPolygonMeshVertex
 10
0.0
 20
0.941
 30
2.72
 70
    64
  0
VERTEX
  5
64D
100
AcDbEntity
  8
0
100
AcDbVertex
100
AcDbPolygonMeshVertex
 10
5.242
 20
0.941
 30
2.72
 70
    64
  0
VERTEX
  5
64E
100
AcDbEntity
  8
0
100
AcDbVertex
100
AcDbPolygonMeshVertex
 10
0.0
 20
1.281
 30
2.72
 70
    64
  0
VERTEX
  5
64F
100
AcDbEntity
  8
0
100
AcDbVertex
100
AcDbPolygonMeshVertex
 10
0.0
 20
1.281
 30
2.72
 70
    64
  0
VERTEX
  5
650
100
AcDbEntity
  8
0
100
AcDbVertex
100
AcDbPolygonMeshVertex
 10
5.242
 20
1.281
 30
2.72
 70
    64
  0
VERTEX
  5
651
100
AcDbEntity
  8
0
100
AcDbVertex
100
AcDbPolygonMeshVertex
 10
0.0
 20
1.281
 30
2.72
 70
    64
  0
VERTEX
  5
652
100
AcDbEntity
  8
0
100
AcDbVertex
100
AcDbPolygonMeshVertex
 10
0.0
 20
1.281
 30
2.72
 70
    64
  0
VERTEX
  5
653
100
AcDbEntity
  8
0
100
AcDbVertex
100
AcDbPolygonMeshVertex
 10
5.242
 20
1.281
 30
2.72
 70
    64
  0
VERTEX
  5
654
100
AcDbEntity
  8
0
100
AcDbVertex
100
AcDbPolygonMeshVertex
 10
0.0
 20
0.941
 30
2.805
 70
    64
  0
VERTEX
  5
655
100
AcDbEntity
  8
0
100
AcDbVertex
100
AcDbPolygonMeshVertex
 10
0.0
 20
0.941
 30
2.805
 70
    64
  0
VERTEX
  5
656
100
AcDbEntity
  8
0
100
AcDbVertex
100
AcDbPolygonMeshVertex
 10
5.242
 20
0.941
 30
2.805
 70
    64
  0
SEQEND
  5
657
100
AcDbEntity
  8
0
  0
LINE
  5
658
100
AcDbEntity
  8
0
100
AcDbLine
 10
0.82
 20
-0.928
 30
2.805
 11
0.82
 21
0.327
 31
2.805
  0
LINE
  5
659
100
AcDbEntity
  8
0
100
AcDbLine
 10
0.82
 20
-0.928
 30
2.805
 11
0.0
 21
-0.928
 31
2.805
  0
LINE
  5
65A
100
AcDbEntity
  8
0
100
AcDbLine
 10
0.08
 20
-1.082
 30
2.805
 11
0.0
 21
-1.082
 31
2.805
  0
LINE
  5
65B
100
AcDbEntity
  8
0
100
AcDbLine
 10
0.08
 20
-1.207
 30
2.805
 11
0.08
 21
-1.082
 31
2.805
  0
LWPOLYLINE
  5
65C
100
AcDbEntity
  8
0
100
AcDbPolyline
 90
        4
 70
     1
 43
0.0
 38
-1.882049
 10
-1.477603
 20
2.567373
 10
-1.477603
 20
2.374843
 10
-1.206135
 20
2.374843
 10
-1.206135
 20
2.567373
210
0.0
220
1.0
230
0.0
  0
LWPOLYLINE
  5
65D
100
AcDbEntity
  8
0
100
AcDbPolyline
 90
        4
 70
     1
 43
0.0
 38
-1.882049
 10
-0.869207
 20
2.567373
 10
-0.869207
 20
2.374843
 10
-0.597739
 20
2.374843
 10
-0.597739
 20
2.567373
210
0.0
220
1.0
230
0.0
  0
LWPOLYLINE
  5
65E
100
AcDbEntity
  8
0
100
AcDbPolyline
 90
        4
 70
     1
 43
0.0
 38
-1.882049
 10
-1.173405
 20
2.567373
 10
-1.173405
 20
2.374843
 10
-0.901937
 20
2.374843
 10
-0.901937
 20
2.567373
210
0.0
220
1.0
230
0.0
  0
LWPOLYLINE
  5
65F
100
AcDbEntity
  8
0
100
AcDbPolyline
 90
        4
 70
     1
 43
0.0
 38
-1.882049
 10
-1.781801
 20
2.567373
 10
-1.781801
 20
2.374843
 10
-1.510333
 20
2.374843
 10
-1.510333
 20
2.567373
210
0.0
220
1.0
230
0.0
  0
LWPOLYLINE
  5
660
100
AcDbEntity
  8
0
100
AcDbPolyline
 90
        4
 70
     1
 43
0.0
 38
-1.882049
 10
-2.086
 20
2.567373
 10
-2.086
 20
2.374843
 10
-1.814531
 20
2.374843
 10
-1.814531
 20
2.567373
210
0.0
220
1.0
230
0.0
  0
LINE
  5
661
100
AcDbEntity
  8
0
100
AcDbLine
 10
1.260101
 20
-1.402049
 30
2.692373
 11
1.335101
 21
-1.402049
 31
2.692373
  0
CIRCLE
  5
662
100
AcDbEntity
  8
0
100
AcDbCircle
 10
1.335101
 20
-1.402049
 30
2.692373
 40
0.1
  0
TEXT
  5
663
100
AcDbEntity
  8
0
100
AcDbText
 39
0.001
 10
0.593434
 20
-1.392049
 30
2.692373
 40
0.05
  1
85-264
 72
     1
 11
0.735101
 21
-1.392049
 31
2.692373
100
AcDbText
  0
TEXT
  5
664
100
AcDbEntity
  8
0
100
AcDbText
 39
0.001
 10
0.701767
 20
-1.492049
 30
2.692373
 40
0.05
  1
L1
 72
     1
 11
0.735101
 21
-1.492049
 31
2.692373
100
AcDbText
  0
TEXT
  5
665
100
AcDbEntity
  8
0
100
AcDbText
 39
0.001
 10
0.943434
 20
-1.492049
 30
2.692373
 40
0.05
  1
L2/N
 72
     1
 11
1.035101
 21
-1.492049
 31
2.692373
100
AcDbText
  0
TEXT
  5
666
100
AcDbEntity
  8
0
100
AcDbText
 39
0.001
 10
0.960101
 20
-1.392049
 30
2.692373
 40
0.05
  1
VAC
 72
     1
 11
1.035101
 21
-1.392049
 31
2.692373
100
AcDbText
  0
LINE
  5
667
100
AcDbEntity
  8
0
100
AcDbLine
 10
1.63388
 20
-1.280933
 30
2.6934
 11
1.944643
 21
-1.280933
 31
2.6934
  0
LINE
  5
668
100
AcDbEntity
  8
0
100
AcDbLine
 10
1.335101
 20
-1.402049
 30
2.692373
 11
1.410101
 21
-1.402049
 31
2.692373
  0
LINE
  5
669
100
AcDbEntity
  8
0
100
AcDbLine
 10
1.360101
 20
-1.452049
 30
2.692373
 11
1.310101
 21
-1.452049
 31
2.692373
  0
LINE
  5
66A
100
AcDbEntity
  8
0
100
AcDbLine
 10
1.285101
 20
-1.427049
 30
2.692373
 11
1.385101
 21
-1.427049
 31
2.692373
  0
LINE
  5
66B
100
AcDbEntity
  8
0
100
AcDbLine
 10
1.335101
 20
-1.352049
 30
2.692373
 11
1.335101
 21
-1.402049
 31
2.692373
  0
TEXT
  5
66C
100
AcDbEntity
  8
0
100
AcDbText
 39
0.001
 10
1.560101
 20
-1.492049
 30
2.692373
 40
0.05
  1
VDC
 72
     1
 11
1.635101
 21
-1.492049
 31
2.692373
100
AcDbText
  0
TEXT
  5
66D
100
AcDbEntity
  8
0
100
AcDbText
 39
0.001
 10
1.560101
 20
-1.392049
 30
2.692373
 40
0.05
  1
VAC
 72
     1
 11
1.635101
 21
-1.392049
 31
2.692373
100
AcDbText
  0
LINE
  5
66E
100
AcDbEntity
  8
0
100
AcDbLine
 10
1.63388
 20
-1.29862
 30
2.6934
 11
1.63388
 21
-1.280933
 31
2.6934
  0
TEXT
  5
66F
100
AcDbEntity
  8
0
100
AcDbText
 39
0.001
 10
1.872601
 20
-1.492049
 30
2.692373
 40
0.05
  1
O/0
 72
     1
 11
1.935101
 21
-1.492049
 31
2.692373
100
AcDbText
  0
LINE
  5
670
100
AcDbEntity
  8
0
100
AcDbLine
 10
1.944643
 20
-1.29862
 30
2.6934
 11
1.944643
 21
-1.280933
 31
2.6934
  0
LWPOLYLINE
  5
671
100
AcDbEntity
  8
0
100
AcDbPolyline
 90
        4
 70
     1
 43
0.0
 38
2.805
 10
1.338737
 20
-0.872267
 10
1.338737
 20
-0.747267
 10
1.258737
 20
-0.747267
 10
1.258737
 20
-0.872267
  0
LWPOLYLINE
  5
672
100
AcDbEntity
  8
0
100
AcDbPolyline
 90
        4
 70
     1
 43
0.0
 38
2.805
 10
1.203737
 20
-0.872267
 10
1.203737
 20
-0.747267
 10
1.123737
 20
-0.747267
 10
1.123737
 20
-0.872267
  0
LWPOLYLINE
  5
673
100
AcDbEntity
  8
0
100
AcDbPolyline
 90
        4
 70
     1
 43
0.0
 38
2.805
 10
1.11115
 20
-0.410856
 10
1.23615
 20
-0.410856
 10
1.23615
 20
-0.330856
 10
1.11115
 20
-0.330856
  0
LWPOLYLINE
  5
674
100
AcDbEntity
  8
0
100
AcDbPolyline
 90
        4
 70
     1
 43
0.0
 38
2.805
 10
1.11115
 20
-0.545856
 10
1.23615
 20
-0.545856
 10
1.23615
 20
-0.465856
 10
1.11115
 20
-0.465856
  0
LWPOLYLINE
  5
675
100
AcDbEntity
  8
0
100
AcDbPolyline
 90
        4
 70
     1
 43
0.0
 38
2.805
 10
1.11115
 20
-0.275856
 10
1.23615
 20
-0.275856
 10
1.23615
 20
-0.195856
 10
1.11115
 20
-0.195856
  0
LWPOLYLINE
  5
676
100
AcDbEntity
  8
0
100
AcDbPolyline
 90
        4
 70
     1
 43
0.0
 38
2.805
 10
1.11115
 20
-0.140856
 10
1.23615
 20
-0.140856
 10
1.23615
 20
-0.060856
 10
1.11115
 20
-0.060856
  0
TEXT
  5
677
100
AcDbEntity
  8
0
100
AcDbText
 10
1.965
 20
-0.847
 30
2.8147
 40
0.05
  1
OUT
100
AcDbText
  0
LWPOLYLINE
  5
678
100
AcDbEntity
  8
0
100
AcDbPolyline
 90
        4
 70
     1
 43
0.0
 38
2.805
 10
1.878737
 20
-0.872267
 10
1.878737
 20
-0.747267
 10
1.798737
 20
-0.747267
 10
1.798737
 20
-0.872267
  0
LWPOLYLINE
  5
679
100
AcDbEntity
  8
0
100
AcDbPolyline
 90
        4
 70
     1
 43
0.0
 38
2.805
 10
1.743737
 20
-0.872267
 10
1.743737
 20
-0.747267
 10
1.663737
 20
-0.747267
 10
1.663737
 20
-0.872267
  0
LWPOLYLINE
  5
67A
100
AcDbEntity
  8
0
100
AcDbPolyline
 90
        4
 70
     1
 43
0.0
 38
2.805
 10
1.608737
 20
-0.872267
 10
1.608737
 20
-0.747267
 10
1.528737
 20
-0.747267
 10
1.528737
 20
-0.872267
  0
LWPOLYLINE
  5
67B
100
AcDbEntity
  8
0
100
AcDbPolyline
 90
        4
 70
     1
 43
0.0
 38
2.805
 10
1.473737
 20
-0.872267
 10
1.473737
 20
-0.747267
 10
1.393737
 20
-0.747267
 10
1.393737
 20
-0.872267
  0
TEXT
  5
67C
100
AcDbEntity
  8
0
100
AcDbText
 10
1.313825
 20
-0.398476
 30
2.8147
 40
0.05
  1
FAULT
100
AcDbText
  0
TEXT
  5
67D
100
AcDbEntity
  8
0
100
AcDbText
 10
1.313825
 20
-0.527604
 30
2.8147
 40
0.05
  1
FORCE
100
AcDbText
  0
TEXT
  5
67E
100
AcDbEntity
  8
0
100
AcDbText
 10
1.313825
 20
-0.127307
 30
2.8147
 40
0.05
  1
POWER
100
AcDbText
  0
TEXT
  5
67F
100
AcDbEntity
  8
0
100
AcDbText
 10
1.313825
 20
-0.260739
 30
2.8147
 40
0.05
  1
RUN
100
AcDbText
  0
LINE
  5
680
100
AcDbEntity
  8
0
100
AcDbLine
 10
0.82
 20
0.327
 30
2.805
 11
0.0
 21
0.327
 31
2.805
  0
LINE
  5
681
100
AcDbEntity
  8
0
100
AcDbLine
 10
0.0
 20
0.481
 30
2.805
 11
0.08
 21
0.481
 31
2.805
  0
LINE
  5
682
100
AcDbEntity
  8
0
100
AcDbLine
 10
0.08
 20
0.481
 30
2.805
 11
0.08
 21
0.606
 31
2.805
  0
LWPOLYLINE
  5
683
100
AcDbEntity
  8
0
100
AcDbPolyline
 90
        4
 70
     1
 43
0.0
 38
1.280951
 10
-1.523405
 20
2.567373
 10
-1.523405
 20
2.374843
 10
-1.251937
 20
2.374843
 10
-1.251937
 20
2.567373
210
0.0
220
1.0
230
0.0
  0
TEXT
  5
684
100
AcDbEntity
  8
0
100
AcDbText
 39
0.001
 10
0.972434
 20
0.719851
 30
2.692373
 40
0.05
  1
USED
 72
     1
 11
1.064101
 21
0.719851
 31
2.692373
100
AcDbText
  0
TEXT
  5
685
100
AcDbEntity
  8
0
100
AcDbText
 39
0.001
 10
0.997434
 20
0.819851
 30
2.692373
 40
0.05
  1
NOT
 72
     1
 11
1.064101
 21
0.819851
 31
2.692373
100
AcDbText
  0
LWPOLYLINE
  5
686
100
AcDbEntity
  8
0
100
AcDbPolyline
 90
        4
 70
     1
 43
0.0
 38
1.280951
 10
-1.219207
 20
2.567373
 10
-1.219207
 20
2.374843
 10
-0.947739
 20
2.374843
 10
-0.947739
 20
2.567373
210
0.0
220
1.0
230
0.0
  0
TEXT
  5
687
100
AcDbEntity
  8
0
100
AcDbText
 39
0.001
 10
1.643034
 20
0.719851
 30
2.692373
 40
0.05
  1
COM
 72
     1
 11
1.709701
 21
0.719851
 31
2.692373
100
AcDbText
  0
TEXT
  5
688
100
AcDbEntity
  8
0
100
AcDbText
 39
0.001
 10
1.668034
 20
0.819851
 30
2.692373
 40
0.05
  1
AC
 72
     1
 11
1.709701
 21
0.819851
 31
2.692373
100
AcDbText
  0
TEXT
  5
689
100
AcDbEntity
  8
0
100
AcDbText
 39
0.001
 10
1.272434
 20
0.719851
 30
2.692373
 40
0.05
  1
USED
 72
     1
 11
1.364101
 21
0.719851
 31
2.692373
100
AcDbText
  0
TEXT
  5
68A
100
AcDbEntity
  8
0
100
AcDbText
 39
0.001
 10
1.297434
 20
0.819851
 30
2.692373
 40
0.05
  1
NOT
 72
     1
 11
1.364101
 21
0.819851
 31
2.692373
100
AcDbText
  0
LINE
  5
68B
100
AcDbEntity
  8
0
100
AcDbLine
 10
1.72248
 20
0.69868
 30
2.6934
 11
1.72248
 21
0.680967
 31
2.6934
  0
TEXT
  5
68C
100
AcDbEntity
  8
0
100
AcDbText
 39
0.001
 10
1.955534
 20
0.819851
 30
2.692373
 40
0.05
  1
I/0
 72
     1
 11
2.009701
 21
0.819851
 31
2.692373
100
AcDbText
  0
LWPOLYLINE
  5
68D
100
AcDbEntity
  8
0
100
AcDbPolyline
 90
        4
 70
     1
 43
0.0
 38
1.280951
 10
-1.827603
 20
2.567373
 10
-1.827603
 20
2.374843
 10
-1.556135
 20
2.374843
 10
-1.556135
 20
2.567373
210
0.0
220
1.0
230
0.0
  0
LWPOLYLINE
  5
68E
100
AcDbEntity
  8
0
100
AcDbPolyline
 90
        4
 70
     1
 43
0.0
 38
1.280951
 10
-2.131801
 20
2.567373
 10
-2.131801
 20
2.374843
 10
-1.860333
 20
2.374843
 10
-1.860333
 20
2.567373
210
0.0
220
1.0
230
0.0
  0
LWPOLYLINE
  5
68F
100
AcDbEntity
  8
0
100
AcDbPolyline
 90
        4
 70
     1
 43
0.0
 38
2.805
 10
1.338737
 20
0.159733
 10
1.338737
 20
0.284733
 10
1.258737
 20
0.284733
 10
1.258737
 20
0.159733
  0
LWPOLYLINE
  5
690
100
AcDbEntity
  8
0
100
AcDbPolyline
 90
        4
 70
     1
 43
0.0
 38
2.805
 10
1.203737
 20
0.159733
 10
1.203737
 20
0.284733
 10
1.123737
 20
0.284733
 10
1.123737
 20
0.159733
  0
LWPOLYLINE
  5
691
100
AcDbEntity
  8
0
100
AcDbPolyline
 90
        4
 70
     1
 43
0.0
 38
2.805
 10
1.743737
 20
0.159733
 10
1.743737
 20
0.284733
 10
1.663737
 20
0.284733
 10
1.663737
 20
0.159733
  0
LWPOLYLINE
  5
692
100
AcDbEntity
  8
0
100
AcDbPolyline
 90
        4
 70
     1
 43
0.0
 38
2.805
 10
1.473737
 20
0.159733
 10
1.473737
 20
0.284733
 10
1.393737
 20
0.284733
 10
1.393737
 20
0.159733
  0
LWPOLYLINE
  5
693
100
AcDbEntity
  8
0
100
AcDbPolyline
 90
        4
 70
     1
 43
0.0
 38
2.805
 10
1.608737
 20
0.159733
 10
1.608737
 20
0.284733
 10
1.528737
 20
0.284733
 10
1.528737
 20
0.159733
  0
LWPOLYLINE
  5
694
100
AcDbEntity
  8
0
100
AcDbPolyline
 90
        4
 70
     1
 43
0.0
 38
2.805
 10
2.013737
 20
0.159733
 10
2.013737
 20
0.284733
 10
1.933737
 20
0.284733
 10
1.933737
 20
0.159733
  0
LWPOLYLINE
  5
695
100
AcDbEntity
  8
0
100
AcDbPolyline
 90
        4
 70
     1
 43
0.0
 38
2.805
 10
1.878737
 20
0.159733
 10
1.878737
 20
0.284733
 10
1.798737
 20
0.284733
 10
1.798737
 20
0.159733
  0
LWPOLYLINE
  5
696
100
AcDbEntity
  8
0
100
AcDbPolyline
 90
        4
 70
     1
 43
0.0
 38
2.805
 10
2.148737
 20
0.159733
 10
2.148737
 20
0.284733
 10
2.068737
 20
0.284733
 10
2.068737
 20
0.159733
  0
LINE
  5
697
100
AcDbEntity
  8
0
100
AcDbLine
 10
4.059069
 20
-1.280933
 30
2.6934
 11
4.674031
 21
-1.280933
 31
2.6934
  0
TEXT
  5
698
100
AcDbEntity
  8
0
100
AcDbText
 39
0.001
 10
3.976894
 20
-1.492049
 30
2.692373
 40
0.05
  1
VDC
 72
     1
 11
4.051894
 21
-1.492049
 31
2.692373
100
AcDbText
  0
TEXT
  5
699
100
AcDbEntity
  8
0
100
AcDbText
 39
0.001
 10
3.976894
 20
-1.392049
 30
2.692373
 40
0.05
  1
VAC
 72
     1
 11
4.051894
 21
-1.392049
 31
2.692373
100
AcDbText
  0
LWPOLYLINE
  5
69A
100
AcDbEntity
  8
0
100
AcDbPolyline
 90
        4
 70
     1
 43
0.0
 38
-1.882049
 10
-4.215387
 20
2.567373
 10
-4.215387
 20
2.374843
 10
-3.943919
 20
2.374843
 10
-3.943919
 20
2.567373
210
0.0
220
1.0
230
0.0
  0
LWPOLYLINE
  5
69B
100
AcDbEntity
  8
0
100
AcDbPolyline
 90
        4
 70
     1
 43
0.0
 38
-1.882049
 10
-3.302792
 20
2.567373
 10
-3.302792
 20
2.374843
 10
-3.031324
 20
2.374843
 10
-3.031324
 20
2.567373
210
0.0
220
1.0
230
0.0
  0
LWPOLYLINE
  5
69C
100
AcDbEntity
  8
0
100
AcDbPolyline
 90
        4
 70
     1
 43
0.0
 38
-1.882049
 10
-2.694396
 20
2.567373
 10
-2.694396
 20
2.374843
 10
-2.422928
 20
2.374843
 10
-2.422928
 20
2.567373
210
0.0
220
1.0
230
0.0
  0
LWPOLYLINE
  5
69D
100
AcDbEntity
  8
0
100
AcDbPolyline
 90
        4
 70
     1
 43
0.0
 38
-1.882049
 10
-2.998594
 20
2.567373
 10
-2.998594
 20
2.374843
 10
-2.727126
 20
2.374843
 10
-2.727126
 20
2.567373
210
0.0
220
1.0
230
0.0
  0
LWPOLYLINE
  5
69E
100
AcDbEntity
  8
0
100
AcDbPolyline
 90
        4
 70
     1
 43
0.0
 38
-1.882049
 10
-3.606991
 20
2.567373
 10
-3.606991
 20
2.374843
 10
-3.335523
 20
2.374843
 10
-3.335523
 20
2.567373
210
0.0
220
1.0
230
0.0
  0
LWPOLYLINE
  5
69F
100
AcDbEntity
  8
0
100
AcDbPolyline
 90
        4
 70
     1
 43
0.0
 38
-1.882049
 10
-3.911189
 20
2.567373
 10
-3.911189
 20
2.374843
 10
-3.639721
 20
2.374843
 10
-3.639721
 20
2.567373
210
0.0
220
1.0
230
0.0
  0
TEXT
  5
6A0
100
AcDbEntity
  8
0
100
AcDbText
 39
0.001
 10
3.068434
 20
-1.492049
 30
2.692373
 40
0.05
  1
O/2
 72
     1
 11
3.135101
 21
-1.492049
 31
2.692373
100
AcDbText
  0
LINE
  5
6A1
100
AcDbEntity
  8
0
100
AcDbLine
 10
2.23388
 20
-1.280933
 30
2.6934
 11
2.544643
 21
-1.280933
 31
2.6934
  0
LINE
  5
6A2
100
AcDbEntity
  8
0
100
AcDbLine
 10
2.23388
 20
-1.29862
 30
2.6934
 11
2.23388
 21
-1.280933
 31
2.6934
  0
TEXT
  5
6A3
100
AcDbEntity
  8
0
100
AcDbText
 39
0.001
 10
2.476767
 20
-1.492049
 30
2.692373
 40
0.05
  1
O/1
 72
     1
 11
2.535101
 21
-1.492049
 31
2.692373
100
AcDbText
  0
LINE
  5
6A4
100
AcDbEntity
  8
0
100
AcDbLine
 10
2.544643
 20
-1.29862
 30
2.6934
 11
2.544643
 21
-1.280933
 31
2.6934
  0
LINE
  5
6A5
100
AcDbEntity
  8
0
100
AcDbLine
 10
2.842276
 20
-1.280933
 30
2.6934
 11
3.15304
 21
-1.280933
 31
2.6934
  0
TEXT
  5
6A6
100
AcDbEntity
  8
0
100
AcDbText
 39
0.001
 10
2.760101
 20
-1.492049
 30
2.692373
 40
0.05
  1
VDC
 72
     1
 11
2.835101
 21
-1.492049
 31
2.692373
100
AcDbText
  0
TEXT
  5
6A7
100
AcDbEntity
  8
0
100
AcDbText
 39
0.001
 10
2.760101
 20
-1.392049
 30
2.692373
 40
0.05
  1
VAC
 72
     1
 11
2.835101
 21
-1.392049
 31
2.692373
100
AcDbText
  0
LINE
  5
6A8
100
AcDbEntity
  8
0
100
AcDbLine
 10
2.842276
 20
-1.29862
 30
2.6934
 11
2.842276
 21
-1.280933
 31
2.6934
  0
LINE
  5
6A9
100
AcDbEntity
  8
0
100
AcDbLine
 10
3.15304
 20
-1.29862
 30
2.6934
 11
3.15304
 21
-1.280933
 31
2.6934
  0
LINE
  5
6AA
100
AcDbEntity
  8
0
100
AcDbLine
 10
3.450673
 20
-1.280933
 30
2.6934
 11
3.761436
 21
-1.280933
 31
2.6934
  0
TEXT
  5
6AB
100
AcDbEntity
  8
0
100
AcDbText
 39
0.001
 10
3.368497
 20
-1.492049
 30
2.692373
 40
0.05
  1
VDC
 72
     1
 11
3.443497
 21
-1.492049
 31
2.692373
100
AcDbText
  0
TEXT
  5
6AC
100
AcDbEntity
  8
0
100
AcDbText
 39
0.001
 10
3.368497
 20
-1.392049
 30
2.692373
 40
0.05
  1
VAC
 72
     1
 11
3.443497
 21
-1.392049
 31
2.692373
100
AcDbText
  0
LINE
  5
6AD
100
AcDbEntity
  8
0
100
AcDbLine
 10
3.450673
 20
-1.29862
 30
2.6934
 11
3.450673
 21
-1.280933
 31
2.6934
  0
TEXT
  5
6AE
100
AcDbEntity
  8
0
100
AcDbText
 39
0.001
 10
3.672632
 20
-1.492049
 30
2.692373
 40
0.05
  1
O/3
 72
     1
 11
3.739299
 21
-1.492049
 31
2.692373
100
AcDbText
  0
LINE
  5
6AF
100
AcDbEntity
  8
0
100
AcDbLine
 10
3.761436
 20
-1.29862
 30
2.6934
 11
3.761436
 21
-1.280933
 31
2.6934
  0
LINE
  5
6B0
100
AcDbEntity
  8
0
100
AcDbLine
 10
4.059069
 20
-1.29862
 30
2.6934
 11
4.059069
 21
-1.280933
 31
2.6934
  0
LWPOLYLINE
  5
6B1
100
AcDbEntity
  8
0
100
AcDbPolyline
 90
        4
 70
     1
 43
0.0
 38
-1.882049
 10
-4.519585
 20
2.567373
 10
-4.519585
 20
2.374843
 10
-4.248117
 20
2.374843
 10
-4.248117
 20
2.567373
210
0.0
220
1.0
230
0.0
  0
LWPOLYLINE
  5
6B2
100
AcDbEntity
  8
0
100
AcDbPolyline
 90
        4
 70
     1
 43
0.0
 38
-1.882049
 10
-4.823783
 20
2.567373
 10
-4.823783
 20
2.374843
 10
-4.552315
 20
2.374843
 10
-4.552315
 20
2.567373
210
0.0
220
1.0
230
0.0
  0
TEXT
  5
6B3
100
AcDbEntity
  8
0
100
AcDbText
 39
0.001
 10
4.281029
 20
-1.492049
 30
2.692373
 40
0.05
  1
O/4
 72
     1
 11
4.347695
 21
-1.492049
 31
2.692373
100
AcDbText
  0
TEXT
  5
6B4
100
AcDbEntity
  8
0
100
AcDbText
 39
0.001
 10
4.585227
 20
-1.492049
 30
2.692373
 40
0.05
  1
O/5
 72
     1
 11
4.651894
 21
-1.492049
 31
2.692373
100
AcDbText
  0
LINE
  5
6B5
100
AcDbEntity
  8
0
100
AcDbLine
 10
4.674031
 20
-1.29862
 30
2.6934
 11
4.674031
 21
-1.280933
 31
2.6934
  0
LINE
  5
6B6
100
AcDbEntity
  8
0
100
AcDbLine
 10
5.162
 20
-1.082
 30
2.805
 11
5.162
 21
-1.207
 31
2.805
  0
LINE
  5
6B7
100
AcDbEntity
  8
0
100
AcDbLine
 10
5.242
 20
-1.082
 30
2.805
 11
5.162
 21
-1.082
 31
2.805
  0
LINE
  5
6B8
100
AcDbEntity
  8
0
100
AcDbLine
 10
3.24748
 20
0.680967
 30
2.6934
 11
5.046157
 21
0.680967
 31
2.6934
  0
TEXT
  5
6B9
100
AcDbEntity
  8
0
100
AcDbText
 39
0.001
 10
4.076367
 20
0.819851
 30
2.692373
 40
0.05
  1
I/6
 72
     1
 11
4.134701
 21
0.819851
 31
2.692373
100
AcDbText
  0
LWPOLYLINE
  5
6BA
100
AcDbEntity
  8
0
100
AcDbPolyline
 90
        4
 70
     1
 43
0.0
 38
1.280951
 10
-4.261189
 20
2.567373
 10
-4.261189
 20
2.374843
 10
-3.989721
 20
2.374843
 10
-3.989721
 20
2.567373
210
0.0
220
1.0
230
0.0
  0
LWPOLYLINE
  5
6BB
100
AcDbEntity
  8
0
100
AcDbPolyline
 90
        4
 70
     1
 43
0.0
 38
1.280951
 10
-3.348594
 20
2.567373
 10
-3.348594
 20
2.374843
 10
-3.077126
 20
2.374843
 10
-3.077126
 20
2.567373
210
0.0
220
1.0
230
0.0
  0
TEXT
  5
6BC
100
AcDbEntity
  8
0
100
AcDbText
 39
0.001
 10
2.259701
 20
0.819851
 30
2.692373
 40
0.05
  1
I/1
 72
     1
 11
2.309701
 21
0.819851
 31
2.692373
100
AcDbText
  0
TEXT
  5
6BD
100
AcDbEntity
  8
0
100
AcDbText
 39
0.001
 10
2.551367
 20
0.819851
 30
2.692373
 40
0.05
  1
I/2
 72
     1
 11
2.609701
 21
0.819851
 31
2.692373
100
AcDbText
  0
TEXT
  5
6BE
100
AcDbEntity
  8
0
100
AcDbText
 39
0.001
 10
2.851367
 20
0.819851
 30
2.692373
 40
0.05
  1
I/3
 72
     1
 11
2.909701
 21
0.819851
 31
2.692373
100
AcDbText
  0
LINE
  5
6BF
100
AcDbEntity
  8
0
100
AcDbLine
 10
2.933243
 20
0.69868
 30
2.6934
 11
2.933243
 21
0.680967
 31
2.6934
  0
LWPOLYLINE
  5
6C0
100
AcDbEntity
  8
0
100
AcDbPolyline
 90
        4
 70
     1
 43
0.0
 38
1.280951
 10
-2.740198
 20
2.567373
 10
-2.740198
 20
2.374843
 10
-2.46873
 20
2.374843
 10
-2.46873
 20
2.567373
210
0.0
220
1.0
230
0.0
  0
LWPOLYLINE
  5
6C1
100
AcDbEntity
  8
0
100
AcDbPolyline
 90
        4
 70
     1
 43
0.0
 38
1.280951
 10
-3.044396
 20
2.567373
 10
-3.044396
 20
2.374843
 10
-2.772928
 20
2.374843
 10
-2.772928
 20
2.567373
210
0.0
220
1.0
230
0.0
  0
LINE
  5
6C2
100
AcDbEntity
  8
0
100
AcDbLine
 10
3.24748
 20
0.69868
 30
2.6934
 11
3.24748
 21
0.680967
 31
2.6934
  0
TEXT
  5
6C3
100
AcDbEntity
  8
0
100
AcDbText
 39
0.001
 10
3.193034
 20
0.819851
 30
2.692373
 40
0.05
  1
AC
 72
     1
 11
3.234701
 21
0.819851
 31
2.692373
100
AcDbText
  0
TEXT
  5
6C4
100
AcDbEntity
  8
0
100
AcDbText
 39
0.001
 10
3.168034
 20
0.719851
 30
2.692373
 40
0.05
  1
COM
 72
     1
 11
3.234701
 21
0.719851
 31
2.692373
100
AcDbText
  0
TEXT
  5
6C5
100
AcDbEntity
  8
0
100
AcDbText
 39
0.001
 10
3.476367
 20
0.819851
 30
2.692373
 40
0.05
  1
I/4
 72
     1
 11
3.534701
 21
0.819851
 31
2.692373
100
AcDbText
  0
TEXT
  5
6C6
100
AcDbEntity
  8
0
100
AcDbText
 39
0.001
 10
3.776367
 20
0.819851
 30
2.692373
 40
0.05
  1
I/5
 72
     1
 11
3.834701
 21
0.819851
 31
2.692373
100
AcDbText
  0
LWPOLYLINE
  5
6C7
100
AcDbEntity
  8
0
100
AcDbPolyline
 90
        4
 70
     1
 43
0.0
 38
1.280951
 10
-3.652792
 20
2.567373
 10
-3.652792
 20
2.374843
 10
-3.381324
 20
2.374843
 10
-3.381324
 20
2.567373
210
0.0
220
1.0
230
0.0
  0
LWPOLYLINE
  5
6C8
100
AcDbEntity
  8
0
100
AcDbPolyline
 90
        4
 70
     1
 43
0.0
 38
1.280951
 10
-3.956991
 20
2.567373
 10
-3.956991
 20
2.374843
 10
-3.685523
 20
2.374843
 10
-3.685523
 20
2.567373
210
0.0
220
1.0
230
0.0
  0
LWPOLYLINE
  5
6C9
100
AcDbEntity
  8
0
100
AcDbPolyline
 90
        4
 70
     1
 43
0.0
 38
2.805
 10
2.418737
 20
0.159733
 10
2.418737
 20
0.284733
 10
2.338737
 20
0.284733
 10
2.338737
 20
0.159733
  0
LINE
  5
6CA
100
AcDbEntity
  8
0
100
AcDbLine
 10
2.418737
 20
0.284733
 30
2.805
 11
2.418737
 21
0.284733
 31
2.805
  0
TEXT
  5
6CB
100
AcDbEntity
  8
0
100
AcDbText
 10
2.481492
 20
0.184476
 30
2.8147
 40
0.05
  1
IN
100
AcDbText
  0
TEXT
  5
6CC
100
AcDbEntity
  8
0
100
AcDbText
 39
0.001
 10
4.976367
 20
0.819851
 30
2.692373
 40
0.05
  1
I/9
 72
     1
 11
5.034701
 21
0.819851
 31
2.692373
100
AcDbText
  0
LWPOLYLINE
  5
6CD
100
AcDbEntity
  8
0
100
AcDbPolyline
 90
        4
 70
     1
 43
0.0
 38
1.280951
 10
-5.173783
 20
2.567373
 10
-5.173783
 20
2.374843
 10
-4.902315
 20
2.374843
 10
-4.902315
 20
2.567373
210
0.0
220
1.0
230
0.0
  0
TEXT
  5
6CE
100
AcDbEntity
  8
0
100
AcDbText
 39
0.001
 10
4.376367
 20
0.819851
 30
2.692373
 40
0.05
  1
I/7
 72
     1
 11
4.434701
 21
0.819851
 31
2.692373
100
AcDbText
  0
TEXT
  5
6CF
100
AcDbEntity
  8
0
100
AcDbText
 39
0.001
 10
4.676367
 20
0.819851
 30
2.692373
 40
0.05
  1
I/8
 72
     1
 11
4.734701
 21
0.819851
 31
2.692373
100
AcDbText
  0
LWPOLYLINE
  5
6D0
100
AcDbEntity
  8
0
100
AcDbPolyline
 90
        4
 70
     1
 43
0.0
 38
1.280951
 10
-4.565387
 20
2.567373
 10
-4.565387
 20
2.374843
 10
-4.293919
 20
2.374843
 10
-4.293919
 20
2.567373
210
0.0
220
1.0
230
0.0
  0
LWPOLYLINE
  5
6D1
100
AcDbEntity
  8
0
100
AcDbPolyline
 90
        4
 70
     1
 43
0.0
 38
1.280951
 10
-4.869585
 20
2.567373
 10
-4.869585
 20
2.374843
 10
-4.598117
 20
2.374843
 10
-4.598117
 20
2.567373
210
0.0
220
1.0
230
0.0
  0
LINE
  5
6D2
100
AcDbEntity
  8
0
100
AcDbLine
 10
5.046157
 20
0.69868
 30
2.6934
 11
5.046157
 21
0.680967
 31
2.6934
  0
LINE
  5
6D3
100
AcDbEntity
  8
0
100
AcDbLine
 10
5.162
 20
0.481
 30
2.805
 11
5.242
 21
0.481
 31
2.805
  0
LINE
  5
6D4
100
AcDbEntity
  8
0
100
AcDbLine
 10
5.162
 20
0.606
 30
2.805
 11
5.162
 21
0.481
 31
2.805
  0
DIMENSION
  5
6D5
100
AcDbEntity
  8
AREA1
100
AcDbDimension
  2
*D0
 10
6.164039
 20
1.280951
 30
0.17
 11
6.164039
 21
-0.300525
 31
0.17
 70
    32
  3
ABECAD_3D
100
AcDbAlignedDimension
 13
5.242
 23
-1.882
 33
0.17
 14
4.902315
 24
1.280951
 34
2.374843
 50
90.0
100
AcDbRotatedDimension
  0
DIMENSION
  5
6D6
100
AcDbEntity
  8
AREA1
100
AcDbDimension
  2
*D1
 10
0.0
 20
2.025852
 30
0.17
 11
2.621
 21
2.025852
 31
0.17
 70
    32
  3
ABECAD_3D
100
AcDbAlignedDimension
 13
5.242
 23
0.481
 33
2.805
 14
0.0
 24
1.281
 34
0.17
100
AcDbRotatedDimension
  0
POINT
  5
6D7
100
AcDbEntity
  8
SNAP_POINTS
100
AcDbPoint
 10
0.0
 20
0.0
 30
0.0
  0
LINE
  5
6D8
100
AcDbEntity
  8
SCALE
100
AcDbLine
 10
0.077399
 20
-2.502105
 30
0.0
 11
1.077399
 21
-2.502105
 31
0.0
  0
LINE
  5
6D9
100
AcDbEntity
  8
SCALE
100
AcDbLine
 10
1.077399
 20
-2.502105
 30
0.0
 11
1.077399
 21
-2.602105
 31
0.0
  0
LINE
  5
6DA
100
AcDbEntity
  8
SCALE
100
AcDbLine
 10
1.077399
 20
-2.602105
 30
0.0
 11
1.077399
 21
-2.402105
 31
0.0
  0
LINE
  5
6DB
100
AcDbEntity
  8
SCALE
100
AcDbLine
 10
0.077399
 20
-2.602105
 30
0.0
 11
0.077399
 21
-2.402105
 31
0.0
  0
LINE
  5
6DC
100
AcDbEntity
  8
SCALE
100
AcDbLine
 10
0.077399
 20
-2.902105
 30
0.0
 11
0.077399
 21
-2.702105
 31
0.0
  0
LINE
  5
6DD
100
AcDbEntity
  8
SCALE
100
AcDbLine
 10
0.471099
 20
-2.902105
 30
0.0
 11
0.471099
 21
-2.702105
 31
0.0
  0
LINE
  5
6DE
100
AcDbEntity
  8
SCALE
100
AcDbLine
 10
0.077399
 20
-2.802105
 30
0.0
 11
0.471099
 21
-2.802105
 31
0.0
  0
TEXT
  5
6DF
100
AcDbEntity
  8
SCALE
100
AcDbText
 10
0.136822
 20
-2.756365
 30
0.0
 40
0.0625
  1
[10mm]
100
AcDbText
  0
TEXT
  5
6E0
100
AcDbEntity
  8
SCALE
100
AcDbText
 10
0.440682
 20
-2.433056
 30
0.0
 40
0.0625
  1
1 Inch
100
AcDbText
  0
TEXT
  5
6E1
100
AcDbEntity
  8
SCALE
100
AcDbText
 10
0.07893
 20
-2.227228
 30
0.0
 40
0.0625
  1
SCALE:
100
AcDbText
  0
LWPOLYLINE
  5
6E2
100
AcDbEntity
  8
SCALE
100
AcDbPolyline
 90
        4
 70
     1
 43
0.0
 10
0.019401
 20
-2.122026
 10
1.15503
 20
-2.122026
 10
1.15503
 20
-2.963636
 10
0.019401
 20
-2.963636
  0
ENDBLK
  5
6E4
100
AcDbEntity
  8
0
100
AcDbBlockEnd
  0
BLOCK
  5
6FC
100
AcDbEntity
  8
0
100
AcDbBlockBegin
  2
*D3
 70
     1
 10
0.0
 20
0.0
 30
0.0
  3
*D3
  1

  0
LINE
  5
6F2
100
AcDbEntity
  8
AREA2
 62
     0
100
AcDbLine
 10
-0.0625
 20
0.0
 30
0.0
 11
-1.14478
 21
0.0
 31
0.0
1001
ACAD
1000
RTLwPs
1070
   158
  0
LINE
  5
6F3
100
AcDbEntity
  8
AREA2
 62
     0
100
AcDbLine
 10
0.0175
 20
2.805
 30
0.0
 11
-1.14478
 21
2.805
 31
0.0
1001
ACAD
1000
RTLwPs
1070
   158
  0
LINE
  5
6F4
100
AcDbEntity
  8
AREA2
 62
     0
100
AcDbLine
 10
-0.965092
 20
0.179688
 30
0.0
 11
-0.965092
 21
0.600417
 31
0.0
1001
ACAD
1000
RTLwPs
1070
   158
  0
LINE
  5
6F5
100
AcDbEntity
  8
AREA2
 62
     0
100
AcDbLine
 10
-0.965092
 20
2.625313
 30
0.0
 11
-0.965092
 21
2.204583
 31
0.0
1001
ACAD
1000
RTLwPs
1070
   158
  0
SOLID
  5
6F6
100
AcDbEntity
  8
AREA2
 62
     0
100
AcDbTrace
 10
-0.99504
 20
0.179688
 30
0.0
 11
-0.935144
 21
0.179688
 31
0.0
 12
-0.965092
 22
0.0
 32
0.0
 13
-0.965092
 23
0.0
 33
0.0
  0
SOLID
  5
6F7
100
AcDbEntity
  8
AREA2
 62
     0
100
AcDbTrace
 10
-0.99504
 20
2.625313
 30
0.0
 11
-0.935144
 21
2.625313
 31
0.0
 12
-0.965092
 22
2.805
 32
0.0
 13
-0.965092
 23
2.805
 33
0.0
  0
MTEXT
  5
6F8
100
AcDbEntity
  8
AREA2
 62
     0
100
AcDbMText
 10
-0.965092
 20
1.4025
 30
0.0
 40
0.125
 41
0.0
 71
     5
 72
     1
  1
\A1;2 13/16 [71.2]
 11
0.0
 21
1.0
 31
0.0
1001
ACAD
1000
MTEXTBEGIN
1070
    73
1070
     1
1070
    44
1040
1.0
1070
    74
1070
     0
1000
MTEXTEND
1000
MTEXTBEGIN
1070
    73
1070
     1
1070
    44
1040
1.0
1070
    74
1070
     0
1000
MTEXTEND
1000
MTEXTBEGIN
1070
    73
1070
     1
1070
    44
1040
1.0
1070
    74
1070
     0
1000
MTEXTEND
1000
MTEXTBEGIN
1070
    73
1070
     1
1070
    44
1040
1.0
1070
    74
1070
     0
1000
MTEXTEND
1000
MTEXTBEGIN
1070
    73
1070
     1
1070
    44
1040
1.0
1070
    74
1070
     0
1000
MTEXTEND
  0
POINT
  5
6F9
100
AcDbEntity
  8
DEFPOINTS
 62
     0
100
AcDbPoint
 10
0.0
 20
0.0
 30
0.0
  0
POINT
  5
6FA
100
AcDbEntity
  8
DEFPOINTS
 62
     0
100
AcDbPoint
 10
0.08
 20
2.805
 30
-0.606
  0
POINT
  5
6FB
100
AcDbEntity
  8
DEFPOINTS
 62
     0
100
AcDbPoint
 10
-0.965092
 20
2.805
 30
0.0
  0
ENDBLK
  5
6FD
100
AcDbEntity
  8
0
100
AcDbBlockEnd
  0
ENDSEC
  0
SECTION
  2
ENTITIES
  0
INSERT
  5
6E5
100
AcDbEntity
  8
0
100
AcDbBlockReference
 66
     1
  2
ABIOL010
 10
0.0
 20
0.0
 30
0.0
  0
ATTRIB
  5
6E6
100
AcDbEntity
  8
ATTRIBUTES
100
AcDbText
 10
0.058108
 20
0.695854
 30
0.0
 40
0.15
  1
ALLEN-BRADLEY
100
AcDbAttribute
  2
AC_VND_LABEL
 70
     1
  0
ATTRIB
  5
6E7
100
AcDbEntity
  8
ATTRIBUTES
100
AcDbText
 10
0.058108
 20
0.383354
 30
0.0
 40
0.15
  1
1761-L16 AWA
100
AcDbAttribute
  2
AC_PART_NO
 70
     1
  0
ATTRIB
  5
6E8
100
AcDbEntity
  8
ATTRIBUTES
100
AcDbText
 10
0.058108
 20
0.070854
 30
0.0
 40
0.15
  1
1761-L16 AWA: AC RELAY
100
AcDbAttribute
  2
AC_DESCRIPTION
 70
     1
  0
ATTRIB
  5
6E9
100
AcDbEntity
  8
ATTRIBUTES
100
AcDbText
 10
0.058108
 20
-0.241646
 30
0.0
 40
0.15
  1

100
AcDbAttribute
  2
DEVICE_ID
 70
     1
  0
ATTRIB
  5
6EA
100
AcDbEntity
  8
ATTRIBUTES
100
AcDbText
 10
0.058108
 20
-0.554146
 30
0.0
 40
0.15
  1

100
AcDbAttribute
  2
AC_CPART_NO
 70
     1
  0
ATTRIB
  5
6EB
100
AcDbEntity
  8
ATTRIBUTES
100
AcDbText
 10
0.058108
 20
-0.866646
 30
0.0
 40
0.15
  1

100
AcDbAttribute
  2
AC_NOTE
 70
     1
  0
ATTRIB
  5
6EC
100
AcDbEntity
  8
ATTRIBUTES
100
AcDbText
 10
0.058108
 20
-1.179146
 30
0.0
 40
0.15
  1

100
AcDbAttribute
  2
FASTENER
 70
     1
  0
ATTRIB
  5
6ED
100
AcDbEntity
  8
ATTRIBUTES
100
AcDbText
 10
0.058108
 20
-1.491646
 30
0.0
 40
0.15
  1
INCH
100
AcDbAttribute
  2
AC_SCALE_UNIT
 70
     1
  0
ATTRIB
  5
6EE
100
AcDbEntity
  8
ATTRIBUTES
100
AcDbText
 10
0.058108
 20
-1.804146
 30
0.0
 40
0.15
  1
0
100
AcDbAttribute
  2
AC_VIEW_CODE
 70
     1
  0
SEQEND
  5
6EF
100
AcDbEntity
  8
0
  0
DIMENSION
  5
6F0
100
AcDbEntity
  8
AREA2
100
AcDbDimension
  2
*D3
 10
-0.965092
 20
0.0
 30
2.805
 11
-0.965092
 21
1.4025
 31
0.0
 70
    32
210
0.0
220
-1.0
230
0.0
  3
ABECAD_3V
100
AcDbAlignedDimension
 13
0.0
 23
0.0
 33
0.0
 14
0.08
 24
0.606
 34
2.805
 50
90.0
100
AcDbRotatedDimension
1001
ACAD
1000
DSTYLE
1002
{
1070
    40
1040
1.0
1002
}
  0
VIEWPORT
  5
2C
102
{ACAD_XDICTIONARY
360
814
102
}
100
AcDbEntity
 67
     1
  8
0
100
AcDbViewport
 10
4.999849
 20
3.750155
 30
0.0
 40
13.389022
 41
7.577951
 68
     1
 69
     1
1001
ACAD
1000
MVIEW
1002
{
1070
    16
1010
0.0
1020
0.0
1030
0.0
1010
0.0
1020
0.0
1030
1.0
1040
0.0
1040
7.577951
1040
4.999849
1040
3.750155
1040
50.0
1040
0.0
1040
0.0
1070
     0
1070
   100
1070
     1
1070
     1
1070
     0
1070
     0
1070
     0
1070
     0
1040
0.0
1040
0.0
1040
0.0
1040
1.0
1040
1.0
1040
0.0
1040
0.0
1070
     0
1002
{
1002
}
1002
}
  0
VIEWPORT
  5
2D
102
{ACAD_XDICTIONARY
360
816
102
}
100
AcDbEntity
 67
     1
  8
0
100
AcDbViewport
 10
2.5
 20
5.625
 30
0.0
 40
5.0
 41
3.75
 68
     4
 69
     2
1001
ACAD
1000
MVIEW
1002
{
1070
    16
1010
0.0
1020
0.0
1030
0.0
1010
0.0
1020
0.0
1030
1.0
1040
0.0
1040
5.809183
1040
2.59963
1040
-0.378892
1040
50.0
1040
0.0
1040
0.0
1070
     0
1070
   100
1070
     1
1070
     0
1070
     0
1070
     0
1070
     0
1070
     0
1040
0.0
1040
0.0
1040
0.0
1040
1.0
1040
1.0
1040
0.0
1040
0.0
1070
     0
1002
{
1003
AREA2
1002
}
1002
}
  0
VIEWPORT
  5
2E
102
{ACAD_XDICTIONARY
360
818
102
}
100
AcDbEntity
 67
     1
  8
0
100
AcDbViewport
 10
2.5
 20
1.875
 30
0.0
 40
5.0
 41
3.75
 68
     3
 69
     3
1001
ACAD
1000
MVIEW
1002
{
1070
    16
1010
0.0
1020
0.0
1030
0.0
1010
0.0
1020
-1.0
1030
0.0
1040
0.0
1040
5.809183
1040
2.59963
1040
1.40735
1040
50.0
1040
0.0
1040
0.0
1070
     0
1070
   100
1070
     1
1070
     0
1070
     0
1070
     0
1070
     0
1070
     0
1040
0.0
1040
0.0
1040
0.0
1040
1.0
1040
1.0
1040
0.0
1040
0.0
1070
     0
1002
{
1003
AREA1
1002
}
1002
}
  0
VIEWPORT
  5
2F
102
{ACAD_XDICTIONARY
360
81A
102
}
100
AcDbEntity
 67
     1
  8
0
100
AcDbViewport
 10
7.5
 20
3.75
 30
0.0
 40
5.0
 41
7.5
 68
     2
 69
     4
1001
ACAD
1000
MVIEW
1002
{
1070
    16
1010
0.0
1020
0.0
1030
0.0
1010
-1.0
1020
-1.0
1030
1.0
1040
0.0
1040
9.50679
1040
2.097213
1040
3.653121
1040
50.0
1040
0.0
1040
0.0
1070
     0
1070
   100
1070
     1
1070
     0
1070
     0
1070
     0
1070
     0
1070
     0
1040
0.0
1040
0.0
1040
0.0
1040
1.0
1040
1.0
1040
0.0
1040
0.0
1070
     0
1002
{
1003
AREA1
1003
AREA2
1002
}
1002
}
  0
TEXT
  5
42D
100
AcDbEntity
 67
     1
  8
0
100
AcDbText
 10
5.253785
 20
7.092701
 30
0.0
 40
0.2
  1
1761-L16 AWA
100
AcDbText
  0
TEXT
  5
431
100
AcDbEntity
 67
     1
  8
0
100
AcDbText
 10
5.253785
 20
6.759368
 30
0.0
 40
0.2
  1
1761-L16 AWA: AC RELAY 
100
AcDbText
1001
ACAD
1000
R13OBJECT
1002
{
1005
42D
1002
}
  0
TEXT
  5
52E
100
AcDbEntity
 67
     1
  8
0
100
AcDbText
 10
5.240015
 20
6.436423
 30
0.0
 40
0.2
  1

100
AcDbText
  0
TEXT
  5
52F
100
AcDbEntity
 67
     1
  8
0
100
AcDbText
 10
5.240015
 20
6.10309
 30
0.0
 40
0.2
  1

100
AcDbText
  0
TEXT
  5
530
100
AcDbEntity
 67
     1
  8
0
100
AcDbText
 10
5.240015
 20
5.769757
 30
0.0
 40
0.2
  1

100
AcDbText
  0
ENDSEC
  0
SECTION
  2
OBJECTS
  0
DICTIONARY
  5
46D
100
AcDbDictionary
  3
ACAD_GROUP
350
46E
  3
ACAD_LAYOUT
350
49E
  3
ACAD_MLINESTYLE
350
47B
  3
ACAD_PLOTSETTINGS
350
49F
  3
ACAD_PLOTSTYLENAME
350
49C
  3
ACDBHEADERROUNDTRIPXREC
350
7F3
  3
ACDBVARIABLEDICTIONARY
350
48D
  0
DICTIONARY
  5
7F1
100
AcDbDictionary
280
     1
  3
ACAD_XREC_ROUNDTRIP
360
7F2
  0
DICTIONARY
  5
81E
100
AcDbDictionary
280
     1
  3
ACAD_XREC_ROUNDTRIP
360
81F
  0
DICTIONARY
  5
820
100
AcDbDictionary
280
     1
  3
ACAD_XREC_ROUNDTRIP
360
821
  0
DICTIONARY
  5
822
100
AcDbDictionary
280
     1
  3
ACAD_XREC_ROUNDTRIP
360
823
  0
DICTIONARY
  5
826
100
AcDbDictionary
280
     1
  3
ACAD_XREC_ROUNDTRIP
360
827
  0
DICTIONARY
  5
4D2
100
AcDbDictionary
280
     1
  3
ACAD_LAYOUTSELFREF
360
81D
  0
DICTIONARY
  5
4D0
100
AcDbDictionary
280
     1
  3
ACAD_LAYOUTSELFREF
360
81C
  0
DICTIONARY
  5
7EF
100
AcDbDictionary
280
     1
  3
ACAD_XREC_ROUNDTRIP
360
7F0
  0
DICTIONARY
  5
814
100
AcDbDictionary
280
     1
  3
ACAD_XREC_ROUNDTRIP
360
815
  0
DICTIONARY
  5
816
100
AcDbDictionary
280
     1
  3
ACAD_XREC_ROUNDTRIP
360
817
  0
DICTIONARY
  5
818
100
AcDbDictionary
280
     1
  3
ACAD_XREC_ROUNDTRIP
360
819
  0
DICTIONARY
  5
81A
100
AcDbDictionary
280
     1
  3
ACAD_XREC_ROUNDTRIP
360
81B
  0
DICTIONARY
  5
46E
102
{ACAD_REACTORS
330
46D
102
}
100
AcDbDictionary
  0
DICTIONARY
  5
49E
102
{ACAD_XDICTIONARY
360
824
102
}
102
{ACAD_REACTORS
330
46D
102
}
100
AcDbDictionary
  3
LAYOUT1
350
4A1
  3
MODEL
350
4A0
  0
DICTIONARY
  5
47B
102
{ACAD_REACTORS
330
46D
102
}
100
AcDbDictionary
  3
STANDARD
350
47C
  0
DICTIONARY
  5
49F
102
{ACAD_REACTORS
330
46D
102
}
100
AcDbDictionary
  0
ACAD_PROXY_OBJECT
  5
49C
102
{ACAD_REACTORS
330
46D
102
}
100
AcDbProxyObject
 90
      499
 91
      501
 93
       86
310
405010041939BDC9B585B0
350
49D
340
49D
 94
        0
  0
DICTIONARY
  5
7F3
102
{ACAD_REACTORS
330
46D
102
}
100
AcDbDictionary
  3
CEPSNTYPE
350
7FD
  3
DIMSTYLEDATA
350
801
  3
FINGERPRINTGUID
350
7FE
  3
HYPERLINKBASE
350
7F6
  3
INSUNITS
350
7FC
  3
LAYOUTDICT
350
7F8
  3
LWETCUNION
350
7FB
  3
PLOTSETDICT
350
7F9
  3
PLOTSTYLNAMDICT
350
7FA
  3
PSVPSCALE
350
800
  3
PUCSBASE
350
804
  3
PUCSORGBACK
350
80A
  3
PUCSORGBOTTOM
350
806
  3
PUCSORGFRONT
350
809
  3
PUCSORGLEFT
350
807
  3
PUCSORGRIGHT
350
808
  3
PUCSORGTOP
350
805
  3
PUCSORTHOREF
350
802
  3
PUCSORTHOVIEW
350
803
  3
STYLESHEET
350
7F7
  3
TSTACKALIGN
350
7F4
  3
TSTACKSIZE
350
7F5
  3
UCSBASE
350
80D
  3
UCSORGBACK
350
813
  3
UCSORGBOTTOM
350
80F
  3
UCSORGFRONT
350
812
  3
UCSORGLEFT
350
810
  3
UCSORGRIGHT
350
811
  3
UCSORGTOP
350
80E
  3
UCSORTHOREF
350
80B
  3
UCSORTHOVIEW
350
80C
  3
VERSIONGUID
350
7FF
  0
DICTIONARY
  5
48D
102
{ACAD_REACTORS
330
46D
102
}
100
AcDbDictionary
  3
DIMADEC
350
48E
  0
XRECORD
  5
7F2
102
{ACAD_REACTORS
330
7F1
102
}
100
AcDbXrecord
102
EXTNAMES
  1
*ACTIVE
  2
*Active
102
UCS
 74
     0
 71
     1
 10
0.0
 20
0.0
 30
0.0
 10
1.0
 20
0.0
 30
0.0
 10
0.0
 20
1.0
 30
0.0
146
0.0
 79
     1
102
VIEW
281
     0
  0
XRECORD
  5
81F
102
{ACAD_REACTORS
330
81E
102
}
100
AcDbXrecord
102
PLOTBIT
280
     0
  0
XRECORD
  5
821
102
{ACAD_REACTORS
330
820
102
}
100
AcDbXrecord
102
ACADR14ROUNDTRIP
1000
DSTYLE
1002
{
1070
   276
 70
     2
1070
   277
 70
     5
1070
   279
 70
     2
1002
}
  0
XRECORD
  5
823
102
{ACAD_REACTORS
330
822
102
}
100
AcDbXrecord
102
ACADR14ROUNDTRIP
1000
DSTYLE
1002
{
1070
   276
 70
     2
1070
   277
 70
     5
1070
   279
 70
     2
1002
}
  0
XRECORD
  5
827
102
{ACAD_REACTORS
330
826
102
}
100
AcDbXrecord
102
ACADR14ROUNDTRIP
1000
DSTYLE
1002
{
1070
   276
 70
     2
1070
   277
 70
     5
1002
}
  0
XRECORD
  5
81D
102
{ACAD_REACTORS
330
4D2
102
}
100
AcDbXrecord
340
478
  0
XRECORD
  5
81C
102
{ACAD_REACTORS
330
4D0
102
}
100
AcDbXrecord
340
475
  0
XRECORD
  5
7F0
102
{ACAD_REACTORS
330
7EF
102
}
100
AcDbXrecord
102
EXTNAMES
  1
ABIOL010
  2
Abiol010
  0
XRECORD
  5
815
102
{ACAD_REACTORS
330
814
102
}
100
AcDbXrecord
102
UCS
 74
     0
 71
     1
 10
0.0
 20
0.0
 30
0.0
 10
1.0
 20
0.0
 30
0.0
 10
0.0
 20
1.0
 30
0.0
146
0.0
 79
     0
102
VIEW
281
     0
102
NEWVIEWCONTROL
280
     4
  0
XRECORD
  5
817
102
{ACAD_REACTORS
330
816
102
}
100
AcDbXrecord
102
UCS
 74
     0
 71
     1
 10
0.0
 20
0.0
 30
0.0
 10
1.0
 20
0.0
 30
0.0
 10
0.0
 20
1.0
 30
0.0
146
0.0
 79
     1
102
VIEW
281
     0
102
NEWVIEWCONTROL
280
     4
  0
XRECORD
  5
819
102
{ACAD_REACTORS
330
818
102
}
100
AcDbXrecord
102
UCS
 74
     0
 71
     1
 10
0.0
 20
0.0
 30
0.0
 10
1.0
 20
0.0
 30
0.0
 10
0.0
 20
0.0
 30
1.0
146
0.0
 79
     3
102
VIEW
281
     0
102
NEWVIEWCONTROL
280
     4
  0
XRECORD
  5
81B
102
{ACAD_REACTORS
330
81A
102
}
100
AcDbXrecord
102
UCS
 74
     0
 71
     1
 10
0.0
 20
0.0
 30
0.0
 10
1.0
 20
0.0
 30
0.0
 10
0.0
 20
1.0
 30
0.0
146
0.0
 79
     0
102
VIEW
281
     0
102
NEWVIEWCONTROL
280
     4
  0
DICTIONARY
  5
824
100
AcDbDictionary
280
     1
  3
ACAD_XREC_ROUNDTRIP
360
825
  0
ACAD_PROXY_OBJECT
  5
4A1
102
{ACAD_REACTORS
330
49E
102
}
100
AcDbProxyObject
 90
      499
 91
      503
 93
     2044
310
91D4850204C617365724A65742035303030205365726965732050434C20362C008000000C0BB1B1440000000102F06C510000000000BC1B1440000000002E06C5100000000C0CCFC6A4000000018199D9C501064C6574746572A901406AA427D84144352EEE3F47D11959985D5B1D08148C4D081C195B88185CDCDA59DB9B5
310
95B9D1CCB98DD18A30EDE3B1BBFDBC0FC1D572C8D6D0C833F1A2B3054E9249F0FD074C61796F75743140501A97D7DB4AA43C31EFF91E46EBA53B71EFD1B32A15809809100B2537F8EAD447D02A6A6A00200C0093BD106FC0000F06EE366FABE00001413D8FD3E6F04424FF2920002440160B7F435600079000000CF48875D0
310
73D0
330
475
330
2C
340
0
340
0
 94
        0
  0
ACAD_PROXY_OBJECT
  5
4A0
102
{ACAD_REACTORS
330
49E
102
}
100
AcDbProxyObject
 90
      499
 91
      503
 93
      924
310
91D4850204C617365724A65742035303030205365726965732050434C20362C01AAAAAAAAA547D11959985D5B1D08148C4D081C195B88185CDCDA59DB9B595B9D1CCB98DD18A69054D6F64656C901A800000000000000000000000000000000000000000000A1000000000000008902A6A6AAAA0
330
478
330
0
340
0
340
0
 94
        0
  0
MLINESTYLE
  5
47C
102
{ACAD_REACTORS
330
47B
102
}
100
AcDbMlineStyle
  2
STANDARD
 70
     0
  3

 62
   256
 51
90.0
 52
90.0
 71
     2
 49
0.5
 62
   256
  6
BYLAYER
 49
-0.5
 62
   256
  6
BYLAYER
  0
ACAD_PROXY_OBJECT
  5
49D
102
{ACAD_REACTORS
330
49C
102
}
100
AcDbProxyObject
 90
      499
 91
      502
 93
        0
 94
        0
  0
XRECORD
  5
7FD
102
{ACAD_REACTORS
330
7F3
102
}
100
AcDbXrecord
 90
        0
  0
XRECORD
  5
801
102
{ACAD_REACTORS
330
7F3
102
}
100
AcDbXrecord
1000
DSTYLE
1002
{
1070
   276
 70
     2
1070
   277
 70
     5
1070
   279
 70
     2
1002
}
  0
XRECORD
  5
7FE
102
{ACAD_REACTORS
330
7F3
102
}
100
AcDbXrecord
  1
{6E0CF4B5-225E-11D4-A150-00A0CC3303EC}
  0
XRECORD
  5
7F6
102
{ACAD_REACTORS
330
7F3
102
}
100
AcDbXrecord
  1

  0
XRECORD
  5
7FC
102
{ACAD_REACTORS
330
7F3
102
}
100
AcDbXrecord
 90
        0
  0
XRECORD
  5
7F8
102
{ACAD_REACTORS
330
7F3
102
}
100
AcDbXrecord
340
49E
  0
XRECORD
  5
7FB
102
{ACAD_REACTORS
330
7F3
102
}
100
AcDbXrecord
 90
    14877
  0
XRECORD
  5
7F9
102
{ACAD_REACTORS
330
7F3
102
}
100
AcDbXrecord
340
49F
  0
XRECORD
  5
7FA
102
{ACAD_REACTORS
330
7F3
102
}
100
AcDbXrecord
340
49C
  0
XRECORD
  5
800
102
{ACAD_REACTORS
330
7F3
102
}
100
AcDbXrecord
 40
0.0
  0
XRECORD
  5
804
102
{ACAD_REACTORS
330
7F3
102
}
100
AcDbXrecord
340
0
  0
XRECORD
  5
80A
102
{ACAD_REACTORS
330
7F3
102
}
100
AcDbXrecord
 10
0.0
 20
0.0
 30
0.0
  0
XRECORD
  5
806
102
{ACAD_REACTORS
330
7F3
102
}
100
AcDbXrecord
 10
0.0
 20
0.0
 30
0.0
  0
XRECORD
  5
809
102
{ACAD_REACTORS
330
7F3
102
}
100
AcDbXrecord
 10
0.0
 20
0.0
 30
0.0
  0
XRECORD
  5
807
102
{ACAD_REACTORS
330
7F3
102
}
100
AcDbXrecord
 10
0.0
 20
0.0
 30
0.0
  0
XRECORD
  5
808
102
{ACAD_REACTORS
330
7F3
102
}
100
AcDbXrecord
 10
0.0
 20
0.0
 30
0.0
  0
XRECORD
  5
805
102
{ACAD_REACTORS
330
7F3
102
}
100
AcDbXrecord
 10
0.0
 20
0.0
 30
0.0
  0
XRECORD
  5
802
102
{ACAD_REACTORS
330
7F3
102
}
100
AcDbXrecord
340
0
  0
XRECORD
  5
803
102
{ACAD_REACTORS
330
7F3
102
}
100
AcDbXrecord
 70
     0
  0
XRECORD
  5
7F7
102
{ACAD_REACTORS
330
7F3
102
}
100
AcDbXrecord
  1

  0
XRECORD
  5
7F4
102
{ACAD_REACTORS
330
7F3
102
}
100
AcDbXrecord
 90
        1
  0
XRECORD
  5
7F5
102
{ACAD_REACTORS
330
7F3
102
}
100
AcDbXrecord
 90
       70
  0
XRECORD
  5
80D
102
{ACAD_REACTORS
330
7F3
102
}
100
AcDbXrecord
340
0
  0
XRECORD
  5
813
102
{ACAD_REACTORS
330
7F3
102
}
100
AcDbXrecord
 10
0.0
 20
0.0
 30
0.0
  0
XRECORD
  5
80F
102
{ACAD_REACTORS
330
7F3
102
}
100
AcDbXrecord
 10
0.0
 20
0.0
 30
0.0
  0
XRECORD
  5
812
102
{ACAD_REACTORS
330
7F3
102
}
100
AcDbXrecord
 10
0.0
 20
0.0
 30
0.0
  0
XRECORD
  5
810
102
{ACAD_REACTORS
330
7F3
102
}
100
AcDbXrecord
 10
0.0
 20
0.0
 30
0.0
  0
XRECORD
  5
811
102
{ACAD_REACTORS
330
7F3
102
}
100
AcDbXrecord
 10
0.0
 20
0.0
 30
0.0
  0
XRECORD
  5
80E
102
{ACAD_REACTORS
330
7F3
102
}
100
AcDbXrecord
 10
0.0
 20
0.0
 30
0.0
  0
XRECORD
  5
80B
102
{ACAD_REACTORS
330
7F3
102
}
100
AcDbXrecord
340
0
  0
XRECORD
  5
80C
102
{ACAD_REACTORS
330
7F3
102
}
100
AcDbXrecord
 70
     0
  0
XRECORD
  5
7FF
102
{ACAD_REACTORS
330
7F3
102
}
100
AcDbXrecord
  1
{423D3FDA-66C7-49B6-A92E-2E55E528EDF7}
  0
DICTIONARYVAR
  5
48E
102
{ACAD_REACTORS
330
48D
102
}
100
DictionaryVariables
280
     0
  1
0
  0
XRECORD
  5
825
102
{ACAD_REACTORS
330
824
102
}
100
AcDbXrecord
102
EXTNAMES
  1
LAYOUT1
  2
Layout1
  1
MODEL
  2
Model
  0
ENDSEC
  0
EOF
