  0
SECTION
  2
HEADER
  9
$ACADVER
  1
AC1014
  9
$ACADMAINTVER
 70
     8
  9
$DWGCODEPAGE
  3
ANSI_1252
  9
$INSBASE
 10
0.0
 20
0.0
 30
0.0
  9
$EXTMIN
 10
-0.925159
 20
-1.424997
 30
0.0
  9
$EXTMAX
 10
1.846
 20
10.713884
 30
5.88
  9
$LIMMIN
 10
0.0
 20
0.0
  9
$LIMMAX
 10
12.0
 20
9.0
  9
$ORTHOMODE
 70
     0
  9
$REGENMODE
 70
     1
  9
$FILLMODE
 70
     1
  9
$QTEXTMODE
 70
     0
  9
$MIRRTEXT
 70
     1
  9
$DRAGMODE
 70
     2
  9
$LTSCALE
 40
1.0
  9
$OSMODE
 70
    37
  9
$ATTMODE
 70
     1
  9
$TEXTSIZE
 40
0.12
  9
$TRACEWID
 40
0.05
  9
$TEXTSTYLE
  7
STANDARD
  9
$CLAYER
  8
0
  9
$CELTYPE
  6
BYLAYER
  9
$CECOLOR
 62
   256
  9
$CELTSCALE
 40
1.0
  9
$DELOBJ
 70
     1
  9
$DISPSILH
 70
     0
  9
$DIMSCALE
 40
1.0
  9
$DIMASZ
 40
0.13
  9
$DIMEXO
 40
0.0625
  9
$DIMDLI
 40
0.375
  9
$DIMRND
 40
0.0
  9
$DIMDLE
 40
0.0
  9
$DIMEXE
 40
0.13
  9
$DIMTP
 40
0.0
  9
$DIMTM
 40
0.0
  9
$DIMTXT
 40
0.13
  9
$DIMCEN
 40
0.09
  9
$DIMTSZ
 40
0.0
  9
$DIMTOL
 70
     0
  9
$DIMLIM
 70
     0
  9
$DIMTIH
 70
     0
  9
$DIMTOH
 70
     1
  9
$DIMSE1
 70
     0
  9
$DIMSE2
 70
     0
  9
$DIMTAD
 70
     0
  9
$DIMZIN
 70
     4
  9
$DIMBLK
  1

  9
$DIMASO
 70
     1
  9
$DIMSHO
 70
     1
  9
$DIMPOST
  1

  9
$DIMAPOST
  1

  9
$DIMALT
 70
     1
  9
$DIMALTD
 70
     1
  9
$DIMALTF
 40
25.4
  9
$DIMLFAC
 40
1.0
  9
$DIMTOFL
 70
     0
  9
$DIMTVP
 40
0.0
  9
$DIMTIX
 70
     0
  9
$DIMSOXD
 70
     0
  9
$DIMSAH
 70
     0
  9
$DIMBLK1
  1

  9
$DIMBLK2
  1

  9
$DIMSTYLE
  2
ABECAD_3D
  9
$DIMCLRD
 70
     0
  9
$DIMCLRE
 70
     0
  9
$DIMCLRT
 70
     0
  9
$DIMTFAC
 40
1.5
  9
$DIMGAP
 40
0.05
  9
$DIMJUST
 70
     0
  9
$DIMSD1
 70
     0
  9
$DIMSD2
 70
     0
  9
$DIMTOLJ
 70
     1
  9
$DIMTZIN
 70
     4
  9
$DIMALTZ
 70
     4
  9
$DIMALTTZ
 70
     4
  9
$DIMFIT
 70
     3
  9
$DIMUPT
 70
     0
  9
$DIMUNIT
 70
     7
  9
$DIMDEC
 70
     6
  9
$DIMTDEC
 70
     6
  9
$DIMALTU
 70
     2
  9
$DIMALTTD
 70
     1
  9
$DIMTXSTY
  7
STANDARD
  9
$DIMAUNIT
 70
     0
  9
$LUNITS
 70
     2
  9
$LUPREC
 70
     4
  9
$SKETCHINC
 40
0.1
  9
$FILLETRAD
 40
0.0
  9
$AUNITS
 70
     0
  9
$AUPREC
 70
     0
  9
$MENU
  1
ACAD
  9
$ELEVATION
 40
0.0
  9
$PELEVATION
 40
0.0
  9
$THICKNESS
 40
0.0
  9
$LIMCHECK
 70
     0
  9
$BLIPMODE
 70
     0
  9
$CHAMFERA
 40
0.0
  9
$CHAMFERB
 40
0.0
  9
$CHAMFERC
 40
0.0
  9
$CHAMFERD
 40
0.0
  9
$SKPOLY
 70
     0
  9
$TDCREATE
 40
2451670.444776967
  9
$TDUPDATE
 40
2452010.488663310
  9
$TDINDWG
 40
0.0084957176
  9
$TDUSRTIMER
 40
0.0084957176
  9
$USRTIMER
 70
     1
  9
$ANGBASE
 50
0.0
  9
$ANGDIR
 70
     0
  9
$PDMODE
 70
     3
  9
$PDSIZE
 40
0.09
  9
$PLINEWID
 40
0.0
  9
$COORDS
 70
     1
  9
$SPLFRAME
 70
     1
  9
$SPLINETYPE
 70
     6
  9
$SPLINESEGS
 70
     8
  9
$ATTDIA
 70
     0
  9
$ATTREQ
 70
     1
  9
$HANDLING
 70
     1
  9
$HANDSEED
  5
45DFF
  9
$SURFTAB1
 70
     6
  9
$SURFTAB2
 70
     6
  9
$SURFTYPE
 70
     6
  9
$SURFU
 70
     6
  9
$SURFV
 70
     6
  9
$UCSNAME
  2

  9
$UCSORG
 10
0.0
 20
0.0
 30
0.0
  9
$UCSXDIR
 10
1.0
 20
0.0
 30
0.0
  9
$UCSYDIR
 10
0.0
 20
1.0
 30
0.0
  9
$PUCSNAME
  2

  9
$PUCSORG
 10
0.0
 20
0.0
 30
0.0
  9
$PUCSXDIR
 10
1.0
 20
0.0
 30
0.0
  9
$PUCSYDIR
 10
0.0
 20
1.0
 30
0.0
  9
$USERI1
 70
     0
  9
$USERI2
 70
     0
  9
$USERI3
 70
     0
  9
$USERI4
 70
     0
  9
$USERI5
 70
     0
  9
$USERR1
 40
0.0
  9
$USERR2
 40
0.0
  9
$USERR3
 40
0.0
  9
$USERR4
 40
0.0
  9
$USERR5
 40
0.0
  9
$WORLDVIEW
 70
     1
  9
$SHADEDGE
 70
     3
  9
$SHADEDIF
 70
    70
  9
$TILEMODE
 70
     1
  9
$MAXACTVP
 70
    16
  9
$PINSBASE
 10
0.0
 20
0.0
 30
0.0
  9
$PLIMCHECK
 70
     0
  9
$PEXTMIN
 10
1.000000E+20
 20
1.000000E+20
 30
1.000000E+20
  9
$PEXTMAX
 10
-1.000000E+20
 20
-1.000000E+20
 30
-1.000000E+20
  9
$PLIMMIN
 10
0.0
 20
0.0
  9
$PLIMMAX
 10
12.0
 20
9.0
  9
$UNITMODE
 70
     0
  9
$VISRETAIN
 70
     0
  9
$PLINEGEN
 70
     0
  9
$PSLTSCALE
 70
     1
  9
$TREEDEPTH
 70
  3020
  9
$PICKSTYLE
 70
     1
  9
$CMLSTYLE
  2
STANDARD
  9
$CMLJUST
 70
     0
  9
$CMLSCALE
 40
1.0
  9
$PROXYGRAPHICS
 70
     1
  9
$MEASUREMENT
 70
     0
  0
ENDSEC
  0
SECTION
  2
CLASSES
  0
CLASS
  1
DICTIONARYVAR
  2
AcDbDictionaryVar
  3
"AutoCAD"
 90
        0
280
     0
281
     0
  0
CLASS
  1
ACDBDICTIONARYWDFLT
  2
AcDbDictionaryWithDefault
  3
AutoCAD 2000
 90
        0
280
     0
281
     0
  0
CLASS
  1
ACDBPLACEHOLDER
  2
AcDbPlaceHolder
  3
AutoCAD 2000
 90
        0
280
     0
281
     0
  0
CLASS
  1
LAYOUT
  2
AcDbLayout
  3
AutoCAD 2000
 90
        0
280
     0
281
     0
  0
CLASS
  1
LONG_TRANSACTION
  2
AcDbLongTransaction
  3
AutoCAD 2000
 90
        0
280
     0
281
     0
  0
CLASS
  1
LWPOLYLINE
  2
AcDbPolyline
  3
"AutoCAD"
 90
        0
280
     0
281
     1
  0
CLASS
  1
HATCH
  2
AcDbHatch
  3
"ACAD_SEDONA"
 90
        0
280
     0
281
     1
  0
CLASS
  1
XRECORD
  2
AcDbXrecord
  3
"<Built In>"
 90
        0
280
     0
281
     0
  0
CLASS
  1
LONG_TRANSACTION
  2
AcDbLongTransaction
  3
AutoCAD 2000
 90
        0
280
     0
281
     0
  0
CLASS
  1
LWPOLYLINE
  2
AcDbPolyline
  3
"AutoCAD"
 90
        0
280
     0
281
     1
  0
CLASS
  1
HATCH
  2
AcDbHatch
  3
"ACAD_SEDONA"
 90
        0
280
     0
281
     1
  0
CLASS
  1
XRECORD
  2
AcDbXrecord
  3
"<Built In>"
 90
        0
280
     0
281
     0
  0
CLASS
  1
LONG_TRANSACTION
  2
AcDbLongTransaction
  3
AutoCAD 2000
 90
        0
280
     0
281
     0
  0
CLASS
  1
LWPOLYLINE
  2
AcDbPolyline
  3
"AutoCAD"
 90
        0
280
     0
281
     1
  0
CLASS
  1
HATCH
  2
AcDbHatch
  3
"ACAD_SEDONA"
 90
        0
280
     0
281
     1
  0
CLASS
  1
XRECORD
  2
AcDbXrecord
  3
"<Built In>"
 90
        0
280
     0
281
     0
  0
CLASS
  1
LONG_TRANSACTION
  2
AcDbLongTransaction
  3
AutoCAD 2000
 90
        0
280
     0
281
     0
  0
CLASS
  1
LWPOLYLINE
  2
AcDbPolyline
  3
"AutoCAD"
 90
        0
280
     0
281
     1
  0
CLASS
  1
HATCH
  2
AcDbHatch
  3
"ACAD_SEDONA"
 90
        0
280
     0
281
     1
  0
CLASS
  1
XRECORD
  2
AcDbXrecord
  3
"<Built In>"
 90
        0
280
     0
281
     0
  0
CLASS
  1
LONG_TRANSACTION
  2
AcDbLongTransaction
  3
AutoCAD 2000
 90
        0
280
     0
281
     0
  0
CLASS
  1
LWPOLYLINE
  2
AcDbPolyline
  3
"AutoCAD"
 90
        0
280
     0
281
     1
  0
CLASS
  1
HATCH
  2
AcDbHatch
  3
"ACAD_SEDONA"
 90
        0
280
     0
281
     1
  0
CLASS
  1
XRECORD
  2
AcDbXrecord
  3
"<Built In>"
 90
        0
280
     0
281
     0
  0
CLASS
  1
LONG_TRANSACTION
  2
AcDbLongTransaction
  3
AutoCAD 2000
 90
        0
280
     0
281
     0
  0
CLASS
  1
LWPOLYLINE
  2
AcDbPolyline
  3
"AutoCAD"
 90
        0
280
     0
281
     1
  0
CLASS
  1
HATCH
  2
AcDbHatch
  3
"ACAD_SEDONA"
 90
        0
280
     0
281
     1
  0
CLASS
  1
XRECORD
  2
AcDbXrecord
  3
"<Built In>"
 90
        0
280
     0
281
     0
  0
ENDSEC
  0
SECTION
  2
TABLES
  0
TABLE
  2
VPORT
  5
458C7
100
AcDbSymbolTable
 70
     1
  0
VPORT
  5
45DCC
102
{ACAD_XDICTIONARY
360
45DCF
102
}
100
AcDbSymbolTableRecord
100
AcDbViewportTableRecord
  2
*ACTIVE
 70
     0
 10
0.0
 20
0.0
 11
1.0
 21
1.0
 12
0.460426
 22
4.644443
 13
0.0
 23
0.0
 14
0.25
 24
0.25
 15
0.25
 25
0.25
 16
0.0
 26
0.0
 36
1.0
 17
0.0
 27
0.0
 37
0.0
 40
12.343649
 41
1.960674
 42
50.0
 43
0.0
 44
0.0
 50
0.0
 51
0.0
 71
     0
 72
 20000
 73
     1
 74
     1
 75
     0
 76
     0
 77
     0
 78
     0
  0
ENDTAB
  0
TABLE
  2
LTYPE
  5
458C4
100
AcDbSymbolTable
 70
     1
  0
LTYPE
  5
458D0
100
AcDbSymbolTableRecord
100
AcDbLinetypeTableRecord
  2
BYBLOCK
 70
     0
  3

 72
    65
 73
     0
 40
0.0
  0
LTYPE
  5
458D1
100
AcDbSymbolTableRecord
100
AcDbLinetypeTableRecord
  2
BYLAYER
 70
     0
  3

 72
    65
 73
     0
 40
0.0
  0
LTYPE
  5
458D2
100
AcDbSymbolTableRecord
100
AcDbLinetypeTableRecord
  2
CONTINUOUS
 70
     0
  3
Solid line
 72
    65
 73
     0
 40
0.0
  0
ENDTAB
  0
TABLE
  2
LAYER
  5
458C1
100
AcDbSymbolTable
 70
     7
  0
LAYER
  5
458CD
100
AcDbSymbolTableRecord
100
AcDbLayerTableRecord
  2
0
 70
     0
 62
     7
  6
CONTINUOUS
  0
LAYER
  5
458EA
100
AcDbSymbolTableRecord
100
AcDbLayerTableRecord
  2
DIMS-MTG-HOLES
 70
     0
 62
     1
  6
CONTINUOUS
  0
LAYER
  5
458EB
100
AcDbSymbolTableRecord
100
AcDbLayerTableRecord
  2
ATTRIBUTES
 70
     0
 62
     7
  6
CONTINUOUS
  0
LAYER
  5
4593B
102
{ACAD_XDICTIONARY
360
45DFA
102
}
100
AcDbSymbolTableRecord
100
AcDbLayerTableRecord
  2
AREA1
 70
     0
 62
    -7
  6
CONTINUOUS
  0
LAYER
  5
45940
102
{ACAD_XDICTIONARY
360
45DCD
102
}
100
AcDbSymbolTableRecord
100
AcDbLayerTableRecord
  2
DEFPOINTS
 70
     0
 62
    -7
  6
CONTINUOUS
  0
LAYER
  5
45D24
100
AcDbSymbolTableRecord
100
AcDbLayerTableRecord
  2
SCALE
 70
     0
 62
    -7
  6
CONTINUOUS
  0
LAYER
  5
45D65
100
AcDbSymbolTableRecord
100
AcDbLayerTableRecord
  2
SNAP_POINTS
 70
     0
 62
    -1
  6
CONTINUOUS
  0
ENDTAB
  0
TABLE
  2
STYLE
  5
458C2
100
AcDbSymbolTable
 70
     1
  0
STYLE
  5
458CE
100
AcDbSymbolTableRecord
100
AcDbTextStyleTableRecord
  2
STANDARD
 70
     0
 40
0.0
 41
1.0
 50
0.0
 71
     0
 42
0.12
  3
txt
  4

  0
ENDTAB
  0
TABLE
  2
VIEW
  5
458C5
100
AcDbSymbolTable
 70
     0
  0
ENDTAB
  0
TABLE
  2
UCS
  5
458C6
100
AcDbSymbolTable
 70
     0
  0
ENDTAB
  0
TABLE
  2
APPID
  5
458C8
100
AcDbSymbolTable
 70
     1
  0
APPID
  5
458CF
100
AcDbSymbolTableRecord
100
AcDbRegAppTableRecord
  2
ACAD
 70
     0
  0
ENDTAB
  0
TABLE
  2
DIMSTYLE
  5
458C9
100
AcDbSymbolTable
 70
     2
  0
DIMSTYLE
105
458F1
102
{ACAD_XDICTIONARY
360
45DF4
102
}
100
AcDbSymbolTableRecord
100
AcDbDimStyleTableRecord
  2
ABECAD
 70
     0
  3

  4

  5

  6

  7

 40
1.0
 41
0.18
 42
0.0625
 43
0.375
 44
0.18
 45
0.0
 46
0.0
 47
0.0
 48
0.0
140
0.18
141
0.09
142
0.0
143
25.4
144
1.0
145
0.0
146
1.5
147
0.09
 71
     0
 72
     0
 73
     0
 74
     1
 75
     0
 76
     0
 77
     0
 78
     4
170
     1
171
     1
172
     0
173
     0
174
     0
175
     0
176
     0
177
     0
178
     0
270
     7
271
     6
272
     6
273
     2
274
     1
340
458CE
275
     0
280
     0
281
     0
282
     0
283
     1
284
     4
285
     4
286
     4
287
     3
288
     0
  0
DIMSTYLE
105
458F6
102
{ACAD_XDICTIONARY
360
45DF6
102
}
102
{ACAD_REACTORS
330
45CB1
330
45CCD
102
}
100
AcDbSymbolTableRecord
100
AcDbDimStyleTableRecord
  2
ABECAD_3D
 70
     0
  3

  4

  5

  6

  7

 40
1.0
 41
0.13
 42
0.0625
 43
0.375
 44
0.13
 45
0.0
 46
0.0
 47
0.0
 48
0.0
140
0.13
141
0.09
142
0.0
143
25.4
144
1.0
145
0.0
146
1.5
147
0.05
 71
     0
 72
     0
 73
     0
 74
     1
 75
     0
 76
     0
 77
     0
 78
     4
170
     1
171
     1
172
     0
173
     0
174
     0
175
     0
176
     0
177
     0
178
     0
270
     7
271
     6
272
     6
273
     2
274
     1
340
458CE
275
     0
280
     0
281
     0
282
     0
283
     1
284
     4
285
     4
286
     4
287
     3
288
     0
  0
ENDTAB
  0
TABLE
  2
BLOCK_RECORD
  5
458C0
100
AcDbSymbolTable
 70
     2
  0
BLOCK_RECORD
  5
458D6
102
{ACAD_XDICTIONARY
360
4592C
102
}
100
AcDbSymbolTableRecord
100
AcDbBlockTableRecord
  2
*MODEL_SPACE
  0
BLOCK_RECORD
  5
458D3
102
{ACAD_XDICTIONARY
360
4592A
102
}
100
AcDbSymbolTableRecord
100
AcDbBlockTableRecord
  2
*PAPER_SPACE
  0
BLOCK_RECORD
  5
45CB2
100
AcDbSymbolTableRecord
100
AcDbBlockTableRecord
  2
*D0
  0
BLOCK_RECORD
  5
45CCE
100
AcDbSymbolTableRecord
100
AcDbBlockTableRecord
  2
*D1
  0
ENDTAB
  0
ENDSEC
  0
SECTION
  2
BLOCKS
  0
BLOCK
  5
458DF
100
AcDbEntity
  8
0
100
AcDbBlockBegin
  2
*MODEL_SPACE
 70
     0
 10
0.0
 20
0.0
 30
0.0
  3
*MODEL_SPACE
  1

  0
ENDBLK
  5
458E0
100
AcDbEntity
  8
0
100
AcDbBlockEnd
  0
BLOCK
  5
458DD
100
AcDbEntity
 67
     1
  8
0
100
AcDbBlockBegin
  2
*PAPER_SPACE
 70
     0
 10
0.0
 20
0.0
 30
0.0
  3
*PAPER_SPACE
  1

  0
ENDBLK
  5
458DE
100
AcDbEntity
 67
     1
  8
0
100
AcDbBlockEnd
  0
BLOCK
  5
45CBD
100
AcDbEntity
  8
0
100
AcDbBlockBegin
  2
*D0
 70
     1
 10
0.0
 20
0.0
 30
0.0
  3
*D0
  1

  0
LINE
  5
45CDB
100
AcDbEntity
  8
AREA1
 62
     0
100
AcDbLine
 10
-0.924
 20
9.8625
 30
0.0
 11
-0.924
 21
10.713884
 31
0.0
1001
ACAD
1000
RTLwPs
1070
   158
  0
LINE
  5
45CDC
100
AcDbEntity
  8
AREA1
 62
     0
100
AcDbLine
 10
0.236
 20
9.8625
 30
0.0
 11
0.236
 21
10.713884
 31
0.0
1001
ACAD
1000
RTLwPs
1070
   158
  0
LINE
  5
45CDD
100
AcDbEntity
  8
AREA1
 62
     0
100
AcDbLine
 10
-0.794
 20
10.583884
 30
0.0
 11
0.106
 21
10.583884
 31
0.0
1001
ACAD
1000
RTLwPs
1070
   158
  0
LINE
  5
45CDE
100
AcDbEntity
  8
AREA1
 62
     0
100
AcDbLine
 10
0.236
 20
10.583884
 30
0.0
 11
0.366
 21
10.583884
 31
0.0
1001
ACAD
1000
RTLwPs
1070
   158
  0
SOLID
  5
45CDF
100
AcDbEntity
  8
AREA1
 62
     0
100
AcDbTrace
 10
-0.794
 20
10.605551
 30
0.0
 11
-0.794
 21
10.562217
 31
0.0
 12
-0.924
 22
10.583884
 32
0.0
 13
-0.924
 23
10.583884
 33
0.0
  0
SOLID
  5
45CE0
100
AcDbEntity
  8
AREA1
 62
     0
100
AcDbTrace
 10
0.106
 20
10.605551
 30
0.0
 11
0.106
 21
10.562217
 31
0.0
 12
0.236
 22
10.583884
 32
0.0
 13
0.236
 23
10.583884
 33
0.0
  0
MTEXT
  5
45CE1
100
AcDbEntity
  8
AREA1
 62
     0
100
AcDbMText
 10
1.131
 20
10.583884
 30
0.0
 40
0.13
 41
0.0
 71
     5
 72
     1
  1
\A1;1 5/32 [29.5]
1001
ACAD
1000
MTEXTBEGIN
1070
    73
1070
     1
1070
    44
1040
1.0
1070
    74
1070
     0
1000
MTEXTEND
1000
MTEXTBEGIN
1070
    73
1070
     1
1070
    44
1040
1.0
1070
    74
1070
     0
1000
MTEXTEND
1000
MTEXTBEGIN
1070
    73
1070
     1
1070
    44
1040
1.0
1070
    74
1070
     0
1000
MTEXTEND
1000
MTEXTBEGIN
1070
    73
1070
     1
1070
    44
1040
1.0
1070
    74
1070
     0
1000
MTEXTEND
1000
MTEXTBEGIN
1070
    73
1070
     1
1070
    44
1040
1.0
1070
    74
1070
     0
1000
MTEXTEND
  0
POINT
  5
45CE2
100
AcDbEntity
  8
DEFPOINTS
 62
     0
100
AcDbPoint
 10
-0.924
 20
9.8
 30
0.0
  0
POINT
  5
45CE3
100
AcDbEntity
  8
DEFPOINTS
 62
     0
100
AcDbPoint
 10
0.236
 20
9.8
 30
0.0
  0
POINT
  5
45CE4
100
AcDbEntity
  8
DEFPOINTS
 62
     0
100
AcDbPoint
 10
0.236
 20
10.583884
 30
0.0
  0
ENDBLK
  5
45CBE
100
AcDbEntity
  8
0
100
AcDbBlockEnd
  0
BLOCK
  5
45CD9
100
AcDbEntity
  8
0
100
AcDbBlockBegin
  2
*D1
 70
     1
 10
0.0
 20
0.0
 30
0.0
  3
*D1
  1

  0
LINE
  5
45CE5
100
AcDbEntity
  8
AREA1
 62
     0
100
AcDbLine
 10
0.2985
 20
10.017348
 30
0.0
 11
1.364878
 21
10.017348
 31
0.0
1001
ACAD
1000
RTLwPs
1070
   158
  0
LINE
  5
45CE6
100
AcDbEntity
  8
AREA1
 62
     0
100
AcDbLine
 10
0.0965
 20
0.0
 30
0.0
 11
1.364878
 21
0.0
 31
0.0
1001
ACAD
1000
RTLwPs
1070
   158
  0
LINE
  5
45CE7
100
AcDbEntity
  8
AREA1
 62
     0
100
AcDbLine
 10
1.234878
 20
9.887348
 30
0.0
 11
1.234878
 21
5.871174
 31
0.0
1001
ACAD
1000
RTLwPs
1070
   158
  0
LINE
  5
45CE8
100
AcDbEntity
  8
AREA1
 62
     0
100
AcDbLine
 10
1.234878
 20
0.13
 30
0.0
 11
1.234878
 21
4.146174
 31
0.0
1001
ACAD
1000
RTLwPs
1070
   158
  0
SOLID
  5
45CE9
100
AcDbEntity
  8
AREA1
 62
     0
100
AcDbTrace
 10
1.213212
 20
9.887348
 30
0.0
 11
1.256545
 21
9.887348
 31
0.0
 12
1.234878
 22
10.017348
 32
0.0
 13
1.234878
 23
10.017348
 33
0.0
  0
SOLID
  5
45CEA
100
AcDbEntity
  8
AREA1
 62
     0
100
AcDbTrace
 10
1.213212
 20
0.13
 30
0.0
 11
1.256545
 21
0.13
 31
0.0
 12
1.234878
 22
0.0
 32
0.0
 13
1.234878
 23
0.0
 33
0.0
  0
MTEXT
  5
45CEB
100
AcDbEntity
  8
AREA1
 62
     0
100
AcDbMText
 10
1.234878
 20
5.008674
 30
0.0
 40
0.13
 41
0.0
 71
     5
 72
     1
  1
\A1;10 1/64 [254.4]
 11
0.0
 21
1.0
 31
0.0
1001
ACAD
1000
MTEXTBEGIN
1070
    73
1070
     1
1070
    44
1040
1.0
1070
    74
1070
     0
1000
MTEXTEND
1000
MTEXTBEGIN
1070
    73
1070
     1
1070
    44
1040
1.0
1070
    74
1070
     0
1000
MTEXTEND
1000
MTEXTBEGIN
1070
    73
1070
     1
1070
    44
1040
1.0
1070
    74
1070
     0
1000
MTEXTEND
1000
MTEXTBEGIN
1070
    73
1070
     1
1070
    44
1040
1.0
1070
    74
1070
     0
1000
MTEXTEND
1000
MTEXTBEGIN
1070
    73
1070
     1
1070
    44
1040
1.0
1070
    74
1070
     0
1000
MTEXTEND
  0
POINT
  5
45CEC
100
AcDbEntity
  8
DEFPOINTS
 62
     0
100
AcDbPoint
 10
0.236
 20
10.017348
 30
0.0
  0
POINT
  5
45CED
100
AcDbEntity
  8
DEFPOINTS
 62
     0
100
AcDbPoint
 10
0.034
 20
0.0
 30
0.0
  0
POINT
  5
45CEE
100
AcDbEntity
  8
DEFPOINTS
 62
     0
100
AcDbPoint
 10
1.234878
 20
0.0
 30
0.0
  0
ENDBLK
  5
45CDA
100
AcDbEntity
  8
0
100
AcDbBlockEnd
  0
ENDSEC
  0
SECTION
  2
ENTITIES
  0
ATTDEF
  5
1
100
AcDbEntity
  8
ATTRIBUTES
100
AcDbText
 10
-0.898242
 20
1.694043
 30
0.0
 40
0.0855
  1
ALLEN-BRADLEY
100
AcDbAttributeDefinition
  3
MANUFACTURER NAME?
  2
AC_VND_LABEL
 70
     1
  0
ATTDEF
  5
2
100
AcDbEntity
  8
ATTRIBUTES
100
AcDbText
 10
-0.898242
 20
1.515918
 30
0.0
 40
0.0855
  1
1771-DL
100
AcDbAttributeDefinition
  3
CATALOG NUMBER?
  2
AC_PART_NO
 70
     1
  0
ATTDEF
  5
3
100
AcDbEntity
  8
ATTRIBUTES
100
AcDbText
 10
-0.898242
 20
1.337793
 30
0.0
 40
0.0855
  1
1771-DL:GRAY ENCODER (12-24V DC) INPUT MODULE (8-BIT)
100
AcDbAttributeDefinition
  3
PART DESCRIPTION?
  2
AC_DESCRIPTION
 70
     1
  0
ATTDEF
  5
4
100
AcDbEntity
  8
ATTRIBUTES
100
AcDbText
 10
-0.898242
 20
1.159668
 30
0.0
 40
0.0855
  1

100
AcDbAttributeDefinition
  3
DEVICE ID?
  2
DEVICE_ID
 70
     1
  0
ATTDEF
  5
5
100
AcDbEntity
  8
ATTRIBUTES
100
AcDbText
 10
-0.898242
 20
0.981543
 30
0.0
 40
0.0855
  1

100
AcDbAttributeDefinition
  3
CUSTOMER PART NUMBER?
  2
AC_CPART_NO
 70
     1
  0
ATTDEF
  5
6
100
AcDbEntity
  8
ATTRIBUTES
100
AcDbText
 10
-0.898242
 20
0.803418
 30
0.0
 40
0.0855
  1

100
AcDbAttributeDefinition
  3
CUSTOMER NOTE?
  2
AC_NOTE
 70
     1
  0
ATTDEF
  5
7
100
AcDbEntity
  8
ATTRIBUTES
100
AcDbText
 10
-0.898242
 20
0.625293
 30
0.0
 40
0.0855
  1

100
AcDbAttributeDefinition
  3
FASTENER DATA?
  2
FASTENER
 70
     1
  0
ATTDEF
  5
8
100
AcDbEntity
  8
ATTRIBUTES
100
AcDbText
 10
-0.898242
 20
0.447168
 30
0.0
 40
0.0855
  1
INCH
100
AcDbAttributeDefinition
  3
UNIT OF SCALE?
  2
AC_SCALE_UNIT
 70
     1
  0
ATTDEF
  5
9
100
AcDbEntity
  8
ATTRIBUTES
100
AcDbText
 10
-0.898242
 20
0.269043
 30
0.0
 40
0.0855
  1
0
100
AcDbAttributeDefinition
  3
VIEW CODE?
  2
AC_VIEW_CODE
 70
     1
  0
POLYLINE
  5
45B05
100
AcDbEntity
  8
0
100
AcDbPolygonMesh
 66
     1
 10
0.0
 20
0.0
 30
0.0
 70
    16
 71
     6
 72
     3
  0
VERTEX
  5
45B06
100
AcDbEntity
  8
0
100
AcDbVertex
100
AcDbPolygonMeshVertex
 10
0.236
 20
0.2
 30
5.39
 70
    64
  0
VERTEX
  5
45B07
100
AcDbEntity
  8
0
100
AcDbVertex
100
AcDbPolygonMeshVertex
 10
0.236
 20
0.2
 30
0.0
 70
    64
  0
VERTEX
  5
45B08
100
AcDbEntity
  8
0
100
AcDbVertex
100
AcDbPolygonMeshVertex
 10
0.236
 20
0.2
 30
0.0
 70
    64
  0
VERTEX
  5
45B09
100
AcDbEntity
  8
0
100
AcDbVertex
100
AcDbPolygonMeshVertex
 10
-0.924
 20
0.2
 30
5.39
 70
    64
  0
VERTEX
  5
45B0A
100
AcDbEntity
  8
0
100
AcDbVertex
100
AcDbPolygonMeshVertex
 10
-0.924
 20
0.2
 30
0.0
 70
    64
  0
VERTEX
  5
45B0B
100
AcDbEntity
  8
0
100
AcDbVertex
100
AcDbPolygonMeshVertex
 10
-0.924
 20
0.2
 30
0.0
 70
    64
  0
VERTEX
  5
45B0C
100
AcDbEntity
  8
0
100
AcDbVertex
100
AcDbPolygonMeshVertex
 10
-0.924
 20
9.8
 30
5.39
 70
    64
  0
VERTEX
  5
45B0D
100
AcDbEntity
  8
0
100
AcDbVertex
100
AcDbPolygonMeshVertex
 10
-0.924
 20
9.8
 30
0.0
 70
    64
  0
VERTEX
  5
45B0E
100
AcDbEntity
  8
0
100
AcDbVertex
100
AcDbPolygonMeshVertex
 10
-0.924
 20
0.2
 30
0.0
 70
    64
  0
VERTEX
  5
45B0F
100
AcDbEntity
  8
0
100
AcDbVertex
100
AcDbPolygonMeshVertex
 10
0.236
 20
9.8
 30
5.39
 70
    64
  0
VERTEX
  5
45B10
100
AcDbEntity
  8
0
100
AcDbVertex
100
AcDbPolygonMeshVertex
 10
0.236
 20
9.8
 30
0.0
 70
    64
  0
VERTEX
  5
45B11
100
AcDbEntity
  8
0
100
AcDbVertex
100
AcDbPolygonMeshVertex
 10
0.236
 20
0.2
 30
0.0
 70
    64
  0
VERTEX
  5
45B12
100
AcDbEntity
  8
0
100
AcDbVertex
100
AcDbPolygonMeshVertex
 10
0.236
 20
9.8
 30
5.39
 70
    64
  0
VERTEX
  5
45B13
100
AcDbEntity
  8
0
100
AcDbVertex
100
AcDbPolygonMeshVertex
 10
0.236
 20
9.8
 30
5.39
 70
    64
  0
VERTEX
  5
45B14
100
AcDbEntity
  8
0
100
AcDbVertex
100
AcDbPolygonMeshVertex
 10
0.236
 20
0.2
 30
5.39
 70
    64
  0
VERTEX
  5
45B15
100
AcDbEntity
  8
0
100
AcDbVertex
100
AcDbPolygonMeshVertex
 10
-0.924
 20
9.8
 30
5.39
 70
    64
  0
VERTEX
  5
45B16
100
AcDbEntity
  8
0
100
AcDbVertex
100
AcDbPolygonMeshVertex
 10
-0.924
 20
9.8
 30
5.39
 70
    64
  0
VERTEX
  5
45B17
100
AcDbEntity
  8
0
100
AcDbVertex
100
AcDbPolygonMeshVertex
 10
-0.924
 20
0.2
 30
5.39
 70
    64
  0
SEQEND
  5
45B18
100
AcDbEntity
  8
0
  0
POLYLINE
  5
45B19
100
AcDbEntity
  8
0
100
AcDbPolygonMesh
 66
     1
 10
0.0
 20
0.0
 30
0.0
 70
    16
 71
     6
 72
     3
  0
VERTEX
  5
45B1A
100
AcDbEntity
  8
0
100
AcDbVertex
100
AcDbPolygonMeshVertex
 10
0.236
 20
0.2
 30
5.88
 70
    64
  0
VERTEX
  5
45B1B
100
AcDbEntity
  8
0
100
AcDbVertex
100
AcDbPolygonMeshVertex
 10
0.236
 20
0.2
 30
5.39
 70
    64
  0
VERTEX
  5
45B1C
100
AcDbEntity
  8
0
100
AcDbVertex
100
AcDbPolygonMeshVertex
 10
0.236
 20
0.2
 30
5.39
 70
    64
  0
VERTEX
  5
45B1D
100
AcDbEntity
  8
0
100
AcDbVertex
100
AcDbPolygonMeshVertex
 10
-0.924
 20
0.2
 30
5.88
 70
    64
  0
VERTEX
  5
45B1E
100
AcDbEntity
  8
0
100
AcDbVertex
100
AcDbPolygonMeshVertex
 10
-0.924
 20
0.2
 30
5.39
 70
    64
  0
VERTEX
  5
45B1F
100
AcDbEntity
  8
0
100
AcDbVertex
100
AcDbPolygonMeshVertex
 10
-0.924
 20
0.2
 30
5.39
 70
    64
  0
VERTEX
  5
45B20
100
AcDbEntity
  8
0
100
AcDbVertex
100
AcDbPolygonMeshVertex
 10
-0.924
 20
8.912
 30
5.88
 70
    64
  0
VERTEX
  5
45B21
100
AcDbEntity
  8
0
100
AcDbVertex
100
AcDbPolygonMeshVertex
 10
-0.924
 20
8.912
 30
5.39
 70
    64
  0
VERTEX
  5
45B22
100
AcDbEntity
  8
0
100
AcDbVertex
100
AcDbPolygonMeshVertex
 10
-0.924
 20
0.2
 30
5.39
 70
    64
  0
VERTEX
  5
45B23
100
AcDbEntity
  8
0
100
AcDbVertex
100
AcDbPolygonMeshVertex
 10
0.236
 20
8.912
 30
5.88
 70
    64
  0
VERTEX
  5
45B24
100
AcDbEntity
  8
0
100
AcDbVertex
100
AcDbPolygonMeshVertex
 10
0.236
 20
8.912
 30
5.39
 70
    64
  0
VERTEX
  5
45B25
100
AcDbEntity
  8
0
100
AcDbVertex
100
AcDbPolygonMeshVertex
 10
0.236
 20
0.2
 30
5.39
 70
    64
  0
VERTEX
  5
45B26
100
AcDbEntity
  8
0
100
AcDbVertex
100
AcDbPolygonMeshVertex
 10
0.236
 20
8.912
 30
5.88
 70
    64
  0
VERTEX
  5
45B27
100
AcDbEntity
  8
0
100
AcDbVertex
100
AcDbPolygonMeshVertex
 10
0.236
 20
8.912
 30
5.88
 70
    64
  0
VERTEX
  5
45B28
100
AcDbEntity
  8
0
100
AcDbVertex
100
AcDbPolygonMeshVertex
 10
0.236
 20
0.2
 30
5.88
 70
    64
  0
VERTEX
  5
45B29
100
AcDbEntity
  8
0
100
AcDbVertex
100
AcDbPolygonMeshVertex
 10
-0.924
 20
8.912
 30
5.88
 70
    64
  0
VERTEX
  5
45B2A
100
AcDbEntity
  8
0
100
AcDbVertex
100
AcDbPolygonMeshVertex
 10
-0.924
 20
8.912
 30
5.88
 70
    64
  0
VERTEX
  5
45B2B
100
AcDbEntity
  8
0
100
AcDbVertex
100
AcDbPolygonMeshVertex
 10
-0.924
 20
0.2
 30
5.88
 70
    64
  0
SEQEND
  5
45B2C
100
AcDbEntity
  8
0
  0
POLYLINE
  5
45B2D
100
AcDbEntity
  8
0
100
AcDbPolygonMesh
 66
     1
 10
0.0
 20
0.0
 30
0.0
 70
    16
 71
     6
 72
     3
  0
VERTEX
  5
45B2E
100
AcDbEntity
  8
0
100
AcDbVertex
100
AcDbPolygonMeshVertex
 10
0.034
 20
0.0
 30
4.755
 70
    64
  0
VERTEX
  5
45B2F
100
AcDbEntity
  8
0
100
AcDbVertex
100
AcDbPolygonMeshVertex
 10
0.034
 20
0.0
 30
0.0
 70
    64
  0
VERTEX
  5
45B30
100
AcDbEntity
  8
0
100
AcDbVertex
100
AcDbPolygonMeshVertex
 10
0.034
 20
0.0
 30
0.0
 70
    64
  0
VERTEX
  5
45B31
100
AcDbEntity
  8
0
100
AcDbVertex
100
AcDbPolygonMeshVertex
 10
-0.034
 20
0.0
 30
4.755
 70
    64
  0
VERTEX
  5
45B32
100
AcDbEntity
  8
0
100
AcDbVertex
100
AcDbPolygonMeshVertex
 10
-0.034
 20
0.0
 30
0.0
 70
    64
  0
VERTEX
  5
45B33
100
AcDbEntity
  8
0
100
AcDbVertex
100
AcDbPolygonMeshVertex
 10
-0.034
 20
0.0
 30
0.0
 70
    64
  0
VERTEX
  5
45B34
100
AcDbEntity
  8
0
100
AcDbVertex
100
AcDbPolygonMeshVertex
 10
-0.034
 20
0.2
 30
4.755
 70
    64
  0
VERTEX
  5
45B35
100
AcDbEntity
  8
0
100
AcDbVertex
100
AcDbPolygonMeshVertex
 10
-0.034
 20
0.2
 30
0.0
 70
    64
  0
VERTEX
  5
45B36
100
AcDbEntity
  8
0
100
AcDbVertex
100
AcDbPolygonMeshVertex
 10
-0.034
 20
0.0
 30
0.0
 70
    64
  0
VERTEX
  5
45B37
100
AcDbEntity
  8
0
100
AcDbVertex
100
AcDbPolygonMeshVertex
 10
0.034
 20
0.2
 30
4.755
 70
    64
  0
VERTEX
  5
45B38
100
AcDbEntity
  8
0
100
AcDbVertex
100
AcDbPolygonMeshVertex
 10
0.034
 20
0.2
 30
0.0
 70
    64
  0
VERTEX
  5
45B39
100
AcDbEntity
  8
0
100
AcDbVertex
100
AcDbPolygonMeshVertex
 10
0.034
 20
0.0
 30
0.0
 70
    64
  0
VERTEX
  5
45B3A
100
AcDbEntity
  8
0
100
AcDbVertex
100
AcDbPolygonMeshVertex
 10
0.034
 20
0.2
 30
4.755
 70
    64
  0
VERTEX
  5
45B3B
100
AcDbEntity
  8
0
100
AcDbVertex
100
AcDbPolygonMeshVertex
 10
0.034
 20
0.2
 30
4.755
 70
    64
  0
VERTEX
  5
45B3C
100
AcDbEntity
  8
0
100
AcDbVertex
100
AcDbPolygonMeshVertex
 10
0.034
 20
0.0
 30
4.755
 70
    64
  0
VERTEX
  5
45B3D
100
AcDbEntity
  8
0
100
AcDbVertex
100
AcDbPolygonMeshVertex
 10
-0.034
 20
0.2
 30
4.755
 70
    64
  0
VERTEX
  5
45B3E
100
AcDbEntity
  8
0
100
AcDbVertex
100
AcDbPolygonMeshVertex
 10
-0.034
 20
0.2
 30
4.755
 70
    64
  0
VERTEX
  5
45B3F
100
AcDbEntity
  8
0
100
AcDbVertex
100
AcDbPolygonMeshVertex
 10
-0.034
 20
0.0
 30
4.755
 70
    64
  0
SEQEND
  5
45B40
100
AcDbEntity
  8
0
  0
POINT
  5
45B41
100
AcDbEntity
  8
SNAP_POINTS
100
AcDbPoint
 10
0.0
 20
0.0
 30
0.0
  0
LINE
  5
45B42
100
AcDbEntity
  8
0
100
AcDbLine
 10
-0.825725
 20
4.923705
 30
5.88
 11
-0.825725
 21
0.225162
 31
5.88
  0
LINE
  5
45B43
100
AcDbEntity
  8
0
100
AcDbLine
 10
0.043698
 20
4.496749
 30
5.88
 11
0.043698
 21
0.200006
 31
5.88
  0
LINE
  5
45B44
100
AcDbEntity
  8
0
100
AcDbLine
 10
-0.026661
 20
4.496763
 30
5.88
 11
-0.026661
 21
0.200006
 31
5.88
  0
LINE
  5
45B45
100
AcDbEntity
  8
0
100
AcDbLine
 10
-0.700088
 20
4.496763
 30
5.88
 11
0.078874
 21
4.496763
 31
5.88
  0
LINE
  5
45B46
100
AcDbEntity
  8
0
100
AcDbLine
 10
0.078874
 20
4.597224
 30
5.88
 11
-0.700088
 21
4.597224
 31
5.88
  0
LINE
  5
45B47
100
AcDbEntity
  8
0
100
AcDbLine
 10
-0.649833
 20
4.67257
 30
5.88
 11
-0.448809
 21
4.67257
 31
5.88
  0
LINE
  5
45B48
100
AcDbEntity
  8
0
100
AcDbLine
 10
0.235955
 20
4.923721
 30
5.88
 11
-0.92398
 21
4.923721
 31
5.88
  0
LINE
  5
45B49
100
AcDbEntity
  8
0
100
AcDbLine
 10
-0.700088
 20
4.597224
 30
5.88
 11
-0.700088
 21
4.496763
 31
5.88
  0
LINE
  5
45B4A
100
AcDbEntity
  8
0
100
AcDbLine
 10
-0.649833
 20
4.923705
 30
5.88
 11
-0.649833
 21
4.67257
 31
5.88
  0
LINE
  5
45B4B
100
AcDbEntity
  8
0
100
AcDbLine
 10
-0.448809
 20
4.67257
 30
5.88
 11
-0.448809
 21
4.923721
 31
5.88
  0
LINE
  5
45B4C
100
AcDbEntity
  8
0
100
AcDbLine
 10
-0.021636
 20
4.67257
 30
5.88
 11
-0.021636
 21
4.923721
 31
5.88
  0
LINE
  5
45B4D
100
AcDbEntity
  8
0
100
AcDbLine
 10
-0.222657
 20
4.923705
 30
5.88
 11
-0.222657
 21
4.67257
 31
5.88
  0
LINE
  5
45B4E
100
AcDbEntity
  8
0
100
AcDbLine
 10
-0.222657
 20
4.67257
 30
5.88
 11
-0.021636
 21
4.67257
 31
5.88
  0
LINE
  5
45B4F
100
AcDbEntity
  8
0
100
AcDbLine
 10
0.078874
 20
4.597224
 30
5.88
 11
0.078874
 21
4.923721
 31
5.88
  0
LINE
  5
45B50
100
AcDbEntity
  8
0
100
AcDbLine
 10
0.078874
 20
4.496763
 30
5.88
 11
0.078874
 21
4.597224
 31
5.88
  0
POLYLINE
  5
45B51
100
AcDbEntity
  8
0
100
AcDbPolygonMesh
 66
     1
 10
0.0
 20
0.0
 30
0.0
 70
    16
 71
     6
 72
     3
  0
VERTEX
  5
45B52
100
AcDbEntity
  8
0
100
AcDbVertex
100
AcDbPolygonMeshVertex
 10
0.034
 20
9.8
 30
4.755
 70
    64
  0
VERTEX
  5
45B53
100
AcDbEntity
  8
0
100
AcDbVertex
100
AcDbPolygonMeshVertex
 10
0.034
 20
9.8
 30
0.0
 70
    64
  0
VERTEX
  5
45B54
100
AcDbEntity
  8
0
100
AcDbVertex
100
AcDbPolygonMeshVertex
 10
0.034
 20
9.8
 30
0.0
 70
    64
  0
VERTEX
  5
45B55
100
AcDbEntity
  8
0
100
AcDbVertex
100
AcDbPolygonMeshVertex
 10
-0.034
 20
9.8
 30
4.755
 70
    64
  0
VERTEX
  5
45B56
100
AcDbEntity
  8
0
100
AcDbVertex
100
AcDbPolygonMeshVertex
 10
-0.034
 20
9.8
 30
0.0
 70
    64
  0
VERTEX
  5
45B57
100
AcDbEntity
  8
0
100
AcDbVertex
100
AcDbPolygonMeshVertex
 10
-0.034
 20
9.8
 30
0.0
 70
    64
  0
VERTEX
  5
45B58
100
AcDbEntity
  8
0
100
AcDbVertex
100
AcDbPolygonMeshVertex
 10
-0.034
 20
10.0
 30
4.755
 70
    64
  0
VERTEX
  5
45B59
100
AcDbEntity
  8
0
100
AcDbVertex
100
AcDbPolygonMeshVertex
 10
-0.034
 20
10.0
 30
0.0
 70
    64
  0
VERTEX
  5
45B5A
100
AcDbEntity
  8
0
100
AcDbVertex
100
AcDbPolygonMeshVertex
 10
-0.034
 20
9.8
 30
0.0
 70
    64
  0
VERTEX
  5
45B5B
100
AcDbEntity
  8
0
100
AcDbVertex
100
AcDbPolygonMeshVertex
 10
0.034
 20
10.0
 30
4.755
 70
    64
  0
VERTEX
  5
45B5C
100
AcDbEntity
  8
0
100
AcDbVertex
100
AcDbPolygonMeshVertex
 10
0.034
 20
10.0
 30
0.0
 70
    64
  0
VERTEX
  5
45B5D
100
AcDbEntity
  8
0
100
AcDbVertex
100
AcDbPolygonMeshVertex
 10
0.034
 20
9.8
 30
0.0
 70
    64
  0
VERTEX
  5
45B5E
100
AcDbEntity
  8
0
100
AcDbVertex
100
AcDbPolygonMeshVertex
 10
0.034
 20
10.0
 30
4.755
 70
    64
  0
VERTEX
  5
45B5F
100
AcDbEntity
  8
0
100
AcDbVertex
100
AcDbPolygonMeshVertex
 10
0.034
 20
10.0
 30
4.755
 70
    64
  0
VERTEX
  5
45B60
100
AcDbEntity
  8
0
100
AcDbVertex
100
AcDbPolygonMeshVertex
 10
0.034
 20
9.8
 30
4.755
 70
    64
  0
VERTEX
  5
45B61
100
AcDbEntity
  8
0
100
AcDbVertex
100
AcDbPolygonMeshVertex
 10
-0.034
 20
10.0
 30
4.755
 70
    64
  0
VERTEX
  5
45B62
100
AcDbEntity
  8
0
100
AcDbVertex
100
AcDbPolygonMeshVertex
 10
-0.034
 20
10.0
 30
4.755
 70
    64
  0
VERTEX
  5
45B63
100
AcDbEntity
  8
0
100
AcDbVertex
100
AcDbPolygonMeshVertex
 10
-0.034
 20
9.8
 30
4.755
 70
    64
  0
SEQEND
  5
45B64
100
AcDbEntity
  8
0
  0
LINE
  5
45B65
100
AcDbEntity
  8
0
100
AcDbLine
 10
-0.896084
 20
8.34942
 30
5.88
 11
-0.896084
 21
7.862187
 31
5.88
  0
LINE
  5
45B66
100
AcDbEntity
  8
0
100
AcDbLine
 10
0.129133
 20
7.862187
 30
5.88
 11
0.129133
 21
8.34942
 31
5.88
  0
LINE
  5
45B67
100
AcDbEntity
  8
0
100
AcDbLine
 10
-0.896084
 20
7.862187
 30
5.88
 11
0.129133
 21
7.862187
 31
5.88
  0
LINE
  5
45B68
100
AcDbEntity
  8
0
100
AcDbLine
 10
-0.815674
 20
6.747075
 30
5.88
 11
-0.443783
 21
6.747075
 31
5.88
  0
LINE
  5
45B69
100
AcDbEntity
  8
0
100
AcDbLine
 10
-0.815674
 20
5.762564
 30
5.88
 11
-0.443783
 21
5.762564
 31
5.88
  0
LINE
  5
45B6A
100
AcDbEntity
  8
0
100
AcDbLine
 10
-0.815674
 20
5.220078
 30
5.88
 11
-0.443783
 21
5.220078
 31
5.88
  0
LINE
  5
45B6B
100
AcDbEntity
  8
0
100
AcDbLine
 10
-0.473936
 20
5.164826
 30
5.88
 11
-0.795572
 21
5.164826
 31
5.88
  0
LINE
  5
45B6C
100
AcDbEntity
  8
0
100
AcDbLine
 10
-0.473936
 20
7.791865
 30
5.88
 11
-0.795572
 21
7.791865
 31
5.88
  0
LINE
  5
45B6D
100
AcDbEntity
  8
0
100
AcDbLine
 10
-0.815674
 20
7.736611
 30
5.88
 11
-0.443783
 21
7.736611
 31
5.88
  0
LINE
  5
45B6E
100
AcDbEntity
  8
0
100
AcDbLine
 10
-0.881007
 20
7.696426
 30
5.88
 11
-0.881007
 21
5.250216
 31
5.88
  0
LINE
  5
45B6F
100
AcDbEntity
  8
0
100
AcDbLine
 10
-0.815674
 20
7.736611
 30
5.88
 11
-0.815674
 21
5.220078
 31
5.88
  0
LINE
  5
45B70
100
AcDbEntity
  8
0
100
AcDbLine
 10
-0.860905
 20
5.194962
 30
5.88
 11
-0.870955
 21
5.215054
 31
5.88
  0
LINE
  5
45B71
100
AcDbEntity
  8
0
100
AcDbLine
 10
-0.840802
 20
5.174873
 30
5.88
 11
-0.860905
 21
5.194962
 31
5.88
  0
LINE
  5
45B72
100
AcDbEntity
  8
0
100
AcDbLine
 10
-0.815674
 20
5.164826
 30
5.88
 11
-0.840802
 21
5.174873
 31
5.88
  0
LINE
  5
45B73
100
AcDbEntity
  8
0
100
AcDbLine
 10
-0.795572
 20
5.164826
 30
5.88
 11
-0.815674
 21
5.164826
 31
5.88
  0
LINE
  5
45B74
100
AcDbEntity
  8
0
100
AcDbLine
 10
-0.875982
 20
5.235147
 30
5.88
 11
-0.881007
 21
5.260263
 31
5.88
  0
LINE
  5
45B75
100
AcDbEntity
  8
0
100
AcDbLine
 10
-0.870955
 20
5.215054
 30
5.88
 11
-0.875982
 21
5.235147
 31
5.88
  0
LINE
  5
45B76
100
AcDbEntity
  8
0
100
AcDbLine
 10
-0.870955
 20
7.741634
 30
5.88
 11
-0.85588
 21
7.761725
 31
5.88
  0
LINE
  5
45B77
100
AcDbEntity
  8
0
100
AcDbLine
 10
-0.881007
 20
7.721542
 30
5.88
 11
-0.870955
 21
7.741634
 31
5.88
  0
LINE
  5
45B78
100
AcDbEntity
  8
0
100
AcDbLine
 10
-0.881007
 20
7.696426
 30
5.88
 11
-0.881007
 21
7.721542
 31
5.88
  0
LINE
  5
45B79
100
AcDbEntity
  8
0
100
AcDbLine
 10
-0.815674
 20
7.786841
 30
5.88
 11
-0.795572
 21
7.791865
 31
5.88
  0
LINE
  5
45B7A
100
AcDbEntity
  8
0
100
AcDbLine
 10
-0.840802
 20
7.776796
 30
5.88
 11
-0.815674
 21
7.786841
 31
5.88
  0
LINE
  5
45B7B
100
AcDbEntity
  8
0
100
AcDbLine
 10
-0.85588
 20
7.761725
 30
5.88
 11
-0.840802
 21
7.776796
 31
5.88
  0
LINE
  5
45B7C
100
AcDbEntity
  8
0
100
AcDbLine
 10
-0.293016
 20
5.260263
 30
5.88
 11
-0.293016
 21
7.776796
 31
5.88
  0
LINE
  5
45B7D
100
AcDbEntity
  8
0
100
AcDbLine
 10
-0.041738
 20
7.776796
 30
5.88
 11
-0.041738
 21
5.260263
 31
5.88
  0
LINE
  5
45B7E
100
AcDbEntity
  8
0
100
AcDbLine
 10
-0.388501
 20
7.696426
 30
5.88
 11
-0.388501
 21
5.24017
 31
5.88
  0
LINE
  5
45B7F
100
AcDbEntity
  8
0
100
AcDbLine
 10
-0.443783
 20
7.736611
 30
5.88
 11
-0.443783
 21
5.220078
 31
5.88
  0
LINE
  5
45B80
100
AcDbEntity
  8
0
100
AcDbLine
 10
-0.257836
 20
5.777633
 30
5.88
 11
-0.247785
 21
5.797725
 31
5.88
  0
LINE
  5
45B81
100
AcDbEntity
  8
0
100
AcDbLine
 10
-0.157326
 20
5.792702
 30
5.88
 11
-0.147273
 21
5.777633
 31
5.88
  0
LINE
  5
45B82
100
AcDbEntity
  8
0
100
AcDbLine
 10
-0.227683
 20
5.777633
 30
5.88
 11
-0.217634
 21
5.792702
 31
5.88
  0
LINE
  5
45B83
100
AcDbEntity
  8
0
100
AcDbLine
 10
-0.041738
 20
5.260263
 30
5.88
 11
-0.293016
 21
5.260263
 31
5.88
  0
LINE
  5
45B84
100
AcDbEntity
  8
0
100
AcDbLine
 10
-0.398554
 20
5.210034
 30
5.88
 11
-0.413628
 21
5.189942
 31
5.88
  0
LINE
  5
45B85
100
AcDbEntity
  8
0
100
AcDbLine
 10
-0.453834
 20
5.164826
 30
5.88
 11
-0.473936
 21
5.164826
 31
5.88
  0
LINE
  5
45B86
100
AcDbEntity
  8
0
100
AcDbLine
 10
-0.428707
 20
5.174873
 30
5.88
 11
-0.453834
 21
5.164826
 31
5.88
  0
LINE
  5
45B87
100
AcDbEntity
  8
0
100
AcDbLine
 10
-0.413628
 20
5.189942
 30
5.88
 11
-0.428707
 21
5.174873
 31
5.88
  0
LINE
  5
45B88
100
AcDbEntity
  8
0
100
AcDbLine
 10
-0.388501
 20
5.235147
 30
5.88
 11
-0.398554
 21
5.210034
 31
5.88
  0
LINE
  5
45B89
100
AcDbEntity
  8
0
100
AcDbLine
 10
-0.388501
 20
5.260263
 30
5.88
 11
-0.388501
 21
5.235147
 31
5.88
  0
LINE
  5
45B8A
100
AcDbEntity
  8
0
100
AcDbLine
 10
-0.182453
 20
5.426021
 30
5.88
 11
-0.041738
 21
5.426021
 31
5.88
  0
LINE
  5
45B8B
100
AcDbEntity
  8
0
100
AcDbLine
 10
-0.187479
 20
5.57169
 30
5.88
 11
-0.041738
 21
5.57169
 31
5.88
  0
LINE
  5
45B8C
100
AcDbEntity
  8
0
100
AcDbLine
 10
-0.212606
 20
5.566666
 30
5.88
 11
-0.187479
 21
5.57169
 31
5.88
  0
LINE
  5
45B8D
100
AcDbEntity
  8
0
100
AcDbLine
 10
-0.232708
 20
5.551597
 30
5.88
 11
-0.212606
 21
5.566666
 31
5.88
  0
LINE
  5
45B8E
100
AcDbEntity
  8
0
100
AcDbLine
 10
-0.247785
 20
5.536528
 30
5.88
 11
-0.232708
 21
5.551597
 31
5.88
  0
LINE
  5
45B8F
100
AcDbEntity
  8
0
100
AcDbLine
 10
-0.257836
 20
5.516436
 30
5.88
 11
-0.247785
 21
5.536528
 31
5.88
  0
LINE
  5
45B90
100
AcDbEntity
  8
0
100
AcDbLine
 10
-0.257836
 20
5.491322
 30
5.88
 11
-0.257836
 21
5.516436
 31
5.88
  0
LINE
  5
45B91
100
AcDbEntity
  8
0
100
AcDbLine
 10
-0.25281
 20
5.471229
 30
5.88
 11
-0.257836
 21
5.491322
 31
5.88
  0
LINE
  5
45B92
100
AcDbEntity
  8
0
100
AcDbLine
 10
-0.242761
 20
5.451137
 30
5.88
 11
-0.25281
 21
5.471229
 31
5.88
  0
LINE
  5
45B93
100
AcDbEntity
  8
0
100
AcDbLine
 10
-0.227683
 20
5.43607
 30
5.88
 11
-0.242761
 21
5.451137
 31
5.88
  0
LINE
  5
45B94
100
AcDbEntity
  8
0
100
AcDbLine
 10
-0.202555
 20
5.426021
 30
5.88
 11
-0.227683
 21
5.43607
 31
5.88
  0
LINE
  5
45B95
100
AcDbEntity
  8
0
100
AcDbLine
 10
-0.182453
 20
5.426021
 30
5.88
 11
-0.202555
 21
5.426021
 31
5.88
  0
LINE
  5
45B96
100
AcDbEntity
  8
0
100
AcDbLine
 10
-0.227683
 20
5.481275
 30
5.88
 11
-0.232708
 21
5.496343
 31
5.88
  0
LINE
  5
45B97
100
AcDbEntity
  8
0
100
AcDbLine
 10
-0.217634
 20
5.466206
 30
5.88
 11
-0.227683
 21
5.481275
 31
5.88
  0
LINE
  5
45B98
100
AcDbEntity
  8
0
100
AcDbLine
 10
-0.202555
 20
5.456162
 30
5.88
 11
-0.217634
 21
5.466206
 31
5.88
  0
LINE
  5
45B99
100
AcDbEntity
  8
0
100
AcDbLine
 10
-0.187479
 20
5.451137
 30
5.88
 11
-0.202555
 21
5.456162
 31
5.88
  0
LINE
  5
45B9A
100
AcDbEntity
  8
0
100
AcDbLine
 10
-0.167375
 20
5.456162
 30
5.88
 11
-0.187479
 21
5.451137
 31
5.88
  0
LINE
  5
45B9B
100
AcDbEntity
  8
0
100
AcDbLine
 10
-0.157326
 20
5.466206
 30
5.88
 11
-0.167375
 21
5.456162
 31
5.88
  0
LINE
  5
45B9C
100
AcDbEntity
  8
0
100
AcDbLine
 10
-0.147273
 20
5.481275
 30
5.88
 11
-0.157326
 21
5.466206
 31
5.88
  0
LINE
  5
45B9D
100
AcDbEntity
  8
0
100
AcDbLine
 10
-0.142248
 20
5.496343
 30
5.88
 11
-0.147273
 21
5.481275
 31
5.88
  0
LINE
  5
45B9E
100
AcDbEntity
  8
0
100
AcDbLine
 10
-0.147273
 20
5.516436
 30
5.88
 11
-0.142248
 21
5.496343
 31
5.88
  0
LINE
  5
45B9F
100
AcDbEntity
  8
0
100
AcDbLine
 10
-0.157326
 20
5.526483
 30
5.88
 11
-0.147273
 21
5.516436
 31
5.88
  0
LINE
  5
45BA0
100
AcDbEntity
  8
0
100
AcDbLine
 10
-0.167375
 20
5.536528
 30
5.88
 11
-0.157326
 21
5.526483
 31
5.88
  0
LINE
  5
45BA1
100
AcDbEntity
  8
0
100
AcDbLine
 10
-0.187479
 20
5.541552
 30
5.88
 11
-0.167375
 21
5.536528
 31
5.88
  0
LINE
  5
45BA2
100
AcDbEntity
  8
0
100
AcDbLine
 10
-0.202555
 20
5.536528
 30
5.88
 11
-0.187479
 21
5.541552
 31
5.88
  0
LINE
  5
45BA3
100
AcDbEntity
  8
0
100
AcDbLine
 10
-0.217634
 20
5.526483
 30
5.88
 11
-0.202555
 21
5.536528
 31
5.88
  0
LINE
  5
45BA4
100
AcDbEntity
  8
0
100
AcDbLine
 10
-0.227683
 20
5.516436
 30
5.88
 11
-0.217634
 21
5.526483
 31
5.88
  0
LINE
  5
45BA5
100
AcDbEntity
  8
0
100
AcDbLine
 10
-0.232708
 20
5.496343
 30
5.88
 11
-0.227683
 21
5.516436
 31
5.88
  0
LINE
  5
45BA6
100
AcDbEntity
  8
0
100
AcDbLine
 10
-0.182453
 20
5.687217
 30
5.88
 11
-0.041738
 21
5.687217
 31
5.88
  0
LINE
  5
45BA7
100
AcDbEntity
  8
0
100
AcDbLine
 10
-0.257836
 20
5.752519
 30
5.88
 11
-0.257836
 21
5.777633
 31
5.88
  0
LINE
  5
45BA8
100
AcDbEntity
  8
0
100
AcDbLine
 10
-0.25281
 20
5.732426
 30
5.88
 11
-0.257836
 21
5.752519
 31
5.88
  0
LINE
  5
45BA9
100
AcDbEntity
  8
0
100
AcDbLine
 10
-0.242761
 20
5.712334
 30
5.88
 11
-0.25281
 21
5.732426
 31
5.88
  0
LINE
  5
45BAA
100
AcDbEntity
  8
0
100
AcDbLine
 10
-0.227683
 20
5.697265
 30
5.88
 11
-0.242761
 21
5.712334
 31
5.88
  0
LINE
  5
45BAB
100
AcDbEntity
  8
0
100
AcDbLine
 10
-0.202555
 20
5.687217
 30
5.88
 11
-0.227683
 21
5.697265
 31
5.88
  0
LINE
  5
45BAC
100
AcDbEntity
  8
0
100
AcDbLine
 10
-0.182453
 20
5.687217
 30
5.88
 11
-0.202555
 21
5.687217
 31
5.88
  0
LINE
  5
45BAD
100
AcDbEntity
  8
0
100
AcDbLine
 10
-0.227683
 20
5.742471
 30
5.88
 11
-0.232708
 21
5.75754
 31
5.88
  0
LINE
  5
45BAE
100
AcDbEntity
  8
0
100
AcDbLine
 10
-0.217634
 20
5.727402
 30
5.88
 11
-0.227683
 21
5.742471
 31
5.88
  0
LINE
  5
45BAF
100
AcDbEntity
  8
0
100
AcDbLine
 10
-0.202555
 20
5.717357
 30
5.88
 11
-0.217634
 21
5.727402
 31
5.88
  0
LINE
  5
45BB0
100
AcDbEntity
  8
0
100
AcDbLine
 10
-0.187479
 20
5.712334
 30
5.88
 11
-0.202555
 21
5.717357
 31
5.88
  0
LINE
  5
45BB1
100
AcDbEntity
  8
0
100
AcDbLine
 10
-0.167375
 20
5.717357
 30
5.88
 11
-0.187479
 21
5.712334
 31
5.88
  0
LINE
  5
45BB2
100
AcDbEntity
  8
0
100
AcDbLine
 10
-0.157326
 20
5.727402
 30
5.88
 11
-0.167375
 21
5.717357
 31
5.88
  0
LINE
  5
45BB3
100
AcDbEntity
  8
0
100
AcDbLine
 10
-0.147273
 20
5.742471
 30
5.88
 11
-0.157326
 21
5.727402
 31
5.88
  0
LINE
  5
45BB4
100
AcDbEntity
  8
0
100
AcDbLine
 10
-0.142248
 20
5.75754
 30
5.88
 11
-0.147273
 21
5.742471
 31
5.88
  0
LINE
  5
45BB5
100
AcDbEntity
  8
0
100
AcDbLine
 10
-0.147273
 20
5.777633
 30
5.88
 11
-0.142248
 21
5.75754
 31
5.88
  0
LINE
  5
45BB6
100
AcDbEntity
  8
0
100
AcDbLine
 10
-0.232708
 20
5.75754
 30
5.88
 11
-0.227683
 21
5.777633
 31
5.88
  0
LINE
  5
45BB7
100
AcDbEntity
  8
0
100
AcDbLine
 10
-0.227683
 20
6.184497
 30
5.88
 11
-0.207581
 21
6.179473
 31
5.88
  0
LINE
  5
45BB8
100
AcDbEntity
  8
0
100
AcDbLine
 10
-0.242761
 20
6.179473
 30
5.88
 11
-0.227683
 21
6.184497
 31
5.88
  0
LINE
  5
45BB9
100
AcDbEntity
  8
0
100
AcDbLine
 10
-0.03671
 20
6.063946
 30
5.88
 11
-0.282963
 21
6.063946
 31
5.88
  0
LINE
  5
45BBA
100
AcDbEntity
  8
0
100
AcDbLine
 10
-0.262863
 20
6.124223
 30
5.88
 11
-0.267889
 21
6.144314
 31
5.88
  0
LINE
  5
45BBB
100
AcDbEntity
  8
0
100
AcDbLine
 10
-0.267889
 20
6.144314
 30
5.88
 11
-0.262863
 21
6.159385
 31
5.88
  0
LINE
  5
45BBC
100
AcDbEntity
  8
0
100
AcDbLine
 10
-0.187479
 20
5.832887
 30
5.88
 11
-0.041738
 21
5.832887
 31
5.88
  0
LINE
  5
45BBD
100
AcDbEntity
  8
0
100
AcDbLine
 10
-0.212606
 20
5.827863
 30
5.88
 11
-0.187479
 21
5.832887
 31
5.88
  0
LINE
  5
45BBE
100
AcDbEntity
  8
0
100
AcDbLine
 10
-0.232708
 20
5.812794
 30
5.88
 11
-0.212606
 21
5.827863
 31
5.88
  0
LINE
  5
45BBF
100
AcDbEntity
  8
0
100
AcDbLine
 10
-0.247785
 20
5.797725
 30
5.88
 11
-0.232708
 21
5.812794
 31
5.88
  0
LINE
  5
45BC0
100
AcDbEntity
  8
0
100
AcDbLine
 10
-0.167375
 20
5.802749
 30
5.88
 11
-0.157326
 21
5.792702
 31
5.88
  0
LINE
  5
45BC1
100
AcDbEntity
  8
0
100
AcDbLine
 10
-0.187479
 20
5.802749
 30
5.88
 11
-0.167375
 21
5.802749
 31
5.88
  0
LINE
  5
45BC2
100
AcDbEntity
  8
0
100
AcDbLine
 10
-0.202555
 20
5.802749
 30
5.88
 11
-0.187479
 21
5.802749
 31
5.88
  0
LINE
  5
45BC3
100
AcDbEntity
  8
0
100
AcDbLine
 10
-0.217634
 20
5.792702
 30
5.88
 11
-0.202555
 21
5.802749
 31
5.88
  0
LINE
  5
45BC4
100
AcDbEntity
  8
0
100
AcDbLine
 10
-0.137224
 20
6.129245
 30
5.88
 11
-0.142248
 21
6.144314
 31
5.88
  0
LINE
  5
45BC5
100
AcDbEntity
  8
0
100
AcDbLine
 10
-0.142248
 20
6.144314
 30
5.88
 11
-0.137224
 21
6.154361
 31
5.88
  0
LINE
  5
45BC6
100
AcDbEntity
  8
0
100
AcDbLine
 10
-0.202555
 20
6.104131
 30
5.88
 11
-0.247785
 21
6.179473
 31
5.88
  0
LINE
  5
45BC7
100
AcDbEntity
  8
0
100
AcDbLine
 10
-0.257836
 20
6.109152
 30
5.88
 11
-0.262863
 21
6.124223
 31
5.88
  0
LINE
  5
45BC8
100
AcDbEntity
  8
0
100
AcDbLine
 10
-0.242761
 20
6.104131
 30
5.88
 11
-0.257836
 21
6.109152
 31
5.88
  0
LINE
  5
45BC9
100
AcDbEntity
  8
0
100
AcDbLine
 10
-0.227683
 20
6.099107
 30
5.88
 11
-0.242761
 21
6.104131
 31
5.88
  0
LINE
  5
45BCA
100
AcDbEntity
  8
0
100
AcDbLine
 10
-0.207581
 20
6.104131
 30
5.88
 11
-0.227683
 21
6.099107
 31
5.88
  0
LINE
  5
45BCB
100
AcDbEntity
  8
0
100
AcDbLine
 10
-0.192503
 20
6.109152
 30
5.88
 11
-0.207581
 21
6.104131
 31
5.88
  0
LINE
  5
45BCC
100
AcDbEntity
  8
0
100
AcDbLine
 10
-0.187479
 20
6.124223
 30
5.88
 11
-0.192503
 21
6.109152
 31
5.88
  0
LINE
  5
45BCD
100
AcDbEntity
  8
0
100
AcDbLine
 10
-0.182453
 20
6.144314
 30
5.88
 11
-0.187479
 21
6.124223
 31
5.88
  0
LINE
  5
45BCE
100
AcDbEntity
  8
0
100
AcDbLine
 10
-0.187479
 20
6.159385
 30
5.88
 11
-0.182453
 21
6.144314
 31
5.88
  0
LINE
  5
45BCF
100
AcDbEntity
  8
0
100
AcDbLine
 10
-0.192503
 20
6.174453
 30
5.88
 11
-0.187479
 21
6.159385
 31
5.88
  0
LINE
  5
45BD0
100
AcDbEntity
  8
0
100
AcDbLine
 10
-0.207581
 20
6.179473
 30
5.88
 11
-0.192503
 21
6.174453
 31
5.88
  0
LINE
  5
45BD1
100
AcDbEntity
  8
0
100
AcDbLine
 10
-0.257836
 20
6.174453
 30
5.88
 11
-0.242761
 21
6.179473
 31
5.88
  0
LINE
  5
45BD2
100
AcDbEntity
  8
0
100
AcDbLine
 10
-0.262863
 20
6.159385
 30
5.88
 11
-0.257836
 21
6.174453
 31
5.88
  0
LINE
  5
45BD3
100
AcDbEntity
  8
0
100
AcDbLine
 10
-0.127173
 20
6.114176
 30
5.88
 11
-0.137224
 21
6.129245
 31
5.88
  0
LINE
  5
45BD4
100
AcDbEntity
  8
0
100
AcDbLine
 10
-0.11712
 20
6.109152
 30
5.88
 11
-0.127173
 21
6.114176
 31
5.88
  0
LINE
  5
45BD5
100
AcDbEntity
  8
0
100
AcDbLine
 10
-0.102044
 20
6.114176
 30
5.88
 11
-0.11712
 21
6.109152
 31
5.88
  0
LINE
  5
45BD6
100
AcDbEntity
  8
0
100
AcDbLine
 10
-0.086967
 20
6.1192
 30
5.88
 11
-0.102044
 21
6.114176
 31
5.88
  0
LINE
  5
45BD7
100
AcDbEntity
  8
0
100
AcDbLine
 10
-0.081943
 20
6.134268
 30
5.88
 11
-0.086967
 21
6.1192
 31
5.88
  0
LINE
  5
45BD8
100
AcDbEntity
  8
0
100
AcDbLine
 10
-0.081943
 20
6.149337
 30
5.88
 11
-0.081943
 21
6.134268
 31
5.88
  0
LINE
  5
45BD9
100
AcDbEntity
  8
0
100
AcDbLine
 10
-0.086967
 20
6.164406
 30
5.88
 11
-0.081943
 21
6.149337
 31
5.88
  0
LINE
  5
45BDA
100
AcDbEntity
  8
0
100
AcDbLine
 10
-0.102044
 20
6.16943
 30
5.88
 11
-0.086967
 21
6.164406
 31
5.88
  0
LINE
  5
45BDB
100
AcDbEntity
  8
0
100
AcDbLine
 10
-0.11712
 20
6.174453
 30
5.88
 11
-0.102044
 21
6.16943
 31
5.88
  0
LINE
  5
45BDC
100
AcDbEntity
  8
0
100
AcDbLine
 10
-0.127173
 20
6.16943
 30
5.88
 11
-0.11712
 21
6.174453
 31
5.88
  0
LINE
  5
45BDD
100
AcDbEntity
  8
0
100
AcDbLine
 10
-0.137224
 20
6.154361
 30
5.88
 11
-0.127173
 21
6.16943
 31
5.88
  0
LINE
  5
45BDE
100
AcDbEntity
  8
0
100
AcDbLine
 10
-0.287991
 20
6.214635
 30
5.88
 11
-0.041738
 21
6.214635
 31
5.88
  0
LINE
  5
45BDF
100
AcDbEntity
  8
0
100
AcDbLine
 10
-0.041738
 20
6.38542
 30
5.88
 11
-0.287991
 21
6.38542
 31
5.88
  0
LINE
  5
45BE0
100
AcDbEntity
  8
0
100
AcDbLine
 10
-0.293016
 20
6.536109
 30
5.88
 11
-0.041738
 21
6.536109
 31
5.88
  0
LINE
  5
45BE1
100
AcDbEntity
  8
0
100
AcDbLine
 10
-0.257836
 20
6.430625
 30
5.88
 11
-0.267889
 21
6.445694
 31
5.88
  0
LINE
  5
45BE2
100
AcDbEntity
  8
0
100
AcDbLine
 10
-0.267889
 20
6.480855
 30
5.88
 11
-0.257836
 21
6.490902
 31
5.88
  0
LINE
  5
45BE3
100
AcDbEntity
  8
0
100
AcDbLine
 10
-0.267889
 20
6.445694
 30
5.88
 11
-0.272912
 21
6.460763
 31
5.88
  0
LINE
  5
45BE4
100
AcDbEntity
  8
0
100
AcDbLine
 10
-0.272912
 20
6.460763
 30
5.88
 11
-0.267889
 21
6.480855
 31
5.88
  0
LINE
  5
45BE5
100
AcDbEntity
  8
0
100
AcDbLine
 10
-0.132198
 20
6.43565
 30
5.88
 11
-0.142248
 21
6.445694
 31
5.88
  0
LINE
  5
45BE6
100
AcDbEntity
  8
0
100
AcDbLine
 10
-0.142248
 20
6.475833
 30
5.88
 11
-0.132198
 21
6.490902
 31
5.88
  0
LINE
  5
45BE7
100
AcDbEntity
  8
0
100
AcDbLine
 10
-0.207581
 20
6.425601
 30
5.88
 11
-0.25281
 21
6.500948
 31
5.88
  0
LINE
  5
45BE8
100
AcDbEntity
  8
0
100
AcDbLine
 10
-0.142248
 20
6.445694
 30
5.88
 11
-0.147273
 21
6.460763
 31
5.88
  0
LINE
  5
45BE9
100
AcDbEntity
  8
0
100
AcDbLine
 10
-0.147273
 20
6.460763
 30
5.88
 11
-0.142248
 21
6.475833
 31
5.88
  0
LINE
  5
45BEA
100
AcDbEntity
  8
0
100
AcDbLine
 10
-0.247785
 20
6.420581
 30
5.88
 11
-0.257836
 21
6.430625
 31
5.88
  0
LINE
  5
45BEB
100
AcDbEntity
  8
0
100
AcDbLine
 10
-0.227683
 20
6.420581
 30
5.88
 11
-0.247785
 21
6.420581
 31
5.88
  0
LINE
  5
45BEC
100
AcDbEntity
  8
0
100
AcDbLine
 10
-0.212606
 20
6.420581
 30
5.88
 11
-0.227683
 21
6.420581
 31
5.88
  0
LINE
  5
45BED
100
AcDbEntity
  8
0
100
AcDbLine
 10
-0.19753
 20
6.430625
 30
5.88
 11
-0.212606
 21
6.420581
 31
5.88
  0
LINE
  5
45BEE
100
AcDbEntity
  8
0
100
AcDbLine
 10
-0.187479
 20
6.445694
 30
5.88
 11
-0.19753
 21
6.430625
 31
5.88
  0
LINE
  5
45BEF
100
AcDbEntity
  8
0
100
AcDbLine
 10
-0.187479
 20
6.460763
 30
5.88
 11
-0.187479
 21
6.445694
 31
5.88
  0
LINE
  5
45BF0
100
AcDbEntity
  8
0
100
AcDbLine
 10
-0.187479
 20
6.480855
 30
5.88
 11
-0.187479
 21
6.460763
 31
5.88
  0
LINE
  5
45BF1
100
AcDbEntity
  8
0
100
AcDbLine
 10
-0.19753
 20
6.490902
 30
5.88
 11
-0.187479
 21
6.480855
 31
5.88
  0
LINE
  5
45BF2
100
AcDbEntity
  8
0
100
AcDbLine
 10
-0.212606
 20
6.500948
 30
5.88
 11
-0.19753
 21
6.490902
 31
5.88
  0
LINE
  5
45BF3
100
AcDbEntity
  8
0
100
AcDbLine
 10
-0.227683
 20
6.505971
 30
5.88
 11
-0.212606
 21
6.500948
 31
5.88
  0
LINE
  5
45BF4
100
AcDbEntity
  8
0
100
AcDbLine
 10
-0.247785
 20
6.500948
 30
5.88
 11
-0.227683
 21
6.505971
 31
5.88
  0
LINE
  5
45BF5
100
AcDbEntity
  8
0
100
AcDbLine
 10
-0.257836
 20
6.490902
 30
5.88
 11
-0.247785
 21
6.500948
 31
5.88
  0
LINE
  5
45BF6
100
AcDbEntity
  8
0
100
AcDbLine
 10
-0.11712
 20
6.430625
 30
5.88
 11
-0.132198
 21
6.43565
 31
5.88
  0
LINE
  5
45BF7
100
AcDbEntity
  8
0
100
AcDbLine
 10
-0.102044
 20
6.430625
 30
5.88
 11
-0.11712
 21
6.430625
 31
5.88
  0
LINE
  5
45BF8
100
AcDbEntity
  8
0
100
AcDbLine
 10
-0.091993
 20
6.440674
 30
5.88
 11
-0.102044
 21
6.430625
 31
5.88
  0
LINE
  5
45BF9
100
AcDbEntity
  8
0
100
AcDbLine
 10
-0.081943
 20
6.455741
 30
5.88
 11
-0.091993
 21
6.440674
 31
5.88
  0
LINE
  5
45BFA
100
AcDbEntity
  8
0
100
AcDbLine
 10
-0.081943
 20
6.47081
 30
5.88
 11
-0.081943
 21
6.455741
 31
5.88
  0
LINE
  5
45BFB
100
AcDbEntity
  8
0
100
AcDbLine
 10
-0.091993
 20
6.485879
 30
5.88
 11
-0.081943
 21
6.47081
 31
5.88
  0
LINE
  5
45BFC
100
AcDbEntity
  8
0
100
AcDbLine
 10
-0.102044
 20
6.490902
 30
5.88
 11
-0.091993
 21
6.485879
 31
5.88
  0
LINE
  5
45BFD
100
AcDbEntity
  8
0
100
AcDbLine
 10
-0.11712
 20
6.495924
 30
5.88
 11
-0.102044
 21
6.490902
 31
5.88
  0
LINE
  5
45BFE
100
AcDbEntity
  8
0
100
AcDbLine
 10
-0.132198
 20
6.490902
 30
5.88
 11
-0.11712
 21
6.495924
 31
5.88
  0
LINE
  5
45BFF
100
AcDbEntity
  8
0
100
AcDbLine
 10
-0.247785
 20
7.344815
 30
5.88
 11
-0.232708
 21
7.364908
 31
5.88
  0
LINE
  5
45C00
100
AcDbEntity
  8
0
100
AcDbLine
 10
-0.046763
 20
6.70689
 30
5.88
 11
-0.293016
 21
6.70689
 31
5.88
  0
LINE
  5
45C01
100
AcDbEntity
  8
0
100
AcDbLine
 10
-0.293016
 20
6.857583
 30
5.88
 11
-0.046763
 21
6.857583
 31
5.88
  0
LINE
  5
45C02
100
AcDbEntity
  8
0
100
AcDbLine
 10
-0.262863
 20
6.752099
 30
5.88
 11
-0.272912
 21
6.767168
 31
5.88
  0
LINE
  5
45C03
100
AcDbEntity
  8
0
100
AcDbLine
 10
-0.272912
 20
6.802329
 30
5.88
 11
-0.262863
 21
6.812375
 31
5.88
  0
LINE
  5
45C04
100
AcDbEntity
  8
0
100
AcDbLine
 10
-0.272912
 20
6.767168
 30
5.88
 11
-0.277938
 21
6.782237
 31
5.88
  0
LINE
  5
45C05
100
AcDbEntity
  8
0
100
AcDbLine
 10
-0.277938
 20
6.782237
 30
5.88
 11
-0.272912
 21
6.802329
 31
5.88
  0
LINE
  5
45C06
100
AcDbEntity
  8
0
100
AcDbLine
 10
-0.212606
 20
6.747075
 30
5.88
 11
-0.25281
 21
6.822422
 31
5.88
  0
LINE
  5
45C07
100
AcDbEntity
  8
0
100
AcDbLine
 10
-0.147273
 20
6.767168
 30
5.88
 11
-0.1523
 21
6.782237
 31
5.88
  0
LINE
  5
45C08
100
AcDbEntity
  8
0
100
AcDbLine
 10
-0.086967
 20
6.777213
 30
5.88
 11
-0.097018
 21
6.762144
 31
5.88
  0
LINE
  5
45C09
100
AcDbEntity
  8
0
100
AcDbLine
 10
-0.187479
 20
6.782237
 30
5.88
 11
-0.192503
 21
6.767168
 31
5.88
  0
LINE
  5
45C0A
100
AcDbEntity
  8
0
100
AcDbLine
 10
-0.137224
 20
6.757123
 30
5.88
 11
-0.147273
 21
6.767168
 31
5.88
  0
LINE
  5
45C0B
100
AcDbEntity
  8
0
100
AcDbLine
 10
-0.247785
 20
6.742052
 30
5.88
 11
-0.262863
 21
6.752099
 31
5.88
  0
LINE
  5
45C0C
100
AcDbEntity
  8
0
100
AcDbLine
 10
-0.232708
 20
6.742052
 30
5.88
 11
-0.247785
 21
6.742052
 31
5.88
  0
LINE
  5
45C0D
100
AcDbEntity
  8
0
100
AcDbLine
 10
-0.217634
 20
6.742052
 30
5.88
 11
-0.232708
 21
6.742052
 31
5.88
  0
LINE
  5
45C0E
100
AcDbEntity
  8
0
100
AcDbLine
 10
-0.202555
 20
6.752099
 30
5.88
 11
-0.217634
 21
6.742052
 31
5.88
  0
LINE
  5
45C0F
100
AcDbEntity
  8
0
100
AcDbLine
 10
-0.192503
 20
6.767168
 30
5.88
 11
-0.202555
 21
6.752099
 31
5.88
  0
LINE
  5
45C10
100
AcDbEntity
  8
0
100
AcDbLine
 10
-0.122146
 20
6.752099
 30
5.88
 11
-0.137224
 21
6.757123
 31
5.88
  0
LINE
  5
45C11
100
AcDbEntity
  8
0
100
AcDbLine
 10
-0.107071
 20
6.752099
 30
5.88
 11
-0.122146
 21
6.752099
 31
5.88
  0
LINE
  5
45C12
100
AcDbEntity
  8
0
100
AcDbLine
 10
-0.097018
 20
6.762144
 30
5.88
 11
-0.107071
 21
6.752099
 31
5.88
  0
LINE
  5
45C13
100
AcDbEntity
  8
0
100
AcDbLine
 10
-0.147273
 20
6.797306
 30
5.88
 11
-0.137224
 21
6.807353
 31
5.88
  0
LINE
  5
45C14
100
AcDbEntity
  8
0
100
AcDbLine
 10
-0.1523
 20
6.782237
 30
5.88
 11
-0.147273
 21
6.797306
 31
5.88
  0
LINE
  5
45C15
100
AcDbEntity
  8
0
100
AcDbLine
 10
-0.192503
 20
6.802329
 30
5.88
 11
-0.187479
 21
6.782237
 31
5.88
  0
LINE
  5
45C16
100
AcDbEntity
  8
0
100
AcDbLine
 10
-0.202555
 20
6.812375
 30
5.88
 11
-0.192503
 21
6.802329
 31
5.88
  0
LINE
  5
45C17
100
AcDbEntity
  8
0
100
AcDbLine
 10
-0.217634
 20
6.822422
 30
5.88
 11
-0.202555
 21
6.812375
 31
5.88
  0
LINE
  5
45C18
100
AcDbEntity
  8
0
100
AcDbLine
 10
-0.232708
 20
6.827445
 30
5.88
 11
-0.217634
 21
6.822422
 31
5.88
  0
LINE
  5
45C19
100
AcDbEntity
  8
0
100
AcDbLine
 10
-0.247785
 20
6.822422
 30
5.88
 11
-0.232708
 21
6.827445
 31
5.88
  0
LINE
  5
45C1A
100
AcDbEntity
  8
0
100
AcDbLine
 10
-0.262863
 20
6.812375
 30
5.88
 11
-0.247785
 21
6.822422
 31
5.88
  0
LINE
  5
45C1B
100
AcDbEntity
  8
0
100
AcDbLine
 10
-0.086967
 20
6.792284
 30
5.88
 11
-0.086967
 21
6.777213
 31
5.88
  0
LINE
  5
45C1C
100
AcDbEntity
  8
0
100
AcDbLine
 10
-0.097018
 20
6.802329
 30
5.88
 11
-0.086967
 21
6.792284
 31
5.88
  0
LINE
  5
45C1D
100
AcDbEntity
  8
0
100
AcDbLine
 10
-0.107071
 20
6.812375
 30
5.88
 11
-0.097018
 21
6.802329
 31
5.88
  0
LINE
  5
45C1E
100
AcDbEntity
  8
0
100
AcDbLine
 10
-0.122146
 20
6.817398
 30
5.88
 11
-0.107071
 21
6.812375
 31
5.88
  0
LINE
  5
45C1F
100
AcDbEntity
  8
0
100
AcDbLine
 10
-0.137224
 20
6.807353
 30
5.88
 11
-0.122146
 21
6.817398
 31
5.88
  0
LINE
  5
45C20
100
AcDbEntity
  8
0
100
AcDbLine
 10
-0.182453
 20
7.234308
 30
5.88
 11
-0.041738
 21
7.234308
 31
5.88
  0
LINE
  5
45C21
100
AcDbEntity
  8
0
100
AcDbLine
 10
-0.257836
 20
7.324723
 30
5.88
 11
-0.247785
 21
7.344815
 31
5.88
  0
LINE
  5
45C22
100
AcDbEntity
  8
0
100
AcDbLine
 10
-0.257836
 20
7.30463
 30
5.88
 11
-0.257836
 21
7.324723
 31
5.88
  0
LINE
  5
45C23
100
AcDbEntity
  8
0
100
AcDbLine
 10
-0.25281
 20
7.279516
 30
5.88
 11
-0.257836
 21
7.30463
 31
5.88
  0
LINE
  5
45C24
100
AcDbEntity
  8
0
100
AcDbLine
 10
-0.242761
 20
7.259424
 30
5.88
 11
-0.25281
 21
7.279516
 31
5.88
  0
LINE
  5
45C25
100
AcDbEntity
  8
0
100
AcDbLine
 10
-0.227683
 20
7.244355
 30
5.88
 11
-0.242761
 21
7.259424
 31
5.88
  0
LINE
  5
45C26
100
AcDbEntity
  8
0
100
AcDbLine
 10
-0.202555
 20
7.234308
 30
5.88
 11
-0.227683
 21
7.244355
 31
5.88
  0
LINE
  5
45C27
100
AcDbEntity
  8
0
100
AcDbLine
 10
-0.182453
 20
7.234308
 30
5.88
 11
-0.202555
 21
7.234308
 31
5.88
  0
LINE
  5
45C28
100
AcDbEntity
  8
0
100
AcDbLine
 10
-0.227683
 20
7.289562
 30
5.88
 11
-0.232708
 21
7.30463
 31
5.88
  0
LINE
  5
45C29
100
AcDbEntity
  8
0
100
AcDbLine
 10
-0.217634
 20
7.274493
 30
5.88
 11
-0.227683
 21
7.289562
 31
5.88
  0
LINE
  5
45C2A
100
AcDbEntity
  8
0
100
AcDbLine
 10
-0.202555
 20
7.264447
 30
5.88
 11
-0.217634
 21
7.274493
 31
5.88
  0
LINE
  5
45C2B
100
AcDbEntity
  8
0
100
AcDbLine
 10
-0.187479
 20
7.264447
 30
5.88
 11
-0.202555
 21
7.264447
 31
5.88
  0
LINE
  5
45C2C
100
AcDbEntity
  8
0
100
AcDbLine
 10
-0.167375
 20
7.264447
 30
5.88
 11
-0.187479
 21
7.264447
 31
5.88
  0
LINE
  5
45C2D
100
AcDbEntity
  8
0
100
AcDbLine
 10
-0.157326
 20
7.274493
 30
5.88
 11
-0.167375
 21
7.264447
 31
5.88
  0
LINE
  5
45C2E
100
AcDbEntity
  8
0
100
AcDbLine
 10
-0.147273
 20
7.289562
 30
5.88
 11
-0.157326
 21
7.274493
 31
5.88
  0
LINE
  5
45C2F
100
AcDbEntity
  8
0
100
AcDbLine
 10
-0.142248
 20
7.30463
 30
5.88
 11
-0.147273
 21
7.289562
 31
5.88
  0
LINE
  5
45C30
100
AcDbEntity
  8
0
100
AcDbLine
 10
-0.147273
 20
7.324723
 30
5.88
 11
-0.142248
 21
7.30463
 31
5.88
  0
LINE
  5
45C31
100
AcDbEntity
  8
0
100
AcDbLine
 10
-0.157326
 20
7.339792
 30
5.88
 11
-0.147273
 21
7.324723
 31
5.88
  0
LINE
  5
45C32
100
AcDbEntity
  8
0
100
AcDbLine
 10
-0.167375
 20
7.349839
 30
5.88
 11
-0.157326
 21
7.339792
 31
5.88
  0
LINE
  5
45C33
100
AcDbEntity
  8
0
100
AcDbLine
 10
-0.187479
 20
7.349839
 30
5.88
 11
-0.167375
 21
7.349839
 31
5.88
  0
LINE
  5
45C34
100
AcDbEntity
  8
0
100
AcDbLine
 10
-0.202555
 20
7.349839
 30
5.88
 11
-0.187479
 21
7.349839
 31
5.88
  0
LINE
  5
45C35
100
AcDbEntity
  8
0
100
AcDbLine
 10
-0.217634
 20
7.339792
 30
5.88
 11
-0.202555
 21
7.349839
 31
5.88
  0
LINE
  5
45C36
100
AcDbEntity
  8
0
100
AcDbLine
 10
-0.227683
 20
7.324723
 30
5.88
 11
-0.217634
 21
7.339792
 31
5.88
  0
LINE
  5
45C37
100
AcDbEntity
  8
0
100
AcDbLine
 10
-0.232708
 20
7.30463
 30
5.88
 11
-0.227683
 21
7.324723
 31
5.88
  0
LINE
  5
45C38
100
AcDbEntity
  8
0
100
AcDbLine
 10
-0.408603
 20
7.761725
 30
5.88
 11
-0.398554
 21
7.741634
 31
5.88
  0
LINE
  5
45C39
100
AcDbEntity
  8
0
100
AcDbLine
 10
-0.398554
 20
7.741634
 30
5.88
 11
-0.388501
 21
7.716518
 31
5.88
  0
LINE
  5
45C3A
100
AcDbEntity
  8
0
100
AcDbLine
 10
-0.388501
 20
7.716518
 30
5.88
 11
-0.388501
 21
7.696426
 31
5.88
  0
LINE
  5
45C3B
100
AcDbEntity
  8
0
100
AcDbLine
 10
-0.257836
 20
7.555782
 30
5.88
 11
-0.257836
 21
7.575874
 31
5.88
  0
LINE
  5
45C3C
100
AcDbEntity
  8
0
100
AcDbLine
 10
-0.147273
 20
7.575874
 30
5.88
 11
-0.142248
 21
7.555782
 31
5.88
  0
LINE
  5
45C3D
100
AcDbEntity
  8
0
100
AcDbLine
 10
-0.232708
 20
7.555782
 30
5.88
 11
-0.227683
 21
7.575874
 31
5.88
  0
LINE
  5
45C3E
100
AcDbEntity
  8
0
100
AcDbLine
 10
-0.187479
 20
7.379977
 30
5.88
 11
-0.041738
 21
7.379977
 31
5.88
  0
LINE
  5
45C3F
100
AcDbEntity
  8
0
100
AcDbLine
 10
-0.182453
 20
7.485459
 30
5.88
 11
-0.041738
 21
7.485459
 31
5.88
  0
LINE
  5
45C40
100
AcDbEntity
  8
0
100
AcDbLine
 10
-0.212606
 20
7.374953
 30
5.88
 11
-0.187479
 21
7.379977
 31
5.88
  0
LINE
  5
45C41
100
AcDbEntity
  8
0
100
AcDbLine
 10
-0.232708
 20
7.364908
 30
5.88
 11
-0.212606
 21
7.374953
 31
5.88
  0
LINE
  5
45C42
100
AcDbEntity
  8
0
100
AcDbLine
 10
-0.25281
 20
7.530668
 30
5.88
 11
-0.257836
 21
7.555782
 31
5.88
  0
LINE
  5
45C43
100
AcDbEntity
  8
0
100
AcDbLine
 10
-0.242761
 20
7.510575
 30
5.88
 11
-0.25281
 21
7.530668
 31
5.88
  0
LINE
  5
45C44
100
AcDbEntity
  8
0
100
AcDbLine
 10
-0.227683
 20
7.495506
 30
5.88
 11
-0.242761
 21
7.510575
 31
5.88
  0
LINE
  5
45C45
100
AcDbEntity
  8
0
100
AcDbLine
 10
-0.202555
 20
7.485459
 30
5.88
 11
-0.227683
 21
7.495506
 31
5.88
  0
LINE
  5
45C46
100
AcDbEntity
  8
0
100
AcDbLine
 10
-0.182453
 20
7.485459
 30
5.88
 11
-0.202555
 21
7.485459
 31
5.88
  0
LINE
  5
45C47
100
AcDbEntity
  8
0
100
AcDbLine
 10
-0.227683
 20
7.540713
 30
5.88
 11
-0.232708
 21
7.555782
 31
5.88
  0
LINE
  5
45C48
100
AcDbEntity
  8
0
100
AcDbLine
 10
-0.217634
 20
7.525644
 30
5.88
 11
-0.227683
 21
7.540713
 31
5.88
  0
LINE
  5
45C49
100
AcDbEntity
  8
0
100
AcDbLine
 10
-0.202555
 20
7.515597
 30
5.88
 11
-0.217634
 21
7.525644
 31
5.88
  0
LINE
  5
45C4A
100
AcDbEntity
  8
0
100
AcDbLine
 10
-0.187479
 20
7.515597
 30
5.88
 11
-0.202555
 21
7.515597
 31
5.88
  0
LINE
  5
45C4B
100
AcDbEntity
  8
0
100
AcDbLine
 10
-0.167375
 20
7.515597
 30
5.88
 11
-0.187479
 21
7.515597
 31
5.88
  0
LINE
  5
45C4C
100
AcDbEntity
  8
0
100
AcDbLine
 10
-0.157326
 20
7.525644
 30
5.88
 11
-0.167375
 21
7.515597
 31
5.88
  0
LINE
  5
45C4D
100
AcDbEntity
  8
0
100
AcDbLine
 10
-0.147273
 20
7.540713
 30
5.88
 11
-0.157326
 21
7.525644
 31
5.88
  0
LINE
  5
45C4E
100
AcDbEntity
  8
0
100
AcDbLine
 10
-0.142248
 20
7.555782
 30
5.88
 11
-0.147273
 21
7.540713
 31
5.88
  0
LINE
  5
45C4F
100
AcDbEntity
  8
0
100
AcDbLine
 10
-0.187479
 20
7.631128
 30
5.88
 11
-0.041738
 21
7.631128
 31
5.88
  0
LINE
  5
45C50
100
AcDbEntity
  8
0
100
AcDbLine
 10
-0.212606
 20
7.626105
 30
5.88
 11
-0.187479
 21
7.631128
 31
5.88
  0
LINE
  5
45C51
100
AcDbEntity
  8
0
100
AcDbLine
 10
-0.232708
 20
7.616059
 30
5.88
 11
-0.212606
 21
7.626105
 31
5.88
  0
LINE
  5
45C52
100
AcDbEntity
  8
0
100
AcDbLine
 10
-0.247785
 20
7.595967
 30
5.88
 11
-0.232708
 21
7.616059
 31
5.88
  0
LINE
  5
45C53
100
AcDbEntity
  8
0
100
AcDbLine
 10
-0.257836
 20
7.575874
 30
5.88
 11
-0.247785
 21
7.595967
 31
5.88
  0
LINE
  5
45C54
100
AcDbEntity
  8
0
100
AcDbLine
 10
-0.157326
 20
7.590943
 30
5.88
 11
-0.147273
 21
7.575874
 31
5.88
  0
LINE
  5
45C55
100
AcDbEntity
  8
0
100
AcDbLine
 10
-0.167375
 20
7.600991
 30
5.88
 11
-0.157326
 21
7.590943
 31
5.88
  0
LINE
  5
45C56
100
AcDbEntity
  8
0
100
AcDbLine
 10
-0.187479
 20
7.600991
 30
5.88
 11
-0.167375
 21
7.600991
 31
5.88
  0
LINE
  5
45C57
100
AcDbEntity
  8
0
100
AcDbLine
 10
-0.202555
 20
7.600991
 30
5.88
 11
-0.187479
 21
7.600991
 31
5.88
  0
LINE
  5
45C58
100
AcDbEntity
  8
0
100
AcDbLine
 10
-0.217634
 20
7.590943
 30
5.88
 11
-0.202555
 21
7.600991
 31
5.88
  0
LINE
  5
45C59
100
AcDbEntity
  8
0
100
AcDbLine
 10
-0.227683
 20
7.575874
 30
5.88
 11
-0.217634
 21
7.590943
 31
5.88
  0
LINE
  5
45C5A
100
AcDbEntity
  8
0
100
AcDbLine
 10
-0.293016
 20
7.776796
 30
5.88
 11
-0.041738
 21
7.776796
 31
5.88
  0
LINE
  5
45C5B
100
AcDbEntity
  8
0
100
AcDbLine
 10
-0.428707
 20
7.776796
 30
5.88
 11
-0.408603
 21
7.761725
 31
5.88
  0
LINE
  5
45C5C
100
AcDbEntity
  8
0
100
AcDbLine
 10
-0.448809
 20
7.786841
 30
5.88
 11
-0.428707
 21
7.776796
 31
5.88
  0
LINE
  5
45C5D
100
AcDbEntity
  8
0
100
AcDbLine
 10
-0.473936
 20
7.791865
 30
5.88
 11
-0.448809
 21
7.786841
 31
5.88
  0
LINE
  5
45C5E
100
AcDbEntity
  8
0
100
AcDbLine
 10
0.129133
 20
8.34942
 30
5.88
 11
-0.896084
 21
8.34942
 31
5.88
  0
POLYLINE
  5
45C5F
100
AcDbEntity
  8
0
100
AcDbPolygonMesh
 66
     1
 10
0.0
 20
0.0
 30
0.0
 70
    16
 71
     6
 72
     3
  0
VERTEX
  5
45C60
100
AcDbEntity
  8
0
100
AcDbVertex
100
AcDbPolygonMeshVertex
 10
0.231
 20
9.0811
 30
5.837
 70
    64
  0
VERTEX
  5
45C61
100
AcDbEntity
  8
0
100
AcDbVertex
100
AcDbPolygonMeshVertex
 10
0.231
 20
9.0811
 30
5.747
 70
    64
  0
VERTEX
  5
45C62
100
AcDbEntity
  8
0
100
AcDbVertex
100
AcDbPolygonMeshVertex
 10
0.231
 20
9.0811
 30
5.747
 70
    64
  0
VERTEX
  5
45C63
100
AcDbEntity
  8
0
100
AcDbVertex
100
AcDbPolygonMeshVertex
 10
-0.231
 20
9.0811
 30
5.837
 70
    64
  0
VERTEX
  5
45C64
100
AcDbEntity
  8
0
100
AcDbVertex
100
AcDbPolygonMeshVertex
 10
-0.231
 20
9.0811
 30
5.747
 70
    64
  0
VERTEX
  5
45C65
100
AcDbEntity
  8
0
100
AcDbVertex
100
AcDbPolygonMeshVertex
 10
-0.231
 20
9.0811
 30
5.747
 70
    64
  0
VERTEX
  5
45C66
100
AcDbEntity
  8
0
100
AcDbVertex
100
AcDbPolygonMeshVertex
 10
-0.231
 20
10.0432
 30
5.837
 70
    64
  0
VERTEX
  5
45C67
100
AcDbEntity
  8
0
100
AcDbVertex
100
AcDbPolygonMeshVertex
 10
-0.231
 20
10.0432
 30
5.747
 70
    64
  0
VERTEX
  5
45C68
100
AcDbEntity
  8
0
100
AcDbVertex
100
AcDbPolygonMeshVertex
 10
-0.231
 20
9.0811
 30
5.747
 70
    64
  0
VERTEX
  5
45C69
100
AcDbEntity
  8
0
100
AcDbVertex
100
AcDbPolygonMeshVertex
 10
0.231
 20
10.0432
 30
5.837
 70
    64
  0
VERTEX
  5
45C6A
100
AcDbEntity
  8
0
100
AcDbVertex
100
AcDbPolygonMeshVertex
 10
0.231
 20
10.0432
 30
5.747
 70
    64
  0
VERTEX
  5
45C6B
100
AcDbEntity
  8
0
100
AcDbVertex
100
AcDbPolygonMeshVertex
 10
0.231
 20
9.0811
 30
5.747
 70
    64
  0
VERTEX
  5
45C6C
100
AcDbEntity
  8
0
100
AcDbVertex
100
AcDbPolygonMeshVertex
 10
0.231
 20
10.0432
 30
5.837
 70
    64
  0
VERTEX
  5
45C6D
100
AcDbEntity
  8
0
100
AcDbVertex
100
AcDbPolygonMeshVertex
 10
0.231
 20
10.0432
 30
5.837
 70
    64
  0
VERTEX
  5
45C6E
100
AcDbEntity
  8
0
100
AcDbVertex
100
AcDbPolygonMeshVertex
 10
0.231
 20
9.0811
 30
5.837
 70
    64
  0
VERTEX
  5
45C6F
100
AcDbEntity
  8
0
100
AcDbVertex
100
AcDbPolygonMeshVertex
 10
-0.231
 20
10.0432
 30
5.837
 70
    64
  0
VERTEX
  5
45C70
100
AcDbEntity
  8
0
100
AcDbVertex
100
AcDbPolygonMeshVertex
 10
-0.231
 20
10.0432
 30
5.837
 70
    64
  0
VERTEX
  5
45C71
100
AcDbEntity
  8
0
100
AcDbVertex
100
AcDbPolygonMeshVertex
 10
-0.231
 20
9.0811
 30
5.837
 70
    64
  0
SEQEND
  5
45C72
100
AcDbEntity
  8
0
  0
POLYLINE
  5
45C73
100
AcDbEntity
  8
0
100
AcDbPolygonMesh
 66
     1
 10
0.0
 20
0.0
 30
0.0
 70
    16
 71
     6
 72
     3
  0
VERTEX
  5
45C74
100
AcDbEntity
  8
0
100
AcDbVertex
100
AcDbPolygonMeshVertex
 10
0.034
 20
8.912
 30
5.747
 70
    64
  0
VERTEX
  5
45C75
100
AcDbEntity
  8
0
100
AcDbVertex
100
AcDbPolygonMeshVertex
 10
0.034
 20
8.912
 30
5.39
 70
    64
  0
VERTEX
  5
45C76
100
AcDbEntity
  8
0
100
AcDbVertex
100
AcDbPolygonMeshVertex
 10
0.034
 20
8.912
 30
5.39
 70
    64
  0
VERTEX
  5
45C77
100
AcDbEntity
  8
0
100
AcDbVertex
100
AcDbPolygonMeshVertex
 10
-0.034
 20
8.912
 30
5.747
 70
    64
  0
VERTEX
  5
45C78
100
AcDbEntity
  8
0
100
AcDbVertex
100
AcDbPolygonMeshVertex
 10
-0.034
 20
8.912
 30
5.39
 70
    64
  0
VERTEX
  5
45C79
100
AcDbEntity
  8
0
100
AcDbVertex
100
AcDbPolygonMeshVertex
 10
-0.034
 20
8.912
 30
5.39
 70
    64
  0
VERTEX
  5
45C7A
100
AcDbEntity
  8
0
100
AcDbVertex
100
AcDbPolygonMeshVertex
 10
-0.034
 20
9.6931
 30
5.747
 70
    64
  0
VERTEX
  5
45C7B
100
AcDbEntity
  8
0
100
AcDbVertex
100
AcDbPolygonMeshVertex
 10
-0.034
 20
9.6931
 30
5.39
 70
    64
  0
VERTEX
  5
45C7C
100
AcDbEntity
  8
0
100
AcDbVertex
100
AcDbPolygonMeshVertex
 10
-0.034
 20
8.912
 30
5.39
 70
    64
  0
VERTEX
  5
45C7D
100
AcDbEntity
  8
0
100
AcDbVertex
100
AcDbPolygonMeshVertex
 10
0.034
 20
9.6931
 30
5.747
 70
    64
  0
VERTEX
  5
45C7E
100
AcDbEntity
  8
0
100
AcDbVertex
100
AcDbPolygonMeshVertex
 10
0.034
 20
9.6931
 30
5.39
 70
    64
  0
VERTEX
  5
45C7F
100
AcDbEntity
  8
0
100
AcDbVertex
100
AcDbPolygonMeshVertex
 10
0.034
 20
8.912
 30
5.39
 70
    64
  0
VERTEX
  5
45C80
100
AcDbEntity
  8
0
100
AcDbVertex
100
AcDbPolygonMeshVertex
 10
0.034
 20
9.6931
 30
5.747
 70
    64
  0
VERTEX
  5
45C81
100
AcDbEntity
  8
0
100
AcDbVertex
100
AcDbPolygonMeshVertex
 10
0.034
 20
9.6931
 30
5.747
 70
    64
  0
VERTEX
  5
45C82
100
AcDbEntity
  8
0
100
AcDbVertex
100
AcDbPolygonMeshVertex
 10
0.034
 20
8.912
 30
5.747
 70
    64
  0
VERTEX
  5
45C83
100
AcDbEntity
  8
0
100
AcDbVertex
100
AcDbPolygonMeshVertex
 10
-0.034
 20
9.6931
 30
5.747
 70
    64
  0
VERTEX
  5
45C84
100
AcDbEntity
  8
0
100
AcDbVertex
100
AcDbPolygonMeshVertex
 10
-0.034
 20
9.6931
 30
5.747
 70
    64
  0
VERTEX
  5
45C85
100
AcDbEntity
  8
0
100
AcDbVertex
100
AcDbPolygonMeshVertex
 10
-0.034
 20
8.912
 30
5.747
 70
    64
  0
SEQEND
  5
45C86
100
AcDbEntity
  8
0
  0
POLYLINE
  5
45C87
100
AcDbEntity
  8
0
100
AcDbPolygonMesh
 66
     1
 10
0.0
 20
0.0
 30
0.0
 70
    16
 71
     6
 72
     3
  0
VERTEX
  5
45C88
100
AcDbEntity
  8
0
100
AcDbVertex
100
AcDbPolygonMeshVertex
 10
0.102
 20
9.0811
 30
5.747
 70
    64
  0
VERTEX
  5
45C89
100
AcDbEntity
  8
0
100
AcDbVertex
100
AcDbPolygonMeshVertex
 10
0.102
 20
9.0811
 30
5.747
 70
    64
  0
VERTEX
  5
45C8A
100
AcDbEntity
  8
0
100
AcDbVertex
100
AcDbPolygonMeshVertex
 10
0.102
 20
9.0811
 30
5.747
 70
    64
  0
VERTEX
  5
45C8B
100
AcDbEntity
  8
0
100
AcDbVertex
100
AcDbPolygonMeshVertex
 10
0.102
 20
9.6931
 30
5.437
 70
    64
  0
VERTEX
  5
45C8C
100
AcDbEntity
  8
0
100
AcDbVertex
100
AcDbPolygonMeshVertex
 10
0.102
 20
9.6931
 30
5.747
 70
    64
  0
VERTEX
  5
45C8D
100
AcDbEntity
  8
0
100
AcDbVertex
100
AcDbPolygonMeshVertex
 10
0.102
 20
9.6931
 30
5.747
 70
    64
  0
VERTEX
  5
45C8E
100
AcDbEntity
  8
0
100
AcDbVertex
100
AcDbPolygonMeshVertex
 10
0.034
 20
9.6931
 30
5.437
 70
    64
  0
VERTEX
  5
45C8F
100
AcDbEntity
  8
0
100
AcDbVertex
100
AcDbPolygonMeshVertex
 10
0.034
 20
9.6931
 30
5.747
 70
    64
  0
VERTEX
  5
45C90
100
AcDbEntity
  8
0
100
AcDbVertex
100
AcDbPolygonMeshVertex
 10
0.102
 20
9.6931
 30
5.747
 70
    64
  0
VERTEX
  5
45C91
100
AcDbEntity
  8
0
100
AcDbVertex
100
AcDbPolygonMeshVertex
 10
0.034
 20
9.0811
 30
5.747
 70
    64
  0
VERTEX
  5
45C92
100
AcDbEntity
  8
0
100
AcDbVertex
100
AcDbPolygonMeshVertex
 10
0.034
 20
9.0811
 30
5.747
 70
    64
  0
VERTEX
  5
45C93
100
AcDbEntity
  8
0
100
AcDbVertex
100
AcDbPolygonMeshVertex
 10
0.102
 20
9.0811
 30
5.747
 70
    64
  0
VERTEX
  5
45C94
100
AcDbEntity
  8
0
100
AcDbVertex
100
AcDbPolygonMeshVertex
 10
0.034
 20
9.0811
 30
5.747
 70
    64
  0
VERTEX
  5
45C95
100
AcDbEntity
  8
0
100
AcDbVertex
100
AcDbPolygonMeshVertex
 10
0.034
 20
9.0811
 30
5.747
 70
    64
  0
VERTEX
  5
45C96
100
AcDbEntity
  8
0
100
AcDbVertex
100
AcDbPolygonMeshVertex
 10
0.102
 20
9.0811
 30
5.747
 70
    64
  0
VERTEX
  5
45C97
100
AcDbEntity
  8
0
100
AcDbVertex
100
AcDbPolygonMeshVertex
 10
0.034
 20
9.6931
 30
5.437
 70
    64
  0
VERTEX
  5
45C98
100
AcDbEntity
  8
0
100
AcDbVertex
100
AcDbPolygonMeshVertex
 10
0.034
 20
9.6931
 30
5.437
 70
    64
  0
VERTEX
  5
45C99
100
AcDbEntity
  8
0
100
AcDbVertex
100
AcDbPolygonMeshVertex
 10
0.102
 20
9.6931
 30
5.437
 70
    64
  0
SEQEND
  5
45C9A
100
AcDbEntity
  8
0
  0
POLYLINE
  5
45C9B
100
AcDbEntity
  8
0
100
AcDbPolygonMesh
 66
     1
 10
0.0
 20
0.0
 30
0.0
 70
    16
 71
     6
 72
     3
  0
VERTEX
  5
45C9C
100
AcDbEntity
  8
0
100
AcDbVertex
100
AcDbPolygonMeshVertex
 10
-0.034
 20
9.0811
 30
5.747
 70
    64
  0
VERTEX
  5
45C9D
100
AcDbEntity
  8
0
100
AcDbVertex
100
AcDbPolygonMeshVertex
 10
-0.034
 20
9.0811
 30
5.747
 70
    64
  0
VERTEX
  5
45C9E
100
AcDbEntity
  8
0
100
AcDbVertex
100
AcDbPolygonMeshVertex
 10
-0.034
 20
9.0811
 30
5.747
 70
    64
  0
VERTEX
  5
45C9F
100
AcDbEntity
  8
0
100
AcDbVertex
100
AcDbPolygonMeshVertex
 10
-0.034
 20
9.6931
 30
5.437
 70
    64
  0
VERTEX
  5
45CA0
100
AcDbEntity
  8
0
100
AcDbVertex
100
AcDbPolygonMeshVertex
 10
-0.034
 20
9.6931
 30
5.747
 70
    64
  0
VERTEX
  5
45CA1
100
AcDbEntity
  8
0
100
AcDbVertex
100
AcDbPolygonMeshVertex
 10
-0.034
 20
9.6931
 30
5.747
 70
    64
  0
VERTEX
  5
45CA2
100
AcDbEntity
  8
0
100
AcDbVertex
100
AcDbPolygonMeshVertex
 10
-0.102
 20
9.6931
 30
5.437
 70
    64
  0
VERTEX
  5
45CA3
100
AcDbEntity
  8
0
100
AcDbVertex
100
AcDbPolygonMeshVertex
 10
-0.102
 20
9.6931
 30
5.747
 70
    64
  0
VERTEX
  5
45CA4
100
AcDbEntity
  8
0
100
AcDbVertex
100
AcDbPolygonMeshVertex
 10
-0.034
 20
9.6931
 30
5.747
 70
    64
  0
VERTEX
  5
45CA5
100
AcDbEntity
  8
0
100
AcDbVertex
100
AcDbPolygonMeshVertex
 10
-0.102
 20
9.0811
 30
5.747
 70
    64
  0
VERTEX
  5
45CA6
100
AcDbEntity
  8
0
100
AcDbVertex
100
AcDbPolygonMeshVertex
 10
-0.102
 20
9.0811
 30
5.747
 70
    64
  0
VERTEX
  5
45CA7
100
AcDbEntity
  8
0
100
AcDbVertex
100
AcDbPolygonMeshVertex
 10
-0.034
 20
9.0811
 30
5.747
 70
    64
  0
VERTEX
  5
45CA8
100
AcDbEntity
  8
0
100
AcDbVertex
100
AcDbPolygonMeshVertex
 10
-0.102
 20
9.0811
 30
5.747
 70
    64
  0
VERTEX
  5
45CA9
100
AcDbEntity
  8
0
100
AcDbVertex
100
AcDbPolygonMeshVertex
 10
-0.102
 20
9.0811
 30
5.747
 70
    64
  0
VERTEX
  5
45CAA
100
AcDbEntity
  8
0
100
AcDbVertex
100
AcDbPolygonMeshVertex
 10
-0.034
 20
9.0811
 30
5.747
 70
    64
  0
VERTEX
  5
45CAB
100
AcDbEntity
  8
0
100
AcDbVertex
100
AcDbPolygonMeshVertex
 10
-0.102
 20
9.6931
 30
5.437
 70
    64
  0
VERTEX
  5
45CAC
100
AcDbEntity
  8
0
100
AcDbVertex
100
AcDbPolygonMeshVertex
 10
-0.102
 20
9.6931
 30
5.437
 70
    64
  0
VERTEX
  5
45CAD
100
AcDbEntity
  8
0
100
AcDbVertex
100
AcDbPolygonMeshVertex
 10
-0.034
 20
9.6931
 30
5.437
 70
    64
  0
SEQEND
  5
45CAE
100
AcDbEntity
  8
0
  0
CIRCLE
  5
45CAF
100
AcDbEntity
  8
0
100
AcDbCircle
 10
9.586379
 20
5.592
 30
-0.102
 40
0.05206
210
1.0
220
0.0
230
0.0
  0
CIRCLE
  5
45CB0
100
AcDbEntity
  8
0
100
AcDbCircle
 10
9.586379
 20
5.592
 30
0.102
 40
0.05206
210
1.0
220
0.0
230
0.0
  0
DIMENSION
  5
45CB1
100
AcDbEntity
  8
AREA1
100
AcDbDimension
  2
*D0
 10
0.236
 20
10.583884
 30
0.0
 11
1.131
 21
10.583884
 31
0.0
 70
    32
  3
ABECAD_3D
100
AcDbAlignedDimension
 13
-0.924
 23
9.8
 33
0.0
 14
0.236
 24
9.8
 34
0.0
100
AcDbRotatedDimension
  0
DIMENSION
  5
45CCD
100
AcDbEntity
  8
AREA1
100
AcDbDimension
  2
*D1
 10
1.234878
 20
0.0
 30
0.0
 11
1.234878
 21
5.008674
 31
0.0
 70
    32
  3
ABECAD_3D
100
AcDbAlignedDimension
 13
0.236
 23
10.017348
 33
0.0
 14
0.034
 24
0.0
 34
0.0
 50
90.0
100
AcDbRotatedDimension
  0
LINE
  5
45D5A
100
AcDbEntity
  8
SCALE
100
AcDbLine
 10
-0.867161
 20
-0.963466
 30
0.0
 11
0.132839
 21
-0.963466
 31
0.0
  0
LINE
  5
45D5B
100
AcDbEntity
  8
SCALE
100
AcDbLine
 10
0.132839
 20
-0.963466
 30
0.0
 11
0.132839
 21
-1.063466
 31
0.0
  0
LINE
  5
45D5C
100
AcDbEntity
  8
SCALE
100
AcDbLine
 10
0.132839
 20
-1.063466
 30
0.0
 11
0.132839
 21
-0.863466
 31
0.0
  0
LINE
  5
45D5D
100
AcDbEntity
  8
SCALE
100
AcDbLine
 10
-0.867161
 20
-1.063466
 30
0.0
 11
-0.867161
 21
-0.863466
 31
0.0
  0
LINE
  5
45D5E
100
AcDbEntity
  8
SCALE
100
AcDbLine
 10
-0.867161
 20
-1.363466
 30
0.0
 11
-0.867161
 21
-1.163466
 31
0.0
  0
LINE
  5
45D5F
100
AcDbEntity
  8
SCALE
100
AcDbLine
 10
-0.473461
 20
-1.363466
 30
0.0
 11
-0.473461
 21
-1.163466
 31
0.0
  0
LINE
  5
45D60
100
AcDbEntity
  8
SCALE
100
AcDbLine
 10
-0.867161
 20
-1.263466
 30
0.0
 11
-0.473461
 21
-1.263466
 31
0.0
  0
TEXT
  5
45D61
100
AcDbEntity
  8
SCALE
100
AcDbText
 10
-0.807739
 20
-1.217726
 30
0.0
 40
0.0625
  1
[10mm]
100
AcDbText
  0
TEXT
  5
45D62
100
AcDbEntity
  8
SCALE
100
AcDbText
 10
-0.503878
 20
-0.894417
 30
0.0
 40
0.0625
  1
1 Inch
100
AcDbText
  0
TEXT
  5
45D63
100
AcDbEntity
  8
SCALE
100
AcDbText
 10
-0.865631
 20
-0.688589
 30
0.0
 40
0.0625
  1
SCALE:
100
AcDbText
  0
LWPOLYLINE
  5
45D64
100
AcDbEntity
  8
SCALE
100
AcDbPolyline
 90
        4
 70
     1
 43
0.0
 10
-0.925159
 20
-0.583388
 10
0.210469
 20
-0.583388
 10
0.210469
 20
-1.424997
 10
-0.925159
 20
-1.424997
  0
ENDSEC
  0
SECTION
  2
OBJECTS
  0
DICTIONARY
  5
458CB
100
AcDbDictionary
  3
ACAD_GROUP
350
458CC
  3
ACAD_LAYOUT
350
458FB
  3
ACAD_MLINESTYLE
350
458D9
  3
ACAD_PLOTSETTINGS
350
458FC
  3
ACAD_PLOTSTYLENAME
350
458F9
  3
ACDBHEADERROUNDTRIPXREC
350
45DD1
  3
ACDBVARIABLEDICTIONARY
350
458E1
  3
DWGPROPS
350
45901
  0
DICTIONARY
  5
45DCF
100
AcDbDictionary
280
     1
  3
ACAD_XREC_ROUNDTRIP
360
45DD0
  0
DICTIONARY
  5
45DFA
100
AcDbDictionary
280
     1
  3
ACAD_XREC_ROUNDTRIP
360
45DFB
  0
DICTIONARY
  5
45DCD
100
AcDbDictionary
280
     1
  3
ACAD_XREC_ROUNDTRIP
360
45DCE
  0
DICTIONARY
  5
45DF4
100
AcDbDictionary
280
     1
  3
ACAD_XREC_ROUNDTRIP
360
45DF5
  0
DICTIONARY
  5
45DF6
100
AcDbDictionary
280
     1
  3
ACAD_XREC_ROUNDTRIP
360
45DF7
  0
DICTIONARY
  5
4592C
100
AcDbDictionary
280
     1
  3
ACAD_LAYOUTSELFREF
360
45DF3
  0
DICTIONARY
  5
4592A
100
AcDbDictionary
280
     1
  3
ACAD_LAYOUTSELFREF
360
45DF2
  0
DICTIONARY
  5
458CC
102
{ACAD_REACTORS
330
458CB
102
}
100
AcDbDictionary
  0
DICTIONARY
  5
458FB
102
{ACAD_XDICTIONARY
360
45DF8
102
}
102
{ACAD_REACTORS
330
458CB
102
}
100
AcDbDictionary
  3
LAYOUT1
350
458FE
  3
MODEL
350
458FD
  0
DICTIONARY
  5
458D9
102
{ACAD_REACTORS
330
458CB
102
}
100
AcDbDictionary
  3
STANDARD
350
458DA
  0
DICTIONARY
  5
458FC
102
{ACAD_REACTORS
330
458CB
102
}
100
AcDbDictionary
  0
ACAD_PROXY_OBJECT
  5
458F9
102
{ACAD_REACTORS
330
458CB
102
}
100
AcDbProxyObject
 90
      499
 91
      501
 93
       86
310
405010041939BDC9B585B0
350
458FA
340
458FA
 94
        0
  0
DICTIONARY
  5
45DD1
102
{ACAD_REACTORS
330
458CB
102
}
100
AcDbDictionary
  3
CEPSNTYPE
350
45DDB
  3
DIMSTYLEDATA
350
45DDF
  3
FINGERPRINTGUID
350
45DDC
  3
HYPERLINKBASE
350
45DD4
  3
INSUNITS
350
45DDA
  3
LAYOUTDICT
350
45DD6
  3
LWETCUNION
350
45DD9
  3
PLOTSETDICT
350
45DD7
  3
PLOTSTYLNAMDICT
350
45DD8
  3
PSVPSCALE
350
45DDE
  3
PUCSBASE
350
45DE2
  3
PUCSORGBACK
350
45DE8
  3
PUCSORGBOTTOM
350
45DE4
  3
PUCSORGFRONT
350
45DE7
  3
PUCSORGLEFT
350
45DE5
  3
PUCSORGRIGHT
350
45DE6
  3
PUCSORGTOP
350
45DE3
  3
PUCSORTHOREF
350
45DE0
  3
PUCSORTHOVIEW
350
45DE1
  3
STYLESHEET
350
45DD5
  3
TSTACKALIGN
350
45DD2
  3
TSTACKSIZE
350
45DD3
  3
UCSBASE
350
45DEB
  3
UCSORGBACK
350
45DF1
  3
UCSORGBOTTOM
350
45DED
  3
UCSORGFRONT
350
45DF0
  3
UCSORGLEFT
350
45DEE
  3
UCSORGRIGHT
350
45DEF
  3
UCSORGTOP
350
45DEC
  3
UCSORTHOREF
350
45DE9
  3
UCSORTHOVIEW
350
45DEA
  3
VERSIONGUID
350
45DDD
  0
DICTIONARY
  5
458E1
102
{ACAD_REACTORS
330
458CB
102
}
100
AcDbDictionary
  3
DIMADEC
350
458E2
  0
XRECORD
  5
45901
102
{ACAD_REACTORS
330
458CB
102
}
100
AcDbXrecord
  1
DWGPROPS COOKIE
  2

  3

  4

  6

  7

  8
colin
  9

300
=
301
=
302
=
303
=
304
=
305
=
306
=
307
=
308
=
309
=
 40
0.000599
 41
2451670.444777
 42
2451670.445376
  1

 90
        0
  0
XRECORD
  5
45DD0
102
{ACAD_REACTORS
330
45DCF
102
}
100
AcDbXrecord
102
EXTNAMES
  1
*ACTIVE
  2
*Active
102
UCS
 74
     0
 71
     1
 10
0.0
 20
0.0
 30
0.0
 10
1.0
 20
0.0
 30
0.0
 10
0.0
 20
1.0
 30
0.0
146
0.0
 79
     1
102
VIEW
281
     0
  0
XRECORD
  5
45DFB
102
{ACAD_REACTORS
330
45DFA
102
}
100
AcDbXrecord
102
PLOTBIT
280
     0
  0
XRECORD
  5
45DCE
102
{ACAD_REACTORS
330
45DCD
102
}
100
AcDbXrecord
102
EXTNAMES
  1
DEFPOINTS
  2
Defpoints
102
PLOTBIT
280
     0
  0
XRECORD
  5
45DF5
102
{ACAD_REACTORS
330
45DF4
102
}
100
AcDbXrecord
102
ACADR14ROUNDTRIP
1000
DSTYLE
1002
{
1070
   276
 70
     2
1070
   277
 70
     5
1002
}
  0
XRECORD
  5
45DF7
102
{ACAD_REACTORS
330
45DF6
102
}
100
AcDbXrecord
102
ACADR14ROUNDTRIP
1000
DSTYLE
1002
{
1070
   276
 70
     2
1070
   277
 70
     5
1002
}
  0
XRECORD
  5
45DF3
102
{ACAD_REACTORS
330
4592C
102
}
100
AcDbXrecord
340
458D6
  0
XRECORD
  5
45DF2
102
{ACAD_REACTORS
330
4592A
102
}
100
AcDbXrecord
340
458D3
  0
DICTIONARY
  5
45DF8
100
AcDbDictionary
280
     1
  3
ACAD_XREC_ROUNDTRIP
360
45DF9
  0
ACAD_PROXY_OBJECT
  5
458FE
102
{ACAD_REACTORS
330
458FB
102
}
100
AcDbProxyObject
 90
      499
 91
      503
 93
     1348
310
91D4850204C617365724A65742035303030205365726965732050434C20362C00AAAAAA416AA547D11959985D5B1D08148C4D081C195B88185CDCDA59DB9B595B9D1CCB98DD1891069074C61796F75743140501A800000000000000000000000000000000000000000000A1000000000000008902A6A6A10232D5E076BC551
310
0408CB5781DAF154410232D5E076BC5510408CB5781DAF15C410232D5E076BC5710408CB5781DAF15C40
330
458D3
330
0
340
0
340
0
 94
        0
  0
ACAD_PROXY_OBJECT
  5
458FD
102
{ACAD_REACTORS
330
458FB
102
}
100
AcDbProxyObject
 90
      499
 91
      503
 93
      924
310
91D4850204C617365724A65742035303030205365726965732050434C20362C01AAAAAAAAA547D11959985D5B1D08148C4D081C195B88185CDCDA59DB9B595B9D1CCB98DD18A69054D6F64656C901A800000000000000000000000000000000000000000000A1000000000000008902A6A6AAAA0
330
458D6
330
0
340
0
340
0
 94
        0
  0
MLINESTYLE
  5
458DA
102
{ACAD_REACTORS
330
458D9
102
}
100
AcDbMlineStyle
  2
STANDARD
 70
     0
  3

 62
   256
 51
90.0
 52
90.0
 71
     2
 49
0.5
 62
   256
  6
BYLAYER
 49
-0.5
 62
   256
  6
BYLAYER
  0
ACAD_PROXY_OBJECT
  5
458FA
102
{ACAD_REACTORS
330
458F9
102
}
100
AcDbProxyObject
 90
      499
 91
      502
 93
        0
 94
        0
  0
XRECORD
  5
45DDB
102
{ACAD_REACTORS
330
45DD1
102
}
100
AcDbXrecord
 90
        0
  0
XRECORD
  5
45DDF
102
{ACAD_REACTORS
330
45DD1
102
}
100
AcDbXrecord
1000
DSTYLE
1002
{
1070
   276
 70
     2
1070
   277
 70
     5
1002
}
  0
XRECORD
  5
45DDC
102
{ACAD_REACTORS
330
45DD1
102
}
100
AcDbXrecord
  1
{6E0CF4B8-225E-11D4-A150-00A0CC3303EC}
  0
XRECORD
  5
45DD4
102
{ACAD_REACTORS
330
45DD1
102
}
100
AcDbXrecord
  1

  0
XRECORD
  5
45DDA
102
{ACAD_REACTORS
330
45DD1
102
}
100
AcDbXrecord
 90
        0
  0
XRECORD
  5
45DD6
102
{ACAD_REACTORS
330
45DD1
102
}
100
AcDbXrecord
340
458FB
  0
XRECORD
  5
45DD9
102
{ACAD_REACTORS
330
45DD1
102
}
100
AcDbXrecord
 90
    14877
  0
XRECORD
  5
45DD7
102
{ACAD_REACTORS
330
45DD1
102
}
100
AcDbXrecord
340
458FC
  0
XRECORD
  5
45DD8
102
{ACAD_REACTORS
330
45DD1
102
}
100
AcDbXrecord
340
458F9
  0
XRECORD
  5
45DDE
102
{ACAD_REACTORS
330
45DD1
102
}
100
AcDbXrecord
 40
0.0
  0
XRECORD
  5
45DE2
102
{ACAD_REACTORS
330
45DD1
102
}
100
AcDbXrecord
340
0
  0
XRECORD
  5
45DE8
102
{ACAD_REACTORS
330
45DD1
102
}
100
AcDbXrecord
 10
0.0
 20
0.0
 30
0.0
  0
XRECORD
  5
45DE4
102
{ACAD_REACTORS
330
45DD1
102
}
100
AcDbXrecord
 10
0.0
 20
0.0
 30
0.0
  0
XRECORD
  5
45DE7
102
{ACAD_REACTORS
330
45DD1
102
}
100
AcDbXrecord
 10
0.0
 20
0.0
 30
0.0
  0
XRECORD
  5
45DE5
102
{ACAD_REACTORS
330
45DD1
102
}
100
AcDbXrecord
 10
0.0
 20
0.0
 30
0.0
  0
XRECORD
  5
45DE6
102
{ACAD_REACTORS
330
45DD1
102
}
100
AcDbXrecord
 10
0.0
 20
0.0
 30
0.0
  0
XRECORD
  5
45DE3
102
{ACAD_REACTORS
330
45DD1
102
}
100
AcDbXrecord
 10
0.0
 20
0.0
 30
0.0
  0
XRECORD
  5
45DE0
102
{ACAD_REACTORS
330
45DD1
102
}
100
AcDbXrecord
340
0
  0
XRECORD
  5
45DE1
102
{ACAD_REACTORS
330
45DD1
102
}
100
AcDbXrecord
 70
     0
  0
XRECORD
  5
45DD5
102
{ACAD_REACTORS
330
45DD1
102
}
100
AcDbXrecord
  1

  0
XRECORD
  5
45DD2
102
{ACAD_REACTORS
330
45DD1
102
}
100
AcDbXrecord
 90
        1
  0
XRECORD
  5
45DD3
102
{ACAD_REACTORS
330
45DD1
102
}
100
AcDbXrecord
 90
       70
  0
XRECORD
  5
45DEB
102
{ACAD_REACTORS
330
45DD1
102
}
100
AcDbXrecord
340
0
  0
XRECORD
  5
45DF1
102
{ACAD_REACTORS
330
45DD1
102
}
100
AcDbXrecord
 10
0.0
 20
0.0
 30
0.0
  0
XRECORD
  5
45DED
102
{ACAD_REACTORS
330
45DD1
102
}
100
AcDbXrecord
 10
0.0
 20
0.0
 30
0.0
  0
XRECORD
  5
45DF0
102
{ACAD_REACTORS
330
45DD1
102
}
100
AcDbXrecord
 10
0.0
 20
0.0
 30
0.0
  0
XRECORD
  5
45DEE
102
{ACAD_REACTORS
330
45DD1
102
}
100
AcDbXrecord
 10
0.0
 20
0.0
 30
0.0
  0
XRECORD
  5
45DEF
102
{ACAD_REACTORS
330
45DD1
102
}
100
AcDbXrecord
 10
0.0
 20
0.0
 30
0.0
  0
XRECORD
  5
45DEC
102
{ACAD_REACTORS
330
45DD1
102
}
100
AcDbXrecord
 10
0.0
 20
0.0
 30
0.0
  0
XRECORD
  5
45DE9
102
{ACAD_REACTORS
330
45DD1
102
}
100
AcDbXrecord
340
0
  0
XRECORD
  5
45DEA
102
{ACAD_REACTORS
330
45DD1
102
}
100
AcDbXrecord
 70
     1
  0
XRECORD
  5
45DDD
102
{ACAD_REACTORS
330
45DD1
102
}
100
AcDbXrecord
  1
{93894A33-E24D-4708-93EA-4C4DC65754CC}
  0
DICTIONARYVAR
  5
458E2
102
{ACAD_REACTORS
330
458E1
102
}
100
DictionaryVariables
280
     0
  1
0
  0
XRECORD
  5
45DF9
102
{ACAD_REACTORS
330
45DF8
102
}
100
AcDbXrecord
102
EXTNAMES
  1
LAYOUT1
  2
Layout1
  1
MODEL
  2
Model
  0
ENDSEC
  0
EOF
