  0
SECTION
  2
HEADER
  9
$ACADVER
  1
AC1014
  9
$ACADMAINTVER
 70
     8
  9
$DWGCODEPAGE
  3
ANSI_1252
  9
$INSBASE
 10
0.0
 20
0.0
 30
0.0
  9
$EXTMIN
 10
-2.028332
 20
-1.662058
 30
0.0
  9
$EXTMAX
 10
2.64
 20
10.921904
 30
5.880973
  9
$LIMMIN
 10
0.0
 20
0.0
  9
$LIMMAX
 10
12.0
 20
9.0
  9
$ORTHOMODE
 70
     0
  9
$REGENMODE
 70
     1
  9
$FILLMODE
 70
     1
  9
$QTEXTMODE
 70
     0
  9
$MIRRTEXT
 70
     1
  9
$DRAGMODE
 70
     2
  9
$LTSCALE
 40
1.0
  9
$OSMODE
 70
    37
  9
$ATTMODE
 70
     0
  9
$TEXTSIZE
 40
0.2
  9
$TRACEWID
 40
0.05
  9
$TEXTSTYLE
  7
STANDARD
  9
$CLAYER
  8
0
  9
$CELTYPE
  6
BYLAYER
  9
$CECOLOR
 62
   256
  9
$CELTSCALE
 40
1.0
  9
$DELOBJ
 70
     1
  9
$DISPSILH
 70
     0
  9
$DIMSCALE
 40
0.0
  9
$DIMASZ
 40
0.179688
  9
$DIMEXO
 40
0.0625
  9
$DIMDLI
 40
0.375
  9
$DIMRND
 40
0.0
  9
$DIMDLE
 40
0.0
  9
$DIMEXE
 40
0.179688
  9
$DIMTP
 40
0.0
  9
$DIMTM
 40
0.0
  9
$DIMTXT
 40
0.125
  9
$DIMCEN
 40
0.089844
  9
$DIMTSZ
 40
0.0
  9
$DIMTOL
 70
     0
  9
$DIMLIM
 70
     0
  9
$DIMTIH
 70
     0
  9
$DIMTOH
 70
     0
  9
$DIMSE1
 70
     0
  9
$DIMSE2
 70
     0
  9
$DIMTAD
 70
     0
  9
$DIMZIN
 70
     4
  9
$DIMBLK
  1

  9
$DIMASO
 70
     1
  9
$DIMSHO
 70
     1
  9
$DIMPOST
  1

  9
$DIMAPOST
  1

  9
$DIMALT
 70
     1
  9
$DIMALTD
 70
     1
  9
$DIMALTF
 40
25.4
  9
$DIMLFAC
 40
1.0
  9
$DIMTOFL
 70
     0
  9
$DIMTVP
 40
0.0
  9
$DIMTIX
 70
     1
  9
$DIMSOXD
 70
     0
  9
$DIMSAH
 70
     0
  9
$DIMBLK1
  1

  9
$DIMBLK2
  1

  9
$DIMSTYLE
  2
ABECAD_3V
  9
$DIMCLRD
 70
     0
  9
$DIMCLRE
 70
     0
  9
$DIMCLRT
 70
     0
  9
$DIMTFAC
 40
1.5
  9
$DIMGAP
 40
0.09375
  9
$DIMJUST
 70
     0
  9
$DIMSD1
 70
     0
  9
$DIMSD2
 70
     0
  9
$DIMTOLJ
 70
     1
  9
$DIMTZIN
 70
     4
  9
$DIMALTZ
 70
     4
  9
$DIMALTTZ
 70
     4
  9
$DIMFIT
 70
     5
  9
$DIMUPT
 70
     0
  9
$DIMUNIT
 70
     7
  9
$DIMDEC
 70
     6
  9
$DIMTDEC
 70
     6
  9
$DIMALTU
 70
     2
  9
$DIMALTTD
 70
     1
  9
$DIMTXSTY
  7
STANDARD
  9
$DIMAUNIT
 70
     0
  9
$LUNITS
 70
     5
  9
$LUPREC
 70
     6
  9
$SKETCHINC
 40
0.1
  9
$FILLETRAD
 40
0.0
  9
$AUNITS
 70
     0
  9
$AUPREC
 70
     0
  9
$MENU
  1
acad
  9
$ELEVATION
 40
0.0
  9
$PELEVATION
 40
0.0
  9
$THICKNESS
 40
0.0
  9
$LIMCHECK
 70
     0
  9
$BLIPMODE
 70
     0
  9
$CHAMFERA
 40
0.0
  9
$CHAMFERB
 40
0.0
  9
$CHAMFERC
 40
0.0
  9
$CHAMFERD
 40
0.0
  9
$SKPOLY
 70
     0
  9
$TDCREATE
 40
2451670.441490278
  9
$TDUPDATE
 40
2452010.727189351
  9
$TDINDWG
 40
0.0070516204
  9
$TDUSRTIMER
 40
0.0070516204
  9
$USRTIMER
 70
     1
  9
$ANGBASE
 50
0.0
  9
$ANGDIR
 70
     0
  9
$PDMODE
 70
     2
  9
$PDSIZE
 40
0.0
  9
$PLINEWID
 40
0.0
  9
$COORDS
 70
     1
  9
$SPLFRAME
 70
     0
  9
$SPLINETYPE
 70
     6
  9
$SPLINESEGS
 70
     8
  9
$ATTDIA
 70
     0
  9
$ATTREQ
 70
     1
  9
$HANDLING
 70
     1
  9
$HANDSEED
  5
918
  9
$SURFTAB1
 70
     6
  9
$SURFTAB2
 70
     6
  9
$SURFTYPE
 70
     6
  9
$SURFU
 70
     6
  9
$SURFV
 70
     6
  9
$UCSNAME
  2

  9
$UCSORG
 10
0.0
 20
0.0
 30
0.0
  9
$UCSXDIR
 10
1.0
 20
0.0
 30
0.0
  9
$UCSYDIR
 10
0.0
 20
0.0
 30
1.0
  9
$PUCSNAME
  2

  9
$PUCSORG
 10
0.0
 20
0.0
 30
0.0
  9
$PUCSXDIR
 10
1.0
 20
0.0
 30
0.0
  9
$PUCSYDIR
 10
0.0
 20
1.0
 30
0.0
  9
$USERI1
 70
     0
  9
$USERI2
 70
     0
  9
$USERI3
 70
     0
  9
$USERI4
 70
     0
  9
$USERI5
 70
     0
  9
$USERR1
 40
0.0
  9
$USERR2
 40
0.0
  9
$USERR3
 40
0.0
  9
$USERR4
 40
0.0
  9
$USERR5
 40
0.0
  9
$WORLDVIEW
 70
     1
  9
$SHADEDGE
 70
     3
  9
$SHADEDIF
 70
    70
  9
$TILEMODE
 70
     0
  9
$MAXACTVP
 70
    16
  9
$PINSBASE
 10
0.0
 20
0.0
 30
0.0
  9
$PLIMCHECK
 70
     0
  9
$PEXTMIN
 10
0.0
 20
0.0
 30
0.0
  9
$PEXTMAX
 10
10.0
 20
7.5
 30
0.0
  9
$PLIMMIN
 10
-0.187029
 20
-0.186938
  9
$PLIMMAX
 10
10.187518
 20
7.829757
  9
$UNITMODE
 70
     0
  9
$VISRETAIN
 70
     0
  9
$PLINEGEN
 70
     0
  9
$PSLTSCALE
 70
     1
  9
$TREEDEPTH
 70
  3020
  9
$PICKSTYLE
 70
     1
  9
$CMLSTYLE
  2
STANDARD
  9
$CMLJUST
 70
     0
  9
$CMLSCALE
 40
1.0
  9
$PROXYGRAPHICS
 70
     1
  9
$MEASUREMENT
 70
     0
  0
ENDSEC
  0
SECTION
  2
CLASSES
  0
CLASS
  1
DICTIONARYVAR
  2
AcDbDictionaryVar
  3
"AutoCAD"
 90
        0
280
     0
281
     0
  0
CLASS
  1
ACDBDICTIONARYWDFLT
  2
AcDbDictionaryWithDefault
  3
AutoCAD 2000
 90
        0
280
     0
281
     0
  0
CLASS
  1
ACDBPLACEHOLDER
  2
AcDbPlaceHolder
  3
AutoCAD 2000
 90
        0
280
     0
281
     0
  0
CLASS
  1
LAYOUT
  2
AcDbLayout
  3
AutoCAD 2000
 90
        0
280
     0
281
     0
  0
CLASS
  1
LONG_TRANSACTION
  2
AcDbLongTransaction
  3
AutoCAD 2000
 90
        0
280
     0
281
     0
  0
CLASS
  1
LWPOLYLINE
  2
AcDbPolyline
  3
"AutoCAD"
 90
        0
280
     0
281
     1
  0
CLASS
  1
HATCH
  2
AcDbHatch
  3
"ACAD_SEDONA"
 90
        0
280
     0
281
     1
  0
CLASS
  1
XRECORD
  2
AcDbXrecord
  3
"<Built In>"
 90
        0
280
     0
281
     0
  0
CLASS
  1
LONG_TRANSACTION
  2
AcDbLongTransaction
  3
AutoCAD 2000
 90
        0
280
     0
281
     0
  0
CLASS
  1
LWPOLYLINE
  2
AcDbPolyline
  3
"AutoCAD"
 90
        0
280
     0
281
     1
  0
CLASS
  1
HATCH
  2
AcDbHatch
  3
"ACAD_SEDONA"
 90
        0
280
     0
281
     1
  0
CLASS
  1
XRECORD
  2
AcDbXrecord
  3
"<Built In>"
 90
        0
280
     0
281
     0
  0
CLASS
  1
LONG_TRANSACTION
  2
AcDbLongTransaction
  3
AutoCAD 2000
 90
        0
280
     0
281
     0
  0
CLASS
  1
LWPOLYLINE
  2
AcDbPolyline
  3
"AutoCAD"
 90
        0
280
     0
281
     1
  0
CLASS
  1
HATCH
  2
AcDbHatch
  3
"ACAD_SEDONA"
 90
        0
280
     0
281
     1
  0
CLASS
  1
XRECORD
  2
AcDbXrecord
  3
"<Built In>"
 90
        0
280
     0
281
     0
  0
CLASS
  1
LONG_TRANSACTION
  2
AcDbLongTransaction
  3
AutoCAD 2000
 90
        0
280
     0
281
     0
  0
CLASS
  1
LWPOLYLINE
  2
AcDbPolyline
  3
"AutoCAD"
 90
        0
280
     0
281
     1
  0
CLASS
  1
HATCH
  2
AcDbHatch
  3
"ACAD_SEDONA"
 90
        0
280
     0
281
     1
  0
CLASS
  1
XRECORD
  2
AcDbXrecord
  3
"<Built In>"
 90
        0
280
     0
281
     0
  0
CLASS
  1
LONG_TRANSACTION
  2
AcDbLongTransaction
  3
AutoCAD 2000
 90
        0
280
     0
281
     0
  0
CLASS
  1
LWPOLYLINE
  2
AcDbPolyline
  3
"AutoCAD"
 90
        0
280
     0
281
     1
  0
CLASS
  1
HATCH
  2
AcDbHatch
  3
"ACAD_SEDONA"
 90
        0
280
     0
281
     1
  0
CLASS
  1
XRECORD
  2
AcDbXrecord
  3
"<Built In>"
 90
        0
280
     0
281
     0
  0
CLASS
  1
LONG_TRANSACTION
  2
AcDbLongTransaction
  3
AutoCAD 2000
 90
        0
280
     0
281
     0
  0
CLASS
  1
LWPOLYLINE
  2
AcDbPolyline
  3
"AutoCAD"
 90
        0
280
     0
281
     1
  0
CLASS
  1
HATCH
  2
AcDbHatch
  3
"ACAD_SEDONA"
 90
        0
280
     0
281
     1
  0
CLASS
  1
XRECORD
  2
AcDbXrecord
  3
"<Built In>"
 90
        0
280
     0
281
     0
  0
ENDSEC
  0
SECTION
  2
TABLES
  0
TABLE
  2
VPORT
  5
469
100
AcDbSymbolTable
 70
     1
  0
VPORT
  5
827
102
{ACAD_XDICTIONARY
360
8DE
102
}
100
AcDbSymbolTableRecord
100
AcDbViewportTableRecord
  2
*ACTIVE
 70
     0
 10
0.0
 20
0.0
 11
1.0
 21
1.0
 12
0.305834
 22
4.629923
 13
0.0
 23
0.0
 14
1.0
 24
1.0
 15
0.0
 25
0.0
 16
0.0
 26
0.0
 36
1.0
 17
0.0
 27
0.0
 37
0.0
 40
12.847041
 41
2.531469
 42
50.0
 43
0.0
 44
0.0
 50
0.0
 51
0.0
 71
     0
 72
   100
 73
     1
 74
     1
 75
     0
 76
     0
 77
     0
 78
     0
  0
ENDTAB
  0
TABLE
  2
LTYPE
  5
466
100
AcDbSymbolTable
 70
     1
  0
LTYPE
  5
472
100
AcDbSymbolTableRecord
100
AcDbLinetypeTableRecord
  2
BYBLOCK
 70
     0
  3

 72
    65
 73
     0
 40
0.0
  0
LTYPE
  5
473
100
AcDbSymbolTableRecord
100
AcDbLinetypeTableRecord
  2
BYLAYER
 70
     0
  3

 72
    65
 73
     0
 40
0.0
  0
LTYPE
  5
474
100
AcDbSymbolTableRecord
100
AcDbLinetypeTableRecord
  2
CONTINUOUS
 70
     0
  3
Solid line
 72
    65
 73
     0
 40
0.0
  0
ENDTAB
  0
TABLE
  2
LAYER
  5
463
100
AcDbSymbolTable
 70
     8
  0
LAYER
  5
46F
100
AcDbSymbolTableRecord
100
AcDbLayerTableRecord
  2
0
 70
     0
 62
     7
  6
CONTINUOUS
  0
LAYER
  5
485
100
AcDbSymbolTableRecord
100
AcDbLayerTableRecord
  2
AREA1
 70
     0
 62
     7
  6
CONTINUOUS
  0
LAYER
  5
486
100
AcDbSymbolTableRecord
100
AcDbLayerTableRecord
  2
AREA2
 70
     0
 62
     7
  6
CONTINUOUS
  0
LAYER
  5
494
102
{ACAD_XDICTIONARY
360
90B
102
}
100
AcDbSymbolTableRecord
100
AcDbLayerTableRecord
  2
DEFPOINTS
 70
     0
 62
    -7
  6
CONTINUOUS
  0
LAYER
  5
495
100
AcDbSymbolTableRecord
100
AcDbLayerTableRecord
  2
DIMS-MTG-HOLES
 70
     0
 62
    -1
  6
CONTINUOUS
  0
LAYER
  5
4E9
100
AcDbSymbolTableRecord
100
AcDbLayerTableRecord
  2
SCALE
 70
     0
 62
    -7
  6
CONTINUOUS
  0
LAYER
  5
4EA
100
AcDbSymbolTableRecord
100
AcDbLayerTableRecord
  2
SNAP_POINTS
 70
     0
 62
    -1
  6
CONTINUOUS
  0
LAYER
  5
55F
100
AcDbSymbolTableRecord
100
AcDbLayerTableRecord
  2
ATTRIBUTES
 70
     0
 62
    -7
  6
CONTINUOUS
  0
ENDTAB
  0
TABLE
  2
STYLE
  5
464
100
AcDbSymbolTable
 70
     1
  0
STYLE
  5
470
100
AcDbSymbolTableRecord
100
AcDbTextStyleTableRecord
  2
STANDARD
 70
     0
 40
0.0
 41
1.0
 50
0.0
 71
     0
 42
0.2
  3
txt
  4

  0
ENDTAB
  0
TABLE
  2
VIEW
  5
467
100
AcDbSymbolTable
 70
     0
  0
ENDTAB
  0
TABLE
  2
UCS
  5
468
100
AcDbSymbolTable
 70
     0
  0
ENDTAB
  0
TABLE
  2
APPID
  5
46A
100
AcDbSymbolTable
 70
     2
  0
APPID
  5
471
100
AcDbSymbolTableRecord
100
AcDbRegAppTableRecord
  2
ACAD
 70
     0
  0
APPID
  5
47E
100
AcDbSymbolTableRecord
100
AcDbRegAppTableRecord
  2
AVE_RENDER
 70
     0
  0
ENDTAB
  0
TABLE
  2
DIMSTYLE
  5
46B
100
AcDbSymbolTable
 70
     3
  0
DIMSTYLE
105
496
102
{ACAD_XDICTIONARY
360
90D
102
}
100
AcDbSymbolTableRecord
100
AcDbDimStyleTableRecord
  2
ABECAD
 70
     0
  3

  4

  5

  6

  7

 40
0.0
 41
0.179688
 42
0.0625
 43
0.375
 44
0.179688
 45
0.0
 46
0.0
 47
0.0
 48
0.0
140
0.125
141
0.089844
142
0.0
143
25.4
144
1.0
145
0.0
146
1.5
147
0.09375
 71
     0
 72
     0
 73
     0
 74
     0
 75
     0
 76
     0
 77
     0
 78
     4
170
     1
171
     1
172
     0
173
     0
174
     1
175
     0
176
     0
177
     0
178
     0
270
     7
271
     6
272
     6
273
     2
274
     1
340
470
275
     0
280
     0
281
     0
282
     0
283
     1
284
     4
285
     4
286
     4
287
     5
288
     0
  0
DIMSTYLE
105
49A
102
{ACAD_XDICTIONARY
360
90F
102
}
102
{ACAD_REACTORS
330
819
102
}
100
AcDbSymbolTableRecord
100
AcDbDimStyleTableRecord
  2
ABECAD_3V
 70
     0
  3

  4

  5

  6

  7

 40
0.0
 41
0.179688
 42
0.0625
 43
0.375
 44
0.179688
 45
0.0
 46
0.0
 47
0.0
 48
0.0
140
0.125
141
0.089844
142
0.0
143
25.4
144
1.0
145
0.0
146
1.5
147
0.09375
 71
     0
 72
     0
 73
     0
 74
     0
 75
     0
 76
     0
 77
     0
 78
     4
170
     1
171
     1
172
     0
173
     0
174
     1
175
     0
176
     0
177
     0
178
     0
270
     7
271
     6
272
     6
273
     2
274
     1
340
470
275
     0
280
     0
281
     0
282
     0
283
     1
284
     4
285
     4
286
     4
287
     5
288
     0
  0
DIMSTYLE
105
560
102
{ACAD_XDICTIONARY
360
913
102
}
102
{ACAD_REACTORS
330
7FF
330
800
102
}
100
AcDbSymbolTableRecord
100
AcDbDimStyleTableRecord
  2
ABECAD_3D
 70
     0
  3

  4

  5

  6

  7

 40
1.0
 41
0.18
 42
0.0625
 43
0.375
 44
0.18
 45
0.0
 46
0.0
 47
0.0
 48
0.0
140
0.18
141
0.09
142
0.0
143
25.4
144
1.0
145
0.0
146
1.5
147
0.09
 71
     0
 72
     0
 73
     0
 74
     1
 75
     0
 76
     0
 77
     0
 78
     4
170
     1
171
     1
172
     0
173
     0
174
     0
175
     0
176
     0
177
     0
178
     0
270
     7
271
     6
272
     6
273
     2
274
     1
340
470
275
     0
280
     0
281
     0
282
     0
283
     1
284
     4
285
     4
286
     4
287
     3
288
     0
  0
ENDTAB
  0
TABLE
  2
BLOCK_RECORD
  5
462
100
AcDbSymbolTable
 70
     4
  0
BLOCK_RECORD
  5
478
102
{ACAD_XDICTIONARY
360
4D2
102
}
100
AcDbSymbolTableRecord
100
AcDbBlockTableRecord
  2
*MODEL_SPACE
  0
BLOCK_RECORD
  5
475
102
{ACAD_XDICTIONARY
360
4D0
102
}
100
AcDbSymbolTableRecord
100
AcDbBlockTableRecord
  2
*PAPER_SPACE
  0
BLOCK_RECORD
  5
545
100
AcDbSymbolTableRecord
100
AcDbBlockTableRecord
  2
*D0
  0
BLOCK_RECORD
  5
552
100
AcDbSymbolTableRecord
100
AcDbBlockTableRecord
  2
*D1
  0
BLOCK_RECORD
  5
561
102
{ACAD_XDICTIONARY
360
8DC
102
}
100
AcDbSymbolTableRecord
100
AcDbBlockTableRecord
  2
ABIOE620
  0
BLOCK_RECORD
  5
81A
100
AcDbSymbolTableRecord
100
AcDbBlockTableRecord
  2
*D3
  0
ENDTAB
  0
ENDSEC
  0
SECTION
  2
BLOCKS
  0
BLOCK
  5
48B
100
AcDbEntity
  8
0
100
AcDbBlockBegin
  2
*MODEL_SPACE
 70
     0
 10
0.0
 20
0.0
 30
0.0
  3
*MODEL_SPACE
  1

  0
ENDBLK
  5
48C
100
AcDbEntity
  8
0
100
AcDbBlockEnd
  0
BLOCK
  5
489
100
AcDbEntity
 67
     1
  8
0
100
AcDbBlockBegin
  2
*PAPER_SPACE
 70
     0
 10
0.0
 20
0.0
 30
0.0
  3
*PAPER_SPACE
  1

  0
ENDBLK
  5
48A
100
AcDbEntity
 67
     1
  8
0
100
AcDbBlockEnd
  0
BLOCK
  5
550
100
AcDbEntity
  8
0
100
AcDbBlockBegin
  2
*D0
 70
     1
 10
0.0
 20
0.0
 30
0.0
  3
*D0
  1

  0
LINE
  5
546
100
AcDbEntity
  8
AREA1
 62
     0
100
AcDbLine
 10
-0.163868
 20
-0.562545
 30
0.0
 11
1.452481
 21
-0.562545
 31
0.0
1001
ACAD
1000
RTLwPs
1070
   158
  0
LINE
  5
547
100
AcDbEntity
  8
AREA1
 62
     0
100
AcDbLine
 10
0.3275
 20
10.0432
 30
0.0
 11
1.452481
 21
10.0432
 31
0.0
1001
ACAD
1000
RTLwPs
1070
   158
  0
LINE
  5
548
100
AcDbEntity
  8
AREA1
 62
     0
100
AcDbLine
 10
1.272481
 20
-0.382545
 30
0.0
 11
1.272481
 21
3.405327
 31
0.0
1001
ACAD
1000
RTLwPs
1070
   158
  0
LINE
  5
549
100
AcDbEntity
  8
AREA1
 62
     0
100
AcDbLine
 10
1.272481
 20
9.8632
 30
0.0
 11
1.272481
 21
6.075327
 31
0.0
1001
ACAD
1000
RTLwPs
1070
   158
  0
SOLID
  5
54A
100
AcDbEntity
  8
AREA1
 62
     0
100
AcDbTrace
 10
1.242481
 20
-0.382545
 30
0.0
 11
1.302481
 21
-0.382545
 31
0.0
 12
1.272481
 22
-0.562545
 32
0.0
 13
1.272481
 23
-0.562545
 33
0.0
  0
SOLID
  5
54B
100
AcDbEntity
  8
AREA1
 62
     0
100
AcDbTrace
 10
1.242481
 20
9.8632
 30
0.0
 11
1.302481
 21
9.8632
 31
0.0
 12
1.272481
 22
10.0432
 32
0.0
 13
1.272481
 23
10.0432
 33
0.0
  0
MTEXT
  5
54C
100
AcDbEntity
  8
AREA1
 62
     0
100
AcDbMText
 10
1.272481
 20
4.740327
 30
0.0
 40
0.18
 41
0.0
 71
     5
 72
     1
  1
\A1;10 39/64 [269.4]
 11
0.0
 21
1.0
 31
0.0
1001
ACAD
1000
MTEXTBEGIN
1070
    73
1070
     1
1070
    44
1040
1.0
1070
    74
1070
     0
1000
MTEXTEND
1000
MTEXTBEGIN
1070
    73
1070
     1
1070
    44
1040
1.0
1070
    74
1070
     0
1000
MTEXTEND
1000
MTEXTBEGIN
1070
    73
1070
     1
1070
    44
1040
1.0
1070
    74
1070
     0
1000
MTEXTEND
1000
MTEXTBEGIN
1070
    73
1070
     1
1070
    44
1040
1.0
1070
    74
1070
     0
1000
MTEXTEND
1000
MTEXTBEGIN
1070
    73
1070
     1
1070
    44
1040
1.0
1070
    74
1070
     0
1000
MTEXTEND
1000
MTEXTBEGIN
1070
    73
1070
     1
1070
    44
1040
1.0
1070
    74
1070
     0
1000
MTEXTEND
  0
POINT
  5
54D
100
AcDbEntity
  8
DEFPOINTS
 62
     0
100
AcDbPoint
 10
-0.226368
 20
-0.562545
 30
5.88
  0
POINT
  5
54E
100
AcDbEntity
  8
DEFPOINTS
 62
     0
100
AcDbPoint
 10
0.265
 20
10.0432
 30
5.747
  0
POINT
  5
54F
100
AcDbEntity
  8
DEFPOINTS
 62
     0
100
AcDbPoint
 10
1.272481
 20
10.0432
 30
0.0
  0
ENDBLK
  5
551
100
AcDbEntity
  8
0
100
AcDbBlockEnd
  0
BLOCK
  5
55D
100
AcDbEntity
  8
0
100
AcDbBlockBegin
  2
*D1
 70
     1
 10
0.0
 20
0.0
 30
0.0
  3
*D1
  1

  0
LINE
  5
553
100
AcDbEntity
  8
AREA1
 62
     0
100
AcDbLine
 10
-1.025435
 20
0.37789
 30
0.0
 11
-1.025435
 21
10.921904
 31
0.0
1001
ACAD
1000
RTLwPs
1070
   158
  0
LINE
  5
554
100
AcDbEntity
  8
AREA1
 62
     0
100
AcDbLine
 10
0.27
 20
9.8625
 30
0.0
 11
0.27
 21
10.921904
 31
0.0
1001
ACAD
1000
RTLwPs
1070
   158
  0
LINE
  5
555
100
AcDbEntity
  8
AREA1
 62
     0
100
AcDbLine
 10
-0.845435
 20
10.741904
 30
0.0
 11
0.09
 21
10.741904
 31
0.0
1001
ACAD
1000
RTLwPs
1070
   158
  0
LINE
  5
556
100
AcDbEntity
  8
AREA1
 62
     0
100
AcDbLine
 10
0.27
 20
10.741904
 30
0.0
 11
0.45
 21
10.741904
 31
0.0
1001
ACAD
1000
RTLwPs
1070
   158
  0
SOLID
  5
557
100
AcDbEntity
  8
AREA1
 62
     0
100
AcDbTrace
 10
-0.845435
 20
10.771904
 30
0.0
 11
-0.845435
 21
10.711904
 31
0.0
 12
-1.025435
 22
10.741904
 32
0.0
 13
-1.025435
 23
10.741904
 33
0.0
  0
SOLID
  5
558
100
AcDbEntity
  8
AREA1
 62
     0
100
AcDbTrace
 10
0.09
 20
10.771904
 30
0.0
 11
0.09
 21
10.711904
 31
0.0
 12
0.27
 22
10.741904
 32
0.0
 13
0.27
 23
10.741904
 33
0.0
  0
MTEXT
  5
559
100
AcDbEntity
  8
AREA1
 62
     0
100
AcDbMText
 10
1.59
 20
10.741904
 30
0.0
 40
0.18
 41
0.0
 71
     5
 72
     1
  1
\A1;1 19/64 [32.9]
1001
ACAD
1000
MTEXTBEGIN
1070
    73
1070
     1
1070
    44
1040
1.0
1070
    74
1070
     0
1000
MTEXTEND
1000
MTEXTBEGIN
1070
    73
1070
     1
1070
    44
1040
1.0
1070
    74
1070
     0
1000
MTEXTEND
1000
MTEXTBEGIN
1070
    73
1070
     1
1070
    44
1040
1.0
1070
    74
1070
     0
1000
MTEXTEND
1000
MTEXTBEGIN
1070
    73
1070
     1
1070
    44
1040
1.0
1070
    74
1070
     0
1000
MTEXTEND
1000
MTEXTBEGIN
1070
    73
1070
     1
1070
    44
1040
1.0
1070
    74
1070
     0
1000
MTEXTEND
1000
MTEXTBEGIN
1070
    73
1070
     1
1070
    44
1040
1.0
1070
    74
1070
     0
1000
MTEXTEND
  0
POINT
  5
55A
100
AcDbEntity
  8
DEFPOINTS
 62
     0
100
AcDbPoint
 10
-1.025435
 20
0.31539
 30
5.88
  0
POINT
  5
55B
100
AcDbEntity
  8
DEFPOINTS
 62
     0
100
AcDbPoint
 10
0.27
 20
9.8
 30
0.0
  0
POINT
  5
55C
100
AcDbEntity
  8
DEFPOINTS
 62
     0
100
AcDbPoint
 10
0.27
 20
10.741904
 30
0.0
  0
ENDBLK
  5
55E
100
AcDbEntity
  8
0
100
AcDbBlockEnd
  0
BLOCK
  5
80C
100
AcDbEntity
  8
0
100
AcDbBlockBegin
  2
ABIOE620
 70
     2
 10
0.0
 20
0.0
 30
0.0
  3
ABIOE620
  1

  0
ATTDEF
  5
562
100
AcDbEntity
  8
ATTRIBUTES
100
AcDbText
 10
-0.7539
 20
1.36709
 30
0.0
 40
0.06
  1
ALLEN-BRADLEY
100
AcDbAttributeDefinition
  3
MANUFACTURER NAME?
  2
AC_VND_LABEL
 70
     1
  0
ATTDEF
  5
563
100
AcDbEntity
  8
ATTRIBUTES
100
AcDbText
 10
-0.7539
 20
1.24209
 30
0.0
 40
0.06
  1
1771-NB4S
100
AcDbAttributeDefinition
  3
CATALOG NUMBER?
  2
AC_PART_NO
 70
     1
  0
ATTDEF
  5
564
100
AcDbEntity
  8
ATTRIBUTES
100
AcDbText
 10
-0.7539
 20
1.11709
 30
0.0
 40
0.06
  1
1771-NB4S:HIGH RESOLUTION ISOLATED ANALOG MDL, (2) SOURCING 4-20MA IN (2) 4-20MA OUT
100
AcDbAttributeDefinition
  3
PART DESCRIPTION?
  2
AC_DESCRIPTION
 70
     1
  0
ATTDEF
  5
565
100
AcDbEntity
  8
ATTRIBUTES
100
AcDbText
 10
-0.7539
 20
0.99209
 30
0.0
 40
0.06
  1

100
AcDbAttributeDefinition
  3
DEVICE ID?
  2
DEVICE_ID
 70
     1
  0
ATTDEF
  5
566
100
AcDbEntity
  8
ATTRIBUTES
100
AcDbText
 10
-0.7539
 20
0.86709
 30
0.0
 40
0.06
  1

100
AcDbAttributeDefinition
  3
CUSTOMER PART NUMBER?
  2
AC_CPART_NO
 70
     1
  0
ATTDEF
  5
567
100
AcDbEntity
  8
ATTRIBUTES
100
AcDbText
 10
-0.7539
 20
0.74209
 30
0.0
 40
0.06
  1

100
AcDbAttributeDefinition
  3
CUSTOMER NOTE?
  2
AC_NOTE
 70
     1
  0
ATTDEF
  5
568
100
AcDbEntity
  8
ATTRIBUTES
100
AcDbText
 10
-0.7539
 20
0.61709
 30
0.0
 40
0.06
  1

100
AcDbAttributeDefinition
  3
FASTENER DATA?
  2
FASTENER
 70
     1
  0
ATTDEF
  5
569
100
AcDbEntity
  8
ATTRIBUTES
100
AcDbText
 10
-0.7539
 20
0.49209
 30
0.0
 40
0.06
  1
INCH
100
AcDbAttributeDefinition
  3
UNIT OF SCALE?
  2
AC_SCALE_UNIT
 70
     1
  0
ATTDEF
  5
56A
100
AcDbEntity
  8
ATTRIBUTES
100
AcDbText
 10
-0.7539
 20
0.36709
 30
0.0
 40
0.06
  1
0
100
AcDbAttributeDefinition
  3
VIEW CODE?
  2
AC_VIEW_CODE
 70
     1
  0
POLYLINE
  5
56B
100
AcDbEntity
  8
0
100
AcDbPolygonMesh
 66
     1
 10
0.0
 20
0.0
 30
0.0
 70
    16
 71
     6
 72
     3
  0
VERTEX
  5
56C
100
AcDbEntity
  8
0
100
AcDbVertex
100
AcDbPolygonMeshVertex
 10
0.27
 20
0.2
 30
5.39
 70
    64
  0
VERTEX
  5
56D
100
AcDbEntity
  8
0
100
AcDbVertex
100
AcDbPolygonMeshVertex
 10
0.27
 20
0.2
 30
0.0
 70
    64
  0
VERTEX
  5
56E
100
AcDbEntity
  8
0
100
AcDbVertex
100
AcDbPolygonMeshVertex
 10
0.27
 20
0.2
 30
0.0
 70
    64
  0
VERTEX
  5
56F
100
AcDbEntity
  8
0
100
AcDbVertex
100
AcDbPolygonMeshVertex
 10
-0.89
 20
0.2
 30
5.39
 70
    64
  0
VERTEX
  5
570
100
AcDbEntity
  8
0
100
AcDbVertex
100
AcDbPolygonMeshVertex
 10
-0.89
 20
0.2
 30
0.0
 70
    64
  0
VERTEX
  5
571
100
AcDbEntity
  8
0
100
AcDbVertex
100
AcDbPolygonMeshVertex
 10
-0.89
 20
0.2
 30
0.0
 70
    64
  0
VERTEX
  5
572
100
AcDbEntity
  8
0
100
AcDbVertex
100
AcDbPolygonMeshVertex
 10
-0.89
 20
9.8
 30
5.39
 70
    64
  0
VERTEX
  5
573
100
AcDbEntity
  8
0
100
AcDbVertex
100
AcDbPolygonMeshVertex
 10
-0.89
 20
9.8
 30
0.0
 70
    64
  0
VERTEX
  5
574
100
AcDbEntity
  8
0
100
AcDbVertex
100
AcDbPolygonMeshVertex
 10
-0.89
 20
0.2
 30
0.0
 70
    64
  0
VERTEX
  5
575
100
AcDbEntity
  8
0
100
AcDbVertex
100
AcDbPolygonMeshVertex
 10
0.27
 20
9.8
 30
5.39
 70
    64
  0
VERTEX
  5
576
100
AcDbEntity
  8
0
100
AcDbVertex
100
AcDbPolygonMeshVertex
 10
0.27
 20
9.8
 30
0.0
 70
    64
  0
VERTEX
  5
577
100
AcDbEntity
  8
0
100
AcDbVertex
100
AcDbPolygonMeshVertex
 10
0.27
 20
0.2
 30
0.0
 70
    64
  0
VERTEX
  5
578
100
AcDbEntity
  8
0
100
AcDbVertex
100
AcDbPolygonMeshVertex
 10
0.27
 20
9.8
 30
5.39
 70
    64
  0
VERTEX
  5
579
100
AcDbEntity
  8
0
100
AcDbVertex
100
AcDbPolygonMeshVertex
 10
0.27
 20
9.8
 30
5.39
 70
    64
  0
VERTEX
  5
57A
100
AcDbEntity
  8
0
100
AcDbVertex
100
AcDbPolygonMeshVertex
 10
0.27
 20
0.2
 30
5.39
 70
    64
  0
VERTEX
  5
57B
100
AcDbEntity
  8
0
100
AcDbVertex
100
AcDbPolygonMeshVertex
 10
-0.89
 20
9.8
 30
5.39
 70
    64
  0
VERTEX
  5
57C
100
AcDbEntity
  8
0
100
AcDbVertex
100
AcDbPolygonMeshVertex
 10
-0.89
 20
9.8
 30
5.39
 70
    64
  0
VERTEX
  5
57D
100
AcDbEntity
  8
0
100
AcDbVertex
100
AcDbPolygonMeshVertex
 10
-0.89
 20
0.2
 30
5.39
 70
    64
  0
SEQEND
  5
57E
100
AcDbEntity
  8
0
  0
POLYLINE
  5
57F
100
AcDbEntity
  8
0
100
AcDbPolygonMesh
 66
     1
 10
0.0
 20
0.0
 30
0.0
 70
    16
 71
     6
 72
     3
  0
VERTEX
  5
580
100
AcDbEntity
  8
0
100
AcDbVertex
100
AcDbPolygonMeshVertex
 10
0.27
 20
0.2
 30
5.88
 70
    64
  0
VERTEX
  5
581
100
AcDbEntity
  8
0
100
AcDbVertex
100
AcDbPolygonMeshVertex
 10
0.27
 20
0.2
 30
5.39
 70
    64
  0
VERTEX
  5
582
100
AcDbEntity
  8
0
100
AcDbVertex
100
AcDbPolygonMeshVertex
 10
0.27
 20
0.2
 30
5.39
 70
    64
  0
VERTEX
  5
583
100
AcDbEntity
  8
0
100
AcDbVertex
100
AcDbPolygonMeshVertex
 10
-0.89
 20
0.2
 30
5.88
 70
    64
  0
VERTEX
  5
584
100
AcDbEntity
  8
0
100
AcDbVertex
100
AcDbPolygonMeshVertex
 10
-0.89
 20
0.2
 30
5.39
 70
    64
  0
VERTEX
  5
585
100
AcDbEntity
  8
0
100
AcDbVertex
100
AcDbPolygonMeshVertex
 10
-0.89
 20
0.2
 30
5.39
 70
    64
  0
VERTEX
  5
586
100
AcDbEntity
  8
0
100
AcDbVertex
100
AcDbPolygonMeshVertex
 10
-0.89
 20
8.912
 30
5.88
 70
    64
  0
VERTEX
  5
587
100
AcDbEntity
  8
0
100
AcDbVertex
100
AcDbPolygonMeshVertex
 10
-0.89
 20
8.912
 30
5.39
 70
    64
  0
VERTEX
  5
588
100
AcDbEntity
  8
0
100
AcDbVertex
100
AcDbPolygonMeshVertex
 10
-0.89
 20
0.2
 30
5.39
 70
    64
  0
VERTEX
  5
589
100
AcDbEntity
  8
0
100
AcDbVertex
100
AcDbPolygonMeshVertex
 10
0.27
 20
8.912
 30
5.88
 70
    64
  0
VERTEX
  5
58A
100
AcDbEntity
  8
0
100
AcDbVertex
100
AcDbPolygonMeshVertex
 10
0.27
 20
8.912
 30
5.39
 70
    64
  0
VERTEX
  5
58B
100
AcDbEntity
  8
0
100
AcDbVertex
100
AcDbPolygonMeshVertex
 10
0.27
 20
0.2
 30
5.39
 70
    64
  0
VERTEX
  5
58C
100
AcDbEntity
  8
0
100
AcDbVertex
100
AcDbPolygonMeshVertex
 10
0.27
 20
8.912
 30
5.88
 70
    64
  0
VERTEX
  5
58D
100
AcDbEntity
  8
0
100
AcDbVertex
100
AcDbPolygonMeshVertex
 10
0.27
 20
8.912
 30
5.88
 70
    64
  0
VERTEX
  5
58E
100
AcDbEntity
  8
0
100
AcDbVertex
100
AcDbPolygonMeshVertex
 10
0.27
 20
0.2
 30
5.88
 70
    64
  0
VERTEX
  5
58F
100
AcDbEntity
  8
0
100
AcDbVertex
100
AcDbPolygonMeshVertex
 10
-0.89
 20
8.912
 30
5.88
 70
    64
  0
VERTEX
  5
590
100
AcDbEntity
  8
0
100
AcDbVertex
100
AcDbPolygonMeshVertex
 10
-0.89
 20
8.912
 30
5.88
 70
    64
  0
VERTEX
  5
591
100
AcDbEntity
  8
0
100
AcDbVertex
100
AcDbPolygonMeshVertex
 10
-0.89
 20
0.2
 30
5.88
 70
    64
  0
SEQEND
  5
592
100
AcDbEntity
  8
0
  0
POLYLINE
  5
593
100
AcDbEntity
  8
0
100
AcDbPolygonMesh
 66
     1
 10
0.0
 20
0.0
 30
0.0
 70
    16
 71
     6
 72
     3
  0
VERTEX
  5
594
100
AcDbEntity
  8
0
100
AcDbVertex
100
AcDbPolygonMeshVertex
 10
0.068
 20
0.0
 30
4.755
 70
    64
  0
VERTEX
  5
595
100
AcDbEntity
  8
0
100
AcDbVertex
100
AcDbPolygonMeshVertex
 10
0.068
 20
0.0
 30
0.0
 70
    64
  0
VERTEX
  5
596
100
AcDbEntity
  8
0
100
AcDbVertex
100
AcDbPolygonMeshVertex
 10
0.068
 20
0.0
 30
0.0
 70
    64
  0
VERTEX
  5
597
100
AcDbEntity
  8
0
100
AcDbVertex
100
AcDbPolygonMeshVertex
 10
0.0
 20
0.0
 30
4.755
 70
    64
  0
VERTEX
  5
598
100
AcDbEntity
  8
0
100
AcDbVertex
100
AcDbPolygonMeshVertex
 10
0.0
 20
0.0
 30
0.0
 70
    64
  0
VERTEX
  5
599
100
AcDbEntity
  8
0
100
AcDbVertex
100
AcDbPolygonMeshVertex
 10
0.0
 20
0.0
 30
0.0
 70
    64
  0
VERTEX
  5
59A
100
AcDbEntity
  8
0
100
AcDbVertex
100
AcDbPolygonMeshVertex
 10
0.0
 20
0.2
 30
4.755
 70
    64
  0
VERTEX
  5
59B
100
AcDbEntity
  8
0
100
AcDbVertex
100
AcDbPolygonMeshVertex
 10
0.0
 20
0.2
 30
0.0
 70
    64
  0
VERTEX
  5
59C
100
AcDbEntity
  8
0
100
AcDbVertex
100
AcDbPolygonMeshVertex
 10
0.0
 20
0.0
 30
0.0
 70
    64
  0
VERTEX
  5
59D
100
AcDbEntity
  8
0
100
AcDbVertex
100
AcDbPolygonMeshVertex
 10
0.068
 20
0.2
 30
4.755
 70
    64
  0
VERTEX
  5
59E
100
AcDbEntity
  8
0
100
AcDbVertex
100
AcDbPolygonMeshVertex
 10
0.068
 20
0.2
 30
0.0
 70
    64
  0
VERTEX
  5
59F
100
AcDbEntity
  8
0
100
AcDbVertex
100
AcDbPolygonMeshVertex
 10
0.068
 20
0.0
 30
0.0
 70
    64
  0
VERTEX
  5
5A0
100
AcDbEntity
  8
0
100
AcDbVertex
100
AcDbPolygonMeshVertex
 10
0.068
 20
0.2
 30
4.755
 70
    64
  0
VERTEX
  5
5A1
100
AcDbEntity
  8
0
100
AcDbVertex
100
AcDbPolygonMeshVertex
 10
0.068
 20
0.2
 30
4.755
 70
    64
  0
VERTEX
  5
5A2
100
AcDbEntity
  8
0
100
AcDbVertex
100
AcDbPolygonMeshVertex
 10
0.068
 20
0.0
 30
4.755
 70
    64
  0
VERTEX
  5
5A3
100
AcDbEntity
  8
0
100
AcDbVertex
100
AcDbPolygonMeshVertex
 10
0.0
 20
0.2
 30
4.755
 70
    64
  0
VERTEX
  5
5A4
100
AcDbEntity
  8
0
100
AcDbVertex
100
AcDbPolygonMeshVertex
 10
0.0
 20
0.2
 30
4.755
 70
    64
  0
VERTEX
  5
5A5
100
AcDbEntity
  8
0
100
AcDbVertex
100
AcDbPolygonMeshVertex
 10
0.0
 20
0.0
 30
4.755
 70
    64
  0
SEQEND
  5
5A6
100
AcDbEntity
  8
0
  0
POINT
  5
5A7
100
AcDbEntity
  8
SNAP_POINTS
100
AcDbPoint
 10
0.034
 20
0.0
 30
0.0
  0
LINE
  5
5A8
100
AcDbEntity
  8
0
100
AcDbLine
 10
-0.593237
 20
0.425898
 30
5.88
 11
-0.593237
 21
3.911873
 31
5.88
  0
LINE
  5
5A9
100
AcDbEntity
  8
0
100
AcDbLine
 10
0.060088
 20
0.516311
 30
5.88
 11
0.060088
 21
3.911873
 31
5.88
  0
LINE
  5
5AA
100
AcDbEntity
  8
0
100
AcDbLine
 10
-0.402264
 20
1.475708
 30
5.88
 11
-0.402264
 21
1.229581
 31
5.88
  0
LINE
  5
5AB
100
AcDbEntity
  8
0
100
AcDbLine
 10
-0.311803
 20
1.435523
 30
5.88
 11
-0.150985
 21
1.269764
 31
5.88
  0
LINE
  5
5AC
100
AcDbEntity
  8
0
100
AcDbLine
 10
-0.161036
 20
1.440547
 30
5.88
 11
-0.140936
 21
1.420455
 31
5.88
  0
LINE
  5
5AD
100
AcDbEntity
  8
0
100
AcDbLine
 10
-0.331905
 20
1.415433
 30
5.88
 11
-0.311803
 21
1.435523
 31
5.88
  0
LINE
  5
5AE
100
AcDbEntity
  8
0
100
AcDbLine
 10
0.195778
 20
4.183115
 30
5.88
 11
0.195778
 21
0.425898
 31
5.88
  0
LINE
  5
5AF
100
AcDbEntity
  8
0
100
AcDbLine
 10
-0.7239
 20
4.213253
 30
5.88
 11
-0.7239
 21
0.486173
 31
5.88
  0
LINE
  5
5B0
100
AcDbEntity
  8
0
100
AcDbLine
 10
-0.593237
 20
0.425898
 30
5.88
 11
-0.94
 21
0.23
 31
5.88
  0
LINE
  5
5B1
100
AcDbEntity
  8
0
100
AcDbLine
 10
-1.020408
 20
-0.562545
 30
5.88
 11
-0.226368
 21
-0.562545
 31
5.88
  0
LINE
  5
5B2
100
AcDbEntity
  8
0
100
AcDbLine
 10
-0.94
 20
-0.562545
 30
5.88
 11
-0.94
 21
0.216022
 31
5.88
  0
LINE
  5
5B3
100
AcDbEntity
  8
0
100
AcDbLine
 10
-1.025435
 20
0.29639
 30
5.88
 11
-1.025435
 21
-0.562545
 31
5.88
  0
LINE
  5
5B4
100
AcDbEntity
  8
0
100
AcDbLine
 10
-0.864618
 20
-0.040151
 30
5.88
 11
-0.864618
 21
0.251183
 31
5.88
  0
LINE
  5
5B5
100
AcDbEntity
  8
0
100
AcDbLine
 10
-0.94
 20
-0.040151
 30
5.88
 11
-0.864618
 21
-0.040151
 31
5.88
  0
LINE
  5
5B6
100
AcDbEntity
  8
0
100
AcDbLine
 10
-0.718874
 20
0.491197
 30
5.88
 11
-1.025435
 21
0.31539
 31
5.88
  0
LINE
  5
5B7
100
AcDbEntity
  8
0
100
AcDbLine
 10
-0.311803
 20
0.497311
 30
5.88
 11
-0.311803
 21
-0.562545
 31
5.88
  0
LINE
  5
5B8
100
AcDbEntity
  8
0
100
AcDbLine
 10
-0.226368
 20
0.356667
 30
5.88
 11
-0.226368
 21
-0.562545
 31
5.88
  0
LINE
  5
5B9
100
AcDbEntity
  8
0
100
AcDbLine
 10
-0.402264
 20
0.782531
 30
5.88
 11
-0.402264
 21
0.425898
 31
5.88
  0
LINE
  5
5BA
100
AcDbEntity
  8
0
100
AcDbLine
 10
-0.311803
 20
0.742346
 30
5.88
 11
-0.150985
 21
0.571565
 31
5.88
  0
LINE
  5
5BB
100
AcDbEntity
  8
0
100
AcDbLine
 10
-0.331905
 20
0.591657
 30
5.88
 11
-0.346983
 21
0.616772
 31
5.88
  0
LINE
  5
5BC
100
AcDbEntity
  8
0
100
AcDbLine
 10
-0.120832
 20
0.621795
 30
5.88
 11
-0.130883
 21
0.596679
 31
5.88
  0
LINE
  5
5BD
100
AcDbEntity
  8
0
100
AcDbLine
 10
0.195778
 20
0.425898
 30
5.88
 11
-0.130883
 21
0.425898
 31
5.88
  0
LINE
  5
5BE
100
AcDbEntity
  8
0
100
AcDbLine
 10
-0.311803
 20
0.516311
 30
5.88
 11
0.195778
 21
0.516311
 31
5.88
  0
LINE
  5
5BF
100
AcDbEntity
  8
0
100
AcDbLine
 10
-0.407289
 20
0.216022
 30
5.88
 11
-0.407289
 21
-0.040151
 31
5.88
  0
LINE
  5
5C0
100
AcDbEntity
  8
0
100
AcDbLine
 10
-0.407289
 20
-0.040151
 30
5.88
 11
-0.311803
 21
-0.040151
 31
5.88
  0
LINE
  5
5C1
100
AcDbEntity
  8
0
100
AcDbLine
 10
-0.593237
 20
0.425898
 30
5.88
 11
-0.311803
 21
0.425898
 31
5.88
  0
LINE
  5
5C2
100
AcDbEntity
  8
0
100
AcDbLine
 10
-0.407289
 20
0.235022
 30
5.88
 11
-0.311803
 21
0.235022
 31
5.88
  0
LINE
  5
5C3
100
AcDbEntity
  8
0
100
AcDbLine
 10
-0.130883
 20
0.425898
 30
5.88
 11
-0.226368
 21
0.375667
 31
5.88
  0
LINE
  5
5C4
100
AcDbEntity
  8
0
100
AcDbLine
 10
-0.216318
 20
0.536404
 30
5.88
 11
-0.246471
 21
0.536404
 31
5.88
  0
LINE
  5
5C5
100
AcDbEntity
  8
0
100
AcDbLine
 10
-0.316828
 20
0.571565
 30
5.88
 11
-0.331905
 21
0.591657
 31
5.88
  0
LINE
  5
5C6
100
AcDbEntity
  8
0
100
AcDbLine
 10
-0.296726
 20
0.556496
 30
5.88
 11
-0.316828
 21
0.571565
 31
5.88
  0
LINE
  5
5C7
100
AcDbEntity
  8
0
100
AcDbLine
 10
-0.271599
 20
0.541427
 30
5.88
 11
-0.296726
 21
0.556496
 31
5.88
  0
LINE
  5
5C8
100
AcDbEntity
  8
0
100
AcDbLine
 10
-0.246471
 20
0.536404
 30
5.88
 11
-0.271599
 21
0.541427
 31
5.88
  0
LINE
  5
5C9
100
AcDbEntity
  8
0
100
AcDbLine
 10
-0.191191
 20
0.546449
 30
5.88
 11
-0.216318
 21
0.536404
 31
5.88
  0
LINE
  5
5CA
100
AcDbEntity
  8
0
100
AcDbLine
 10
-0.166063
 20
0.556496
 30
5.88
 11
-0.191191
 21
0.546449
 31
5.88
  0
LINE
  5
5CB
100
AcDbEntity
  8
0
100
AcDbLine
 10
-0.14596
 20
0.576589
 30
5.88
 11
-0.166063
 21
0.556496
 31
5.88
  0
LINE
  5
5CC
100
AcDbEntity
  8
0
100
AcDbLine
 10
-0.130883
 20
0.596679
 30
5.88
 11
-0.14596
 21
0.576589
 31
5.88
  0
LINE
  5
5CD
100
AcDbEntity
  8
0
100
AcDbLine
 10
-0.075603
 20
0.406898
 30
5.88
 11
-0.075603
 21
-0.015037
 31
5.88
  0
LINE
  5
5CE
100
AcDbEntity
  8
0
100
AcDbLine
 10
0.024909
 20
-0.015037
 30
5.88
 11
0.024909
 21
0.406898
 31
5.88
  0
LINE
  5
5CF
100
AcDbEntity
  8
0
100
AcDbLine
 10
0.266135
 20
0.194839
 30
5.88
 11
0.195778
 21
0.124516
 31
5.88
  0
LINE
  5
5D0
100
AcDbEntity
  8
0
100
AcDbLine
 10
0.195778
 20
0.124516
 30
5.88
 11
0.024909
 21
0.124516
 31
5.88
  0
LINE
  5
5D1
100
AcDbEntity
  8
0
100
AcDbLine
 10
-0.075603
 20
-0.015037
 30
5.88
 11
0.024909
 21
-0.015037
 31
5.88
  0
LINE
  5
5D2
100
AcDbEntity
  8
0
100
AcDbLine
 10
0.060088
 20
0.782531
 30
5.88
 11
-0.532929
 21
0.782531
 31
5.88
  0
LINE
  5
5D3
100
AcDbEntity
  8
0
100
AcDbLine
 10
-0.532929
 20
0.882992
 30
5.88
 11
0.060088
 21
0.882992
 31
5.88
  0
LINE
  5
5D4
100
AcDbEntity
  8
0
100
AcDbLine
 10
0.060088
 20
1.12912
 30
5.88
 11
-0.532929
 21
1.12912
 31
5.88
  0
LINE
  5
5D5
100
AcDbEntity
  8
0
100
AcDbLine
 10
-0.532929
 20
1.229581
 30
5.88
 11
0.060088
 21
1.229581
 31
5.88
  0
LINE
  5
5D6
100
AcDbEntity
  8
0
100
AcDbLine
 10
-0.402264
 20
1.12912
 30
5.88
 11
-0.402264
 21
0.882992
 31
5.88
  0
LINE
  5
5D7
100
AcDbEntity
  8
0
100
AcDbLine
 10
-0.311803
 20
1.088935
 30
5.88
 11
-0.150985
 21
0.918153
 31
5.88
  0
LINE
  5
5D8
100
AcDbEntity
  8
0
100
AcDbLine
 10
-0.120832
 20
1.023636
 30
5.88
 11
-0.115805
 21
0.998522
 31
5.88
  0
LINE
  5
5D9
100
AcDbEntity
  8
0
100
AcDbLine
 10
-0.352009
 20
0.993498
 30
5.88
 11
-0.352009
 21
1.018614
 31
5.88
  0
LINE
  5
5DA
100
AcDbEntity
  8
0
100
AcDbLine
 10
-0.532929
 20
0.782531
 30
5.88
 11
-0.532929
 21
0.882992
 31
5.88
  0
LINE
  5
5DB
100
AcDbEntity
  8
0
100
AcDbLine
 10
-0.23642
 20
0.772486
 30
5.88
 11
-0.211293
 21
0.767463
 31
5.88
  0
LINE
  5
5DC
100
AcDbEntity
  8
0
100
AcDbLine
 10
-0.346983
 20
0.616772
 30
5.88
 11
-0.352009
 21
0.641888
 31
5.88
  0
LINE
  5
5DD
100
AcDbEntity
  8
0
100
AcDbLine
 10
-0.261548
 20
0.767463
 30
5.88
 11
-0.23642
 21
0.772486
 31
5.88
  0
LINE
  5
5DE
100
AcDbEntity
  8
0
100
AcDbLine
 10
-0.286675
 20
0.757417
 30
5.88
 11
-0.261548
 21
0.767463
 31
5.88
  0
LINE
  5
5DF
100
AcDbEntity
  8
0
100
AcDbLine
 10
-0.311803
 20
0.742346
 30
5.88
 11
-0.286675
 21
0.757417
 31
5.88
  0
LINE
  5
5E0
100
AcDbEntity
  8
0
100
AcDbLine
 10
-0.331905
 20
0.722256
 30
5.88
 11
-0.311803
 21
0.742346
 31
5.88
  0
LINE
  5
5E1
100
AcDbEntity
  8
0
100
AcDbLine
 10
-0.341956
 20
0.69714
 30
5.88
 11
-0.331905
 21
0.722256
 31
5.88
  0
LINE
  5
5E2
100
AcDbEntity
  8
0
100
AcDbLine
 10
-0.352009
 20
0.672026
 30
5.88
 11
-0.341956
 21
0.69714
 31
5.88
  0
LINE
  5
5E3
100
AcDbEntity
  8
0
100
AcDbLine
 10
-0.352009
 20
0.641888
 30
5.88
 11
-0.352009
 21
0.672026
 31
5.88
  0
LINE
  5
5E4
100
AcDbEntity
  8
0
100
AcDbLine
 10
-0.115805
 20
0.646909
 30
5.88
 11
-0.120832
 21
0.621795
 31
5.88
  0
LINE
  5
5E5
100
AcDbEntity
  8
0
100
AcDbLine
 10
-0.120832
 20
0.677047
 30
5.88
 11
-0.115805
 21
0.646909
 31
5.88
  0
LINE
  5
5E6
100
AcDbEntity
  8
0
100
AcDbLine
 10
-0.125858
 20
0.702163
 30
5.88
 11
-0.120832
 21
0.677047
 31
5.88
  0
LINE
  5
5E7
100
AcDbEntity
  8
0
100
AcDbLine
 10
-0.140936
 20
0.727278
 30
5.88
 11
-0.125858
 21
0.702163
 31
5.88
  0
LINE
  5
5E8
100
AcDbEntity
  8
0
100
AcDbLine
 10
-0.161036
 20
0.742346
 30
5.88
 11
-0.140936
 21
0.727278
 31
5.88
  0
LINE
  5
5E9
100
AcDbEntity
  8
0
100
AcDbLine
 10
-0.186165
 20
0.757417
 30
5.88
 11
-0.161036
 21
0.742346
 31
5.88
  0
LINE
  5
5EA
100
AcDbEntity
  8
0
100
AcDbLine
 10
-0.211293
 20
0.767463
 30
5.88
 11
-0.186165
 21
0.757417
 31
5.88
  0
LINE
  5
5EB
100
AcDbEntity
  8
0
100
AcDbLine
 10
-0.216318
 20
0.882992
 30
5.88
 11
-0.246471
 21
0.882992
 31
5.88
  0
LINE
  5
5EC
100
AcDbEntity
  8
0
100
AcDbLine
 10
-0.346983
 20
0.96336
 30
5.88
 11
-0.352009
 21
0.993498
 31
5.88
  0
LINE
  5
5ED
100
AcDbEntity
  8
0
100
AcDbLine
 10
-0.331905
 20
0.938246
 30
5.88
 11
-0.346983
 21
0.96336
 31
5.88
  0
LINE
  5
5EE
100
AcDbEntity
  8
0
100
AcDbLine
 10
-0.316828
 20
0.918153
 30
5.88
 11
-0.331905
 21
0.938246
 31
5.88
  0
LINE
  5
5EF
100
AcDbEntity
  8
0
100
AcDbLine
 10
-0.296726
 20
0.903085
 30
5.88
 11
-0.316828
 21
0.918153
 31
5.88
  0
LINE
  5
5F0
100
AcDbEntity
  8
0
100
AcDbLine
 10
-0.271599
 20
0.893037
 30
5.88
 11
-0.296726
 21
0.903085
 31
5.88
  0
LINE
  5
5F1
100
AcDbEntity
  8
0
100
AcDbLine
 10
-0.246471
 20
0.882992
 30
5.88
 11
-0.271599
 21
0.893037
 31
5.88
  0
LINE
  5
5F2
100
AcDbEntity
  8
0
100
AcDbLine
 10
-0.191191
 20
0.893037
 30
5.88
 11
-0.216318
 21
0.882992
 31
5.88
  0
LINE
  5
5F3
100
AcDbEntity
  8
0
100
AcDbLine
 10
-0.166063
 20
0.903085
 30
5.88
 11
-0.191191
 21
0.893037
 31
5.88
  0
LINE
  5
5F4
100
AcDbEntity
  8
0
100
AcDbLine
 10
-0.14596
 20
0.923177
 30
5.88
 11
-0.166063
 21
0.903085
 31
5.88
  0
LINE
  5
5F5
100
AcDbEntity
  8
0
100
AcDbLine
 10
-0.130883
 20
0.943268
 30
5.88
 11
-0.14596
 21
0.923177
 31
5.88
  0
LINE
  5
5F6
100
AcDbEntity
  8
0
100
AcDbLine
 10
-0.120832
 20
0.968384
 30
5.88
 11
-0.130883
 21
0.943268
 31
5.88
  0
LINE
  5
5F7
100
AcDbEntity
  8
0
100
AcDbLine
 10
-0.115805
 20
0.998522
 30
5.88
 11
-0.120832
 21
0.968384
 31
5.88
  0
LINE
  5
5F8
100
AcDbEntity
  8
0
100
AcDbLine
 10
-0.532929
 20
1.12912
 30
5.88
 11
-0.532929
 21
1.229581
 31
5.88
  0
LINE
  5
5F9
100
AcDbEntity
  8
0
100
AcDbLine
 10
-0.23642
 20
1.119075
 30
5.88
 11
-0.211293
 21
1.114051
 31
5.88
  0
LINE
  5
5FA
100
AcDbEntity
  8
0
100
AcDbLine
 10
-0.261548
 20
1.114051
 30
5.88
 11
-0.23642
 21
1.119075
 31
5.88
  0
LINE
  5
5FB
100
AcDbEntity
  8
0
100
AcDbLine
 10
-0.286675
 20
1.104004
 30
5.88
 11
-0.261548
 21
1.114051
 31
5.88
  0
LINE
  5
5FC
100
AcDbEntity
  8
0
100
AcDbLine
 10
-0.311803
 20
1.088935
 30
5.88
 11
-0.286675
 21
1.104004
 31
5.88
  0
LINE
  5
5FD
100
AcDbEntity
  8
0
100
AcDbLine
 10
-0.331905
 20
1.068844
 30
5.88
 11
-0.311803
 21
1.088935
 31
5.88
  0
LINE
  5
5FE
100
AcDbEntity
  8
0
100
AcDbLine
 10
-0.341956
 20
1.043728
 30
5.88
 11
-0.331905
 21
1.068844
 31
5.88
  0
LINE
  5
5FF
100
AcDbEntity
  8
0
100
AcDbLine
 10
-0.352009
 20
1.018614
 30
5.88
 11
-0.341956
 21
1.043728
 31
5.88
  0
LINE
  5
600
100
AcDbEntity
  8
0
100
AcDbLine
 10
-0.125858
 20
1.048752
 30
5.88
 11
-0.120832
 21
1.023636
 31
5.88
  0
LINE
  5
601
100
AcDbEntity
  8
0
100
AcDbLine
 10
-0.140936
 20
1.073866
 30
5.88
 11
-0.125858
 21
1.048752
 31
5.88
  0
LINE
  5
602
100
AcDbEntity
  8
0
100
AcDbLine
 10
-0.161036
 20
1.093959
 30
5.88
 11
-0.140936
 21
1.073866
 31
5.88
  0
LINE
  5
603
100
AcDbEntity
  8
0
100
AcDbLine
 10
-0.186165
 20
1.104004
 30
5.88
 11
-0.161036
 21
1.093959
 31
5.88
  0
LINE
  5
604
100
AcDbEntity
  8
0
100
AcDbLine
 10
-0.211293
 20
1.114051
 30
5.88
 11
-0.186165
 21
1.104004
 31
5.88
  0
LINE
  5
605
100
AcDbEntity
  8
0
100
AcDbLine
 10
-0.216318
 20
1.234604
 30
5.88
 11
-0.246471
 21
1.234604
 31
5.88
  0
LINE
  5
606
100
AcDbEntity
  8
0
100
AcDbLine
 10
-0.346983
 20
1.314972
 30
5.88
 11
-0.352009
 21
1.340086
 31
5.88
  0
LINE
  5
607
100
AcDbEntity
  8
0
100
AcDbLine
 10
-0.331905
 20
1.289856
 30
5.88
 11
-0.346983
 21
1.314972
 31
5.88
  0
LINE
  5
608
100
AcDbEntity
  8
0
100
AcDbLine
 10
-0.316828
 20
1.264742
 30
5.88
 11
-0.331905
 21
1.289856
 31
5.88
  0
LINE
  5
609
100
AcDbEntity
  8
0
100
AcDbLine
 10
-0.296726
 20
1.249673
 30
5.88
 11
-0.316828
 21
1.264742
 31
5.88
  0
LINE
  5
60A
100
AcDbEntity
  8
0
100
AcDbLine
 10
-0.271599
 20
1.239626
 30
5.88
 11
-0.296726
 21
1.249673
 31
5.88
  0
LINE
  5
60B
100
AcDbEntity
  8
0
100
AcDbLine
 10
-0.246471
 20
1.234604
 30
5.88
 11
-0.271599
 21
1.239626
 31
5.88
  0
LINE
  5
60C
100
AcDbEntity
  8
0
100
AcDbLine
 10
-0.341956
 20
1.390317
 30
5.88
 11
-0.331905
 21
1.415433
 31
5.88
  0
LINE
  5
60D
100
AcDbEntity
  8
0
100
AcDbLine
 10
-0.352009
 20
1.365203
 30
5.88
 11
-0.341956
 21
1.390317
 31
5.88
  0
LINE
  5
60E
100
AcDbEntity
  8
0
100
AcDbLine
 10
-0.352009
 20
1.340086
 30
5.88
 11
-0.352009
 21
1.365203
 31
5.88
  0
LINE
  5
60F
100
AcDbEntity
  8
0
100
AcDbLine
 10
-0.191191
 20
1.239626
 30
5.88
 11
-0.216318
 21
1.234604
 31
5.88
  0
LINE
  5
610
100
AcDbEntity
  8
0
100
AcDbLine
 10
-0.166063
 20
1.254695
 30
5.88
 11
-0.191191
 21
1.239626
 31
5.88
  0
LINE
  5
611
100
AcDbEntity
  8
0
100
AcDbLine
 10
-0.14596
 20
1.269764
 30
5.88
 11
-0.166063
 21
1.254695
 31
5.88
  0
LINE
  5
612
100
AcDbEntity
  8
0
100
AcDbLine
 10
-0.130883
 20
1.29488
 30
5.88
 11
-0.14596
 21
1.269764
 31
5.88
  0
LINE
  5
613
100
AcDbEntity
  8
0
100
AcDbLine
 10
-0.120832
 20
1.319994
 30
5.88
 11
-0.130883
 21
1.29488
 31
5.88
  0
LINE
  5
614
100
AcDbEntity
  8
0
100
AcDbLine
 10
-0.115805
 20
1.34511
 30
5.88
 11
-0.120832
 21
1.319994
 31
5.88
  0
LINE
  5
615
100
AcDbEntity
  8
0
100
AcDbLine
 10
-0.120832
 20
1.370224
 30
5.88
 11
-0.115805
 21
1.34511
 31
5.88
  0
LINE
  5
616
100
AcDbEntity
  8
0
100
AcDbLine
 10
-0.125858
 20
1.39534
 30
5.88
 11
-0.120832
 21
1.370224
 31
5.88
  0
LINE
  5
617
100
AcDbEntity
  8
0
100
AcDbLine
 10
-0.140936
 20
1.420455
 30
5.88
 11
-0.125858
 21
1.39534
 31
5.88
  0
LINE
  5
618
100
AcDbEntity
  8
0
100
AcDbLine
 10
-0.06555
 20
0.882992
 30
5.88
 11
-0.06555
 21
0.782531
 31
5.88
  0
LINE
  5
619
100
AcDbEntity
  8
0
100
AcDbLine
 10
0.060088
 20
0.882992
 30
5.88
 11
0.060088
 21
0.782531
 31
5.88
  0
LINE
  5
61A
100
AcDbEntity
  8
0
100
AcDbLine
 10
-0.06555
 20
1.229581
 30
5.88
 11
-0.06555
 21
1.12912
 31
5.88
  0
LINE
  5
61B
100
AcDbEntity
  8
0
100
AcDbLine
 10
0.060088
 20
1.229581
 30
5.88
 11
0.060088
 21
1.12912
 31
5.88
  0
LINE
  5
61C
100
AcDbEntity
  8
0
100
AcDbLine
 10
-0.769129
 20
4.495635
 30
5.88
 11
0.170651
 21
4.495635
 31
5.88
  0
LINE
  5
61D
100
AcDbEntity
  8
0
100
AcDbLine
 10
-0.7239
 20
3.911873
 30
5.88
 11
0.195778
 21
3.911873
 31
5.88
  0
LINE
  5
61E
100
AcDbEntity
  8
0
100
AcDbLine
 10
-0.643492
 20
4.12284
 30
5.88
 11
-0.492723
 21
4.12284
 31
5.88
  0
LINE
  5
61F
100
AcDbEntity
  8
0
100
AcDbLine
 10
-0.643492
 20
4.259552
 30
5.88
 11
-0.492723
 21
4.259552
 31
5.88
  0
LINE
  5
620
100
AcDbEntity
  8
0
100
AcDbLine
 10
-0.658566
 20
4.117816
 30
5.88
 11
-0.643492
 21
4.12284
 31
5.88
  0
LINE
  5
621
100
AcDbEntity
  8
0
100
AcDbLine
 10
-0.67867
 20
4.112793
 30
5.88
 11
-0.658566
 21
4.117816
 31
5.88
  0
LINE
  5
622
100
AcDbEntity
  8
0
100
AcDbLine
 10
-0.698772
 20
4.097724
 30
5.88
 11
-0.67867
 21
4.112793
 31
5.88
  0
LINE
  5
623
100
AcDbEntity
  8
0
100
AcDbLine
 10
-0.713849
 20
4.082655
 30
5.88
 11
-0.698772
 21
4.097724
 31
5.88
  0
LINE
  5
624
100
AcDbEntity
  8
0
100
AcDbLine
 10
-0.7239
 20
4.062562
 30
5.88
 11
-0.713849
 21
4.082655
 31
5.88
  0
LINE
  5
625
100
AcDbEntity
  8
0
100
AcDbLine
 10
-0.7239
 20
4.037448
 30
5.88
 11
-0.7239
 21
4.062562
 31
5.88
  0
LINE
  5
626
100
AcDbEntity
  8
0
100
AcDbLine
 10
-0.658566
 20
4.254531
 30
5.88
 11
-0.643492
 21
4.259552
 31
5.88
  0
LINE
  5
627
100
AcDbEntity
  8
0
100
AcDbLine
 10
-0.67867
 20
4.249507
 30
5.88
 11
-0.658566
 21
4.254531
 31
5.88
  0
LINE
  5
628
100
AcDbEntity
  8
0
100
AcDbLine
 10
-0.698772
 20
4.234438
 30
5.88
 11
-0.67867
 21
4.249507
 31
5.88
  0
LINE
  5
629
100
AcDbEntity
  8
0
100
AcDbLine
 10
-0.713849
 20
4.219369
 30
5.88
 11
-0.698772
 21
4.234438
 31
5.88
  0
LINE
  5
62A
100
AcDbEntity
  8
0
100
AcDbLine
 10
-0.7239
 20
4.199277
 30
5.88
 11
-0.713849
 21
4.219369
 31
5.88
  0
LINE
  5
62B
100
AcDbEntity
  8
0
100
AcDbLine
 10
-0.7239
 20
4.174161
 30
5.88
 11
-0.7239
 21
4.199277
 31
5.88
  0
LINE
  5
62C
100
AcDbEntity
  8
0
100
AcDbLine
 10
-0.869643
 20
4.560934
 30
5.88
 11
-0.874667
 21
4.586048
 31
5.88
  0
LINE
  5
62D
100
AcDbEntity
  8
0
100
AcDbLine
 10
-0.874667
 20
4.586048
 30
5.88
 11
-0.879692
 21
4.606141
 31
5.88
  0
LINE
  5
62E
100
AcDbEntity
  8
0
100
AcDbLine
 10
-0.834463
 20
4.520749
 30
5.88
 11
-0.854565
 21
4.535818
 31
5.88
  0
LINE
  5
62F
100
AcDbEntity
  8
0
100
AcDbLine
 10
-0.814361
 20
4.50568
 30
5.88
 11
-0.834463
 21
4.520749
 31
5.88
  0
LINE
  5
630
100
AcDbEntity
  8
0
100
AcDbLine
 10
-0.789233
 20
4.500659
 30
5.88
 11
-0.814361
 21
4.50568
 31
5.88
  0
LINE
  5
631
100
AcDbEntity
  8
0
100
AcDbLine
 10
-0.75908
 20
4.495635
 30
5.88
 11
-0.789233
 21
4.500659
 31
5.88
  0
LINE
  5
632
100
AcDbEntity
  8
0
100
AcDbLine
 10
-0.854565
 20
4.535818
 30
5.88
 11
-0.869643
 21
4.560934
 31
5.88
  0
LINE
  5
633
100
AcDbEntity
  8
0
100
AcDbLine
 10
-0.402264
 20
3.213673
 30
5.88
 11
-0.402264
 21
2.967545
 31
5.88
  0
LINE
  5
634
100
AcDbEntity
  8
0
100
AcDbLine
 10
-0.311803
 20
3.178511
 30
5.88
 11
-0.150985
 21
3.00773
 31
5.88
  0
LINE
  5
635
100
AcDbEntity
  8
0
100
AcDbLine
 10
-0.120832
 20
3.10819
 30
5.88
 11
-0.115805
 21
3.083074
 31
5.88
  0
LINE
  5
636
100
AcDbEntity
  8
0
100
AcDbLine
 10
-0.352009
 20
3.078051
 30
5.88
 11
-0.352009
 21
3.103167
 31
5.88
  0
LINE
  5
637
100
AcDbEntity
  8
0
100
AcDbLine
 10
-0.06555
 20
2.274368
 30
5.88
 11
-0.06555
 21
2.168885
 31
5.88
  0
LINE
  5
638
100
AcDbEntity
  8
0
100
AcDbLine
 10
-0.532929
 20
2.168885
 30
5.88
 11
-0.532929
 21
2.274368
 31
5.88
  0
LINE
  5
639
100
AcDbEntity
  8
0
100
AcDbLine
 10
0.060088
 20
2.274368
 30
5.88
 11
0.060088
 21
2.168885
 31
5.88
  0
LINE
  5
63A
100
AcDbEntity
  8
0
100
AcDbLine
 10
0.060088
 20
1.475708
 30
5.88
 11
-0.532929
 21
1.475708
 31
5.88
  0
LINE
  5
63B
100
AcDbEntity
  8
0
100
AcDbLine
 10
-0.532929
 20
1.576169
 30
5.88
 11
0.060088
 21
1.576169
 31
5.88
  0
LINE
  5
63C
100
AcDbEntity
  8
0
100
AcDbLine
 10
0.060088
 20
1.822297
 30
5.88
 11
-0.532929
 21
1.822297
 31
5.88
  0
LINE
  5
63D
100
AcDbEntity
  8
0
100
AcDbLine
 10
-0.532929
 20
1.927779
 30
5.88
 11
0.060088
 21
1.927779
 31
5.88
  0
LINE
  5
63E
100
AcDbEntity
  8
0
100
AcDbLine
 10
0.060088
 20
2.168885
 30
5.88
 11
-0.532929
 21
2.168885
 31
5.88
  0
LINE
  5
63F
100
AcDbEntity
  8
0
100
AcDbLine
 10
-0.532929
 20
1.822297
 30
5.88
 11
-0.532929
 21
1.927779
 31
5.88
  0
LINE
  5
640
100
AcDbEntity
  8
0
100
AcDbLine
 10
-0.402264
 20
1.822297
 30
5.88
 11
-0.402264
 21
1.576169
 31
5.88
  0
LINE
  5
641
100
AcDbEntity
  8
0
100
AcDbLine
 10
-0.532929
 20
1.475708
 30
5.88
 11
-0.532929
 21
1.576169
 31
5.88
  0
LINE
  5
642
100
AcDbEntity
  8
0
100
AcDbLine
 10
-0.311803
 20
1.787136
 30
5.88
 11
-0.150985
 21
1.616352
 31
5.88
  0
LINE
  5
643
100
AcDbEntity
  8
0
100
AcDbLine
 10
-0.316828
 20
1.616352
 30
5.88
 11
-0.331905
 21
1.636445
 31
5.88
  0
LINE
  5
644
100
AcDbEntity
  8
0
100
AcDbLine
 10
-0.130883
 20
1.641468
 30
5.88
 11
-0.14596
 21
1.616352
 31
5.88
  0
LINE
  5
645
100
AcDbEntity
  8
0
100
AcDbLine
 10
-0.23642
 20
1.465661
 30
5.88
 11
-0.211293
 21
1.46064
 31
5.88
  0
LINE
  5
646
100
AcDbEntity
  8
0
100
AcDbLine
 10
-0.216318
 20
1.581191
 30
5.88
 11
-0.246471
 21
1.581191
 31
5.88
  0
LINE
  5
647
100
AcDbEntity
  8
0
100
AcDbLine
 10
-0.261548
 20
1.46064
 30
5.88
 11
-0.23642
 21
1.465661
 31
5.88
  0
LINE
  5
648
100
AcDbEntity
  8
0
100
AcDbLine
 10
-0.286675
 20
1.450592
 30
5.88
 11
-0.261548
 21
1.46064
 31
5.88
  0
LINE
  5
649
100
AcDbEntity
  8
0
100
AcDbLine
 10
-0.311803
 20
1.435523
 30
5.88
 11
-0.286675
 21
1.450592
 31
5.88
  0
LINE
  5
64A
100
AcDbEntity
  8
0
100
AcDbLine
 10
-0.296726
 20
1.596262
 30
5.88
 11
-0.316828
 21
1.616352
 31
5.88
  0
LINE
  5
64B
100
AcDbEntity
  8
0
100
AcDbLine
 10
-0.271599
 20
1.586214
 30
5.88
 11
-0.296726
 21
1.596262
 31
5.88
  0
LINE
  5
64C
100
AcDbEntity
  8
0
100
AcDbLine
 10
-0.246471
 20
1.581191
 30
5.88
 11
-0.271599
 21
1.586214
 31
5.88
  0
LINE
  5
64D
100
AcDbEntity
  8
0
100
AcDbLine
 10
-0.186165
 20
1.455616
 30
5.88
 11
-0.161036
 21
1.440547
 31
5.88
  0
LINE
  5
64E
100
AcDbEntity
  8
0
100
AcDbLine
 10
-0.211293
 20
1.46064
 30
5.88
 11
-0.186165
 21
1.455616
 31
5.88
  0
LINE
  5
64F
100
AcDbEntity
  8
0
100
AcDbLine
 10
-0.191191
 20
1.586214
 30
5.88
 11
-0.216318
 21
1.581191
 31
5.88
  0
LINE
  5
650
100
AcDbEntity
  8
0
100
AcDbLine
 10
-0.166063
 20
1.601283
 30
5.88
 11
-0.191191
 21
1.586214
 31
5.88
  0
LINE
  5
651
100
AcDbEntity
  8
0
100
AcDbLine
 10
-0.14596
 20
1.616352
 30
5.88
 11
-0.166063
 21
1.601283
 31
5.88
  0
LINE
  5
652
100
AcDbEntity
  8
0
100
AcDbLine
 10
-0.23642
 20
1.81225
 30
5.88
 11
-0.211293
 21
1.81225
 31
5.88
  0
LINE
  5
653
100
AcDbEntity
  8
0
100
AcDbLine
 10
-0.346983
 20
1.661561
 30
5.88
 11
-0.352009
 21
1.686675
 31
5.88
  0
LINE
  5
654
100
AcDbEntity
  8
0
100
AcDbLine
 10
-0.331905
 20
1.636445
 30
5.88
 11
-0.346983
 21
1.661561
 31
5.88
  0
LINE
  5
655
100
AcDbEntity
  8
0
100
AcDbLine
 10
-0.261548
 20
1.807228
 30
5.88
 11
-0.23642
 21
1.81225
 31
5.88
  0
LINE
  5
656
100
AcDbEntity
  8
0
100
AcDbLine
 10
-0.286675
 20
1.797181
 30
5.88
 11
-0.261548
 21
1.807228
 31
5.88
  0
LINE
  5
657
100
AcDbEntity
  8
0
100
AcDbLine
 10
-0.311803
 20
1.782112
 30
5.88
 11
-0.286675
 21
1.797181
 31
5.88
  0
LINE
  5
658
100
AcDbEntity
  8
0
100
AcDbLine
 10
-0.331905
 20
1.762019
 30
5.88
 11
-0.311803
 21
1.782112
 31
5.88
  0
LINE
  5
659
100
AcDbEntity
  8
0
100
AcDbLine
 10
-0.341956
 20
1.741929
 30
5.88
 11
-0.331905
 21
1.762019
 31
5.88
  0
LINE
  5
65A
100
AcDbEntity
  8
0
100
AcDbLine
 10
-0.352009
 20
1.711789
 30
5.88
 11
-0.341956
 21
1.741929
 31
5.88
  0
LINE
  5
65B
100
AcDbEntity
  8
0
100
AcDbLine
 10
-0.352009
 20
1.686675
 30
5.88
 11
-0.352009
 21
1.711789
 31
5.88
  0
LINE
  5
65C
100
AcDbEntity
  8
0
100
AcDbLine
 10
-0.120832
 20
1.666582
 30
5.88
 11
-0.130883
 21
1.641468
 31
5.88
  0
LINE
  5
65D
100
AcDbEntity
  8
0
100
AcDbLine
 10
-0.115805
 20
1.691699
 30
5.88
 11
-0.120832
 21
1.666582
 31
5.88
  0
LINE
  5
65E
100
AcDbEntity
  8
0
100
AcDbLine
 10
-0.120832
 20
1.716813
 30
5.88
 11
-0.115805
 21
1.691699
 31
5.88
  0
LINE
  5
65F
100
AcDbEntity
  8
0
100
AcDbLine
 10
-0.125858
 20
1.746951
 30
5.88
 11
-0.120832
 21
1.716813
 31
5.88
  0
LINE
  5
660
100
AcDbEntity
  8
0
100
AcDbLine
 10
-0.140936
 20
1.767043
 30
5.88
 11
-0.125858
 21
1.746951
 31
5.88
  0
LINE
  5
661
100
AcDbEntity
  8
0
100
AcDbLine
 10
-0.161036
 20
1.787136
 30
5.88
 11
-0.140936
 21
1.767043
 31
5.88
  0
LINE
  5
662
100
AcDbEntity
  8
0
100
AcDbLine
 10
-0.186165
 20
1.802204
 30
5.88
 11
-0.161036
 21
1.787136
 31
5.88
  0
LINE
  5
663
100
AcDbEntity
  8
0
100
AcDbLine
 10
-0.211293
 20
1.81225
 30
5.88
 11
-0.186165
 21
1.802204
 31
5.88
  0
LINE
  5
664
100
AcDbEntity
  8
0
100
AcDbLine
 10
-0.402264
 20
2.168885
 30
5.88
 11
-0.402264
 21
1.927779
 31
5.88
  0
LINE
  5
665
100
AcDbEntity
  8
0
100
AcDbLine
 10
-0.311803
 20
2.133724
 30
5.88
 11
-0.150985
 21
1.962941
 31
5.88
  0
LINE
  5
666
100
AcDbEntity
  8
0
100
AcDbLine
 10
-0.120832
 20
2.068425
 30
5.88
 11
-0.115805
 21
2.038287
 31
5.88
  0
LINE
  5
667
100
AcDbEntity
  8
0
100
AcDbLine
 10
-0.352009
 20
2.033263
 30
5.88
 11
-0.352009
 21
2.063401
 31
5.88
  0
LINE
  5
668
100
AcDbEntity
  8
0
100
AcDbLine
 10
-0.216318
 20
1.927779
 30
5.88
 11
-0.246471
 21
1.927779
 31
5.88
  0
LINE
  5
669
100
AcDbEntity
  8
0
100
AcDbLine
 10
-0.346983
 20
2.008147
 30
5.88
 11
-0.352009
 21
2.033263
 31
5.88
  0
LINE
  5
66A
100
AcDbEntity
  8
0
100
AcDbLine
 10
-0.331905
 20
1.983033
 30
5.88
 11
-0.346983
 21
2.008147
 31
5.88
  0
LINE
  5
66B
100
AcDbEntity
  8
0
100
AcDbLine
 10
-0.316828
 20
1.962941
 30
5.88
 11
-0.331905
 21
1.983033
 31
5.88
  0
LINE
  5
66C
100
AcDbEntity
  8
0
100
AcDbLine
 10
-0.296726
 20
1.942848
 30
5.88
 11
-0.316828
 21
1.962941
 31
5.88
  0
LINE
  5
66D
100
AcDbEntity
  8
0
100
AcDbLine
 10
-0.271599
 20
1.932803
 30
5.88
 11
-0.296726
 21
1.942848
 31
5.88
  0
LINE
  5
66E
100
AcDbEntity
  8
0
100
AcDbLine
 10
-0.246471
 20
1.927779
 30
5.88
 11
-0.271599
 21
1.932803
 31
5.88
  0
LINE
  5
66F
100
AcDbEntity
  8
0
100
AcDbLine
 10
-0.191191
 20
1.932803
 30
5.88
 11
-0.216318
 21
1.927779
 31
5.88
  0
LINE
  5
670
100
AcDbEntity
  8
0
100
AcDbLine
 10
-0.166063
 20
1.947872
 30
5.88
 11
-0.191191
 21
1.932803
 31
5.88
  0
LINE
  5
671
100
AcDbEntity
  8
0
100
AcDbLine
 10
-0.14596
 20
1.967964
 30
5.88
 11
-0.166063
 21
1.947872
 31
5.88
  0
LINE
  5
672
100
AcDbEntity
  8
0
100
AcDbLine
 10
-0.130883
 20
1.988057
 30
5.88
 11
-0.14596
 21
1.967964
 31
5.88
  0
LINE
  5
673
100
AcDbEntity
  8
0
100
AcDbLine
 10
-0.120832
 20
2.013171
 30
5.88
 11
-0.130883
 21
1.988057
 31
5.88
  0
LINE
  5
674
100
AcDbEntity
  8
0
100
AcDbLine
 10
-0.115805
 20
2.038287
 30
5.88
 11
-0.120832
 21
2.013171
 31
5.88
  0
LINE
  5
675
100
AcDbEntity
  8
0
100
AcDbLine
 10
-0.23642
 20
2.158838
 30
5.88
 11
-0.211293
 21
2.158838
 31
5.88
  0
LINE
  5
676
100
AcDbEntity
  8
0
100
AcDbLine
 10
-0.261548
 20
2.158838
 30
5.88
 11
-0.23642
 21
2.158838
 31
5.88
  0
LINE
  5
677
100
AcDbEntity
  8
0
100
AcDbLine
 10
-0.286675
 20
2.148793
 30
5.88
 11
-0.261548
 21
2.158838
 31
5.88
  0
LINE
  5
678
100
AcDbEntity
  8
0
100
AcDbLine
 10
-0.311803
 20
2.133724
 30
5.88
 11
-0.286675
 21
2.148793
 31
5.88
  0
LINE
  5
679
100
AcDbEntity
  8
0
100
AcDbLine
 10
-0.331905
 20
2.113632
 30
5.88
 11
-0.311803
 21
2.133724
 31
5.88
  0
LINE
  5
67A
100
AcDbEntity
  8
0
100
AcDbLine
 10
-0.341956
 20
2.088517
 30
5.88
 11
-0.331905
 21
2.113632
 31
5.88
  0
LINE
  5
67B
100
AcDbEntity
  8
0
100
AcDbLine
 10
-0.352009
 20
2.063401
 30
5.88
 11
-0.341956
 21
2.088517
 31
5.88
  0
LINE
  5
67C
100
AcDbEntity
  8
0
100
AcDbLine
 10
-0.125858
 20
2.093539
 30
5.88
 11
-0.120832
 21
2.068425
 31
5.88
  0
LINE
  5
67D
100
AcDbEntity
  8
0
100
AcDbLine
 10
-0.140936
 20
2.113632
 30
5.88
 11
-0.125858
 21
2.093539
 31
5.88
  0
LINE
  5
67E
100
AcDbEntity
  8
0
100
AcDbLine
 10
-0.161036
 20
2.133724
 30
5.88
 11
-0.140936
 21
2.113632
 31
5.88
  0
LINE
  5
67F
100
AcDbEntity
  8
0
100
AcDbLine
 10
-0.186165
 20
2.148793
 30
5.88
 11
-0.161036
 21
2.133724
 31
5.88
  0
LINE
  5
680
100
AcDbEntity
  8
0
100
AcDbLine
 10
-0.211293
 20
2.158838
 30
5.88
 11
-0.186165
 21
2.148793
 31
5.88
  0
LINE
  5
681
100
AcDbEntity
  8
0
100
AcDbLine
 10
-0.06555
 20
1.927779
 30
5.88
 11
-0.06555
 21
1.822297
 31
5.88
  0
LINE
  5
682
100
AcDbEntity
  8
0
100
AcDbLine
 10
0.060088
 20
1.927779
 30
5.88
 11
0.060088
 21
1.822297
 31
5.88
  0
LINE
  5
683
100
AcDbEntity
  8
0
100
AcDbLine
 10
-0.06555
 20
1.576169
 30
5.88
 11
-0.06555
 21
1.475708
 31
5.88
  0
LINE
  5
684
100
AcDbEntity
  8
0
100
AcDbLine
 10
0.060088
 20
1.576169
 30
5.88
 11
0.060088
 21
1.475708
 31
5.88
  0
LINE
  5
685
100
AcDbEntity
  8
0
100
AcDbLine
 10
-0.532929
 20
2.274368
 30
5.88
 11
0.060088
 21
2.274368
 31
5.88
  0
LINE
  5
686
100
AcDbEntity
  8
0
100
AcDbLine
 10
0.060088
 20
2.520496
 30
5.88
 11
-0.532929
 21
2.520496
 31
5.88
  0
LINE
  5
687
100
AcDbEntity
  8
0
100
AcDbLine
 10
-0.532929
 20
2.620956
 30
5.88
 11
0.060088
 21
2.620956
 31
5.88
  0
LINE
  5
688
100
AcDbEntity
  8
0
100
AcDbLine
 10
0.060088
 20
2.867084
 30
5.88
 11
-0.532929
 21
2.867084
 31
5.88
  0
LINE
  5
689
100
AcDbEntity
  8
0
100
AcDbLine
 10
-0.532929
 20
2.967545
 30
5.88
 11
0.060088
 21
2.967545
 31
5.88
  0
LINE
  5
68A
100
AcDbEntity
  8
0
100
AcDbLine
 10
-0.402264
 20
2.867084
 30
5.88
 11
-0.402264
 21
2.620956
 31
5.88
  0
LINE
  5
68B
100
AcDbEntity
  8
0
100
AcDbLine
 10
-0.311803
 20
2.826901
 30
5.88
 11
-0.150985
 21
2.656118
 31
5.88
  0
LINE
  5
68C
100
AcDbEntity
  8
0
100
AcDbLine
 10
-0.316828
 20
2.656118
 30
5.88
 11
-0.331905
 21
2.681232
 31
5.88
  0
LINE
  5
68D
100
AcDbEntity
  8
0
100
AcDbLine
 10
-0.130883
 20
2.681232
 30
5.88
 11
-0.14596
 21
2.661141
 31
5.88
  0
LINE
  5
68E
100
AcDbEntity
  8
0
100
AcDbLine
 10
-0.402264
 20
2.520496
 30
5.88
 11
-0.402264
 21
2.274368
 31
5.88
  0
LINE
  5
68F
100
AcDbEntity
  8
0
100
AcDbLine
 10
-0.532929
 20
2.520496
 30
5.88
 11
-0.532929
 21
2.620956
 31
5.88
  0
LINE
  5
690
100
AcDbEntity
  8
0
100
AcDbLine
 10
-0.311803
 20
2.480313
 30
5.88
 11
-0.150985
 21
2.309529
 31
5.88
  0
LINE
  5
691
100
AcDbEntity
  8
0
100
AcDbLine
 10
-0.140936
 20
2.465244
 30
5.88
 11
-0.125858
 21
2.440128
 31
5.88
  0
LINE
  5
692
100
AcDbEntity
  8
0
100
AcDbLine
 10
-0.331905
 20
2.46022
 30
5.88
 11
-0.311803
 21
2.480313
 31
5.88
  0
LINE
  5
693
100
AcDbEntity
  8
0
100
AcDbLine
 10
-0.216318
 20
2.274368
 30
5.88
 11
-0.246471
 21
2.274368
 31
5.88
  0
LINE
  5
694
100
AcDbEntity
  8
0
100
AcDbLine
 10
-0.346983
 20
2.354736
 30
5.88
 11
-0.352009
 21
2.384876
 31
5.88
  0
LINE
  5
695
100
AcDbEntity
  8
0
100
AcDbLine
 10
-0.331905
 20
2.329622
 30
5.88
 11
-0.346983
 21
2.354736
 31
5.88
  0
LINE
  5
696
100
AcDbEntity
  8
0
100
AcDbLine
 10
-0.316828
 20
2.309529
 30
5.88
 11
-0.331905
 21
2.329622
 31
5.88
  0
LINE
  5
697
100
AcDbEntity
  8
0
100
AcDbLine
 10
-0.296726
 20
2.29446
 30
5.88
 11
-0.316828
 21
2.309529
 31
5.88
  0
LINE
  5
698
100
AcDbEntity
  8
0
100
AcDbLine
 10
-0.271599
 20
2.279391
 30
5.88
 11
-0.296726
 21
2.29446
 31
5.88
  0
LINE
  5
699
100
AcDbEntity
  8
0
100
AcDbLine
 10
-0.246471
 20
2.274368
 30
5.88
 11
-0.271599
 21
2.279391
 31
5.88
  0
LINE
  5
69A
100
AcDbEntity
  8
0
100
AcDbLine
 10
-0.341956
 20
2.435104
 30
5.88
 11
-0.331905
 21
2.46022
 31
5.88
  0
LINE
  5
69B
100
AcDbEntity
  8
0
100
AcDbLine
 10
-0.352009
 20
2.40999
 30
5.88
 11
-0.341956
 21
2.435104
 31
5.88
  0
LINE
  5
69C
100
AcDbEntity
  8
0
100
AcDbLine
 10
-0.352009
 20
2.384876
 30
5.88
 11
-0.352009
 21
2.40999
 31
5.88
  0
LINE
  5
69D
100
AcDbEntity
  8
0
100
AcDbLine
 10
-0.191191
 20
2.284415
 30
5.88
 11
-0.216318
 21
2.274368
 31
5.88
  0
LINE
  5
69E
100
AcDbEntity
  8
0
100
AcDbLine
 10
-0.166063
 20
2.29446
 30
5.88
 11
-0.191191
 21
2.284415
 31
5.88
  0
LINE
  5
69F
100
AcDbEntity
  8
0
100
AcDbLine
 10
-0.14596
 20
2.314553
 30
5.88
 11
-0.166063
 21
2.29446
 31
5.88
  0
LINE
  5
6A0
100
AcDbEntity
  8
0
100
AcDbLine
 10
-0.130883
 20
2.334645
 30
5.88
 11
-0.14596
 21
2.314553
 31
5.88
  0
LINE
  5
6A1
100
AcDbEntity
  8
0
100
AcDbLine
 10
-0.120832
 20
2.359759
 30
5.88
 11
-0.130883
 21
2.334645
 31
5.88
  0
LINE
  5
6A2
100
AcDbEntity
  8
0
100
AcDbLine
 10
-0.115805
 20
2.389897
 30
5.88
 11
-0.120832
 21
2.359759
 31
5.88
  0
LINE
  5
6A3
100
AcDbEntity
  8
0
100
AcDbLine
 10
-0.120832
 20
2.415013
 30
5.88
 11
-0.115805
 21
2.389897
 31
5.88
  0
LINE
  5
6A4
100
AcDbEntity
  8
0
100
AcDbLine
 10
-0.125858
 20
2.440128
 30
5.88
 11
-0.120832
 21
2.415013
 31
5.88
  0
LINE
  5
6A5
100
AcDbEntity
  8
0
100
AcDbLine
 10
-0.23642
 20
2.51045
 30
5.88
 11
-0.211293
 21
2.505427
 31
5.88
  0
LINE
  5
6A6
100
AcDbEntity
  8
0
100
AcDbLine
 10
-0.216318
 20
2.62598
 30
5.88
 11
-0.246471
 21
2.620956
 31
5.88
  0
LINE
  5
6A7
100
AcDbEntity
  8
0
100
AcDbLine
 10
-0.261548
 20
2.505427
 30
5.88
 11
-0.23642
 21
2.51045
 31
5.88
  0
LINE
  5
6A8
100
AcDbEntity
  8
0
100
AcDbLine
 10
-0.286675
 20
2.495381
 30
5.88
 11
-0.261548
 21
2.505427
 31
5.88
  0
LINE
  5
6A9
100
AcDbEntity
  8
0
100
AcDbLine
 10
-0.311803
 20
2.480313
 30
5.88
 11
-0.286675
 21
2.495381
 31
5.88
  0
LINE
  5
6AA
100
AcDbEntity
  8
0
100
AcDbLine
 10
-0.296726
 20
2.641049
 30
5.88
 11
-0.316828
 21
2.656118
 31
5.88
  0
LINE
  5
6AB
100
AcDbEntity
  8
0
100
AcDbLine
 10
-0.271599
 20
2.631003
 30
5.88
 11
-0.296726
 21
2.641049
 31
5.88
  0
LINE
  5
6AC
100
AcDbEntity
  8
0
100
AcDbLine
 10
-0.246471
 20
2.620956
 30
5.88
 11
-0.271599
 21
2.631003
 31
5.88
  0
LINE
  5
6AD
100
AcDbEntity
  8
0
100
AcDbLine
 10
-0.161036
 20
2.480313
 30
5.88
 11
-0.140936
 21
2.465244
 31
5.88
  0
LINE
  5
6AE
100
AcDbEntity
  8
0
100
AcDbLine
 10
-0.186165
 20
2.495381
 30
5.88
 11
-0.161036
 21
2.480313
 31
5.88
  0
LINE
  5
6AF
100
AcDbEntity
  8
0
100
AcDbLine
 10
-0.211293
 20
2.505427
 30
5.88
 11
-0.186165
 21
2.495381
 31
5.88
  0
LINE
  5
6B0
100
AcDbEntity
  8
0
100
AcDbLine
 10
-0.191191
 20
2.631003
 30
5.88
 11
-0.216318
 21
2.62598
 31
5.88
  0
LINE
  5
6B1
100
AcDbEntity
  8
0
100
AcDbLine
 10
-0.166063
 20
2.641049
 30
5.88
 11
-0.191191
 21
2.631003
 31
5.88
  0
LINE
  5
6B2
100
AcDbEntity
  8
0
100
AcDbLine
 10
-0.14596
 20
2.661141
 30
5.88
 11
-0.166063
 21
2.641049
 31
5.88
  0
LINE
  5
6B3
100
AcDbEntity
  8
0
100
AcDbLine
 10
-0.532929
 20
2.867084
 30
5.88
 11
-0.532929
 21
2.967545
 31
5.88
  0
LINE
  5
6B4
100
AcDbEntity
  8
0
100
AcDbLine
 10
-0.23642
 20
2.857039
 30
5.88
 11
-0.211293
 21
2.852015
 31
5.88
  0
LINE
  5
6B5
100
AcDbEntity
  8
0
100
AcDbLine
 10
-0.346983
 20
2.701324
 30
5.88
 11
-0.352009
 21
2.731462
 31
5.88
  0
LINE
  5
6B6
100
AcDbEntity
  8
0
100
AcDbLine
 10
-0.331905
 20
2.681232
 30
5.88
 11
-0.346983
 21
2.701324
 31
5.88
  0
LINE
  5
6B7
100
AcDbEntity
  8
0
100
AcDbLine
 10
-0.261548
 20
2.852015
 30
5.88
 11
-0.23642
 21
2.857039
 31
5.88
  0
LINE
  5
6B8
100
AcDbEntity
  8
0
100
AcDbLine
 10
-0.286675
 20
2.84197
 30
5.88
 11
-0.261548
 21
2.852015
 31
5.88
  0
LINE
  5
6B9
100
AcDbEntity
  8
0
100
AcDbLine
 10
-0.311803
 20
2.826901
 30
5.88
 11
-0.286675
 21
2.84197
 31
5.88
  0
LINE
  5
6BA
100
AcDbEntity
  8
0
100
AcDbLine
 10
-0.331905
 20
2.806809
 30
5.88
 11
-0.311803
 21
2.826901
 31
5.88
  0
LINE
  5
6BB
100
AcDbEntity
  8
0
100
AcDbLine
 10
-0.341956
 20
2.781692
 30
5.88
 11
-0.331905
 21
2.806809
 31
5.88
  0
LINE
  5
6BC
100
AcDbEntity
  8
0
100
AcDbLine
 10
-0.352009
 20
2.756578
 30
5.88
 11
-0.341956
 21
2.781692
 31
5.88
  0
LINE
  5
6BD
100
AcDbEntity
  8
0
100
AcDbLine
 10
-0.352009
 20
2.731462
 30
5.88
 11
-0.352009
 21
2.756578
 31
5.88
  0
LINE
  5
6BE
100
AcDbEntity
  8
0
100
AcDbLine
 10
-0.120832
 20
2.706348
 30
5.88
 11
-0.130883
 21
2.681232
 31
5.88
  0
LINE
  5
6BF
100
AcDbEntity
  8
0
100
AcDbLine
 10
-0.115805
 20
2.736486
 30
5.88
 11
-0.120832
 21
2.706348
 31
5.88
  0
LINE
  5
6C0
100
AcDbEntity
  8
0
100
AcDbLine
 10
-0.120832
 20
2.761602
 30
5.88
 11
-0.115805
 21
2.736486
 31
5.88
  0
LINE
  5
6C1
100
AcDbEntity
  8
0
100
AcDbLine
 10
-0.125858
 20
2.786716
 30
5.88
 11
-0.120832
 21
2.761602
 31
5.88
  0
LINE
  5
6C2
100
AcDbEntity
  8
0
100
AcDbLine
 10
-0.140936
 20
2.811832
 30
5.88
 11
-0.125858
 21
2.786716
 31
5.88
  0
LINE
  5
6C3
100
AcDbEntity
  8
0
100
AcDbLine
 10
-0.161036
 20
2.831923
 30
5.88
 11
-0.140936
 21
2.811832
 31
5.88
  0
LINE
  5
6C4
100
AcDbEntity
  8
0
100
AcDbLine
 10
-0.186165
 20
2.846992
 30
5.88
 11
-0.161036
 21
2.831923
 31
5.88
  0
LINE
  5
6C5
100
AcDbEntity
  8
0
100
AcDbLine
 10
-0.211293
 20
2.852015
 30
5.88
 11
-0.186165
 21
2.846992
 31
5.88
  0
LINE
  5
6C6
100
AcDbEntity
  8
0
100
AcDbLine
 10
-0.216318
 20
2.972568
 30
5.88
 11
-0.246471
 21
2.972568
 31
5.88
  0
LINE
  5
6C7
100
AcDbEntity
  8
0
100
AcDbLine
 10
-0.346983
 20
3.052936
 30
5.88
 11
-0.352009
 21
3.078051
 31
5.88
  0
LINE
  5
6C8
100
AcDbEntity
  8
0
100
AcDbLine
 10
-0.331905
 20
3.02782
 30
5.88
 11
-0.346983
 21
3.052936
 31
5.88
  0
LINE
  5
6C9
100
AcDbEntity
  8
0
100
AcDbLine
 10
-0.316828
 20
3.002706
 30
5.88
 11
-0.331905
 21
3.02782
 31
5.88
  0
LINE
  5
6CA
100
AcDbEntity
  8
0
100
AcDbLine
 10
-0.296726
 20
2.987637
 30
5.88
 11
-0.316828
 21
3.002706
 31
5.88
  0
LINE
  5
6CB
100
AcDbEntity
  8
0
100
AcDbLine
 10
-0.271599
 20
2.97759
 30
5.88
 11
-0.296726
 21
2.987637
 31
5.88
  0
LINE
  5
6CC
100
AcDbEntity
  8
0
100
AcDbLine
 10
-0.246471
 20
2.972568
 30
5.88
 11
-0.271599
 21
2.97759
 31
5.88
  0
LINE
  5
6CD
100
AcDbEntity
  8
0
100
AcDbLine
 10
-0.191191
 20
2.97759
 30
5.88
 11
-0.216318
 21
2.972568
 31
5.88
  0
LINE
  5
6CE
100
AcDbEntity
  8
0
100
AcDbLine
 10
-0.166063
 20
2.992659
 30
5.88
 11
-0.191191
 21
2.97759
 31
5.88
  0
LINE
  5
6CF
100
AcDbEntity
  8
0
100
AcDbLine
 10
-0.14596
 20
3.00773
 30
5.88
 11
-0.166063
 21
2.992659
 31
5.88
  0
LINE
  5
6D0
100
AcDbEntity
  8
0
100
AcDbLine
 10
-0.130883
 20
3.032844
 30
5.88
 11
-0.14596
 21
3.00773
 31
5.88
  0
LINE
  5
6D1
100
AcDbEntity
  8
0
100
AcDbLine
 10
-0.120832
 20
3.057958
 30
5.88
 11
-0.130883
 21
3.032844
 31
5.88
  0
LINE
  5
6D2
100
AcDbEntity
  8
0
100
AcDbLine
 10
-0.115805
 20
3.083074
 30
5.88
 11
-0.120832
 21
3.057958
 31
5.88
  0
LINE
  5
6D3
100
AcDbEntity
  8
0
100
AcDbLine
 10
-0.06555
 20
2.620956
 30
5.88
 11
-0.06555
 21
2.520496
 31
5.88
  0
LINE
  5
6D4
100
AcDbEntity
  8
0
100
AcDbLine
 10
0.060088
 20
2.620956
 30
5.88
 11
0.060088
 21
2.520496
 31
5.88
  0
LINE
  5
6D5
100
AcDbEntity
  8
0
100
AcDbLine
 10
-0.06555
 20
2.967545
 30
5.88
 11
-0.06555
 21
2.867084
 31
5.88
  0
LINE
  5
6D6
100
AcDbEntity
  8
0
100
AcDbLine
 10
0.060088
 20
2.967545
 30
5.88
 11
0.060088
 21
2.867084
 31
5.88
  0
LINE
  5
6D7
100
AcDbEntity
  8
0
100
AcDbLine
 10
0.060088
 20
3.213673
 30
5.88
 11
-0.532929
 21
3.213673
 31
5.88
  0
LINE
  5
6D8
100
AcDbEntity
  8
0
100
AcDbLine
 10
-0.532929
 20
3.314133
 30
5.88
 11
0.060088
 21
3.314133
 31
5.88
  0
LINE
  5
6D9
100
AcDbEntity
  8
0
100
AcDbLine
 10
0.060088
 20
3.560261
 30
5.88
 11
-0.532929
 21
3.560261
 31
5.88
  0
LINE
  5
6DA
100
AcDbEntity
  8
0
100
AcDbLine
 10
-0.532929
 20
3.665745
 30
5.88
 11
0.060088
 21
3.665745
 31
5.88
  0
LINE
  5
6DB
100
AcDbEntity
  8
0
100
AcDbLine
 10
-0.402264
 20
3.560261
 30
5.88
 11
-0.402264
 21
3.314133
 31
5.88
  0
LINE
  5
6DC
100
AcDbEntity
  8
0
100
AcDbLine
 10
-0.311803
 20
3.5251
 30
5.88
 11
-0.150985
 21
3.354318
 31
5.88
  0
LINE
  5
6DD
100
AcDbEntity
  8
0
100
AcDbLine
 10
-0.140936
 20
3.505007
 30
5.88
 11
-0.125858
 21
3.484917
 31
5.88
  0
LINE
  5
6DE
100
AcDbEntity
  8
0
100
AcDbLine
 10
-0.341956
 20
3.479893
 30
5.88
 11
-0.331905
 21
3.499986
 31
5.88
  0
LINE
  5
6DF
100
AcDbEntity
  8
0
100
AcDbLine
 10
-0.532929
 20
3.213673
 30
5.88
 11
-0.532929
 21
3.314133
 31
5.88
  0
LINE
  5
6E0
100
AcDbEntity
  8
0
100
AcDbLine
 10
-0.23642
 20
3.203627
 30
5.88
 11
-0.211293
 21
3.203627
 31
5.88
  0
LINE
  5
6E1
100
AcDbEntity
  8
0
100
AcDbLine
 10
-0.261548
 20
3.198604
 30
5.88
 11
-0.23642
 21
3.203627
 31
5.88
  0
LINE
  5
6E2
100
AcDbEntity
  8
0
100
AcDbLine
 10
-0.286675
 20
3.188558
 30
5.88
 11
-0.261548
 21
3.198604
 31
5.88
  0
LINE
  5
6E3
100
AcDbEntity
  8
0
100
AcDbLine
 10
-0.311803
 20
3.17349
 30
5.88
 11
-0.286675
 21
3.188558
 31
5.88
  0
LINE
  5
6E4
100
AcDbEntity
  8
0
100
AcDbLine
 10
-0.331905
 20
3.153397
 30
5.88
 11
-0.311803
 21
3.17349
 31
5.88
  0
LINE
  5
6E5
100
AcDbEntity
  8
0
100
AcDbLine
 10
-0.341956
 20
3.133305
 30
5.88
 11
-0.331905
 21
3.153397
 31
5.88
  0
LINE
  5
6E6
100
AcDbEntity
  8
0
100
AcDbLine
 10
-0.352009
 20
3.103167
 30
5.88
 11
-0.341956
 21
3.133305
 31
5.88
  0
LINE
  5
6E7
100
AcDbEntity
  8
0
100
AcDbLine
 10
-0.125858
 20
3.133305
 30
5.88
 11
-0.120832
 21
3.10819
 31
5.88
  0
LINE
  5
6E8
100
AcDbEntity
  8
0
100
AcDbLine
 10
-0.140936
 20
3.158419
 30
5.88
 11
-0.125858
 21
3.133305
 31
5.88
  0
LINE
  5
6E9
100
AcDbEntity
  8
0
100
AcDbLine
 10
-0.161036
 20
3.178511
 30
5.88
 11
-0.140936
 21
3.158419
 31
5.88
  0
LINE
  5
6EA
100
AcDbEntity
  8
0
100
AcDbLine
 10
-0.186165
 20
3.19358
 30
5.88
 11
-0.161036
 21
3.178511
 31
5.88
  0
LINE
  5
6EB
100
AcDbEntity
  8
0
100
AcDbLine
 10
-0.211293
 20
3.203627
 30
5.88
 11
-0.186165
 21
3.19358
 31
5.88
  0
LINE
  5
6EC
100
AcDbEntity
  8
0
100
AcDbLine
 10
-0.216318
 20
3.319157
 30
5.88
 11
-0.246471
 21
3.319157
 31
5.88
  0
LINE
  5
6ED
100
AcDbEntity
  8
0
100
AcDbLine
 10
-0.346983
 20
3.399525
 30
5.88
 11
-0.352009
 21
3.424639
 31
5.88
  0
LINE
  5
6EE
100
AcDbEntity
  8
0
100
AcDbLine
 10
-0.331905
 20
3.374409
 30
5.88
 11
-0.346983
 21
3.399525
 31
5.88
  0
LINE
  5
6EF
100
AcDbEntity
  8
0
100
AcDbLine
 10
-0.316828
 20
3.354318
 30
5.88
 11
-0.331905
 21
3.374409
 31
5.88
  0
LINE
  5
6F0
100
AcDbEntity
  8
0
100
AcDbLine
 10
-0.296726
 20
3.334226
 30
5.88
 11
-0.316828
 21
3.354318
 31
5.88
  0
LINE
  5
6F1
100
AcDbEntity
  8
0
100
AcDbLine
 10
-0.271599
 20
3.324179
 30
5.88
 11
-0.296726
 21
3.334226
 31
5.88
  0
LINE
  5
6F2
100
AcDbEntity
  8
0
100
AcDbLine
 10
-0.246471
 20
3.319157
 30
5.88
 11
-0.271599
 21
3.324179
 31
5.88
  0
LINE
  5
6F3
100
AcDbEntity
  8
0
100
AcDbLine
 10
-0.352009
 20
3.454777
 30
5.88
 11
-0.341956
 21
3.479893
 31
5.88
  0
LINE
  5
6F4
100
AcDbEntity
  8
0
100
AcDbLine
 10
-0.352009
 20
3.424639
 30
5.88
 11
-0.352009
 21
3.454777
 31
5.88
  0
LINE
  5
6F5
100
AcDbEntity
  8
0
100
AcDbLine
 10
-0.191191
 20
3.324179
 30
5.88
 11
-0.216318
 21
3.319157
 31
5.88
  0
LINE
  5
6F6
100
AcDbEntity
  8
0
100
AcDbLine
 10
-0.166063
 20
3.339247
 30
5.88
 11
-0.191191
 21
3.324179
 31
5.88
  0
LINE
  5
6F7
100
AcDbEntity
  8
0
100
AcDbLine
 10
-0.14596
 20
3.354318
 30
5.88
 11
-0.166063
 21
3.339247
 31
5.88
  0
LINE
  5
6F8
100
AcDbEntity
  8
0
100
AcDbLine
 10
-0.130883
 20
3.379432
 30
5.88
 11
-0.14596
 21
3.354318
 31
5.88
  0
LINE
  5
6F9
100
AcDbEntity
  8
0
100
AcDbLine
 10
-0.120832
 20
3.404547
 30
5.88
 11
-0.130883
 21
3.379432
 31
5.88
  0
LINE
  5
6FA
100
AcDbEntity
  8
0
100
AcDbLine
 10
-0.115805
 20
3.429663
 30
5.88
 11
-0.120832
 21
3.404547
 31
5.88
  0
LINE
  5
6FB
100
AcDbEntity
  8
0
100
AcDbLine
 10
-0.120832
 20
3.459801
 30
5.88
 11
-0.115805
 21
3.429663
 31
5.88
  0
LINE
  5
6FC
100
AcDbEntity
  8
0
100
AcDbLine
 10
-0.125858
 20
3.484917
 30
5.88
 11
-0.120832
 21
3.459801
 31
5.88
  0
LINE
  5
6FD
100
AcDbEntity
  8
0
100
AcDbLine
 10
-0.402264
 20
3.90685
 30
5.88
 11
-0.402264
 21
3.665745
 31
5.88
  0
LINE
  5
6FE
100
AcDbEntity
  8
0
100
AcDbLine
 10
-0.532929
 20
3.560261
 30
5.88
 11
-0.532929
 21
3.665745
 31
5.88
  0
LINE
  5
6FF
100
AcDbEntity
  8
0
100
AcDbLine
 10
-0.311803
 20
3.871688
 30
5.88
 11
-0.150985
 21
3.700905
 31
5.88
  0
LINE
  5
700
100
AcDbEntity
  8
0
100
AcDbLine
 10
-0.316828
 20
3.700905
 30
5.88
 11
-0.331905
 21
3.720997
 31
5.88
  0
LINE
  5
701
100
AcDbEntity
  8
0
100
AcDbLine
 10
-0.14596
 20
3.705928
 30
5.88
 11
-0.166063
 21
3.685836
 31
5.88
  0
LINE
  5
702
100
AcDbEntity
  8
0
100
AcDbLine
 10
-0.23642
 20
3.550214
 30
5.88
 11
-0.211293
 21
3.550214
 31
5.88
  0
LINE
  5
703
100
AcDbEntity
  8
0
100
AcDbLine
 10
-0.216318
 20
3.665745
 30
5.88
 11
-0.246471
 21
3.665745
 31
5.88
  0
LINE
  5
704
100
AcDbEntity
  8
0
100
AcDbLine
 10
-0.261548
 20
3.545192
 30
5.88
 11
-0.23642
 21
3.550214
 31
5.88
  0
LINE
  5
705
100
AcDbEntity
  8
0
100
AcDbLine
 10
-0.286675
 20
3.540169
 30
5.88
 11
-0.261548
 21
3.545192
 31
5.88
  0
LINE
  5
706
100
AcDbEntity
  8
0
100
AcDbLine
 10
-0.311803
 20
3.520076
 30
5.88
 11
-0.286675
 21
3.540169
 31
5.88
  0
LINE
  5
707
100
AcDbEntity
  8
0
100
AcDbLine
 10
-0.331905
 20
3.499986
 30
5.88
 11
-0.311803
 21
3.520076
 31
5.88
  0
LINE
  5
708
100
AcDbEntity
  8
0
100
AcDbLine
 10
-0.296726
 20
3.685836
 30
5.88
 11
-0.316828
 21
3.700905
 31
5.88
  0
LINE
  5
709
100
AcDbEntity
  8
0
100
AcDbLine
 10
-0.271599
 20
3.670767
 30
5.88
 11
-0.296726
 21
3.685836
 31
5.88
  0
LINE
  5
70A
100
AcDbEntity
  8
0
100
AcDbLine
 10
-0.246471
 20
3.665745
 30
5.88
 11
-0.271599
 21
3.670767
 31
5.88
  0
LINE
  5
70B
100
AcDbEntity
  8
0
100
AcDbLine
 10
-0.161036
 20
3.5251
 30
5.88
 11
-0.140936
 21
3.505007
 31
5.88
  0
LINE
  5
70C
100
AcDbEntity
  8
0
100
AcDbLine
 10
-0.186165
 20
3.540169
 30
5.88
 11
-0.161036
 21
3.5251
 31
5.88
  0
LINE
  5
70D
100
AcDbEntity
  8
0
100
AcDbLine
 10
-0.211293
 20
3.550214
 30
5.88
 11
-0.186165
 21
3.540169
 31
5.88
  0
LINE
  5
70E
100
AcDbEntity
  8
0
100
AcDbLine
 10
-0.191191
 20
3.675791
 30
5.88
 11
-0.216318
 21
3.665745
 31
5.88
  0
LINE
  5
70F
100
AcDbEntity
  8
0
100
AcDbLine
 10
-0.166063
 20
3.685836
 30
5.88
 11
-0.191191
 21
3.675791
 31
5.88
  0
LINE
  5
710
100
AcDbEntity
  8
0
100
AcDbLine
 10
-0.23642
 20
3.896802
 30
5.88
 11
-0.211293
 21
3.896802
 31
5.88
  0
LINE
  5
711
100
AcDbEntity
  8
0
100
AcDbLine
 10
-0.346983
 20
3.746113
 30
5.88
 11
-0.352009
 21
3.771228
 31
5.88
  0
LINE
  5
712
100
AcDbEntity
  8
0
100
AcDbLine
 10
-0.331905
 20
3.720997
 30
5.88
 11
-0.346983
 21
3.746113
 31
5.88
  0
LINE
  5
713
100
AcDbEntity
  8
0
100
AcDbLine
 10
-0.261548
 20
3.896802
 30
5.88
 11
-0.23642
 21
3.896802
 31
5.88
  0
LINE
  5
714
100
AcDbEntity
  8
0
100
AcDbLine
 10
-0.286675
 20
3.886757
 30
5.88
 11
-0.261548
 21
3.896802
 31
5.88
  0
LINE
  5
715
100
AcDbEntity
  8
0
100
AcDbLine
 10
-0.311803
 20
3.871688
 30
5.88
 11
-0.286675
 21
3.886757
 31
5.88
  0
LINE
  5
716
100
AcDbEntity
  8
0
100
AcDbLine
 10
-0.331905
 20
3.851596
 30
5.88
 11
-0.311803
 21
3.871688
 31
5.88
  0
LINE
  5
717
100
AcDbEntity
  8
0
100
AcDbLine
 10
-0.341956
 20
3.826482
 30
5.88
 11
-0.331905
 21
3.851596
 31
5.88
  0
LINE
  5
718
100
AcDbEntity
  8
0
100
AcDbLine
 10
-0.352009
 20
3.801365
 30
5.88
 11
-0.341956
 21
3.826482
 31
5.88
  0
LINE
  5
719
100
AcDbEntity
  8
0
100
AcDbLine
 10
-0.352009
 20
3.771228
 30
5.88
 11
-0.352009
 21
3.801365
 31
5.88
  0
LINE
  5
71A
100
AcDbEntity
  8
0
100
AcDbLine
 10
-0.130883
 20
3.726021
 30
5.88
 11
-0.14596
 21
3.705928
 31
5.88
  0
LINE
  5
71B
100
AcDbEntity
  8
0
100
AcDbLine
 10
-0.120832
 20
3.751135
 30
5.88
 11
-0.130883
 21
3.726021
 31
5.88
  0
LINE
  5
71C
100
AcDbEntity
  8
0
100
AcDbLine
 10
-0.115805
 20
3.776251
 30
5.88
 11
-0.120832
 21
3.751135
 31
5.88
  0
LINE
  5
71D
100
AcDbEntity
  8
0
100
AcDbLine
 10
-0.120832
 20
3.806389
 30
5.88
 11
-0.115805
 21
3.776251
 31
5.88
  0
LINE
  5
71E
100
AcDbEntity
  8
0
100
AcDbLine
 10
-0.125858
 20
3.831503
 30
5.88
 11
-0.120832
 21
3.806389
 31
5.88
  0
LINE
  5
71F
100
AcDbEntity
  8
0
100
AcDbLine
 10
-0.140936
 20
3.851596
 30
5.88
 11
-0.125858
 21
3.831503
 31
5.88
  0
LINE
  5
720
100
AcDbEntity
  8
0
100
AcDbLine
 10
-0.161036
 20
3.871688
 30
5.88
 11
-0.140936
 21
3.851596
 31
5.88
  0
LINE
  5
721
100
AcDbEntity
  8
0
100
AcDbLine
 10
-0.186165
 20
3.886757
 30
5.88
 11
-0.161036
 21
3.871688
 31
5.88
  0
LINE
  5
722
100
AcDbEntity
  8
0
100
AcDbLine
 10
-0.211293
 20
3.896802
 30
5.88
 11
-0.186165
 21
3.886757
 31
5.88
  0
LINE
  5
723
100
AcDbEntity
  8
0
100
AcDbLine
 10
-0.06555
 20
3.314133
 30
5.88
 11
-0.06555
 21
3.213673
 31
5.88
  0
LINE
  5
724
100
AcDbEntity
  8
0
100
AcDbLine
 10
0.060088
 20
3.314133
 30
5.88
 11
0.060088
 21
3.213673
 31
5.88
  0
LINE
  5
725
100
AcDbEntity
  8
0
100
AcDbLine
 10
-0.06555
 20
3.665745
 30
5.88
 11
-0.06555
 21
3.560261
 31
5.88
  0
LINE
  5
726
100
AcDbEntity
  8
0
100
AcDbLine
 10
0.060088
 20
3.665745
 30
5.88
 11
0.060088
 21
3.560261
 31
5.88
  0
LINE
  5
727
100
AcDbEntity
  8
0
100
AcDbLine
 10
-0.492723
 20
4.33992
 30
5.88
 11
-0.035397
 21
4.33992
 31
5.88
  0
LINE
  5
728
100
AcDbEntity
  8
0
100
AcDbLine
 10
-0.040422
 20
4.163023
 30
5.88
 11
-0.492723
 21
4.163023
 31
5.88
  0
LINE
  5
729
100
AcDbEntity
  8
0
100
AcDbLine
 10
-0.492723
 20
4.199277
 30
5.88
 11
-0.035397
 21
4.199277
 31
5.88
  0
LINE
  5
72A
100
AcDbEntity
  8
0
100
AcDbLine
 10
-0.492723
 20
4.052517
 30
5.88
 11
-0.035397
 21
4.052517
 31
5.88
  0
LINE
  5
72B
100
AcDbEntity
  8
0
100
AcDbLine
 10
-0.492723
 20
4.514635
 30
5.88
 11
-0.492723
 21
4.052517
 31
5.88
  0
LINE
  5
72C
100
AcDbEntity
  8
0
100
AcDbLine
 10
-0.407289
 20
4.33992
 30
5.88
 11
-0.407289
 21
4.495635
 31
5.88
  0
LINE
  5
72D
100
AcDbEntity
  8
0
100
AcDbLine
 10
-0.150985
 20
4.495635
 30
5.88
 11
-0.150985
 21
4.33992
 31
5.88
  0
LINE
  5
72E
100
AcDbEntity
  8
0
100
AcDbLine
 10
0.045013
 20
4.495635
 30
5.88
 11
0.045013
 21
4.259552
 31
5.88
  0
LINE
  5
72F
100
AcDbEntity
  8
0
100
AcDbLine
 10
-0.035397
 20
4.514635
 30
5.88
 11
-0.035397
 21
4.052517
 31
5.88
  0
LINE
  5
730
100
AcDbEntity
  8
0
100
AcDbLine
 10
0.135472
 20
4.117816
 30
5.88
 11
0.1606
 21
4.107769
 31
5.88
  0
LINE
  5
731
100
AcDbEntity
  8
0
100
AcDbLine
 10
0.135472
 20
4.254531
 30
5.88
 11
0.1606
 21
4.244483
 31
5.88
  0
LINE
  5
732
100
AcDbEntity
  8
0
100
AcDbLine
 10
0.11537
 20
4.12284
 30
5.88
 11
0.135472
 21
4.117816
 31
5.88
  0
LINE
  5
733
100
AcDbEntity
  8
0
100
AcDbLine
 10
-0.035397
 20
4.12284
 30
5.88
 11
0.11537
 21
4.12284
 31
5.88
  0
LINE
  5
734
100
AcDbEntity
  8
0
100
AcDbLine
 10
-0.035397
 20
4.259552
 30
5.88
 11
0.11537
 21
4.259552
 31
5.88
  0
LINE
  5
735
100
AcDbEntity
  8
0
100
AcDbLine
 10
0.11537
 20
4.259552
 30
5.88
 11
0.135472
 21
4.254531
 31
5.88
  0
LINE
  5
736
100
AcDbEntity
  8
0
100
AcDbLine
 10
0.195778
 20
4.057541
 30
5.88
 11
0.195778
 21
4.037448
 31
5.88
  0
LINE
  5
737
100
AcDbEntity
  8
0
100
AcDbLine
 10
0.190753
 20
4.077631
 30
5.88
 11
0.195778
 21
4.057541
 31
5.88
  0
LINE
  5
738
100
AcDbEntity
  8
0
100
AcDbLine
 10
0.175678
 20
4.097724
 30
5.88
 11
0.190753
 21
4.077631
 31
5.88
  0
LINE
  5
739
100
AcDbEntity
  8
0
100
AcDbLine
 10
0.1606
 20
4.107769
 30
5.88
 11
0.175678
 21
4.097724
 31
5.88
  0
LINE
  5
73A
100
AcDbEntity
  8
0
100
AcDbLine
 10
0.195778
 20
4.194253
 30
5.88
 11
0.195778
 21
4.174161
 31
5.88
  0
LINE
  5
73B
100
AcDbEntity
  8
0
100
AcDbLine
 10
0.190753
 20
4.214346
 30
5.88
 11
0.195778
 21
4.194253
 31
5.88
  0
LINE
  5
73C
100
AcDbEntity
  8
0
100
AcDbLine
 10
0.175678
 20
4.234438
 30
5.88
 11
0.190753
 21
4.214346
 31
5.88
  0
LINE
  5
73D
100
AcDbEntity
  8
0
100
AcDbLine
 10
0.1606
 20
4.244483
 30
5.88
 11
0.175678
 21
4.234438
 31
5.88
  0
LINE
  5
73E
100
AcDbEntity
  8
0
100
AcDbLine
 10
0.261112
 20
4.550887
 30
5.88
 11
0.246035
 21
4.530796
 31
5.88
  0
LINE
  5
73F
100
AcDbEntity
  8
0
100
AcDbLine
 10
0.175678
 20
4.500659
 30
5.88
 11
0.1606
 21
4.500659
 31
5.88
  0
LINE
  5
740
100
AcDbEntity
  8
0
100
AcDbLine
 10
0.200806
 20
4.50568
 30
5.88
 11
0.175678
 21
4.500659
 31
5.88
  0
LINE
  5
741
100
AcDbEntity
  8
0
100
AcDbLine
 10
0.225933
 20
4.515727
 30
5.88
 11
0.200806
 21
4.50568
 31
5.88
  0
LINE
  5
742
100
AcDbEntity
  8
0
100
AcDbLine
 10
0.246035
 20
4.530796
 30
5.88
 11
0.225933
 21
4.515727
 31
5.88
  0
LINE
  5
743
100
AcDbEntity
  8
0
100
AcDbLine
 10
0.271163
 20
4.576003
 30
5.88
 11
0.261112
 21
4.550887
 31
5.88
  0
LINE
  5
744
100
AcDbEntity
  8
0
100
AcDbLine
 10
0.271163
 20
4.601117
 30
5.88
 11
0.271163
 21
4.576003
 31
5.88
  0
LINE
  5
745
100
AcDbEntity
  8
0
100
AcDbLine
 10
0.271163
 20
4.626233
 30
5.88
 11
0.271163
 21
4.601117
 31
5.88
  0
POLYLINE
  5
746
100
AcDbEntity
  8
0
100
AcDbPolygonMesh
 66
     1
 10
0.0
 20
0.0
 30
0.0
 70
    16
 71
     6
 72
     3
  0
VERTEX
  5
747
100
AcDbEntity
  8
0
100
AcDbVertex
100
AcDbPolygonMeshVertex
 10
0.068
 20
9.8
 30
4.755
 70
    64
  0
VERTEX
  5
748
100
AcDbEntity
  8
0
100
AcDbVertex
100
AcDbPolygonMeshVertex
 10
0.068
 20
9.8
 30
0.0
 70
    64
  0
VERTEX
  5
749
100
AcDbEntity
  8
0
100
AcDbVertex
100
AcDbPolygonMeshVertex
 10
0.068
 20
9.8
 30
0.0
 70
    64
  0
VERTEX
  5
74A
100
AcDbEntity
  8
0
100
AcDbVertex
100
AcDbPolygonMeshVertex
 10
0.0
 20
9.8
 30
4.755
 70
    64
  0
VERTEX
  5
74B
100
AcDbEntity
  8
0
100
AcDbVertex
100
AcDbPolygonMeshVertex
 10
0.0
 20
9.8
 30
0.0
 70
    64
  0
VERTEX
  5
74C
100
AcDbEntity
  8
0
100
AcDbVertex
100
AcDbPolygonMeshVertex
 10
0.0
 20
9.8
 30
0.0
 70
    64
  0
VERTEX
  5
74D
100
AcDbEntity
  8
0
100
AcDbVertex
100
AcDbPolygonMeshVertex
 10
0.0
 20
10.0
 30
4.755
 70
    64
  0
VERTEX
  5
74E
100
AcDbEntity
  8
0
100
AcDbVertex
100
AcDbPolygonMeshVertex
 10
0.0
 20
10.0
 30
0.0
 70
    64
  0
VERTEX
  5
74F
100
AcDbEntity
  8
0
100
AcDbVertex
100
AcDbPolygonMeshVertex
 10
0.0
 20
9.8
 30
0.0
 70
    64
  0
VERTEX
  5
750
100
AcDbEntity
  8
0
100
AcDbVertex
100
AcDbPolygonMeshVertex
 10
0.068
 20
10.0
 30
4.755
 70
    64
  0
VERTEX
  5
751
100
AcDbEntity
  8
0
100
AcDbVertex
100
AcDbPolygonMeshVertex
 10
0.068
 20
10.0
 30
0.0
 70
    64
  0
VERTEX
  5
752
100
AcDbEntity
  8
0
100
AcDbVertex
100
AcDbPolygonMeshVertex
 10
0.068
 20
9.8
 30
0.0
 70
    64
  0
VERTEX
  5
753
100
AcDbEntity
  8
0
100
AcDbVertex
100
AcDbPolygonMeshVertex
 10
0.068
 20
10.0
 30
4.755
 70
    64
  0
VERTEX
  5
754
100
AcDbEntity
  8
0
100
AcDbVertex
100
AcDbPolygonMeshVertex
 10
0.068
 20
10.0
 30
4.755
 70
    64
  0
VERTEX
  5
755
100
AcDbEntity
  8
0
100
AcDbVertex
100
AcDbPolygonMeshVertex
 10
0.068
 20
9.8
 30
4.755
 70
    64
  0
VERTEX
  5
756
100
AcDbEntity
  8
0
100
AcDbVertex
100
AcDbPolygonMeshVertex
 10
0.0
 20
10.0
 30
4.755
 70
    64
  0
VERTEX
  5
757
100
AcDbEntity
  8
0
100
AcDbVertex
100
AcDbPolygonMeshVertex
 10
0.0
 20
10.0
 30
4.755
 70
    64
  0
VERTEX
  5
758
100
AcDbEntity
  8
0
100
AcDbVertex
100
AcDbPolygonMeshVertex
 10
0.0
 20
9.8
 30
4.755
 70
    64
  0
SEQEND
  5
759
100
AcDbEntity
  8
0
  0
LINE
  5
75A
100
AcDbEntity
  8
0
100
AcDbLine
 10
-0.284443
 20
8.187981
 30
5.88
 11
-0.284443
 21
7.896046
 31
5.88
  0
LINE
  5
75B
100
AcDbEntity
  8
0
100
AcDbLine
 10
-0.068345
 20
8.187981
 30
5.88
 11
-0.068345
 21
7.896046
 31
5.88
  0
TEXT
  5
75C
100
AcDbEntity
  8
0
100
AcDbText
 39
0.001
 10
-0.697436
 20
7.949748
 30
5.879973
 40
0.05
  1
FAULT
 72
     1
 11
-0.58077
 21
7.949748
 31
5.879973
100
AcDbText
  0
LINE
  5
75D
100
AcDbEntity
  8
0
100
AcDbLine
 10
-0.108549
 20
7.997107
 30
5.88
 11
-0.103525
 21
7.971991
 31
5.88
  0
LINE
  5
75E
100
AcDbEntity
  8
0
100
AcDbLine
 10
-0.098498
 20
7.825723
 30
5.88
 11
-0.118602
 21
7.805631
 31
5.88
  0
LINE
  5
75F
100
AcDbEntity
  8
0
100
AcDbLine
 10
-0.098498
 20
7.931806
 30
5.88
 11
-0.108549
 21
7.906691
 31
5.88
  0
LINE
  5
760
100
AcDbEntity
  8
0
100
AcDbLine
 10
-0.274394
 20
7.845816
 30
5.88
 11
-0.284443
 21
7.87093
 31
5.88
  0
LINE
  5
761
100
AcDbEntity
  8
0
100
AcDbLine
 10
-0.214086
 20
7.795583
 30
5.88
 11
-0.239216
 21
7.805631
 31
5.88
  0
LINE
  5
762
100
AcDbEntity
  8
0
100
AcDbLine
 10
-0.239216
 20
7.805631
 30
5.88
 11
-0.259316
 21
7.825723
 31
5.88
  0
LINE
  5
763
100
AcDbEntity
  8
0
100
AcDbLine
 10
-0.259316
 20
7.825723
 30
5.88
 11
-0.274394
 21
7.845816
 31
5.88
  0
LINE
  5
764
100
AcDbEntity
  8
0
100
AcDbLine
 10
-0.118602
 20
7.805631
 30
5.88
 11
-0.138704
 21
7.795583
 31
5.88
  0
LINE
  5
765
100
AcDbEntity
  8
0
100
AcDbLine
 10
-0.138704
 20
7.795583
 30
5.88
 11
-0.163831
 21
7.790562
 31
5.88
  0
LINE
  5
766
100
AcDbEntity
  8
0
100
AcDbLine
 10
-0.163831
 20
7.790562
 30
5.88
 11
-0.188959
 21
7.790562
 31
5.88
  0
LINE
  5
767
100
AcDbEntity
  8
0
100
AcDbLine
 10
-0.188959
 20
7.790562
 30
5.88
 11
-0.214086
 21
7.795583
 31
5.88
  0
LINE
  5
768
100
AcDbEntity
  8
0
100
AcDbLine
 10
-0.244239
 20
8.002128
 30
5.88
 11
-0.229163
 21
8.017199
 31
5.88
  0
LINE
  5
769
100
AcDbEntity
  8
0
100
AcDbLine
 10
-0.224137
 20
7.881575
 30
5.88
 11
-0.244239
 21
7.896644
 31
5.88
  0
LINE
  5
76A
100
AcDbEntity
  8
0
100
AcDbLine
 10
-0.259316
 20
7.982038
 30
5.88
 11
-0.244239
 21
8.002128
 31
5.88
  0
LINE
  5
76B
100
AcDbEntity
  8
0
100
AcDbLine
 10
-0.264343
 20
7.956922
 30
5.88
 11
-0.259316
 21
7.982038
 31
5.88
  0
LINE
  5
76C
100
AcDbEntity
  8
0
100
AcDbLine
 10
-0.284443
 20
7.87093
 30
5.88
 11
-0.284443
 21
7.896046
 31
5.88
  0
LINE
  5
76D
100
AcDbEntity
  8
0
100
AcDbLine
 10
-0.244239
 20
7.896644
 30
5.88
 11
-0.25429
 21
7.916737
 31
5.88
  0
LINE
  5
76E
100
AcDbEntity
  8
0
100
AcDbLine
 10
-0.25429
 20
7.916737
 30
5.88
 11
-0.259316
 21
7.936829
 31
5.88
  0
LINE
  5
76F
100
AcDbEntity
  8
0
100
AcDbLine
 10
-0.259316
 20
7.936829
 30
5.88
 11
-0.264343
 21
7.956922
 31
5.88
  0
LINE
  5
770
100
AcDbEntity
  8
0
100
AcDbLine
 10
-0.229163
 20
8.017199
 30
5.88
 11
-0.209061
 21
8.027245
 31
5.88
  0
LINE
  5
771
100
AcDbEntity
  8
0
100
AcDbLine
 10
-0.209061
 20
8.027245
 30
5.88
 11
-0.188959
 21
8.032268
 31
5.88
  0
LINE
  5
772
100
AcDbEntity
  8
0
100
AcDbLine
 10
-0.188959
 20
8.032268
 30
5.88
 11
-0.163831
 21
8.032268
 31
5.88
  0
LINE
  5
773
100
AcDbEntity
  8
0
100
AcDbLine
 10
-0.163831
 20
8.032268
 30
5.88
 11
-0.143729
 21
8.022221
 31
5.88
  0
LINE
  5
774
100
AcDbEntity
  8
0
100
AcDbLine
 10
-0.143729
 20
8.022221
 30
5.88
 11
-0.123626
 21
8.012176
 31
5.88
  0
LINE
  5
775
100
AcDbEntity
  8
0
100
AcDbLine
 10
-0.123626
 20
8.012176
 30
5.88
 11
-0.108549
 21
7.997107
 31
5.88
  0
LINE
  5
776
100
AcDbEntity
  8
0
100
AcDbLine
 10
-0.108549
 20
7.906691
 30
5.88
 11
-0.123626
 21
7.891623
 31
5.88
  0
LINE
  5
777
100
AcDbEntity
  8
0
100
AcDbLine
 10
-0.123626
 20
7.891623
 30
5.88
 11
-0.138704
 21
7.876554
 31
5.88
  0
LINE
  5
778
100
AcDbEntity
  8
0
100
AcDbLine
 10
-0.138704
 20
7.876554
 30
5.88
 11
-0.158806
 21
7.87153
 31
5.88
  0
LINE
  5
779
100
AcDbEntity
  8
0
100
AcDbLine
 10
-0.158806
 20
7.87153
 30
5.88
 11
-0.183933
 21
7.866506
 31
5.88
  0
LINE
  5
77A
100
AcDbEntity
  8
0
100
AcDbLine
 10
-0.204035
 20
7.87153
 30
5.88
 11
-0.224137
 21
7.881575
 31
5.88
  0
LINE
  5
77B
100
AcDbEntity
  8
0
100
AcDbLine
 10
-0.183933
 20
7.866506
 30
5.88
 11
-0.204035
 21
7.87153
 31
5.88
  0
LINE
  5
77C
100
AcDbEntity
  8
0
100
AcDbLine
 10
-0.073371
 20
7.87093
 30
5.88
 11
-0.083422
 21
7.845816
 31
5.88
  0
LINE
  5
77D
100
AcDbEntity
  8
0
100
AcDbLine
 10
-0.083422
 20
7.845816
 30
5.88
 11
-0.098498
 21
7.825723
 31
5.88
  0
LINE
  5
77E
100
AcDbEntity
  8
0
100
AcDbLine
 10
-0.103525
 20
7.971991
 30
5.88
 11
-0.098498
 21
7.951898
 31
5.88
  0
LINE
  5
77F
100
AcDbEntity
  8
0
100
AcDbLine
 10
-0.068345
 20
7.896046
 30
5.88
 11
-0.073371
 21
7.87093
 31
5.88
  0
LINE
  5
780
100
AcDbEntity
  8
0
100
AcDbLine
 10
-0.098498
 20
7.951898
 30
5.88
 11
-0.098498
 21
7.931806
 31
5.88
  0
LINE
  5
781
100
AcDbEntity
  8
0
100
AcDbLine
 10
0.085215
 20
8.368034
 30
5.88
 11
-0.693747
 21
8.368034
 31
5.88
  0
LINE
  5
782
100
AcDbEntity
  8
0
100
AcDbLine
 10
-0.693747
 20
8.769875
 30
5.88
 11
0.085215
 21
8.769875
 31
5.88
  0
LINE
  5
783
100
AcDbEntity
  8
0
100
AcDbLine
 10
-0.693747
 20
8.368034
 30
5.88
 11
-0.693747
 21
8.769875
 31
5.88
  0
POLYLINE
  5
784
100
AcDbEntity
  8
0
100
AcDbPolygonMesh
 66
     1
 10
0.0
 20
0.0
 30
0.0
 70
    16
 71
     6
 72
     3
  0
VERTEX
  5
785
100
AcDbEntity
  8
0
100
AcDbVertex
100
AcDbPolygonMeshVertex
 10
0.265
 20
9.0811
 30
5.837
 70
    64
  0
VERTEX
  5
786
100
AcDbEntity
  8
0
100
AcDbVertex
100
AcDbPolygonMeshVertex
 10
0.265
 20
9.0811
 30
5.747
 70
    64
  0
VERTEX
  5
787
100
AcDbEntity
  8
0
100
AcDbVertex
100
AcDbPolygonMeshVertex
 10
0.265
 20
9.0811
 30
5.747
 70
    64
  0
VERTEX
  5
788
100
AcDbEntity
  8
0
100
AcDbVertex
100
AcDbPolygonMeshVertex
 10
-0.197
 20
9.0811
 30
5.837
 70
    64
  0
VERTEX
  5
789
100
AcDbEntity
  8
0
100
AcDbVertex
100
AcDbPolygonMeshVertex
 10
-0.197
 20
9.0811
 30
5.747
 70
    64
  0
VERTEX
  5
78A
100
AcDbEntity
  8
0
100
AcDbVertex
100
AcDbPolygonMeshVertex
 10
-0.197
 20
9.0811
 30
5.747
 70
    64
  0
VERTEX
  5
78B
100
AcDbEntity
  8
0
100
AcDbVertex
100
AcDbPolygonMeshVertex
 10
-0.197
 20
10.0432
 30
5.837
 70
    64
  0
VERTEX
  5
78C
100
AcDbEntity
  8
0
100
AcDbVertex
100
AcDbPolygonMeshVertex
 10
-0.197
 20
10.0432
 30
5.747
 70
    64
  0
VERTEX
  5
78D
100
AcDbEntity
  8
0
100
AcDbVertex
100
AcDbPolygonMeshVertex
 10
-0.197
 20
9.0811
 30
5.747
 70
    64
  0
VERTEX
  5
78E
100
AcDbEntity
  8
0
100
AcDbVertex
100
AcDbPolygonMeshVertex
 10
0.265
 20
10.0432
 30
5.837
 70
    64
  0
VERTEX
  5
78F
100
AcDbEntity
  8
0
100
AcDbVertex
100
AcDbPolygonMeshVertex
 10
0.265
 20
10.0432
 30
5.747
 70
    64
  0
VERTEX
  5
790
100
AcDbEntity
  8
0
100
AcDbVertex
100
AcDbPolygonMeshVertex
 10
0.265
 20
9.0811
 30
5.747
 70
    64
  0
VERTEX
  5
791
100
AcDbEntity
  8
0
100
AcDbVertex
100
AcDbPolygonMeshVertex
 10
0.265
 20
10.0432
 30
5.837
 70
    64
  0
VERTEX
  5
792
100
AcDbEntity
  8
0
100
AcDbVertex
100
AcDbPolygonMeshVertex
 10
0.265
 20
10.0432
 30
5.837
 70
    64
  0
VERTEX
  5
793
100
AcDbEntity
  8
0
100
AcDbVertex
100
AcDbPolygonMeshVertex
 10
0.265
 20
9.0811
 30
5.837
 70
    64
  0
VERTEX
  5
794
100
AcDbEntity
  8
0
100
AcDbVertex
100
AcDbPolygonMeshVertex
 10
-0.197
 20
10.0432
 30
5.837
 70
    64
  0
VERTEX
  5
795
100
AcDbEntity
  8
0
100
AcDbVertex
100
AcDbPolygonMeshVertex
 10
-0.197
 20
10.0432
 30
5.837
 70
    64
  0
VERTEX
  5
796
100
AcDbEntity
  8
0
100
AcDbVertex
100
AcDbPolygonMeshVertex
 10
-0.197
 20
9.0811
 30
5.837
 70
    64
  0
SEQEND
  5
797
100
AcDbEntity
  8
0
  0
POLYLINE
  5
798
100
AcDbEntity
  8
0
100
AcDbPolygonMesh
 66
     1
 10
0.0
 20
0.0
 30
0.0
 70
    16
 71
     6
 72
     3
  0
VERTEX
  5
799
100
AcDbEntity
  8
0
100
AcDbVertex
100
AcDbPolygonMeshVertex
 10
0.068
 20
8.912
 30
5.747
 70
    64
  0
VERTEX
  5
79A
100
AcDbEntity
  8
0
100
AcDbVertex
100
AcDbPolygonMeshVertex
 10
0.068
 20
8.912
 30
5.39
 70
    64
  0
VERTEX
  5
79B
100
AcDbEntity
  8
0
100
AcDbVertex
100
AcDbPolygonMeshVertex
 10
0.068
 20
8.912
 30
5.39
 70
    64
  0
VERTEX
  5
79C
100
AcDbEntity
  8
0
100
AcDbVertex
100
AcDbPolygonMeshVertex
 10
0.0
 20
8.912
 30
5.747
 70
    64
  0
VERTEX
  5
79D
100
AcDbEntity
  8
0
100
AcDbVertex
100
AcDbPolygonMeshVertex
 10
0.0
 20
8.912
 30
5.39
 70
    64
  0
VERTEX
  5
79E
100
AcDbEntity
  8
0
100
AcDbVertex
100
AcDbPolygonMeshVertex
 10
0.0
 20
8.912
 30
5.39
 70
    64
  0
VERTEX
  5
79F
100
AcDbEntity
  8
0
100
AcDbVertex
100
AcDbPolygonMeshVertex
 10
0.0
 20
9.6931
 30
5.747
 70
    64
  0
VERTEX
  5
7A0
100
AcDbEntity
  8
0
100
AcDbVertex
100
AcDbPolygonMeshVertex
 10
0.0
 20
9.6931
 30
5.39
 70
    64
  0
VERTEX
  5
7A1
100
AcDbEntity
  8
0
100
AcDbVertex
100
AcDbPolygonMeshVertex
 10
0.0
 20
8.912
 30
5.39
 70
    64
  0
VERTEX
  5
7A2
100
AcDbEntity
  8
0
100
AcDbVertex
100
AcDbPolygonMeshVertex
 10
0.068
 20
9.6931
 30
5.747
 70
    64
  0
VERTEX
  5
7A3
100
AcDbEntity
  8
0
100
AcDbVertex
100
AcDbPolygonMeshVertex
 10
0.068
 20
9.6931
 30
5.39
 70
    64
  0
VERTEX
  5
7A4
100
AcDbEntity
  8
0
100
AcDbVertex
100
AcDbPolygonMeshVertex
 10
0.068
 20
8.912
 30
5.39
 70
    64
  0
VERTEX
  5
7A5
100
AcDbEntity
  8
0
100
AcDbVertex
100
AcDbPolygonMeshVertex
 10
0.068
 20
9.6931
 30
5.747
 70
    64
  0
VERTEX
  5
7A6
100
AcDbEntity
  8
0
100
AcDbVertex
100
AcDbPolygonMeshVertex
 10
0.068
 20
9.6931
 30
5.747
 70
    64
  0
VERTEX
  5
7A7
100
AcDbEntity
  8
0
100
AcDbVertex
100
AcDbPolygonMeshVertex
 10
0.068
 20
8.912
 30
5.747
 70
    64
  0
VERTEX
  5
7A8
100
AcDbEntity
  8
0
100
AcDbVertex
100
AcDbPolygonMeshVertex
 10
0.0
 20
9.6931
 30
5.747
 70
    64
  0
VERTEX
  5
7A9
100
AcDbEntity
  8
0
100
AcDbVertex
100
AcDbPolygonMeshVertex
 10
0.0
 20
9.6931
 30
5.747
 70
    64
  0
VERTEX
  5
7AA
100
AcDbEntity
  8
0
100
AcDbVertex
100
AcDbPolygonMeshVertex
 10
0.0
 20
8.912
 30
5.747
 70
    64
  0
SEQEND
  5
7AB
100
AcDbEntity
  8
0
  0
POLYLINE
  5
7AC
100
AcDbEntity
  8
0
100
AcDbPolygonMesh
 66
     1
 10
0.0
 20
0.0
 30
0.0
 70
    16
 71
     6
 72
     3
  0
VERTEX
  5
7AD
100
AcDbEntity
  8
0
100
AcDbVertex
100
AcDbPolygonMeshVertex
 10
0.136
 20
9.0811
 30
5.747
 70
    64
  0
VERTEX
  5
7AE
100
AcDbEntity
  8
0
100
AcDbVertex
100
AcDbPolygonMeshVertex
 10
0.136
 20
9.0811
 30
5.747
 70
    64
  0
VERTEX
  5
7AF
100
AcDbEntity
  8
0
100
AcDbVertex
100
AcDbPolygonMeshVertex
 10
0.136
 20
9.0811
 30
5.747
 70
    64
  0
VERTEX
  5
7B0
100
AcDbEntity
  8
0
100
AcDbVertex
100
AcDbPolygonMeshVertex
 10
0.136
 20
9.6931
 30
5.437
 70
    64
  0
VERTEX
  5
7B1
100
AcDbEntity
  8
0
100
AcDbVertex
100
AcDbPolygonMeshVertex
 10
0.136
 20
9.6931
 30
5.747
 70
    64
  0
VERTEX
  5
7B2
100
AcDbEntity
  8
0
100
AcDbVertex
100
AcDbPolygonMeshVertex
 10
0.136
 20
9.6931
 30
5.747
 70
    64
  0
VERTEX
  5
7B3
100
AcDbEntity
  8
0
100
AcDbVertex
100
AcDbPolygonMeshVertex
 10
0.068
 20
9.6931
 30
5.437
 70
    64
  0
VERTEX
  5
7B4
100
AcDbEntity
  8
0
100
AcDbVertex
100
AcDbPolygonMeshVertex
 10
0.068
 20
9.6931
 30
5.747
 70
    64
  0
VERTEX
  5
7B5
100
AcDbEntity
  8
0
100
AcDbVertex
100
AcDbPolygonMeshVertex
 10
0.136
 20
9.6931
 30
5.747
 70
    64
  0
VERTEX
  5
7B6
100
AcDbEntity
  8
0
100
AcDbVertex
100
AcDbPolygonMeshVertex
 10
0.068
 20
9.0811
 30
5.747
 70
    64
  0
VERTEX
  5
7B7
100
AcDbEntity
  8
0
100
AcDbVertex
100
AcDbPolygonMeshVertex
 10
0.068
 20
9.0811
 30
5.747
 70
    64
  0
VERTEX
  5
7B8
100
AcDbEntity
  8
0
100
AcDbVertex
100
AcDbPolygonMeshVertex
 10
0.136
 20
9.0811
 30
5.747
 70
    64
  0
VERTEX
  5
7B9
100
AcDbEntity
  8
0
100
AcDbVertex
100
AcDbPolygonMeshVertex
 10
0.068
 20
9.0811
 30
5.747
 70
    64
  0
VERTEX
  5
7BA
100
AcDbEntity
  8
0
100
AcDbVertex
100
AcDbPolygonMeshVertex
 10
0.068
 20
9.0811
 30
5.747
 70
    64
  0
VERTEX
  5
7BB
100
AcDbEntity
  8
0
100
AcDbVertex
100
AcDbPolygonMeshVertex
 10
0.136
 20
9.0811
 30
5.747
 70
    64
  0
VERTEX
  5
7BC
100
AcDbEntity
  8
0
100
AcDbVertex
100
AcDbPolygonMeshVertex
 10
0.068
 20
9.6931
 30
5.437
 70
    64
  0
VERTEX
  5
7BD
100
AcDbEntity
  8
0
100
AcDbVertex
100
AcDbPolygonMeshVertex
 10
0.068
 20
9.6931
 30
5.437
 70
    64
  0
VERTEX
  5
7BE
100
AcDbEntity
  8
0
100
AcDbVertex
100
AcDbPolygonMeshVertex
 10
0.136
 20
9.6931
 30
5.437
 70
    64
  0
SEQEND
  5
7BF
100
AcDbEntity
  8
0
  0
POLYLINE
  5
7C0
100
AcDbEntity
  8
0
100
AcDbPolygonMesh
 66
     1
 10
0.0
 20
0.0
 30
0.0
 70
    16
 71
     6
 72
     3
  0
VERTEX
  5
7C1
100
AcDbEntity
  8
0
100
AcDbVertex
100
AcDbPolygonMeshVertex
 10
0.0
 20
9.0811
 30
5.747
 70
    64
  0
VERTEX
  5
7C2
100
AcDbEntity
  8
0
100
AcDbVertex
100
AcDbPolygonMeshVertex
 10
0.0
 20
9.0811
 30
5.747
 70
    64
  0
VERTEX
  5
7C3
100
AcDbEntity
  8
0
100
AcDbVertex
100
AcDbPolygonMeshVertex
 10
0.0
 20
9.0811
 30
5.747
 70
    64
  0
VERTEX
  5
7C4
100
AcDbEntity
  8
0
100
AcDbVertex
100
AcDbPolygonMeshVertex
 10
0.0
 20
9.6931
 30
5.437
 70
    64
  0
VERTEX
  5
7C5
100
AcDbEntity
  8
0
100
AcDbVertex
100
AcDbPolygonMeshVertex
 10
0.0
 20
9.6931
 30
5.747
 70
    64
  0
VERTEX
  5
7C6
100
AcDbEntity
  8
0
100
AcDbVertex
100
AcDbPolygonMeshVertex
 10
0.0
 20
9.6931
 30
5.747
 70
    64
  0
VERTEX
  5
7C7
100
AcDbEntity
  8
0
100
AcDbVertex
100
AcDbPolygonMeshVertex
 10
-0.068
 20
9.6931
 30
5.437
 70
    64
  0
VERTEX
  5
7C8
100
AcDbEntity
  8
0
100
AcDbVertex
100
AcDbPolygonMeshVertex
 10
-0.068
 20
9.6931
 30
5.747
 70
    64
  0
VERTEX
  5
7C9
100
AcDbEntity
  8
0
100
AcDbVertex
100
AcDbPolygonMeshVertex
 10
0.0
 20
9.6931
 30
5.747
 70
    64
  0
VERTEX
  5
7CA
100
AcDbEntity
  8
0
100
AcDbVertex
100
AcDbPolygonMeshVertex
 10
-0.068
 20
9.0811
 30
5.747
 70
    64
  0
VERTEX
  5
7CB
100
AcDbEntity
  8
0
100
AcDbVertex
100
AcDbPolygonMeshVertex
 10
-0.068
 20
9.0811
 30
5.747
 70
    64
  0
VERTEX
  5
7CC
100
AcDbEntity
  8
0
100
AcDbVertex
100
AcDbPolygonMeshVertex
 10
0.0
 20
9.0811
 30
5.747
 70
    64
  0
VERTEX
  5
7CD
100
AcDbEntity
  8
0
100
AcDbVertex
100
AcDbPolygonMeshVertex
 10
-0.068
 20
9.0811
 30
5.747
 70
    64
  0
VERTEX
  5
7CE
100
AcDbEntity
  8
0
100
AcDbVertex
100
AcDbPolygonMeshVertex
 10
-0.068
 20
9.0811
 30
5.747
 70
    64
  0
VERTEX
  5
7CF
100
AcDbEntity
  8
0
100
AcDbVertex
100
AcDbPolygonMeshVertex
 10
0.0
 20
9.0811
 30
5.747
 70
    64
  0
VERTEX
  5
7D0
100
AcDbEntity
  8
0
100
AcDbVertex
100
AcDbPolygonMeshVertex
 10
-0.068
 20
9.6931
 30
5.437
 70
    64
  0
VERTEX
  5
7D1
100
AcDbEntity
  8
0
100
AcDbVertex
100
AcDbPolygonMeshVertex
 10
-0.068
 20
9.6931
 30
5.437
 70
    64
  0
VERTEX
  5
7D2
100
AcDbEntity
  8
0
100
AcDbVertex
100
AcDbPolygonMeshVertex
 10
0.0
 20
9.6931
 30
5.437
 70
    64
  0
SEQEND
  5
7D3
100
AcDbEntity
  8
0
  0
CIRCLE
  5
7D4
100
AcDbEntity
  8
0
100
AcDbCircle
 10
9.586379
 20
5.592
 30
0.136
 40
0.05206
210
1.0
220
0.0
230
0.0
  0
CIRCLE
  5
7D5
100
AcDbEntity
  8
0
100
AcDbCircle
 10
9.586379
 20
5.592
 30
-0.068
 40
0.05206
210
1.0
220
0.0
230
0.0
  0
LINE
  5
7D6
100
AcDbEntity
  8
0
100
AcDbLine
 10
-0.118602
 20
8.273372
 30
5.88
 11
-0.098498
 21
8.258304
 31
5.88
  0
LINE
  5
7D7
100
AcDbEntity
  8
0
100
AcDbLine
 10
-0.108549
 20
8.187981
 30
5.88
 11
-0.103525
 21
8.167888
 31
5.88
  0
LINE
  5
7D8
100
AcDbEntity
  8
0
100
AcDbLine
 10
-0.098498
 20
8.122682
 30
5.88
 11
-0.108549
 21
8.102589
 31
5.88
  0
TEXT
  5
7D9
100
AcDbEntity
  8
0
100
AcDbText
 39
0.001
 10
-0.597436
 20
8.099748
 30
5.879973
 40
0.05
  1
RUN
 72
     1
 11
-0.53077
 21
8.099748
 31
5.879973
100
AcDbText
  0
LINE
  5
7DA
100
AcDbEntity
  8
0
100
AcDbLine
 10
-0.259316
 20
8.258304
 30
5.88
 11
-0.239216
 21
8.273372
 31
5.88
  0
LINE
  5
7DB
100
AcDbEntity
  8
0
100
AcDbLine
 10
-0.244239
 20
8.193004
 30
5.88
 11
-0.229163
 21
8.208073
 31
5.88
  0
LINE
  5
7DC
100
AcDbEntity
  8
0
100
AcDbLine
 10
-0.224137
 20
8.072449
 30
5.88
 11
-0.244239
 21
8.087522
 31
5.88
  0
LINE
  5
7DD
100
AcDbEntity
  8
0
100
AcDbLine
 10
-0.284443
 20
8.187981
 30
5.88
 11
-0.284443
 21
8.213095
 31
5.88
  0
LINE
  5
7DE
100
AcDbEntity
  8
0
100
AcDbLine
 10
-0.284443
 20
8.213095
 30
5.88
 11
-0.274394
 21
8.238211
 31
5.88
  0
LINE
  5
7DF
100
AcDbEntity
  8
0
100
AcDbLine
 10
-0.274394
 20
8.238211
 30
5.88
 11
-0.259316
 21
8.258304
 31
5.88
  0
LINE
  5
7E0
100
AcDbEntity
  8
0
100
AcDbLine
 10
-0.259316
 20
8.172912
 30
5.88
 11
-0.244239
 21
8.193004
 31
5.88
  0
LINE
  5
7E1
100
AcDbEntity
  8
0
100
AcDbLine
 10
-0.264343
 20
8.147796
 30
5.88
 11
-0.259316
 21
8.172912
 31
5.88
  0
LINE
  5
7E2
100
AcDbEntity
  8
0
100
AcDbLine
 10
-0.244239
 20
8.087522
 30
5.88
 11
-0.25429
 21
8.107611
 31
5.88
  0
LINE
  5
7E3
100
AcDbEntity
  8
0
100
AcDbLine
 10
-0.25429
 20
8.107611
 30
5.88
 11
-0.259316
 21
8.127703
 31
5.88
  0
LINE
  5
7E4
100
AcDbEntity
  8
0
100
AcDbLine
 10
-0.259316
 20
8.127703
 30
5.88
 11
-0.264343
 21
8.147796
 31
5.88
  0
LINE
  5
7E5
100
AcDbEntity
  8
0
100
AcDbLine
 10
-0.229163
 20
8.208073
 30
5.88
 11
-0.209061
 21
8.218119
 31
5.88
  0
LINE
  5
7E6
100
AcDbEntity
  8
0
100
AcDbLine
 10
-0.209061
 20
8.218119
 30
5.88
 11
-0.188959
 21
8.223142
 31
5.88
  0
LINE
  5
7E7
100
AcDbEntity
  8
0
100
AcDbLine
 10
-0.188959
 20
8.223142
 30
5.88
 11
-0.163831
 21
8.223142
 31
5.88
  0
LINE
  5
7E8
100
AcDbEntity
  8
0
100
AcDbLine
 10
-0.163831
 20
8.223142
 30
5.88
 11
-0.143729
 21
8.218119
 31
5.88
  0
LINE
  5
7E9
100
AcDbEntity
  8
0
100
AcDbLine
 10
-0.143729
 20
8.218119
 30
5.88
 11
-0.123626
 21
8.20305
 31
5.88
  0
LINE
  5
7EA
100
AcDbEntity
  8
0
100
AcDbLine
 10
-0.123626
 20
8.20305
 30
5.88
 11
-0.108549
 21
8.187981
 31
5.88
  0
LINE
  5
7EB
100
AcDbEntity
  8
0
100
AcDbLine
 10
-0.108549
 20
8.102589
 30
5.88
 11
-0.123626
 21
8.082497
 31
5.88
  0
LINE
  5
7EC
100
AcDbEntity
  8
0
100
AcDbLine
 10
-0.123626
 20
8.082497
 30
5.88
 11
-0.138704
 21
8.06743
 31
5.88
  0
LINE
  5
7ED
100
AcDbEntity
  8
0
100
AcDbLine
 10
-0.138704
 20
8.06743
 30
5.88
 11
-0.158806
 21
8.062406
 31
5.88
  0
LINE
  5
7EE
100
AcDbEntity
  8
0
100
AcDbLine
 10
-0.158806
 20
8.062406
 30
5.88
 11
-0.183933
 21
8.05738
 31
5.88
  0
LINE
  5
7EF
100
AcDbEntity
  8
0
100
AcDbLine
 10
-0.183933
 20
8.05738
 30
5.88
 11
-0.204035
 21
8.062406
 31
5.88
  0
LINE
  5
7F0
100
AcDbEntity
  8
0
100
AcDbLine
 10
-0.204035
 20
8.062406
 30
5.88
 11
-0.224137
 21
8.072449
 31
5.88
  0
LINE
  5
7F1
100
AcDbEntity
  8
0
100
AcDbLine
 10
-0.239216
 20
8.273372
 30
5.88
 11
-0.214086
 21
8.288441
 31
5.88
  0
LINE
  5
7F2
100
AcDbEntity
  8
0
100
AcDbLine
 10
-0.214086
 20
8.288441
 30
5.88
 11
-0.188959
 21
8.293465
 31
5.88
  0
LINE
  5
7F3
100
AcDbEntity
  8
0
100
AcDbLine
 10
-0.188959
 20
8.293465
 30
5.88
 11
-0.163831
 21
8.293465
 31
5.88
  0
LINE
  5
7F4
100
AcDbEntity
  8
0
100
AcDbLine
 10
-0.163831
 20
8.293465
 30
5.88
 11
-0.138704
 21
8.288441
 31
5.88
  0
LINE
  5
7F5
100
AcDbEntity
  8
0
100
AcDbLine
 10
-0.138704
 20
8.288441
 30
5.88
 11
-0.118602
 21
8.273372
 31
5.88
  0
TEXT
  5
7F6
100
AcDbEntity
  8
0
100
AcDbText
 39
0.001
 10
-0.431448
 20
8.494051
 30
5.879973
 40
0.05
  1
(12 BIT)
 72
     1
 11
-0.273115
 21
8.494051
 31
5.879973
100
AcDbText
  0
TEXT
  5
7F7
100
AcDbEntity
  8
0
100
AcDbText
 39
0.001
 10
-0.389781
 20
8.594051
 30
5.879973
 40
0.05
  1
OUT
 72
     1
 11
-0.323115
 21
8.594051
 31
5.879973
100
AcDbText
  0
TEXT
  5
7F8
100
AcDbEntity
  8
0
100
AcDbText
 39
0.001
 10
-0.464781
 20
8.669051
 30
5.879973
 40
0.05
  1
ANALOG
 72
     1
 11
-0.323115
 21
8.669051
 31
5.879973
100
AcDbText
  0
LINE
  5
7F9
100
AcDbEntity
  8
0
100
AcDbLine
 10
0.085215
 20
8.769875
 30
5.88
 11
0.085215
 21
8.368034
 31
5.88
  0
LINE
  5
7FA
100
AcDbEntity
  8
0
100
AcDbLine
 10
-0.098498
 20
8.258304
 30
5.88
 11
-0.083422
 21
8.238211
 31
5.88
  0
LINE
  5
7FB
100
AcDbEntity
  8
0
100
AcDbLine
 10
-0.083422
 20
8.238211
 30
5.88
 11
-0.073371
 21
8.213095
 31
5.88
  0
LINE
  5
7FC
100
AcDbEntity
  8
0
100
AcDbLine
 10
-0.073371
 20
8.213095
 30
5.88
 11
-0.068345
 21
8.187981
 31
5.88
  0
LINE
  5
7FD
100
AcDbEntity
  8
0
100
AcDbLine
 10
-0.098498
 20
8.142772
 30
5.88
 11
-0.098498
 21
8.122682
 31
5.88
  0
LINE
  5
7FE
100
AcDbEntity
  8
0
100
AcDbLine
 10
-0.103525
 20
8.167888
 30
5.88
 11
-0.098498
 21
8.142772
 31
5.88
  0
DIMENSION
  5
7FF
100
AcDbEntity
  8
AREA1
100
AcDbDimension
  2
*D0
 10
1.272481
 20
10.0432
 30
0.0
 11
1.272481
 21
4.740327
 31
0.0
 70
    32
  3
ABECAD_3D
100
AcDbAlignedDimension
 13
-0.226368
 23
-0.562545
 33
5.88
 14
0.265
 24
10.0432
 34
5.747
 50
90.0
100
AcDbRotatedDimension
  0
DIMENSION
  5
800
100
AcDbEntity
  8
AREA1
100
AcDbDimension
  2
*D1
 10
0.27
 20
10.741904
 30
0.0
 11
1.59
 21
10.741904
 31
0.0
 70
    32
  3
ABECAD_3D
100
AcDbAlignedDimension
 13
-1.025435
 23
0.31539
 33
5.88
 14
0.27
 24
9.8
 34
0.0
100
AcDbRotatedDimension
  0
LINE
  5
801
100
AcDbEntity
  8
SCALE
100
AcDbLine
 10
-0.99642
 20
-1.200527
 30
0.0
 11
0.00358
 21
-1.200527
 31
0.0
  0
LINE
  5
802
100
AcDbEntity
  8
SCALE
100
AcDbLine
 10
0.00358
 20
-1.200527
 30
0.0
 11
0.00358
 21
-1.300527
 31
0.0
  0
LINE
  5
803
100
AcDbEntity
  8
SCALE
100
AcDbLine
 10
0.00358
 20
-1.300527
 30
0.0
 11
0.00358
 21
-1.100527
 31
0.0
  0
LINE
  5
804
100
AcDbEntity
  8
SCALE
100
AcDbLine
 10
-0.99642
 20
-1.300527
 30
0.0
 11
-0.99642
 21
-1.100527
 31
0.0
  0
LINE
  5
805
100
AcDbEntity
  8
SCALE
100
AcDbLine
 10
-0.99642
 20
-1.600527
 30
0.0
 11
-0.99642
 21
-1.400527
 31
0.0
  0
LINE
  5
806
100
AcDbEntity
  8
SCALE
100
AcDbLine
 10
-0.60272
 20
-1.600527
 30
0.0
 11
-0.60272
 21
-1.400527
 31
0.0
  0
LINE
  5
807
100
AcDbEntity
  8
SCALE
100
AcDbLine
 10
-0.99642
 20
-1.500527
 30
0.0
 11
-0.60272
 21
-1.500527
 31
0.0
  0
TEXT
  5
808
100
AcDbEntity
  8
SCALE
100
AcDbText
 10
-0.936997
 20
-1.454787
 30
0.0
 40
0.0625
  1
[10mm]
100
AcDbText
  0
TEXT
  5
809
100
AcDbEntity
  8
SCALE
100
AcDbText
 10
-0.633137
 20
-1.131478
 30
0.0
 40
0.0625
  1
1 Inch
100
AcDbText
  0
TEXT
  5
80A
100
AcDbEntity
  8
SCALE
100
AcDbText
 10
-0.994889
 20
-0.92565
 30
0.0
 40
0.0625
  1
SCALE:
100
AcDbText
  0
LWPOLYLINE
  5
80B
100
AcDbEntity
  8
SCALE
100
AcDbPolyline
 90
        4
 70
     1
 43
0.0
 10
-1.054418
 20
-0.820449
 10
0.081211
 20
-0.820449
 10
0.081211
 20
-1.662058
 10
-1.054418
 20
-1.662058
  0
ENDBLK
  5
80D
100
AcDbEntity
  8
0
100
AcDbBlockEnd
  0
BLOCK
  5
825
100
AcDbEntity
  8
0
100
AcDbBlockBegin
  2
*D3
 70
     1
 10
0.0
 20
0.0
 30
0.0
  3
*D3
  1

  0
LINE
  5
81B
100
AcDbEntity
  8
AREA2
 62
     0
100
AcDbLine
 10
-0.9525
 20
5.88
 30
0.0
 11
-2.028332
 21
5.88
 31
0.0
1001
ACAD
1000
RTLwPs
1070
   158
  0
LINE
  5
81C
100
AcDbEntity
  8
AREA2
 62
     0
100
AcDbLine
 10
-0.9525
 20
0.0
 30
0.0
 11
-2.028332
 21
0.0
 31
0.0
1001
ACAD
1000
RTLwPs
1070
   158
  0
LINE
  5
81D
100
AcDbEntity
  8
AREA2
 62
     0
100
AcDbLine
 10
-1.848644
 20
5.700313
 30
0.0
 11
-1.848644
 21
3.72125
 31
0.0
1001
ACAD
1000
RTLwPs
1070
   158
  0
LINE
  5
81E
100
AcDbEntity
  8
AREA2
 62
     0
100
AcDbLine
 10
-1.848644
 20
0.179688
 30
0.0
 11
-1.848644
 21
2.15875
 31
0.0
1001
ACAD
1000
RTLwPs
1070
   158
  0
SOLID
  5
81F
100
AcDbEntity
  8
AREA2
 62
     0
100
AcDbTrace
 10
-1.878592
 20
5.700313
 30
0.0
 11
-1.818697
 21
5.700313
 31
0.0
 12
-1.848644
 22
5.88
 32
0.0
 13
-1.848644
 23
5.88
 33
0.0
  0
SOLID
  5
820
100
AcDbEntity
  8
AREA2
 62
     0
100
AcDbTrace
 10
-1.878592
 20
0.179688
 30
0.0
 11
-1.818697
 21
0.179688
 31
0.0
 12
-1.848644
 22
0.0
 32
0.0
 13
-1.848644
 23
0.0
 33
0.0
  0
MTEXT
  5
821
100
AcDbEntity
  8
AREA2
 62
     0
100
AcDbMText
 10
-1.848644
 20
2.94
 30
0.0
 40
0.125
 41
0.0
 71
     5
 72
     1
  1
\A1;5 7/8 [149.4]
 11
0.0
 21
1.0
 31
0.0
1001
ACAD
1000
MTEXTBEGIN
1070
    73
1070
     1
1070
    44
1040
1.0
1070
    74
1070
     0
1000
MTEXTEND
1000
MTEXTBEGIN
1070
    73
1070
     1
1070
    44
1040
1.0
1070
    74
1070
     0
1000
MTEXTEND
1000
MTEXTBEGIN
1070
    73
1070
     1
1070
    44
1040
1.0
1070
    74
1070
     0
1000
MTEXTEND
1000
MTEXTBEGIN
1070
    73
1070
     1
1070
    44
1040
1.0
1070
    74
1070
     0
1000
MTEXTEND
  0
POINT
  5
822
100
AcDbEntity
  8
DEFPOINTS
 62
     0
100
AcDbPoint
 10
-0.89
 20
5.88
 30
-0.2
  0
POINT
  5
823
100
AcDbEntity
  8
DEFPOINTS
 62
     0
100
AcDbPoint
 10
-0.89
 20
0.0
 30
-0.2
  0
POINT
  5
824
100
AcDbEntity
  8
DEFPOINTS
 62
     0
100
AcDbPoint
 10
-1.848644
 20
0.0
 30
0.0
  0
ENDBLK
  5
826
100
AcDbEntity
  8
0
100
AcDbBlockEnd
  0
ENDSEC
  0
SECTION
  2
ENTITIES
  0
INSERT
  5
80E
100
AcDbEntity
  8
0
100
AcDbBlockReference
 66
     1
  2
ABIOE620
 10
0.0
 20
0.0
 30
0.0
  0
ATTRIB
  5
80F
100
AcDbEntity
  8
ATTRIBUTES
100
AcDbText
 10
-0.7539
 20
1.36709
 30
0.0
 40
0.06
  1
ALLEN-BRADLEY
100
AcDbAttribute
  2
AC_VND_LABEL
 70
     1
  0
ATTRIB
  5
810
100
AcDbEntity
  8
ATTRIBUTES
100
AcDbText
 10
-0.7539
 20
1.24209
 30
0.0
 40
0.06
  1
1771-NB4S
100
AcDbAttribute
  2
AC_PART_NO
 70
     1
  0
ATTRIB
  5
811
100
AcDbEntity
  8
ATTRIBUTES
100
AcDbText
 10
-0.7539
 20
1.11709
 30
0.0
 40
0.06
  1
1771-NB4S:HIGH RESOLUTION ISOLATED ANALOG MDL, (2) SOURCING 4-20MA IN (2) 4-20MA OUT
100
AcDbAttribute
  2
AC_DESCRIPTION
 70
     1
  0
ATTRIB
  5
812
100
AcDbEntity
  8
ATTRIBUTES
100
AcDbText
 10
-0.7539
 20
0.99209
 30
0.0
 40
0.06
  1

100
AcDbAttribute
  2
DEVICE_ID
 70
     1
  0
ATTRIB
  5
813
100
AcDbEntity
  8
ATTRIBUTES
100
AcDbText
 10
-0.7539
 20
0.86709
 30
0.0
 40
0.06
  1

100
AcDbAttribute
  2
AC_CPART_NO
 70
     1
  0
ATTRIB
  5
814
100
AcDbEntity
  8
ATTRIBUTES
100
AcDbText
 10
-0.7539
 20
0.74209
 30
0.0
 40
0.06
  1

100
AcDbAttribute
  2
AC_NOTE
 70
     1
  0
ATTRIB
  5
815
100
AcDbEntity
  8
ATTRIBUTES
100
AcDbText
 10
-0.7539
 20
0.61709
 30
0.0
 40
0.06
  1

100
AcDbAttribute
  2
FASTENER
 70
     1
  0
ATTRIB
  5
816
100
AcDbEntity
  8
ATTRIBUTES
100
AcDbText
 10
-0.7539
 20
0.49209
 30
0.0
 40
0.06
  1
INCH
100
AcDbAttribute
  2
AC_SCALE_UNIT
 70
     1
  0
ATTRIB
  5
817
100
AcDbEntity
  8
ATTRIBUTES
100
AcDbText
 10
-0.7539
 20
0.36709
 30
0.0
 40
0.06
  1
0
100
AcDbAttribute
  2
AC_VIEW_CODE
 70
     1
  0
SEQEND
  5
818
100
AcDbEntity
  8
0
  0
DIMENSION
  5
819
100
AcDbEntity
  8
AREA2
100
AcDbDimension
  2
*D3
 10
-1.848644
 20
0.0
 30
0.0
 11
-1.848644
 21
2.94
 31
0.0
 70
    32
210
0.0
220
-1.0
230
0.0
  3
ABECAD_3V
100
AcDbAlignedDimension
 13
-0.89
 23
0.2
 33
5.88
 14
-0.89
 24
0.2
 34
0.0
 50
90.0
100
AcDbRotatedDimension
1001
ACAD
1000
DSTYLE
1002
{
1070
    40
1040
1.0
1002
}
  0
VIEWPORT
  5
2C
102
{ACAD_XDICTIONARY
360
901
102
}
100
AcDbEntity
 67
     1
  8
0
100
AcDbViewport
 10
4.999849
 20
3.750155
 30
0.0
 40
13.643068
 41
7.591459
 68
     1
 69
     1
1001
ACAD
1000
MVIEW
1002
{
1070
    16
1010
0.0
1020
0.0
1030
0.0
1010
0.0
1020
0.0
1030
1.0
1040
0.0
1040
7.591459
1040
4.999849
1040
3.750155
1040
50.0
1040
0.0
1040
0.0
1070
     0
1070
   100
1070
     1
1070
     1
1070
     0
1070
     0
1070
     0
1070
     0
1040
0.0
1040
0.0
1040
0.0
1040
1.0
1040
1.0
1040
0.0
1040
0.0
1070
     0
1002
{
1002
}
1002
}
  0
VIEWPORT
  5
2D
102
{ACAD_XDICTIONARY
360
903
102
}
100
AcDbEntity
 67
     1
  8
0
100
AcDbViewport
 10
2.5
 20
5.625
 30
0.0
 40
5.0
 41
3.75
 68
     4
 69
     2
1001
ACAD
1000
MVIEW
1002
{
1070
    16
1010
0.0
1020
0.0
1030
0.0
1010
0.0
1020
0.0
1030
1.0
1040
0.0
1040
13.160327
1040
0.305834
1040
4.629923
1040
50.0
1040
0.0
1040
0.0
1070
     0
1070
   100
1070
     1
1070
     0
1070
     0
1070
     0
1070
     0
1070
     0
1040
0.0
1040
0.0
1040
0.0
1040
1.0
1040
1.0
1040
0.0
1040
0.0
1070
     0
1002
{
1003
AREA2
1002
}
1002
}
  0
VIEWPORT
  5
2E
102
{ACAD_XDICTIONARY
360
905
102
}
100
AcDbEntity
 67
     1
  8
0
100
AcDbViewport
 10
2.5
 20
1.875
 30
0.0
 40
5.0
 41
3.75
 68
     3
 69
     3
1001
ACAD
1000
MVIEW
1002
{
1070
    16
1010
0.0
1020
0.0
1030
0.0
1010
0.0
1020
-1.0
1030
0.0
1040
0.0
1040
11.718767
1040
0.305834
1040
2.940487
1040
50.0
1040
0.0
1040
0.0
1070
     0
1070
   100
1070
     1
1070
     0
1070
     0
1070
     0
1070
     0
1070
     0
1040
0.0
1040
0.0
1040
0.0
1040
1.0
1040
1.0
1040
0.0
1040
0.0
1070
     0
1002
{
1003
AREA1
1002
}
1002
}
  0
VIEWPORT
  5
2F
102
{ACAD_XDICTIONARY
360
907
102
}
100
AcDbEntity
 67
     1
  8
0
100
AcDbViewport
 10
7.5
 20
3.75
 30
0.0
 40
5.0
 41
7.5
 68
     2
 69
     4
1001
ACAD
1000
MVIEW
1002
{
1070
    16
1010
0.0
1020
0.0
1030
0.0
1010
-1.0
1020
-1.0
1030
1.0
1040
0.0
1040
14.807451
1040
-3.353239
1040
6.388696
1040
50.0
1040
0.0
1040
0.0
1070
     0
1070
   100
1070
     1
1070
     0
1070
     0
1070
     0
1070
     0
1070
     0
1040
0.0
1040
0.0
1040
0.0
1040
1.0
1040
1.0
1040
0.0
1040
0.0
1070
     0
1002
{
1003
AREA1
1003
AREA2
1002
}
1002
}
  0
TEXT
  5
42D
100
AcDbEntity
 67
     1
  8
0
100
AcDbText
 10
5.253785
 20
7.092701
 30
0.0
 40
0.2
  1
1771-NB4S
100
AcDbText
  0
TEXT
  5
431
100
AcDbEntity
 67
     1
  8
0
100
AcDbText
 10
5.253785
 20
6.759368
 30
0.0
 40
0.2
  1
1771-NB4S:HIGH RESOLUTION
100
AcDbText
1001
ACAD
1000
R13OBJECT
1002
{
1005
42D
1002
}
  0
TEXT
  5
52E
100
AcDbEntity
 67
     1
  8
0
100
AcDbText
 10
5.240015
 20
6.436423
 30
0.0
 40
0.2
  1
ISOLATED ANALOG MDL,
100
AcDbText
  0
TEXT
  5
52F
100
AcDbEntity
 67
     1
  8
0
100
AcDbText
 10
5.240015
 20
6.10309
 30
0.0
 40
0.2
  1
SOURCING 4-20MA IN (2)
100
AcDbText
  0
TEXT
  5
530
100
AcDbEntity
 67
     1
  8
0
100
AcDbText
 10
5.240015
 20
5.769757
 30
0.0
 40
0.2
  1
4-20MA OUT
100
AcDbText
  0
ENDSEC
  0
SECTION
  2
OBJECTS
  0
DICTIONARY
  5
46D
100
AcDbDictionary
  3
ACAD_GROUP
350
46E
  3
ACAD_LAYOUT
350
49E
  3
ACAD_MLINESTYLE
350
47B
  3
ACAD_PLOTSETTINGS
350
49F
  3
ACAD_PLOTSTYLENAME
350
49C
  3
ACDBHEADERROUNDTRIPXREC
350
8E0
  3
ACDBVARIABLEDICTIONARY
350
48D
  0
DICTIONARY
  5
8DE
100
AcDbDictionary
280
     1
  3
ACAD_XREC_ROUNDTRIP
360
8DF
  0
DICTIONARY
  5
90B
100
AcDbDictionary
280
     1
  3
ACAD_XREC_ROUNDTRIP
360
90C
  0
DICTIONARY
  5
90D
100
AcDbDictionary
280
     1
  3
ACAD_XREC_ROUNDTRIP
360
90E
  0
DICTIONARY
  5
90F
100
AcDbDictionary
280
     1
  3
ACAD_XREC_ROUNDTRIP
360
910
  0
DICTIONARY
  5
913
100
AcDbDictionary
280
     1
  3
ACAD_XREC_ROUNDTRIP
360
914
  0
DICTIONARY
  5
4D2
100
AcDbDictionary
280
     1
  3
ACAD_LAYOUTSELFREF
360
90A
  0
DICTIONARY
  5
4D0
100
AcDbDictionary
280
     1
  3
ACAD_LAYOUTSELFREF
360
909
  0
DICTIONARY
  5
8DC
100
AcDbDictionary
280
     1
  3
ACAD_XREC_ROUNDTRIP
360
8DD
  0
DICTIONARY
  5
901
100
AcDbDictionary
280
     1
  3
ACAD_XREC_ROUNDTRIP
360
902
  0
DICTIONARY
  5
903
100
AcDbDictionary
280
     1
  3
ACAD_XREC_ROUNDTRIP
360
904
  0
DICTIONARY
  5
905
100
AcDbDictionary
280
     1
  3
ACAD_XREC_ROUNDTRIP
360
906
  0
DICTIONARY
  5
907
100
AcDbDictionary
280
     1
  3
ACAD_XREC_ROUNDTRIP
360
908
  0
DICTIONARY
  5
46E
102
{ACAD_REACTORS
330
46D
102
}
100
AcDbDictionary
  0
DICTIONARY
  5
49E
102
{ACAD_XDICTIONARY
360
911
102
}
102
{ACAD_REACTORS
330
46D
102
}
100
AcDbDictionary
  3
LAYOUT1
350
4A1
  3
MODEL
350
4A0
  0
DICTIONARY
  5
47B
102
{ACAD_REACTORS
330
46D
102
}
100
AcDbDictionary
  3
STANDARD
350
47C
  0
DICTIONARY
  5
49F
102
{ACAD_REACTORS
330
46D
102
}
100
AcDbDictionary
  0
ACAD_PROXY_OBJECT
  5
49C
102
{ACAD_REACTORS
330
46D
102
}
100
AcDbProxyObject
 90
      499
 91
      501
 93
       86
310
405010041939BDC9B585B0
350
49D
340
49D
 94
        0
  0
DICTIONARY
  5
8E0
102
{ACAD_REACTORS
330
46D
102
}
100
AcDbDictionary
  3
CEPSNTYPE
350
8EA
  3
DIMSTYLEDATA
350
8EE
  3
FINGERPRINTGUID
350
8EB
  3
HYPERLINKBASE
350
8E3
  3
INSUNITS
350
8E9
  3
LAYOUTDICT
350
8E5
  3
LWETCUNION
350
8E8
  3
PLOTSETDICT
350
8E6
  3
PLOTSTYLNAMDICT
350
8E7
  3
PSVPSCALE
350
8ED
  3
PUCSBASE
350
8F1
  3
PUCSORGBACK
350
8F7
  3
PUCSORGBOTTOM
350
8F3
  3
PUCSORGFRONT
350
8F6
  3
PUCSORGLEFT
350
8F4
  3
PUCSORGRIGHT
350
8F5
  3
PUCSORGTOP
350
8F2
  3
PUCSORTHOREF
350
8EF
  3
PUCSORTHOVIEW
350
8F0
  3
STYLESHEET
350
8E4
  3
TSTACKALIGN
350
8E1
  3
TSTACKSIZE
350
8E2
  3
UCSBASE
350
8FA
  3
UCSORGBACK
350
900
  3
UCSORGBOTTOM
350
8FC
  3
UCSORGFRONT
350
8FF
  3
UCSORGLEFT
350
8FD
  3
UCSORGRIGHT
350
8FE
  3
UCSORGTOP
350
8FB
  3
UCSORTHOREF
350
8F8
  3
UCSORTHOVIEW
350
8F9
  3
VERSIONGUID
350
8EC
  0
DICTIONARY
  5
48D
102
{ACAD_REACTORS
330
46D
102
}
100
AcDbDictionary
  3
DIMADEC
350
48E
  0
XRECORD
  5
8DF
102
{ACAD_REACTORS
330
8DE
102
}
100
AcDbXrecord
102
EXTNAMES
  1
*ACTIVE
  2
*Active
102
UCS
 74
     0
 71
     1
 10
0.0
 20
0.0
 30
0.0
 10
1.0
 20
0.0
 30
0.0
 10
0.0
 20
1.0
 30
0.0
146
0.0
 79
     1
102
VIEW
281
     0
  0
XRECORD
  5
90C
102
{ACAD_REACTORS
330
90B
102
}
100
AcDbXrecord
102
PLOTBIT
280
     0
  0
XRECORD
  5
90E
102
{ACAD_REACTORS
330
90D
102
}
100
AcDbXrecord
102
ACADR14ROUNDTRIP
1000
DSTYLE
1002
{
1070
   276
 70
     2
1070
   277
 70
     5
1070
   279
 70
     2
1002
}
  0
XRECORD
  5
910
102
{ACAD_REACTORS
330
90F
102
}
100
AcDbXrecord
102
ACADR14ROUNDTRIP
1000
DSTYLE
1002
{
1070
   276
 70
     2
1070
   277
 70
     5
1070
   279
 70
     2
1002
}
  0
XRECORD
  5
914
102
{ACAD_REACTORS
330
913
102
}
100
AcDbXrecord
102
ACADR14ROUNDTRIP
1000
DSTYLE
1002
{
1070
   276
 70
     2
1070
   277
 70
     5
1002
}
  0
XRECORD
  5
90A
102
{ACAD_REACTORS
330
4D2
102
}
100
AcDbXrecord
340
478
  0
XRECORD
  5
909
102
{ACAD_REACTORS
330
4D0
102
}
100
AcDbXrecord
340
475
  0
XRECORD
  5
8DD
102
{ACAD_REACTORS
330
8DC
102
}
100
AcDbXrecord
102
EXTNAMES
  1
ABIOE620
  2
Abioe620
  0
XRECORD
  5
902
102
{ACAD_REACTORS
330
901
102
}
100
AcDbXrecord
102
UCS
 74
     0
 71
     1
 10
0.0
 20
0.0
 30
0.0
 10
1.0
 20
0.0
 30
0.0
 10
0.0
 20
1.0
 30
0.0
146
0.0
 79
     0
102
VIEW
281
     0
102
NEWVIEWCONTROL
280
     4
  0
XRECORD
  5
904
102
{ACAD_REACTORS
330
903
102
}
100
AcDbXrecord
102
UCS
 74
     0
 71
     1
 10
0.0
 20
0.0
 30
0.0
 10
1.0
 20
0.0
 30
0.0
 10
0.0
 20
1.0
 30
0.0
146
0.0
 79
     1
102
VIEW
281
     0
102
NEWVIEWCONTROL
280
     4
  0
XRECORD
  5
906
102
{ACAD_REACTORS
330
905
102
}
100
AcDbXrecord
102
UCS
 74
     0
 71
     1
 10
0.0
 20
0.0
 30
0.0
 10
1.0
 20
0.0
 30
0.0
 10
0.0
 20
0.0
 30
1.0
146
0.0
 79
     3
102
VIEW
281
     0
102
NEWVIEWCONTROL
280
     4
  0
XRECORD
  5
908
102
{ACAD_REACTORS
330
907
102
}
100
AcDbXrecord
102
UCS
 74
     0
 71
     1
 10
0.0
 20
0.0
 30
0.0
 10
1.0
 20
0.0
 30
0.0
 10
0.0
 20
1.0
 30
0.0
146
0.0
 79
     0
102
VIEW
281
     0
102
NEWVIEWCONTROL
280
     4
  0
DICTIONARY
  5
911
100
AcDbDictionary
280
     1
  3
ACAD_XREC_ROUNDTRIP
360
912
  0
ACAD_PROXY_OBJECT
  5
4A1
102
{ACAD_REACTORS
330
49E
102
}
100
AcDbProxyObject
 90
      499
 91
      503
 93
     2044
310
91D4850204C617365724A65742035303030205365726965732050434C20362C008000000C0BB1B1440000000102F06C510000000000BC1B1440000000002E06C5100000000C0CCFC6A4000000018199D9C501064C6574746572A901406AA427D84144352EEE3F47D11959985D5B1D08148C4D081C195B88185CDCDA59DB9B5
310
95B9D1CCB98DD18A30EDE3B1BBFDBC0FC1D572C8D6D0C833F1A2B3054E9249F0FD074C61796F75743140501A97D7DB4AA43C31EFF91E46EBA53B71EFD1B32A15809809100B2537F8EAD447D02A6A6A00200C0093BD106FC0000F06EE366FABE0000032E846F6A2F44424FF2920002440160B7F435600079000000D00CEECC5
310
43D0
330
475
330
2C
340
0
340
0
 94
        0
  0
ACAD_PROXY_OBJECT
  5
4A0
102
{ACAD_REACTORS
330
49E
102
}
100
AcDbProxyObject
 90
      499
 91
      503
 93
      924
310
91D4850204C617365724A65742035303030205365726965732050434C20362C01AAAAAAAAA547D11959985D5B1D08148C4D081C195B88185CDCDA59DB9B595B9D1CCB98DD18A69054D6F64656C901A800000000000000000000000000000000000000000000A1000000000000008902A6A6AAAA0
330
478
330
0
340
0
340
0
 94
        0
  0
MLINESTYLE
  5
47C
102
{ACAD_REACTORS
330
47B
102
}
100
AcDbMlineStyle
  2
STANDARD
 70
     0
  3

 62
   256
 51
90.0
 52
90.0
 71
     2
 49
0.5
 62
   256
  6
BYLAYER
 49
-0.5
 62
   256
  6
BYLAYER
  0
ACAD_PROXY_OBJECT
  5
49D
102
{ACAD_REACTORS
330
49C
102
}
100
AcDbProxyObject
 90
      499
 91
      502
 93
        0
 94
        0
  0
XRECORD
  5
8EA
102
{ACAD_REACTORS
330
8E0
102
}
100
AcDbXrecord
 90
        0
  0
XRECORD
  5
8EE
102
{ACAD_REACTORS
330
8E0
102
}
100
AcDbXrecord
1000
DSTYLE
1002
{
1070
   276
 70
     2
1070
   277
 70
     5
1070
   279
 70
     2
1002
}
  0
XRECORD
  5
8EB
102
{ACAD_REACTORS
330
8E0
102
}
100
AcDbXrecord
  1
{6E0CF4B5-225E-11D4-A150-00A0CC3303EC}
  0
XRECORD
  5
8E3
102
{ACAD_REACTORS
330
8E0
102
}
100
AcDbXrecord
  1

  0
XRECORD
  5
8E9
102
{ACAD_REACTORS
330
8E0
102
}
100
AcDbXrecord
 90
        0
  0
XRECORD
  5
8E5
102
{ACAD_REACTORS
330
8E0
102
}
100
AcDbXrecord
340
49E
  0
XRECORD
  5
8E8
102
{ACAD_REACTORS
330
8E0
102
}
100
AcDbXrecord
 90
    14877
  0
XRECORD
  5
8E6
102
{ACAD_REACTORS
330
8E0
102
}
100
AcDbXrecord
340
49F
  0
XRECORD
  5
8E7
102
{ACAD_REACTORS
330
8E0
102
}
100
AcDbXrecord
340
49C
  0
XRECORD
  5
8ED
102
{ACAD_REACTORS
330
8E0
102
}
100
AcDbXrecord
 40
0.0
  0
XRECORD
  5
8F1
102
{ACAD_REACTORS
330
8E0
102
}
100
AcDbXrecord
340
0
  0
XRECORD
  5
8F7
102
{ACAD_REACTORS
330
8E0
102
}
100
AcDbXrecord
 10
0.0
 20
0.0
 30
0.0
  0
XRECORD
  5
8F3
102
{ACAD_REACTORS
330
8E0
102
}
100
AcDbXrecord
 10
0.0
 20
0.0
 30
0.0
  0
XRECORD
  5
8F6
102
{ACAD_REACTORS
330
8E0
102
}
100
AcDbXrecord
 10
0.0
 20
0.0
 30
0.0
  0
XRECORD
  5
8F4
102
{ACAD_REACTORS
330
8E0
102
}
100
AcDbXrecord
 10
0.0
 20
0.0
 30
0.0
  0
XRECORD
  5
8F5
102
{ACAD_REACTORS
330
8E0
102
}
100
AcDbXrecord
 10
0.0
 20
0.0
 30
0.0
  0
XRECORD
  5
8F2
102
{ACAD_REACTORS
330
8E0
102
}
100
AcDbXrecord
 10
0.0
 20
0.0
 30
0.0
  0
XRECORD
  5
8EF
102
{ACAD_REACTORS
330
8E0
102
}
100
AcDbXrecord
340
0
  0
XRECORD
  5
8F0
102
{ACAD_REACTORS
330
8E0
102
}
100
AcDbXrecord
 70
     0
  0
XRECORD
  5
8E4
102
{ACAD_REACTORS
330
8E0
102
}
100
AcDbXrecord
  1

  0
XRECORD
  5
8E1
102
{ACAD_REACTORS
330
8E0
102
}
100
AcDbXrecord
 90
        1
  0
XRECORD
  5
8E2
102
{ACAD_REACTORS
330
8E0
102
}
100
AcDbXrecord
 90
       70
  0
XRECORD
  5
8FA
102
{ACAD_REACTORS
330
8E0
102
}
100
AcDbXrecord
340
0
  0
XRECORD
  5
900
102
{ACAD_REACTORS
330
8E0
102
}
100
AcDbXrecord
 10
0.0
 20
0.0
 30
0.0
  0
XRECORD
  5
8FC
102
{ACAD_REACTORS
330
8E0
102
}
100
AcDbXrecord
 10
0.0
 20
0.0
 30
0.0
  0
XRECORD
  5
8FF
102
{ACAD_REACTORS
330
8E0
102
}
100
AcDbXrecord
 10
0.0
 20
0.0
 30
0.0
  0
XRECORD
  5
8FD
102
{ACAD_REACTORS
330
8E0
102
}
100
AcDbXrecord
 10
0.0
 20
0.0
 30
0.0
  0
XRECORD
  5
8FE
102
{ACAD_REACTORS
330
8E0
102
}
100
AcDbXrecord
 10
0.0
 20
0.0
 30
0.0
  0
XRECORD
  5
8FB
102
{ACAD_REACTORS
330
8E0
102
}
100
AcDbXrecord
 10
0.0
 20
0.0
 30
0.0
  0
XRECORD
  5
8F8
102
{ACAD_REACTORS
330
8E0
102
}
100
AcDbXrecord
340
0
  0
XRECORD
  5
8F9
102
{ACAD_REACTORS
330
8E0
102
}
100
AcDbXrecord
 70
     3
  0
XRECORD
  5
8EC
102
{ACAD_REACTORS
330
8E0
102
}
100
AcDbXrecord
  1
{F4441CE8-87F7-4562-AF28-6A7ABE20D8BD}
  0
DICTIONARYVAR
  5
48E
102
{ACAD_REACTORS
330
48D
102
}
100
DictionaryVariables
280
     0
  1
0
  0
XRECORD
  5
912
102
{ACAD_REACTORS
330
911
102
}
100
AcDbXrecord
102
EXTNAMES
  1
LAYOUT1
  2
Layout1
  1
MODEL
  2
Model
  0
ENDSEC
  0
EOF
