  0
SECTION
  2
HEADER
  9
$ACADVER
  1
AC1014
  9
$ACADMAINTVER
 70
     8
  9
$DWGCODEPAGE
  3
ANSI_1252
  9
$INSBASE
 10
0.0
 20
0.0
 30
0.0
  9
$EXTMIN
 10
-2.011509
 20
-1.900245
 30
0.0
  9
$EXTMAX
 10
2.7575
 20
11.135113
 30
5.880973
  9
$LIMMIN
 10
0.0
 20
0.0
  9
$LIMMAX
 10
12.0
 20
9.0
  9
$ORTHOMODE
 70
     0
  9
$REGENMODE
 70
     1
  9
$FILLMODE
 70
     1
  9
$QTEXTMODE
 70
     0
  9
$MIRRTEXT
 70
     1
  9
$DRAGMODE
 70
     2
  9
$LTSCALE
 40
1.0
  9
$OSMODE
 70
    37
  9
$ATTMODE
 70
     0
  9
$TEXTSIZE
 40
0.2
  9
$TRACEWID
 40
0.05
  9
$TEXTSTYLE
  7
STANDARD
  9
$CLAYER
  8
0
  9
$CELTYPE
  6
BYLAYER
  9
$CECOLOR
 62
   256
  9
$CELTSCALE
 40
1.0
  9
$DELOBJ
 70
     1
  9
$DISPSILH
 70
     0
  9
$DIMSCALE
 40
0.0
  9
$DIMASZ
 40
0.179688
  9
$DIMEXO
 40
0.0625
  9
$DIMDLI
 40
0.375
  9
$DIMRND
 40
0.0
  9
$DIMDLE
 40
0.0
  9
$DIMEXE
 40
0.179688
  9
$DIMTP
 40
0.0
  9
$DIMTM
 40
0.0
  9
$DIMTXT
 40
0.125
  9
$DIMCEN
 40
0.089844
  9
$DIMTSZ
 40
0.0
  9
$DIMTOL
 70
     0
  9
$DIMLIM
 70
     0
  9
$DIMTIH
 70
     0
  9
$DIMTOH
 70
     0
  9
$DIMSE1
 70
     0
  9
$DIMSE2
 70
     0
  9
$DIMTAD
 70
     0
  9
$DIMZIN
 70
     4
  9
$DIMBLK
  1

  9
$DIMASO
 70
     1
  9
$DIMSHO
 70
     1
  9
$DIMPOST
  1

  9
$DIMAPOST
  1

  9
$DIMALT
 70
     1
  9
$DIMALTD
 70
     1
  9
$DIMALTF
 40
25.4
  9
$DIMLFAC
 40
1.0
  9
$DIMTOFL
 70
     0
  9
$DIMTVP
 40
0.0
  9
$DIMTIX
 70
     1
  9
$DIMSOXD
 70
     0
  9
$DIMSAH
 70
     0
  9
$DIMBLK1
  1

  9
$DIMBLK2
  1

  9
$DIMSTYLE
  2
ABECAD_3V
  9
$DIMCLRD
 70
     0
  9
$DIMCLRE
 70
     0
  9
$DIMCLRT
 70
     0
  9
$DIMTFAC
 40
1.5
  9
$DIMGAP
 40
0.09375
  9
$DIMJUST
 70
     0
  9
$DIMSD1
 70
     0
  9
$DIMSD2
 70
     0
  9
$DIMTOLJ
 70
     1
  9
$DIMTZIN
 70
     4
  9
$DIMALTZ
 70
     4
  9
$DIMALTTZ
 70
     4
  9
$DIMFIT
 70
     5
  9
$DIMUPT
 70
     0
  9
$DIMUNIT
 70
     7
  9
$DIMDEC
 70
     6
  9
$DIMTDEC
 70
     6
  9
$DIMALTU
 70
     2
  9
$DIMALTTD
 70
     1
  9
$DIMTXSTY
  7
STANDARD
  9
$DIMAUNIT
 70
     0
  9
$LUNITS
 70
     5
  9
$LUPREC
 70
     6
  9
$SKETCHINC
 40
0.1
  9
$FILLETRAD
 40
0.0
  9
$AUNITS
 70
     0
  9
$AUPREC
 70
     0
  9
$MENU
  1
acad
  9
$ELEVATION
 40
0.0
  9
$PELEVATION
 40
0.0
  9
$THICKNESS
 40
0.0
  9
$LIMCHECK
 70
     0
  9
$BLIPMODE
 70
     0
  9
$CHAMFERA
 40
0.0
  9
$CHAMFERB
 40
0.0
  9
$CHAMFERC
 40
0.0
  9
$CHAMFERD
 40
0.0
  9
$SKPOLY
 70
     0
  9
$TDCREATE
 40
2451670.441490278
  9
$TDUPDATE
 40
2452010.727203356
  9
$TDINDWG
 40
0.0071653935
  9
$TDUSRTIMER
 40
0.0071653935
  9
$USRTIMER
 70
     1
  9
$ANGBASE
 50
0.0
  9
$ANGDIR
 70
     0
  9
$PDMODE
 70
     2
  9
$PDSIZE
 40
0.0
  9
$PLINEWID
 40
0.0
  9
$COORDS
 70
     1
  9
$SPLFRAME
 70
     0
  9
$SPLINETYPE
 70
     6
  9
$SPLINESEGS
 70
     8
  9
$ATTDIA
 70
     0
  9
$ATTREQ
 70
     1
  9
$HANDLING
 70
     1
  9
$HANDSEED
  5
7C6
  9
$SURFTAB1
 70
     6
  9
$SURFTAB2
 70
     6
  9
$SURFTYPE
 70
     6
  9
$SURFU
 70
     6
  9
$SURFV
 70
     6
  9
$UCSNAME
  2

  9
$UCSORG
 10
0.0
 20
0.0
 30
0.0
  9
$UCSXDIR
 10
1.0
 20
0.0
 30
0.0
  9
$UCSYDIR
 10
0.0
 20
1.0
 30
0.0
  9
$PUCSNAME
  2

  9
$PUCSORG
 10
0.0
 20
0.0
 30
0.0
  9
$PUCSXDIR
 10
1.0
 20
0.0
 30
0.0
  9
$PUCSYDIR
 10
0.0
 20
1.0
 30
0.0
  9
$USERI1
 70
     0
  9
$USERI2
 70
     0
  9
$USERI3
 70
     0
  9
$USERI4
 70
     0
  9
$USERI5
 70
     0
  9
$USERR1
 40
0.0
  9
$USERR2
 40
0.0
  9
$USERR3
 40
0.0
  9
$USERR4
 40
0.0
  9
$USERR5
 40
0.0
  9
$WORLDVIEW
 70
     1
  9
$SHADEDGE
 70
     3
  9
$SHADEDIF
 70
    70
  9
$TILEMODE
 70
     0
  9
$MAXACTVP
 70
    16
  9
$PINSBASE
 10
0.0
 20
0.0
 30
0.0
  9
$PLIMCHECK
 70
     0
  9
$PEXTMIN
 10
0.0
 20
0.0
 30
0.0
  9
$PEXTMAX
 10
10.0
 20
7.5
 30
0.0
  9
$PLIMMIN
 10
-0.187029
 20
-0.186938
  9
$PLIMMAX
 10
10.187518
 20
7.829757
  9
$UNITMODE
 70
     0
  9
$VISRETAIN
 70
     0
  9
$PLINEGEN
 70
     0
  9
$PSLTSCALE
 70
     1
  9
$TREEDEPTH
 70
  3020
  9
$PICKSTYLE
 70
     1
  9
$CMLSTYLE
  2
STANDARD
  9
$CMLJUST
 70
     0
  9
$CMLSCALE
 40
1.0
  9
$PROXYGRAPHICS
 70
     1
  9
$MEASUREMENT
 70
     0
  0
ENDSEC
  0
SECTION
  2
CLASSES
  0
CLASS
  1
DICTIONARYVAR
  2
AcDbDictionaryVar
  3
"AutoCAD"
 90
        0
280
     0
281
     0
  0
CLASS
  1
ACDBDICTIONARYWDFLT
  2
AcDbDictionaryWithDefault
  3
AutoCAD 2000
 90
        0
280
     0
281
     0
  0
CLASS
  1
ACDBPLACEHOLDER
  2
AcDbPlaceHolder
  3
AutoCAD 2000
 90
        0
280
     0
281
     0
  0
CLASS
  1
LAYOUT
  2
AcDbLayout
  3
AutoCAD 2000
 90
        0
280
     0
281
     0
  0
CLASS
  1
LONG_TRANSACTION
  2
AcDbLongTransaction
  3
AutoCAD 2000
 90
        0
280
     0
281
     0
  0
CLASS
  1
LWPOLYLINE
  2
AcDbPolyline
  3
"AutoCAD"
 90
        0
280
     0
281
     1
  0
CLASS
  1
HATCH
  2
AcDbHatch
  3
"ACAD_SEDONA"
 90
        0
280
     0
281
     1
  0
CLASS
  1
XRECORD
  2
AcDbXrecord
  3
"<Built In>"
 90
        0
280
     0
281
     0
  0
CLASS
  1
LONG_TRANSACTION
  2
AcDbLongTransaction
  3
AutoCAD 2000
 90
        0
280
     0
281
     0
  0
CLASS
  1
LWPOLYLINE
  2
AcDbPolyline
  3
"AutoCAD"
 90
        0
280
     0
281
     1
  0
CLASS
  1
HATCH
  2
AcDbHatch
  3
"ACAD_SEDONA"
 90
        0
280
     0
281
     1
  0
CLASS
  1
XRECORD
  2
AcDbXrecord
  3
"<Built In>"
 90
        0
280
     0
281
     0
  0
CLASS
  1
LONG_TRANSACTION
  2
AcDbLongTransaction
  3
AutoCAD 2000
 90
        0
280
     0
281
     0
  0
CLASS
  1
LWPOLYLINE
  2
AcDbPolyline
  3
"AutoCAD"
 90
        0
280
     0
281
     1
  0
CLASS
  1
HATCH
  2
AcDbHatch
  3
"ACAD_SEDONA"
 90
        0
280
     0
281
     1
  0
CLASS
  1
XRECORD
  2
AcDbXrecord
  3
"<Built In>"
 90
        0
280
     0
281
     0
  0
CLASS
  1
LONG_TRANSACTION
  2
AcDbLongTransaction
  3
AutoCAD 2000
 90
        0
280
     0
281
     0
  0
CLASS
  1
LWPOLYLINE
  2
AcDbPolyline
  3
"AutoCAD"
 90
        0
280
     0
281
     1
  0
CLASS
  1
HATCH
  2
AcDbHatch
  3
"ACAD_SEDONA"
 90
        0
280
     0
281
     1
  0
CLASS
  1
XRECORD
  2
AcDbXrecord
  3
"<Built In>"
 90
        0
280
     0
281
     0
  0
CLASS
  1
LONG_TRANSACTION
  2
AcDbLongTransaction
  3
AutoCAD 2000
 90
        0
280
     0
281
     0
  0
CLASS
  1
LWPOLYLINE
  2
AcDbPolyline
  3
"AutoCAD"
 90
        0
280
     0
281
     1
  0
CLASS
  1
HATCH
  2
AcDbHatch
  3
"ACAD_SEDONA"
 90
        0
280
     0
281
     1
  0
CLASS
  1
XRECORD
  2
AcDbXrecord
  3
"<Built In>"
 90
        0
280
     0
281
     0
  0
CLASS
  1
LONG_TRANSACTION
  2
AcDbLongTransaction
  3
AutoCAD 2000
 90
        0
280
     0
281
     0
  0
CLASS
  1
LWPOLYLINE
  2
AcDbPolyline
  3
"AutoCAD"
 90
        0
280
     0
281
     1
  0
CLASS
  1
HATCH
  2
AcDbHatch
  3
"ACAD_SEDONA"
 90
        0
280
     0
281
     1
  0
CLASS
  1
XRECORD
  2
AcDbXrecord
  3
"<Built In>"
 90
        0
280
     0
281
     0
  0
ENDSEC
  0
SECTION
  2
TABLES
  0
TABLE
  2
VPORT
  5
469
100
AcDbSymbolTable
 70
     1
  0
VPORT
  5
6D5
102
{ACAD_XDICTIONARY
360
78C
102
}
100
AcDbSymbolTableRecord
100
AcDbViewportTableRecord
  2
*ACTIVE
 70
     0
 10
0.0
 20
0.0
 11
1.0
 21
1.0
 12
0.372995
 22
4.617434
 13
0.0
 23
0.0
 14
1.0
 24
1.0
 15
0.0
 25
0.0
 16
0.0
 26
0.0
 36
1.0
 17
0.0
 27
0.0
 37
0.0
 40
13.307874
 41
2.531469
 42
50.0
 43
0.0
 44
0.0
 50
0.0
 51
0.0
 71
     0
 72
   100
 73
     1
 74
     1
 75
     0
 76
     0
 77
     0
 78
     0
  0
ENDTAB
  0
TABLE
  2
LTYPE
  5
466
100
AcDbSymbolTable
 70
     1
  0
LTYPE
  5
472
100
AcDbSymbolTableRecord
100
AcDbLinetypeTableRecord
  2
BYBLOCK
 70
     0
  3

 72
    65
 73
     0
 40
0.0
  0
LTYPE
  5
473
100
AcDbSymbolTableRecord
100
AcDbLinetypeTableRecord
  2
BYLAYER
 70
     0
  3

 72
    65
 73
     0
 40
0.0
  0
LTYPE
  5
474
100
AcDbSymbolTableRecord
100
AcDbLinetypeTableRecord
  2
CONTINUOUS
 70
     0
  3
Solid line
 72
    65
 73
     0
 40
0.0
  0
ENDTAB
  0
TABLE
  2
LAYER
  5
463
100
AcDbSymbolTable
 70
     8
  0
LAYER
  5
46F
100
AcDbSymbolTableRecord
100
AcDbLayerTableRecord
  2
0
 70
     0
 62
     7
  6
CONTINUOUS
  0
LAYER
  5
485
100
AcDbSymbolTableRecord
100
AcDbLayerTableRecord
  2
AREA1
 70
     0
 62
     7
  6
CONTINUOUS
  0
LAYER
  5
486
100
AcDbSymbolTableRecord
100
AcDbLayerTableRecord
  2
AREA2
 70
     0
 62
     7
  6
CONTINUOUS
  0
LAYER
  5
494
102
{ACAD_XDICTIONARY
360
7B9
102
}
100
AcDbSymbolTableRecord
100
AcDbLayerTableRecord
  2
DEFPOINTS
 70
     0
 62
    -7
  6
CONTINUOUS
  0
LAYER
  5
495
100
AcDbSymbolTableRecord
100
AcDbLayerTableRecord
  2
DIMS-MTG-HOLES
 70
     0
 62
    -1
  6
CONTINUOUS
  0
LAYER
  5
4E9
100
AcDbSymbolTableRecord
100
AcDbLayerTableRecord
  2
SCALE
 70
     0
 62
    -7
  6
CONTINUOUS
  0
LAYER
  5
4EA
100
AcDbSymbolTableRecord
100
AcDbLayerTableRecord
  2
SNAP_POINTS
 70
     0
 62
    -1
  6
CONTINUOUS
  0
LAYER
  5
55F
100
AcDbSymbolTableRecord
100
AcDbLayerTableRecord
  2
ATTRIBUTES
 70
     0
 62
    -7
  6
CONTINUOUS
  0
ENDTAB
  0
TABLE
  2
STYLE
  5
464
100
AcDbSymbolTable
 70
     1
  0
STYLE
  5
470
100
AcDbSymbolTableRecord
100
AcDbTextStyleTableRecord
  2
STANDARD
 70
     0
 40
0.0
 41
1.0
 50
0.0
 71
     0
 42
0.2
  3
txt
  4

  0
ENDTAB
  0
TABLE
  2
VIEW
  5
467
100
AcDbSymbolTable
 70
     0
  0
ENDTAB
  0
TABLE
  2
UCS
  5
468
100
AcDbSymbolTable
 70
     0
  0
ENDTAB
  0
TABLE
  2
APPID
  5
46A
100
AcDbSymbolTable
 70
     2
  0
APPID
  5
471
100
AcDbSymbolTableRecord
100
AcDbRegAppTableRecord
  2
ACAD
 70
     0
  0
APPID
  5
47E
100
AcDbSymbolTableRecord
100
AcDbRegAppTableRecord
  2
AVE_RENDER
 70
     0
  0
ENDTAB
  0
TABLE
  2
DIMSTYLE
  5
46B
100
AcDbSymbolTable
 70
     3
  0
DIMSTYLE
105
496
102
{ACAD_XDICTIONARY
360
7BB
102
}
100
AcDbSymbolTableRecord
100
AcDbDimStyleTableRecord
  2
ABECAD
 70
     0
  3

  4

  5

  6

  7

 40
0.0
 41
0.179688
 42
0.0625
 43
0.375
 44
0.179688
 45
0.0
 46
0.0
 47
0.0
 48
0.0
140
0.125
141
0.089844
142
0.0
143
25.4
144
1.0
145
0.0
146
1.5
147
0.09375
 71
     0
 72
     0
 73
     0
 74
     0
 75
     0
 76
     0
 77
     0
 78
     4
170
     1
171
     1
172
     0
173
     0
174
     1
175
     0
176
     0
177
     0
178
     0
270
     7
271
     6
272
     6
273
     2
274
     1
340
470
275
     0
280
     0
281
     0
282
     0
283
     1
284
     4
285
     4
286
     4
287
     5
288
     0
  0
DIMSTYLE
105
49A
102
{ACAD_XDICTIONARY
360
7BD
102
}
102
{ACAD_REACTORS
330
6C7
102
}
100
AcDbSymbolTableRecord
100
AcDbDimStyleTableRecord
  2
ABECAD_3V
 70
     0
  3

  4

  5

  6

  7

 40
0.0
 41
0.179688
 42
0.0625
 43
0.375
 44
0.179688
 45
0.0
 46
0.0
 47
0.0
 48
0.0
140
0.125
141
0.089844
142
0.0
143
25.4
144
1.0
145
0.0
146
1.5
147
0.09375
 71
     0
 72
     0
 73
     0
 74
     0
 75
     0
 76
     0
 77
     0
 78
     4
170
     1
171
     1
172
     0
173
     0
174
     1
175
     0
176
     0
177
     0
178
     0
270
     7
271
     6
272
     6
273
     2
274
     1
340
470
275
     0
280
     0
281
     0
282
     0
283
     1
284
     4
285
     4
286
     4
287
     5
288
     0
  0
DIMSTYLE
105
560
102
{ACAD_XDICTIONARY
360
7C1
102
}
102
{ACAD_REACTORS
330
6AD
330
6AE
102
}
100
AcDbSymbolTableRecord
100
AcDbDimStyleTableRecord
  2
ABECAD_3D
 70
     0
  3

  4

  5

  6

  7

 40
1.0
 41
0.18
 42
0.0625
 43
0.375
 44
0.18
 45
0.0
 46
0.0
 47
0.0
 48
0.0
140
0.18
141
0.09
142
0.0
143
25.4
144
1.0
145
0.0
146
1.5
147
0.09
 71
     0
 72
     0
 73
     0
 74
     1
 75
     0
 76
     0
 77
     0
 78
     4
170
     1
171
     1
172
     0
173
     0
174
     0
175
     0
176
     0
177
     0
178
     0
270
     7
271
     6
272
     6
273
     2
274
     1
340
470
275
     0
280
     0
281
     0
282
     0
283
     1
284
     4
285
     4
286
     4
287
     3
288
     0
  0
ENDTAB
  0
TABLE
  2
BLOCK_RECORD
  5
462
100
AcDbSymbolTable
 70
     4
  0
BLOCK_RECORD
  5
478
102
{ACAD_XDICTIONARY
360
4D2
102
}
100
AcDbSymbolTableRecord
100
AcDbBlockTableRecord
  2
*MODEL_SPACE
  0
BLOCK_RECORD
  5
475
102
{ACAD_XDICTIONARY
360
4D0
102
}
100
AcDbSymbolTableRecord
100
AcDbBlockTableRecord
  2
*PAPER_SPACE
  0
BLOCK_RECORD
  5
545
100
AcDbSymbolTableRecord
100
AcDbBlockTableRecord
  2
*D0
  0
BLOCK_RECORD
  5
552
100
AcDbSymbolTableRecord
100
AcDbBlockTableRecord
  2
*D1
  0
BLOCK_RECORD
  5
561
102
{ACAD_XDICTIONARY
360
78A
102
}
100
AcDbSymbolTableRecord
100
AcDbBlockTableRecord
  2
ABIOE580
  0
BLOCK_RECORD
  5
6C8
100
AcDbSymbolTableRecord
100
AcDbBlockTableRecord
  2
*D3
  0
ENDTAB
  0
ENDSEC
  0
SECTION
  2
BLOCKS
  0
BLOCK
  5
48B
100
AcDbEntity
  8
0
100
AcDbBlockBegin
  2
*MODEL_SPACE
 70
     0
 10
0.0
 20
0.0
 30
0.0
  3
*MODEL_SPACE
  1

  0
ENDBLK
  5
48C
100
AcDbEntity
  8
0
100
AcDbBlockEnd
  0
BLOCK
  5
489
100
AcDbEntity
 67
     1
  8
0
100
AcDbBlockBegin
  2
*PAPER_SPACE
 70
     0
 10
0.0
 20
0.0
 30
0.0
  3
*PAPER_SPACE
  1

  0
ENDBLK
  5
48A
100
AcDbEntity
 67
     1
  8
0
100
AcDbBlockEnd
  0
BLOCK
  5
550
100
AcDbEntity
  8
0
100
AcDbBlockBegin
  2
*D0
 70
     1
 10
0.0
 20
0.0
 30
0.0
  3
*D0
  1

  0
LINE
  5
546
100
AcDbEntity
  8
AREA1
 62
     0
100
AcDbLine
 10
-0.163868
 20
-0.562545
 30
0.0
 11
1.449431
 21
-0.562545
 31
0.0
1001
ACAD
1000
RTLwPs
1070
   158
  0
LINE
  5
547
100
AcDbEntity
  8
AREA1
 62
     0
100
AcDbLine
 10
0.3275
 20
10.0432
 30
0.0
 11
1.449431
 21
10.0432
 31
0.0
1001
ACAD
1000
RTLwPs
1070
   158
  0
LINE
  5
548
100
AcDbEntity
  8
AREA1
 62
     0
100
AcDbLine
 10
1.269431
 20
-0.382545
 30
0.0
 11
1.269431
 21
3.405327
 31
0.0
1001
ACAD
1000
RTLwPs
1070
   158
  0
LINE
  5
549
100
AcDbEntity
  8
AREA1
 62
     0
100
AcDbLine
 10
1.269431
 20
9.8632
 30
0.0
 11
1.269431
 21
6.075327
 31
0.0
1001
ACAD
1000
RTLwPs
1070
   158
  0
SOLID
  5
54A
100
AcDbEntity
  8
AREA1
 62
     0
100
AcDbTrace
 10
1.239431
 20
-0.382545
 30
0.0
 11
1.299431
 21
-0.382545
 31
0.0
 12
1.269431
 22
-0.562545
 32
0.0
 13
1.269431
 23
-0.562545
 33
0.0
  0
SOLID
  5
54B
100
AcDbEntity
  8
AREA1
 62
     0
100
AcDbTrace
 10
1.239431
 20
9.8632
 30
0.0
 11
1.299431
 21
9.8632
 31
0.0
 12
1.269431
 22
10.0432
 32
0.0
 13
1.269431
 23
10.0432
 33
0.0
  0
MTEXT
  5
54C
100
AcDbEntity
  8
AREA1
 62
     0
100
AcDbMText
 10
1.269431
 20
4.740327
 30
0.0
 40
0.18
 41
0.0
 71
     5
 72
     1
  1
\A1;10 39/64 [269.4]
 11
0.0
 21
1.0
 31
0.0
1001
ACAD
1000
MTEXTBEGIN
1070
    73
1070
     1
1070
    44
1040
1.0
1070
    74
1070
     0
1000
MTEXTEND
1000
MTEXTBEGIN
1070
    73
1070
     1
1070
    44
1040
1.0
1070
    74
1070
     0
1000
MTEXTEND
1000
MTEXTBEGIN
1070
    73
1070
     1
1070
    44
1040
1.0
1070
    74
1070
     0
1000
MTEXTEND
1000
MTEXTBEGIN
1070
    73
1070
     1
1070
    44
1040
1.0
1070
    74
1070
     0
1000
MTEXTEND
1000
MTEXTBEGIN
1070
    73
1070
     1
1070
    44
1040
1.0
1070
    74
1070
     0
1000
MTEXTEND
1000
MTEXTBEGIN
1070
    73
1070
     1
1070
    44
1040
1.0
1070
    74
1070
     0
1000
MTEXTEND
1000
MTEXTBEGIN
1070
    73
1070
     1
1070
    44
1040
1.0
1070
    74
1070
     0
1000
MTEXTEND
  0
POINT
  5
54D
100
AcDbEntity
  8
DEFPOINTS
 62
     0
100
AcDbPoint
 10
-0.226368
 20
-0.562545
 30
5.88
  0
POINT
  5
54E
100
AcDbEntity
  8
DEFPOINTS
 62
     0
100
AcDbPoint
 10
0.265
 20
10.0432
 30
5.747
  0
POINT
  5
54F
100
AcDbEntity
  8
DEFPOINTS
 62
     0
100
AcDbPoint
 10
1.269431
 20
10.0432
 30
0.0
  0
ENDBLK
  5
551
100
AcDbEntity
  8
0
100
AcDbBlockEnd
  0
BLOCK
  5
55D
100
AcDbEntity
  8
0
100
AcDbBlockBegin
  2
*D1
 70
     1
 10
0.0
 20
0.0
 30
0.0
  3
*D1
  1

  0
LINE
  5
553
100
AcDbEntity
  8
AREA1
 62
     0
100
AcDbLine
 10
-1.025435
 20
0.37789
 30
0.0
 11
-1.025435
 21
11.135113
 31
0.0
1001
ACAD
1000
RTLwPs
1070
   158
  0
LINE
  5
554
100
AcDbEntity
  8
AREA1
 62
     0
100
AcDbLine
 10
0.3275
 20
10.1057
 30
0.0
 11
0.3275
 21
11.135113
 31
0.0
1001
ACAD
1000
RTLwPs
1070
   158
  0
LINE
  5
555
100
AcDbEntity
  8
AREA1
 62
     0
100
AcDbLine
 10
-0.845435
 20
10.955113
 30
0.0
 11
0.1475
 21
10.955113
 31
0.0
1001
ACAD
1000
RTLwPs
1070
   158
  0
LINE
  5
556
100
AcDbEntity
  8
AREA1
 62
     0
100
AcDbLine
 10
0.3275
 20
10.955113
 30
0.0
 11
0.5075
 21
10.955113
 31
0.0
1001
ACAD
1000
RTLwPs
1070
   158
  0
SOLID
  5
557
100
AcDbEntity
  8
AREA1
 62
     0
100
AcDbTrace
 10
-0.845435
 20
10.985113
 30
0.0
 11
-0.845435
 21
10.925113
 31
0.0
 12
-1.025435
 22
10.955113
 32
0.0
 13
-1.025435
 23
10.955113
 33
0.0
  0
SOLID
  5
558
100
AcDbEntity
  8
AREA1
 62
     0
100
AcDbTrace
 10
0.1475
 20
10.985113
 30
0.0
 11
0.1475
 21
10.925113
 31
0.0
 12
0.3275
 22
10.955113
 32
0.0
 13
0.3275
 23
10.955113
 33
0.0
  0
MTEXT
  5
559
100
AcDbEntity
  8
AREA1
 62
     0
100
AcDbMText
 10
1.6775
 20
10.955113
 30
0.0
 40
0.18
 41
0.0
 71
     5
 72
     1
  1
\A1;1 23/64 [34.4]
1001
ACAD
1000
MTEXTBEGIN
1070
    73
1070
     1
1070
    44
1040
1.0
1070
    74
1070
     0
1000
MTEXTEND
1000
MTEXTBEGIN
1070
    73
1070
     1
1070
    44
1040
1.0
1070
    74
1070
     0
1000
MTEXTEND
1000
MTEXTBEGIN
1070
    73
1070
     1
1070
    44
1040
1.0
1070
    74
1070
     0
1000
MTEXTEND
1000
MTEXTBEGIN
1070
    73
1070
     1
1070
    44
1040
1.0
1070
    74
1070
     0
1000
MTEXTEND
1000
MTEXTBEGIN
1070
    73
1070
     1
1070
    44
1040
1.0
1070
    74
1070
     0
1000
MTEXTEND
1000
MTEXTBEGIN
1070
    73
1070
     1
1070
    44
1040
1.0
1070
    74
1070
     0
1000
MTEXTEND
1000
MTEXTBEGIN
1070
    73
1070
     1
1070
    44
1040
1.0
1070
    74
1070
     0
1000
MTEXTEND
  0
POINT
  5
55A
100
AcDbEntity
  8
DEFPOINTS
 62
     0
100
AcDbPoint
 10
-1.025435
 20
0.31539
 30
5.88
  0
POINT
  5
55B
100
AcDbEntity
  8
DEFPOINTS
 62
     0
100
AcDbPoint
 10
0.3275
 20
10.0432
 30
0.0
  0
POINT
  5
55C
100
AcDbEntity
  8
DEFPOINTS
 62
     0
100
AcDbPoint
 10
0.3275
 20
10.955113
 30
0.0
  0
ENDBLK
  5
55E
100
AcDbEntity
  8
0
100
AcDbBlockEnd
  0
BLOCK
  5
6BA
100
AcDbEntity
  8
0
100
AcDbBlockBegin
  2
ABIOE580
 70
     2
 10
0.0
 20
0.0
 30
0.0
  3
ABIOE580
  1

  0
ATTDEF
  5
562
100
AcDbEntity
  8
ATTRIBUTES
100
AcDbText
 10
-0.634606
 20
1.390909
 30
0.0
 40
0.06
  1
ALLEN-BRADLEY
100
AcDbAttributeDefinition
  3
MANUFACTURER NAME?
  2
AC_VND_LABEL
 70
     1
  0
ATTDEF
  5
563
100
AcDbEntity
  8
ATTRIBUTES
100
AcDbText
 10
-0.634606
 20
1.265909
 30
0.0
 40
0.06
  1
1771-IXHR
100
AcDbAttributeDefinition
  3
CATALOG NUMBER?
  2
AC_PART_NO
 70
     1
  0
ATTDEF
  5
564
100
AcDbEntity
  8
ATTRIBUTES
100
AcDbText
 10
-0.634606
 20
1.140909
 30
0.0
 40
0.06
  1
1771-IXHR:HIGH RES THERMOCOUPLE/MILLIVOLT INPUT MODULE, 8 T/C TYPE B,E,J,K,R,S,T
100
AcDbAttributeDefinition
  3
PART DESCRIPTION?
  2
AC_DESCRIPTION
 70
     1
  0
ATTDEF
  5
565
100
AcDbEntity
  8
ATTRIBUTES
100
AcDbText
 10
-0.634606
 20
1.015909
 30
0.0
 40
0.06
  1

100
AcDbAttributeDefinition
  3
DEVICE ID?
  2
DEVICE_ID
 70
     1
  0
ATTDEF
  5
566
100
AcDbEntity
  8
ATTRIBUTES
100
AcDbText
 10
-0.634606
 20
0.890909
 30
0.0
 40
0.06
  1

100
AcDbAttributeDefinition
  3
CUSTOMER PART NUMBER?
  2
AC_CPART_NO
 70
     1
  0
ATTDEF
  5
567
100
AcDbEntity
  8
ATTRIBUTES
100
AcDbText
 10
-0.634606
 20
0.765909
 30
0.0
 40
0.06
  1

100
AcDbAttributeDefinition
  3
CUSTOMER NOTE?
  2
AC_NOTE
 70
     1
  0
ATTDEF
  5
568
100
AcDbEntity
  8
ATTRIBUTES
100
AcDbText
 10
-0.634606
 20
0.640909
 30
0.0
 40
0.06
  1

100
AcDbAttributeDefinition
  3
FASTENER DATA?
  2
FASTENER
 70
     1
  0
ATTDEF
  5
569
100
AcDbEntity
  8
ATTRIBUTES
100
AcDbText
 10
-0.634606
 20
0.515909
 30
0.0
 40
0.06
  1
INCH
100
AcDbAttributeDefinition
  3
UNIT OF SCALE?
  2
AC_SCALE_UNIT
 70
     1
  0
ATTDEF
  5
56A
100
AcDbEntity
  8
ATTRIBUTES
100
AcDbText
 10
-0.634606
 20
0.390909
 30
0.0
 40
0.06
  1
0
100
AcDbAttributeDefinition
  3
VIEW CODE?
  2
AC_VIEW_CODE
 70
     1
  0
LINE
  5
56B
100
AcDbEntity
  8
0
100
AcDbLine
 10
0.195778
 20
4.929215
 30
5.88
 11
0.195778
 21
0.425898
 31
5.88
  0
LINE
  5
56C
100
AcDbEntity
  8
0
100
AcDbLine
 10
-0.8158
 20
4.959353
 30
5.88
 11
-0.8158
 21
0.436173
 31
5.88
  0
POLYLINE
  5
56D
100
AcDbEntity
  8
0
100
AcDbPolygonMesh
 66
     1
 10
0.0
 20
0.0
 30
0.0
 70
    16
 71
     6
 72
     3
  0
VERTEX
  5
56E
100
AcDbEntity
  8
0
100
AcDbVertex
100
AcDbPolygonMeshVertex
 10
0.27
 20
0.2
 30
5.39
 70
    64
  0
VERTEX
  5
56F
100
AcDbEntity
  8
0
100
AcDbVertex
100
AcDbPolygonMeshVertex
 10
0.27
 20
0.2
 30
0.0
 70
    64
  0
VERTEX
  5
570
100
AcDbEntity
  8
0
100
AcDbVertex
100
AcDbPolygonMeshVertex
 10
0.27
 20
0.2
 30
0.0
 70
    64
  0
VERTEX
  5
571
100
AcDbEntity
  8
0
100
AcDbVertex
100
AcDbPolygonMeshVertex
 10
-0.89
 20
0.2
 30
5.39
 70
    64
  0
VERTEX
  5
572
100
AcDbEntity
  8
0
100
AcDbVertex
100
AcDbPolygonMeshVertex
 10
-0.89
 20
0.2
 30
0.0
 70
    64
  0
VERTEX
  5
573
100
AcDbEntity
  8
0
100
AcDbVertex
100
AcDbPolygonMeshVertex
 10
-0.89
 20
0.2
 30
0.0
 70
    64
  0
VERTEX
  5
574
100
AcDbEntity
  8
0
100
AcDbVertex
100
AcDbPolygonMeshVertex
 10
-0.89
 20
9.8
 30
5.39
 70
    64
  0
VERTEX
  5
575
100
AcDbEntity
  8
0
100
AcDbVertex
100
AcDbPolygonMeshVertex
 10
-0.89
 20
9.8
 30
0.0
 70
    64
  0
VERTEX
  5
576
100
AcDbEntity
  8
0
100
AcDbVertex
100
AcDbPolygonMeshVertex
 10
-0.89
 20
0.2
 30
0.0
 70
    64
  0
VERTEX
  5
577
100
AcDbEntity
  8
0
100
AcDbVertex
100
AcDbPolygonMeshVertex
 10
0.27
 20
9.8
 30
5.39
 70
    64
  0
VERTEX
  5
578
100
AcDbEntity
  8
0
100
AcDbVertex
100
AcDbPolygonMeshVertex
 10
0.27
 20
9.8
 30
0.0
 70
    64
  0
VERTEX
  5
579
100
AcDbEntity
  8
0
100
AcDbVertex
100
AcDbPolygonMeshVertex
 10
0.27
 20
0.2
 30
0.0
 70
    64
  0
VERTEX
  5
57A
100
AcDbEntity
  8
0
100
AcDbVertex
100
AcDbPolygonMeshVertex
 10
0.27
 20
9.8
 30
5.39
 70
    64
  0
VERTEX
  5
57B
100
AcDbEntity
  8
0
100
AcDbVertex
100
AcDbPolygonMeshVertex
 10
0.27
 20
9.8
 30
5.39
 70
    64
  0
VERTEX
  5
57C
100
AcDbEntity
  8
0
100
AcDbVertex
100
AcDbPolygonMeshVertex
 10
0.27
 20
0.2
 30
5.39
 70
    64
  0
VERTEX
  5
57D
100
AcDbEntity
  8
0
100
AcDbVertex
100
AcDbPolygonMeshVertex
 10
-0.89
 20
9.8
 30
5.39
 70
    64
  0
VERTEX
  5
57E
100
AcDbEntity
  8
0
100
AcDbVertex
100
AcDbPolygonMeshVertex
 10
-0.89
 20
9.8
 30
5.39
 70
    64
  0
VERTEX
  5
57F
100
AcDbEntity
  8
0
100
AcDbVertex
100
AcDbPolygonMeshVertex
 10
-0.89
 20
0.2
 30
5.39
 70
    64
  0
SEQEND
  5
580
100
AcDbEntity
  8
0
  0
POLYLINE
  5
581
100
AcDbEntity
  8
0
100
AcDbPolygonMesh
 66
     1
 10
0.0
 20
0.0
 30
0.0
 70
    16
 71
     6
 72
     3
  0
VERTEX
  5
582
100
AcDbEntity
  8
0
100
AcDbVertex
100
AcDbPolygonMeshVertex
 10
0.27
 20
0.2
 30
5.88
 70
    64
  0
VERTEX
  5
583
100
AcDbEntity
  8
0
100
AcDbVertex
100
AcDbPolygonMeshVertex
 10
0.27
 20
0.2
 30
5.39
 70
    64
  0
VERTEX
  5
584
100
AcDbEntity
  8
0
100
AcDbVertex
100
AcDbPolygonMeshVertex
 10
0.27
 20
0.2
 30
5.39
 70
    64
  0
VERTEX
  5
585
100
AcDbEntity
  8
0
100
AcDbVertex
100
AcDbPolygonMeshVertex
 10
-0.89
 20
0.2
 30
5.88
 70
    64
  0
VERTEX
  5
586
100
AcDbEntity
  8
0
100
AcDbVertex
100
AcDbPolygonMeshVertex
 10
-0.89
 20
0.2
 30
5.39
 70
    64
  0
VERTEX
  5
587
100
AcDbEntity
  8
0
100
AcDbVertex
100
AcDbPolygonMeshVertex
 10
-0.89
 20
0.2
 30
5.39
 70
    64
  0
VERTEX
  5
588
100
AcDbEntity
  8
0
100
AcDbVertex
100
AcDbPolygonMeshVertex
 10
-0.89
 20
8.912
 30
5.88
 70
    64
  0
VERTEX
  5
589
100
AcDbEntity
  8
0
100
AcDbVertex
100
AcDbPolygonMeshVertex
 10
-0.89
 20
8.912
 30
5.39
 70
    64
  0
VERTEX
  5
58A
100
AcDbEntity
  8
0
100
AcDbVertex
100
AcDbPolygonMeshVertex
 10
-0.89
 20
0.2
 30
5.39
 70
    64
  0
VERTEX
  5
58B
100
AcDbEntity
  8
0
100
AcDbVertex
100
AcDbPolygonMeshVertex
 10
0.27
 20
8.912
 30
5.88
 70
    64
  0
VERTEX
  5
58C
100
AcDbEntity
  8
0
100
AcDbVertex
100
AcDbPolygonMeshVertex
 10
0.27
 20
8.912
 30
5.39
 70
    64
  0
VERTEX
  5
58D
100
AcDbEntity
  8
0
100
AcDbVertex
100
AcDbPolygonMeshVertex
 10
0.27
 20
0.2
 30
5.39
 70
    64
  0
VERTEX
  5
58E
100
AcDbEntity
  8
0
100
AcDbVertex
100
AcDbPolygonMeshVertex
 10
0.27
 20
8.912
 30
5.88
 70
    64
  0
VERTEX
  5
58F
100
AcDbEntity
  8
0
100
AcDbVertex
100
AcDbPolygonMeshVertex
 10
0.27
 20
8.912
 30
5.88
 70
    64
  0
VERTEX
  5
590
100
AcDbEntity
  8
0
100
AcDbVertex
100
AcDbPolygonMeshVertex
 10
0.27
 20
0.2
 30
5.88
 70
    64
  0
VERTEX
  5
591
100
AcDbEntity
  8
0
100
AcDbVertex
100
AcDbPolygonMeshVertex
 10
-0.89
 20
8.912
 30
5.88
 70
    64
  0
VERTEX
  5
592
100
AcDbEntity
  8
0
100
AcDbVertex
100
AcDbPolygonMeshVertex
 10
-0.89
 20
8.912
 30
5.88
 70
    64
  0
VERTEX
  5
593
100
AcDbEntity
  8
0
100
AcDbVertex
100
AcDbPolygonMeshVertex
 10
-0.89
 20
0.2
 30
5.88
 70
    64
  0
SEQEND
  5
594
100
AcDbEntity
  8
0
  0
POLYLINE
  5
595
100
AcDbEntity
  8
0
100
AcDbPolygonMesh
 66
     1
 10
0.0
 20
0.0
 30
0.0
 70
    16
 71
     6
 72
     3
  0
VERTEX
  5
596
100
AcDbEntity
  8
0
100
AcDbVertex
100
AcDbPolygonMeshVertex
 10
0.068
 20
0.0
 30
4.755
 70
    64
  0
VERTEX
  5
597
100
AcDbEntity
  8
0
100
AcDbVertex
100
AcDbPolygonMeshVertex
 10
0.068
 20
0.0
 30
0.0
 70
    64
  0
VERTEX
  5
598
100
AcDbEntity
  8
0
100
AcDbVertex
100
AcDbPolygonMeshVertex
 10
0.068
 20
0.0
 30
0.0
 70
    64
  0
VERTEX
  5
599
100
AcDbEntity
  8
0
100
AcDbVertex
100
AcDbPolygonMeshVertex
 10
0.0
 20
0.0
 30
4.755
 70
    64
  0
VERTEX
  5
59A
100
AcDbEntity
  8
0
100
AcDbVertex
100
AcDbPolygonMeshVertex
 10
0.0
 20
0.0
 30
0.0
 70
    64
  0
VERTEX
  5
59B
100
AcDbEntity
  8
0
100
AcDbVertex
100
AcDbPolygonMeshVertex
 10
0.0
 20
0.0
 30
0.0
 70
    64
  0
VERTEX
  5
59C
100
AcDbEntity
  8
0
100
AcDbVertex
100
AcDbPolygonMeshVertex
 10
0.0
 20
0.2
 30
4.755
 70
    64
  0
VERTEX
  5
59D
100
AcDbEntity
  8
0
100
AcDbVertex
100
AcDbPolygonMeshVertex
 10
0.0
 20
0.2
 30
0.0
 70
    64
  0
VERTEX
  5
59E
100
AcDbEntity
  8
0
100
AcDbVertex
100
AcDbPolygonMeshVertex
 10
0.0
 20
0.0
 30
0.0
 70
    64
  0
VERTEX
  5
59F
100
AcDbEntity
  8
0
100
AcDbVertex
100
AcDbPolygonMeshVertex
 10
0.068
 20
0.2
 30
4.755
 70
    64
  0
VERTEX
  5
5A0
100
AcDbEntity
  8
0
100
AcDbVertex
100
AcDbPolygonMeshVertex
 10
0.068
 20
0.2
 30
0.0
 70
    64
  0
VERTEX
  5
5A1
100
AcDbEntity
  8
0
100
AcDbVertex
100
AcDbPolygonMeshVertex
 10
0.068
 20
0.0
 30
0.0
 70
    64
  0
VERTEX
  5
5A2
100
AcDbEntity
  8
0
100
AcDbVertex
100
AcDbPolygonMeshVertex
 10
0.068
 20
0.2
 30
4.755
 70
    64
  0
VERTEX
  5
5A3
100
AcDbEntity
  8
0
100
AcDbVertex
100
AcDbPolygonMeshVertex
 10
0.068
 20
0.2
 30
4.755
 70
    64
  0
VERTEX
  5
5A4
100
AcDbEntity
  8
0
100
AcDbVertex
100
AcDbPolygonMeshVertex
 10
0.068
 20
0.0
 30
4.755
 70
    64
  0
VERTEX
  5
5A5
100
AcDbEntity
  8
0
100
AcDbVertex
100
AcDbPolygonMeshVertex
 10
0.0
 20
0.2
 30
4.755
 70
    64
  0
VERTEX
  5
5A6
100
AcDbEntity
  8
0
100
AcDbVertex
100
AcDbPolygonMeshVertex
 10
0.0
 20
0.2
 30
4.755
 70
    64
  0
VERTEX
  5
5A7
100
AcDbEntity
  8
0
100
AcDbVertex
100
AcDbPolygonMeshVertex
 10
0.0
 20
0.0
 30
4.755
 70
    64
  0
SEQEND
  5
5A8
100
AcDbEntity
  8
0
  0
POINT
  5
5A9
100
AcDbEntity
  8
SNAP_POINTS
100
AcDbPoint
 10
0.034
 20
0.0
 30
0.0
  0
LINE
  5
5AA
100
AcDbEntity
  8
0
100
AcDbLine
 10
-0.8158
 20
0.516311
 30
5.88
 11
-0.311803
 21
0.516311
 31
5.88
  0
LINE
  5
5AB
100
AcDbEntity
  8
0
100
AcDbLine
 10
-0.593237
 20
0.425898
 30
5.88
 11
-0.94
 21
0.23
 31
5.88
  0
LINE
  5
5AC
100
AcDbEntity
  8
0
100
AcDbLine
 10
-1.020408
 20
-0.562545
 30
5.88
 11
-0.226368
 21
-0.562545
 31
5.88
  0
LINE
  5
5AD
100
AcDbEntity
  8
0
100
AcDbLine
 10
-0.94
 20
-0.562545
 30
5.88
 11
-0.94
 21
0.216022
 31
5.88
  0
LINE
  5
5AE
100
AcDbEntity
  8
0
100
AcDbLine
 10
-1.025435
 20
0.29639
 30
5.88
 11
-1.025435
 21
-0.562545
 31
5.88
  0
LINE
  5
5AF
100
AcDbEntity
  8
0
100
AcDbLine
 10
-0.864618
 20
-0.040151
 30
5.88
 11
-0.864618
 21
0.251183
 31
5.88
  0
LINE
  5
5B0
100
AcDbEntity
  8
0
100
AcDbLine
 10
-0.94
 20
-0.040151
 30
5.88
 11
-0.864618
 21
-0.040151
 31
5.88
  0
LINE
  5
5B1
100
AcDbEntity
  8
0
100
AcDbLine
 10
-0.810774
 20
0.441197
 30
5.88
 11
-1.025435
 21
0.31539
 31
5.88
  0
LINE
  5
5B2
100
AcDbEntity
  8
0
100
AcDbLine
 10
-0.311803
 20
0.497311
 30
5.88
 11
-0.311803
 21
-0.562545
 31
5.88
  0
LINE
  5
5B3
100
AcDbEntity
  8
0
100
AcDbLine
 10
-0.226368
 20
0.356667
 30
5.88
 11
-0.226368
 21
-0.562545
 31
5.88
  0
LINE
  5
5B4
100
AcDbEntity
  8
0
100
AcDbLine
 10
0.195778
 20
0.425898
 30
5.88
 11
-0.130883
 21
0.425898
 31
5.88
  0
LINE
  5
5B5
100
AcDbEntity
  8
0
100
AcDbLine
 10
-0.311803
 20
0.516311
 30
5.88
 11
0.195778
 21
0.516311
 31
5.88
  0
LINE
  5
5B6
100
AcDbEntity
  8
0
100
AcDbLine
 10
-0.407289
 20
0.216022
 30
5.88
 11
-0.407289
 21
-0.040151
 31
5.88
  0
LINE
  5
5B7
100
AcDbEntity
  8
0
100
AcDbLine
 10
-0.407289
 20
-0.040151
 30
5.88
 11
-0.311803
 21
-0.040151
 31
5.88
  0
LINE
  5
5B8
100
AcDbEntity
  8
0
100
AcDbLine
 10
-0.593237
 20
0.425898
 30
5.88
 11
-0.311803
 21
0.425898
 31
5.88
  0
LINE
  5
5B9
100
AcDbEntity
  8
0
100
AcDbLine
 10
-0.407289
 20
0.235022
 30
5.88
 11
-0.311803
 21
0.235022
 31
5.88
  0
LINE
  5
5BA
100
AcDbEntity
  8
0
100
AcDbLine
 10
-0.130883
 20
0.425898
 30
5.88
 11
-0.226368
 21
0.375667
 31
5.88
  0
LINE
  5
5BB
100
AcDbEntity
  8
0
100
AcDbLine
 10
-0.075603
 20
0.406898
 30
5.88
 11
-0.075603
 21
-0.015037
 31
5.88
  0
LINE
  5
5BC
100
AcDbEntity
  8
0
100
AcDbLine
 10
0.024909
 20
-0.015037
 30
5.88
 11
0.024909
 21
0.406898
 31
5.88
  0
LINE
  5
5BD
100
AcDbEntity
  8
0
100
AcDbLine
 10
0.266135
 20
0.194839
 30
5.88
 11
0.195778
 21
0.124516
 31
5.88
  0
LINE
  5
5BE
100
AcDbEntity
  8
0
100
AcDbLine
 10
0.195778
 20
0.124516
 30
5.88
 11
0.024909
 21
0.124516
 31
5.88
  0
LINE
  5
5BF
100
AcDbEntity
  8
0
100
AcDbLine
 10
-0.075603
 20
-0.015037
 30
5.88
 11
0.024909
 21
-0.015037
 31
5.88
  0
POLYLINE
  5
5C0
100
AcDbEntity
  8
0
100
AcDbPolygonMesh
 66
     1
 10
0.0
 20
0.0
 30
0.0
 70
    16
 71
     6
 72
     3
  0
VERTEX
  5
5C1
100
AcDbEntity
  8
0
100
AcDbVertex
100
AcDbPolygonMeshVertex
 10
0.068
 20
9.8
 30
4.755
 70
    64
  0
VERTEX
  5
5C2
100
AcDbEntity
  8
0
100
AcDbVertex
100
AcDbPolygonMeshVertex
 10
0.068
 20
9.8
 30
0.0
 70
    64
  0
VERTEX
  5
5C3
100
AcDbEntity
  8
0
100
AcDbVertex
100
AcDbPolygonMeshVertex
 10
0.068
 20
9.8
 30
0.0
 70
    64
  0
VERTEX
  5
5C4
100
AcDbEntity
  8
0
100
AcDbVertex
100
AcDbPolygonMeshVertex
 10
0.0
 20
9.8
 30
4.755
 70
    64
  0
VERTEX
  5
5C5
100
AcDbEntity
  8
0
100
AcDbVertex
100
AcDbPolygonMeshVertex
 10
0.0
 20
9.8
 30
0.0
 70
    64
  0
VERTEX
  5
5C6
100
AcDbEntity
  8
0
100
AcDbVertex
100
AcDbPolygonMeshVertex
 10
0.0
 20
9.8
 30
0.0
 70
    64
  0
VERTEX
  5
5C7
100
AcDbEntity
  8
0
100
AcDbVertex
100
AcDbPolygonMeshVertex
 10
0.0
 20
10.0
 30
4.755
 70
    64
  0
VERTEX
  5
5C8
100
AcDbEntity
  8
0
100
AcDbVertex
100
AcDbPolygonMeshVertex
 10
0.0
 20
10.0
 30
0.0
 70
    64
  0
VERTEX
  5
5C9
100
AcDbEntity
  8
0
100
AcDbVertex
100
AcDbPolygonMeshVertex
 10
0.0
 20
9.8
 30
0.0
 70
    64
  0
VERTEX
  5
5CA
100
AcDbEntity
  8
0
100
AcDbVertex
100
AcDbPolygonMeshVertex
 10
0.068
 20
10.0
 30
4.755
 70
    64
  0
VERTEX
  5
5CB
100
AcDbEntity
  8
0
100
AcDbVertex
100
AcDbPolygonMeshVertex
 10
0.068
 20
10.0
 30
0.0
 70
    64
  0
VERTEX
  5
5CC
100
AcDbEntity
  8
0
100
AcDbVertex
100
AcDbPolygonMeshVertex
 10
0.068
 20
9.8
 30
0.0
 70
    64
  0
VERTEX
  5
5CD
100
AcDbEntity
  8
0
100
AcDbVertex
100
AcDbPolygonMeshVertex
 10
0.068
 20
10.0
 30
4.755
 70
    64
  0
VERTEX
  5
5CE
100
AcDbEntity
  8
0
100
AcDbVertex
100
AcDbPolygonMeshVertex
 10
0.068
 20
10.0
 30
4.755
 70
    64
  0
VERTEX
  5
5CF
100
AcDbEntity
  8
0
100
AcDbVertex
100
AcDbPolygonMeshVertex
 10
0.068
 20
9.8
 30
4.755
 70
    64
  0
VERTEX
  5
5D0
100
AcDbEntity
  8
0
100
AcDbVertex
100
AcDbPolygonMeshVertex
 10
0.0
 20
10.0
 30
4.755
 70
    64
  0
VERTEX
  5
5D1
100
AcDbEntity
  8
0
100
AcDbVertex
100
AcDbPolygonMeshVertex
 10
0.0
 20
10.0
 30
4.755
 70
    64
  0
VERTEX
  5
5D2
100
AcDbEntity
  8
0
100
AcDbVertex
100
AcDbPolygonMeshVertex
 10
0.0
 20
9.8
 30
4.755
 70
    64
  0
SEQEND
  5
5D3
100
AcDbEntity
  8
0
  0
LINE
  5
5D4
100
AcDbEntity
  8
0
100
AcDbLine
 10
-0.123626
 20
8.063497
 30
5.88
 11
-0.138704
 21
8.04843
 31
5.88
  0
LINE
  5
5D5
100
AcDbEntity
  8
0
100
AcDbLine
 10
-0.224137
 20
8.053449
 30
5.88
 11
-0.244239
 21
8.068522
 31
5.88
  0
LINE
  5
5D6
100
AcDbEntity
  8
0
100
AcDbLine
 10
-0.284443
 20
8.168981
 30
5.88
 11
-0.284443
 21
7.877046
 31
5.88
  0
LINE
  5
5D7
100
AcDbEntity
  8
0
100
AcDbLine
 10
-0.068345
 20
8.168981
 30
5.88
 11
-0.068345
 21
7.877046
 31
5.88
  0
TEXT
  5
5D8
100
AcDbEntity
  8
0
100
AcDbText
 39
0.001
 10
-0.697436
 20
7.930748
 30
5.879973
 40
0.05
  1
FAULT
 72
     1
 11
-0.58077
 21
7.930748
 31
5.879973
100
AcDbText
  0
LINE
  5
5D9
100
AcDbEntity
  8
0
100
AcDbLine
 10
-0.769129
 20
5.241735
 30
5.88
 11
0.170651
 21
5.241735
 31
5.88
  0
LINE
  5
5DA
100
AcDbEntity
  8
0
100
AcDbLine
 10
-0.735392
 20
4.84994
 30
5.88
 11
-0.492723
 21
4.84994
 31
5.88
  0
LINE
  5
5DB
100
AcDbEntity
  8
0
100
AcDbLine
 10
-0.735392
 20
5.005652
 30
5.88
 11
-0.492723
 21
5.005652
 31
5.88
  0
LINE
  5
5DC
100
AcDbEntity
  8
0
100
AcDbLine
 10
-0.8158
 20
4.945377
 30
5.88
 11
-0.805749
 21
4.965469
 31
5.88
  0
LINE
  5
5DD
100
AcDbEntity
  8
0
100
AcDbLine
 10
-0.750466
 20
4.844916
 30
5.88
 11
-0.735392
 21
4.84994
 31
5.88
  0
LINE
  5
5DE
100
AcDbEntity
  8
0
100
AcDbLine
 10
-0.77057
 20
4.839893
 30
5.88
 11
-0.750466
 21
4.844916
 31
5.88
  0
LINE
  5
5DF
100
AcDbEntity
  8
0
100
AcDbLine
 10
-0.790672
 20
4.824824
 30
5.88
 11
-0.77057
 21
4.839893
 31
5.88
  0
LINE
  5
5E0
100
AcDbEntity
  8
0
100
AcDbLine
 10
-0.805749
 20
4.809755
 30
5.88
 11
-0.790672
 21
4.824824
 31
5.88
  0
LINE
  5
5E1
100
AcDbEntity
  8
0
100
AcDbLine
 10
-0.8158
 20
4.789662
 30
5.88
 11
-0.805749
 21
4.809755
 31
5.88
  0
LINE
  5
5E2
100
AcDbEntity
  8
0
100
AcDbLine
 10
-0.8158
 20
4.764548
 30
5.88
 11
-0.8158
 21
4.789662
 31
5.88
  0
LINE
  5
5E3
100
AcDbEntity
  8
0
100
AcDbLine
 10
-0.8158
 20
4.920261
 30
5.88
 11
-0.8158
 21
4.945377
 31
5.88
  0
LINE
  5
5E4
100
AcDbEntity
  8
0
100
AcDbLine
 10
-0.750466
 20
5.000631
 30
5.88
 11
-0.735392
 21
5.005652
 31
5.88
  0
LINE
  5
5E5
100
AcDbEntity
  8
0
100
AcDbLine
 10
-0.77057
 20
4.995607
 30
5.88
 11
-0.750466
 21
5.000631
 31
5.88
  0
LINE
  5
5E6
100
AcDbEntity
  8
0
100
AcDbLine
 10
-0.790672
 20
4.980538
 30
5.88
 11
-0.77057
 21
4.995607
 31
5.88
  0
LINE
  5
5E7
100
AcDbEntity
  8
0
100
AcDbLine
 10
-0.805749
 20
4.965469
 30
5.88
 11
-0.790672
 21
4.980538
 31
5.88
  0
LINE
  5
5E8
100
AcDbEntity
  8
0
100
AcDbLine
 10
-0.869643
 20
5.307034
 30
5.88
 11
-0.874667
 21
5.332148
 31
5.88
  0
LINE
  5
5E9
100
AcDbEntity
  8
0
100
AcDbLine
 10
-0.874667
 20
5.332148
 30
5.88
 11
-0.879692
 21
5.352241
 31
5.88
  0
LINE
  5
5EA
100
AcDbEntity
  8
0
100
AcDbLine
 10
-0.854565
 20
5.281918
 30
5.88
 11
-0.869643
 21
5.307034
 31
5.88
  0
LINE
  5
5EB
100
AcDbEntity
  8
0
100
AcDbLine
 10
-0.834463
 20
5.266849
 30
5.88
 11
-0.854565
 21
5.281918
 31
5.88
  0
LINE
  5
5EC
100
AcDbEntity
  8
0
100
AcDbLine
 10
-0.814361
 20
5.25178
 30
5.88
 11
-0.834463
 21
5.266849
 31
5.88
  0
LINE
  5
5ED
100
AcDbEntity
  8
0
100
AcDbLine
 10
-0.789233
 20
5.246759
 30
5.88
 11
-0.814361
 21
5.25178
 31
5.88
  0
LINE
  5
5EE
100
AcDbEntity
  8
0
100
AcDbLine
 10
-0.75908
 20
5.241735
 30
5.88
 11
-0.789233
 21
5.246759
 31
5.88
  0
LINE
  5
5EF
100
AcDbEntity
  8
0
100
AcDbLine
 10
-0.492723
 20
5.08602
 30
5.88
 11
-0.035397
 21
5.08602
 31
5.88
  0
LINE
  5
5F0
100
AcDbEntity
  8
0
100
AcDbLine
 10
-0.040422
 20
4.890123
 30
5.88
 11
-0.492723
 21
4.890123
 31
5.88
  0
LINE
  5
5F1
100
AcDbEntity
  8
0
100
AcDbLine
 10
-0.492723
 20
4.945377
 30
5.88
 11
-0.035397
 21
4.945377
 31
5.88
  0
LINE
  5
5F2
100
AcDbEntity
  8
0
100
AcDbLine
 10
-0.492723
 20
4.779617
 30
5.88
 11
-0.035397
 21
4.779617
 31
5.88
  0
LINE
  5
5F3
100
AcDbEntity
  8
0
100
AcDbLine
 10
-0.150985
 20
5.241735
 30
5.88
 11
-0.150985
 21
5.08602
 31
5.88
  0
LINE
  5
5F4
100
AcDbEntity
  8
0
100
AcDbLine
 10
-0.407289
 20
5.08602
 30
5.88
 11
-0.407289
 21
5.241735
 31
5.88
  0
LINE
  5
5F5
100
AcDbEntity
  8
0
100
AcDbLine
 10
-0.492723
 20
5.241735
 30
5.88
 11
-0.492723
 21
4.779617
 31
5.88
  0
LINE
  5
5F6
100
AcDbEntity
  8
0
100
AcDbLine
 10
0.045013
 20
5.241735
 30
5.88
 11
0.045013
 21
5.005652
 31
5.88
  0
LINE
  5
5F7
100
AcDbEntity
  8
0
100
AcDbLine
 10
-0.035397
 20
5.241735
 30
5.88
 11
-0.035397
 21
4.779617
 31
5.88
  0
LINE
  5
5F8
100
AcDbEntity
  8
0
100
AcDbLine
 10
0.135472
 20
4.844916
 30
5.88
 11
0.1606
 21
4.834869
 31
5.88
  0
LINE
  5
5F9
100
AcDbEntity
  8
0
100
AcDbLine
 10
0.135472
 20
5.000631
 30
5.88
 11
0.1606
 21
4.990583
 31
5.88
  0
LINE
  5
5FA
100
AcDbEntity
  8
0
100
AcDbLine
 10
-0.035397
 20
4.84994
 30
5.88
 11
0.11537
 21
4.84994
 31
5.88
  0
LINE
  5
5FB
100
AcDbEntity
  8
0
100
AcDbLine
 10
0.11537
 20
4.84994
 30
5.88
 11
0.135472
 21
4.844916
 31
5.88
  0
LINE
  5
5FC
100
AcDbEntity
  8
0
100
AcDbLine
 10
-0.035397
 20
5.005652
 30
5.88
 11
0.11537
 21
5.005652
 31
5.88
  0
LINE
  5
5FD
100
AcDbEntity
  8
0
100
AcDbLine
 10
0.11537
 20
5.005652
 30
5.88
 11
0.135472
 21
5.000631
 31
5.88
  0
LINE
  5
5FE
100
AcDbEntity
  8
0
100
AcDbLine
 10
0.190753
 20
4.960446
 30
5.88
 11
0.195778
 21
4.940353
 31
5.88
  0
LINE
  5
5FF
100
AcDbEntity
  8
0
100
AcDbLine
 10
0.195778
 20
4.784641
 30
5.88
 11
0.195778
 21
4.764548
 31
5.88
  0
LINE
  5
600
100
AcDbEntity
  8
0
100
AcDbLine
 10
0.190753
 20
4.804731
 30
5.88
 11
0.195778
 21
4.784641
 31
5.88
  0
LINE
  5
601
100
AcDbEntity
  8
0
100
AcDbLine
 10
0.175678
 20
4.824824
 30
5.88
 11
0.190753
 21
4.804731
 31
5.88
  0
LINE
  5
602
100
AcDbEntity
  8
0
100
AcDbLine
 10
0.1606
 20
4.834869
 30
5.88
 11
0.175678
 21
4.824824
 31
5.88
  0
LINE
  5
603
100
AcDbEntity
  8
0
100
AcDbLine
 10
0.195778
 20
4.940353
 30
5.88
 11
0.195778
 21
4.920261
 31
5.88
  0
LINE
  5
604
100
AcDbEntity
  8
0
100
AcDbLine
 10
0.175678
 20
4.980538
 30
5.88
 11
0.190753
 21
4.960446
 31
5.88
  0
LINE
  5
605
100
AcDbEntity
  8
0
100
AcDbLine
 10
0.1606
 20
4.990583
 30
5.88
 11
0.175678
 21
4.980538
 31
5.88
  0
LINE
  5
606
100
AcDbEntity
  8
0
100
AcDbLine
 10
0.271163
 20
5.372333
 30
5.88
 11
0.271163
 21
5.347217
 31
5.88
  0
LINE
  5
607
100
AcDbEntity
  8
0
100
AcDbLine
 10
0.175678
 20
5.246759
 30
5.88
 11
0.1606
 21
5.246759
 31
5.88
  0
LINE
  5
608
100
AcDbEntity
  8
0
100
AcDbLine
 10
0.200806
 20
5.25178
 30
5.88
 11
0.175678
 21
5.246759
 31
5.88
  0
LINE
  5
609
100
AcDbEntity
  8
0
100
AcDbLine
 10
0.225933
 20
5.261827
 30
5.88
 11
0.200806
 21
5.25178
 31
5.88
  0
LINE
  5
60A
100
AcDbEntity
  8
0
100
AcDbLine
 10
0.246035
 20
5.276896
 30
5.88
 11
0.225933
 21
5.261827
 31
5.88
  0
LINE
  5
60B
100
AcDbEntity
  8
0
100
AcDbLine
 10
0.261112
 20
5.296987
 30
5.88
 11
0.246035
 21
5.276896
 31
5.88
  0
LINE
  5
60C
100
AcDbEntity
  8
0
100
AcDbLine
 10
0.271163
 20
5.322103
 30
5.88
 11
0.261112
 21
5.296987
 31
5.88
  0
LINE
  5
60D
100
AcDbEntity
  8
0
100
AcDbLine
 10
0.271163
 20
5.347217
 30
5.88
 11
0.271163
 21
5.322103
 31
5.88
  0
LINE
  5
60E
100
AcDbEntity
  8
0
100
AcDbLine
 10
-0.108549
 20
7.978107
 30
5.88
 11
-0.103525
 21
7.952991
 31
5.88
  0
LINE
  5
60F
100
AcDbEntity
  8
0
100
AcDbLine
 10
-0.098498
 20
7.806723
 30
5.88
 11
-0.118602
 21
7.786631
 31
5.88
  0
LINE
  5
610
100
AcDbEntity
  8
0
100
AcDbLine
 10
-0.098498
 20
7.912806
 30
5.88
 11
-0.108549
 21
7.887691
 31
5.88
  0
LINE
  5
611
100
AcDbEntity
  8
0
100
AcDbLine
 10
-0.274394
 20
7.826816
 30
5.88
 11
-0.284443
 21
7.85193
 31
5.88
  0
LINE
  5
612
100
AcDbEntity
  8
0
100
AcDbLine
 10
-0.214086
 20
7.776583
 30
5.88
 11
-0.239216
 21
7.786631
 31
5.88
  0
LINE
  5
613
100
AcDbEntity
  8
0
100
AcDbLine
 10
-0.239216
 20
7.786631
 30
5.88
 11
-0.259316
 21
7.806723
 31
5.88
  0
LINE
  5
614
100
AcDbEntity
  8
0
100
AcDbLine
 10
-0.259316
 20
7.806723
 30
5.88
 11
-0.274394
 21
7.826816
 31
5.88
  0
LINE
  5
615
100
AcDbEntity
  8
0
100
AcDbLine
 10
-0.118602
 20
7.786631
 30
5.88
 11
-0.138704
 21
7.776583
 31
5.88
  0
LINE
  5
616
100
AcDbEntity
  8
0
100
AcDbLine
 10
-0.138704
 20
7.776583
 30
5.88
 11
-0.163831
 21
7.771562
 31
5.88
  0
LINE
  5
617
100
AcDbEntity
  8
0
100
AcDbLine
 10
-0.163831
 20
7.771562
 30
5.88
 11
-0.188959
 21
7.771562
 31
5.88
  0
LINE
  5
618
100
AcDbEntity
  8
0
100
AcDbLine
 10
-0.188959
 20
7.771562
 30
5.88
 11
-0.214086
 21
7.776583
 31
5.88
  0
LINE
  5
619
100
AcDbEntity
  8
0
100
AcDbLine
 10
-0.244239
 20
7.983128
 30
5.88
 11
-0.229163
 21
7.998199
 31
5.88
  0
LINE
  5
61A
100
AcDbEntity
  8
0
100
AcDbLine
 10
-0.224137
 20
7.862575
 30
5.88
 11
-0.244239
 21
7.877644
 31
5.88
  0
LINE
  5
61B
100
AcDbEntity
  8
0
100
AcDbLine
 10
-0.259316
 20
7.963038
 30
5.88
 11
-0.244239
 21
7.983128
 31
5.88
  0
LINE
  5
61C
100
AcDbEntity
  8
0
100
AcDbLine
 10
-0.264343
 20
7.937922
 30
5.88
 11
-0.259316
 21
7.963038
 31
5.88
  0
LINE
  5
61D
100
AcDbEntity
  8
0
100
AcDbLine
 10
-0.284443
 20
7.85193
 30
5.88
 11
-0.284443
 21
7.877046
 31
5.88
  0
LINE
  5
61E
100
AcDbEntity
  8
0
100
AcDbLine
 10
-0.244239
 20
7.877644
 30
5.88
 11
-0.25429
 21
7.897737
 31
5.88
  0
LINE
  5
61F
100
AcDbEntity
  8
0
100
AcDbLine
 10
-0.25429
 20
7.897737
 30
5.88
 11
-0.259316
 21
7.917829
 31
5.88
  0
LINE
  5
620
100
AcDbEntity
  8
0
100
AcDbLine
 10
-0.259316
 20
7.917829
 30
5.88
 11
-0.264343
 21
7.937922
 31
5.88
  0
LINE
  5
621
100
AcDbEntity
  8
0
100
AcDbLine
 10
-0.229163
 20
7.998199
 30
5.88
 11
-0.209061
 21
8.008245
 31
5.88
  0
LINE
  5
622
100
AcDbEntity
  8
0
100
AcDbLine
 10
-0.209061
 20
8.008245
 30
5.88
 11
-0.188959
 21
8.013268
 31
5.88
  0
LINE
  5
623
100
AcDbEntity
  8
0
100
AcDbLine
 10
-0.188959
 20
8.013268
 30
5.88
 11
-0.163831
 21
8.013268
 31
5.88
  0
LINE
  5
624
100
AcDbEntity
  8
0
100
AcDbLine
 10
-0.163831
 20
8.013268
 30
5.88
 11
-0.143729
 21
8.003221
 31
5.88
  0
LINE
  5
625
100
AcDbEntity
  8
0
100
AcDbLine
 10
-0.143729
 20
8.003221
 30
5.88
 11
-0.123626
 21
7.993176
 31
5.88
  0
LINE
  5
626
100
AcDbEntity
  8
0
100
AcDbLine
 10
-0.123626
 20
7.993176
 30
5.88
 11
-0.108549
 21
7.978107
 31
5.88
  0
LINE
  5
627
100
AcDbEntity
  8
0
100
AcDbLine
 10
-0.138704
 20
8.04843
 30
5.88
 11
-0.158806
 21
8.043406
 31
5.88
  0
LINE
  5
628
100
AcDbEntity
  8
0
100
AcDbLine
 10
-0.158806
 20
8.043406
 30
5.88
 11
-0.183933
 21
8.03838
 31
5.88
  0
LINE
  5
629
100
AcDbEntity
  8
0
100
AcDbLine
 10
-0.183933
 20
8.03838
 30
5.88
 11
-0.204035
 21
8.043406
 31
5.88
  0
LINE
  5
62A
100
AcDbEntity
  8
0
100
AcDbLine
 10
-0.204035
 20
8.043406
 30
5.88
 11
-0.224137
 21
8.053449
 31
5.88
  0
LINE
  5
62B
100
AcDbEntity
  8
0
100
AcDbLine
 10
-0.108549
 20
7.887691
 30
5.88
 11
-0.123626
 21
7.872623
 31
5.88
  0
LINE
  5
62C
100
AcDbEntity
  8
0
100
AcDbLine
 10
-0.123626
 20
7.872623
 30
5.88
 11
-0.138704
 21
7.857554
 31
5.88
  0
LINE
  5
62D
100
AcDbEntity
  8
0
100
AcDbLine
 10
-0.138704
 20
7.857554
 30
5.88
 11
-0.158806
 21
7.85253
 31
5.88
  0
LINE
  5
62E
100
AcDbEntity
  8
0
100
AcDbLine
 10
-0.158806
 20
7.85253
 30
5.88
 11
-0.183933
 21
7.847506
 31
5.88
  0
LINE
  5
62F
100
AcDbEntity
  8
0
100
AcDbLine
 10
-0.204035
 20
7.85253
 30
5.88
 11
-0.224137
 21
7.862575
 31
5.88
  0
LINE
  5
630
100
AcDbEntity
  8
0
100
AcDbLine
 10
-0.183933
 20
7.847506
 30
5.88
 11
-0.204035
 21
7.85253
 31
5.88
  0
LINE
  5
631
100
AcDbEntity
  8
0
100
AcDbLine
 10
-0.073371
 20
7.85193
 30
5.88
 11
-0.083422
 21
7.826816
 31
5.88
  0
LINE
  5
632
100
AcDbEntity
  8
0
100
AcDbLine
 10
-0.083422
 20
7.826816
 30
5.88
 11
-0.098498
 21
7.806723
 31
5.88
  0
LINE
  5
633
100
AcDbEntity
  8
0
100
AcDbLine
 10
-0.103525
 20
7.952991
 30
5.88
 11
-0.098498
 21
7.932898
 31
5.88
  0
LINE
  5
634
100
AcDbEntity
  8
0
100
AcDbLine
 10
-0.068345
 20
7.877046
 30
5.88
 11
-0.073371
 21
7.85193
 31
5.88
  0
LINE
  5
635
100
AcDbEntity
  8
0
100
AcDbLine
 10
-0.098498
 20
7.932898
 30
5.88
 11
-0.098498
 21
7.912806
 31
5.88
  0
LINE
  5
636
100
AcDbEntity
  8
0
100
AcDbLine
 10
0.085215
 20
8.368034
 30
5.88
 11
-0.693747
 21
8.368034
 31
5.88
  0
LINE
  5
637
100
AcDbEntity
  8
0
100
AcDbLine
 10
-0.693747
 20
8.769875
 30
5.88
 11
0.085215
 21
8.769875
 31
5.88
  0
LINE
  5
638
100
AcDbEntity
  8
0
100
AcDbLine
 10
-0.693747
 20
8.368034
 30
5.88
 11
-0.693747
 21
8.769875
 31
5.88
  0
POLYLINE
  5
639
100
AcDbEntity
  8
0
100
AcDbPolygonMesh
 66
     1
 10
0.0
 20
0.0
 30
0.0
 70
    16
 71
     6
 72
     3
  0
VERTEX
  5
63A
100
AcDbEntity
  8
0
100
AcDbVertex
100
AcDbPolygonMeshVertex
 10
0.265
 20
9.0811
 30
5.837
 70
    64
  0
VERTEX
  5
63B
100
AcDbEntity
  8
0
100
AcDbVertex
100
AcDbPolygonMeshVertex
 10
0.265
 20
9.0811
 30
5.747
 70
    64
  0
VERTEX
  5
63C
100
AcDbEntity
  8
0
100
AcDbVertex
100
AcDbPolygonMeshVertex
 10
0.265
 20
9.0811
 30
5.747
 70
    64
  0
VERTEX
  5
63D
100
AcDbEntity
  8
0
100
AcDbVertex
100
AcDbPolygonMeshVertex
 10
-0.197
 20
9.0811
 30
5.837
 70
    64
  0
VERTEX
  5
63E
100
AcDbEntity
  8
0
100
AcDbVertex
100
AcDbPolygonMeshVertex
 10
-0.197
 20
9.0811
 30
5.747
 70
    64
  0
VERTEX
  5
63F
100
AcDbEntity
  8
0
100
AcDbVertex
100
AcDbPolygonMeshVertex
 10
-0.197
 20
9.0811
 30
5.747
 70
    64
  0
VERTEX
  5
640
100
AcDbEntity
  8
0
100
AcDbVertex
100
AcDbPolygonMeshVertex
 10
-0.197
 20
10.0432
 30
5.837
 70
    64
  0
VERTEX
  5
641
100
AcDbEntity
  8
0
100
AcDbVertex
100
AcDbPolygonMeshVertex
 10
-0.197
 20
10.0432
 30
5.747
 70
    64
  0
VERTEX
  5
642
100
AcDbEntity
  8
0
100
AcDbVertex
100
AcDbPolygonMeshVertex
 10
-0.197
 20
9.0811
 30
5.747
 70
    64
  0
VERTEX
  5
643
100
AcDbEntity
  8
0
100
AcDbVertex
100
AcDbPolygonMeshVertex
 10
0.265
 20
10.0432
 30
5.837
 70
    64
  0
VERTEX
  5
644
100
AcDbEntity
  8
0
100
AcDbVertex
100
AcDbPolygonMeshVertex
 10
0.265
 20
10.0432
 30
5.747
 70
    64
  0
VERTEX
  5
645
100
AcDbEntity
  8
0
100
AcDbVertex
100
AcDbPolygonMeshVertex
 10
0.265
 20
9.0811
 30
5.747
 70
    64
  0
VERTEX
  5
646
100
AcDbEntity
  8
0
100
AcDbVertex
100
AcDbPolygonMeshVertex
 10
0.265
 20
10.0432
 30
5.837
 70
    64
  0
VERTEX
  5
647
100
AcDbEntity
  8
0
100
AcDbVertex
100
AcDbPolygonMeshVertex
 10
0.265
 20
10.0432
 30
5.837
 70
    64
  0
VERTEX
  5
648
100
AcDbEntity
  8
0
100
AcDbVertex
100
AcDbPolygonMeshVertex
 10
0.265
 20
9.0811
 30
5.837
 70
    64
  0
VERTEX
  5
649
100
AcDbEntity
  8
0
100
AcDbVertex
100
AcDbPolygonMeshVertex
 10
-0.197
 20
10.0432
 30
5.837
 70
    64
  0
VERTEX
  5
64A
100
AcDbEntity
  8
0
100
AcDbVertex
100
AcDbPolygonMeshVertex
 10
-0.197
 20
10.0432
 30
5.837
 70
    64
  0
VERTEX
  5
64B
100
AcDbEntity
  8
0
100
AcDbVertex
100
AcDbPolygonMeshVertex
 10
-0.197
 20
9.0811
 30
5.837
 70
    64
  0
SEQEND
  5
64C
100
AcDbEntity
  8
0
  0
POLYLINE
  5
64D
100
AcDbEntity
  8
0
100
AcDbPolygonMesh
 66
     1
 10
0.0
 20
0.0
 30
0.0
 70
    16
 71
     6
 72
     3
  0
VERTEX
  5
64E
100
AcDbEntity
  8
0
100
AcDbVertex
100
AcDbPolygonMeshVertex
 10
0.068
 20
8.912
 30
5.747
 70
    64
  0
VERTEX
  5
64F
100
AcDbEntity
  8
0
100
AcDbVertex
100
AcDbPolygonMeshVertex
 10
0.068
 20
8.912
 30
5.39
 70
    64
  0
VERTEX
  5
650
100
AcDbEntity
  8
0
100
AcDbVertex
100
AcDbPolygonMeshVertex
 10
0.068
 20
8.912
 30
5.39
 70
    64
  0
VERTEX
  5
651
100
AcDbEntity
  8
0
100
AcDbVertex
100
AcDbPolygonMeshVertex
 10
0.0
 20
8.912
 30
5.747
 70
    64
  0
VERTEX
  5
652
100
AcDbEntity
  8
0
100
AcDbVertex
100
AcDbPolygonMeshVertex
 10
0.0
 20
8.912
 30
5.39
 70
    64
  0
VERTEX
  5
653
100
AcDbEntity
  8
0
100
AcDbVertex
100
AcDbPolygonMeshVertex
 10
0.0
 20
8.912
 30
5.39
 70
    64
  0
VERTEX
  5
654
100
AcDbEntity
  8
0
100
AcDbVertex
100
AcDbPolygonMeshVertex
 10
0.0
 20
9.6931
 30
5.747
 70
    64
  0
VERTEX
  5
655
100
AcDbEntity
  8
0
100
AcDbVertex
100
AcDbPolygonMeshVertex
 10
0.0
 20
9.6931
 30
5.39
 70
    64
  0
VERTEX
  5
656
100
AcDbEntity
  8
0
100
AcDbVertex
100
AcDbPolygonMeshVertex
 10
0.0
 20
8.912
 30
5.39
 70
    64
  0
VERTEX
  5
657
100
AcDbEntity
  8
0
100
AcDbVertex
100
AcDbPolygonMeshVertex
 10
0.068
 20
9.6931
 30
5.747
 70
    64
  0
VERTEX
  5
658
100
AcDbEntity
  8
0
100
AcDbVertex
100
AcDbPolygonMeshVertex
 10
0.068
 20
9.6931
 30
5.39
 70
    64
  0
VERTEX
  5
659
100
AcDbEntity
  8
0
100
AcDbVertex
100
AcDbPolygonMeshVertex
 10
0.068
 20
8.912
 30
5.39
 70
    64
  0
VERTEX
  5
65A
100
AcDbEntity
  8
0
100
AcDbVertex
100
AcDbPolygonMeshVertex
 10
0.068
 20
9.6931
 30
5.747
 70
    64
  0
VERTEX
  5
65B
100
AcDbEntity
  8
0
100
AcDbVertex
100
AcDbPolygonMeshVertex
 10
0.068
 20
9.6931
 30
5.747
 70
    64
  0
VERTEX
  5
65C
100
AcDbEntity
  8
0
100
AcDbVertex
100
AcDbPolygonMeshVertex
 10
0.068
 20
8.912
 30
5.747
 70
    64
  0
VERTEX
  5
65D
100
AcDbEntity
  8
0
100
AcDbVertex
100
AcDbPolygonMeshVertex
 10
0.0
 20
9.6931
 30
5.747
 70
    64
  0
VERTEX
  5
65E
100
AcDbEntity
  8
0
100
AcDbVertex
100
AcDbPolygonMeshVertex
 10
0.0
 20
9.6931
 30
5.747
 70
    64
  0
VERTEX
  5
65F
100
AcDbEntity
  8
0
100
AcDbVertex
100
AcDbPolygonMeshVertex
 10
0.0
 20
8.912
 30
5.747
 70
    64
  0
SEQEND
  5
660
100
AcDbEntity
  8
0
  0
POLYLINE
  5
661
100
AcDbEntity
  8
0
100
AcDbPolygonMesh
 66
     1
 10
0.0
 20
0.0
 30
0.0
 70
    16
 71
     6
 72
     3
  0
VERTEX
  5
662
100
AcDbEntity
  8
0
100
AcDbVertex
100
AcDbPolygonMeshVertex
 10
0.136
 20
9.0811
 30
5.747
 70
    64
  0
VERTEX
  5
663
100
AcDbEntity
  8
0
100
AcDbVertex
100
AcDbPolygonMeshVertex
 10
0.136
 20
9.0811
 30
5.747
 70
    64
  0
VERTEX
  5
664
100
AcDbEntity
  8
0
100
AcDbVertex
100
AcDbPolygonMeshVertex
 10
0.136
 20
9.0811
 30
5.747
 70
    64
  0
VERTEX
  5
665
100
AcDbEntity
  8
0
100
AcDbVertex
100
AcDbPolygonMeshVertex
 10
0.136
 20
9.6931
 30
5.437
 70
    64
  0
VERTEX
  5
666
100
AcDbEntity
  8
0
100
AcDbVertex
100
AcDbPolygonMeshVertex
 10
0.136
 20
9.6931
 30
5.747
 70
    64
  0
VERTEX
  5
667
100
AcDbEntity
  8
0
100
AcDbVertex
100
AcDbPolygonMeshVertex
 10
0.136
 20
9.6931
 30
5.747
 70
    64
  0
VERTEX
  5
668
100
AcDbEntity
  8
0
100
AcDbVertex
100
AcDbPolygonMeshVertex
 10
0.068
 20
9.6931
 30
5.437
 70
    64
  0
VERTEX
  5
669
100
AcDbEntity
  8
0
100
AcDbVertex
100
AcDbPolygonMeshVertex
 10
0.068
 20
9.6931
 30
5.747
 70
    64
  0
VERTEX
  5
66A
100
AcDbEntity
  8
0
100
AcDbVertex
100
AcDbPolygonMeshVertex
 10
0.136
 20
9.6931
 30
5.747
 70
    64
  0
VERTEX
  5
66B
100
AcDbEntity
  8
0
100
AcDbVertex
100
AcDbPolygonMeshVertex
 10
0.068
 20
9.0811
 30
5.747
 70
    64
  0
VERTEX
  5
66C
100
AcDbEntity
  8
0
100
AcDbVertex
100
AcDbPolygonMeshVertex
 10
0.068
 20
9.0811
 30
5.747
 70
    64
  0
VERTEX
  5
66D
100
AcDbEntity
  8
0
100
AcDbVertex
100
AcDbPolygonMeshVertex
 10
0.136
 20
9.0811
 30
5.747
 70
    64
  0
VERTEX
  5
66E
100
AcDbEntity
  8
0
100
AcDbVertex
100
AcDbPolygonMeshVertex
 10
0.068
 20
9.0811
 30
5.747
 70
    64
  0
VERTEX
  5
66F
100
AcDbEntity
  8
0
100
AcDbVertex
100
AcDbPolygonMeshVertex
 10
0.068
 20
9.0811
 30
5.747
 70
    64
  0
VERTEX
  5
670
100
AcDbEntity
  8
0
100
AcDbVertex
100
AcDbPolygonMeshVertex
 10
0.136
 20
9.0811
 30
5.747
 70
    64
  0
VERTEX
  5
671
100
AcDbEntity
  8
0
100
AcDbVertex
100
AcDbPolygonMeshVertex
 10
0.068
 20
9.6931
 30
5.437
 70
    64
  0
VERTEX
  5
672
100
AcDbEntity
  8
0
100
AcDbVertex
100
AcDbPolygonMeshVertex
 10
0.068
 20
9.6931
 30
5.437
 70
    64
  0
VERTEX
  5
673
100
AcDbEntity
  8
0
100
AcDbVertex
100
AcDbPolygonMeshVertex
 10
0.136
 20
9.6931
 30
5.437
 70
    64
  0
SEQEND
  5
674
100
AcDbEntity
  8
0
  0
POLYLINE
  5
675
100
AcDbEntity
  8
0
100
AcDbPolygonMesh
 66
     1
 10
0.0
 20
0.0
 30
0.0
 70
    16
 71
     6
 72
     3
  0
VERTEX
  5
676
100
AcDbEntity
  8
0
100
AcDbVertex
100
AcDbPolygonMeshVertex
 10
0.0
 20
9.0811
 30
5.747
 70
    64
  0
VERTEX
  5
677
100
AcDbEntity
  8
0
100
AcDbVertex
100
AcDbPolygonMeshVertex
 10
0.0
 20
9.0811
 30
5.747
 70
    64
  0
VERTEX
  5
678
100
AcDbEntity
  8
0
100
AcDbVertex
100
AcDbPolygonMeshVertex
 10
0.0
 20
9.0811
 30
5.747
 70
    64
  0
VERTEX
  5
679
100
AcDbEntity
  8
0
100
AcDbVertex
100
AcDbPolygonMeshVertex
 10
0.0
 20
9.6931
 30
5.437
 70
    64
  0
VERTEX
  5
67A
100
AcDbEntity
  8
0
100
AcDbVertex
100
AcDbPolygonMeshVertex
 10
0.0
 20
9.6931
 30
5.747
 70
    64
  0
VERTEX
  5
67B
100
AcDbEntity
  8
0
100
AcDbVertex
100
AcDbPolygonMeshVertex
 10
0.0
 20
9.6931
 30
5.747
 70
    64
  0
VERTEX
  5
67C
100
AcDbEntity
  8
0
100
AcDbVertex
100
AcDbPolygonMeshVertex
 10
-0.068
 20
9.6931
 30
5.437
 70
    64
  0
VERTEX
  5
67D
100
AcDbEntity
  8
0
100
AcDbVertex
100
AcDbPolygonMeshVertex
 10
-0.068
 20
9.6931
 30
5.747
 70
    64
  0
VERTEX
  5
67E
100
AcDbEntity
  8
0
100
AcDbVertex
100
AcDbPolygonMeshVertex
 10
0.0
 20
9.6931
 30
5.747
 70
    64
  0
VERTEX
  5
67F
100
AcDbEntity
  8
0
100
AcDbVertex
100
AcDbPolygonMeshVertex
 10
-0.068
 20
9.0811
 30
5.747
 70
    64
  0
VERTEX
  5
680
100
AcDbEntity
  8
0
100
AcDbVertex
100
AcDbPolygonMeshVertex
 10
-0.068
 20
9.0811
 30
5.747
 70
    64
  0
VERTEX
  5
681
100
AcDbEntity
  8
0
100
AcDbVertex
100
AcDbPolygonMeshVertex
 10
0.0
 20
9.0811
 30
5.747
 70
    64
  0
VERTEX
  5
682
100
AcDbEntity
  8
0
100
AcDbVertex
100
AcDbPolygonMeshVertex
 10
-0.068
 20
9.0811
 30
5.747
 70
    64
  0
VERTEX
  5
683
100
AcDbEntity
  8
0
100
AcDbVertex
100
AcDbPolygonMeshVertex
 10
-0.068
 20
9.0811
 30
5.747
 70
    64
  0
VERTEX
  5
684
100
AcDbEntity
  8
0
100
AcDbVertex
100
AcDbPolygonMeshVertex
 10
0.0
 20
9.0811
 30
5.747
 70
    64
  0
VERTEX
  5
685
100
AcDbEntity
  8
0
100
AcDbVertex
100
AcDbPolygonMeshVertex
 10
-0.068
 20
9.6931
 30
5.437
 70
    64
  0
VERTEX
  5
686
100
AcDbEntity
  8
0
100
AcDbVertex
100
AcDbPolygonMeshVertex
 10
-0.068
 20
9.6931
 30
5.437
 70
    64
  0
VERTEX
  5
687
100
AcDbEntity
  8
0
100
AcDbVertex
100
AcDbPolygonMeshVertex
 10
0.0
 20
9.6931
 30
5.437
 70
    64
  0
SEQEND
  5
688
100
AcDbEntity
  8
0
  0
CIRCLE
  5
689
100
AcDbEntity
  8
0
100
AcDbCircle
 10
9.586379
 20
5.592
 30
0.136
 40
0.05206
210
1.0
220
0.0
230
0.0
  0
CIRCLE
  5
68A
100
AcDbEntity
  8
0
100
AcDbCircle
 10
9.586379
 20
5.592
 30
-0.068
 40
0.05206
210
1.0
220
0.0
230
0.0
  0
LINE
  5
68B
100
AcDbEntity
  8
0
100
AcDbLine
 10
-0.118602
 20
8.254372
 30
5.88
 11
-0.098498
 21
8.239304
 31
5.88
  0
LINE
  5
68C
100
AcDbEntity
  8
0
100
AcDbLine
 10
-0.108549
 20
8.168981
 30
5.88
 11
-0.103525
 21
8.148888
 31
5.88
  0
LINE
  5
68D
100
AcDbEntity
  8
0
100
AcDbLine
 10
-0.098498
 20
8.103682
 30
5.88
 11
-0.108549
 21
8.083589
 31
5.88
  0
TEXT
  5
68E
100
AcDbEntity
  8
0
100
AcDbText
 39
0.001
 10
-0.597436
 20
8.080748
 30
5.879973
 40
0.05
  1
RUN
 72
     1
 11
-0.53077
 21
8.080748
 31
5.879973
100
AcDbText
  0
LINE
  5
68F
100
AcDbEntity
  8
0
100
AcDbLine
 10
-0.138704
 20
8.269441
 30
5.88
 11
-0.118602
 21
8.254372
 31
5.88
  0
LINE
  5
690
100
AcDbEntity
  8
0
100
AcDbLine
 10
-0.239216
 20
8.254372
 30
5.88
 11
-0.214086
 21
8.269441
 31
5.88
  0
LINE
  5
691
100
AcDbEntity
  8
0
100
AcDbLine
 10
-0.244239
 20
8.174004
 30
5.88
 11
-0.229163
 21
8.189073
 31
5.88
  0
LINE
  5
692
100
AcDbEntity
  8
0
100
AcDbLine
 10
-0.284443
 20
8.168981
 30
5.88
 11
-0.284443
 21
8.194095
 31
5.88
  0
LINE
  5
693
100
AcDbEntity
  8
0
100
AcDbLine
 10
-0.284443
 20
8.194095
 30
5.88
 11
-0.274394
 21
8.219211
 31
5.88
  0
LINE
  5
694
100
AcDbEntity
  8
0
100
AcDbLine
 10
-0.274394
 20
8.219211
 30
5.88
 11
-0.259316
 21
8.239304
 31
5.88
  0
LINE
  5
695
100
AcDbEntity
  8
0
100
AcDbLine
 10
-0.259316
 20
8.239304
 30
5.88
 11
-0.239216
 21
8.254372
 31
5.88
  0
LINE
  5
696
100
AcDbEntity
  8
0
100
AcDbLine
 10
-0.259316
 20
8.153912
 30
5.88
 11
-0.244239
 21
8.174004
 31
5.88
  0
LINE
  5
697
100
AcDbEntity
  8
0
100
AcDbLine
 10
-0.264343
 20
8.128796
 30
5.88
 11
-0.259316
 21
8.153912
 31
5.88
  0
LINE
  5
698
100
AcDbEntity
  8
0
100
AcDbLine
 10
-0.244239
 20
8.068522
 30
5.88
 11
-0.25429
 21
8.088611
 31
5.88
  0
LINE
  5
699
100
AcDbEntity
  8
0
100
AcDbLine
 10
-0.25429
 20
8.088611
 30
5.88
 11
-0.259316
 21
8.108703
 31
5.88
  0
LINE
  5
69A
100
AcDbEntity
  8
0
100
AcDbLine
 10
-0.259316
 20
8.108703
 30
5.88
 11
-0.264343
 21
8.128796
 31
5.88
  0
LINE
  5
69B
100
AcDbEntity
  8
0
100
AcDbLine
 10
-0.229163
 20
8.189073
 30
5.88
 11
-0.209061
 21
8.199119
 31
5.88
  0
LINE
  5
69C
100
AcDbEntity
  8
0
100
AcDbLine
 10
-0.209061
 20
8.199119
 30
5.88
 11
-0.188959
 21
8.204142
 31
5.88
  0
LINE
  5
69D
100
AcDbEntity
  8
0
100
AcDbLine
 10
-0.188959
 20
8.204142
 30
5.88
 11
-0.163831
 21
8.204142
 31
5.88
  0
LINE
  5
69E
100
AcDbEntity
  8
0
100
AcDbLine
 10
-0.163831
 20
8.204142
 30
5.88
 11
-0.143729
 21
8.199119
 31
5.88
  0
LINE
  5
69F
100
AcDbEntity
  8
0
100
AcDbLine
 10
-0.143729
 20
8.199119
 30
5.88
 11
-0.123626
 21
8.18405
 31
5.88
  0
LINE
  5
6A0
100
AcDbEntity
  8
0
100
AcDbLine
 10
-0.123626
 20
8.18405
 30
5.88
 11
-0.108549
 21
8.168981
 31
5.88
  0
LINE
  5
6A1
100
AcDbEntity
  8
0
100
AcDbLine
 10
-0.108549
 20
8.083589
 30
5.88
 11
-0.123626
 21
8.063497
 31
5.88
  0
LINE
  5
6A2
100
AcDbEntity
  8
0
100
AcDbLine
 10
-0.214086
 20
8.269441
 30
5.88
 11
-0.188959
 21
8.274465
 31
5.88
  0
LINE
  5
6A3
100
AcDbEntity
  8
0
100
AcDbLine
 10
-0.188959
 20
8.274465
 30
5.88
 11
-0.163831
 21
8.274465
 31
5.88
  0
LINE
  5
6A4
100
AcDbEntity
  8
0
100
AcDbLine
 10
-0.163831
 20
8.274465
 30
5.88
 11
-0.138704
 21
8.269441
 31
5.88
  0
TEXT
  5
6A5
100
AcDbEntity
  8
0
100
AcDbText
 39
0.001
 10
-0.439781
 20
8.494051
 30
5.879973
 40
0.05
  1
MODULE
 72
     1
 11
-0.298115
 21
8.494051
 31
5.879973
100
AcDbText
  0
TEXT
  5
6A6
100
AcDbEntity
  8
0
100
AcDbText
 39
0.001
 10
-0.498115
 20
8.669051
 30
5.879973
 40
0.05
  1
TC / MV
 72
     1
 11
-0.323115
 21
8.669051
 31
5.879973
100
AcDbText
  0
LINE
  5
6A7
100
AcDbEntity
  8
0
100
AcDbLine
 10
0.085215
 20
8.769875
 30
5.88
 11
0.085215
 21
8.368034
 31
5.88
  0
LINE
  5
6A8
100
AcDbEntity
  8
0
100
AcDbLine
 10
-0.098498
 20
8.239304
 30
5.88
 11
-0.083422
 21
8.219211
 31
5.88
  0
LINE
  5
6A9
100
AcDbEntity
  8
0
100
AcDbLine
 10
-0.083422
 20
8.219211
 30
5.88
 11
-0.073371
 21
8.194095
 31
5.88
  0
LINE
  5
6AA
100
AcDbEntity
  8
0
100
AcDbLine
 10
-0.073371
 20
8.194095
 30
5.88
 11
-0.068345
 21
8.168981
 31
5.88
  0
LINE
  5
6AB
100
AcDbEntity
  8
0
100
AcDbLine
 10
-0.098498
 20
8.123772
 30
5.88
 11
-0.098498
 21
8.103682
 31
5.88
  0
LINE
  5
6AC
100
AcDbEntity
  8
0
100
AcDbLine
 10
-0.103525
 20
8.148888
 30
5.88
 11
-0.098498
 21
8.123772
 31
5.88
  0
DIMENSION
  5
6AD
100
AcDbEntity
  8
AREA1
100
AcDbDimension
  2
*D0
 10
1.269431
 20
10.0432
 30
0.0
 11
1.269431
 21
4.740327
 31
0.0
 70
    32
  3
ABECAD_3D
100
AcDbAlignedDimension
 13
-0.226368
 23
-0.562545
 33
5.88
 14
0.265
 24
10.0432
 34
5.747
 50
90.0
100
AcDbRotatedDimension
  0
DIMENSION
  5
6AE
100
AcDbEntity
  8
AREA1
100
AcDbDimension
  2
*D1
 10
0.3275
 20
10.955113
 30
0.0
 11
1.6775
 21
10.955113
 31
0.0
 70
    32
  3
ABECAD_3D
100
AcDbAlignedDimension
 13
-1.025435
 23
0.31539
 33
5.88
 14
0.3275
 24
10.0432
 34
0.0
100
AcDbRotatedDimension
  0
LINE
  5
6AF
100
AcDbEntity
  8
SCALE
100
AcDbLine
 10
-0.996419
 20
-1.438713
 30
0.0
 11
0.003581
 21
-1.438713
 31
0.0
  0
LINE
  5
6B0
100
AcDbEntity
  8
SCALE
100
AcDbLine
 10
0.003581
 20
-1.438713
 30
0.0
 11
0.003581
 21
-1.538713
 31
0.0
  0
LINE
  5
6B1
100
AcDbEntity
  8
SCALE
100
AcDbLine
 10
0.003581
 20
-1.538713
 30
0.0
 11
0.003581
 21
-1.338713
 31
0.0
  0
LINE
  5
6B2
100
AcDbEntity
  8
SCALE
100
AcDbLine
 10
-0.996419
 20
-1.538713
 30
0.0
 11
-0.996419
 21
-1.338713
 31
0.0
  0
LINE
  5
6B3
100
AcDbEntity
  8
SCALE
100
AcDbLine
 10
-0.996419
 20
-1.838713
 30
0.0
 11
-0.996419
 21
-1.638713
 31
0.0
  0
LINE
  5
6B4
100
AcDbEntity
  8
SCALE
100
AcDbLine
 10
-0.602719
 20
-1.838713
 30
0.0
 11
-0.602719
 21
-1.638713
 31
0.0
  0
LINE
  5
6B5
100
AcDbEntity
  8
SCALE
100
AcDbLine
 10
-0.996419
 20
-1.738713
 30
0.0
 11
-0.602719
 21
-1.738713
 31
0.0
  0
TEXT
  5
6B6
100
AcDbEntity
  8
SCALE
100
AcDbText
 10
-0.936997
 20
-1.692974
 30
0.0
 40
0.0625
  1
[10mm]
100
AcDbText
  0
TEXT
  5
6B7
100
AcDbEntity
  8
SCALE
100
AcDbText
 10
-0.633136
 20
-1.369665
 30
0.0
 40
0.0625
  1
1 Inch
100
AcDbText
  0
TEXT
  5
6B8
100
AcDbEntity
  8
SCALE
100
AcDbText
 10
-0.994889
 20
-1.163836
 30
0.0
 40
0.0625
  1
SCALE:
100
AcDbText
  0
LWPOLYLINE
  5
6B9
100
AcDbEntity
  8
SCALE
100
AcDbPolyline
 90
        4
 70
     1
 43
0.0
 10
-1.054418
 20
-1.058635
 10
0.081211
 20
-1.058635
 10
0.081211
 20
-1.900245
 10
-1.054418
 20
-1.900245
  0
ENDBLK
  5
6BB
100
AcDbEntity
  8
0
100
AcDbBlockEnd
  0
BLOCK
  5
6D3
100
AcDbEntity
  8
0
100
AcDbBlockBegin
  2
*D3
 70
     1
 10
0.0
 20
0.0
 30
0.0
  3
*D3
  1

  0
LINE
  5
6C9
100
AcDbEntity
  8
AREA2
 62
     0
100
AcDbLine
 10
-0.9525
 20
5.88
 30
0.0
 11
-2.011509
 21
5.88
 31
0.0
1001
ACAD
1000
RTLwPs
1070
   158
  0
LINE
  5
6CA
100
AcDbEntity
  8
AREA2
 62
     0
100
AcDbLine
 10
-0.9525
 20
0.0
 30
0.0
 11
-2.011509
 21
0.0
 31
0.0
1001
ACAD
1000
RTLwPs
1070
   158
  0
LINE
  5
6CB
100
AcDbEntity
  8
AREA2
 62
     0
100
AcDbLine
 10
-1.831822
 20
5.700313
 30
0.0
 11
-1.831822
 21
3.72125
 31
0.0
1001
ACAD
1000
RTLwPs
1070
   158
  0
LINE
  5
6CC
100
AcDbEntity
  8
AREA2
 62
     0
100
AcDbLine
 10
-1.831822
 20
0.179688
 30
0.0
 11
-1.831822
 21
2.15875
 31
0.0
1001
ACAD
1000
RTLwPs
1070
   158
  0
SOLID
  5
6CD
100
AcDbEntity
  8
AREA2
 62
     0
100
AcDbTrace
 10
-1.86177
 20
5.700313
 30
0.0
 11
-1.801874
 21
5.700313
 31
0.0
 12
-1.831822
 22
5.88
 32
0.0
 13
-1.831822
 23
5.88
 33
0.0
  0
SOLID
  5
6CE
100
AcDbEntity
  8
AREA2
 62
     0
100
AcDbTrace
 10
-1.86177
 20
0.179688
 30
0.0
 11
-1.801874
 21
0.179688
 31
0.0
 12
-1.831822
 22
0.0
 32
0.0
 13
-1.831822
 23
0.0
 33
0.0
  0
MTEXT
  5
6CF
100
AcDbEntity
  8
AREA2
 62
     0
100
AcDbMText
 10
-1.831822
 20
2.94
 30
0.0
 40
0.125
 41
0.0
 71
     5
 72
     1
  1
\A1;5 7/8 [149.4]
 11
0.0
 21
1.0
 31
0.0
1001
ACAD
1000
MTEXTBEGIN
1070
    73
1070
     1
1070
    44
1040
1.0
1070
    74
1070
     0
1000
MTEXTEND
1000
MTEXTBEGIN
1070
    73
1070
     1
1070
    44
1040
1.0
1070
    74
1070
     0
1000
MTEXTEND
1000
MTEXTBEGIN
1070
    73
1070
     1
1070
    44
1040
1.0
1070
    74
1070
     0
1000
MTEXTEND
1000
MTEXTBEGIN
1070
    73
1070
     1
1070
    44
1040
1.0
1070
    74
1070
     0
1000
MTEXTEND
  0
POINT
  5
6D0
100
AcDbEntity
  8
DEFPOINTS
 62
     0
100
AcDbPoint
 10
-0.89
 20
5.88
 30
-0.2
  0
POINT
  5
6D1
100
AcDbEntity
  8
DEFPOINTS
 62
     0
100
AcDbPoint
 10
-0.89
 20
0.0
 30
-0.2
  0
POINT
  5
6D2
100
AcDbEntity
  8
DEFPOINTS
 62
     0
100
AcDbPoint
 10
-1.831822
 20
0.0
 30
0.0
  0
ENDBLK
  5
6D4
100
AcDbEntity
  8
0
100
AcDbBlockEnd
  0
ENDSEC
  0
SECTION
  2
ENTITIES
  0
INSERT
  5
6BC
100
AcDbEntity
  8
0
100
AcDbBlockReference
 66
     1
  2
ABIOE580
 10
0.0
 20
0.0
 30
0.0
  0
ATTRIB
  5
6BD
100
AcDbEntity
  8
ATTRIBUTES
100
AcDbText
 10
-0.634606
 20
1.390909
 30
0.0
 40
0.06
  1
ALLEN-BRADLEY
100
AcDbAttribute
  2
AC_VND_LABEL
 70
     1
  0
ATTRIB
  5
6BE
100
AcDbEntity
  8
ATTRIBUTES
100
AcDbText
 10
-0.634606
 20
1.265909
 30
0.0
 40
0.06
  1
1771-IXHR
100
AcDbAttribute
  2
AC_PART_NO
 70
     1
  0
ATTRIB
  5
6BF
100
AcDbEntity
  8
ATTRIBUTES
100
AcDbText
 10
-0.634606
 20
1.140909
 30
0.0
 40
0.06
  1
1771-IXHR:HIGH RES THERMOCOUPLE/MILLIVOLT INPUT MODULE, 8 T/C TYPE B,E,J,K,R,S,T
100
AcDbAttribute
  2
AC_DESCRIPTION
 70
     1
  0
ATTRIB
  5
6C0
100
AcDbEntity
  8
ATTRIBUTES
100
AcDbText
 10
-0.634606
 20
1.015909
 30
0.0
 40
0.06
  1

100
AcDbAttribute
  2
DEVICE_ID
 70
     1
  0
ATTRIB
  5
6C1
100
AcDbEntity
  8
ATTRIBUTES
100
AcDbText
 10
-0.634606
 20
0.890909
 30
0.0
 40
0.06
  1

100
AcDbAttribute
  2
AC_CPART_NO
 70
     1
  0
ATTRIB
  5
6C2
100
AcDbEntity
  8
ATTRIBUTES
100
AcDbText
 10
-0.634606
 20
0.765909
 30
0.0
 40
0.06
  1

100
AcDbAttribute
  2
AC_NOTE
 70
     1
  0
ATTRIB
  5
6C3
100
AcDbEntity
  8
ATTRIBUTES
100
AcDbText
 10
-0.634606
 20
0.640909
 30
0.0
 40
0.06
  1

100
AcDbAttribute
  2
FASTENER
 70
     1
  0
ATTRIB
  5
6C4
100
AcDbEntity
  8
ATTRIBUTES
100
AcDbText
 10
-0.634606
 20
0.515909
 30
0.0
 40
0.06
  1
INCH
100
AcDbAttribute
  2
AC_SCALE_UNIT
 70
     1
  0
ATTRIB
  5
6C5
100
AcDbEntity
  8
ATTRIBUTES
100
AcDbText
 10
-0.634606
 20
0.390909
 30
0.0
 40
0.06
  1
0
100
AcDbAttribute
  2
AC_VIEW_CODE
 70
     1
  0
SEQEND
  5
6C6
100
AcDbEntity
  8
0
  0
DIMENSION
  5
6C7
100
AcDbEntity
  8
AREA2
100
AcDbDimension
  2
*D3
 10
-1.831822
 20
0.0
 30
0.0
 11
-1.831822
 21
2.94
 31
0.0
 70
    32
210
0.0
220
-1.0
230
0.0
  3
ABECAD_3V
100
AcDbAlignedDimension
 13
-0.89
 23
0.2
 33
5.88
 14
-0.89
 24
0.2
 34
0.0
 50
90.0
100
AcDbRotatedDimension
1001
ACAD
1000
DSTYLE
1002
{
1070
    40
1040
1.0
1002
}
  0
VIEWPORT
  5
2C
102
{ACAD_XDICTIONARY
360
7AF
102
}
100
AcDbEntity
 67
     1
  8
0
100
AcDbViewport
 10
4.999849
 20
3.750155
 30
0.0
 40
14.252802
 41
7.600366
 68
     1
 69
     1
1001
ACAD
1000
MVIEW
1002
{
1070
    16
1010
0.0
1020
0.0
1030
0.0
1010
0.0
1020
0.0
1030
1.0
1040
0.0
1040
7.600366
1040
4.999849
1040
3.750155
1040
50.0
1040
0.0
1040
0.0
1070
     0
1070
   100
1070
     1
1070
     1
1070
     0
1070
     0
1070
     0
1070
     0
1040
0.0
1040
0.0
1040
0.0
1040
1.0
1040
1.0
1040
0.0
1040
0.0
1070
     0
1002
{
1002
}
1002
}
  0
VIEWPORT
  5
2D
102
{ACAD_XDICTIONARY
360
7B1
102
}
100
AcDbEntity
 67
     1
  8
0
100
AcDbViewport
 10
2.5
 20
5.625
 30
0.0
 40
5.0
 41
3.75
 68
     4
 69
     2
1001
ACAD
1000
MVIEW
1002
{
1070
    16
1010
0.0
1020
0.0
1030
0.0
1010
0.0
1020
0.0
1030
1.0
1040
0.0
1040
13.632397
1040
0.372995
1040
4.617434
1040
50.0
1040
0.0
1040
0.0
1070
     0
1070
   100
1070
     1
1070
     0
1070
     0
1070
     0
1070
     0
1070
     0
1040
0.0
1040
0.0
1040
0.0
1040
1.0
1040
1.0
1040
0.0
1040
0.0
1070
     0
1002
{
1003
AREA2
1002
}
1002
}
  0
VIEWPORT
  5
2E
102
{ACAD_XDICTIONARY
360
7B3
102
}
100
AcDbEntity
 67
     1
  8
0
100
AcDbViewport
 10
2.5
 20
1.875
 30
0.0
 40
5.0
 41
3.75
 68
     3
 69
     3
1001
ACAD
1000
MVIEW
1002
{
1070
    16
1010
0.0
1020
0.0
1030
0.0
1010
0.0
1020
-1.0
1030
0.0
1040
0.0
1040
10.489873
1040
0.372995
1040
2.940487
1040
50.0
1040
0.0
1040
0.0
1070
     0
1070
   100
1070
     1
1070
     0
1070
     0
1070
     0
1070
     0
1070
     0
1040
0.0
1040
0.0
1040
0.0
1040
1.0
1040
1.0
1040
0.0
1040
0.0
1070
     0
1002
{
1003
AREA1
1002
}
1002
}
  0
VIEWPORT
  5
2F
102
{ACAD_XDICTIONARY
360
7B5
102
}
100
AcDbEntity
 67
     1
  8
0
100
AcDbViewport
 10
7.5
 20
3.75
 30
0.0
 40
5.0
 41
7.5
 68
     2
 69
     4
1001
ACAD
1000
MVIEW
1002
{
1070
    16
1010
0.0
1020
0.0
1030
0.0
1010
-1.0
1020
-1.0
1030
1.0
1040
0.0
1040
14.559739
1040
-3.807867
1040
6.337739
1040
50.0
1040
0.0
1040
0.0
1070
     0
1070
   100
1070
     1
1070
     0
1070
     0
1070
     0
1070
     0
1070
     0
1040
0.0
1040
0.0
1040
0.0
1040
1.0
1040
1.0
1040
0.0
1040
0.0
1070
     0
1002
{
1003
AREA1
1003
AREA2
1002
}
1002
}
  0
TEXT
  5
42D
100
AcDbEntity
 67
     1
  8
0
100
AcDbText
 10
5.253785
 20
7.092701
 30
0.0
 40
0.2
  1
1771-IXHR
100
AcDbText
  0
TEXT
  5
431
100
AcDbEntity
 67
     1
  8
0
100
AcDbText
 10
5.253785
 20
6.759368
 30
0.0
 40
0.2
  1
1771-IXHR:HIGH RES
100
AcDbText
1001
ACAD
1000
R13OBJECT
1002
{
1005
42D
1002
}
  0
TEXT
  5
52E
100
AcDbEntity
 67
     1
  8
0
100
AcDbText
 10
5.240015
 20
6.436423
 30
0.0
 40
0.2
  1
THERMOCOUPLE/MILIVOLT
100
AcDbText
  0
TEXT
  5
52F
100
AcDbEntity
 67
     1
  8
0
100
AcDbText
 10
5.240015
 20
6.10309
 30
0.0
 40
0.2
  1
INPUT MODULE, 8 T/C TYPE
100
AcDbText
  0
TEXT
  5
530
100
AcDbEntity
 67
     1
  8
0
100
AcDbText
 10
5.240015
 20
5.769757
 30
0.0
 40
0.2
  1
B,E,J,K,R,S,T
100
AcDbText
  0
ENDSEC
  0
SECTION
  2
OBJECTS
  0
DICTIONARY
  5
46D
100
AcDbDictionary
  3
ACAD_GROUP
350
46E
  3
ACAD_LAYOUT
350
49E
  3
ACAD_MLINESTYLE
350
47B
  3
ACAD_PLOTSETTINGS
350
49F
  3
ACAD_PLOTSTYLENAME
350
49C
  3
ACDBHEADERROUNDTRIPXREC
350
78E
  3
ACDBVARIABLEDICTIONARY
350
48D
  0
DICTIONARY
  5
78C
100
AcDbDictionary
280
     1
  3
ACAD_XREC_ROUNDTRIP
360
78D
  0
DICTIONARY
  5
7B9
100
AcDbDictionary
280
     1
  3
ACAD_XREC_ROUNDTRIP
360
7BA
  0
DICTIONARY
  5
7BB
100
AcDbDictionary
280
     1
  3
ACAD_XREC_ROUNDTRIP
360
7BC
  0
DICTIONARY
  5
7BD
100
AcDbDictionary
280
     1
  3
ACAD_XREC_ROUNDTRIP
360
7BE
  0
DICTIONARY
  5
7C1
100
AcDbDictionary
280
     1
  3
ACAD_XREC_ROUNDTRIP
360
7C2
  0
DICTIONARY
  5
4D2
100
AcDbDictionary
280
     1
  3
ACAD_LAYOUTSELFREF
360
7B8
  0
DICTIONARY
  5
4D0
100
AcDbDictionary
280
     1
  3
ACAD_LAYOUTSELFREF
360
7B7
  0
DICTIONARY
  5
78A
100
AcDbDictionary
280
     1
  3
ACAD_XREC_ROUNDTRIP
360
78B
  0
DICTIONARY
  5
7AF
100
AcDbDictionary
280
     1
  3
ACAD_XREC_ROUNDTRIP
360
7B0
  0
DICTIONARY
  5
7B1
100
AcDbDictionary
280
     1
  3
ACAD_XREC_ROUNDTRIP
360
7B2
  0
DICTIONARY
  5
7B3
100
AcDbDictionary
280
     1
  3
ACAD_XREC_ROUNDTRIP
360
7B4
  0
DICTIONARY
  5
7B5
100
AcDbDictionary
280
     1
  3
ACAD_XREC_ROUNDTRIP
360
7B6
  0
DICTIONARY
  5
46E
102
{ACAD_REACTORS
330
46D
102
}
100
AcDbDictionary
  0
DICTIONARY
  5
49E
102
{ACAD_XDICTIONARY
360
7BF
102
}
102
{ACAD_REACTORS
330
46D
102
}
100
AcDbDictionary
  3
LAYOUT1
350
4A1
  3
MODEL
350
4A0
  0
DICTIONARY
  5
47B
102
{ACAD_REACTORS
330
46D
102
}
100
AcDbDictionary
  3
STANDARD
350
47C
  0
DICTIONARY
  5
49F
102
{ACAD_REACTORS
330
46D
102
}
100
AcDbDictionary
  0
ACAD_PROXY_OBJECT
  5
49C
102
{ACAD_REACTORS
330
46D
102
}
100
AcDbProxyObject
 90
      499
 91
      501
 93
       86
310
405010041939BDC9B585B0
350
49D
340
49D
 94
        0
  0
DICTIONARY
  5
78E
102
{ACAD_REACTORS
330
46D
102
}
100
AcDbDictionary
  3
CEPSNTYPE
350
798
  3
DIMSTYLEDATA
350
79C
  3
FINGERPRINTGUID
350
799
  3
HYPERLINKBASE
350
791
  3
INSUNITS
350
797
  3
LAYOUTDICT
350
793
  3
LWETCUNION
350
796
  3
PLOTSETDICT
350
794
  3
PLOTSTYLNAMDICT
350
795
  3
PSVPSCALE
350
79B
  3
PUCSBASE
350
79F
  3
PUCSORGBACK
350
7A5
  3
PUCSORGBOTTOM
350
7A1
  3
PUCSORGFRONT
350
7A4
  3
PUCSORGLEFT
350
7A2
  3
PUCSORGRIGHT
350
7A3
  3
PUCSORGTOP
350
7A0
  3
PUCSORTHOREF
350
79D
  3
PUCSORTHOVIEW
350
79E
  3
STYLESHEET
350
792
  3
TSTACKALIGN
350
78F
  3
TSTACKSIZE
350
790
  3
UCSBASE
350
7A8
  3
UCSORGBACK
350
7AE
  3
UCSORGBOTTOM
350
7AA
  3
UCSORGFRONT
350
7AD
  3
UCSORGLEFT
350
7AB
  3
UCSORGRIGHT
350
7AC
  3
UCSORGTOP
350
7A9
  3
UCSORTHOREF
350
7A6
  3
UCSORTHOVIEW
350
7A7
  3
VERSIONGUID
350
79A
  0
DICTIONARY
  5
48D
102
{ACAD_REACTORS
330
46D
102
}
100
AcDbDictionary
  3
DIMADEC
350
48E
  0
XRECORD
  5
78D
102
{ACAD_REACTORS
330
78C
102
}
100
AcDbXrecord
102
EXTNAMES
  1
*ACTIVE
  2
*Active
102
UCS
 74
     0
 71
     1
 10
0.0
 20
0.0
 30
0.0
 10
1.0
 20
0.0
 30
0.0
 10
0.0
 20
1.0
 30
0.0
146
0.0
 79
     1
102
VIEW
281
     0
  0
XRECORD
  5
7BA
102
{ACAD_REACTORS
330
7B9
102
}
100
AcDbXrecord
102
PLOTBIT
280
     0
  0
XRECORD
  5
7BC
102
{ACAD_REACTORS
330
7BB
102
}
100
AcDbXrecord
102
ACADR14ROUNDTRIP
1000
DSTYLE
1002
{
1070
   276
 70
     2
1070
   277
 70
     5
1070
   279
 70
     2
1002
}
  0
XRECORD
  5
7BE
102
{ACAD_REACTORS
330
7BD
102
}
100
AcDbXrecord
102
ACADR14ROUNDTRIP
1000
DSTYLE
1002
{
1070
   276
 70
     2
1070
   277
 70
     5
1070
   279
 70
     2
1002
}
  0
XRECORD
  5
7C2
102
{ACAD_REACTORS
330
7C1
102
}
100
AcDbXrecord
102
ACADR14ROUNDTRIP
1000
DSTYLE
1002
{
1070
   276
 70
     2
1070
   277
 70
     5
1002
}
  0
XRECORD
  5
7B8
102
{ACAD_REACTORS
330
4D2
102
}
100
AcDbXrecord
340
478
  0
XRECORD
  5
7B7
102
{ACAD_REACTORS
330
4D0
102
}
100
AcDbXrecord
340
475
  0
XRECORD
  5
78B
102
{ACAD_REACTORS
330
78A
102
}
100
AcDbXrecord
102
EXTNAMES
  1
ABIOE580
  2
Abioe580
  0
XRECORD
  5
7B0
102
{ACAD_REACTORS
330
7AF
102
}
100
AcDbXrecord
102
UCS
 74
     0
 71
     1
 10
0.0
 20
0.0
 30
0.0
 10
1.0
 20
0.0
 30
0.0
 10
0.0
 20
1.0
 30
0.0
146
0.0
 79
     0
102
VIEW
281
     0
102
NEWVIEWCONTROL
280
     4
  0
XRECORD
  5
7B2
102
{ACAD_REACTORS
330
7B1
102
}
100
AcDbXrecord
102
UCS
 74
     0
 71
     1
 10
0.0
 20
0.0
 30
0.0
 10
1.0
 20
0.0
 30
0.0
 10
0.0
 20
1.0
 30
0.0
146
0.0
 79
     1
102
VIEW
281
     0
102
NEWVIEWCONTROL
280
     4
  0
XRECORD
  5
7B4
102
{ACAD_REACTORS
330
7B3
102
}
100
AcDbXrecord
102
UCS
 74
     0
 71
     1
 10
0.0
 20
0.0
 30
0.0
 10
1.0
 20
0.0
 30
0.0
 10
0.0
 20
0.0
 30
1.0
146
0.0
 79
     3
102
VIEW
281
     0
102
NEWVIEWCONTROL
280
     4
  0
XRECORD
  5
7B6
102
{ACAD_REACTORS
330
7B5
102
}
100
AcDbXrecord
102
UCS
 74
     0
 71
     1
 10
0.0
 20
0.0
 30
0.0
 10
1.0
 20
0.0
 30
0.0
 10
0.0
 20
1.0
 30
0.0
146
0.0
 79
     0
102
VIEW
281
     0
102
NEWVIEWCONTROL
280
     4
  0
DICTIONARY
  5
7BF
100
AcDbDictionary
280
     1
  3
ACAD_XREC_ROUNDTRIP
360
7C0
  0
ACAD_PROXY_OBJECT
  5
4A1
102
{ACAD_REACTORS
330
49E
102
}
100
AcDbProxyObject
 90
      499
 91
      503
 93
     2044
310
91D4850204C617365724A65742035303030205365726965732050434C20362C008000000C0BB1B1440000000102F06C510000000000BC1B1440000000002E06C5100000000C0CCFC6A4000000018199D9C501064C6574746572A901406AA427D84144352EEE3F47D11959985D5B1D08148C4D081C195B88185CDCDA59DB9B5
310
95B9D1CCB98DD18A30EDE3B1BBFDBC0FC1D572C8D6D0C833F1A2B3054E9249F0FD074C61796F75743140501A97D7DB4AA43C31EFF91E46EBA53B71EFD1B32A15809809100B2537F8EAD447D02A6A6A00200C0093BD106FC0000F06EE366FABE0000032E846F6A2F44424FF2920002440160B7F435600079000000D00CEECC5
310
43D0
330
475
330
2C
340
0
340
0
 94
        0
  0
ACAD_PROXY_OBJECT
  5
4A0
102
{ACAD_REACTORS
330
49E
102
}
100
AcDbProxyObject
 90
      499
 91
      503
 93
      924
310
91D4850204C617365724A65742035303030205365726965732050434C20362C01AAAAAAAAA547D11959985D5B1D08148C4D081C195B88185CDCDA59DB9B595B9D1CCB98DD18A69054D6F64656C901A800000000000000000000000000000000000000000000A1000000000000008902A6A6AAAA0
330
478
330
0
340
0
340
0
 94
        0
  0
MLINESTYLE
  5
47C
102
{ACAD_REACTORS
330
47B
102
}
100
AcDbMlineStyle
  2
STANDARD
 70
     0
  3

 62
   256
 51
90.0
 52
90.0
 71
     2
 49
0.5
 62
   256
  6
BYLAYER
 49
-0.5
 62
   256
  6
BYLAYER
  0
ACAD_PROXY_OBJECT
  5
49D
102
{ACAD_REACTORS
330
49C
102
}
100
AcDbProxyObject
 90
      499
 91
      502
 93
        0
 94
        0
  0
XRECORD
  5
798
102
{ACAD_REACTORS
330
78E
102
}
100
AcDbXrecord
 90
        0
  0
XRECORD
  5
79C
102
{ACAD_REACTORS
330
78E
102
}
100
AcDbXrecord
1000
DSTYLE
1002
{
1070
   276
 70
     2
1070
   277
 70
     5
1070
   279
 70
     2
1002
}
  0
XRECORD
  5
799
102
{ACAD_REACTORS
330
78E
102
}
100
AcDbXrecord
  1
{6E0CF4B5-225E-11D4-A150-00A0CC3303EC}
  0
XRECORD
  5
791
102
{ACAD_REACTORS
330
78E
102
}
100
AcDbXrecord
  1

  0
XRECORD
  5
797
102
{ACAD_REACTORS
330
78E
102
}
100
AcDbXrecord
 90
        0
  0
XRECORD
  5
793
102
{ACAD_REACTORS
330
78E
102
}
100
AcDbXrecord
340
49E
  0
XRECORD
  5
796
102
{ACAD_REACTORS
330
78E
102
}
100
AcDbXrecord
 90
    14877
  0
XRECORD
  5
794
102
{ACAD_REACTORS
330
78E
102
}
100
AcDbXrecord
340
49F
  0
XRECORD
  5
795
102
{ACAD_REACTORS
330
78E
102
}
100
AcDbXrecord
340
49C
  0
XRECORD
  5
79B
102
{ACAD_REACTORS
330
78E
102
}
100
AcDbXrecord
 40
0.0
  0
XRECORD
  5
79F
102
{ACAD_REACTORS
330
78E
102
}
100
AcDbXrecord
340
0
  0
XRECORD
  5
7A5
102
{ACAD_REACTORS
330
78E
102
}
100
AcDbXrecord
 10
0.0
 20
0.0
 30
0.0
  0
XRECORD
  5
7A1
102
{ACAD_REACTORS
330
78E
102
}
100
AcDbXrecord
 10
0.0
 20
0.0
 30
0.0
  0
XRECORD
  5
7A4
102
{ACAD_REACTORS
330
78E
102
}
100
AcDbXrecord
 10
0.0
 20
0.0
 30
0.0
  0
XRECORD
  5
7A2
102
{ACAD_REACTORS
330
78E
102
}
100
AcDbXrecord
 10
0.0
 20
0.0
 30
0.0
  0
XRECORD
  5
7A3
102
{ACAD_REACTORS
330
78E
102
}
100
AcDbXrecord
 10
0.0
 20
0.0
 30
0.0
  0
XRECORD
  5
7A0
102
{ACAD_REACTORS
330
78E
102
}
100
AcDbXrecord
 10
0.0
 20
0.0
 30
0.0
  0
XRECORD
  5
79D
102
{ACAD_REACTORS
330
78E
102
}
100
AcDbXrecord
340
0
  0
XRECORD
  5
79E
102
{ACAD_REACTORS
330
78E
102
}
100
AcDbXrecord
 70
     0
  0
XRECORD
  5
792
102
{ACAD_REACTORS
330
78E
102
}
100
AcDbXrecord
  1

  0
XRECORD
  5
78F
102
{ACAD_REACTORS
330
78E
102
}
100
AcDbXrecord
 90
        1
  0
XRECORD
  5
790
102
{ACAD_REACTORS
330
78E
102
}
100
AcDbXrecord
 90
       70
  0
XRECORD
  5
7A8
102
{ACAD_REACTORS
330
78E
102
}
100
AcDbXrecord
340
0
  0
XRECORD
  5
7AE
102
{ACAD_REACTORS
330
78E
102
}
100
AcDbXrecord
 10
0.0
 20
0.0
 30
0.0
  0
XRECORD
  5
7AA
102
{ACAD_REACTORS
330
78E
102
}
100
AcDbXrecord
 10
0.0
 20
0.0
 30
0.0
  0
XRECORD
  5
7AD
102
{ACAD_REACTORS
330
78E
102
}
100
AcDbXrecord
 10
0.0
 20
0.0
 30
0.0
  0
XRECORD
  5
7AB
102
{ACAD_REACTORS
330
78E
102
}
100
AcDbXrecord
 10
0.0
 20
0.0
 30
0.0
  0
XRECORD
  5
7AC
102
{ACAD_REACTORS
330
78E
102
}
100
AcDbXrecord
 10
0.0
 20
0.0
 30
0.0
  0
XRECORD
  5
7A9
102
{ACAD_REACTORS
330
78E
102
}
100
AcDbXrecord
 10
0.0
 20
0.0
 30
0.0
  0
XRECORD
  5
7A6
102
{ACAD_REACTORS
330
78E
102
}
100
AcDbXrecord
340
0
  0
XRECORD
  5
7A7
102
{ACAD_REACTORS
330
78E
102
}
100
AcDbXrecord
 70
     0
  0
XRECORD
  5
79A
102
{ACAD_REACTORS
330
78E
102
}
100
AcDbXrecord
  1
{2FA3CD3D-D3DC-4CBC-97BD-EA7F45623BB5}
  0
DICTIONARYVAR
  5
48E
102
{ACAD_REACTORS
330
48D
102
}
100
DictionaryVariables
280
     0
  1
0
  0
XRECORD
  5
7C0
102
{ACAD_REACTORS
330
7BF
102
}
100
AcDbXrecord
102
EXTNAMES
  1
LAYOUT1
  2
Layout1
  1
MODEL
  2
Model
  0
ENDSEC
  0
EOF
