  0
SECTION
  2
HEADER
  9
$ACADVER
  1
AC1014
  9
$ACADMAINTVER
 70
     8
  9
$DWGCODEPAGE
  3
ANSI_1252
  9
$INSBASE
 10
0.0
 20
0.0
 30
0.0
  9
$EXTMIN
 10
-1.054418
 20
-1.900245
 30
0.0
  9
$EXTMAX
 10
2.7575
 20
11.135113
 30
5.880973
  9
$LIMMIN
 10
0.0
 20
0.0
  9
$LIMMAX
 10
12.0
 20
9.0
  9
$ORTHOMODE
 70
     0
  9
$REGENMODE
 70
     1
  9
$FILLMODE
 70
     1
  9
$QTEXTMODE
 70
     0
  9
$MIRRTEXT
 70
     1
  9
$DRAGMODE
 70
     2
  9
$LTSCALE
 40
1.0
  9
$OSMODE
 70
    37
  9
$ATTMODE
 70
     1
  9
$TEXTSIZE
 40
0.12
  9
$TRACEWID
 40
0.05
  9
$TEXTSTYLE
  7
STANDARD
  9
$CLAYER
  8
0
  9
$CELTYPE
  6
BYLAYER
  9
$CECOLOR
 62
   256
  9
$CELTSCALE
 40
1.0
  9
$DELOBJ
 70
     1
  9
$DISPSILH
 70
     0
  9
$DIMSCALE
 40
1.0
  9
$DIMASZ
 40
0.18
  9
$DIMEXO
 40
0.0625
  9
$DIMDLI
 40
0.375
  9
$DIMRND
 40
0.0
  9
$DIMDLE
 40
0.0
  9
$DIMEXE
 40
0.18
  9
$DIMTP
 40
0.0
  9
$DIMTM
 40
0.0
  9
$DIMTXT
 40
0.18
  9
$DIMCEN
 40
0.09
  9
$DIMTSZ
 40
0.0
  9
$DIMTOL
 70
     0
  9
$DIMLIM
 70
     0
  9
$DIMTIH
 70
     0
  9
$DIMTOH
 70
     1
  9
$DIMSE1
 70
     0
  9
$DIMSE2
 70
     0
  9
$DIMTAD
 70
     0
  9
$DIMZIN
 70
     4
  9
$DIMBLK
  1

  9
$DIMASO
 70
     1
  9
$DIMSHO
 70
     1
  9
$DIMPOST
  1

  9
$DIMAPOST
  1

  9
$DIMALT
 70
     1
  9
$DIMALTD
 70
     1
  9
$DIMALTF
 40
25.4
  9
$DIMLFAC
 40
1.0
  9
$DIMTOFL
 70
     0
  9
$DIMTVP
 40
0.0
  9
$DIMTIX
 70
     0
  9
$DIMSOXD
 70
     0
  9
$DIMSAH
 70
     0
  9
$DIMBLK1
  1

  9
$DIMBLK2
  1

  9
$DIMSTYLE
  2
ABECAD_3D
  9
$DIMCLRD
 70
     0
  9
$DIMCLRE
 70
     0
  9
$DIMCLRT
 70
     0
  9
$DIMTFAC
 40
1.5
  9
$DIMGAP
 40
0.09
  9
$DIMJUST
 70
     0
  9
$DIMSD1
 70
     0
  9
$DIMSD2
 70
     0
  9
$DIMTOLJ
 70
     1
  9
$DIMTZIN
 70
     4
  9
$DIMALTZ
 70
     4
  9
$DIMALTTZ
 70
     4
  9
$DIMFIT
 70
     3
  9
$DIMUPT
 70
     0
  9
$DIMUNIT
 70
     7
  9
$DIMDEC
 70
     6
  9
$DIMTDEC
 70
     6
  9
$DIMALTU
 70
     2
  9
$DIMALTTD
 70
     1
  9
$DIMTXSTY
  7
STANDARD
  9
$DIMAUNIT
 70
     0
  9
$LUNITS
 70
     2
  9
$LUPREC
 70
     4
  9
$SKETCHINC
 40
0.1
  9
$FILLETRAD
 40
0.0
  9
$AUNITS
 70
     0
  9
$AUPREC
 70
     0
  9
$MENU
  1
ACAD
  9
$ELEVATION
 40
0.0
  9
$PELEVATION
 40
0.0
  9
$THICKNESS
 40
0.0
  9
$LIMCHECK
 70
     0
  9
$BLIPMODE
 70
     0
  9
$CHAMFERA
 40
0.0
  9
$CHAMFERB
 40
0.0
  9
$CHAMFERC
 40
0.0
  9
$CHAMFERD
 40
0.0
  9
$SKPOLY
 70
     0
  9
$TDCREATE
 40
2451670.444776967
  9
$TDUPDATE
 40
2452010.488623264
  9
$TDINDWG
 40
0.0063278935
  9
$TDUSRTIMER
 40
0.0063278935
  9
$USRTIMER
 70
     1
  9
$ANGBASE
 50
0.0
  9
$ANGDIR
 70
     0
  9
$PDMODE
 70
     3
  9
$PDSIZE
 40
0.09
  9
$PLINEWID
 40
0.0
  9
$COORDS
 70
     1
  9
$SPLFRAME
 70
     1
  9
$SPLINETYPE
 70
     6
  9
$SPLINESEGS
 70
     8
  9
$ATTDIA
 70
     0
  9
$ATTREQ
 70
     1
  9
$HANDLING
 70
     1
  9
$HANDSEED
  5
45D23
  9
$SURFTAB1
 70
     6
  9
$SURFTAB2
 70
     6
  9
$SURFTYPE
 70
     6
  9
$SURFU
 70
     6
  9
$SURFV
 70
     6
  9
$UCSNAME
  2

  9
$UCSORG
 10
0.0
 20
0.0
 30
0.0
  9
$UCSXDIR
 10
1.0
 20
0.0
 30
0.0
  9
$UCSYDIR
 10
0.0
 20
1.0
 30
0.0
  9
$PUCSNAME
  2

  9
$PUCSORG
 10
0.0
 20
0.0
 30
0.0
  9
$PUCSXDIR
 10
1.0
 20
0.0
 30
0.0
  9
$PUCSYDIR
 10
0.0
 20
1.0
 30
0.0
  9
$USERI1
 70
     0
  9
$USERI2
 70
     0
  9
$USERI3
 70
     0
  9
$USERI4
 70
     0
  9
$USERI5
 70
     0
  9
$USERR1
 40
0.0
  9
$USERR2
 40
0.0
  9
$USERR3
 40
0.0
  9
$USERR4
 40
0.0
  9
$USERR5
 40
0.0
  9
$WORLDVIEW
 70
     1
  9
$SHADEDGE
 70
     3
  9
$SHADEDIF
 70
    70
  9
$TILEMODE
 70
     1
  9
$MAXACTVP
 70
    16
  9
$PINSBASE
 10
0.0
 20
0.0
 30
0.0
  9
$PLIMCHECK
 70
     0
  9
$PEXTMIN
 10
1.000000E+20
 20
1.000000E+20
 30
1.000000E+20
  9
$PEXTMAX
 10
-1.000000E+20
 20
-1.000000E+20
 30
-1.000000E+20
  9
$PLIMMIN
 10
0.0
 20
0.0
  9
$PLIMMAX
 10
12.0
 20
9.0
  9
$UNITMODE
 70
     0
  9
$VISRETAIN
 70
     0
  9
$PLINEGEN
 70
     0
  9
$PSLTSCALE
 70
     1
  9
$TREEDEPTH
 70
  3020
  9
$PICKSTYLE
 70
     1
  9
$CMLSTYLE
  2
STANDARD
  9
$CMLJUST
 70
     0
  9
$CMLSCALE
 40
1.0
  9
$PROXYGRAPHICS
 70
     1
  9
$MEASUREMENT
 70
     0
  0
ENDSEC
  0
SECTION
  2
CLASSES
  0
CLASS
  1
DICTIONARYVAR
  2
AcDbDictionaryVar
  3
"AutoCAD"
 90
        0
280
     0
281
     0
  0
CLASS
  1
ACDBDICTIONARYWDFLT
  2
AcDbDictionaryWithDefault
  3
AutoCAD 2000
 90
        0
280
     0
281
     0
  0
CLASS
  1
ACDBPLACEHOLDER
  2
AcDbPlaceHolder
  3
AutoCAD 2000
 90
        0
280
     0
281
     0
  0
CLASS
  1
LAYOUT
  2
AcDbLayout
  3
AutoCAD 2000
 90
        0
280
     0
281
     0
  0
CLASS
  1
LONG_TRANSACTION
  2
AcDbLongTransaction
  3
AutoCAD 2000
 90
        0
280
     0
281
     0
  0
CLASS
  1
LWPOLYLINE
  2
AcDbPolyline
  3
"AutoCAD"
 90
        0
280
     0
281
     1
  0
CLASS
  1
HATCH
  2
AcDbHatch
  3
"ACAD_SEDONA"
 90
        0
280
     0
281
     1
  0
CLASS
  1
XRECORD
  2
AcDbXrecord
  3
"<Built In>"
 90
        0
280
     0
281
     0
  0
CLASS
  1
LONG_TRANSACTION
  2
AcDbLongTransaction
  3
AutoCAD 2000
 90
        0
280
     0
281
     0
  0
CLASS
  1
LWPOLYLINE
  2
AcDbPolyline
  3
"AutoCAD"
 90
        0
280
     0
281
     1
  0
CLASS
  1
HATCH
  2
AcDbHatch
  3
"ACAD_SEDONA"
 90
        0
280
     0
281
     1
  0
CLASS
  1
XRECORD
  2
AcDbXrecord
  3
"<Built In>"
 90
        0
280
     0
281
     0
  0
CLASS
  1
LONG_TRANSACTION
  2
AcDbLongTransaction
  3
AutoCAD 2000
 90
        0
280
     0
281
     0
  0
CLASS
  1
LWPOLYLINE
  2
AcDbPolyline
  3
"AutoCAD"
 90
        0
280
     0
281
     1
  0
CLASS
  1
HATCH
  2
AcDbHatch
  3
"ACAD_SEDONA"
 90
        0
280
     0
281
     1
  0
CLASS
  1
XRECORD
  2
AcDbXrecord
  3
"<Built In>"
 90
        0
280
     0
281
     0
  0
CLASS
  1
LONG_TRANSACTION
  2
AcDbLongTransaction
  3
AutoCAD 2000
 90
        0
280
     0
281
     0
  0
CLASS
  1
LWPOLYLINE
  2
AcDbPolyline
  3
"AutoCAD"
 90
        0
280
     0
281
     1
  0
CLASS
  1
HATCH
  2
AcDbHatch
  3
"ACAD_SEDONA"
 90
        0
280
     0
281
     1
  0
CLASS
  1
XRECORD
  2
AcDbXrecord
  3
"<Built In>"
 90
        0
280
     0
281
     0
  0
CLASS
  1
LONG_TRANSACTION
  2
AcDbLongTransaction
  3
AutoCAD 2000
 90
        0
280
     0
281
     0
  0
CLASS
  1
LWPOLYLINE
  2
AcDbPolyline
  3
"AutoCAD"
 90
        0
280
     0
281
     1
  0
CLASS
  1
HATCH
  2
AcDbHatch
  3
"ACAD_SEDONA"
 90
        0
280
     0
281
     1
  0
CLASS
  1
XRECORD
  2
AcDbXrecord
  3
"<Built In>"
 90
        0
280
     0
281
     0
  0
CLASS
  1
LONG_TRANSACTION
  2
AcDbLongTransaction
  3
AutoCAD 2000
 90
        0
280
     0
281
     0
  0
CLASS
  1
LWPOLYLINE
  2
AcDbPolyline
  3
"AutoCAD"
 90
        0
280
     0
281
     1
  0
CLASS
  1
HATCH
  2
AcDbHatch
  3
"ACAD_SEDONA"
 90
        0
280
     0
281
     1
  0
CLASS
  1
XRECORD
  2
AcDbXrecord
  3
"<Built In>"
 90
        0
280
     0
281
     0
  0
ENDSEC
  0
SECTION
  2
TABLES
  0
TABLE
  2
VPORT
  5
458C7
100
AcDbSymbolTable
 70
     1
  0
VPORT
  5
45CF0
102
{ACAD_XDICTIONARY
360
45CF3
102
}
100
AcDbSymbolTableRecord
100
AcDbViewportTableRecord
  2
*ACTIVE
 70
     0
 10
0.0
 20
0.0
 11
1.0
 21
1.0
 12
0.851476
 22
4.617434
 13
0.0
 23
0.0
 14
0.25
 24
0.25
 15
0.25
 25
0.25
 16
0.0
 26
0.0
 36
1.0
 17
0.0
 27
0.0
 37
0.0
 40
13.255248
 41
1.960674
 42
50.0
 43
0.0
 44
0.0
 50
0.0
 51
0.0
 71
     0
 72
 20000
 73
     1
 74
     1
 75
     0
 76
     0
 77
     0
 78
     0
  0
ENDTAB
  0
TABLE
  2
LTYPE
  5
458C4
100
AcDbSymbolTable
 70
     1
  0
LTYPE
  5
458D0
100
AcDbSymbolTableRecord
100
AcDbLinetypeTableRecord
  2
BYBLOCK
 70
     0
  3

 72
    65
 73
     0
 40
0.0
  0
LTYPE
  5
458D1
100
AcDbSymbolTableRecord
100
AcDbLinetypeTableRecord
  2
BYLAYER
 70
     0
  3

 72
    65
 73
     0
 40
0.0
  0
LTYPE
  5
458D2
100
AcDbSymbolTableRecord
100
AcDbLinetypeTableRecord
  2
CONTINUOUS
 70
     0
  3
Solid line
 72
    65
 73
     0
 40
0.0
  0
ENDTAB
  0
TABLE
  2
LAYER
  5
458C1
100
AcDbSymbolTable
 70
     7
  0
LAYER
  5
458CD
100
AcDbSymbolTableRecord
100
AcDbLayerTableRecord
  2
0
 70
     0
 62
     7
  6
CONTINUOUS
  0
LAYER
  5
458EA
100
AcDbSymbolTableRecord
100
AcDbLayerTableRecord
  2
DIMS-MTG-HOLES
 70
     0
 62
     1
  6
CONTINUOUS
  0
LAYER
  5
458EB
100
AcDbSymbolTableRecord
100
AcDbLayerTableRecord
  2
ATTRIBUTES
 70
     0
 62
     7
  6
CONTINUOUS
  0
LAYER
  5
4593B
102
{ACAD_XDICTIONARY
360
45D1E
102
}
100
AcDbSymbolTableRecord
100
AcDbLayerTableRecord
  2
AREA1
 70
     0
 62
    -7
  6
CONTINUOUS
  0
LAYER
  5
45940
102
{ACAD_XDICTIONARY
360
45CF1
102
}
100
AcDbSymbolTableRecord
100
AcDbLayerTableRecord
  2
DEFPOINTS
 70
     0
 62
    -7
  6
CONTINUOUS
  0
LAYER
  5
45954
100
AcDbSymbolTableRecord
100
AcDbLayerTableRecord
  2
SCALE
 70
     0
 62
    -7
  6
CONTINUOUS
  0
LAYER
  5
45C54
100
AcDbSymbolTableRecord
100
AcDbLayerTableRecord
  2
SNAP_POINTS
 70
     0
 62
    -1
  6
CONTINUOUS
  0
ENDTAB
  0
TABLE
  2
STYLE
  5
458C2
100
AcDbSymbolTable
 70
     1
  0
STYLE
  5
458CE
100
AcDbSymbolTableRecord
100
AcDbTextStyleTableRecord
  2
STANDARD
 70
     0
 40
0.0
 41
1.0
 50
0.0
 71
     0
 42
0.12
  3
txt
  4

  0
ENDTAB
  0
TABLE
  2
VIEW
  5
458C5
100
AcDbSymbolTable
 70
     0
  0
ENDTAB
  0
TABLE
  2
UCS
  5
458C6
100
AcDbSymbolTable
 70
     0
  0
ENDTAB
  0
TABLE
  2
APPID
  5
458C8
100
AcDbSymbolTable
 70
     1
  0
APPID
  5
458CF
100
AcDbSymbolTableRecord
100
AcDbRegAppTableRecord
  2
ACAD
 70
     0
  0
ENDTAB
  0
TABLE
  2
DIMSTYLE
  5
458C9
100
AcDbSymbolTable
 70
     2
  0
DIMSTYLE
105
458F1
102
{ACAD_XDICTIONARY
360
45D18
102
}
100
AcDbSymbolTableRecord
100
AcDbDimStyleTableRecord
  2
ABECAD
 70
     0
  3

  4

  5

  6

  7

 40
1.0
 41
0.18
 42
0.0625
 43
0.375
 44
0.18
 45
0.0
 46
0.0
 47
0.0
 48
0.0
140
0.18
141
0.09
142
0.0
143
25.4
144
1.0
145
0.0
146
1.5
147
0.09
 71
     0
 72
     0
 73
     0
 74
     1
 75
     0
 76
     0
 77
     0
 78
     4
170
     1
171
     1
172
     0
173
     0
174
     0
175
     0
176
     0
177
     0
178
     0
270
     7
271
     6
272
     6
273
     2
274
     1
340
458CE
275
     0
280
     0
281
     0
282
     0
283
     1
284
     4
285
     4
286
     4
287
     3
288
     0
  0
DIMSTYLE
105
458F6
102
{ACAD_XDICTIONARY
360
45D1A
102
}
102
{ACAD_REACTORS
330
45BE4
330
45BF2
102
}
100
AcDbSymbolTableRecord
100
AcDbDimStyleTableRecord
  2
ABECAD_3D
 70
     0
  3

  4

  5

  6

  7

 40
1.0
 41
0.18
 42
0.0625
 43
0.375
 44
0.18
 45
0.0
 46
0.0
 47
0.0
 48
0.0
140
0.18
141
0.09
142
0.0
143
25.4
144
1.0
145
0.0
146
1.5
147
0.09
 71
     0
 72
     0
 73
     0
 74
     1
 75
     0
 76
     0
 77
     0
 78
     4
170
     1
171
     1
172
     0
173
     0
174
     0
175
     0
176
     0
177
     0
178
     0
270
     7
271
     6
272
     6
273
     2
274
     1
340
458CE
275
     0
280
     0
281
     0
282
     0
283
     1
284
     4
285
     4
286
     4
287
     3
288
     0
  0
ENDTAB
  0
TABLE
  2
BLOCK_RECORD
  5
458C0
100
AcDbSymbolTable
 70
     2
  0
BLOCK_RECORD
  5
458D6
102
{ACAD_XDICTIONARY
360
4592C
102
}
100
AcDbSymbolTableRecord
100
AcDbBlockTableRecord
  2
*MODEL_SPACE
  0
BLOCK_RECORD
  5
458D3
102
{ACAD_XDICTIONARY
360
4592A
102
}
100
AcDbSymbolTableRecord
100
AcDbBlockTableRecord
  2
*PAPER_SPACE
  0
BLOCK_RECORD
  5
45BE5
100
AcDbSymbolTableRecord
100
AcDbBlockTableRecord
  2
*D0
  0
BLOCK_RECORD
  5
45BF3
100
AcDbSymbolTableRecord
100
AcDbBlockTableRecord
  2
*D1
  0
ENDTAB
  0
ENDSEC
  0
SECTION
  2
BLOCKS
  0
BLOCK
  5
458DF
100
AcDbEntity
  8
0
100
AcDbBlockBegin
  2
*MODEL_SPACE
 70
     0
 10
0.0
 20
0.0
 30
0.0
  3
*MODEL_SPACE
  1

  0
ENDBLK
  5
458E0
100
AcDbEntity
  8
0
100
AcDbBlockEnd
  0
BLOCK
  5
458DD
100
AcDbEntity
 67
     1
  8
0
100
AcDbBlockBegin
  2
*PAPER_SPACE
 70
     0
 10
0.0
 20
0.0
 30
0.0
  3
*PAPER_SPACE
  1

  0
ENDBLK
  5
458DE
100
AcDbEntity
 67
     1
  8
0
100
AcDbBlockEnd
  0
BLOCK
  5
45BF0
100
AcDbEntity
  8
0
100
AcDbBlockBegin
  2
*D0
 70
     1
 10
0.0
 20
0.0
 30
0.0
  3
*D0
  1

  0
LINE
  5
45C00
100
AcDbEntity
  8
AREA1
 62
     0
100
AcDbLine
 10
-0.163868
 20
-0.562545
 30
0.0
 11
1.449431
 21
-0.562545
 31
0.0
1001
ACAD
1000
RTLwPs
1070
   158
  0
LINE
  5
45C01
100
AcDbEntity
  8
AREA1
 62
     0
100
AcDbLine
 10
0.3275
 20
10.0432
 30
0.0
 11
1.449431
 21
10.0432
 31
0.0
1001
ACAD
1000
RTLwPs
1070
   158
  0
LINE
  5
45C02
100
AcDbEntity
  8
AREA1
 62
     0
100
AcDbLine
 10
1.269431
 20
-0.382545
 30
0.0
 11
1.269431
 21
3.405327
 31
0.0
1001
ACAD
1000
RTLwPs
1070
   158
  0
LINE
  5
45C03
100
AcDbEntity
  8
AREA1
 62
     0
100
AcDbLine
 10
1.269431
 20
9.8632
 30
0.0
 11
1.269431
 21
6.075327
 31
0.0
1001
ACAD
1000
RTLwPs
1070
   158
  0
SOLID
  5
45C04
100
AcDbEntity
  8
AREA1
 62
     0
100
AcDbTrace
 10
1.239431
 20
-0.382545
 30
0.0
 11
1.299431
 21
-0.382545
 31
0.0
 12
1.269431
 22
-0.562545
 32
0.0
 13
1.269431
 23
-0.562545
 33
0.0
  0
SOLID
  5
45C05
100
AcDbEntity
  8
AREA1
 62
     0
100
AcDbTrace
 10
1.239431
 20
9.8632
 30
0.0
 11
1.299431
 21
9.8632
 31
0.0
 12
1.269431
 22
10.0432
 32
0.0
 13
1.269431
 23
10.0432
 33
0.0
  0
MTEXT
  5
45C06
100
AcDbEntity
  8
AREA1
 62
     0
100
AcDbMText
 10
1.269431
 20
4.740327
 30
0.0
 40
0.18
 41
0.0
 71
     5
 72
     1
  1
\A1;10 39/64 [269.4]
 11
0.0
 21
1.0
 31
0.0
1001
ACAD
1000
MTEXTBEGIN
1070
    73
1070
     1
1070
    44
1040
1.0
1070
    74
1070
     0
1000
MTEXTEND
1000
MTEXTBEGIN
1070
    73
1070
     1
1070
    44
1040
1.0
1070
    74
1070
     0
1000
MTEXTEND
1000
MTEXTBEGIN
1070
    73
1070
     1
1070
    44
1040
1.0
1070
    74
1070
     0
1000
MTEXTEND
1000
MTEXTBEGIN
1070
    73
1070
     1
1070
    44
1040
1.0
1070
    74
1070
     0
1000
MTEXTEND
1000
MTEXTBEGIN
1070
    73
1070
     1
1070
    44
1040
1.0
1070
    74
1070
     0
1000
MTEXTEND
  0
POINT
  5
45C07
100
AcDbEntity
  8
DEFPOINTS
 62
     0
100
AcDbPoint
 10
-0.226368
 20
-0.562545
 30
5.88
  0
POINT
  5
45C08
100
AcDbEntity
  8
DEFPOINTS
 62
     0
100
AcDbPoint
 10
0.265
 20
10.0432
 30
5.747
  0
POINT
  5
45C09
100
AcDbEntity
  8
DEFPOINTS
 62
     0
100
AcDbPoint
 10
1.269431
 20
10.0432
 30
0.0
  0
ENDBLK
  5
45BF1
100
AcDbEntity
  8
0
100
AcDbBlockEnd
  0
BLOCK
  5
45BFE
100
AcDbEntity
  8
0
100
AcDbBlockBegin
  2
*D1
 70
     1
 10
0.0
 20
0.0
 30
0.0
  3
*D1
  1

  0
LINE
  5
45C0A
100
AcDbEntity
  8
AREA1
 62
     0
100
AcDbLine
 10
-1.025435
 20
0.37789
 30
0.0
 11
-1.025435
 21
11.135113
 31
0.0
1001
ACAD
1000
RTLwPs
1070
   158
  0
LINE
  5
45C0B
100
AcDbEntity
  8
AREA1
 62
     0
100
AcDbLine
 10
0.3275
 20
10.1057
 30
0.0
 11
0.3275
 21
11.135113
 31
0.0
1001
ACAD
1000
RTLwPs
1070
   158
  0
LINE
  5
45C0C
100
AcDbEntity
  8
AREA1
 62
     0
100
AcDbLine
 10
-0.845435
 20
10.955113
 30
0.0
 11
0.1475
 21
10.955113
 31
0.0
1001
ACAD
1000
RTLwPs
1070
   158
  0
LINE
  5
45C0D
100
AcDbEntity
  8
AREA1
 62
     0
100
AcDbLine
 10
0.3275
 20
10.955113
 30
0.0
 11
0.5075
 21
10.955113
 31
0.0
1001
ACAD
1000
RTLwPs
1070
   158
  0
SOLID
  5
45C0E
100
AcDbEntity
  8
AREA1
 62
     0
100
AcDbTrace
 10
-0.845435
 20
10.985113
 30
0.0
 11
-0.845435
 21
10.925113
 31
0.0
 12
-1.025435
 22
10.955113
 32
0.0
 13
-1.025435
 23
10.955113
 33
0.0
  0
SOLID
  5
45C0F
100
AcDbEntity
  8
AREA1
 62
     0
100
AcDbTrace
 10
0.1475
 20
10.985113
 30
0.0
 11
0.1475
 21
10.925113
 31
0.0
 12
0.3275
 22
10.955113
 32
0.0
 13
0.3275
 23
10.955113
 33
0.0
  0
MTEXT
  5
45C10
100
AcDbEntity
  8
AREA1
 62
     0
100
AcDbMText
 10
1.6775
 20
10.955113
 30
0.0
 40
0.18
 41
0.0
 71
     5
 72
     1
  1
\A1;1 23/64 [34.4]
1001
ACAD
1000
MTEXTBEGIN
1070
    73
1070
     1
1070
    44
1040
1.0
1070
    74
1070
     0
1000
MTEXTEND
1000
MTEXTBEGIN
1070
    73
1070
     1
1070
    44
1040
1.0
1070
    74
1070
     0
1000
MTEXTEND
1000
MTEXTBEGIN
1070
    73
1070
     1
1070
    44
1040
1.0
1070
    74
1070
     0
1000
MTEXTEND
1000
MTEXTBEGIN
1070
    73
1070
     1
1070
    44
1040
1.0
1070
    74
1070
     0
1000
MTEXTEND
1000
MTEXTBEGIN
1070
    73
1070
     1
1070
    44
1040
1.0
1070
    74
1070
     0
1000
MTEXTEND
  0
POINT
  5
45C11
100
AcDbEntity
  8
DEFPOINTS
 62
     0
100
AcDbPoint
 10
-1.025435
 20
0.31539
 30
5.88
  0
POINT
  5
45C12
100
AcDbEntity
  8
DEFPOINTS
 62
     0
100
AcDbPoint
 10
0.3275
 20
10.0432
 30
0.0
  0
POINT
  5
45C13
100
AcDbEntity
  8
DEFPOINTS
 62
     0
100
AcDbPoint
 10
0.3275
 20
10.955113
 30
0.0
  0
ENDBLK
  5
45BFF
100
AcDbEntity
  8
0
100
AcDbBlockEnd
  0
ENDSEC
  0
SECTION
  2
ENTITIES
  0
ATTDEF
  5
1
100
AcDbEntity
  8
ATTRIBUTES
100
AcDbText
 10
-0.634606
 20
1.390909
 30
0.0
 40
0.06
  1
ALLEN-BRADLEY
100
AcDbAttributeDefinition
  3
MANUFACTURER NAME?
  2
AC_VND_LABEL
 70
     1
  0
ATTDEF
  5
2
100
AcDbEntity
  8
ATTRIBUTES
100
AcDbText
 10
-0.634606
 20
1.265909
 30
0.0
 40
0.06
  1
1771-IXHR
100
AcDbAttributeDefinition
  3
CATALOG NUMBER?
  2
AC_PART_NO
 70
     1
  0
ATTDEF
  5
3
100
AcDbEntity
  8
ATTRIBUTES
100
AcDbText
 10
-0.634606
 20
1.140909
 30
0.0
 40
0.06
  1
1771-IXHR:HIGH RES THERMOCOUPLE/MILLIVOLT INPUT MODULE, 8 T/C TYPE B,E,J,K,R,S,T
100
AcDbAttributeDefinition
  3
PART DESCRIPTION?
  2
AC_DESCRIPTION
 70
     1
  0
ATTDEF
  5
4
100
AcDbEntity
  8
ATTRIBUTES
100
AcDbText
 10
-0.634606
 20
1.015909
 30
0.0
 40
0.06
  1

100
AcDbAttributeDefinition
  3
DEVICE ID?
  2
DEVICE_ID
 70
     1
  0
ATTDEF
  5
5
100
AcDbEntity
  8
ATTRIBUTES
100
AcDbText
 10
-0.634606
 20
0.890909
 30
0.0
 40
0.06
  1

100
AcDbAttributeDefinition
  3
CUSTOMER PART NUMBER?
  2
AC_CPART_NO
 70
     1
  0
ATTDEF
  5
6
100
AcDbEntity
  8
ATTRIBUTES
100
AcDbText
 10
-0.634606
 20
0.765909
 30
0.0
 40
0.06
  1

100
AcDbAttributeDefinition
  3
CUSTOMER NOTE?
  2
AC_NOTE
 70
     1
  0
ATTDEF
  5
7
100
AcDbEntity
  8
ATTRIBUTES
100
AcDbText
 10
-0.634606
 20
0.640909
 30
0.0
 40
0.06
  1

100
AcDbAttributeDefinition
  3
FASTENER DATA?
  2
FASTENER
 70
     1
  0
ATTDEF
  5
8
100
AcDbEntity
  8
ATTRIBUTES
100
AcDbText
 10
-0.634606
 20
0.515909
 30
0.0
 40
0.06
  1
INCH
100
AcDbAttributeDefinition
  3
UNIT OF SCALE?
  2
AC_SCALE_UNIT
 70
     1
  0
ATTDEF
  5
9
100
AcDbEntity
  8
ATTRIBUTES
100
AcDbText
 10
-0.634606
 20
0.390909
 30
0.0
 40
0.06
  1
0
100
AcDbAttributeDefinition
  3
VIEW CODE?
  2
AC_VIEW_CODE
 70
     1
  0
LINE
  5
45AA1
100
AcDbEntity
  8
0
100
AcDbLine
 10
0.195778
 20
4.929215
 30
5.88
 11
0.195778
 21
0.425898
 31
5.88
  0
LINE
  5
45AA2
100
AcDbEntity
  8
0
100
AcDbLine
 10
-0.8158
 20
4.959353
 30
5.88
 11
-0.8158
 21
0.436173
 31
5.88
  0
POLYLINE
  5
45AA3
100
AcDbEntity
  8
0
100
AcDbPolygonMesh
 66
     1
 10
0.0
 20
0.0
 30
0.0
 70
    16
 71
     6
 72
     3
  0
VERTEX
  5
45AA4
100
AcDbEntity
  8
0
100
AcDbVertex
100
AcDbPolygonMeshVertex
 10
0.27
 20
0.2
 30
5.39
 70
    64
  0
VERTEX
  5
45AA5
100
AcDbEntity
  8
0
100
AcDbVertex
100
AcDbPolygonMeshVertex
 10
0.27
 20
0.2
 30
0.0
 70
    64
  0
VERTEX
  5
45AA6
100
AcDbEntity
  8
0
100
AcDbVertex
100
AcDbPolygonMeshVertex
 10
0.27
 20
0.2
 30
0.0
 70
    64
  0
VERTEX
  5
45AA7
100
AcDbEntity
  8
0
100
AcDbVertex
100
AcDbPolygonMeshVertex
 10
-0.89
 20
0.2
 30
5.39
 70
    64
  0
VERTEX
  5
45AA8
100
AcDbEntity
  8
0
100
AcDbVertex
100
AcDbPolygonMeshVertex
 10
-0.89
 20
0.2
 30
0.0
 70
    64
  0
VERTEX
  5
45AA9
100
AcDbEntity
  8
0
100
AcDbVertex
100
AcDbPolygonMeshVertex
 10
-0.89
 20
0.2
 30
0.0
 70
    64
  0
VERTEX
  5
45AAA
100
AcDbEntity
  8
0
100
AcDbVertex
100
AcDbPolygonMeshVertex
 10
-0.89
 20
9.8
 30
5.39
 70
    64
  0
VERTEX
  5
45AAB
100
AcDbEntity
  8
0
100
AcDbVertex
100
AcDbPolygonMeshVertex
 10
-0.89
 20
9.8
 30
0.0
 70
    64
  0
VERTEX
  5
45AAC
100
AcDbEntity
  8
0
100
AcDbVertex
100
AcDbPolygonMeshVertex
 10
-0.89
 20
0.2
 30
0.0
 70
    64
  0
VERTEX
  5
45AAD
100
AcDbEntity
  8
0
100
AcDbVertex
100
AcDbPolygonMeshVertex
 10
0.27
 20
9.8
 30
5.39
 70
    64
  0
VERTEX
  5
45AAE
100
AcDbEntity
  8
0
100
AcDbVertex
100
AcDbPolygonMeshVertex
 10
0.27
 20
9.8
 30
0.0
 70
    64
  0
VERTEX
  5
45AAF
100
AcDbEntity
  8
0
100
AcDbVertex
100
AcDbPolygonMeshVertex
 10
0.27
 20
0.2
 30
0.0
 70
    64
  0
VERTEX
  5
45AB0
100
AcDbEntity
  8
0
100
AcDbVertex
100
AcDbPolygonMeshVertex
 10
0.27
 20
9.8
 30
5.39
 70
    64
  0
VERTEX
  5
45AB1
100
AcDbEntity
  8
0
100
AcDbVertex
100
AcDbPolygonMeshVertex
 10
0.27
 20
9.8
 30
5.39
 70
    64
  0
VERTEX
  5
45AB2
100
AcDbEntity
  8
0
100
AcDbVertex
100
AcDbPolygonMeshVertex
 10
0.27
 20
0.2
 30
5.39
 70
    64
  0
VERTEX
  5
45AB3
100
AcDbEntity
  8
0
100
AcDbVertex
100
AcDbPolygonMeshVertex
 10
-0.89
 20
9.8
 30
5.39
 70
    64
  0
VERTEX
  5
45AB4
100
AcDbEntity
  8
0
100
AcDbVertex
100
AcDbPolygonMeshVertex
 10
-0.89
 20
9.8
 30
5.39
 70
    64
  0
VERTEX
  5
45AB5
100
AcDbEntity
  8
0
100
AcDbVertex
100
AcDbPolygonMeshVertex
 10
-0.89
 20
0.2
 30
5.39
 70
    64
  0
SEQEND
  5
45AB6
100
AcDbEntity
  8
0
  0
POLYLINE
  5
45AB7
100
AcDbEntity
  8
0
100
AcDbPolygonMesh
 66
     1
 10
0.0
 20
0.0
 30
0.0
 70
    16
 71
     6
 72
     3
  0
VERTEX
  5
45AB8
100
AcDbEntity
  8
0
100
AcDbVertex
100
AcDbPolygonMeshVertex
 10
0.27
 20
0.2
 30
5.88
 70
    64
  0
VERTEX
  5
45AB9
100
AcDbEntity
  8
0
100
AcDbVertex
100
AcDbPolygonMeshVertex
 10
0.27
 20
0.2
 30
5.39
 70
    64
  0
VERTEX
  5
45ABA
100
AcDbEntity
  8
0
100
AcDbVertex
100
AcDbPolygonMeshVertex
 10
0.27
 20
0.2
 30
5.39
 70
    64
  0
VERTEX
  5
45ABB
100
AcDbEntity
  8
0
100
AcDbVertex
100
AcDbPolygonMeshVertex
 10
-0.89
 20
0.2
 30
5.88
 70
    64
  0
VERTEX
  5
45ABC
100
AcDbEntity
  8
0
100
AcDbVertex
100
AcDbPolygonMeshVertex
 10
-0.89
 20
0.2
 30
5.39
 70
    64
  0
VERTEX
  5
45ABD
100
AcDbEntity
  8
0
100
AcDbVertex
100
AcDbPolygonMeshVertex
 10
-0.89
 20
0.2
 30
5.39
 70
    64
  0
VERTEX
  5
45ABE
100
AcDbEntity
  8
0
100
AcDbVertex
100
AcDbPolygonMeshVertex
 10
-0.89
 20
8.912
 30
5.88
 70
    64
  0
VERTEX
  5
45ABF
100
AcDbEntity
  8
0
100
AcDbVertex
100
AcDbPolygonMeshVertex
 10
-0.89
 20
8.912
 30
5.39
 70
    64
  0
VERTEX
  5
45AC0
100
AcDbEntity
  8
0
100
AcDbVertex
100
AcDbPolygonMeshVertex
 10
-0.89
 20
0.2
 30
5.39
 70
    64
  0
VERTEX
  5
45AC1
100
AcDbEntity
  8
0
100
AcDbVertex
100
AcDbPolygonMeshVertex
 10
0.27
 20
8.912
 30
5.88
 70
    64
  0
VERTEX
  5
45AC2
100
AcDbEntity
  8
0
100
AcDbVertex
100
AcDbPolygonMeshVertex
 10
0.27
 20
8.912
 30
5.39
 70
    64
  0
VERTEX
  5
45AC3
100
AcDbEntity
  8
0
100
AcDbVertex
100
AcDbPolygonMeshVertex
 10
0.27
 20
0.2
 30
5.39
 70
    64
  0
VERTEX
  5
45AC4
100
AcDbEntity
  8
0
100
AcDbVertex
100
AcDbPolygonMeshVertex
 10
0.27
 20
8.912
 30
5.88
 70
    64
  0
VERTEX
  5
45AC5
100
AcDbEntity
  8
0
100
AcDbVertex
100
AcDbPolygonMeshVertex
 10
0.27
 20
8.912
 30
5.88
 70
    64
  0
VERTEX
  5
45AC6
100
AcDbEntity
  8
0
100
AcDbVertex
100
AcDbPolygonMeshVertex
 10
0.27
 20
0.2
 30
5.88
 70
    64
  0
VERTEX
  5
45AC7
100
AcDbEntity
  8
0
100
AcDbVertex
100
AcDbPolygonMeshVertex
 10
-0.89
 20
8.912
 30
5.88
 70
    64
  0
VERTEX
  5
45AC8
100
AcDbEntity
  8
0
100
AcDbVertex
100
AcDbPolygonMeshVertex
 10
-0.89
 20
8.912
 30
5.88
 70
    64
  0
VERTEX
  5
45AC9
100
AcDbEntity
  8
0
100
AcDbVertex
100
AcDbPolygonMeshVertex
 10
-0.89
 20
0.2
 30
5.88
 70
    64
  0
SEQEND
  5
45ACA
100
AcDbEntity
  8
0
  0
POLYLINE
  5
45ACB
100
AcDbEntity
  8
0
100
AcDbPolygonMesh
 66
     1
 10
0.0
 20
0.0
 30
0.0
 70
    16
 71
     6
 72
     3
  0
VERTEX
  5
45ACC
100
AcDbEntity
  8
0
100
AcDbVertex
100
AcDbPolygonMeshVertex
 10
0.068
 20
0.0
 30
4.755
 70
    64
  0
VERTEX
  5
45ACD
100
AcDbEntity
  8
0
100
AcDbVertex
100
AcDbPolygonMeshVertex
 10
0.068
 20
0.0
 30
0.0
 70
    64
  0
VERTEX
  5
45ACE
100
AcDbEntity
  8
0
100
AcDbVertex
100
AcDbPolygonMeshVertex
 10
0.068
 20
0.0
 30
0.0
 70
    64
  0
VERTEX
  5
45ACF
100
AcDbEntity
  8
0
100
AcDbVertex
100
AcDbPolygonMeshVertex
 10
0.0
 20
0.0
 30
4.755
 70
    64
  0
VERTEX
  5
45AD0
100
AcDbEntity
  8
0
100
AcDbVertex
100
AcDbPolygonMeshVertex
 10
0.0
 20
0.0
 30
0.0
 70
    64
  0
VERTEX
  5
45AD1
100
AcDbEntity
  8
0
100
AcDbVertex
100
AcDbPolygonMeshVertex
 10
0.0
 20
0.0
 30
0.0
 70
    64
  0
VERTEX
  5
45AD2
100
AcDbEntity
  8
0
100
AcDbVertex
100
AcDbPolygonMeshVertex
 10
0.0
 20
0.2
 30
4.755
 70
    64
  0
VERTEX
  5
45AD3
100
AcDbEntity
  8
0
100
AcDbVertex
100
AcDbPolygonMeshVertex
 10
0.0
 20
0.2
 30
0.0
 70
    64
  0
VERTEX
  5
45AD4
100
AcDbEntity
  8
0
100
AcDbVertex
100
AcDbPolygonMeshVertex
 10
0.0
 20
0.0
 30
0.0
 70
    64
  0
VERTEX
  5
45AD5
100
AcDbEntity
  8
0
100
AcDbVertex
100
AcDbPolygonMeshVertex
 10
0.068
 20
0.2
 30
4.755
 70
    64
  0
VERTEX
  5
45AD6
100
AcDbEntity
  8
0
100
AcDbVertex
100
AcDbPolygonMeshVertex
 10
0.068
 20
0.2
 30
0.0
 70
    64
  0
VERTEX
  5
45AD7
100
AcDbEntity
  8
0
100
AcDbVertex
100
AcDbPolygonMeshVertex
 10
0.068
 20
0.0
 30
0.0
 70
    64
  0
VERTEX
  5
45AD8
100
AcDbEntity
  8
0
100
AcDbVertex
100
AcDbPolygonMeshVertex
 10
0.068
 20
0.2
 30
4.755
 70
    64
  0
VERTEX
  5
45AD9
100
AcDbEntity
  8
0
100
AcDbVertex
100
AcDbPolygonMeshVertex
 10
0.068
 20
0.2
 30
4.755
 70
    64
  0
VERTEX
  5
45ADA
100
AcDbEntity
  8
0
100
AcDbVertex
100
AcDbPolygonMeshVertex
 10
0.068
 20
0.0
 30
4.755
 70
    64
  0
VERTEX
  5
45ADB
100
AcDbEntity
  8
0
100
AcDbVertex
100
AcDbPolygonMeshVertex
 10
0.0
 20
0.2
 30
4.755
 70
    64
  0
VERTEX
  5
45ADC
100
AcDbEntity
  8
0
100
AcDbVertex
100
AcDbPolygonMeshVertex
 10
0.0
 20
0.2
 30
4.755
 70
    64
  0
VERTEX
  5
45ADD
100
AcDbEntity
  8
0
100
AcDbVertex
100
AcDbPolygonMeshVertex
 10
0.0
 20
0.0
 30
4.755
 70
    64
  0
SEQEND
  5
45ADE
100
AcDbEntity
  8
0
  0
POINT
  5
45ADF
100
AcDbEntity
  8
SNAP_POINTS
100
AcDbPoint
 10
0.034
 20
0.0
 30
0.0
  0
LINE
  5
45AE0
100
AcDbEntity
  8
0
100
AcDbLine
 10
-0.8158
 20
0.516311
 30
5.88
 11
-0.311803
 21
0.516311
 31
5.88
  0
LINE
  5
45AE1
100
AcDbEntity
  8
0
100
AcDbLine
 10
-0.593237
 20
0.425898
 30
5.88
 11
-0.94
 21
0.23
 31
5.88
  0
LINE
  5
45AE2
100
AcDbEntity
  8
0
100
AcDbLine
 10
-1.020408
 20
-0.562545
 30
5.88
 11
-0.226368
 21
-0.562545
 31
5.88
  0
LINE
  5
45AE3
100
AcDbEntity
  8
0
100
AcDbLine
 10
-0.94
 20
-0.562545
 30
5.88
 11
-0.94
 21
0.216022
 31
5.88
  0
LINE
  5
45AE4
100
AcDbEntity
  8
0
100
AcDbLine
 10
-1.025435
 20
0.29639
 30
5.88
 11
-1.025435
 21
-0.562545
 31
5.88
  0
LINE
  5
45AE5
100
AcDbEntity
  8
0
100
AcDbLine
 10
-0.864618
 20
-0.040151
 30
5.88
 11
-0.864618
 21
0.251183
 31
5.88
  0
LINE
  5
45AE6
100
AcDbEntity
  8
0
100
AcDbLine
 10
-0.94
 20
-0.040151
 30
5.88
 11
-0.864618
 21
-0.040151
 31
5.88
  0
LINE
  5
45AE7
100
AcDbEntity
  8
0
100
AcDbLine
 10
-0.810774
 20
0.441197
 30
5.88
 11
-1.025435
 21
0.31539
 31
5.88
  0
LINE
  5
45AE8
100
AcDbEntity
  8
0
100
AcDbLine
 10
-0.311803
 20
0.497311
 30
5.88
 11
-0.311803
 21
-0.562545
 31
5.88
  0
LINE
  5
45AE9
100
AcDbEntity
  8
0
100
AcDbLine
 10
-0.226368
 20
0.356667
 30
5.88
 11
-0.226368
 21
-0.562545
 31
5.88
  0
LINE
  5
45AEA
100
AcDbEntity
  8
0
100
AcDbLine
 10
0.195778
 20
0.425898
 30
5.88
 11
-0.130883
 21
0.425898
 31
5.88
  0
LINE
  5
45AEB
100
AcDbEntity
  8
0
100
AcDbLine
 10
-0.311803
 20
0.516311
 30
5.88
 11
0.195778
 21
0.516311
 31
5.88
  0
LINE
  5
45AEC
100
AcDbEntity
  8
0
100
AcDbLine
 10
-0.407289
 20
0.216022
 30
5.88
 11
-0.407289
 21
-0.040151
 31
5.88
  0
LINE
  5
45AED
100
AcDbEntity
  8
0
100
AcDbLine
 10
-0.407289
 20
-0.040151
 30
5.88
 11
-0.311803
 21
-0.040151
 31
5.88
  0
LINE
  5
45AEE
100
AcDbEntity
  8
0
100
AcDbLine
 10
-0.593237
 20
0.425898
 30
5.88
 11
-0.311803
 21
0.425898
 31
5.88
  0
LINE
  5
45AEF
100
AcDbEntity
  8
0
100
AcDbLine
 10
-0.407289
 20
0.235022
 30
5.88
 11
-0.311803
 21
0.235022
 31
5.88
  0
LINE
  5
45AF0
100
AcDbEntity
  8
0
100
AcDbLine
 10
-0.130883
 20
0.425898
 30
5.88
 11
-0.226368
 21
0.375667
 31
5.88
  0
LINE
  5
45AF1
100
AcDbEntity
  8
0
100
AcDbLine
 10
-0.075603
 20
0.406898
 30
5.88
 11
-0.075603
 21
-0.015037
 31
5.88
  0
LINE
  5
45AF2
100
AcDbEntity
  8
0
100
AcDbLine
 10
0.024909
 20
-0.015037
 30
5.88
 11
0.024909
 21
0.406898
 31
5.88
  0
LINE
  5
45AF3
100
AcDbEntity
  8
0
100
AcDbLine
 10
0.266135
 20
0.194839
 30
5.88
 11
0.195778
 21
0.124516
 31
5.88
  0
LINE
  5
45AF4
100
AcDbEntity
  8
0
100
AcDbLine
 10
0.195778
 20
0.124516
 30
5.88
 11
0.024909
 21
0.124516
 31
5.88
  0
LINE
  5
45AF5
100
AcDbEntity
  8
0
100
AcDbLine
 10
-0.075603
 20
-0.015037
 30
5.88
 11
0.024909
 21
-0.015037
 31
5.88
  0
POLYLINE
  5
45AF6
100
AcDbEntity
  8
0
100
AcDbPolygonMesh
 66
     1
 10
0.0
 20
0.0
 30
0.0
 70
    16
 71
     6
 72
     3
  0
VERTEX
  5
45AF7
100
AcDbEntity
  8
0
100
AcDbVertex
100
AcDbPolygonMeshVertex
 10
0.068
 20
9.8
 30
4.755
 70
    64
  0
VERTEX
  5
45AF8
100
AcDbEntity
  8
0
100
AcDbVertex
100
AcDbPolygonMeshVertex
 10
0.068
 20
9.8
 30
0.0
 70
    64
  0
VERTEX
  5
45AF9
100
AcDbEntity
  8
0
100
AcDbVertex
100
AcDbPolygonMeshVertex
 10
0.068
 20
9.8
 30
0.0
 70
    64
  0
VERTEX
  5
45AFA
100
AcDbEntity
  8
0
100
AcDbVertex
100
AcDbPolygonMeshVertex
 10
0.0
 20
9.8
 30
4.755
 70
    64
  0
VERTEX
  5
45AFB
100
AcDbEntity
  8
0
100
AcDbVertex
100
AcDbPolygonMeshVertex
 10
0.0
 20
9.8
 30
0.0
 70
    64
  0
VERTEX
  5
45AFC
100
AcDbEntity
  8
0
100
AcDbVertex
100
AcDbPolygonMeshVertex
 10
0.0
 20
9.8
 30
0.0
 70
    64
  0
VERTEX
  5
45AFD
100
AcDbEntity
  8
0
100
AcDbVertex
100
AcDbPolygonMeshVertex
 10
0.0
 20
10.0
 30
4.755
 70
    64
  0
VERTEX
  5
45AFE
100
AcDbEntity
  8
0
100
AcDbVertex
100
AcDbPolygonMeshVertex
 10
0.0
 20
10.0
 30
0.0
 70
    64
  0
VERTEX
  5
45AFF
100
AcDbEntity
  8
0
100
AcDbVertex
100
AcDbPolygonMeshVertex
 10
0.0
 20
9.8
 30
0.0
 70
    64
  0
VERTEX
  5
45B00
100
AcDbEntity
  8
0
100
AcDbVertex
100
AcDbPolygonMeshVertex
 10
0.068
 20
10.0
 30
4.755
 70
    64
  0
VERTEX
  5
45B01
100
AcDbEntity
  8
0
100
AcDbVertex
100
AcDbPolygonMeshVertex
 10
0.068
 20
10.0
 30
0.0
 70
    64
  0
VERTEX
  5
45B02
100
AcDbEntity
  8
0
100
AcDbVertex
100
AcDbPolygonMeshVertex
 10
0.068
 20
9.8
 30
0.0
 70
    64
  0
VERTEX
  5
45B03
100
AcDbEntity
  8
0
100
AcDbVertex
100
AcDbPolygonMeshVertex
 10
0.068
 20
10.0
 30
4.755
 70
    64
  0
VERTEX
  5
45B04
100
AcDbEntity
  8
0
100
AcDbVertex
100
AcDbPolygonMeshVertex
 10
0.068
 20
10.0
 30
4.755
 70
    64
  0
VERTEX
  5
45B05
100
AcDbEntity
  8
0
100
AcDbVertex
100
AcDbPolygonMeshVertex
 10
0.068
 20
9.8
 30
4.755
 70
    64
  0
VERTEX
  5
45B06
100
AcDbEntity
  8
0
100
AcDbVertex
100
AcDbPolygonMeshVertex
 10
0.0
 20
10.0
 30
4.755
 70
    64
  0
VERTEX
  5
45B07
100
AcDbEntity
  8
0
100
AcDbVertex
100
AcDbPolygonMeshVertex
 10
0.0
 20
10.0
 30
4.755
 70
    64
  0
VERTEX
  5
45B08
100
AcDbEntity
  8
0
100
AcDbVertex
100
AcDbPolygonMeshVertex
 10
0.0
 20
9.8
 30
4.755
 70
    64
  0
SEQEND
  5
45B09
100
AcDbEntity
  8
0
  0
LINE
  5
45B0A
100
AcDbEntity
  8
0
100
AcDbLine
 10
-0.123626
 20
8.063497
 30
5.88
 11
-0.138704
 21
8.04843
 31
5.88
  0
LINE
  5
45B0B
100
AcDbEntity
  8
0
100
AcDbLine
 10
-0.224137
 20
8.053449
 30
5.88
 11
-0.244239
 21
8.068522
 31
5.88
  0
LINE
  5
45B0C
100
AcDbEntity
  8
0
100
AcDbLine
 10
-0.284443
 20
8.168981
 30
5.88
 11
-0.284443
 21
7.877046
 31
5.88
  0
LINE
  5
45B0D
100
AcDbEntity
  8
0
100
AcDbLine
 10
-0.068345
 20
8.168981
 30
5.88
 11
-0.068345
 21
7.877046
 31
5.88
  0
TEXT
  5
45B0E
100
AcDbEntity
  8
0
100
AcDbText
 39
0.001
 10
-0.697436
 20
7.930748
 30
5.879973
 40
0.05
  1
FAULT
 72
     1
 11
-0.58077
 21
7.930748
 31
5.879973
100
AcDbText
  0
LINE
  5
45B0F
100
AcDbEntity
  8
0
100
AcDbLine
 10
-0.769129
 20
5.241735
 30
5.88
 11
0.170651
 21
5.241735
 31
5.88
  0
LINE
  5
45B10
100
AcDbEntity
  8
0
100
AcDbLine
 10
-0.735392
 20
4.84994
 30
5.88
 11
-0.492723
 21
4.84994
 31
5.88
  0
LINE
  5
45B11
100
AcDbEntity
  8
0
100
AcDbLine
 10
-0.735392
 20
5.005652
 30
5.88
 11
-0.492723
 21
5.005652
 31
5.88
  0
LINE
  5
45B12
100
AcDbEntity
  8
0
100
AcDbLine
 10
-0.8158
 20
4.945377
 30
5.88
 11
-0.805749
 21
4.965469
 31
5.88
  0
LINE
  5
45B13
100
AcDbEntity
  8
0
100
AcDbLine
 10
-0.750466
 20
4.844916
 30
5.88
 11
-0.735392
 21
4.84994
 31
5.88
  0
LINE
  5
45B14
100
AcDbEntity
  8
0
100
AcDbLine
 10
-0.77057
 20
4.839893
 30
5.88
 11
-0.750466
 21
4.844916
 31
5.88
  0
LINE
  5
45B15
100
AcDbEntity
  8
0
100
AcDbLine
 10
-0.790672
 20
4.824824
 30
5.88
 11
-0.77057
 21
4.839893
 31
5.88
  0
LINE
  5
45B16
100
AcDbEntity
  8
0
100
AcDbLine
 10
-0.805749
 20
4.809755
 30
5.88
 11
-0.790672
 21
4.824824
 31
5.88
  0
LINE
  5
45B17
100
AcDbEntity
  8
0
100
AcDbLine
 10
-0.8158
 20
4.789662
 30
5.88
 11
-0.805749
 21
4.809755
 31
5.88
  0
LINE
  5
45B18
100
AcDbEntity
  8
0
100
AcDbLine
 10
-0.8158
 20
4.764548
 30
5.88
 11
-0.8158
 21
4.789662
 31
5.88
  0
LINE
  5
45B19
100
AcDbEntity
  8
0
100
AcDbLine
 10
-0.8158
 20
4.920261
 30
5.88
 11
-0.8158
 21
4.945377
 31
5.88
  0
LINE
  5
45B1A
100
AcDbEntity
  8
0
100
AcDbLine
 10
-0.750466
 20
5.000631
 30
5.88
 11
-0.735392
 21
5.005652
 31
5.88
  0
LINE
  5
45B1B
100
AcDbEntity
  8
0
100
AcDbLine
 10
-0.77057
 20
4.995607
 30
5.88
 11
-0.750466
 21
5.000631
 31
5.88
  0
LINE
  5
45B1C
100
AcDbEntity
  8
0
100
AcDbLine
 10
-0.790672
 20
4.980538
 30
5.88
 11
-0.77057
 21
4.995607
 31
5.88
  0
LINE
  5
45B1D
100
AcDbEntity
  8
0
100
AcDbLine
 10
-0.805749
 20
4.965469
 30
5.88
 11
-0.790672
 21
4.980538
 31
5.88
  0
LINE
  5
45B1E
100
AcDbEntity
  8
0
100
AcDbLine
 10
-0.869643
 20
5.307034
 30
5.88
 11
-0.874667
 21
5.332148
 31
5.88
  0
LINE
  5
45B1F
100
AcDbEntity
  8
0
100
AcDbLine
 10
-0.874667
 20
5.332148
 30
5.88
 11
-0.879692
 21
5.352241
 31
5.88
  0
LINE
  5
45B20
100
AcDbEntity
  8
0
100
AcDbLine
 10
-0.854565
 20
5.281918
 30
5.88
 11
-0.869643
 21
5.307034
 31
5.88
  0
LINE
  5
45B21
100
AcDbEntity
  8
0
100
AcDbLine
 10
-0.834463
 20
5.266849
 30
5.88
 11
-0.854565
 21
5.281918
 31
5.88
  0
LINE
  5
45B22
100
AcDbEntity
  8
0
100
AcDbLine
 10
-0.814361
 20
5.25178
 30
5.88
 11
-0.834463
 21
5.266849
 31
5.88
  0
LINE
  5
45B23
100
AcDbEntity
  8
0
100
AcDbLine
 10
-0.789233
 20
5.246759
 30
5.88
 11
-0.814361
 21
5.25178
 31
5.88
  0
LINE
  5
45B24
100
AcDbEntity
  8
0
100
AcDbLine
 10
-0.75908
 20
5.241735
 30
5.88
 11
-0.789233
 21
5.246759
 31
5.88
  0
LINE
  5
45B25
100
AcDbEntity
  8
0
100
AcDbLine
 10
-0.492723
 20
5.08602
 30
5.88
 11
-0.035397
 21
5.08602
 31
5.88
  0
LINE
  5
45B26
100
AcDbEntity
  8
0
100
AcDbLine
 10
-0.040422
 20
4.890123
 30
5.88
 11
-0.492723
 21
4.890123
 31
5.88
  0
LINE
  5
45B27
100
AcDbEntity
  8
0
100
AcDbLine
 10
-0.492723
 20
4.945377
 30
5.88
 11
-0.035397
 21
4.945377
 31
5.88
  0
LINE
  5
45B28
100
AcDbEntity
  8
0
100
AcDbLine
 10
-0.492723
 20
4.779617
 30
5.88
 11
-0.035397
 21
4.779617
 31
5.88
  0
LINE
  5
45B29
100
AcDbEntity
  8
0
100
AcDbLine
 10
-0.150985
 20
5.241735
 30
5.88
 11
-0.150985
 21
5.08602
 31
5.88
  0
LINE
  5
45B2A
100
AcDbEntity
  8
0
100
AcDbLine
 10
-0.407289
 20
5.08602
 30
5.88
 11
-0.407289
 21
5.241735
 31
5.88
  0
LINE
  5
45B2B
100
AcDbEntity
  8
0
100
AcDbLine
 10
-0.492723
 20
5.241735
 30
5.88
 11
-0.492723
 21
4.779617
 31
5.88
  0
LINE
  5
45B2C
100
AcDbEntity
  8
0
100
AcDbLine
 10
0.045013
 20
5.241735
 30
5.88
 11
0.045013
 21
5.005652
 31
5.88
  0
LINE
  5
45B2D
100
AcDbEntity
  8
0
100
AcDbLine
 10
-0.035397
 20
5.241735
 30
5.88
 11
-0.035397
 21
4.779617
 31
5.88
  0
LINE
  5
45B2E
100
AcDbEntity
  8
0
100
AcDbLine
 10
0.135472
 20
4.844916
 30
5.88
 11
0.1606
 21
4.834869
 31
5.88
  0
LINE
  5
45B2F
100
AcDbEntity
  8
0
100
AcDbLine
 10
0.135472
 20
5.000631
 30
5.88
 11
0.1606
 21
4.990583
 31
5.88
  0
LINE
  5
45B30
100
AcDbEntity
  8
0
100
AcDbLine
 10
-0.035397
 20
4.84994
 30
5.88
 11
0.11537
 21
4.84994
 31
5.88
  0
LINE
  5
45B31
100
AcDbEntity
  8
0
100
AcDbLine
 10
0.11537
 20
4.84994
 30
5.88
 11
0.135472
 21
4.844916
 31
5.88
  0
LINE
  5
45B32
100
AcDbEntity
  8
0
100
AcDbLine
 10
-0.035397
 20
5.005652
 30
5.88
 11
0.11537
 21
5.005652
 31
5.88
  0
LINE
  5
45B33
100
AcDbEntity
  8
0
100
AcDbLine
 10
0.11537
 20
5.005652
 30
5.88
 11
0.135472
 21
5.000631
 31
5.88
  0
LINE
  5
45B34
100
AcDbEntity
  8
0
100
AcDbLine
 10
0.190753
 20
4.960446
 30
5.88
 11
0.195778
 21
4.940353
 31
5.88
  0
LINE
  5
45B35
100
AcDbEntity
  8
0
100
AcDbLine
 10
0.195778
 20
4.784641
 30
5.88
 11
0.195778
 21
4.764548
 31
5.88
  0
LINE
  5
45B36
100
AcDbEntity
  8
0
100
AcDbLine
 10
0.190753
 20
4.804731
 30
5.88
 11
0.195778
 21
4.784641
 31
5.88
  0
LINE
  5
45B37
100
AcDbEntity
  8
0
100
AcDbLine
 10
0.175678
 20
4.824824
 30
5.88
 11
0.190753
 21
4.804731
 31
5.88
  0
LINE
  5
45B38
100
AcDbEntity
  8
0
100
AcDbLine
 10
0.1606
 20
4.834869
 30
5.88
 11
0.175678
 21
4.824824
 31
5.88
  0
LINE
  5
45B39
100
AcDbEntity
  8
0
100
AcDbLine
 10
0.195778
 20
4.940353
 30
5.88
 11
0.195778
 21
4.920261
 31
5.88
  0
LINE
  5
45B3A
100
AcDbEntity
  8
0
100
AcDbLine
 10
0.175678
 20
4.980538
 30
5.88
 11
0.190753
 21
4.960446
 31
5.88
  0
LINE
  5
45B3B
100
AcDbEntity
  8
0
100
AcDbLine
 10
0.1606
 20
4.990583
 30
5.88
 11
0.175678
 21
4.980538
 31
5.88
  0
LINE
  5
45B3C
100
AcDbEntity
  8
0
100
AcDbLine
 10
0.271163
 20
5.372333
 30
5.88
 11
0.271163
 21
5.347217
 31
5.88
  0
LINE
  5
45B3D
100
AcDbEntity
  8
0
100
AcDbLine
 10
0.175678
 20
5.246759
 30
5.88
 11
0.1606
 21
5.246759
 31
5.88
  0
LINE
  5
45B3E
100
AcDbEntity
  8
0
100
AcDbLine
 10
0.200806
 20
5.25178
 30
5.88
 11
0.175678
 21
5.246759
 31
5.88
  0
LINE
  5
45B3F
100
AcDbEntity
  8
0
100
AcDbLine
 10
0.225933
 20
5.261827
 30
5.88
 11
0.200806
 21
5.25178
 31
5.88
  0
LINE
  5
45B40
100
AcDbEntity
  8
0
100
AcDbLine
 10
0.246035
 20
5.276896
 30
5.88
 11
0.225933
 21
5.261827
 31
5.88
  0
LINE
  5
45B41
100
AcDbEntity
  8
0
100
AcDbLine
 10
0.261112
 20
5.296987
 30
5.88
 11
0.246035
 21
5.276896
 31
5.88
  0
LINE
  5
45B42
100
AcDbEntity
  8
0
100
AcDbLine
 10
0.271163
 20
5.322103
 30
5.88
 11
0.261112
 21
5.296987
 31
5.88
  0
LINE
  5
45B43
100
AcDbEntity
  8
0
100
AcDbLine
 10
0.271163
 20
5.347217
 30
5.88
 11
0.271163
 21
5.322103
 31
5.88
  0
LINE
  5
45B44
100
AcDbEntity
  8
0
100
AcDbLine
 10
-0.108549
 20
7.978107
 30
5.88
 11
-0.103525
 21
7.952991
 31
5.88
  0
LINE
  5
45B45
100
AcDbEntity
  8
0
100
AcDbLine
 10
-0.098498
 20
7.806723
 30
5.88
 11
-0.118602
 21
7.786631
 31
5.88
  0
LINE
  5
45B46
100
AcDbEntity
  8
0
100
AcDbLine
 10
-0.098498
 20
7.912806
 30
5.88
 11
-0.108549
 21
7.887691
 31
5.88
  0
LINE
  5
45B47
100
AcDbEntity
  8
0
100
AcDbLine
 10
-0.274394
 20
7.826816
 30
5.88
 11
-0.284443
 21
7.85193
 31
5.88
  0
LINE
  5
45B48
100
AcDbEntity
  8
0
100
AcDbLine
 10
-0.214086
 20
7.776583
 30
5.88
 11
-0.239216
 21
7.786631
 31
5.88
  0
LINE
  5
45B49
100
AcDbEntity
  8
0
100
AcDbLine
 10
-0.239216
 20
7.786631
 30
5.88
 11
-0.259316
 21
7.806723
 31
5.88
  0
LINE
  5
45B4A
100
AcDbEntity
  8
0
100
AcDbLine
 10
-0.259316
 20
7.806723
 30
5.88
 11
-0.274394
 21
7.826816
 31
5.88
  0
LINE
  5
45B4B
100
AcDbEntity
  8
0
100
AcDbLine
 10
-0.118602
 20
7.786631
 30
5.88
 11
-0.138704
 21
7.776583
 31
5.88
  0
LINE
  5
45B4C
100
AcDbEntity
  8
0
100
AcDbLine
 10
-0.138704
 20
7.776583
 30
5.88
 11
-0.163831
 21
7.771562
 31
5.88
  0
LINE
  5
45B4D
100
AcDbEntity
  8
0
100
AcDbLine
 10
-0.163831
 20
7.771562
 30
5.88
 11
-0.188959
 21
7.771562
 31
5.88
  0
LINE
  5
45B4E
100
AcDbEntity
  8
0
100
AcDbLine
 10
-0.188959
 20
7.771562
 30
5.88
 11
-0.214086
 21
7.776583
 31
5.88
  0
LINE
  5
45B4F
100
AcDbEntity
  8
0
100
AcDbLine
 10
-0.244239
 20
7.983128
 30
5.88
 11
-0.229163
 21
7.998199
 31
5.88
  0
LINE
  5
45B50
100
AcDbEntity
  8
0
100
AcDbLine
 10
-0.224137
 20
7.862575
 30
5.88
 11
-0.244239
 21
7.877644
 31
5.88
  0
LINE
  5
45B51
100
AcDbEntity
  8
0
100
AcDbLine
 10
-0.259316
 20
7.963038
 30
5.88
 11
-0.244239
 21
7.983128
 31
5.88
  0
LINE
  5
45B52
100
AcDbEntity
  8
0
100
AcDbLine
 10
-0.264343
 20
7.937922
 30
5.88
 11
-0.259316
 21
7.963038
 31
5.88
  0
LINE
  5
45B53
100
AcDbEntity
  8
0
100
AcDbLine
 10
-0.284443
 20
7.85193
 30
5.88
 11
-0.284443
 21
7.877046
 31
5.88
  0
LINE
  5
45B54
100
AcDbEntity
  8
0
100
AcDbLine
 10
-0.244239
 20
7.877644
 30
5.88
 11
-0.25429
 21
7.897737
 31
5.88
  0
LINE
  5
45B55
100
AcDbEntity
  8
0
100
AcDbLine
 10
-0.25429
 20
7.897737
 30
5.88
 11
-0.259316
 21
7.917829
 31
5.88
  0
LINE
  5
45B56
100
AcDbEntity
  8
0
100
AcDbLine
 10
-0.259316
 20
7.917829
 30
5.88
 11
-0.264343
 21
7.937922
 31
5.88
  0
LINE
  5
45B57
100
AcDbEntity
  8
0
100
AcDbLine
 10
-0.229163
 20
7.998199
 30
5.88
 11
-0.209061
 21
8.008245
 31
5.88
  0
LINE
  5
45B58
100
AcDbEntity
  8
0
100
AcDbLine
 10
-0.209061
 20
8.008245
 30
5.88
 11
-0.188959
 21
8.013268
 31
5.88
  0
LINE
  5
45B59
100
AcDbEntity
  8
0
100
AcDbLine
 10
-0.188959
 20
8.013268
 30
5.88
 11
-0.163831
 21
8.013268
 31
5.88
  0
LINE
  5
45B5A
100
AcDbEntity
  8
0
100
AcDbLine
 10
-0.163831
 20
8.013268
 30
5.88
 11
-0.143729
 21
8.003221
 31
5.88
  0
LINE
  5
45B5B
100
AcDbEntity
  8
0
100
AcDbLine
 10
-0.143729
 20
8.003221
 30
5.88
 11
-0.123626
 21
7.993176
 31
5.88
  0
LINE
  5
45B5C
100
AcDbEntity
  8
0
100
AcDbLine
 10
-0.123626
 20
7.993176
 30
5.88
 11
-0.108549
 21
7.978107
 31
5.88
  0
LINE
  5
45B5D
100
AcDbEntity
  8
0
100
AcDbLine
 10
-0.138704
 20
8.04843
 30
5.88
 11
-0.158806
 21
8.043406
 31
5.88
  0
LINE
  5
45B5E
100
AcDbEntity
  8
0
100
AcDbLine
 10
-0.158806
 20
8.043406
 30
5.88
 11
-0.183933
 21
8.03838
 31
5.88
  0
LINE
  5
45B5F
100
AcDbEntity
  8
0
100
AcDbLine
 10
-0.183933
 20
8.03838
 30
5.88
 11
-0.204035
 21
8.043406
 31
5.88
  0
LINE
  5
45B60
100
AcDbEntity
  8
0
100
AcDbLine
 10
-0.204035
 20
8.043406
 30
5.88
 11
-0.224137
 21
8.053449
 31
5.88
  0
LINE
  5
45B61
100
AcDbEntity
  8
0
100
AcDbLine
 10
-0.108549
 20
7.887691
 30
5.88
 11
-0.123626
 21
7.872623
 31
5.88
  0
LINE
  5
45B62
100
AcDbEntity
  8
0
100
AcDbLine
 10
-0.123626
 20
7.872623
 30
5.88
 11
-0.138704
 21
7.857554
 31
5.88
  0
LINE
  5
45B63
100
AcDbEntity
  8
0
100
AcDbLine
 10
-0.138704
 20
7.857554
 30
5.88
 11
-0.158806
 21
7.85253
 31
5.88
  0
LINE
  5
45B64
100
AcDbEntity
  8
0
100
AcDbLine
 10
-0.158806
 20
7.85253
 30
5.88
 11
-0.183933
 21
7.847506
 31
5.88
  0
LINE
  5
45B65
100
AcDbEntity
  8
0
100
AcDbLine
 10
-0.204035
 20
7.85253
 30
5.88
 11
-0.224137
 21
7.862575
 31
5.88
  0
LINE
  5
45B66
100
AcDbEntity
  8
0
100
AcDbLine
 10
-0.183933
 20
7.847506
 30
5.88
 11
-0.204035
 21
7.85253
 31
5.88
  0
LINE
  5
45B67
100
AcDbEntity
  8
0
100
AcDbLine
 10
-0.073371
 20
7.85193
 30
5.88
 11
-0.083422
 21
7.826816
 31
5.88
  0
LINE
  5
45B68
100
AcDbEntity
  8
0
100
AcDbLine
 10
-0.083422
 20
7.826816
 30
5.88
 11
-0.098498
 21
7.806723
 31
5.88
  0
LINE
  5
45B69
100
AcDbEntity
  8
0
100
AcDbLine
 10
-0.103525
 20
7.952991
 30
5.88
 11
-0.098498
 21
7.932898
 31
5.88
  0
LINE
  5
45B6A
100
AcDbEntity
  8
0
100
AcDbLine
 10
-0.068345
 20
7.877046
 30
5.88
 11
-0.073371
 21
7.85193
 31
5.88
  0
LINE
  5
45B6B
100
AcDbEntity
  8
0
100
AcDbLine
 10
-0.098498
 20
7.932898
 30
5.88
 11
-0.098498
 21
7.912806
 31
5.88
  0
LINE
  5
45B6C
100
AcDbEntity
  8
0
100
AcDbLine
 10
0.085215
 20
8.368034
 30
5.88
 11
-0.693747
 21
8.368034
 31
5.88
  0
LINE
  5
45B6D
100
AcDbEntity
  8
0
100
AcDbLine
 10
-0.693747
 20
8.769875
 30
5.88
 11
0.085215
 21
8.769875
 31
5.88
  0
LINE
  5
45B6E
100
AcDbEntity
  8
0
100
AcDbLine
 10
-0.693747
 20
8.368034
 30
5.88
 11
-0.693747
 21
8.769875
 31
5.88
  0
POLYLINE
  5
45B6F
100
AcDbEntity
  8
0
100
AcDbPolygonMesh
 66
     1
 10
0.0
 20
0.0
 30
0.0
 70
    16
 71
     6
 72
     3
  0
VERTEX
  5
45B70
100
AcDbEntity
  8
0
100
AcDbVertex
100
AcDbPolygonMeshVertex
 10
0.265
 20
9.0811
 30
5.837
 70
    64
  0
VERTEX
  5
45B71
100
AcDbEntity
  8
0
100
AcDbVertex
100
AcDbPolygonMeshVertex
 10
0.265
 20
9.0811
 30
5.747
 70
    64
  0
VERTEX
  5
45B72
100
AcDbEntity
  8
0
100
AcDbVertex
100
AcDbPolygonMeshVertex
 10
0.265
 20
9.0811
 30
5.747
 70
    64
  0
VERTEX
  5
45B73
100
AcDbEntity
  8
0
100
AcDbVertex
100
AcDbPolygonMeshVertex
 10
-0.197
 20
9.0811
 30
5.837
 70
    64
  0
VERTEX
  5
45B74
100
AcDbEntity
  8
0
100
AcDbVertex
100
AcDbPolygonMeshVertex
 10
-0.197
 20
9.0811
 30
5.747
 70
    64
  0
VERTEX
  5
45B75
100
AcDbEntity
  8
0
100
AcDbVertex
100
AcDbPolygonMeshVertex
 10
-0.197
 20
9.0811
 30
5.747
 70
    64
  0
VERTEX
  5
45B76
100
AcDbEntity
  8
0
100
AcDbVertex
100
AcDbPolygonMeshVertex
 10
-0.197
 20
10.0432
 30
5.837
 70
    64
  0
VERTEX
  5
45B77
100
AcDbEntity
  8
0
100
AcDbVertex
100
AcDbPolygonMeshVertex
 10
-0.197
 20
10.0432
 30
5.747
 70
    64
  0
VERTEX
  5
45B78
100
AcDbEntity
  8
0
100
AcDbVertex
100
AcDbPolygonMeshVertex
 10
-0.197
 20
9.0811
 30
5.747
 70
    64
  0
VERTEX
  5
45B79
100
AcDbEntity
  8
0
100
AcDbVertex
100
AcDbPolygonMeshVertex
 10
0.265
 20
10.0432
 30
5.837
 70
    64
  0
VERTEX
  5
45B7A
100
AcDbEntity
  8
0
100
AcDbVertex
100
AcDbPolygonMeshVertex
 10
0.265
 20
10.0432
 30
5.747
 70
    64
  0
VERTEX
  5
45B7B
100
AcDbEntity
  8
0
100
AcDbVertex
100
AcDbPolygonMeshVertex
 10
0.265
 20
9.0811
 30
5.747
 70
    64
  0
VERTEX
  5
45B7C
100
AcDbEntity
  8
0
100
AcDbVertex
100
AcDbPolygonMeshVertex
 10
0.265
 20
10.0432
 30
5.837
 70
    64
  0
VERTEX
  5
45B7D
100
AcDbEntity
  8
0
100
AcDbVertex
100
AcDbPolygonMeshVertex
 10
0.265
 20
10.0432
 30
5.837
 70
    64
  0
VERTEX
  5
45B7E
100
AcDbEntity
  8
0
100
AcDbVertex
100
AcDbPolygonMeshVertex
 10
0.265
 20
9.0811
 30
5.837
 70
    64
  0
VERTEX
  5
45B7F
100
AcDbEntity
  8
0
100
AcDbVertex
100
AcDbPolygonMeshVertex
 10
-0.197
 20
10.0432
 30
5.837
 70
    64
  0
VERTEX
  5
45B80
100
AcDbEntity
  8
0
100
AcDbVertex
100
AcDbPolygonMeshVertex
 10
-0.197
 20
10.0432
 30
5.837
 70
    64
  0
VERTEX
  5
45B81
100
AcDbEntity
  8
0
100
AcDbVertex
100
AcDbPolygonMeshVertex
 10
-0.197
 20
9.0811
 30
5.837
 70
    64
  0
SEQEND
  5
45B82
100
AcDbEntity
  8
0
  0
POLYLINE
  5
45B83
100
AcDbEntity
  8
0
100
AcDbPolygonMesh
 66
     1
 10
0.0
 20
0.0
 30
0.0
 70
    16
 71
     6
 72
     3
  0
VERTEX
  5
45B84
100
AcDbEntity
  8
0
100
AcDbVertex
100
AcDbPolygonMeshVertex
 10
0.068
 20
8.912
 30
5.747
 70
    64
  0
VERTEX
  5
45B85
100
AcDbEntity
  8
0
100
AcDbVertex
100
AcDbPolygonMeshVertex
 10
0.068
 20
8.912
 30
5.39
 70
    64
  0
VERTEX
  5
45B86
100
AcDbEntity
  8
0
100
AcDbVertex
100
AcDbPolygonMeshVertex
 10
0.068
 20
8.912
 30
5.39
 70
    64
  0
VERTEX
  5
45B87
100
AcDbEntity
  8
0
100
AcDbVertex
100
AcDbPolygonMeshVertex
 10
0.0
 20
8.912
 30
5.747
 70
    64
  0
VERTEX
  5
45B88
100
AcDbEntity
  8
0
100
AcDbVertex
100
AcDbPolygonMeshVertex
 10
0.0
 20
8.912
 30
5.39
 70
    64
  0
VERTEX
  5
45B89
100
AcDbEntity
  8
0
100
AcDbVertex
100
AcDbPolygonMeshVertex
 10
0.0
 20
8.912
 30
5.39
 70
    64
  0
VERTEX
  5
45B8A
100
AcDbEntity
  8
0
100
AcDbVertex
100
AcDbPolygonMeshVertex
 10
0.0
 20
9.6931
 30
5.747
 70
    64
  0
VERTEX
  5
45B8B
100
AcDbEntity
  8
0
100
AcDbVertex
100
AcDbPolygonMeshVertex
 10
0.0
 20
9.6931
 30
5.39
 70
    64
  0
VERTEX
  5
45B8C
100
AcDbEntity
  8
0
100
AcDbVertex
100
AcDbPolygonMeshVertex
 10
0.0
 20
8.912
 30
5.39
 70
    64
  0
VERTEX
  5
45B8D
100
AcDbEntity
  8
0
100
AcDbVertex
100
AcDbPolygonMeshVertex
 10
0.068
 20
9.6931
 30
5.747
 70
    64
  0
VERTEX
  5
45B8E
100
AcDbEntity
  8
0
100
AcDbVertex
100
AcDbPolygonMeshVertex
 10
0.068
 20
9.6931
 30
5.39
 70
    64
  0
VERTEX
  5
45B8F
100
AcDbEntity
  8
0
100
AcDbVertex
100
AcDbPolygonMeshVertex
 10
0.068
 20
8.912
 30
5.39
 70
    64
  0
VERTEX
  5
45B90
100
AcDbEntity
  8
0
100
AcDbVertex
100
AcDbPolygonMeshVertex
 10
0.068
 20
9.6931
 30
5.747
 70
    64
  0
VERTEX
  5
45B91
100
AcDbEntity
  8
0
100
AcDbVertex
100
AcDbPolygonMeshVertex
 10
0.068
 20
9.6931
 30
5.747
 70
    64
  0
VERTEX
  5
45B92
100
AcDbEntity
  8
0
100
AcDbVertex
100
AcDbPolygonMeshVertex
 10
0.068
 20
8.912
 30
5.747
 70
    64
  0
VERTEX
  5
45B93
100
AcDbEntity
  8
0
100
AcDbVertex
100
AcDbPolygonMeshVertex
 10
0.0
 20
9.6931
 30
5.747
 70
    64
  0
VERTEX
  5
45B94
100
AcDbEntity
  8
0
100
AcDbVertex
100
AcDbPolygonMeshVertex
 10
0.0
 20
9.6931
 30
5.747
 70
    64
  0
VERTEX
  5
45B95
100
AcDbEntity
  8
0
100
AcDbVertex
100
AcDbPolygonMeshVertex
 10
0.0
 20
8.912
 30
5.747
 70
    64
  0
SEQEND
  5
45B96
100
AcDbEntity
  8
0
  0
POLYLINE
  5
45B97
100
AcDbEntity
  8
0
100
AcDbPolygonMesh
 66
     1
 10
0.0
 20
0.0
 30
0.0
 70
    16
 71
     6
 72
     3
  0
VERTEX
  5
45B98
100
AcDbEntity
  8
0
100
AcDbVertex
100
AcDbPolygonMeshVertex
 10
0.136
 20
9.0811
 30
5.747
 70
    64
  0
VERTEX
  5
45B99
100
AcDbEntity
  8
0
100
AcDbVertex
100
AcDbPolygonMeshVertex
 10
0.136
 20
9.0811
 30
5.747
 70
    64
  0
VERTEX
  5
45B9A
100
AcDbEntity
  8
0
100
AcDbVertex
100
AcDbPolygonMeshVertex
 10
0.136
 20
9.0811
 30
5.747
 70
    64
  0
VERTEX
  5
45B9B
100
AcDbEntity
  8
0
100
AcDbVertex
100
AcDbPolygonMeshVertex
 10
0.136
 20
9.6931
 30
5.437
 70
    64
  0
VERTEX
  5
45B9C
100
AcDbEntity
  8
0
100
AcDbVertex
100
AcDbPolygonMeshVertex
 10
0.136
 20
9.6931
 30
5.747
 70
    64
  0
VERTEX
  5
45B9D
100
AcDbEntity
  8
0
100
AcDbVertex
100
AcDbPolygonMeshVertex
 10
0.136
 20
9.6931
 30
5.747
 70
    64
  0
VERTEX
  5
45B9E
100
AcDbEntity
  8
0
100
AcDbVertex
100
AcDbPolygonMeshVertex
 10
0.068
 20
9.6931
 30
5.437
 70
    64
  0
VERTEX
  5
45B9F
100
AcDbEntity
  8
0
100
AcDbVertex
100
AcDbPolygonMeshVertex
 10
0.068
 20
9.6931
 30
5.747
 70
    64
  0
VERTEX
  5
45BA0
100
AcDbEntity
  8
0
100
AcDbVertex
100
AcDbPolygonMeshVertex
 10
0.136
 20
9.6931
 30
5.747
 70
    64
  0
VERTEX
  5
45BA1
100
AcDbEntity
  8
0
100
AcDbVertex
100
AcDbPolygonMeshVertex
 10
0.068
 20
9.0811
 30
5.747
 70
    64
  0
VERTEX
  5
45BA2
100
AcDbEntity
  8
0
100
AcDbVertex
100
AcDbPolygonMeshVertex
 10
0.068
 20
9.0811
 30
5.747
 70
    64
  0
VERTEX
  5
45BA3
100
AcDbEntity
  8
0
100
AcDbVertex
100
AcDbPolygonMeshVertex
 10
0.136
 20
9.0811
 30
5.747
 70
    64
  0
VERTEX
  5
45BA4
100
AcDbEntity
  8
0
100
AcDbVertex
100
AcDbPolygonMeshVertex
 10
0.068
 20
9.0811
 30
5.747
 70
    64
  0
VERTEX
  5
45BA5
100
AcDbEntity
  8
0
100
AcDbVertex
100
AcDbPolygonMeshVertex
 10
0.068
 20
9.0811
 30
5.747
 70
    64
  0
VERTEX
  5
45BA6
100
AcDbEntity
  8
0
100
AcDbVertex
100
AcDbPolygonMeshVertex
 10
0.136
 20
9.0811
 30
5.747
 70
    64
  0
VERTEX
  5
45BA7
100
AcDbEntity
  8
0
100
AcDbVertex
100
AcDbPolygonMeshVertex
 10
0.068
 20
9.6931
 30
5.437
 70
    64
  0
VERTEX
  5
45BA8
100
AcDbEntity
  8
0
100
AcDbVertex
100
AcDbPolygonMeshVertex
 10
0.068
 20
9.6931
 30
5.437
 70
    64
  0
VERTEX
  5
45BA9
100
AcDbEntity
  8
0
100
AcDbVertex
100
AcDbPolygonMeshVertex
 10
0.136
 20
9.6931
 30
5.437
 70
    64
  0
SEQEND
  5
45BAA
100
AcDbEntity
  8
0
  0
POLYLINE
  5
45BAB
100
AcDbEntity
  8
0
100
AcDbPolygonMesh
 66
     1
 10
0.0
 20
0.0
 30
0.0
 70
    16
 71
     6
 72
     3
  0
VERTEX
  5
45BAC
100
AcDbEntity
  8
0
100
AcDbVertex
100
AcDbPolygonMeshVertex
 10
0.0
 20
9.0811
 30
5.747
 70
    64
  0
VERTEX
  5
45BAD
100
AcDbEntity
  8
0
100
AcDbVertex
100
AcDbPolygonMeshVertex
 10
0.0
 20
9.0811
 30
5.747
 70
    64
  0
VERTEX
  5
45BAE
100
AcDbEntity
  8
0
100
AcDbVertex
100
AcDbPolygonMeshVertex
 10
0.0
 20
9.0811
 30
5.747
 70
    64
  0
VERTEX
  5
45BAF
100
AcDbEntity
  8
0
100
AcDbVertex
100
AcDbPolygonMeshVertex
 10
0.0
 20
9.6931
 30
5.437
 70
    64
  0
VERTEX
  5
45BB0
100
AcDbEntity
  8
0
100
AcDbVertex
100
AcDbPolygonMeshVertex
 10
0.0
 20
9.6931
 30
5.747
 70
    64
  0
VERTEX
  5
45BB1
100
AcDbEntity
  8
0
100
AcDbVertex
100
AcDbPolygonMeshVertex
 10
0.0
 20
9.6931
 30
5.747
 70
    64
  0
VERTEX
  5
45BB2
100
AcDbEntity
  8
0
100
AcDbVertex
100
AcDbPolygonMeshVertex
 10
-0.068
 20
9.6931
 30
5.437
 70
    64
  0
VERTEX
  5
45BB3
100
AcDbEntity
  8
0
100
AcDbVertex
100
AcDbPolygonMeshVertex
 10
-0.068
 20
9.6931
 30
5.747
 70
    64
  0
VERTEX
  5
45BB4
100
AcDbEntity
  8
0
100
AcDbVertex
100
AcDbPolygonMeshVertex
 10
0.0
 20
9.6931
 30
5.747
 70
    64
  0
VERTEX
  5
45BB5
100
AcDbEntity
  8
0
100
AcDbVertex
100
AcDbPolygonMeshVertex
 10
-0.068
 20
9.0811
 30
5.747
 70
    64
  0
VERTEX
  5
45BB6
100
AcDbEntity
  8
0
100
AcDbVertex
100
AcDbPolygonMeshVertex
 10
-0.068
 20
9.0811
 30
5.747
 70
    64
  0
VERTEX
  5
45BB7
100
AcDbEntity
  8
0
100
AcDbVertex
100
AcDbPolygonMeshVertex
 10
0.0
 20
9.0811
 30
5.747
 70
    64
  0
VERTEX
  5
45BB8
100
AcDbEntity
  8
0
100
AcDbVertex
100
AcDbPolygonMeshVertex
 10
-0.068
 20
9.0811
 30
5.747
 70
    64
  0
VERTEX
  5
45BB9
100
AcDbEntity
  8
0
100
AcDbVertex
100
AcDbPolygonMeshVertex
 10
-0.068
 20
9.0811
 30
5.747
 70
    64
  0
VERTEX
  5
45BBA
100
AcDbEntity
  8
0
100
AcDbVertex
100
AcDbPolygonMeshVertex
 10
0.0
 20
9.0811
 30
5.747
 70
    64
  0
VERTEX
  5
45BBB
100
AcDbEntity
  8
0
100
AcDbVertex
100
AcDbPolygonMeshVertex
 10
-0.068
 20
9.6931
 30
5.437
 70
    64
  0
VERTEX
  5
45BBC
100
AcDbEntity
  8
0
100
AcDbVertex
100
AcDbPolygonMeshVertex
 10
-0.068
 20
9.6931
 30
5.437
 70
    64
  0
VERTEX
  5
45BBD
100
AcDbEntity
  8
0
100
AcDbVertex
100
AcDbPolygonMeshVertex
 10
0.0
 20
9.6931
 30
5.437
 70
    64
  0
SEQEND
  5
45BBE
100
AcDbEntity
  8
0
  0
CIRCLE
  5
45BBF
100
AcDbEntity
  8
0
100
AcDbCircle
 10
9.586379
 20
5.592
 30
0.136
 40
0.05206
210
1.0
220
0.0
230
0.0
  0
CIRCLE
  5
45BC0
100
AcDbEntity
  8
0
100
AcDbCircle
 10
9.586379
 20
5.592
 30
-0.068
 40
0.05206
210
1.0
220
0.0
230
0.0
  0
LINE
  5
45BC1
100
AcDbEntity
  8
0
100
AcDbLine
 10
-0.118602
 20
8.254372
 30
5.88
 11
-0.098498
 21
8.239304
 31
5.88
  0
LINE
  5
45BC2
100
AcDbEntity
  8
0
100
AcDbLine
 10
-0.108549
 20
8.168981
 30
5.88
 11
-0.103525
 21
8.148888
 31
5.88
  0
LINE
  5
45BC3
100
AcDbEntity
  8
0
100
AcDbLine
 10
-0.098498
 20
8.103682
 30
5.88
 11
-0.108549
 21
8.083589
 31
5.88
  0
TEXT
  5
45BC4
100
AcDbEntity
  8
0
100
AcDbText
 39
0.001
 10
-0.597436
 20
8.080748
 30
5.879973
 40
0.05
  1
RUN
 72
     1
 11
-0.53077
 21
8.080748
 31
5.879973
100
AcDbText
  0
LINE
  5
45BC5
100
AcDbEntity
  8
0
100
AcDbLine
 10
-0.138704
 20
8.269441
 30
5.88
 11
-0.118602
 21
8.254372
 31
5.88
  0
LINE
  5
45BC6
100
AcDbEntity
  8
0
100
AcDbLine
 10
-0.239216
 20
8.254372
 30
5.88
 11
-0.214086
 21
8.269441
 31
5.88
  0
LINE
  5
45BC7
100
AcDbEntity
  8
0
100
AcDbLine
 10
-0.244239
 20
8.174004
 30
5.88
 11
-0.229163
 21
8.189073
 31
5.88
  0
LINE
  5
45BC8
100
AcDbEntity
  8
0
100
AcDbLine
 10
-0.284443
 20
8.168981
 30
5.88
 11
-0.284443
 21
8.194095
 31
5.88
  0
LINE
  5
45BC9
100
AcDbEntity
  8
0
100
AcDbLine
 10
-0.284443
 20
8.194095
 30
5.88
 11
-0.274394
 21
8.219211
 31
5.88
  0
LINE
  5
45BCA
100
AcDbEntity
  8
0
100
AcDbLine
 10
-0.274394
 20
8.219211
 30
5.88
 11
-0.259316
 21
8.239304
 31
5.88
  0
LINE
  5
45BCB
100
AcDbEntity
  8
0
100
AcDbLine
 10
-0.259316
 20
8.239304
 30
5.88
 11
-0.239216
 21
8.254372
 31
5.88
  0
LINE
  5
45BCC
100
AcDbEntity
  8
0
100
AcDbLine
 10
-0.259316
 20
8.153912
 30
5.88
 11
-0.244239
 21
8.174004
 31
5.88
  0
LINE
  5
45BCD
100
AcDbEntity
  8
0
100
AcDbLine
 10
-0.264343
 20
8.128796
 30
5.88
 11
-0.259316
 21
8.153912
 31
5.88
  0
LINE
  5
45BCE
100
AcDbEntity
  8
0
100
AcDbLine
 10
-0.244239
 20
8.068522
 30
5.88
 11
-0.25429
 21
8.088611
 31
5.88
  0
LINE
  5
45BCF
100
AcDbEntity
  8
0
100
AcDbLine
 10
-0.25429
 20
8.088611
 30
5.88
 11
-0.259316
 21
8.108703
 31
5.88
  0
LINE
  5
45BD0
100
AcDbEntity
  8
0
100
AcDbLine
 10
-0.259316
 20
8.108703
 30
5.88
 11
-0.264343
 21
8.128796
 31
5.88
  0
LINE
  5
45BD1
100
AcDbEntity
  8
0
100
AcDbLine
 10
-0.229163
 20
8.189073
 30
5.88
 11
-0.209061
 21
8.199119
 31
5.88
  0
LINE
  5
45BD2
100
AcDbEntity
  8
0
100
AcDbLine
 10
-0.209061
 20
8.199119
 30
5.88
 11
-0.188959
 21
8.204142
 31
5.88
  0
LINE
  5
45BD3
100
AcDbEntity
  8
0
100
AcDbLine
 10
-0.188959
 20
8.204142
 30
5.88
 11
-0.163831
 21
8.204142
 31
5.88
  0
LINE
  5
45BD4
100
AcDbEntity
  8
0
100
AcDbLine
 10
-0.163831
 20
8.204142
 30
5.88
 11
-0.143729
 21
8.199119
 31
5.88
  0
LINE
  5
45BD5
100
AcDbEntity
  8
0
100
AcDbLine
 10
-0.143729
 20
8.199119
 30
5.88
 11
-0.123626
 21
8.18405
 31
5.88
  0
LINE
  5
45BD6
100
AcDbEntity
  8
0
100
AcDbLine
 10
-0.123626
 20
8.18405
 30
5.88
 11
-0.108549
 21
8.168981
 31
5.88
  0
LINE
  5
45BD7
100
AcDbEntity
  8
0
100
AcDbLine
 10
-0.108549
 20
8.083589
 30
5.88
 11
-0.123626
 21
8.063497
 31
5.88
  0
LINE
  5
45BD8
100
AcDbEntity
  8
0
100
AcDbLine
 10
-0.214086
 20
8.269441
 30
5.88
 11
-0.188959
 21
8.274465
 31
5.88
  0
LINE
  5
45BD9
100
AcDbEntity
  8
0
100
AcDbLine
 10
-0.188959
 20
8.274465
 30
5.88
 11
-0.163831
 21
8.274465
 31
5.88
  0
LINE
  5
45BDA
100
AcDbEntity
  8
0
100
AcDbLine
 10
-0.163831
 20
8.274465
 30
5.88
 11
-0.138704
 21
8.269441
 31
5.88
  0
TEXT
  5
45BDB
100
AcDbEntity
  8
0
100
AcDbText
 39
0.001
 10
-0.439781
 20
8.494051
 30
5.879973
 40
0.05
  1
MODULE
 72
     1
 11
-0.298115
 21
8.494051
 31
5.879973
100
AcDbText
  0
TEXT
  5
45BDC
100
AcDbEntity
  8
0
100
AcDbText
 39
0.001
 10
-0.498115
 20
8.669051
 30
5.879973
 40
0.05
  1
TC / MV
 72
     1
 11
-0.323115
 21
8.669051
 31
5.879973
100
AcDbText
  0
LINE
  5
45BDD
100
AcDbEntity
  8
0
100
AcDbLine
 10
0.085215
 20
8.769875
 30
5.88
 11
0.085215
 21
8.368034
 31
5.88
  0
LINE
  5
45BDE
100
AcDbEntity
  8
0
100
AcDbLine
 10
-0.098498
 20
8.239304
 30
5.88
 11
-0.083422
 21
8.219211
 31
5.88
  0
LINE
  5
45BDF
100
AcDbEntity
  8
0
100
AcDbLine
 10
-0.083422
 20
8.219211
 30
5.88
 11
-0.073371
 21
8.194095
 31
5.88
  0
LINE
  5
45BE0
100
AcDbEntity
  8
0
100
AcDbLine
 10
-0.073371
 20
8.194095
 30
5.88
 11
-0.068345
 21
8.168981
 31
5.88
  0
LINE
  5
45BE1
100
AcDbEntity
  8
0
100
AcDbLine
 10
-0.098498
 20
8.123772
 30
5.88
 11
-0.098498
 21
8.103682
 31
5.88
  0
LINE
  5
45BE2
100
AcDbEntity
  8
0
100
AcDbLine
 10
-0.103525
 20
8.148888
 30
5.88
 11
-0.098498
 21
8.123772
 31
5.88
  0
DIMENSION
  5
45BE4
100
AcDbEntity
  8
AREA1
100
AcDbDimension
  2
*D0
 10
1.269431
 20
10.0432
 30
0.0
 11
1.269431
 21
4.740327
 31
0.0
 70
    32
  3
ABECAD_3D
100
AcDbAlignedDimension
 13
-0.226368
 23
-0.562545
 33
5.88
 14
0.265
 24
10.0432
 34
5.747
 50
90.0
100
AcDbRotatedDimension
  0
DIMENSION
  5
45BF2
100
AcDbEntity
  8
AREA1
100
AcDbDimension
  2
*D1
 10
0.3275
 20
10.955113
 30
0.0
 11
1.6775
 21
10.955113
 31
0.0
 70
    32
  3
ABECAD_3D
100
AcDbAlignedDimension
 13
-1.025435
 23
0.31539
 33
5.88
 14
0.3275
 24
10.0432
 34
0.0
100
AcDbRotatedDimension
  0
LINE
  5
45C49
100
AcDbEntity
  8
SCALE
100
AcDbLine
 10
-0.996419
 20
-1.438713
 30
0.0
 11
0.003581
 21
-1.438713
 31
0.0
  0
LINE
  5
45C4A
100
AcDbEntity
  8
SCALE
100
AcDbLine
 10
0.003581
 20
-1.438713
 30
0.0
 11
0.003581
 21
-1.538713
 31
0.0
  0
LINE
  5
45C4B
100
AcDbEntity
  8
SCALE
100
AcDbLine
 10
0.003581
 20
-1.538713
 30
0.0
 11
0.003581
 21
-1.338713
 31
0.0
  0
LINE
  5
45C4C
100
AcDbEntity
  8
SCALE
100
AcDbLine
 10
-0.996419
 20
-1.538713
 30
0.0
 11
-0.996419
 21
-1.338713
 31
0.0
  0
LINE
  5
45C4D
100
AcDbEntity
  8
SCALE
100
AcDbLine
 10
-0.996419
 20
-1.838713
 30
0.0
 11
-0.996419
 21
-1.638713
 31
0.0
  0
LINE
  5
45C4E
100
AcDbEntity
  8
SCALE
100
AcDbLine
 10
-0.602719
 20
-1.838713
 30
0.0
 11
-0.602719
 21
-1.638713
 31
0.0
  0
LINE
  5
45C4F
100
AcDbEntity
  8
SCALE
100
AcDbLine
 10
-0.996419
 20
-1.738713
 30
0.0
 11
-0.602719
 21
-1.738713
 31
0.0
  0
TEXT
  5
45C50
100
AcDbEntity
  8
SCALE
100
AcDbText
 10
-0.936997
 20
-1.692974
 30
0.0
 40
0.0625
  1
[10mm]
100
AcDbText
  0
TEXT
  5
45C51
100
AcDbEntity
  8
SCALE
100
AcDbText
 10
-0.633136
 20
-1.369665
 30
0.0
 40
0.0625
  1
1 Inch
100
AcDbText
  0
TEXT
  5
45C52
100
AcDbEntity
  8
SCALE
100
AcDbText
 10
-0.994889
 20
-1.163836
 30
0.0
 40
0.0625
  1
SCALE:
100
AcDbText
  0
LWPOLYLINE
  5
45C53
100
AcDbEntity
  8
SCALE
100
AcDbPolyline
 90
        4
 70
     1
 43
0.0
 10
-1.054418
 20
-1.058635
 10
0.081211
 20
-1.058635
 10
0.081211
 20
-1.900245
 10
-1.054418
 20
-1.900245
  0
ENDSEC
  0
SECTION
  2
OBJECTS
  0
DICTIONARY
  5
458CB
100
AcDbDictionary
  3
ACAD_GROUP
350
458CC
  3
ACAD_LAYOUT
350
458FB
  3
ACAD_MLINESTYLE
350
458D9
  3
ACAD_PLOTSETTINGS
350
458FC
  3
ACAD_PLOTSTYLENAME
350
458F9
  3
ACDBHEADERROUNDTRIPXREC
350
45CF5
  3
ACDBVARIABLEDICTIONARY
350
458E1
  3
DWGPROPS
350
45901
  0
DICTIONARY
  5
45CF3
100
AcDbDictionary
280
     1
  3
ACAD_XREC_ROUNDTRIP
360
45CF4
  0
DICTIONARY
  5
45D1E
100
AcDbDictionary
280
     1
  3
ACAD_XREC_ROUNDTRIP
360
45D1F
  0
DICTIONARY
  5
45CF1
100
AcDbDictionary
280
     1
  3
ACAD_XREC_ROUNDTRIP
360
45CF2
  0
DICTIONARY
  5
45D18
100
AcDbDictionary
280
     1
  3
ACAD_XREC_ROUNDTRIP
360
45D19
  0
DICTIONARY
  5
45D1A
100
AcDbDictionary
280
     1
  3
ACAD_XREC_ROUNDTRIP
360
45D1B
  0
DICTIONARY
  5
4592C
100
AcDbDictionary
280
     1
  3
ACAD_LAYOUTSELFREF
360
45D17
  0
DICTIONARY
  5
4592A
100
AcDbDictionary
280
     1
  3
ACAD_LAYOUTSELFREF
360
45D16
  0
DICTIONARY
  5
458CC
102
{ACAD_REACTORS
330
458CB
102
}
100
AcDbDictionary
  0
DICTIONARY
  5
458FB
102
{ACAD_XDICTIONARY
360
45D1C
102
}
102
{ACAD_REACTORS
330
458CB
102
}
100
AcDbDictionary
  3
LAYOUT1
350
458FE
  3
MODEL
350
458FD
  0
DICTIONARY
  5
458D9
102
{ACAD_REACTORS
330
458CB
102
}
100
AcDbDictionary
  3
STANDARD
350
458DA
  0
DICTIONARY
  5
458FC
102
{ACAD_REACTORS
330
458CB
102
}
100
AcDbDictionary
  0
ACAD_PROXY_OBJECT
  5
458F9
102
{ACAD_REACTORS
330
458CB
102
}
100
AcDbProxyObject
 90
      499
 91
      501
 93
       86
310
405010041939BDC9B585B1
350
458FA
340
458FA
 94
        0
  0
DICTIONARY
  5
45CF5
102
{ACAD_REACTORS
330
458CB
102
}
100
AcDbDictionary
  3
CEPSNTYPE
350
45CFF
  3
DIMSTYLEDATA
350
45D03
  3
FINGERPRINTGUID
350
45D00
  3
HYPERLINKBASE
350
45CF8
  3
INSUNITS
350
45CFE
  3
LAYOUTDICT
350
45CFA
  3
LWETCUNION
350
45CFD
  3
PLOTSETDICT
350
45CFB
  3
PLOTSTYLNAMDICT
350
45CFC
  3
PSVPSCALE
350
45D02
  3
PUCSBASE
350
45D06
  3
PUCSORGBACK
350
45D0C
  3
PUCSORGBOTTOM
350
45D08
  3
PUCSORGFRONT
350
45D0B
  3
PUCSORGLEFT
350
45D09
  3
PUCSORGRIGHT
350
45D0A
  3
PUCSORGTOP
350
45D07
  3
PUCSORTHOREF
350
45D04
  3
PUCSORTHOVIEW
350
45D05
  3
STYLESHEET
350
45CF9
  3
TSTACKALIGN
350
45CF6
  3
TSTACKSIZE
350
45CF7
  3
UCSBASE
350
45D0F
  3
UCSORGBACK
350
45D15
  3
UCSORGBOTTOM
350
45D11
  3
UCSORGFRONT
350
45D14
  3
UCSORGLEFT
350
45D12
  3
UCSORGRIGHT
350
45D13
  3
UCSORGTOP
350
45D10
  3
UCSORTHOREF
350
45D0D
  3
UCSORTHOVIEW
350
45D0E
  3
VERSIONGUID
350
45D01
  0
DICTIONARY
  5
458E1
102
{ACAD_REACTORS
330
458CB
102
}
100
AcDbDictionary
  3
DIMADEC
350
458E2
  0
XRECORD
  5
45901
102
{ACAD_REACTORS
330
458CB
102
}
100
AcDbXrecord
  1
DWGPROPS COOKIE
  2

  3

  4

  6

  7

  8
colin
  9

300
=
301
=
302
=
303
=
304
=
305
=
306
=
307
=
308
=
309
=
 40
0.000599
 41
2451670.444777
 42
2451670.445376
  1

 90
        0
  0
XRECORD
  5
45CF4
102
{ACAD_REACTORS
330
45CF3
102
}
100
AcDbXrecord
102
EXTNAMES
  1
*ACTIVE
  2
*Active
102
UCS
 74
     0
 71
     1
 10
0.0
 20
0.0
 30
0.0
 10
1.0
 20
0.0
 30
0.0
 10
0.0
 20
1.0
 30
0.0
146
0.0
 79
     1
102
VIEW
281
     0
  0
XRECORD
  5
45D1F
102
{ACAD_REACTORS
330
45D1E
102
}
100
AcDbXrecord
102
PLOTBIT
280
     0
  0
XRECORD
  5
45CF2
102
{ACAD_REACTORS
330
45CF1
102
}
100
AcDbXrecord
102
EXTNAMES
  1
DEFPOINTS
  2
Defpoints
102
PLOTBIT
280
     0
  0
XRECORD
  5
45D19
102
{ACAD_REACTORS
330
45D18
102
}
100
AcDbXrecord
102
ACADR14ROUNDTRIP
1000
DSTYLE
1002
{
1070
   276
 70
     2
1070
   277
 70
     5
1002
}
  0
XRECORD
  5
45D1B
102
{ACAD_REACTORS
330
45D1A
102
}
100
AcDbXrecord
102
ACADR14ROUNDTRIP
1000
DSTYLE
1002
{
1070
   276
 70
     2
1070
   277
 70
     5
1002
}
  0
XRECORD
  5
45D17
102
{ACAD_REACTORS
330
4592C
102
}
100
AcDbXrecord
340
458D6
  0
XRECORD
  5
45D16
102
{ACAD_REACTORS
330
4592A
102
}
100
AcDbXrecord
340
458D3
  0
DICTIONARY
  5
45D1C
100
AcDbDictionary
280
     1
  3
ACAD_XREC_ROUNDTRIP
360
45D1D
  0
ACAD_PROXY_OBJECT
  5
458FE
102
{ACAD_REACTORS
330
458FB
102
}
100
AcDbProxyObject
 90
      499
 91
      503
 93
     1348
310
91D4850204C617365724A65742035303030205365726965732050434C20362C00AAAAAA416AA547D11959985D5B1D08148C4D081C195B88185CDCDA59DB9B595B9D1CCB98DD1891069074C61796F75743140501A800000000000000000000000000000000000000000000A1000000000000008902A6A6A10232D5E076BC551
310
0408CB5781DAF154410232D5E076BC5510408CB5781DAF15C410232D5E076BC5710408CB5781DAF15C40
330
458D3
330
0
340
0
340
0
 94
        0
  0
ACAD_PROXY_OBJECT
  5
458FD
102
{ACAD_REACTORS
330
458FB
102
}
100
AcDbProxyObject
 90
      499
 91
      503
 93
      924
310
91D4850204C617365724A65742035303030205365726965732050434C20362C01AAAAAAAAA547D11959985D5B1D08148C4D081C195B88185CDCDA59DB9B595B9D1CCB98DD18A69054D6F64656C901A800000000000000000000000000000000000000000000A1000000000000008902A6A6AAAAF
330
458D6
330
0
340
0
340
0
 94
        0
  0
MLINESTYLE
  5
458DA
102
{ACAD_REACTORS
330
458D9
102
}
100
AcDbMlineStyle
  2
STANDARD
 70
     0
  3

 62
   256
 51
90.0
 52
90.0
 71
     2
 49
0.5
 62
   256
  6
BYLAYER
 49
-0.5
 62
   256
  6
BYLAYER
  0
ACAD_PROXY_OBJECT
  5
458FA
102
{ACAD_REACTORS
330
458F9
102
}
100
AcDbProxyObject
 90
      499
 91
      502
 93
        0
 94
        0
  0
XRECORD
  5
45CFF
102
{ACAD_REACTORS
330
45CF5
102
}
100
AcDbXrecord
 90
        0
  0
XRECORD
  5
45D03
102
{ACAD_REACTORS
330
45CF5
102
}
100
AcDbXrecord
1000
DSTYLE
1002
{
1070
   276
 70
     2
1070
   277
 70
     5
1002
}
  0
XRECORD
  5
45D00
102
{ACAD_REACTORS
330
45CF5
102
}
100
AcDbXrecord
  1
{6E0CF4B8-225E-11D4-A150-00A0CC3303EC}
  0
XRECORD
  5
45CF8
102
{ACAD_REACTORS
330
45CF5
102
}
100
AcDbXrecord
  1

  0
XRECORD
  5
45CFE
102
{ACAD_REACTORS
330
45CF5
102
}
100
AcDbXrecord
 90
        0
  0
XRECORD
  5
45CFA
102
{ACAD_REACTORS
330
45CF5
102
}
100
AcDbXrecord
340
458FB
  0
XRECORD
  5
45CFD
102
{ACAD_REACTORS
330
45CF5
102
}
100
AcDbXrecord
 90
    14877
  0
XRECORD
  5
45CFB
102
{ACAD_REACTORS
330
45CF5
102
}
100
AcDbXrecord
340
458FC
  0
XRECORD
  5
45CFC
102
{ACAD_REACTORS
330
45CF5
102
}
100
AcDbXrecord
340
458F9
  0
XRECORD
  5
45D02
102
{ACAD_REACTORS
330
45CF5
102
}
100
AcDbXrecord
 40
0.0
  0
XRECORD
  5
45D06
102
{ACAD_REACTORS
330
45CF5
102
}
100
AcDbXrecord
340
0
  0
XRECORD
  5
45D0C
102
{ACAD_REACTORS
330
45CF5
102
}
100
AcDbXrecord
 10
0.0
 20
0.0
 30
0.0
  0
XRECORD
  5
45D08
102
{ACAD_REACTORS
330
45CF5
102
}
100
AcDbXrecord
 10
0.0
 20
0.0
 30
0.0
  0
XRECORD
  5
45D0B
102
{ACAD_REACTORS
330
45CF5
102
}
100
AcDbXrecord
 10
0.0
 20
0.0
 30
0.0
  0
XRECORD
  5
45D09
102
{ACAD_REACTORS
330
45CF5
102
}
100
AcDbXrecord
 10
0.0
 20
0.0
 30
0.0
  0
XRECORD
  5
45D0A
102
{ACAD_REACTORS
330
45CF5
102
}
100
AcDbXrecord
 10
0.0
 20
0.0
 30
0.0
  0
XRECORD
  5
45D07
102
{ACAD_REACTORS
330
45CF5
102
}
100
AcDbXrecord
 10
0.0
 20
0.0
 30
0.0
  0
XRECORD
  5
45D04
102
{ACAD_REACTORS
330
45CF5
102
}
100
AcDbXrecord
340
0
  0
XRECORD
  5
45D05
102
{ACAD_REACTORS
330
45CF5
102
}
100
AcDbXrecord
 70
     0
  0
XRECORD
  5
45CF9
102
{ACAD_REACTORS
330
45CF5
102
}
100
AcDbXrecord
  1

  0
XRECORD
  5
45CF6
102
{ACAD_REACTORS
330
45CF5
102
}
100
AcDbXrecord
 90
        1
  0
XRECORD
  5
45CF7
102
{ACAD_REACTORS
330
45CF5
102
}
100
AcDbXrecord
 90
       70
  0
XRECORD
  5
45D0F
102
{ACAD_REACTORS
330
45CF5
102
}
100
AcDbXrecord
340
0
  0
XRECORD
  5
45D15
102
{ACAD_REACTORS
330
45CF5
102
}
100
AcDbXrecord
 10
0.0
 20
0.0
 30
0.0
  0
XRECORD
  5
45D11
102
{ACAD_REACTORS
330
45CF5
102
}
100
AcDbXrecord
 10
0.0
 20
0.0
 30
0.0
  0
XRECORD
  5
45D14
102
{ACAD_REACTORS
330
45CF5
102
}
100
AcDbXrecord
 10
0.0
 20
0.0
 30
0.0
  0
XRECORD
  5
45D12
102
{ACAD_REACTORS
330
45CF5
102
}
100
AcDbXrecord
 10
0.0
 20
0.0
 30
0.0
  0
XRECORD
  5
45D13
102
{ACAD_REACTORS
330
45CF5
102
}
100
AcDbXrecord
 10
0.0
 20
0.0
 30
0.0
  0
XRECORD
  5
45D10
102
{ACAD_REACTORS
330
45CF5
102
}
100
AcDbXrecord
 10
0.0
 20
0.0
 30
0.0
  0
XRECORD
  5
45D0D
102
{ACAD_REACTORS
330
45CF5
102
}
100
AcDbXrecord
340
0
  0
XRECORD
  5
45D0E
102
{ACAD_REACTORS
330
45CF5
102
}
100
AcDbXrecord
 70
     1
  0
XRECORD
  5
45D01
102
{ACAD_REACTORS
330
45CF5
102
}
100
AcDbXrecord
  1
{A10877BB-AFC5-4070-BC7B-E176134E50D8}
  0
DICTIONARYVAR
  5
458E2
102
{ACAD_REACTORS
330
458E1
102
}
100
DictionaryVariables
280
     0
  1
0
  0
XRECORD
  5
45D1D
102
{ACAD_REACTORS
330
45D1C
102
}
100
AcDbXrecord
102
EXTNAMES
  1
LAYOUT1
  2
Layout1
  1
MODEL
  2
Model
  0
ENDSEC
  0
EOF
