  0
SECTION
  2
HEADER
  9
$ACADVER
  1
AC1014
  9
$ACADMAINTVER
 70
     8
  9
$DWGCODEPAGE
  3
ANSI_1252
  9
$INSBASE
 10
0.0
 20
0.0
 30
0.0
  9
$EXTMIN
 10
-0.911265
 20
-1.709695
 30
0.0
  9
$EXTMAX
 10
2.515
 20
10.997272
 30
5.880973
  9
$LIMMIN
 10
0.0
 20
0.0
  9
$LIMMAX
 10
12.0
 20
9.0
  9
$ORTHOMODE
 70
     0
  9
$REGENMODE
 70
     1
  9
$FILLMODE
 70
     1
  9
$QTEXTMODE
 70
     0
  9
$MIRRTEXT
 70
     1
  9
$DRAGMODE
 70
     2
  9
$LTSCALE
 40
1.0
  9
$OSMODE
 70
    37
  9
$ATTMODE
 70
     1
  9
$TEXTSIZE
 40
0.12
  9
$TRACEWID
 40
0.05
  9
$TEXTSTYLE
  7
STANDARD
  9
$CLAYER
  8
0
  9
$CELTYPE
  6
BYLAYER
  9
$CECOLOR
 62
   256
  9
$CELTSCALE
 40
1.0
  9
$DELOBJ
 70
     1
  9
$DISPSILH
 70
     0
  9
$DIMSCALE
 40
1.0
  9
$DIMASZ
 40
0.18
  9
$DIMEXO
 40
0.0625
  9
$DIMDLI
 40
0.375
  9
$DIMRND
 40
0.0
  9
$DIMDLE
 40
0.0
  9
$DIMEXE
 40
0.18
  9
$DIMTP
 40
0.0
  9
$DIMTM
 40
0.0
  9
$DIMTXT
 40
0.18
  9
$DIMCEN
 40
0.09
  9
$DIMTSZ
 40
0.0
  9
$DIMTOL
 70
     0
  9
$DIMLIM
 70
     0
  9
$DIMTIH
 70
     0
  9
$DIMTOH
 70
     1
  9
$DIMSE1
 70
     0
  9
$DIMSE2
 70
     0
  9
$DIMTAD
 70
     0
  9
$DIMZIN
 70
     4
  9
$DIMBLK
  1

  9
$DIMASO
 70
     1
  9
$DIMSHO
 70
     1
  9
$DIMPOST
  1

  9
$DIMAPOST
  1

  9
$DIMALT
 70
     1
  9
$DIMALTD
 70
     1
  9
$DIMALTF
 40
25.4
  9
$DIMLFAC
 40
1.0
  9
$DIMTOFL
 70
     0
  9
$DIMTVP
 40
0.0
  9
$DIMTIX
 70
     0
  9
$DIMSOXD
 70
     0
  9
$DIMSAH
 70
     0
  9
$DIMBLK1
  1

  9
$DIMBLK2
  1

  9
$DIMSTYLE
  2
ABECAD_3D
  9
$DIMCLRD
 70
     0
  9
$DIMCLRE
 70
     0
  9
$DIMCLRT
 70
     0
  9
$DIMTFAC
 40
1.5
  9
$DIMGAP
 40
0.09
  9
$DIMJUST
 70
     0
  9
$DIMSD1
 70
     0
  9
$DIMSD2
 70
     0
  9
$DIMTOLJ
 70
     1
  9
$DIMTZIN
 70
     4
  9
$DIMALTZ
 70
     4
  9
$DIMALTTZ
 70
     4
  9
$DIMFIT
 70
     3
  9
$DIMUPT
 70
     0
  9
$DIMUNIT
 70
     7
  9
$DIMDEC
 70
     6
  9
$DIMTDEC
 70
     6
  9
$DIMALTU
 70
     2
  9
$DIMALTTD
 70
     1
  9
$DIMTXSTY
  7
STANDARD
  9
$DIMAUNIT
 70
     0
  9
$LUNITS
 70
     2
  9
$LUPREC
 70
     4
  9
$SKETCHINC
 40
0.1
  9
$FILLETRAD
 40
0.0
  9
$AUNITS
 70
     0
  9
$AUPREC
 70
     0
  9
$MENU
  1
ACAD
  9
$ELEVATION
 40
0.0
  9
$PELEVATION
 40
0.0
  9
$THICKNESS
 40
0.0
  9
$LIMCHECK
 70
     0
  9
$BLIPMODE
 70
     0
  9
$CHAMFERA
 40
0.0
  9
$CHAMFERB
 40
0.0
  9
$CHAMFERC
 40
0.0
  9
$CHAMFERD
 40
0.0
  9
$SKPOLY
 70
     0
  9
$TDCREATE
 40
2451670.444776967
  9
$TDUPDATE
 40
2452010.488616898
  9
$TDINDWG
 40
0.0059355324
  9
$TDUSRTIMER
 40
0.0059355324
  9
$USRTIMER
 70
     1
  9
$ANGBASE
 50
0.0
  9
$ANGDIR
 70
     0
  9
$PDMODE
 70
     3
  9
$PDSIZE
 40
0.09
  9
$PLINEWID
 40
0.0
  9
$COORDS
 70
     1
  9
$SPLFRAME
 70
     1
  9
$SPLINETYPE
 70
     6
  9
$SPLINESEGS
 70
     8
  9
$ATTDIA
 70
     0
  9
$ATTREQ
 70
     1
  9
$HANDLING
 70
     1
  9
$HANDSEED
  5
462D9
  9
$SURFTAB1
 70
     6
  9
$SURFTAB2
 70
     6
  9
$SURFTYPE
 70
     6
  9
$SURFU
 70
     6
  9
$SURFV
 70
     6
  9
$UCSNAME
  2

  9
$UCSORG
 10
0.0
 20
0.0
 30
0.0
  9
$UCSXDIR
 10
1.0
 20
0.0
 30
0.0
  9
$UCSYDIR
 10
0.0
 20
1.0
 30
0.0
  9
$PUCSNAME
  2

  9
$PUCSORG
 10
0.0
 20
0.0
 30
0.0
  9
$PUCSXDIR
 10
1.0
 20
0.0
 30
0.0
  9
$PUCSYDIR
 10
0.0
 20
1.0
 30
0.0
  9
$USERI1
 70
     0
  9
$USERI2
 70
     0
  9
$USERI3
 70
     0
  9
$USERI4
 70
     0
  9
$USERI5
 70
     0
  9
$USERR1
 40
0.0
  9
$USERR2
 40
0.0
  9
$USERR3
 40
0.0
  9
$USERR4
 40
0.0
  9
$USERR5
 40
0.0
  9
$WORLDVIEW
 70
     1
  9
$SHADEDGE
 70
     3
  9
$SHADEDIF
 70
    70
  9
$TILEMODE
 70
     1
  9
$MAXACTVP
 70
    16
  9
$PINSBASE
 10
0.0
 20
0.0
 30
0.0
  9
$PLIMCHECK
 70
     0
  9
$PEXTMIN
 10
1.000000E+20
 20
1.000000E+20
 30
1.000000E+20
  9
$PEXTMAX
 10
-1.000000E+20
 20
-1.000000E+20
 30
-1.000000E+20
  9
$PLIMMIN
 10
0.0
 20
0.0
  9
$PLIMMAX
 10
12.0
 20
9.0
  9
$UNITMODE
 70
     0
  9
$VISRETAIN
 70
     0
  9
$PLINEGEN
 70
     0
  9
$PSLTSCALE
 70
     1
  9
$TREEDEPTH
 70
  3020
  9
$PICKSTYLE
 70
     1
  9
$CMLSTYLE
  2
STANDARD
  9
$CMLJUST
 70
     0
  9
$CMLSCALE
 40
1.0
  9
$PROXYGRAPHICS
 70
     1
  9
$MEASUREMENT
 70
     0
  0
ENDSEC
  0
SECTION
  2
CLASSES
  0
CLASS
  1
DICTIONARYVAR
  2
AcDbDictionaryVar
  3
"AutoCAD"
 90
        0
280
     0
281
     0
  0
CLASS
  1
ACDBDICTIONARYWDFLT
  2
AcDbDictionaryWithDefault
  3
AutoCAD 2000
 90
        0
280
     0
281
     0
  0
CLASS
  1
ACDBPLACEHOLDER
  2
AcDbPlaceHolder
  3
AutoCAD 2000
 90
        0
280
     0
281
     0
  0
CLASS
  1
LAYOUT
  2
AcDbLayout
  3
AutoCAD 2000
 90
        0
280
     0
281
     0
  0
CLASS
  1
LONG_TRANSACTION
  2
AcDbLongTransaction
  3
AutoCAD 2000
 90
        0
280
     0
281
     0
  0
CLASS
  1
LWPOLYLINE
  2
AcDbPolyline
  3
"AutoCAD"
 90
        0
280
     0
281
     1
  0
CLASS
  1
HATCH
  2
AcDbHatch
  3
"ACAD_SEDONA"
 90
        0
280
     0
281
     1
  0
CLASS
  1
XRECORD
  2
AcDbXrecord
  3
"<Built In>"
 90
        0
280
     0
281
     0
  0
CLASS
  1
LONG_TRANSACTION
  2
AcDbLongTransaction
  3
AutoCAD 2000
 90
        0
280
     0
281
     0
  0
CLASS
  1
LWPOLYLINE
  2
AcDbPolyline
  3
"AutoCAD"
 90
        0
280
     0
281
     1
  0
CLASS
  1
HATCH
  2
AcDbHatch
  3
"ACAD_SEDONA"
 90
        0
280
     0
281
     1
  0
CLASS
  1
XRECORD
  2
AcDbXrecord
  3
"<Built In>"
 90
        0
280
     0
281
     0
  0
CLASS
  1
LONG_TRANSACTION
  2
AcDbLongTransaction
  3
AutoCAD 2000
 90
        0
280
     0
281
     0
  0
CLASS
  1
LWPOLYLINE
  2
AcDbPolyline
  3
"AutoCAD"
 90
        0
280
     0
281
     1
  0
CLASS
  1
HATCH
  2
AcDbHatch
  3
"ACAD_SEDONA"
 90
        0
280
     0
281
     1
  0
CLASS
  1
XRECORD
  2
AcDbXrecord
  3
"<Built In>"
 90
        0
280
     0
281
     0
  0
CLASS
  1
LONG_TRANSACTION
  2
AcDbLongTransaction
  3
AutoCAD 2000
 90
        0
280
     0
281
     0
  0
CLASS
  1
LWPOLYLINE
  2
AcDbPolyline
  3
"AutoCAD"
 90
        0
280
     0
281
     1
  0
CLASS
  1
HATCH
  2
AcDbHatch
  3
"ACAD_SEDONA"
 90
        0
280
     0
281
     1
  0
CLASS
  1
XRECORD
  2
AcDbXrecord
  3
"<Built In>"
 90
        0
280
     0
281
     0
  0
CLASS
  1
LONG_TRANSACTION
  2
AcDbLongTransaction
  3
AutoCAD 2000
 90
        0
280
     0
281
     0
  0
CLASS
  1
LWPOLYLINE
  2
AcDbPolyline
  3
"AutoCAD"
 90
        0
280
     0
281
     1
  0
CLASS
  1
HATCH
  2
AcDbHatch
  3
"ACAD_SEDONA"
 90
        0
280
     0
281
     1
  0
CLASS
  1
XRECORD
  2
AcDbXrecord
  3
"<Built In>"
 90
        0
280
     0
281
     0
  0
CLASS
  1
LONG_TRANSACTION
  2
AcDbLongTransaction
  3
AutoCAD 2000
 90
        0
280
     0
281
     0
  0
CLASS
  1
LWPOLYLINE
  2
AcDbPolyline
  3
"AutoCAD"
 90
        0
280
     0
281
     1
  0
CLASS
  1
HATCH
  2
AcDbHatch
  3
"ACAD_SEDONA"
 90
        0
280
     0
281
     1
  0
CLASS
  1
XRECORD
  2
AcDbXrecord
  3
"<Built In>"
 90
        0
280
     0
281
     0
  0
ENDSEC
  0
SECTION
  2
TABLES
  0
TABLE
  2
VPORT
  5
458C7
100
AcDbSymbolTable
 70
     1
  0
VPORT
  5
462A6
102
{ACAD_XDICTIONARY
360
462A9
102
}
100
AcDbSymbolTableRecord
100
AcDbViewportTableRecord
  2
*ACTIVE
 70
     0
 10
0.0
 20
0.0
 11
1.0
 21
1.0
 12
0.801838
 22
4.643788
 13
0.0
 23
0.0
 14
0.25
 24
0.25
 15
0.25
 25
0.25
 16
0.0
 26
0.0
 36
1.0
 17
0.0
 27
0.0
 37
0.0
 40
12.921318
 41
1.960674
 42
50.0
 43
0.0
 44
0.0
 50
0.0
 51
0.0
 71
     0
 72
 20000
 73
     1
 74
     1
 75
     0
 76
     0
 77
     0
 78
     0
  0
ENDTAB
  0
TABLE
  2
LTYPE
  5
458C4
100
AcDbSymbolTable
 70
     1
  0
LTYPE
  5
458D0
100
AcDbSymbolTableRecord
100
AcDbLinetypeTableRecord
  2
BYBLOCK
 70
     0
  3

 72
    65
 73
     0
 40
0.0
  0
LTYPE
  5
458D1
100
AcDbSymbolTableRecord
100
AcDbLinetypeTableRecord
  2
BYLAYER
 70
     0
  3

 72
    65
 73
     0
 40
0.0
  0
LTYPE
  5
458D2
100
AcDbSymbolTableRecord
100
AcDbLinetypeTableRecord
  2
CONTINUOUS
 70
     0
  3
Solid line
 72
    65
 73
     0
 40
0.0
  0
ENDTAB
  0
TABLE
  2
LAYER
  5
458C1
100
AcDbSymbolTable
 70
     7
  0
LAYER
  5
458CD
100
AcDbSymbolTableRecord
100
AcDbLayerTableRecord
  2
0
 70
     0
 62
     7
  6
CONTINUOUS
  0
LAYER
  5
458EA
100
AcDbSymbolTableRecord
100
AcDbLayerTableRecord
  2
DIMS-MTG-HOLES
 70
     0
 62
     1
  6
CONTINUOUS
  0
LAYER
  5
458EB
100
AcDbSymbolTableRecord
100
AcDbLayerTableRecord
  2
ATTRIBUTES
 70
     0
 62
     7
  6
CONTINUOUS
  0
LAYER
  5
4593B
102
{ACAD_XDICTIONARY
360
462D4
102
}
100
AcDbSymbolTableRecord
100
AcDbLayerTableRecord
  2
AREA1
 70
     0
 62
    -7
  6
CONTINUOUS
  0
LAYER
  5
45940
102
{ACAD_XDICTIONARY
360
462A7
102
}
100
AcDbSymbolTableRecord
100
AcDbLayerTableRecord
  2
DEFPOINTS
 70
     0
 62
    -7
  6
CONTINUOUS
  0
LAYER
  5
45954
100
AcDbSymbolTableRecord
100
AcDbLayerTableRecord
  2
SCALE
 70
     0
 62
    -7
  6
CONTINUOUS
  0
LAYER
  5
4620A
100
AcDbSymbolTableRecord
100
AcDbLayerTableRecord
  2
SNAP_POINTS
 70
     0
 62
    -1
  6
CONTINUOUS
  0
ENDTAB
  0
TABLE
  2
STYLE
  5
458C2
100
AcDbSymbolTable
 70
     1
  0
STYLE
  5
458CE
100
AcDbSymbolTableRecord
100
AcDbTextStyleTableRecord
  2
STANDARD
 70
     0
 40
0.0
 41
1.0
 50
0.0
 71
     0
 42
0.12
  3
txt
  4

  0
ENDTAB
  0
TABLE
  2
VIEW
  5
458C5
100
AcDbSymbolTable
 70
     0
  0
ENDTAB
  0
TABLE
  2
UCS
  5
458C6
100
AcDbSymbolTable
 70
     0
  0
ENDTAB
  0
TABLE
  2
APPID
  5
458C8
100
AcDbSymbolTable
 70
     1
  0
APPID
  5
458CF
100
AcDbSymbolTableRecord
100
AcDbRegAppTableRecord
  2
ACAD
 70
     0
  0
ENDTAB
  0
TABLE
  2
DIMSTYLE
  5
458C9
100
AcDbSymbolTable
 70
     2
  0
DIMSTYLE
105
458F1
102
{ACAD_XDICTIONARY
360
462CE
102
}
100
AcDbSymbolTableRecord
100
AcDbDimStyleTableRecord
  2
ABECAD
 70
     0
  3

  4

  5

  6

  7

 40
1.0
 41
0.18
 42
0.0625
 43
0.375
 44
0.18
 45
0.0
 46
0.0
 47
0.0
 48
0.0
140
0.18
141
0.09
142
0.0
143
25.4
144
1.0
145
0.0
146
1.5
147
0.09
 71
     0
 72
     0
 73
     0
 74
     1
 75
     0
 76
     0
 77
     0
 78
     4
170
     1
171
     1
172
     0
173
     0
174
     0
175
     0
176
     0
177
     0
178
     0
270
     7
271
     6
272
     6
273
     2
274
     1
340
458CE
275
     0
280
     0
281
     0
282
     0
283
     1
284
     4
285
     4
286
     4
287
     3
288
     0
  0
DIMSTYLE
105
458F6
102
{ACAD_XDICTIONARY
360
462D0
102
}
102
{ACAD_REACTORS
330
461AE
330
461BC
102
}
100
AcDbSymbolTableRecord
100
AcDbDimStyleTableRecord
  2
ABECAD_3D
 70
     0
  3

  4

  5

  6

  7

 40
1.0
 41
0.18
 42
0.0625
 43
0.375
 44
0.18
 45
0.0
 46
0.0
 47
0.0
 48
0.0
140
0.18
141
0.09
142
0.0
143
25.4
144
1.0
145
0.0
146
1.5
147
0.09
 71
     0
 72
     0
 73
     0
 74
     1
 75
     0
 76
     0
 77
     0
 78
     4
170
     1
171
     1
172
     0
173
     0
174
     0
175
     0
176
     0
177
     0
178
     0
270
     7
271
     6
272
     6
273
     2
274
     1
340
458CE
275
     0
280
     0
281
     0
282
     0
283
     1
284
     4
285
     4
286
     4
287
     3
288
     0
  0
ENDTAB
  0
TABLE
  2
BLOCK_RECORD
  5
458C0
100
AcDbSymbolTable
 70
     2
  0
BLOCK_RECORD
  5
458D6
102
{ACAD_XDICTIONARY
360
4592C
102
}
100
AcDbSymbolTableRecord
100
AcDbBlockTableRecord
  2
*MODEL_SPACE
  0
BLOCK_RECORD
  5
458D3
102
{ACAD_XDICTIONARY
360
4592A
102
}
100
AcDbSymbolTableRecord
100
AcDbBlockTableRecord
  2
*PAPER_SPACE
  0
BLOCK_RECORD
  5
461AF
100
AcDbSymbolTableRecord
100
AcDbBlockTableRecord
  2
*D0
  0
BLOCK_RECORD
  5
461BD
100
AcDbSymbolTableRecord
100
AcDbBlockTableRecord
  2
*D1
  0
ENDTAB
  0
ENDSEC
  0
SECTION
  2
BLOCKS
  0
BLOCK
  5
458DF
100
AcDbEntity
  8
0
100
AcDbBlockBegin
  2
*MODEL_SPACE
 70
     0
 10
0.0
 20
0.0
 30
0.0
  3
*MODEL_SPACE
  1

  0
ENDBLK
  5
458E0
100
AcDbEntity
  8
0
100
AcDbBlockEnd
  0
BLOCK
  5
458DD
100
AcDbEntity
 67
     1
  8
0
100
AcDbBlockBegin
  2
*PAPER_SPACE
 70
     0
 10
0.0
 20
0.0
 30
0.0
  3
*PAPER_SPACE
  1

  0
ENDBLK
  5
458DE
100
AcDbEntity
 67
     1
  8
0
100
AcDbBlockEnd
  0
BLOCK
  5
461BA
100
AcDbEntity
  8
0
100
AcDbBlockBegin
  2
*D0
 70
     1
 10
0.0
 20
0.0
 30
0.0
  3
*D0
  1

  0
LINE
  5
461B0
100
AcDbEntity
  8
AREA1
 62
     0
100
AcDbLine
 10
-0.060577
 20
-0.635587
 30
0.0
 11
1.421299
 21
-0.635587
 31
0.0
1001
ACAD
1000
RTLwPs
1070
   158
  0
LINE
  5
461B1
100
AcDbEntity
  8
AREA1
 62
     0
100
AcDbLine
 10
0.3275
 20
10.0432
 30
0.0
 11
1.421299
 21
10.0432
 31
0.0
1001
ACAD
1000
RTLwPs
1070
   158
  0
LINE
  5
461B2
100
AcDbEntity
  8
AREA1
 62
     0
100
AcDbLine
 10
1.241299
 20
-0.455587
 30
0.0
 11
1.241299
 21
3.398807
 31
0.0
1001
ACAD
1000
RTLwPs
1070
   158
  0
LINE
  5
461B3
100
AcDbEntity
  8
AREA1
 62
     0
100
AcDbLine
 10
1.241299
 20
9.8632
 30
0.0
 11
1.241299
 21
6.008807
 31
0.0
1001
ACAD
1000
RTLwPs
1070
   158
  0
SOLID
  5
461B4
100
AcDbEntity
  8
AREA1
 62
     0
100
AcDbTrace
 10
1.211299
 20
-0.455587
 30
0.0
 11
1.271299
 21
-0.455587
 31
0.0
 12
1.241299
 22
-0.635587
 32
0.0
 13
1.241299
 23
-0.635587
 33
0.0
  0
SOLID
  5
461B5
100
AcDbEntity
  8
AREA1
 62
     0
100
AcDbTrace
 10
1.211299
 20
9.8632
 30
0.0
 11
1.271299
 21
9.8632
 31
0.0
 12
1.241299
 22
10.0432
 32
0.0
 13
1.241299
 23
10.0432
 33
0.0
  0
MTEXT
  5
461B6
100
AcDbEntity
  8
AREA1
 62
     0
100
AcDbMText
 10
1.241299
 20
4.703807
 30
0.0
 40
0.18
 41
0.0
 71
     5
 72
     1
  1
\A1;10 43/64 [271.2]
 11
0.0
 21
1.0
 31
0.0
1001
ACAD
1000
MTEXTBEGIN
1070
    73
1070
     1
1070
    44
1040
1.0
1070
    74
1070
     0
1000
MTEXTEND
1000
MTEXTBEGIN
1070
    73
1070
     1
1070
    44
1040
1.0
1070
    74
1070
     0
1000
MTEXTEND
1000
MTEXTBEGIN
1070
    73
1070
     1
1070
    44
1040
1.0
1070
    74
1070
     0
1000
MTEXTEND
1000
MTEXTBEGIN
1070
    73
1070
     1
1070
    44
1040
1.0
1070
    74
1070
     0
1000
MTEXTEND
1000
MTEXTBEGIN
1070
    73
1070
     1
1070
    44
1040
1.0
1070
    74
1070
     0
1000
MTEXTEND
  0
POINT
  5
461B7
100
AcDbEntity
  8
DEFPOINTS
 62
     0
100
AcDbPoint
 10
-0.123077
 20
-0.635587
 30
5.88
  0
POINT
  5
461B8
100
AcDbEntity
  8
DEFPOINTS
 62
     0
100
AcDbPoint
 10
0.265
 20
10.0432
 30
5.747
  0
POINT
  5
461B9
100
AcDbEntity
  8
DEFPOINTS
 62
     0
100
AcDbPoint
 10
1.241299
 20
10.0432
 30
0.0
  0
ENDBLK
  5
461BB
100
AcDbEntity
  8
0
100
AcDbBlockEnd
  0
BLOCK
  5
461C8
100
AcDbEntity
  8
0
100
AcDbBlockBegin
  2
*D1
 70
     1
 10
0.0
 20
0.0
 30
0.0
  3
*D1
  1

  0
LINE
  5
461BE
100
AcDbEntity
  8
AREA1
 62
     0
100
AcDbLine
 10
-0.89
 20
9.8625
 30
0.0
 11
-0.89
 21
10.997272
 31
0.0
1001
ACAD
1000
RTLwPs
1070
   158
  0
LINE
  5
461BF
100
AcDbEntity
  8
AREA1
 62
     0
100
AcDbLine
 10
0.265
 20
10.1057
 30
0.0
 11
0.265
 21
10.997272
 31
0.0
1001
ACAD
1000
RTLwPs
1070
   158
  0
LINE
  5
461C0
100
AcDbEntity
  8
AREA1
 62
     0
100
AcDbLine
 10
-0.71
 20
10.817272
 30
0.0
 11
0.085
 21
10.817272
 31
0.0
1001
ACAD
1000
RTLwPs
1070
   158
  0
LINE
  5
461C1
100
AcDbEntity
  8
AREA1
 62
     0
100
AcDbLine
 10
0.265
 20
10.817272
 30
0.0
 11
0.445
 21
10.817272
 31
0.0
1001
ACAD
1000
RTLwPs
1070
   158
  0
SOLID
  5
461C2
100
AcDbEntity
  8
AREA1
 62
     0
100
AcDbTrace
 10
-0.71
 20
10.847272
 30
0.0
 11
-0.71
 21
10.787272
 31
0.0
 12
-0.89
 22
10.817272
 32
0.0
 13
-0.89
 23
10.817272
 33
0.0
  0
SOLID
  5
461C3
100
AcDbEntity
  8
AREA1
 62
     0
100
AcDbTrace
 10
0.085
 20
10.847272
 30
0.0
 11
0.085
 21
10.787272
 31
0.0
 12
0.265
 22
10.817272
 32
0.0
 13
0.265
 23
10.817272
 33
0.0
  0
MTEXT
  5
461C4
100
AcDbEntity
  8
AREA1
 62
     0
100
AcDbMText
 10
1.525
 20
10.817272
 30
0.0
 40
0.18
 41
0.0
 71
     5
 72
     1
  1
\A1;1 5/32 [29.3]
1001
ACAD
1000
MTEXTBEGIN
1070
    73
1070
     1
1070
    44
1040
1.0
1070
    74
1070
     0
1000
MTEXTEND
1000
MTEXTBEGIN
1070
    73
1070
     1
1070
    44
1040
1.0
1070
    74
1070
     0
1000
MTEXTEND
1000
MTEXTBEGIN
1070
    73
1070
     1
1070
    44
1040
1.0
1070
    74
1070
     0
1000
MTEXTEND
1000
MTEXTBEGIN
1070
    73
1070
     1
1070
    44
1040
1.0
1070
    74
1070
     0
1000
MTEXTEND
1000
MTEXTBEGIN
1070
    73
1070
     1
1070
    44
1040
1.0
1070
    74
1070
     0
1000
MTEXTEND
  0
POINT
  5
461C5
100
AcDbEntity
  8
DEFPOINTS
 62
     0
100
AcDbPoint
 10
-0.89
 20
9.8
 30
0.0
  0
POINT
  5
461C6
100
AcDbEntity
  8
DEFPOINTS
 62
     0
100
AcDbPoint
 10
0.265
 20
10.0432
 30
5.747
  0
POINT
  5
461C7
100
AcDbEntity
  8
DEFPOINTS
 62
     0
100
AcDbPoint
 10
0.265
 20
10.817272
 30
0.0
  0
ENDBLK
  5
461C9
100
AcDbEntity
  8
0
100
AcDbBlockEnd
  0
ENDSEC
  0
SECTION
  2
ENTITIES
  0
ATTDEF
  5
1
100
AcDbEntity
  8
ATTRIBUTES
100
AcDbText
 10
-0.682323
 20
1.390909
 30
0.0
 40
0.06
  1
ALLEN-BRADLEY
100
AcDbAttributeDefinition
  3
MANUFACTURER NAME?
  2
AC_VND_LABEL
 70
     1
  0
ATTDEF
  5
2
100
AcDbEntity
  8
ATTRIBUTES
100
AcDbText
 10
-0.682323
 20
1.265909
 30
0.0
 40
0.06
  1
1771-IFM
100
AcDbAttributeDefinition
  3
CATALOG NUMBER?
  2
AC_PART_NO
 70
     1
  0
ATTDEF
  5
3
100
AcDbEntity
  8
ATTRIBUTES
100
AcDbText
 10
-0.682323
 20
1.140909
 30
0.0
 40
0.06
  1
1771-IFM:FAST MILIVOLT INPUT MODULE
100
AcDbAttributeDefinition
  3
PART DESCRIPTION?
  2
AC_DESCRIPTION
 70
     1
  0
ATTDEF
  5
4
100
AcDbEntity
  8
ATTRIBUTES
100
AcDbText
 10
-0.682323
 20
1.015909
 30
0.0
 40
0.06
  1

100
AcDbAttributeDefinition
  3
DEVICE ID?
  2
DEVICE_ID
 70
     1
  0
ATTDEF
  5
5
100
AcDbEntity
  8
ATTRIBUTES
100
AcDbText
 10
-0.682323
 20
0.890909
 30
0.0
 40
0.06
  1

100
AcDbAttributeDefinition
  3
CUSTOMER PART NUMBER?
  2
AC_CPART_NO
 70
     1
  0
ATTDEF
  5
6
100
AcDbEntity
  8
ATTRIBUTES
100
AcDbText
 10
-0.682323
 20
0.765909
 30
0.0
 40
0.06
  1

100
AcDbAttributeDefinition
  3
CUSTOMER NOTE?
  2
AC_NOTE
 70
     1
  0
ATTDEF
  5
7
100
AcDbEntity
  8
ATTRIBUTES
100
AcDbText
 10
-0.682323
 20
0.640909
 30
0.0
 40
0.06
  1

100
AcDbAttributeDefinition
  3
FASTENER DATA?
  2
FASTENER
 70
     1
  0
ATTDEF
  5
8
100
AcDbEntity
  8
ATTRIBUTES
100
AcDbText
 10
-0.682323
 20
0.515909
 30
0.0
 40
0.06
  1
INCH
100
AcDbAttributeDefinition
  3
UNIT OF SCALE?
  2
AC_SCALE_UNIT
 70
     1
  0
ATTDEF
  5
9
100
AcDbEntity
  8
ATTRIBUTES
100
AcDbText
 10
-0.682323
 20
0.390909
 30
0.0
 40
0.06
  1
0
100
AcDbAttributeDefinition
  3
VIEW CODE?
  2
AC_VIEW_CODE
 70
     1
  0
LINE
  5
45D86
100
AcDbEntity
  8
0
100
AcDbLine
 10
-0.806555
 20
7.143784
 30
5.88
 11
-0.806555
 21
-0.635587
 31
5.88
  0
LINE
  5
45D87
100
AcDbEntity
  8
0
100
AcDbLine
 10
-0.89199
 20
7.214105
 30
5.88
 11
-0.89199
 21
-0.635587
 31
5.88
  0
POLYLINE
  5
45D88
100
AcDbEntity
  8
0
100
AcDbPolygonMesh
 66
     1
 10
0.0
 20
0.0
 30
0.0
 70
    16
 71
     6
 72
     3
  0
VERTEX
  5
45D89
100
AcDbEntity
  8
0
100
AcDbVertex
100
AcDbPolygonMeshVertex
 10
0.27
 20
0.2
 30
5.39
 70
    64
  0
VERTEX
  5
45D8A
100
AcDbEntity
  8
0
100
AcDbVertex
100
AcDbPolygonMeshVertex
 10
0.27
 20
0.2
 30
0.0
 70
    64
  0
VERTEX
  5
45D8B
100
AcDbEntity
  8
0
100
AcDbVertex
100
AcDbPolygonMeshVertex
 10
0.27
 20
0.2
 30
0.0
 70
    64
  0
VERTEX
  5
45D8C
100
AcDbEntity
  8
0
100
AcDbVertex
100
AcDbPolygonMeshVertex
 10
-0.89
 20
0.2
 30
5.39
 70
    64
  0
VERTEX
  5
45D8D
100
AcDbEntity
  8
0
100
AcDbVertex
100
AcDbPolygonMeshVertex
 10
-0.89
 20
0.2
 30
0.0
 70
    64
  0
VERTEX
  5
45D8E
100
AcDbEntity
  8
0
100
AcDbVertex
100
AcDbPolygonMeshVertex
 10
-0.89
 20
0.2
 30
0.0
 70
    64
  0
VERTEX
  5
45D8F
100
AcDbEntity
  8
0
100
AcDbVertex
100
AcDbPolygonMeshVertex
 10
-0.89
 20
9.8
 30
5.39
 70
    64
  0
VERTEX
  5
45D90
100
AcDbEntity
  8
0
100
AcDbVertex
100
AcDbPolygonMeshVertex
 10
-0.89
 20
9.8
 30
0.0
 70
    64
  0
VERTEX
  5
45D91
100
AcDbEntity
  8
0
100
AcDbVertex
100
AcDbPolygonMeshVertex
 10
-0.89
 20
0.2
 30
0.0
 70
    64
  0
VERTEX
  5
45D92
100
AcDbEntity
  8
0
100
AcDbVertex
100
AcDbPolygonMeshVertex
 10
0.27
 20
9.8
 30
5.39
 70
    64
  0
VERTEX
  5
45D93
100
AcDbEntity
  8
0
100
AcDbVertex
100
AcDbPolygonMeshVertex
 10
0.27
 20
9.8
 30
0.0
 70
    64
  0
VERTEX
  5
45D94
100
AcDbEntity
  8
0
100
AcDbVertex
100
AcDbPolygonMeshVertex
 10
0.27
 20
0.2
 30
0.0
 70
    64
  0
VERTEX
  5
45D95
100
AcDbEntity
  8
0
100
AcDbVertex
100
AcDbPolygonMeshVertex
 10
0.27
 20
9.8
 30
5.39
 70
    64
  0
VERTEX
  5
45D96
100
AcDbEntity
  8
0
100
AcDbVertex
100
AcDbPolygonMeshVertex
 10
0.27
 20
9.8
 30
5.39
 70
    64
  0
VERTEX
  5
45D97
100
AcDbEntity
  8
0
100
AcDbVertex
100
AcDbPolygonMeshVertex
 10
0.27
 20
0.2
 30
5.39
 70
    64
  0
VERTEX
  5
45D98
100
AcDbEntity
  8
0
100
AcDbVertex
100
AcDbPolygonMeshVertex
 10
-0.89
 20
9.8
 30
5.39
 70
    64
  0
VERTEX
  5
45D99
100
AcDbEntity
  8
0
100
AcDbVertex
100
AcDbPolygonMeshVertex
 10
-0.89
 20
9.8
 30
5.39
 70
    64
  0
VERTEX
  5
45D9A
100
AcDbEntity
  8
0
100
AcDbVertex
100
AcDbPolygonMeshVertex
 10
-0.89
 20
0.2
 30
5.39
 70
    64
  0
SEQEND
  5
45D9B
100
AcDbEntity
  8
0
  0
POLYLINE
  5
45D9C
100
AcDbEntity
  8
0
100
AcDbPolygonMesh
 66
     1
 10
0.0
 20
0.0
 30
0.0
 70
    16
 71
     6
 72
     3
  0
VERTEX
  5
45D9D
100
AcDbEntity
  8
0
100
AcDbVertex
100
AcDbPolygonMeshVertex
 10
0.27
 20
0.2
 30
5.88
 70
    64
  0
VERTEX
  5
45D9E
100
AcDbEntity
  8
0
100
AcDbVertex
100
AcDbPolygonMeshVertex
 10
0.27
 20
0.2
 30
5.39
 70
    64
  0
VERTEX
  5
45D9F
100
AcDbEntity
  8
0
100
AcDbVertex
100
AcDbPolygonMeshVertex
 10
0.27
 20
0.2
 30
5.39
 70
    64
  0
VERTEX
  5
45DA0
100
AcDbEntity
  8
0
100
AcDbVertex
100
AcDbPolygonMeshVertex
 10
-0.89
 20
0.2
 30
5.88
 70
    64
  0
VERTEX
  5
45DA1
100
AcDbEntity
  8
0
100
AcDbVertex
100
AcDbPolygonMeshVertex
 10
-0.89
 20
0.2
 30
5.39
 70
    64
  0
VERTEX
  5
45DA2
100
AcDbEntity
  8
0
100
AcDbVertex
100
AcDbPolygonMeshVertex
 10
-0.89
 20
0.2
 30
5.39
 70
    64
  0
VERTEX
  5
45DA3
100
AcDbEntity
  8
0
100
AcDbVertex
100
AcDbPolygonMeshVertex
 10
-0.89
 20
8.912
 30
5.88
 70
    64
  0
VERTEX
  5
45DA4
100
AcDbEntity
  8
0
100
AcDbVertex
100
AcDbPolygonMeshVertex
 10
-0.89
 20
8.912
 30
5.39
 70
    64
  0
VERTEX
  5
45DA5
100
AcDbEntity
  8
0
100
AcDbVertex
100
AcDbPolygonMeshVertex
 10
-0.89
 20
0.2
 30
5.39
 70
    64
  0
VERTEX
  5
45DA6
100
AcDbEntity
  8
0
100
AcDbVertex
100
AcDbPolygonMeshVertex
 10
0.27
 20
8.912
 30
5.88
 70
    64
  0
VERTEX
  5
45DA7
100
AcDbEntity
  8
0
100
AcDbVertex
100
AcDbPolygonMeshVertex
 10
0.27
 20
8.912
 30
5.39
 70
    64
  0
VERTEX
  5
45DA8
100
AcDbEntity
  8
0
100
AcDbVertex
100
AcDbPolygonMeshVertex
 10
0.27
 20
0.2
 30
5.39
 70
    64
  0
VERTEX
  5
45DA9
100
AcDbEntity
  8
0
100
AcDbVertex
100
AcDbPolygonMeshVertex
 10
0.27
 20
8.912
 30
5.88
 70
    64
  0
VERTEX
  5
45DAA
100
AcDbEntity
  8
0
100
AcDbVertex
100
AcDbPolygonMeshVertex
 10
0.27
 20
8.912
 30
5.88
 70
    64
  0
VERTEX
  5
45DAB
100
AcDbEntity
  8
0
100
AcDbVertex
100
AcDbPolygonMeshVertex
 10
0.27
 20
0.2
 30
5.88
 70
    64
  0
VERTEX
  5
45DAC
100
AcDbEntity
  8
0
100
AcDbVertex
100
AcDbPolygonMeshVertex
 10
-0.89
 20
8.912
 30
5.88
 70
    64
  0
VERTEX
  5
45DAD
100
AcDbEntity
  8
0
100
AcDbVertex
100
AcDbPolygonMeshVertex
 10
-0.89
 20
8.912
 30
5.88
 70
    64
  0
VERTEX
  5
45DAE
100
AcDbEntity
  8
0
100
AcDbVertex
100
AcDbPolygonMeshVertex
 10
-0.89
 20
0.2
 30
5.88
 70
    64
  0
SEQEND
  5
45DAF
100
AcDbEntity
  8
0
  0
POLYLINE
  5
45DB0
100
AcDbEntity
  8
0
100
AcDbPolygonMesh
 66
     1
 10
0.0
 20
0.0
 30
0.0
 70
    16
 71
     6
 72
     3
  0
VERTEX
  5
45DB1
100
AcDbEntity
  8
0
100
AcDbVertex
100
AcDbPolygonMeshVertex
 10
0.068
 20
0.0
 30
4.755
 70
    64
  0
VERTEX
  5
45DB2
100
AcDbEntity
  8
0
100
AcDbVertex
100
AcDbPolygonMeshVertex
 10
0.068
 20
0.0
 30
0.0
 70
    64
  0
VERTEX
  5
45DB3
100
AcDbEntity
  8
0
100
AcDbVertex
100
AcDbPolygonMeshVertex
 10
0.068
 20
0.0
 30
0.0
 70
    64
  0
VERTEX
  5
45DB4
100
AcDbEntity
  8
0
100
AcDbVertex
100
AcDbPolygonMeshVertex
 10
0.0
 20
0.0
 30
4.755
 70
    64
  0
VERTEX
  5
45DB5
100
AcDbEntity
  8
0
100
AcDbVertex
100
AcDbPolygonMeshVertex
 10
0.0
 20
0.0
 30
0.0
 70
    64
  0
VERTEX
  5
45DB6
100
AcDbEntity
  8
0
100
AcDbVertex
100
AcDbPolygonMeshVertex
 10
0.0
 20
0.0
 30
0.0
 70
    64
  0
VERTEX
  5
45DB7
100
AcDbEntity
  8
0
100
AcDbVertex
100
AcDbPolygonMeshVertex
 10
0.0
 20
0.2
 30
4.755
 70
    64
  0
VERTEX
  5
45DB8
100
AcDbEntity
  8
0
100
AcDbVertex
100
AcDbPolygonMeshVertex
 10
0.0
 20
0.2
 30
0.0
 70
    64
  0
VERTEX
  5
45DB9
100
AcDbEntity
  8
0
100
AcDbVertex
100
AcDbPolygonMeshVertex
 10
0.0
 20
0.0
 30
0.0
 70
    64
  0
VERTEX
  5
45DBA
100
AcDbEntity
  8
0
100
AcDbVertex
100
AcDbPolygonMeshVertex
 10
0.068
 20
0.2
 30
4.755
 70
    64
  0
VERTEX
  5
45DBB
100
AcDbEntity
  8
0
100
AcDbVertex
100
AcDbPolygonMeshVertex
 10
0.068
 20
0.2
 30
0.0
 70
    64
  0
VERTEX
  5
45DBC
100
AcDbEntity
  8
0
100
AcDbVertex
100
AcDbPolygonMeshVertex
 10
0.068
 20
0.0
 30
0.0
 70
    64
  0
VERTEX
  5
45DBD
100
AcDbEntity
  8
0
100
AcDbVertex
100
AcDbPolygonMeshVertex
 10
0.068
 20
0.2
 30
4.755
 70
    64
  0
VERTEX
  5
45DBE
100
AcDbEntity
  8
0
100
AcDbVertex
100
AcDbPolygonMeshVertex
 10
0.068
 20
0.2
 30
4.755
 70
    64
  0
VERTEX
  5
45DBF
100
AcDbEntity
  8
0
100
AcDbVertex
100
AcDbPolygonMeshVertex
 10
0.068
 20
0.0
 30
4.755
 70
    64
  0
VERTEX
  5
45DC0
100
AcDbEntity
  8
0
100
AcDbVertex
100
AcDbPolygonMeshVertex
 10
0.0
 20
0.2
 30
4.755
 70
    64
  0
VERTEX
  5
45DC1
100
AcDbEntity
  8
0
100
AcDbVertex
100
AcDbPolygonMeshVertex
 10
0.0
 20
0.2
 30
4.755
 70
    64
  0
VERTEX
  5
45DC2
100
AcDbEntity
  8
0
100
AcDbVertex
100
AcDbPolygonMeshVertex
 10
0.0
 20
0.0
 30
4.755
 70
    64
  0
SEQEND
  5
45DC3
100
AcDbEntity
  8
0
  0
POINT
  5
45DC4
100
AcDbEntity
  8
SNAP_POINTS
100
AcDbPoint
 10
0.034
 20
0.0
 30
0.0
  0
LINE
  5
45DC5
100
AcDbEntity
  8
0
100
AcDbLine
 10
0.072657
 20
1.567385
 30
5.88
 11
0.072657
 21
1.321257
 31
5.88
  0
LINE
  5
45DC6
100
AcDbEntity
  8
0
100
AcDbLine
 10
-0.398979
 20
1.321257
 30
5.88
 11
-0.398979
 21
1.567385
 31
5.88
  0
LINE
  5
45DC7
100
AcDbEntity
  8
0
100
AcDbLine
 10
-0.022573
 20
1.37651
 30
5.88
 11
-0.037649
 21
1.356417
 31
5.88
  0
LINE
  5
45DC8
100
AcDbEntity
  8
0
100
AcDbLine
 10
0.022657
 20
1.567384
 30
5.88
 11
0.022657
 21
1.321256
 31
5.88
  0
LINE
  5
45DC9
100
AcDbEntity
  8
0
100
AcDbLine
 10
-0.20852
 20
1.356417
 30
5.88
 11
-0.228622
 21
1.37651
 31
5.88
  0
LINE
  5
45DCA
100
AcDbEntity
  8
0
100
AcDbLine
 10
-0.298979
 20
1.321256
 30
5.88
 11
-0.298979
 21
1.567384
 31
5.88
  0
LINE
  5
45DCB
100
AcDbEntity
  8
0
100
AcDbLine
 10
-0.198467
 20
1.527201
 30
5.88
 11
-0.0477
 21
1.351396
 31
5.88
  0
LINE
  5
45DCC
100
AcDbEntity
  8
0
100
AcDbLine
 10
-0.886963
 20
-0.635587
 30
5.88
 11
-0.123077
 21
-0.635587
 31
5.88
  0
LINE
  5
45DCD
100
AcDbEntity
  8
0
100
AcDbLine
 10
-0.701017
 20
0.127911
 30
5.88
 11
-0.701017
 21
-0.123238
 31
5.88
  0
LINE
  5
45DCE
100
AcDbEntity
  8
0
100
AcDbLine
 10
-0.801529
 20
-0.123238
 30
5.88
 11
-0.701017
 21
-0.123238
 31
5.88
  0
LINE
  5
45DCF
100
AcDbEntity
  8
0
100
AcDbLine
 10
-0.801529
 20
0.127911
 30
5.88
 11
-0.701017
 21
0.127911
 31
5.88
  0
LINE
  5
45DD0
100
AcDbEntity
  8
0
100
AcDbLine
 10
-0.19846
 20
0.283593
 30
5.88
 11
-0.19846
 21
-0.635587
 31
5.88
  0
LINE
  5
45DD1
100
AcDbEntity
  8
0
100
AcDbLine
 10
-0.123077
 20
-0.635587
 30
5.88
 11
-0.123077
 21
0.198234
 31
5.88
  0
LINE
  5
45DD2
100
AcDbEntity
  8
0
100
AcDbLine
 10
0.072657
 20
0.628081
 30
5.88
 11
0.072657
 21
0.381953
 31
5.88
  0
LINE
  5
45DD3
100
AcDbEntity
  8
0
100
AcDbLine
 10
-0.398979
 20
0.381953
 30
5.88
 11
-0.398979
 21
0.628081
 31
5.88
  0
LINE
  5
45DD4
100
AcDbEntity
  8
0
100
AcDbLine
 10
-0.017547
 20
0.542689
 30
5.88
 11
-0.012522
 21
0.517575
 31
5.88
  0
LINE
  5
45DD5
100
AcDbEntity
  8
0
100
AcDbLine
 10
0.022657
 20
0.628081
 30
5.88
 11
0.022657
 21
0.381953
 31
5.88
  0
LINE
  5
45DD6
100
AcDbEntity
  8
0
100
AcDbLine
 10
-0.238673
 20
0.517575
 30
5.88
 11
-0.233648
 21
0.542689
 31
5.88
  0
LINE
  5
45DD7
100
AcDbEntity
  8
0
100
AcDbLine
 10
-0.298979
 20
0.381953
 30
5.88
 11
-0.298979
 21
0.628081
 31
5.88
  0
LINE
  5
45DD8
100
AcDbEntity
  8
0
100
AcDbLine
 10
-0.198467
 20
0.587896
 30
5.88
 11
-0.0477
 21
0.412091
 31
5.88
  0
LINE
  5
45DD9
100
AcDbEntity
  8
0
100
AcDbLine
 10
0.022657
 20
0.381953
 30
5.88
 11
-0.298979
 21
0.381953
 31
5.88
  0
LINE
  5
45DDA
100
AcDbEntity
  8
0
100
AcDbLine
 10
-0.19846
 20
0.283626
 30
5.88
 11
0.26999
 21
0.283626
 31
5.88
  0
LINE
  5
45DDB
100
AcDbEntity
  8
0
100
AcDbLine
 10
0.248816
 20
0.198234
 30
5.88
 11
-0.123077
 21
0.198234
 31
5.88
  0
LINE
  5
45DDC
100
AcDbEntity
  8
0
100
AcDbLine
 10
-0.309023
 20
-0.128262
 30
5.88
 11
-0.309023
 21
0.127911
 31
5.88
  0
LINE
  5
45DDD
100
AcDbEntity
  8
0
100
AcDbLine
 10
-0.309023
 20
-0.128262
 30
5.88
 11
-0.208513
 21
-0.128262
 31
5.88
  0
LINE
  5
45DDE
100
AcDbEntity
  8
0
100
AcDbLine
 10
-0.228622
 20
0.437207
 30
5.88
 11
-0.238673
 21
0.462321
 31
5.88
  0
LINE
  5
45DDF
100
AcDbEntity
  8
0
100
AcDbLine
 10
-0.309023
 20
0.127911
 30
5.88
 11
-0.208513
 21
0.127911
 31
5.88
  0
LINE
  5
45DE0
100
AcDbEntity
  8
0
100
AcDbLine
 10
-0.398979
 20
0.381953
 30
5.88
 11
-0.298979
 21
0.381953
 31
5.88
  0
LINE
  5
45DE1
100
AcDbEntity
  8
0
100
AcDbLine
 10
-0.238673
 20
0.462321
 30
5.88
 11
-0.243699
 21
0.487435
 31
5.88
  0
LINE
  5
45DE2
100
AcDbEntity
  8
0
100
AcDbLine
 10
-0.243699
 20
0.487435
 30
5.88
 11
-0.238673
 21
0.517575
 31
5.88
  0
LINE
  5
45DE3
100
AcDbEntity
  8
0
100
AcDbLine
 10
-0.082881
 20
0.386976
 30
5.88
 11
-0.113034
 21
0.381953
 31
5.88
  0
LINE
  5
45DE4
100
AcDbEntity
  8
0
100
AcDbLine
 10
-0.113034
 20
0.381953
 30
5.88
 11
-0.138161
 21
0.381953
 31
5.88
  0
LINE
  5
45DE5
100
AcDbEntity
  8
0
100
AcDbLine
 10
-0.138161
 20
0.381953
 30
5.88
 11
-0.163289
 21
0.386976
 31
5.88
  0
LINE
  5
45DE6
100
AcDbEntity
  8
0
100
AcDbLine
 10
-0.163289
 20
0.386976
 30
5.88
 11
-0.188416
 21
0.397022
 31
5.88
  0
LINE
  5
45DE7
100
AcDbEntity
  8
0
100
AcDbLine
 10
-0.188416
 20
0.397022
 30
5.88
 11
-0.20852
 21
0.417114
 31
5.88
  0
LINE
  5
45DE8
100
AcDbEntity
  8
0
100
AcDbLine
 10
-0.20852
 20
0.417114
 30
5.88
 11
-0.228622
 21
0.437207
 31
5.88
  0
LINE
  5
45DE9
100
AcDbEntity
  8
0
100
AcDbLine
 10
-0.012522
 20
0.517575
 30
5.88
 11
-0.007496
 21
0.492459
 31
5.88
  0
LINE
  5
45DEA
100
AcDbEntity
  8
0
100
AcDbLine
 10
-0.007496
 20
0.492459
 30
5.88
 11
-0.012522
 21
0.462321
 31
5.88
  0
LINE
  5
45DEB
100
AcDbEntity
  8
0
100
AcDbLine
 10
-0.022573
 20
0.437207
 30
5.88
 11
-0.037649
 21
0.417114
 31
5.88
  0
LINE
  5
45DEC
100
AcDbEntity
  8
0
100
AcDbLine
 10
-0.037649
 20
0.417114
 30
5.88
 11
-0.062779
 21
0.397022
 31
5.88
  0
LINE
  5
45DED
100
AcDbEntity
  8
0
100
AcDbLine
 10
-0.062779
 20
0.397022
 30
5.88
 11
-0.082881
 21
0.386976
 31
5.88
  0
LINE
  5
45DEE
100
AcDbEntity
  8
0
100
AcDbLine
 10
-0.012522
 20
0.462321
 30
5.88
 11
-0.022573
 21
0.437207
 31
5.88
  0
LINE
  5
45DEF
100
AcDbEntity
  8
0
100
AcDbLine
 10
0.022657
 20
0.381953
 30
5.88
 11
0.072657
 21
0.381953
 31
5.88
  0
LINE
  5
45DF0
100
AcDbEntity
  8
0
100
AcDbLine
 10
0.022657
 20
1.321256
 30
5.88
 11
-0.298979
 21
1.321256
 31
5.88
  0
LINE
  5
45DF1
100
AcDbEntity
  8
0
100
AcDbLine
 10
-0.298979
 20
1.250935
 30
5.88
 11
0.022657
 21
1.250935
 31
5.88
  0
LINE
  5
45DF2
100
AcDbEntity
  8
0
100
AcDbLine
 10
0.022657
 20
1.004807
 30
5.88
 11
-0.298979
 21
1.004807
 31
5.88
  0
LINE
  5
45DF3
100
AcDbEntity
  8
0
100
AcDbLine
 10
-0.298979
 20
0.939508
 30
5.88
 11
0.022657
 21
0.939508
 31
5.88
  0
LINE
  5
45DF4
100
AcDbEntity
  8
0
100
AcDbLine
 10
0.022657
 20
0.69338
 30
5.88
 11
-0.298979
 21
0.69338
 31
5.88
  0
LINE
  5
45DF5
100
AcDbEntity
  8
0
100
AcDbLine
 10
-0.298979
 20
0.628081
 30
5.88
 11
0.022657
 21
0.628081
 31
5.88
  0
LINE
  5
45DF6
100
AcDbEntity
  8
0
100
AcDbLine
 10
-0.228622
 20
0.748632
 30
5.88
 11
-0.238673
 21
0.773748
 31
5.88
  0
LINE
  5
45DF7
100
AcDbEntity
  8
0
100
AcDbLine
 10
-0.238673
 20
0.829
 30
5.88
 11
-0.233648
 21
0.854116
 31
5.88
  0
LINE
  5
45DF8
100
AcDbEntity
  8
0
100
AcDbLine
 10
-0.398979
 20
0.69338
 30
5.88
 11
-0.398979
 21
0.939508
 31
5.88
  0
LINE
  5
45DF9
100
AcDbEntity
  8
0
100
AcDbLine
 10
-0.298979
 20
0.69338
 30
5.88
 11
-0.298979
 21
0.939508
 31
5.88
  0
LINE
  5
45DFA
100
AcDbEntity
  8
0
100
AcDbLine
 10
-0.398979
 20
0.628081
 30
5.88
 11
-0.298979
 21
0.628081
 31
5.88
  0
LINE
  5
45DFB
100
AcDbEntity
  8
0
100
AcDbLine
 10
-0.398979
 20
0.69338
 30
5.88
 11
-0.298979
 21
0.69338
 31
5.88
  0
LINE
  5
45DFC
100
AcDbEntity
  8
0
100
AcDbLine
 10
-0.398979
 20
0.939508
 30
5.88
 11
-0.298979
 21
0.939508
 31
5.88
  0
LINE
  5
45DFD
100
AcDbEntity
  8
0
100
AcDbLine
 10
-0.238673
 20
0.773748
 30
5.88
 11
-0.243699
 21
0.803886
 31
5.88
  0
LINE
  5
45DFE
100
AcDbEntity
  8
0
100
AcDbLine
 10
-0.243699
 20
0.803886
 30
5.88
 11
-0.238673
 21
0.829
 31
5.88
  0
LINE
  5
45DFF
100
AcDbEntity
  8
0
100
AcDbLine
 10
-0.022573
 20
0.753656
 30
5.88
 11
-0.037649
 21
0.728541
 31
5.88
  0
LINE
  5
45E00
100
AcDbEntity
  8
0
100
AcDbLine
 10
-0.20852
 20
0.728541
 30
5.88
 11
-0.228622
 21
0.748632
 31
5.88
  0
LINE
  5
45E01
100
AcDbEntity
  8
0
100
AcDbLine
 10
-0.198467
 20
0.899323
 30
5.88
 11
-0.0477
 21
0.723518
 31
5.88
  0
LINE
  5
45E02
100
AcDbEntity
  8
0
100
AcDbLine
 10
-0.12811
 20
0.613012
 30
5.88
 11
-0.097957
 21
0.607988
 31
5.88
  0
LINE
  5
45E03
100
AcDbEntity
  8
0
100
AcDbLine
 10
-0.082881
 20
0.698402
 30
5.88
 11
-0.113034
 21
0.69338
 31
5.88
  0
LINE
  5
45E04
100
AcDbEntity
  8
0
100
AcDbLine
 10
-0.113034
 20
0.69338
 30
5.88
 11
-0.138161
 21
0.69338
 31
5.88
  0
LINE
  5
45E05
100
AcDbEntity
  8
0
100
AcDbLine
 10
-0.138161
 20
0.69338
 30
5.88
 11
-0.163289
 21
0.698402
 31
5.88
  0
LINE
  5
45E06
100
AcDbEntity
  8
0
100
AcDbLine
 10
-0.163289
 20
0.698402
 30
5.88
 11
-0.188416
 21
0.713471
 31
5.88
  0
LINE
  5
45E07
100
AcDbEntity
  8
0
100
AcDbLine
 10
-0.188416
 20
0.713471
 30
5.88
 11
-0.20852
 21
0.728541
 31
5.88
  0
LINE
  5
45E08
100
AcDbEntity
  8
0
100
AcDbLine
 10
-0.203495
 20
0.587896
 30
5.88
 11
-0.178365
 21
0.602965
 31
5.88
  0
LINE
  5
45E09
100
AcDbEntity
  8
0
100
AcDbLine
 10
-0.178365
 20
0.602965
 30
5.88
 11
-0.153238
 21
0.607988
 31
5.88
  0
LINE
  5
45E0A
100
AcDbEntity
  8
0
100
AcDbLine
 10
-0.153238
 20
0.607988
 30
5.88
 11
-0.12811
 21
0.613012
 31
5.88
  0
LINE
  5
45E0B
100
AcDbEntity
  8
0
100
AcDbLine
 10
-0.233648
 20
0.542689
 30
5.88
 11
-0.218569
 21
0.567805
 31
5.88
  0
LINE
  5
45E0C
100
AcDbEntity
  8
0
100
AcDbLine
 10
-0.218569
 20
0.567805
 30
5.88
 11
-0.203495
 21
0.587896
 31
5.88
  0
LINE
  5
45E0D
100
AcDbEntity
  8
0
100
AcDbLine
 10
-0.037649
 20
0.728541
 30
5.88
 11
-0.062779
 21
0.713471
 31
5.88
  0
LINE
  5
45E0E
100
AcDbEntity
  8
0
100
AcDbLine
 10
-0.062779
 20
0.713471
 30
5.88
 11
-0.082881
 21
0.698402
 31
5.88
  0
LINE
  5
45E0F
100
AcDbEntity
  8
0
100
AcDbLine
 10
-0.07283
 20
0.602965
 30
5.88
 11
-0.052726
 21
0.587896
 31
5.88
  0
LINE
  5
45E10
100
AcDbEntity
  8
0
100
AcDbLine
 10
-0.052726
 20
0.587896
 30
5.88
 11
-0.032624
 21
0.567805
 31
5.88
  0
LINE
  5
45E11
100
AcDbEntity
  8
0
100
AcDbLine
 10
-0.032624
 20
0.567805
 30
5.88
 11
-0.017547
 21
0.542689
 31
5.88
  0
LINE
  5
45E12
100
AcDbEntity
  8
0
100
AcDbLine
 10
-0.097957
 20
0.607988
 30
5.88
 11
-0.07283
 21
0.602965
 31
5.88
  0
LINE
  5
45E13
100
AcDbEntity
  8
0
100
AcDbLine
 10
-0.12811
 20
0.924439
 30
5.88
 11
-0.097957
 21
0.924439
 31
5.88
  0
LINE
  5
45E14
100
AcDbEntity
  8
0
100
AcDbLine
 10
-0.203495
 20
0.899323
 30
5.88
 11
-0.178365
 21
0.914394
 31
5.88
  0
LINE
  5
45E15
100
AcDbEntity
  8
0
100
AcDbLine
 10
-0.178365
 20
0.914394
 30
5.88
 11
-0.153238
 21
0.924439
 31
5.88
  0
LINE
  5
45E16
100
AcDbEntity
  8
0
100
AcDbLine
 10
-0.153238
 20
0.924439
 30
5.88
 11
-0.12811
 21
0.924439
 31
5.88
  0
LINE
  5
45E17
100
AcDbEntity
  8
0
100
AcDbLine
 10
-0.233648
 20
0.854116
 30
5.88
 11
-0.218569
 21
0.879232
 31
5.88
  0
LINE
  5
45E18
100
AcDbEntity
  8
0
100
AcDbLine
 10
-0.218569
 20
0.879232
 30
5.88
 11
-0.203495
 21
0.899323
 31
5.88
  0
LINE
  5
45E19
100
AcDbEntity
  8
0
100
AcDbLine
 10
-0.07283
 20
0.914394
 30
5.88
 11
-0.052726
 21
0.899323
 31
5.88
  0
LINE
  5
45E1A
100
AcDbEntity
  8
0
100
AcDbLine
 10
-0.052726
 20
0.899323
 30
5.88
 11
-0.032624
 21
0.879232
 31
5.88
  0
LINE
  5
45E1B
100
AcDbEntity
  8
0
100
AcDbLine
 10
-0.032624
 20
0.879232
 30
5.88
 11
-0.017547
 21
0.85914
 31
5.88
  0
LINE
  5
45E1C
100
AcDbEntity
  8
0
100
AcDbLine
 10
-0.012522
 20
0.829
 30
5.88
 11
-0.007496
 21
0.803886
 31
5.88
  0
LINE
  5
45E1D
100
AcDbEntity
  8
0
100
AcDbLine
 10
-0.007496
 20
0.803886
 30
5.88
 11
-0.012522
 21
0.778772
 31
5.88
  0
LINE
  5
45E1E
100
AcDbEntity
  8
0
100
AcDbLine
 10
-0.012522
 20
0.778772
 30
5.88
 11
-0.022573
 21
0.753656
 31
5.88
  0
LINE
  5
45E1F
100
AcDbEntity
  8
0
100
AcDbLine
 10
-0.017547
 20
0.85914
 30
5.88
 11
-0.012522
 21
0.829
 31
5.88
  0
LINE
  5
45E20
100
AcDbEntity
  8
0
100
AcDbLine
 10
-0.097957
 20
0.924439
 30
5.88
 11
-0.07283
 21
0.914394
 31
5.88
  0
LINE
  5
45E21
100
AcDbEntity
  8
0
100
AcDbLine
 10
-0.238673
 20
1.140429
 30
5.88
 11
-0.233648
 21
1.170567
 31
5.88
  0
LINE
  5
45E22
100
AcDbEntity
  8
0
100
AcDbLine
 10
-0.228622
 20
1.065083
 30
5.88
 11
-0.238673
 21
1.090199
 31
5.88
  0
LINE
  5
45E23
100
AcDbEntity
  8
0
100
AcDbLine
 10
-0.398979
 20
1.004807
 30
5.88
 11
-0.398979
 21
1.250935
 31
5.88
  0
LINE
  5
45E24
100
AcDbEntity
  8
0
100
AcDbLine
 10
-0.298979
 20
1.004807
 30
5.88
 11
-0.298979
 21
1.250935
 31
5.88
  0
LINE
  5
45E25
100
AcDbEntity
  8
0
100
AcDbLine
 10
-0.398979
 20
1.004807
 30
5.88
 11
-0.298979
 21
1.004807
 31
5.88
  0
LINE
  5
45E26
100
AcDbEntity
  8
0
100
AcDbLine
 10
-0.238673
 20
1.090199
 30
5.88
 11
-0.243699
 21
1.115313
 31
5.88
  0
LINE
  5
45E27
100
AcDbEntity
  8
0
100
AcDbLine
 10
-0.243699
 20
1.115313
 30
5.88
 11
-0.238673
 21
1.140429
 31
5.88
  0
LINE
  5
45E28
100
AcDbEntity
  8
0
100
AcDbLine
 10
-0.398979
 20
1.321257
 30
5.88
 11
-0.298979
 21
1.321257
 31
5.88
  0
LINE
  5
45E29
100
AcDbEntity
  8
0
100
AcDbLine
 10
-0.398979
 20
1.250935
 30
5.88
 11
-0.298979
 21
1.250935
 31
5.88
  0
LINE
  5
45E2A
100
AcDbEntity
  8
0
100
AcDbLine
 10
-0.017547
 20
1.170567
 30
5.88
 11
-0.012522
 21
1.145451
 31
5.88
  0
LINE
  5
45E2B
100
AcDbEntity
  8
0
100
AcDbLine
 10
-0.198467
 20
1.215774
 30
5.88
 11
-0.0477
 21
1.039968
 31
5.88
  0
LINE
  5
45E2C
100
AcDbEntity
  8
0
100
AcDbLine
 10
-0.082881
 20
1.014852
 30
5.88
 11
-0.113034
 21
1.004807
 31
5.88
  0
LINE
  5
45E2D
100
AcDbEntity
  8
0
100
AcDbLine
 10
-0.20852
 20
1.039968
 30
5.88
 11
-0.228622
 21
1.065083
 31
5.88
  0
LINE
  5
45E2E
100
AcDbEntity
  8
0
100
AcDbLine
 10
-0.113034
 20
1.004807
 30
5.88
 11
-0.138161
 21
1.004807
 31
5.88
  0
LINE
  5
45E2F
100
AcDbEntity
  8
0
100
AcDbLine
 10
-0.138161
 20
1.004807
 30
5.88
 11
-0.163289
 21
1.014852
 31
5.88
  0
LINE
  5
45E30
100
AcDbEntity
  8
0
100
AcDbLine
 10
-0.163289
 20
1.014852
 30
5.88
 11
-0.188416
 21
1.0249
 31
5.88
  0
LINE
  5
45E31
100
AcDbEntity
  8
0
100
AcDbLine
 10
-0.188416
 20
1.0249
 30
5.88
 11
-0.20852
 21
1.039968
 31
5.88
  0
LINE
  5
45E32
100
AcDbEntity
  8
0
100
AcDbLine
 10
-0.012522
 20
1.145451
 30
5.88
 11
-0.007496
 21
1.115313
 31
5.88
  0
LINE
  5
45E33
100
AcDbEntity
  8
0
100
AcDbLine
 10
-0.007496
 20
1.115313
 30
5.88
 11
-0.012522
 21
1.090199
 31
5.88
  0
LINE
  5
45E34
100
AcDbEntity
  8
0
100
AcDbLine
 10
-0.012522
 20
1.090199
 30
5.88
 11
-0.022573
 21
1.065083
 31
5.88
  0
LINE
  5
45E35
100
AcDbEntity
  8
0
100
AcDbLine
 10
-0.022573
 20
1.065083
 30
5.88
 11
-0.037649
 21
1.044992
 31
5.88
  0
LINE
  5
45E36
100
AcDbEntity
  8
0
100
AcDbLine
 10
-0.062779
 20
1.0249
 30
5.88
 11
-0.082881
 21
1.014852
 31
5.88
  0
LINE
  5
45E37
100
AcDbEntity
  8
0
100
AcDbLine
 10
-0.037649
 20
1.044992
 30
5.88
 11
-0.062779
 21
1.0249
 31
5.88
  0
LINE
  5
45E38
100
AcDbEntity
  8
0
100
AcDbLine
 10
-0.12811
 20
1.240888
 30
5.88
 11
-0.097957
 21
1.235866
 31
5.88
  0
LINE
  5
45E39
100
AcDbEntity
  8
0
100
AcDbLine
 10
-0.082881
 20
1.326281
 30
5.88
 11
-0.113034
 21
1.321256
 31
5.88
  0
LINE
  5
45E3A
100
AcDbEntity
  8
0
100
AcDbLine
 10
-0.113034
 20
1.321256
 30
5.88
 11
-0.138161
 21
1.321256
 31
5.88
  0
LINE
  5
45E3B
100
AcDbEntity
  8
0
100
AcDbLine
 10
-0.138161
 20
1.321256
 30
5.88
 11
-0.163289
 21
1.326281
 31
5.88
  0
LINE
  5
45E3C
100
AcDbEntity
  8
0
100
AcDbLine
 10
-0.163289
 20
1.326281
 30
5.88
 11
-0.188416
 21
1.336327
 31
5.88
  0
LINE
  5
45E3D
100
AcDbEntity
  8
0
100
AcDbLine
 10
-0.188416
 20
1.336327
 30
5.88
 11
-0.20852
 21
1.356417
 31
5.88
  0
LINE
  5
45E3E
100
AcDbEntity
  8
0
100
AcDbLine
 10
-0.203495
 20
1.21075
 30
5.88
 11
-0.178365
 21
1.225819
 31
5.88
  0
LINE
  5
45E3F
100
AcDbEntity
  8
0
100
AcDbLine
 10
-0.178365
 20
1.225819
 30
5.88
 11
-0.153238
 21
1.235866
 31
5.88
  0
LINE
  5
45E40
100
AcDbEntity
  8
0
100
AcDbLine
 10
-0.233648
 20
1.170567
 30
5.88
 11
-0.218569
 21
1.190657
 31
5.88
  0
LINE
  5
45E41
100
AcDbEntity
  8
0
100
AcDbLine
 10
-0.218569
 20
1.190657
 30
5.88
 11
-0.203495
 21
1.21075
 31
5.88
  0
LINE
  5
45E42
100
AcDbEntity
  8
0
100
AcDbLine
 10
-0.153238
 20
1.235866
 30
5.88
 11
-0.12811
 21
1.240888
 31
5.88
  0
LINE
  5
45E43
100
AcDbEntity
  8
0
100
AcDbLine
 10
-0.037649
 20
1.356417
 30
5.88
 11
-0.062779
 21
1.341348
 31
5.88
  0
LINE
  5
45E44
100
AcDbEntity
  8
0
100
AcDbLine
 10
-0.062779
 20
1.341348
 30
5.88
 11
-0.082881
 21
1.326281
 31
5.88
  0
LINE
  5
45E45
100
AcDbEntity
  8
0
100
AcDbLine
 10
-0.07283
 20
1.225819
 30
5.88
 11
-0.052726
 21
1.21075
 31
5.88
  0
LINE
  5
45E46
100
AcDbEntity
  8
0
100
AcDbLine
 10
-0.052726
 20
1.21075
 30
5.88
 11
-0.032624
 21
1.195683
 31
5.88
  0
LINE
  5
45E47
100
AcDbEntity
  8
0
100
AcDbLine
 10
-0.032624
 20
1.195683
 30
5.88
 11
-0.017547
 21
1.170567
 31
5.88
  0
LINE
  5
45E48
100
AcDbEntity
  8
0
100
AcDbLine
 10
-0.097957
 20
1.235866
 30
5.88
 11
-0.07283
 21
1.225819
 31
5.88
  0
LINE
  5
45E49
100
AcDbEntity
  8
0
100
AcDbLine
 10
0.072657
 20
0.939508
 30
5.88
 11
0.072657
 21
0.69338
 31
5.88
  0
LINE
  5
45E4A
100
AcDbEntity
  8
0
100
AcDbLine
 10
0.022657
 20
0.939508
 30
5.88
 11
0.022657
 21
0.69338
 31
5.88
  0
LINE
  5
45E4B
100
AcDbEntity
  8
0
100
AcDbLine
 10
0.022657
 20
0.628081
 30
5.88
 11
0.072657
 21
0.628081
 31
5.88
  0
LINE
  5
45E4C
100
AcDbEntity
  8
0
100
AcDbLine
 10
0.022657
 20
0.69338
 30
5.88
 11
0.072657
 21
0.69338
 31
5.88
  0
LINE
  5
45E4D
100
AcDbEntity
  8
0
100
AcDbLine
 10
0.022657
 20
0.939508
 30
5.88
 11
0.072657
 21
0.939508
 31
5.88
  0
LINE
  5
45E4E
100
AcDbEntity
  8
0
100
AcDbLine
 10
0.072657
 20
1.250935
 30
5.88
 11
0.072657
 21
1.004807
 31
5.88
  0
LINE
  5
45E4F
100
AcDbEntity
  8
0
100
AcDbLine
 10
0.022657
 20
1.250935
 30
5.88
 11
0.022657
 21
1.004807
 31
5.88
  0
LINE
  5
45E50
100
AcDbEntity
  8
0
100
AcDbLine
 10
0.022657
 20
1.004807
 30
5.88
 11
0.072657
 21
1.004807
 31
5.88
  0
LINE
  5
45E51
100
AcDbEntity
  8
0
100
AcDbLine
 10
0.022657
 20
1.321257
 30
5.88
 11
0.072657
 21
1.321257
 31
5.88
  0
LINE
  5
45E52
100
AcDbEntity
  8
0
100
AcDbLine
 10
0.022657
 20
1.250935
 30
5.88
 11
0.072657
 21
1.250935
 31
5.88
  0
LINE
  5
45E53
100
AcDbEntity
  8
0
100
AcDbLine
 10
0.072657
 20
3.134566
 30
5.88
 11
0.072657
 21
2.888439
 31
5.88
  0
LINE
  5
45E54
100
AcDbEntity
  8
0
100
AcDbLine
 10
-0.398979
 20
2.888439
 30
5.88
 11
-0.398979
 21
3.134566
 31
5.88
  0
LINE
  5
45E55
100
AcDbEntity
  8
0
100
AcDbLine
 10
0.022657
 20
3.134566
 30
5.88
 11
0.022657
 21
2.888439
 31
5.88
  0
LINE
  5
45E56
100
AcDbEntity
  8
0
100
AcDbLine
 10
-0.017547
 20
3.049177
 30
5.88
 11
-0.012522
 21
3.024061
 31
5.88
  0
LINE
  5
45E57
100
AcDbEntity
  8
0
100
AcDbLine
 10
-0.298979
 20
2.888439
 30
5.88
 11
-0.298979
 21
3.134566
 31
5.88
  0
LINE
  5
45E58
100
AcDbEntity
  8
0
100
AcDbLine
 10
-0.238673
 20
3.024061
 30
5.88
 11
-0.233648
 21
3.049177
 31
5.88
  0
LINE
  5
45E59
100
AcDbEntity
  8
0
100
AcDbLine
 10
-0.198467
 20
3.094383
 30
5.88
 11
-0.0477
 21
2.918578
 31
5.88
  0
LINE
  5
45E5A
100
AcDbEntity
  8
0
100
AcDbLine
 10
-0.298979
 20
2.195263
 30
5.88
 11
0.022657
 21
2.195263
 31
5.88
  0
LINE
  5
45E5B
100
AcDbEntity
  8
0
100
AcDbLine
 10
0.022657
 20
1.949134
 30
5.88
 11
-0.298979
 21
1.949134
 31
5.88
  0
LINE
  5
45E5C
100
AcDbEntity
  8
0
100
AcDbLine
 10
-0.298979
 20
1.878813
 30
5.88
 11
0.022657
 21
1.878813
 31
5.88
  0
LINE
  5
45E5D
100
AcDbEntity
  8
0
100
AcDbLine
 10
0.022657
 20
1.632685
 30
5.88
 11
-0.298979
 21
1.632685
 31
5.88
  0
LINE
  5
45E5E
100
AcDbEntity
  8
0
100
AcDbLine
 10
-0.298979
 20
1.567384
 30
5.88
 11
0.022657
 21
1.567384
 31
5.88
  0
LINE
  5
45E5F
100
AcDbEntity
  8
0
100
AcDbLine
 10
-0.398979
 20
1.632684
 30
5.88
 11
-0.398979
 21
1.878812
 31
5.88
  0
LINE
  5
45E60
100
AcDbEntity
  8
0
100
AcDbLine
 10
-0.017547
 20
1.798445
 30
5.88
 11
-0.012522
 21
1.773329
 31
5.88
  0
LINE
  5
45E61
100
AcDbEntity
  8
0
100
AcDbLine
 10
-0.238673
 20
1.768305
 30
5.88
 11
-0.233648
 21
1.793421
 31
5.88
  0
LINE
  5
45E62
100
AcDbEntity
  8
0
100
AcDbLine
 10
-0.298979
 20
1.632685
 30
5.88
 11
-0.298979
 21
1.878813
 31
5.88
  0
LINE
  5
45E63
100
AcDbEntity
  8
0
100
AcDbLine
 10
-0.198467
 20
1.838628
 30
5.88
 11
-0.0477
 21
1.662823
 31
5.88
  0
LINE
  5
45E64
100
AcDbEntity
  8
0
100
AcDbLine
 10
-0.228622
 20
1.69296
 30
5.88
 11
-0.238673
 21
1.718075
 31
5.88
  0
LINE
  5
45E65
100
AcDbEntity
  8
0
100
AcDbLine
 10
-0.238673
 20
1.456878
 30
5.88
 11
-0.233648
 21
1.481994
 31
5.88
  0
LINE
  5
45E66
100
AcDbEntity
  8
0
100
AcDbLine
 10
-0.228622
 20
1.37651
 30
5.88
 11
-0.238673
 21
1.401626
 31
5.88
  0
LINE
  5
45E67
100
AcDbEntity
  8
0
100
AcDbLine
 10
-0.398979
 20
1.567385
 30
5.88
 11
-0.298979
 21
1.567385
 31
5.88
  0
LINE
  5
45E68
100
AcDbEntity
  8
0
100
AcDbLine
 10
-0.238673
 20
1.401626
 30
5.88
 11
-0.243699
 21
1.42674
 31
5.88
  0
LINE
  5
45E69
100
AcDbEntity
  8
0
100
AcDbLine
 10
-0.243699
 20
1.42674
 30
5.88
 11
-0.238673
 21
1.456878
 31
5.88
  0
LINE
  5
45E6A
100
AcDbEntity
  8
0
100
AcDbLine
 10
-0.398979
 20
1.632684
 30
5.88
 11
-0.298979
 21
1.632684
 31
5.88
  0
LINE
  5
45E6B
100
AcDbEntity
  8
0
100
AcDbLine
 10
-0.238673
 20
1.718075
 30
5.88
 11
-0.243699
 21
1.743191
 31
5.88
  0
LINE
  5
45E6C
100
AcDbEntity
  8
0
100
AcDbLine
 10
-0.243699
 20
1.743191
 30
5.88
 11
-0.238673
 21
1.768305
 31
5.88
  0
LINE
  5
45E6D
100
AcDbEntity
  8
0
100
AcDbLine
 10
-0.12811
 20
1.552317
 30
5.88
 11
-0.097957
 21
1.552317
 31
5.88
  0
LINE
  5
45E6E
100
AcDbEntity
  8
0
100
AcDbLine
 10
-0.203495
 20
1.527201
 30
5.88
 11
-0.178365
 21
1.54227
 31
5.88
  0
LINE
  5
45E6F
100
AcDbEntity
  8
0
100
AcDbLine
 10
-0.178365
 20
1.54227
 30
5.88
 11
-0.153238
 21
1.552317
 31
5.88
  0
LINE
  5
45E70
100
AcDbEntity
  8
0
100
AcDbLine
 10
-0.153238
 20
1.552317
 30
5.88
 11
-0.12811
 21
1.552317
 31
5.88
  0
LINE
  5
45E71
100
AcDbEntity
  8
0
100
AcDbLine
 10
-0.233648
 20
1.481994
 30
5.88
 11
-0.218569
 21
1.507108
 31
5.88
  0
LINE
  5
45E72
100
AcDbEntity
  8
0
100
AcDbLine
 10
-0.218569
 20
1.507108
 30
5.88
 11
-0.203495
 21
1.527201
 31
5.88
  0
LINE
  5
45E73
100
AcDbEntity
  8
0
100
AcDbLine
 10
-0.07283
 20
1.54227
 30
5.88
 11
-0.052726
 21
1.527201
 31
5.88
  0
LINE
  5
45E74
100
AcDbEntity
  8
0
100
AcDbLine
 10
-0.052726
 20
1.527201
 30
5.88
 11
-0.032624
 21
1.507108
 31
5.88
  0
LINE
  5
45E75
100
AcDbEntity
  8
0
100
AcDbLine
 10
-0.032624
 20
1.507108
 30
5.88
 11
-0.017547
 21
1.481994
 31
5.88
  0
LINE
  5
45E76
100
AcDbEntity
  8
0
100
AcDbLine
 10
-0.017547
 20
1.481994
 30
5.88
 11
-0.012522
 21
1.456878
 31
5.88
  0
LINE
  5
45E77
100
AcDbEntity
  8
0
100
AcDbLine
 10
-0.007496
 20
1.431764
 30
5.88
 11
-0.012522
 21
1.401626
 31
5.88
  0
LINE
  5
45E78
100
AcDbEntity
  8
0
100
AcDbLine
 10
-0.012522
 20
1.401626
 30
5.88
 11
-0.022573
 21
1.37651
 31
5.88
  0
LINE
  5
45E79
100
AcDbEntity
  8
0
100
AcDbLine
 10
-0.012522
 20
1.456878
 30
5.88
 11
-0.007496
 21
1.431764
 31
5.88
  0
LINE
  5
45E7A
100
AcDbEntity
  8
0
100
AcDbLine
 10
-0.097957
 20
1.552317
 30
5.88
 11
-0.07283
 21
1.54227
 31
5.88
  0
LINE
  5
45E7B
100
AcDbEntity
  8
0
100
AcDbLine
 10
-0.082881
 20
1.64273
 30
5.88
 11
-0.113034
 21
1.632685
 31
5.88
  0
LINE
  5
45E7C
100
AcDbEntity
  8
0
100
AcDbLine
 10
-0.163289
 20
1.637707
 30
5.88
 11
-0.188416
 21
1.652777
 31
5.88
  0
LINE
  5
45E7D
100
AcDbEntity
  8
0
100
AcDbLine
 10
-0.188416
 20
1.652777
 30
5.88
 11
-0.20852
 21
1.667846
 31
5.88
  0
LINE
  5
45E7E
100
AcDbEntity
  8
0
100
AcDbLine
 10
-0.20852
 20
1.667846
 30
5.88
 11
-0.228622
 21
1.69296
 31
5.88
  0
LINE
  5
45E7F
100
AcDbEntity
  8
0
100
AcDbLine
 10
-0.113034
 20
1.632685
 30
5.88
 11
-0.138161
 21
1.632685
 31
5.88
  0
LINE
  5
45E80
100
AcDbEntity
  8
0
100
AcDbLine
 10
-0.138161
 20
1.632685
 30
5.88
 11
-0.163289
 21
1.637707
 31
5.88
  0
LINE
  5
45E81
100
AcDbEntity
  8
0
100
AcDbLine
 10
-0.012522
 20
1.773329
 30
5.88
 11
-0.007496
 21
1.743191
 31
5.88
  0
LINE
  5
45E82
100
AcDbEntity
  8
0
100
AcDbLine
 10
-0.007496
 20
1.743191
 30
5.88
 11
-0.012522
 21
1.718075
 31
5.88
  0
LINE
  5
45E83
100
AcDbEntity
  8
0
100
AcDbLine
 10
-0.012522
 20
1.718075
 30
5.88
 11
-0.022573
 21
1.69296
 31
5.88
  0
LINE
  5
45E84
100
AcDbEntity
  8
0
100
AcDbLine
 10
-0.022573
 20
1.69296
 30
5.88
 11
-0.037649
 21
1.667846
 31
5.88
  0
LINE
  5
45E85
100
AcDbEntity
  8
0
100
AcDbLine
 10
-0.037649
 20
1.667846
 30
5.88
 11
-0.062779
 21
1.652777
 31
5.88
  0
LINE
  5
45E86
100
AcDbEntity
  8
0
100
AcDbLine
 10
-0.062779
 20
1.652777
 30
5.88
 11
-0.082881
 21
1.64273
 31
5.88
  0
LINE
  5
45E87
100
AcDbEntity
  8
0
100
AcDbLine
 10
-0.238673
 20
2.084756
 30
5.88
 11
-0.233648
 21
2.109872
 31
5.88
  0
LINE
  5
45E88
100
AcDbEntity
  8
0
100
AcDbLine
 10
-0.228622
 20
2.004388
 30
5.88
 11
-0.238673
 21
2.029504
 31
5.88
  0
LINE
  5
45E89
100
AcDbEntity
  8
0
100
AcDbLine
 10
-0.398979
 20
1.949134
 30
5.88
 11
-0.398979
 21
2.195262
 31
5.88
  0
LINE
  5
45E8A
100
AcDbEntity
  8
0
100
AcDbLine
 10
-0.298979
 20
1.949134
 30
5.88
 11
-0.298979
 21
2.195263
 31
5.88
  0
LINE
  5
45E8B
100
AcDbEntity
  8
0
100
AcDbLine
 10
-0.398979
 20
1.878812
 30
5.88
 11
-0.298979
 21
1.878812
 31
5.88
  0
LINE
  5
45E8C
100
AcDbEntity
  8
0
100
AcDbLine
 10
-0.398979
 20
1.949134
 30
5.88
 11
-0.298979
 21
1.949134
 31
5.88
  0
LINE
  5
45E8D
100
AcDbEntity
  8
0
100
AcDbLine
 10
-0.398979
 20
2.195262
 30
5.88
 11
-0.298979
 21
2.195262
 31
5.88
  0
LINE
  5
45E8E
100
AcDbEntity
  8
0
100
AcDbLine
 10
-0.243699
 20
2.054618
 30
5.88
 11
-0.238673
 21
2.084756
 31
5.88
  0
LINE
  5
45E8F
100
AcDbEntity
  8
0
100
AcDbLine
 10
-0.238673
 20
2.029504
 30
5.88
 11
-0.243699
 21
2.054618
 31
5.88
  0
LINE
  5
45E90
100
AcDbEntity
  8
0
100
AcDbLine
 10
-0.022573
 20
2.004388
 30
5.88
 11
-0.037649
 21
1.984295
 31
5.88
  0
LINE
  5
45E91
100
AcDbEntity
  8
0
100
AcDbLine
 10
-0.20852
 20
1.984295
 30
5.88
 11
-0.228622
 21
2.004388
 31
5.88
  0
LINE
  5
45E92
100
AcDbEntity
  8
0
100
AcDbLine
 10
-0.198467
 20
2.155078
 30
5.88
 11
-0.0477
 21
1.979271
 31
5.88
  0
LINE
  5
45E93
100
AcDbEntity
  8
0
100
AcDbLine
 10
-0.12811
 20
1.868766
 30
5.88
 11
-0.097957
 21
1.863744
 31
5.88
  0
LINE
  5
45E94
100
AcDbEntity
  8
0
100
AcDbLine
 10
-0.082881
 20
1.954157
 30
5.88
 11
-0.113034
 21
1.949134
 31
5.88
  0
LINE
  5
45E95
100
AcDbEntity
  8
0
100
AcDbLine
 10
-0.113034
 20
1.949134
 30
5.88
 11
-0.138161
 21
1.949134
 31
5.88
  0
LINE
  5
45E96
100
AcDbEntity
  8
0
100
AcDbLine
 10
-0.138161
 20
1.949134
 30
5.88
 11
-0.163289
 21
1.954157
 31
5.88
  0
LINE
  5
45E97
100
AcDbEntity
  8
0
100
AcDbLine
 10
-0.163289
 20
1.954157
 30
5.88
 11
-0.188416
 21
1.964203
 31
5.88
  0
LINE
  5
45E98
100
AcDbEntity
  8
0
100
AcDbLine
 10
-0.188416
 20
1.964203
 30
5.88
 11
-0.20852
 21
1.984295
 31
5.88
  0
LINE
  5
45E99
100
AcDbEntity
  8
0
100
AcDbLine
 10
-0.203495
 20
1.838628
 30
5.88
 11
-0.178365
 21
1.853697
 31
5.88
  0
LINE
  5
45E9A
100
AcDbEntity
  8
0
100
AcDbLine
 10
-0.178365
 20
1.853697
 30
5.88
 11
-0.153238
 21
1.863744
 31
5.88
  0
LINE
  5
45E9B
100
AcDbEntity
  8
0
100
AcDbLine
 10
-0.153238
 20
1.863744
 30
5.88
 11
-0.12811
 21
1.868766
 31
5.88
  0
LINE
  5
45E9C
100
AcDbEntity
  8
0
100
AcDbLine
 10
-0.233648
 20
1.793421
 30
5.88
 11
-0.218569
 21
1.818537
 31
5.88
  0
LINE
  5
45E9D
100
AcDbEntity
  8
0
100
AcDbLine
 10
-0.218569
 20
1.818537
 30
5.88
 11
-0.203495
 21
1.838628
 31
5.88
  0
LINE
  5
45E9E
100
AcDbEntity
  8
0
100
AcDbLine
 10
-0.037649
 20
1.984295
 30
5.88
 11
-0.062779
 21
1.964203
 31
5.88
  0
LINE
  5
45E9F
100
AcDbEntity
  8
0
100
AcDbLine
 10
-0.062779
 20
1.964203
 30
5.88
 11
-0.082881
 21
1.954157
 31
5.88
  0
LINE
  5
45EA0
100
AcDbEntity
  8
0
100
AcDbLine
 10
-0.07283
 20
1.853697
 30
5.88
 11
-0.052726
 21
1.838628
 31
5.88
  0
LINE
  5
45EA1
100
AcDbEntity
  8
0
100
AcDbLine
 10
-0.097957
 20
1.863744
 30
5.88
 11
-0.07283
 21
1.853697
 31
5.88
  0
LINE
  5
45EA2
100
AcDbEntity
  8
0
100
AcDbLine
 10
-0.032624
 20
1.818537
 30
5.88
 11
-0.017547
 21
1.798445
 31
5.88
  0
LINE
  5
45EA3
100
AcDbEntity
  8
0
100
AcDbLine
 10
-0.052726
 20
1.838628
 30
5.88
 11
-0.032624
 21
1.818537
 31
5.88
  0
LINE
  5
45EA4
100
AcDbEntity
  8
0
100
AcDbLine
 10
-0.12811
 20
2.180195
 30
5.88
 11
-0.097957
 21
2.175171
 31
5.88
  0
LINE
  5
45EA5
100
AcDbEntity
  8
0
100
AcDbLine
 10
-0.203495
 20
2.150055
 30
5.88
 11
-0.178365
 21
2.165124
 31
5.88
  0
LINE
  5
45EA6
100
AcDbEntity
  8
0
100
AcDbLine
 10
-0.178365
 20
2.165124
 30
5.88
 11
-0.153238
 21
2.175171
 31
5.88
  0
LINE
  5
45EA7
100
AcDbEntity
  8
0
100
AcDbLine
 10
-0.153238
 20
2.175171
 30
5.88
 11
-0.12811
 21
2.180195
 31
5.88
  0
LINE
  5
45EA8
100
AcDbEntity
  8
0
100
AcDbLine
 10
-0.233648
 20
2.109872
 30
5.88
 11
-0.218569
 21
2.134986
 31
5.88
  0
LINE
  5
45EA9
100
AcDbEntity
  8
0
100
AcDbLine
 10
-0.218569
 20
2.134986
 30
5.88
 11
-0.203495
 21
2.150055
 31
5.88
  0
LINE
  5
45EAA
100
AcDbEntity
  8
0
100
AcDbLine
 10
-0.07283
 20
2.170147
 30
5.88
 11
-0.052726
 21
2.155078
 31
5.88
  0
LINE
  5
45EAB
100
AcDbEntity
  8
0
100
AcDbLine
 10
-0.052726
 20
2.155078
 30
5.88
 11
-0.032624
 21
2.134986
 31
5.88
  0
LINE
  5
45EAC
100
AcDbEntity
  8
0
100
AcDbLine
 10
-0.032624
 20
2.134986
 30
5.88
 11
-0.017547
 21
2.109872
 31
5.88
  0
LINE
  5
45EAD
100
AcDbEntity
  8
0
100
AcDbLine
 10
-0.017547
 20
2.109872
 30
5.88
 11
-0.012522
 21
2.084756
 31
5.88
  0
LINE
  5
45EAE
100
AcDbEntity
  8
0
100
AcDbLine
 10
-0.012522
 20
2.084756
 30
5.88
 11
-0.007496
 21
2.059641
 31
5.88
  0
LINE
  5
45EAF
100
AcDbEntity
  8
0
100
AcDbLine
 10
-0.012522
 20
2.029504
 30
5.88
 11
-0.022573
 21
2.004388
 31
5.88
  0
LINE
  5
45EB0
100
AcDbEntity
  8
0
100
AcDbLine
 10
-0.007496
 20
2.059641
 30
5.88
 11
-0.012522
 21
2.029504
 31
5.88
  0
LINE
  5
45EB1
100
AcDbEntity
  8
0
100
AcDbLine
 10
-0.097957
 20
2.175171
 30
5.88
 11
-0.07283
 21
2.170147
 31
5.88
  0
LINE
  5
45EB2
100
AcDbEntity
  8
0
100
AcDbLine
 10
0.072657
 20
1.878812
 30
5.88
 11
0.072657
 21
1.632684
 31
5.88
  0
LINE
  5
45EB3
100
AcDbEntity
  8
0
100
AcDbLine
 10
0.022657
 20
1.878813
 30
5.88
 11
0.022657
 21
1.632685
 31
5.88
  0
LINE
  5
45EB4
100
AcDbEntity
  8
0
100
AcDbLine
 10
0.022657
 20
1.567385
 30
5.88
 11
0.072657
 21
1.567385
 31
5.88
  0
LINE
  5
45EB5
100
AcDbEntity
  8
0
100
AcDbLine
 10
0.022657
 20
1.632684
 30
5.88
 11
0.072657
 21
1.632684
 31
5.88
  0
LINE
  5
45EB6
100
AcDbEntity
  8
0
100
AcDbLine
 10
0.072657
 20
2.195262
 30
5.88
 11
0.072657
 21
1.949134
 31
5.88
  0
LINE
  5
45EB7
100
AcDbEntity
  8
0
100
AcDbLine
 10
0.022657
 20
2.195263
 30
5.88
 11
0.022657
 21
1.949134
 31
5.88
  0
LINE
  5
45EB8
100
AcDbEntity
  8
0
100
AcDbLine
 10
0.022657
 20
1.878812
 30
5.88
 11
0.072657
 21
1.878812
 31
5.88
  0
LINE
  5
45EB9
100
AcDbEntity
  8
0
100
AcDbLine
 10
0.022657
 20
1.949134
 30
5.88
 11
0.072657
 21
1.949134
 31
5.88
  0
LINE
  5
45EBA
100
AcDbEntity
  8
0
100
AcDbLine
 10
0.022657
 20
2.195262
 30
5.88
 11
0.072657
 21
2.195262
 31
5.88
  0
LINE
  5
45EBB
100
AcDbEntity
  8
0
100
AcDbLine
 10
0.022657
 20
2.888439
 30
5.88
 11
-0.298979
 21
2.888439
 31
5.88
  0
LINE
  5
45EBC
100
AcDbEntity
  8
0
100
AcDbLine
 10
-0.298979
 20
2.818118
 30
5.88
 11
0.022657
 21
2.818118
 31
5.88
  0
LINE
  5
45EBD
100
AcDbEntity
  8
0
100
AcDbLine
 10
0.022657
 20
2.571988
 30
5.88
 11
-0.298979
 21
2.571988
 31
5.88
  0
LINE
  5
45EBE
100
AcDbEntity
  8
0
100
AcDbLine
 10
-0.298979
 20
2.506689
 30
5.88
 11
0.022657
 21
2.506689
 31
5.88
  0
LINE
  5
45EBF
100
AcDbEntity
  8
0
100
AcDbLine
 10
0.022657
 20
2.260561
 30
5.88
 11
-0.298979
 21
2.260561
 31
5.88
  0
LINE
  5
45EC0
100
AcDbEntity
  8
0
100
AcDbLine
 10
-0.398979
 20
2.571991
 30
5.88
 11
-0.398979
 21
2.818119
 31
5.88
  0
LINE
  5
45EC1
100
AcDbEntity
  8
0
100
AcDbLine
 10
-0.022573
 20
2.632265
 30
5.88
 11
-0.037649
 21
2.612173
 31
5.88
  0
LINE
  5
45EC2
100
AcDbEntity
  8
0
100
AcDbLine
 10
-0.20852
 20
2.607149
 30
5.88
 11
-0.228622
 21
2.632265
 31
5.88
  0
LINE
  5
45EC3
100
AcDbEntity
  8
0
100
AcDbLine
 10
-0.298979
 20
2.571988
 30
5.88
 11
-0.298979
 21
2.818118
 31
5.88
  0
LINE
  5
45EC4
100
AcDbEntity
  8
0
100
AcDbLine
 10
-0.198467
 20
2.782956
 30
5.88
 11
-0.0477
 21
2.607149
 31
5.88
  0
LINE
  5
45EC5
100
AcDbEntity
  8
0
100
AcDbLine
 10
-0.238673
 20
2.396183
 30
5.88
 11
-0.233648
 21
2.421299
 31
5.88
  0
LINE
  5
45EC6
100
AcDbEntity
  8
0
100
AcDbLine
 10
-0.228622
 20
2.315815
 30
5.88
 11
-0.238673
 21
2.340929
 31
5.88
  0
LINE
  5
45EC7
100
AcDbEntity
  8
0
100
AcDbLine
 10
-0.398979
 20
2.260561
 30
5.88
 11
-0.398979
 21
2.506689
 31
5.88
  0
LINE
  5
45EC8
100
AcDbEntity
  8
0
100
AcDbLine
 10
-0.298979
 20
2.260561
 30
5.88
 11
-0.298979
 21
2.506689
 31
5.88
  0
LINE
  5
45EC9
100
AcDbEntity
  8
0
100
AcDbLine
 10
-0.398979
 20
2.260561
 30
5.88
 11
-0.298979
 21
2.260561
 31
5.88
  0
LINE
  5
45ECA
100
AcDbEntity
  8
0
100
AcDbLine
 10
-0.238673
 20
2.340929
 30
5.88
 11
-0.243699
 21
2.371069
 31
5.88
  0
LINE
  5
45ECB
100
AcDbEntity
  8
0
100
AcDbLine
 10
-0.243699
 20
2.371069
 30
5.88
 11
-0.238673
 21
2.396183
 31
5.88
  0
LINE
  5
45ECC
100
AcDbEntity
  8
0
100
AcDbLine
 10
-0.398979
 20
2.506689
 30
5.88
 11
-0.298979
 21
2.506689
 31
5.88
  0
LINE
  5
45ECD
100
AcDbEntity
  8
0
100
AcDbLine
 10
-0.398979
 20
2.571991
 30
5.88
 11
-0.298979
 21
2.571991
 31
5.88
  0
LINE
  5
45ECE
100
AcDbEntity
  8
0
100
AcDbLine
 10
-0.017547
 20
2.421299
 30
5.88
 11
-0.012522
 21
2.396183
 31
5.88
  0
LINE
  5
45ECF
100
AcDbEntity
  8
0
100
AcDbLine
 10
-0.198467
 20
2.466506
 30
5.88
 11
-0.0477
 21
2.2907
 31
5.88
  0
LINE
  5
45ED0
100
AcDbEntity
  8
0
100
AcDbLine
 10
-0.082881
 20
2.265584
 30
5.88
 11
-0.113034
 21
2.260561
 31
5.88
  0
LINE
  5
45ED1
100
AcDbEntity
  8
0
100
AcDbLine
 10
-0.113034
 20
2.260561
 30
5.88
 11
-0.138161
 21
2.260561
 31
5.88
  0
LINE
  5
45ED2
100
AcDbEntity
  8
0
100
AcDbLine
 10
-0.138161
 20
2.260561
 30
5.88
 11
-0.163289
 21
2.265584
 31
5.88
  0
LINE
  5
45ED3
100
AcDbEntity
  8
0
100
AcDbLine
 10
-0.163289
 20
2.265584
 30
5.88
 11
-0.188416
 21
2.280653
 31
5.88
  0
LINE
  5
45ED4
100
AcDbEntity
  8
0
100
AcDbLine
 10
-0.188416
 20
2.280653
 30
5.88
 11
-0.20852
 21
2.295722
 31
5.88
  0
LINE
  5
45ED5
100
AcDbEntity
  8
0
100
AcDbLine
 10
-0.20852
 20
2.295722
 30
5.88
 11
-0.228622
 21
2.315815
 31
5.88
  0
LINE
  5
45ED6
100
AcDbEntity
  8
0
100
AcDbLine
 10
-0.012522
 20
2.396183
 30
5.88
 11
-0.007496
 21
2.371069
 31
5.88
  0
LINE
  5
45ED7
100
AcDbEntity
  8
0
100
AcDbLine
 10
-0.007496
 20
2.371069
 30
5.88
 11
-0.012522
 21
2.345952
 31
5.88
  0
LINE
  5
45ED8
100
AcDbEntity
  8
0
100
AcDbLine
 10
-0.012522
 20
2.345952
 30
5.88
 11
-0.022573
 21
2.320838
 31
5.88
  0
LINE
  5
45ED9
100
AcDbEntity
  8
0
100
AcDbLine
 10
-0.022573
 20
2.320838
 30
5.88
 11
-0.037649
 21
2.295722
 31
5.88
  0
LINE
  5
45EDA
100
AcDbEntity
  8
0
100
AcDbLine
 10
-0.037649
 20
2.295722
 30
5.88
 11
-0.062779
 21
2.280653
 31
5.88
  0
LINE
  5
45EDB
100
AcDbEntity
  8
0
100
AcDbLine
 10
-0.062779
 20
2.280653
 30
5.88
 11
-0.082881
 21
2.265584
 31
5.88
  0
LINE
  5
45EDC
100
AcDbEntity
  8
0
100
AcDbLine
 10
-0.12811
 20
2.49162
 30
5.88
 11
-0.097957
 21
2.49162
 31
5.88
  0
LINE
  5
45EDD
100
AcDbEntity
  8
0
100
AcDbLine
 10
-0.082881
 20
2.582035
 30
5.88
 11
-0.113034
 21
2.571988
 31
5.88
  0
LINE
  5
45EDE
100
AcDbEntity
  8
0
100
AcDbLine
 10
-0.113034
 20
2.571988
 30
5.88
 11
-0.138161
 21
2.571988
 31
5.88
  0
LINE
  5
45EDF
100
AcDbEntity
  8
0
100
AcDbLine
 10
-0.138161
 20
2.571988
 30
5.88
 11
-0.163289
 21
2.582035
 31
5.88
  0
LINE
  5
45EE0
100
AcDbEntity
  8
0
100
AcDbLine
 10
-0.163289
 20
2.582035
 30
5.88
 11
-0.188416
 21
2.59208
 31
5.88
  0
LINE
  5
45EE1
100
AcDbEntity
  8
0
100
AcDbLine
 10
-0.188416
 20
2.59208
 30
5.88
 11
-0.20852
 21
2.607149
 31
5.88
  0
LINE
  5
45EE2
100
AcDbEntity
  8
0
100
AcDbLine
 10
-0.203495
 20
2.466506
 30
5.88
 11
-0.178365
 21
2.481574
 31
5.88
  0
LINE
  5
45EE3
100
AcDbEntity
  8
0
100
AcDbLine
 10
-0.178365
 20
2.481574
 30
5.88
 11
-0.153238
 21
2.49162
 31
5.88
  0
LINE
  5
45EE4
100
AcDbEntity
  8
0
100
AcDbLine
 10
-0.153238
 20
2.49162
 30
5.88
 11
-0.12811
 21
2.49162
 31
5.88
  0
LINE
  5
45EE5
100
AcDbEntity
  8
0
100
AcDbLine
 10
-0.218569
 20
2.446413
 30
5.88
 11
-0.203495
 21
2.466506
 31
5.88
  0
LINE
  5
45EE6
100
AcDbEntity
  8
0
100
AcDbLine
 10
-0.233648
 20
2.421299
 30
5.88
 11
-0.218569
 21
2.446413
 31
5.88
  0
LINE
  5
45EE7
100
AcDbEntity
  8
0
100
AcDbLine
 10
-0.037649
 20
2.612173
 30
5.88
 11
-0.062779
 21
2.59208
 31
5.88
  0
LINE
  5
45EE8
100
AcDbEntity
  8
0
100
AcDbLine
 10
-0.062779
 20
2.59208
 30
5.88
 11
-0.082881
 21
2.582035
 31
5.88
  0
LINE
  5
45EE9
100
AcDbEntity
  8
0
100
AcDbLine
 10
-0.07283
 20
2.481574
 30
5.88
 11
-0.052726
 21
2.466506
 31
5.88
  0
LINE
  5
45EEA
100
AcDbEntity
  8
0
100
AcDbLine
 10
-0.052726
 20
2.466506
 30
5.88
 11
-0.032624
 21
2.446413
 31
5.88
  0
LINE
  5
45EEB
100
AcDbEntity
  8
0
100
AcDbLine
 10
-0.032624
 20
2.446413
 30
5.88
 11
-0.017547
 21
2.421299
 31
5.88
  0
LINE
  5
45EEC
100
AcDbEntity
  8
0
100
AcDbLine
 10
-0.097957
 20
2.49162
 30
5.88
 11
-0.07283
 21
2.481574
 31
5.88
  0
LINE
  5
45EED
100
AcDbEntity
  8
0
100
AcDbLine
 10
-0.228622
 20
2.943692
 30
5.88
 11
-0.238673
 21
2.968807
 31
5.88
  0
LINE
  5
45EEE
100
AcDbEntity
  8
0
100
AcDbLine
 10
-0.238673
 20
2.70761
 30
5.88
 11
-0.233648
 21
2.737748
 31
5.88
  0
LINE
  5
45EEF
100
AcDbEntity
  8
0
100
AcDbLine
 10
-0.228622
 20
2.632265
 30
5.88
 11
-0.238673
 21
2.65738
 31
5.88
  0
LINE
  5
45EF0
100
AcDbEntity
  8
0
100
AcDbLine
 10
-0.398979
 20
2.818119
 30
5.88
 11
-0.298979
 21
2.818119
 31
5.88
  0
LINE
  5
45EF1
100
AcDbEntity
  8
0
100
AcDbLine
 10
-0.238673
 20
2.65738
 30
5.88
 11
-0.243699
 21
2.682494
 31
5.88
  0
LINE
  5
45EF2
100
AcDbEntity
  8
0
100
AcDbLine
 10
-0.243699
 20
2.682494
 30
5.88
 11
-0.238673
 21
2.70761
 31
5.88
  0
LINE
  5
45EF3
100
AcDbEntity
  8
0
100
AcDbLine
 10
-0.398979
 20
2.888439
 30
5.88
 11
-0.298979
 21
2.888439
 31
5.88
  0
LINE
  5
45EF4
100
AcDbEntity
  8
0
100
AcDbLine
 10
-0.238673
 20
2.968807
 30
5.88
 11
-0.243699
 21
2.993923
 31
5.88
  0
LINE
  5
45EF5
100
AcDbEntity
  8
0
100
AcDbLine
 10
-0.243699
 20
2.993923
 30
5.88
 11
-0.238673
 21
3.024061
 31
5.88
  0
LINE
  5
45EF6
100
AcDbEntity
  8
0
100
AcDbLine
 10
-0.12811
 20
2.80807
 30
5.88
 11
-0.097957
 21
2.803049
 31
5.88
  0
LINE
  5
45EF7
100
AcDbEntity
  8
0
100
AcDbLine
 10
-0.203495
 20
2.777933
 30
5.88
 11
-0.178365
 21
2.793002
 31
5.88
  0
LINE
  5
45EF8
100
AcDbEntity
  8
0
100
AcDbLine
 10
-0.178365
 20
2.793002
 30
5.88
 11
-0.153238
 21
2.803049
 31
5.88
  0
LINE
  5
45EF9
100
AcDbEntity
  8
0
100
AcDbLine
 10
-0.153238
 20
2.803049
 30
5.88
 11
-0.12811
 21
2.80807
 31
5.88
  0
LINE
  5
45EFA
100
AcDbEntity
  8
0
100
AcDbLine
 10
-0.233648
 20
2.737748
 30
5.88
 11
-0.218569
 21
2.75784
 31
5.88
  0
LINE
  5
45EFB
100
AcDbEntity
  8
0
100
AcDbLine
 10
-0.218569
 20
2.75784
 30
5.88
 11
-0.203495
 21
2.777933
 31
5.88
  0
LINE
  5
45EFC
100
AcDbEntity
  8
0
100
AcDbLine
 10
-0.07283
 20
2.793002
 30
5.88
 11
-0.052726
 21
2.777933
 31
5.88
  0
LINE
  5
45EFD
100
AcDbEntity
  8
0
100
AcDbLine
 10
-0.052726
 20
2.777933
 30
5.88
 11
-0.032624
 21
2.762864
 31
5.88
  0
LINE
  5
45EFE
100
AcDbEntity
  8
0
100
AcDbLine
 10
-0.032624
 20
2.762864
 30
5.88
 11
-0.017547
 21
2.737748
 31
5.88
  0
LINE
  5
45EFF
100
AcDbEntity
  8
0
100
AcDbLine
 10
-0.017547
 20
2.737748
 30
5.88
 11
-0.012522
 21
2.712633
 31
5.88
  0
LINE
  5
45F00
100
AcDbEntity
  8
0
100
AcDbLine
 10
-0.012522
 20
2.712633
 30
5.88
 11
-0.007496
 21
2.682494
 31
5.88
  0
LINE
  5
45F01
100
AcDbEntity
  8
0
100
AcDbLine
 10
-0.007496
 20
2.682494
 30
5.88
 11
-0.012522
 21
2.65738
 31
5.88
  0
LINE
  5
45F02
100
AcDbEntity
  8
0
100
AcDbLine
 10
-0.097957
 20
2.803049
 30
5.88
 11
-0.07283
 21
2.793002
 31
5.88
  0
LINE
  5
45F03
100
AcDbEntity
  8
0
100
AcDbLine
 10
-0.012522
 20
2.65738
 30
5.88
 11
-0.022573
 21
2.632265
 31
5.88
  0
LINE
  5
45F04
100
AcDbEntity
  8
0
100
AcDbLine
 10
-0.082881
 20
2.893462
 30
5.88
 11
-0.113034
 21
2.888439
 31
5.88
  0
LINE
  5
45F05
100
AcDbEntity
  8
0
100
AcDbLine
 10
-0.113034
 20
2.888439
 30
5.88
 11
-0.138161
 21
2.888439
 31
5.88
  0
LINE
  5
45F06
100
AcDbEntity
  8
0
100
AcDbLine
 10
-0.138161
 20
2.888439
 30
5.88
 11
-0.163289
 21
2.893462
 31
5.88
  0
LINE
  5
45F07
100
AcDbEntity
  8
0
100
AcDbLine
 10
-0.163289
 20
2.893462
 30
5.88
 11
-0.188416
 21
2.903507
 31
5.88
  0
LINE
  5
45F08
100
AcDbEntity
  8
0
100
AcDbLine
 10
-0.188416
 20
2.903507
 30
5.88
 11
-0.20852
 21
2.9236
 31
5.88
  0
LINE
  5
45F09
100
AcDbEntity
  8
0
100
AcDbLine
 10
-0.20852
 20
2.9236
 30
5.88
 11
-0.228622
 21
2.943692
 31
5.88
  0
LINE
  5
45F0A
100
AcDbEntity
  8
0
100
AcDbLine
 10
-0.012522
 20
3.024061
 30
5.88
 11
-0.007496
 21
2.998944
 31
5.88
  0
LINE
  5
45F0B
100
AcDbEntity
  8
0
100
AcDbLine
 10
-0.007496
 20
2.998944
 30
5.88
 11
-0.012522
 21
2.968807
 31
5.88
  0
LINE
  5
45F0C
100
AcDbEntity
  8
0
100
AcDbLine
 10
-0.012522
 20
2.968807
 30
5.88
 11
-0.022573
 21
2.943692
 31
5.88
  0
LINE
  5
45F0D
100
AcDbEntity
  8
0
100
AcDbLine
 10
-0.022573
 20
2.943692
 30
5.88
 11
-0.037649
 21
2.9236
 31
5.88
  0
LINE
  5
45F0E
100
AcDbEntity
  8
0
100
AcDbLine
 10
-0.037649
 20
2.9236
 30
5.88
 11
-0.062779
 21
2.908531
 31
5.88
  0
LINE
  5
45F0F
100
AcDbEntity
  8
0
100
AcDbLine
 10
-0.062779
 20
2.908531
 30
5.88
 11
-0.082881
 21
2.893462
 31
5.88
  0
LINE
  5
45F10
100
AcDbEntity
  8
0
100
AcDbLine
 10
0.072657
 20
2.818119
 30
5.88
 11
0.072657
 21
2.571991
 31
5.88
  0
LINE
  5
45F11
100
AcDbEntity
  8
0
100
AcDbLine
 10
0.022657
 20
2.818118
 30
5.88
 11
0.022657
 21
2.571988
 31
5.88
  0
LINE
  5
45F12
100
AcDbEntity
  8
0
100
AcDbLine
 10
0.072657
 20
2.506689
 30
5.88
 11
0.072657
 21
2.260561
 31
5.88
  0
LINE
  5
45F13
100
AcDbEntity
  8
0
100
AcDbLine
 10
0.022657
 20
2.506689
 30
5.88
 11
0.022657
 21
2.260561
 31
5.88
  0
LINE
  5
45F14
100
AcDbEntity
  8
0
100
AcDbLine
 10
0.022657
 20
2.260561
 30
5.88
 11
0.072657
 21
2.260561
 31
5.88
  0
LINE
  5
45F15
100
AcDbEntity
  8
0
100
AcDbLine
 10
0.022657
 20
2.506689
 30
5.88
 11
0.072657
 21
2.506689
 31
5.88
  0
LINE
  5
45F16
100
AcDbEntity
  8
0
100
AcDbLine
 10
0.022657
 20
2.571991
 30
5.88
 11
0.072657
 21
2.571991
 31
5.88
  0
LINE
  5
45F17
100
AcDbEntity
  8
0
100
AcDbLine
 10
0.022657
 20
2.818119
 30
5.88
 11
0.072657
 21
2.818119
 31
5.88
  0
LINE
  5
45F18
100
AcDbEntity
  8
0
100
AcDbLine
 10
0.022657
 20
2.888439
 30
5.88
 11
0.072657
 21
2.888439
 31
5.88
  0
LINE
  5
45F19
100
AcDbEntity
  8
0
100
AcDbLine
 10
0.072657
 20
4.073871
 30
5.88
 11
0.072657
 21
3.827743
 31
5.88
  0
LINE
  5
45F1A
100
AcDbEntity
  8
0
100
AcDbLine
 10
-0.398979
 20
3.827743
 30
5.88
 11
-0.398979
 21
4.073871
 31
5.88
  0
LINE
  5
45F1B
100
AcDbEntity
  8
0
100
AcDbLine
 10
-0.022573
 20
3.888019
 30
5.88
 11
-0.037649
 21
3.862905
 31
5.88
  0
LINE
  5
45F1C
100
AcDbEntity
  8
0
100
AcDbLine
 10
0.022657
 20
4.073871
 30
5.88
 11
0.022657
 21
3.827743
 31
5.88
  0
LINE
  5
45F1D
100
AcDbEntity
  8
0
100
AcDbLine
 10
-0.20852
 20
3.862905
 30
5.88
 11
-0.228622
 21
3.882997
 31
5.88
  0
LINE
  5
45F1E
100
AcDbEntity
  8
0
100
AcDbLine
 10
-0.298979
 20
3.827743
 30
5.88
 11
-0.298979
 21
4.073871
 31
5.88
  0
LINE
  5
45F1F
100
AcDbEntity
  8
0
100
AcDbLine
 10
-0.198467
 20
4.033688
 30
5.88
 11
-0.0477
 21
3.857881
 31
5.88
  0
LINE
  5
45F20
100
AcDbEntity
  8
0
100
AcDbLine
 10
0.022657
 20
3.827743
 30
5.88
 11
-0.298979
 21
3.827743
 31
5.88
  0
LINE
  5
45F21
100
AcDbEntity
  8
0
100
AcDbLine
 10
-0.298979
 20
3.762444
 30
5.88
 11
0.022657
 21
3.762444
 31
5.88
  0
LINE
  5
45F22
100
AcDbEntity
  8
0
100
AcDbLine
 10
0.022657
 20
3.516316
 30
5.88
 11
-0.298979
 21
3.516316
 31
5.88
  0
LINE
  5
45F23
100
AcDbEntity
  8
0
100
AcDbLine
 10
-0.298979
 20
3.445995
 30
5.88
 11
0.022657
 21
3.445995
 31
5.88
  0
LINE
  5
45F24
100
AcDbEntity
  8
0
100
AcDbLine
 10
0.022657
 20
3.199868
 30
5.88
 11
-0.298979
 21
3.199868
 31
5.88
  0
LINE
  5
45F25
100
AcDbEntity
  8
0
100
AcDbLine
 10
-0.298979
 20
3.134566
 30
5.88
 11
0.022657
 21
3.134566
 31
5.88
  0
LINE
  5
45F26
100
AcDbEntity
  8
0
100
AcDbLine
 10
-0.238673
 20
3.335488
 30
5.88
 11
-0.233648
 21
3.360602
 31
5.88
  0
LINE
  5
45F27
100
AcDbEntity
  8
0
100
AcDbLine
 10
-0.228622
 20
3.260143
 30
5.88
 11
-0.238673
 21
3.285257
 31
5.88
  0
LINE
  5
45F28
100
AcDbEntity
  8
0
100
AcDbLine
 10
-0.398979
 20
3.199868
 30
5.88
 11
-0.398979
 21
3.445995
 31
5.88
  0
LINE
  5
45F29
100
AcDbEntity
  8
0
100
AcDbLine
 10
-0.298979
 20
3.199868
 30
5.88
 11
-0.298979
 21
3.445995
 31
5.88
  0
LINE
  5
45F2A
100
AcDbEntity
  8
0
100
AcDbLine
 10
-0.398979
 20
3.199868
 30
5.88
 11
-0.298979
 21
3.199868
 31
5.88
  0
LINE
  5
45F2B
100
AcDbEntity
  8
0
100
AcDbLine
 10
-0.398979
 20
3.134566
 30
5.88
 11
-0.298979
 21
3.134566
 31
5.88
  0
LINE
  5
45F2C
100
AcDbEntity
  8
0
100
AcDbLine
 10
-0.398979
 20
3.445995
 30
5.88
 11
-0.298979
 21
3.445995
 31
5.88
  0
LINE
  5
45F2D
100
AcDbEntity
  8
0
100
AcDbLine
 10
-0.238673
 20
3.285257
 30
5.88
 11
-0.243699
 21
3.310373
 31
5.88
  0
LINE
  5
45F2E
100
AcDbEntity
  8
0
100
AcDbLine
 10
-0.243699
 20
3.310373
 30
5.88
 11
-0.238673
 21
3.335488
 31
5.88
  0
LINE
  5
45F2F
100
AcDbEntity
  8
0
100
AcDbLine
 10
-0.022573
 20
3.260143
 30
5.88
 11
-0.037649
 21
3.235027
 31
5.88
  0
LINE
  5
45F30
100
AcDbEntity
  8
0
100
AcDbLine
 10
-0.20852
 20
3.235027
 30
5.88
 11
-0.228622
 21
3.260143
 31
5.88
  0
LINE
  5
45F31
100
AcDbEntity
  8
0
100
AcDbLine
 10
-0.198467
 20
3.40581
 30
5.88
 11
-0.0477
 21
3.230003
 31
5.88
  0
LINE
  5
45F32
100
AcDbEntity
  8
0
100
AcDbLine
 10
-0.12811
 20
3.119498
 30
5.88
 11
-0.097957
 21
3.119498
 31
5.88
  0
LINE
  5
45F33
100
AcDbEntity
  8
0
100
AcDbLine
 10
-0.082881
 20
3.209911
 30
5.88
 11
-0.113034
 21
3.199868
 31
5.88
  0
LINE
  5
45F34
100
AcDbEntity
  8
0
100
AcDbLine
 10
-0.113034
 20
3.199868
 30
5.88
 11
-0.138161
 21
3.199868
 31
5.88
  0
LINE
  5
45F35
100
AcDbEntity
  8
0
100
AcDbLine
 10
-0.138161
 20
3.199868
 30
5.88
 11
-0.163289
 21
3.204889
 31
5.88
  0
LINE
  5
45F36
100
AcDbEntity
  8
0
100
AcDbLine
 10
-0.163289
 20
3.204889
 30
5.88
 11
-0.188416
 21
3.219958
 31
5.88
  0
LINE
  5
45F37
100
AcDbEntity
  8
0
100
AcDbLine
 10
-0.203495
 20
3.094383
 30
5.88
 11
-0.178365
 21
3.109452
 31
5.88
  0
LINE
  5
45F38
100
AcDbEntity
  8
0
100
AcDbLine
 10
-0.178365
 20
3.109452
 30
5.88
 11
-0.153238
 21
3.119498
 31
5.88
  0
LINE
  5
45F39
100
AcDbEntity
  8
0
100
AcDbLine
 10
-0.153238
 20
3.119498
 30
5.88
 11
-0.12811
 21
3.119498
 31
5.88
  0
LINE
  5
45F3A
100
AcDbEntity
  8
0
100
AcDbLine
 10
-0.233648
 20
3.049177
 30
5.88
 11
-0.218569
 21
3.074291
 31
5.88
  0
LINE
  5
45F3B
100
AcDbEntity
  8
0
100
AcDbLine
 10
-0.218569
 20
3.074291
 30
5.88
 11
-0.203495
 21
3.094383
 31
5.88
  0
LINE
  5
45F3C
100
AcDbEntity
  8
0
100
AcDbLine
 10
-0.188416
 20
3.219958
 30
5.88
 11
-0.20852
 21
3.235027
 31
5.88
  0
LINE
  5
45F3D
100
AcDbEntity
  8
0
100
AcDbLine
 10
-0.062779
 20
3.219958
 30
5.88
 11
-0.082881
 21
3.209911
 31
5.88
  0
LINE
  5
45F3E
100
AcDbEntity
  8
0
100
AcDbLine
 10
-0.07283
 20
3.109452
 30
5.88
 11
-0.052726
 21
3.094383
 31
5.88
  0
LINE
  5
45F3F
100
AcDbEntity
  8
0
100
AcDbLine
 10
-0.052726
 20
3.094383
 30
5.88
 11
-0.032624
 21
3.074291
 31
5.88
  0
LINE
  5
45F40
100
AcDbEntity
  8
0
100
AcDbLine
 10
-0.032624
 20
3.074291
 30
5.88
 11
-0.017547
 21
3.049177
 31
5.88
  0
LINE
  5
45F41
100
AcDbEntity
  8
0
100
AcDbLine
 10
-0.037649
 20
3.235027
 30
5.88
 11
-0.062779
 21
3.219958
 31
5.88
  0
LINE
  5
45F42
100
AcDbEntity
  8
0
100
AcDbLine
 10
-0.097957
 20
3.119498
 30
5.88
 11
-0.07283
 21
3.109452
 31
5.88
  0
LINE
  5
45F43
100
AcDbEntity
  8
0
100
AcDbLine
 10
-0.12811
 20
3.435948
 30
5.88
 11
-0.097957
 21
3.430925
 31
5.88
  0
LINE
  5
45F44
100
AcDbEntity
  8
0
100
AcDbLine
 10
-0.153238
 20
3.430925
 30
5.88
 11
-0.12811
 21
3.435948
 31
5.88
  0
LINE
  5
45F45
100
AcDbEntity
  8
0
100
AcDbLine
 10
-0.203495
 20
3.40581
 30
5.88
 11
-0.178365
 21
3.420879
 31
5.88
  0
LINE
  5
45F46
100
AcDbEntity
  8
0
100
AcDbLine
 10
-0.233648
 20
3.360602
 30
5.88
 11
-0.218569
 21
3.385718
 31
5.88
  0
LINE
  5
45F47
100
AcDbEntity
  8
0
100
AcDbLine
 10
-0.218569
 20
3.385718
 30
5.88
 11
-0.203495
 21
3.40581
 31
5.88
  0
LINE
  5
45F48
100
AcDbEntity
  8
0
100
AcDbLine
 10
-0.178365
 20
3.420879
 30
5.88
 11
-0.153238
 21
3.430925
 31
5.88
  0
LINE
  5
45F49
100
AcDbEntity
  8
0
100
AcDbLine
 10
-0.07283
 20
3.420879
 30
5.88
 11
-0.052726
 21
3.40581
 31
5.88
  0
LINE
  5
45F4A
100
AcDbEntity
  8
0
100
AcDbLine
 10
-0.052726
 20
3.40581
 30
5.88
 11
-0.032624
 21
3.385718
 31
5.88
  0
LINE
  5
45F4B
100
AcDbEntity
  8
0
100
AcDbLine
 10
-0.032624
 20
3.385718
 30
5.88
 11
-0.017547
 21
3.365625
 31
5.88
  0
LINE
  5
45F4C
100
AcDbEntity
  8
0
100
AcDbLine
 10
-0.017547
 20
3.365625
 30
5.88
 11
-0.012522
 21
3.340511
 31
5.88
  0
LINE
  5
45F4D
100
AcDbEntity
  8
0
100
AcDbLine
 10
-0.012522
 20
3.340511
 30
5.88
 11
-0.007496
 21
3.310373
 31
5.88
  0
LINE
  5
45F4E
100
AcDbEntity
  8
0
100
AcDbLine
 10
-0.007496
 20
3.310373
 30
5.88
 11
-0.012522
 21
3.285257
 31
5.88
  0
LINE
  5
45F4F
100
AcDbEntity
  8
0
100
AcDbLine
 10
-0.012522
 20
3.285257
 30
5.88
 11
-0.022573
 21
3.260143
 31
5.88
  0
LINE
  5
45F50
100
AcDbEntity
  8
0
100
AcDbLine
 10
-0.097957
 20
3.430925
 30
5.88
 11
-0.07283
 21
3.420879
 31
5.88
  0
LINE
  5
45F51
100
AcDbEntity
  8
0
100
AcDbLine
 10
-0.238673
 20
3.651938
 30
5.88
 11
-0.233648
 21
3.677053
 31
5.88
  0
LINE
  5
45F52
100
AcDbEntity
  8
0
100
AcDbLine
 10
-0.228622
 20
3.571568
 30
5.88
 11
-0.238673
 21
3.596684
 31
5.88
  0
LINE
  5
45F53
100
AcDbEntity
  8
0
100
AcDbLine
 10
-0.398979
 20
3.516316
 30
5.88
 11
-0.398979
 21
3.762444
 31
5.88
  0
LINE
  5
45F54
100
AcDbEntity
  8
0
100
AcDbLine
 10
-0.298979
 20
3.516316
 30
5.88
 11
-0.298979
 21
3.762444
 31
5.88
  0
LINE
  5
45F55
100
AcDbEntity
  8
0
100
AcDbLine
 10
-0.398979
 20
3.516316
 30
5.88
 11
-0.298979
 21
3.516316
 31
5.88
  0
LINE
  5
45F56
100
AcDbEntity
  8
0
100
AcDbLine
 10
-0.238673
 20
3.596684
 30
5.88
 11
-0.243699
 21
3.621801
 31
5.88
  0
LINE
  5
45F57
100
AcDbEntity
  8
0
100
AcDbLine
 10
-0.243699
 20
3.621801
 30
5.88
 11
-0.238673
 21
3.651938
 31
5.88
  0
LINE
  5
45F58
100
AcDbEntity
  8
0
100
AcDbLine
 10
-0.398979
 20
3.762444
 30
5.88
 11
-0.298979
 21
3.762444
 31
5.88
  0
LINE
  5
45F59
100
AcDbEntity
  8
0
100
AcDbLine
 10
-0.398979
 20
3.827743
 30
5.88
 11
-0.298979
 21
3.827743
 31
5.88
  0
LINE
  5
45F5A
100
AcDbEntity
  8
0
100
AcDbLine
 10
-0.017547
 20
3.677053
 30
5.88
 11
-0.012522
 21
3.651938
 31
5.88
  0
LINE
  5
45F5B
100
AcDbEntity
  8
0
100
AcDbLine
 10
-0.198467
 20
3.722259
 30
5.88
 11
-0.0477
 21
3.546454
 31
5.88
  0
LINE
  5
45F5C
100
AcDbEntity
  8
0
100
AcDbLine
 10
-0.082881
 20
3.52134
 30
5.88
 11
-0.113034
 21
3.516316
 31
5.88
  0
LINE
  5
45F5D
100
AcDbEntity
  8
0
100
AcDbLine
 10
-0.113034
 20
3.516316
 30
5.88
 11
-0.138161
 21
3.516316
 31
5.88
  0
LINE
  5
45F5E
100
AcDbEntity
  8
0
100
AcDbLine
 10
-0.138161
 20
3.516316
 30
5.88
 11
-0.163289
 21
3.52134
 31
5.88
  0
LINE
  5
45F5F
100
AcDbEntity
  8
0
100
AcDbLine
 10
-0.163289
 20
3.52134
 30
5.88
 11
-0.188416
 21
3.531385
 31
5.88
  0
LINE
  5
45F60
100
AcDbEntity
  8
0
100
AcDbLine
 10
-0.188416
 20
3.531385
 30
5.88
 11
-0.20852
 21
3.551478
 31
5.88
  0
LINE
  5
45F61
100
AcDbEntity
  8
0
100
AcDbLine
 10
-0.20852
 20
3.551478
 30
5.88
 11
-0.228622
 21
3.571568
 31
5.88
  0
LINE
  5
45F62
100
AcDbEntity
  8
0
100
AcDbLine
 10
-0.007496
 20
3.626822
 30
5.88
 11
-0.012522
 21
3.596684
 31
5.88
  0
LINE
  5
45F63
100
AcDbEntity
  8
0
100
AcDbLine
 10
-0.012522
 20
3.596684
 30
5.88
 11
-0.022573
 21
3.571568
 31
5.88
  0
LINE
  5
45F64
100
AcDbEntity
  8
0
100
AcDbLine
 10
-0.022573
 20
3.571568
 30
5.88
 11
-0.037649
 21
3.551478
 31
5.88
  0
LINE
  5
45F65
100
AcDbEntity
  8
0
100
AcDbLine
 10
-0.037649
 20
3.551478
 30
5.88
 11
-0.062779
 21
3.531385
 31
5.88
  0
LINE
  5
45F66
100
AcDbEntity
  8
0
100
AcDbLine
 10
-0.062779
 20
3.531385
 30
5.88
 11
-0.082881
 21
3.52134
 31
5.88
  0
LINE
  5
45F67
100
AcDbEntity
  8
0
100
AcDbLine
 10
-0.012522
 20
3.651938
 30
5.88
 11
-0.007496
 21
3.626822
 31
5.88
  0
LINE
  5
45F68
100
AcDbEntity
  8
0
100
AcDbLine
 10
-0.12811
 20
3.747375
 30
5.88
 11
-0.097957
 21
3.742352
 31
5.88
  0
LINE
  5
45F69
100
AcDbEntity
  8
0
100
AcDbLine
 10
-0.082881
 20
3.832767
 30
5.88
 11
-0.113034
 21
3.827743
 31
5.88
  0
LINE
  5
45F6A
100
AcDbEntity
  8
0
100
AcDbLine
 10
-0.163289
 20
3.832767
 30
5.88
 11
-0.188416
 21
3.847836
 31
5.88
  0
LINE
  5
45F6B
100
AcDbEntity
  8
0
100
AcDbLine
 10
-0.188416
 20
3.847836
 30
5.88
 11
-0.20852
 21
3.862905
 31
5.88
  0
LINE
  5
45F6C
100
AcDbEntity
  8
0
100
AcDbLine
 10
-0.113034
 20
3.827743
 30
5.88
 11
-0.138161
 21
3.827743
 31
5.88
  0
LINE
  5
45F6D
100
AcDbEntity
  8
0
100
AcDbLine
 10
-0.203495
 20
3.717238
 30
5.88
 11
-0.178365
 21
3.732306
 31
5.88
  0
LINE
  5
45F6E
100
AcDbEntity
  8
0
100
AcDbLine
 10
-0.178365
 20
3.732306
 30
5.88
 11
-0.153238
 21
3.742352
 31
5.88
  0
LINE
  5
45F6F
100
AcDbEntity
  8
0
100
AcDbLine
 10
-0.153238
 20
3.742352
 30
5.88
 11
-0.12811
 21
3.747375
 31
5.88
  0
LINE
  5
45F70
100
AcDbEntity
  8
0
100
AcDbLine
 10
-0.233648
 20
3.677053
 30
5.88
 11
-0.218569
 21
3.702167
 31
5.88
  0
LINE
  5
45F71
100
AcDbEntity
  8
0
100
AcDbLine
 10
-0.218569
 20
3.702167
 30
5.88
 11
-0.203495
 21
3.717238
 31
5.88
  0
LINE
  5
45F72
100
AcDbEntity
  8
0
100
AcDbLine
 10
-0.138161
 20
3.827743
 30
5.88
 11
-0.163289
 21
3.832767
 31
5.88
  0
LINE
  5
45F73
100
AcDbEntity
  8
0
100
AcDbLine
 10
-0.037649
 20
3.862905
 30
5.88
 11
-0.062779
 21
3.847836
 31
5.88
  0
LINE
  5
45F74
100
AcDbEntity
  8
0
100
AcDbLine
 10
-0.062779
 20
3.847836
 30
5.88
 11
-0.082881
 21
3.832767
 31
5.88
  0
LINE
  5
45F75
100
AcDbEntity
  8
0
100
AcDbLine
 10
-0.07283
 20
3.737328
 30
5.88
 11
-0.052726
 21
3.722259
 31
5.88
  0
LINE
  5
45F76
100
AcDbEntity
  8
0
100
AcDbLine
 10
-0.052726
 20
3.722259
 30
5.88
 11
-0.032624
 21
3.702167
 31
5.88
  0
LINE
  5
45F77
100
AcDbEntity
  8
0
100
AcDbLine
 10
-0.032624
 20
3.702167
 30
5.88
 11
-0.017547
 21
3.677053
 31
5.88
  0
LINE
  5
45F78
100
AcDbEntity
  8
0
100
AcDbLine
 10
-0.097957
 20
3.742352
 30
5.88
 11
-0.07283
 21
3.737328
 31
5.88
  0
LINE
  5
45F79
100
AcDbEntity
  8
0
100
AcDbLine
 10
0.072657
 20
3.445995
 30
5.88
 11
0.072657
 21
3.199868
 31
5.88
  0
LINE
  5
45F7A
100
AcDbEntity
  8
0
100
AcDbLine
 10
0.022657
 20
3.445995
 30
5.88
 11
0.022657
 21
3.199868
 31
5.88
  0
LINE
  5
45F7B
100
AcDbEntity
  8
0
100
AcDbLine
 10
0.022657
 20
3.199868
 30
5.88
 11
0.072657
 21
3.199868
 31
5.88
  0
LINE
  5
45F7C
100
AcDbEntity
  8
0
100
AcDbLine
 10
0.022657
 20
3.134566
 30
5.88
 11
0.072657
 21
3.134566
 31
5.88
  0
LINE
  5
45F7D
100
AcDbEntity
  8
0
100
AcDbLine
 10
0.022657
 20
3.445995
 30
5.88
 11
0.072657
 21
3.445995
 31
5.88
  0
LINE
  5
45F7E
100
AcDbEntity
  8
0
100
AcDbLine
 10
0.072657
 20
3.762444
 30
5.88
 11
0.072657
 21
3.516316
 31
5.88
  0
LINE
  5
45F7F
100
AcDbEntity
  8
0
100
AcDbLine
 10
0.022657
 20
3.762444
 30
5.88
 11
0.022657
 21
3.516316
 31
5.88
  0
LINE
  5
45F80
100
AcDbEntity
  8
0
100
AcDbLine
 10
0.022657
 20
3.516316
 30
5.88
 11
0.072657
 21
3.516316
 31
5.88
  0
LINE
  5
45F81
100
AcDbEntity
  8
0
100
AcDbLine
 10
0.022657
 20
3.762444
 30
5.88
 11
0.072657
 21
3.762444
 31
5.88
  0
LINE
  5
45F82
100
AcDbEntity
  8
0
100
AcDbLine
 10
0.022657
 20
3.827743
 30
5.88
 11
0.072657
 21
3.827743
 31
5.88
  0
LINE
  5
45F83
100
AcDbEntity
  8
0
100
AcDbLine
 10
-0.298979
 20
4.701749
 30
5.88
 11
0.022657
 21
4.701749
 31
5.88
  0
LINE
  5
45F84
100
AcDbEntity
  8
0
100
AcDbLine
 10
0.022657
 20
4.455621
 30
5.88
 11
-0.298979
 21
4.455621
 31
5.88
  0
LINE
  5
45F85
100
AcDbEntity
  8
0
100
AcDbLine
 10
-0.298979
 20
4.385298
 30
5.88
 11
0.022657
 21
4.385298
 31
5.88
  0
LINE
  5
45F86
100
AcDbEntity
  8
0
100
AcDbLine
 10
0.022657
 20
4.139171
 30
5.88
 11
-0.298979
 21
4.139171
 31
5.88
  0
LINE
  5
45F87
100
AcDbEntity
  8
0
100
AcDbLine
 10
-0.298979
 20
4.073871
 30
5.88
 11
0.022657
 21
4.073871
 31
5.88
  0
LINE
  5
45F88
100
AcDbEntity
  8
0
100
AcDbLine
 10
-0.398979
 20
4.139169
 30
5.88
 11
-0.398979
 21
4.385297
 31
5.88
  0
LINE
  5
45F89
100
AcDbEntity
  8
0
100
AcDbLine
 10
-0.017547
 20
4.30493
 30
5.88
 11
-0.012522
 21
4.279816
 31
5.88
  0
LINE
  5
45F8A
100
AcDbEntity
  8
0
100
AcDbLine
 10
-0.238673
 20
4.274793
 30
5.88
 11
-0.233648
 21
4.30493
 31
5.88
  0
LINE
  5
45F8B
100
AcDbEntity
  8
0
100
AcDbLine
 10
-0.298979
 20
4.139171
 30
5.88
 11
-0.298979
 21
4.385298
 31
5.88
  0
LINE
  5
45F8C
100
AcDbEntity
  8
0
100
AcDbLine
 10
-0.198467
 20
4.350137
 30
5.88
 11
-0.0477
 21
4.174332
 31
5.88
  0
LINE
  5
45F8D
100
AcDbEntity
  8
0
100
AcDbLine
 10
-0.228622
 20
4.199446
 30
5.88
 11
-0.238673
 21
4.224562
 31
5.88
  0
LINE
  5
45F8E
100
AcDbEntity
  8
0
100
AcDbLine
 10
-0.238673
 20
3.963365
 30
5.88
 11
-0.233648
 21
3.98848
 31
5.88
  0
LINE
  5
45F8F
100
AcDbEntity
  8
0
100
AcDbLine
 10
-0.228622
 20
3.882997
 30
5.88
 11
-0.238673
 21
3.908112
 31
5.88
  0
LINE
  5
45F90
100
AcDbEntity
  8
0
100
AcDbLine
 10
-0.398979
 20
4.073871
 30
5.88
 11
-0.298979
 21
4.073871
 31
5.88
  0
LINE
  5
45F91
100
AcDbEntity
  8
0
100
AcDbLine
 10
-0.238673
 20
3.908112
 30
5.88
 11
-0.243699
 21
3.938251
 31
5.88
  0
LINE
  5
45F92
100
AcDbEntity
  8
0
100
AcDbLine
 10
-0.243699
 20
3.938251
 30
5.88
 11
-0.238673
 21
3.963365
 31
5.88
  0
LINE
  5
45F93
100
AcDbEntity
  8
0
100
AcDbLine
 10
-0.398979
 20
4.139169
 30
5.88
 11
-0.298979
 21
4.139169
 31
5.88
  0
LINE
  5
45F94
100
AcDbEntity
  8
0
100
AcDbLine
 10
-0.243699
 20
4.249676
 30
5.88
 11
-0.238673
 21
4.274793
 31
5.88
  0
LINE
  5
45F95
100
AcDbEntity
  8
0
100
AcDbLine
 10
-0.238673
 20
4.224562
 30
5.88
 11
-0.243699
 21
4.249676
 31
5.88
  0
LINE
  5
45F96
100
AcDbEntity
  8
0
100
AcDbLine
 10
-0.12811
 20
4.058802
 30
5.88
 11
-0.097957
 21
4.058802
 31
5.88
  0
LINE
  5
45F97
100
AcDbEntity
  8
0
100
AcDbLine
 10
-0.203495
 20
4.033688
 30
5.88
 11
-0.178365
 21
4.048757
 31
5.88
  0
LINE
  5
45F98
100
AcDbEntity
  8
0
100
AcDbLine
 10
-0.178365
 20
4.048757
 30
5.88
 11
-0.153238
 21
4.058802
 31
5.88
  0
LINE
  5
45F99
100
AcDbEntity
  8
0
100
AcDbLine
 10
-0.153238
 20
4.058802
 30
5.88
 11
-0.12811
 21
4.058802
 31
5.88
  0
LINE
  5
45F9A
100
AcDbEntity
  8
0
100
AcDbLine
 10
-0.233648
 20
3.98848
 30
5.88
 11
-0.218569
 21
4.013596
 31
5.88
  0
LINE
  5
45F9B
100
AcDbEntity
  8
0
100
AcDbLine
 10
-0.218569
 20
4.013596
 30
5.88
 11
-0.203495
 21
4.033688
 31
5.88
  0
LINE
  5
45F9C
100
AcDbEntity
  8
0
100
AcDbLine
 10
-0.07283
 20
4.048757
 30
5.88
 11
-0.052726
 21
4.033688
 31
5.88
  0
LINE
  5
45F9D
100
AcDbEntity
  8
0
100
AcDbLine
 10
-0.032624
 20
4.013596
 30
5.88
 11
-0.017547
 21
3.98848
 31
5.88
  0
LINE
  5
45F9E
100
AcDbEntity
  8
0
100
AcDbLine
 10
-0.017547
 20
3.98848
 30
5.88
 11
-0.012522
 21
3.963365
 31
5.88
  0
LINE
  5
45F9F
100
AcDbEntity
  8
0
100
AcDbLine
 10
-0.012522
 20
3.963365
 30
5.88
 11
-0.007496
 21
3.938251
 31
5.88
  0
LINE
  5
45FA0
100
AcDbEntity
  8
0
100
AcDbLine
 10
-0.007496
 20
3.938251
 30
5.88
 11
-0.012522
 21
3.913135
 31
5.88
  0
LINE
  5
45FA1
100
AcDbEntity
  8
0
100
AcDbLine
 10
-0.012522
 20
3.913135
 30
5.88
 11
-0.022573
 21
3.888019
 31
5.88
  0
LINE
  5
45FA2
100
AcDbEntity
  8
0
100
AcDbLine
 10
-0.052726
 20
4.033688
 30
5.88
 11
-0.032624
 21
4.013596
 31
5.88
  0
LINE
  5
45FA3
100
AcDbEntity
  8
0
100
AcDbLine
 10
-0.097957
 20
4.058802
 30
5.88
 11
-0.07283
 21
4.048757
 31
5.88
  0
LINE
  5
45FA4
100
AcDbEntity
  8
0
100
AcDbLine
 10
-0.082881
 20
4.149218
 30
5.88
 11
-0.113034
 21
4.139171
 31
5.88
  0
LINE
  5
45FA5
100
AcDbEntity
  8
0
100
AcDbLine
 10
-0.113034
 20
4.139171
 30
5.88
 11
-0.138161
 21
4.139171
 31
5.88
  0
LINE
  5
45FA6
100
AcDbEntity
  8
0
100
AcDbLine
 10
-0.138161
 20
4.139171
 30
5.88
 11
-0.163289
 21
4.149218
 31
5.88
  0
LINE
  5
45FA7
100
AcDbEntity
  8
0
100
AcDbLine
 10
-0.163289
 20
4.149218
 30
5.88
 11
-0.188416
 21
4.159263
 31
5.88
  0
LINE
  5
45FA8
100
AcDbEntity
  8
0
100
AcDbLine
 10
-0.188416
 20
4.159263
 30
5.88
 11
-0.20852
 21
4.174332
 31
5.88
  0
LINE
  5
45FA9
100
AcDbEntity
  8
0
100
AcDbLine
 10
-0.20852
 20
4.174332
 30
5.88
 11
-0.228622
 21
4.199446
 31
5.88
  0
LINE
  5
45FAA
100
AcDbEntity
  8
0
100
AcDbLine
 10
-0.012522
 20
4.279816
 30
5.88
 11
-0.007496
 21
4.249676
 31
5.88
  0
LINE
  5
45FAB
100
AcDbEntity
  8
0
100
AcDbLine
 10
-0.012522
 20
4.224562
 30
5.88
 11
-0.022573
 21
4.199446
 31
5.88
  0
LINE
  5
45FAC
100
AcDbEntity
  8
0
100
AcDbLine
 10
-0.022573
 20
4.199446
 30
5.88
 11
-0.037649
 21
4.179356
 31
5.88
  0
LINE
  5
45FAD
100
AcDbEntity
  8
0
100
AcDbLine
 10
-0.037649
 20
4.179356
 30
5.88
 11
-0.062779
 21
4.159263
 31
5.88
  0
LINE
  5
45FAE
100
AcDbEntity
  8
0
100
AcDbLine
 10
-0.062779
 20
4.159263
 30
5.88
 11
-0.082881
 21
4.149218
 31
5.88
  0
LINE
  5
45FAF
100
AcDbEntity
  8
0
100
AcDbLine
 10
-0.007496
 20
4.249676
 30
5.88
 11
-0.012522
 21
4.224562
 31
5.88
  0
LINE
  5
45FB0
100
AcDbEntity
  8
0
100
AcDbLine
 10
-0.238673
 20
4.591241
 30
5.88
 11
-0.233648
 21
4.616357
 31
5.88
  0
LINE
  5
45FB1
100
AcDbEntity
  8
0
100
AcDbLine
 10
-0.228622
 20
4.510875
 30
5.88
 11
-0.238673
 21
4.535989
 31
5.88
  0
LINE
  5
45FB2
100
AcDbEntity
  8
0
100
AcDbLine
 10
-0.398979
 20
4.455618
 30
5.88
 11
-0.398979
 21
4.701746
 31
5.88
  0
LINE
  5
45FB3
100
AcDbEntity
  8
0
100
AcDbLine
 10
-0.298979
 20
4.455621
 30
5.88
 11
-0.298979
 21
4.701749
 31
5.88
  0
LINE
  5
45FB4
100
AcDbEntity
  8
0
100
AcDbLine
 10
-0.398979
 20
4.455618
 30
5.88
 11
-0.298979
 21
4.455618
 31
5.88
  0
LINE
  5
45FB5
100
AcDbEntity
  8
0
100
AcDbLine
 10
-0.398979
 20
4.385297
 30
5.88
 11
-0.298979
 21
4.385297
 31
5.88
  0
LINE
  5
45FB6
100
AcDbEntity
  8
0
100
AcDbLine
 10
-0.398979
 20
4.701746
 30
5.88
 11
-0.298979
 21
4.701746
 31
5.88
  0
LINE
  5
45FB7
100
AcDbEntity
  8
0
100
AcDbLine
 10
-0.238673
 20
4.535989
 30
5.88
 11
-0.243699
 21
4.561105
 31
5.88
  0
LINE
  5
45FB8
100
AcDbEntity
  8
0
100
AcDbLine
 10
-0.243699
 20
4.561105
 30
5.88
 11
-0.238673
 21
4.591241
 31
5.88
  0
LINE
  5
45FB9
100
AcDbEntity
  8
0
100
AcDbLine
 10
-0.022573
 20
4.510875
 30
5.88
 11
-0.037649
 21
4.490783
 31
5.88
  0
LINE
  5
45FBA
100
AcDbEntity
  8
0
100
AcDbLine
 10
-0.20852
 20
4.490783
 30
5.88
 11
-0.228622
 21
4.510875
 31
5.88
  0
LINE
  5
45FBB
100
AcDbEntity
  8
0
100
AcDbLine
 10
-0.198467
 20
4.661564
 30
5.88
 11
-0.0477
 21
4.485759
 31
5.88
  0
LINE
  5
45FBC
100
AcDbEntity
  8
0
100
AcDbLine
 10
-0.12811
 20
4.375253
 30
5.88
 11
-0.097957
 21
4.37023
 31
5.88
  0
LINE
  5
45FBD
100
AcDbEntity
  8
0
100
AcDbLine
 10
-0.082881
 20
4.460643
 30
5.88
 11
-0.113034
 21
4.455621
 31
5.88
  0
LINE
  5
45FBE
100
AcDbEntity
  8
0
100
AcDbLine
 10
-0.113034
 20
4.455621
 30
5.88
 11
-0.138161
 21
4.455621
 31
5.88
  0
LINE
  5
45FBF
100
AcDbEntity
  8
0
100
AcDbLine
 10
-0.138161
 20
4.455621
 30
5.88
 11
-0.163289
 21
4.460643
 31
5.88
  0
LINE
  5
45FC0
100
AcDbEntity
  8
0
100
AcDbLine
 10
-0.163289
 20
4.460643
 30
5.88
 11
-0.188416
 21
4.47069
 31
5.88
  0
LINE
  5
45FC1
100
AcDbEntity
  8
0
100
AcDbLine
 10
-0.188416
 20
4.47069
 30
5.88
 11
-0.20852
 21
4.490783
 31
5.88
  0
LINE
  5
45FC2
100
AcDbEntity
  8
0
100
AcDbLine
 10
-0.203495
 20
4.345113
 30
5.88
 11
-0.178365
 21
4.360184
 31
5.88
  0
LINE
  5
45FC3
100
AcDbEntity
  8
0
100
AcDbLine
 10
-0.178365
 20
4.360184
 30
5.88
 11
-0.153238
 21
4.37023
 31
5.88
  0
LINE
  5
45FC4
100
AcDbEntity
  8
0
100
AcDbLine
 10
-0.153238
 20
4.37023
 30
5.88
 11
-0.12811
 21
4.375253
 31
5.88
  0
LINE
  5
45FC5
100
AcDbEntity
  8
0
100
AcDbLine
 10
-0.233648
 20
4.30493
 30
5.88
 11
-0.218569
 21
4.325023
 31
5.88
  0
LINE
  5
45FC6
100
AcDbEntity
  8
0
100
AcDbLine
 10
-0.218569
 20
4.325023
 30
5.88
 11
-0.203495
 21
4.345113
 31
5.88
  0
LINE
  5
45FC7
100
AcDbEntity
  8
0
100
AcDbLine
 10
-0.037649
 20
4.490783
 30
5.88
 11
-0.062779
 21
4.475714
 31
5.88
  0
LINE
  5
45FC8
100
AcDbEntity
  8
0
100
AcDbLine
 10
-0.062779
 20
4.475714
 30
5.88
 11
-0.082881
 21
4.460643
 31
5.88
  0
LINE
  5
45FC9
100
AcDbEntity
  8
0
100
AcDbLine
 10
-0.07283
 20
4.360184
 30
5.88
 11
-0.052726
 21
4.345113
 31
5.88
  0
LINE
  5
45FCA
100
AcDbEntity
  8
0
100
AcDbLine
 10
-0.052726
 20
4.345113
 30
5.88
 11
-0.032624
 21
4.330045
 31
5.88
  0
LINE
  5
45FCB
100
AcDbEntity
  8
0
100
AcDbLine
 10
-0.032624
 20
4.330045
 30
5.88
 11
-0.017547
 21
4.30493
 31
5.88
  0
LINE
  5
45FCC
100
AcDbEntity
  8
0
100
AcDbLine
 10
-0.097957
 20
4.37023
 30
5.88
 11
-0.07283
 21
4.360184
 31
5.88
  0
LINE
  5
45FCD
100
AcDbEntity
  8
0
100
AcDbLine
 10
-0.12811
 20
4.68668
 30
5.88
 11
-0.097957
 21
4.68668
 31
5.88
  0
LINE
  5
45FCE
100
AcDbEntity
  8
0
100
AcDbLine
 10
-0.203495
 20
4.661564
 30
5.88
 11
-0.178365
 21
4.676635
 31
5.88
  0
LINE
  5
45FCF
100
AcDbEntity
  8
0
100
AcDbLine
 10
-0.178365
 20
4.676635
 30
5.88
 11
-0.153238
 21
4.68668
 31
5.88
  0
LINE
  5
45FD0
100
AcDbEntity
  8
0
100
AcDbLine
 10
-0.153238
 20
4.68668
 30
5.88
 11
-0.12811
 21
4.68668
 31
5.88
  0
LINE
  5
45FD1
100
AcDbEntity
  8
0
100
AcDbLine
 10
-0.218569
 20
4.641474
 30
5.88
 11
-0.203495
 21
4.661564
 31
5.88
  0
LINE
  5
45FD2
100
AcDbEntity
  8
0
100
AcDbLine
 10
-0.233648
 20
4.616357
 30
5.88
 11
-0.218569
 21
4.641474
 31
5.88
  0
LINE
  5
45FD3
100
AcDbEntity
  8
0
100
AcDbLine
 10
-0.07283
 20
4.676635
 30
5.88
 11
-0.052726
 21
4.661564
 31
5.88
  0
LINE
  5
45FD4
100
AcDbEntity
  8
0
100
AcDbLine
 10
-0.052726
 20
4.661564
 30
5.88
 11
-0.032624
 21
4.641474
 31
5.88
  0
LINE
  5
45FD5
100
AcDbEntity
  8
0
100
AcDbLine
 10
-0.017547
 20
4.616357
 30
5.88
 11
-0.012522
 21
4.591241
 31
5.88
  0
LINE
  5
45FD6
100
AcDbEntity
  8
0
100
AcDbLine
 10
-0.012522
 20
4.591241
 30
5.88
 11
-0.007496
 21
4.566127
 31
5.88
  0
LINE
  5
45FD7
100
AcDbEntity
  8
0
100
AcDbLine
 10
-0.007496
 20
4.566127
 30
5.88
 11
-0.012522
 21
4.535989
 31
5.88
  0
LINE
  5
45FD8
100
AcDbEntity
  8
0
100
AcDbLine
 10
-0.012522
 20
4.535989
 30
5.88
 11
-0.022573
 21
4.510875
 31
5.88
  0
LINE
  5
45FD9
100
AcDbEntity
  8
0
100
AcDbLine
 10
-0.032624
 20
4.641474
 30
5.88
 11
-0.017547
 21
4.616357
 31
5.88
  0
LINE
  5
45FDA
100
AcDbEntity
  8
0
100
AcDbLine
 10
-0.097957
 20
4.68668
 30
5.88
 11
-0.07283
 21
4.676635
 31
5.88
  0
LINE
  5
45FDB
100
AcDbEntity
  8
0
100
AcDbLine
 10
0.072657
 20
4.385297
 30
5.88
 11
0.072657
 21
4.139169
 31
5.88
  0
LINE
  5
45FDC
100
AcDbEntity
  8
0
100
AcDbLine
 10
0.022657
 20
4.385298
 30
5.88
 11
0.022657
 21
4.139171
 31
5.88
  0
LINE
  5
45FDD
100
AcDbEntity
  8
0
100
AcDbLine
 10
0.022657
 20
4.073871
 30
5.88
 11
0.072657
 21
4.073871
 31
5.88
  0
LINE
  5
45FDE
100
AcDbEntity
  8
0
100
AcDbLine
 10
0.022657
 20
4.139169
 30
5.88
 11
0.072657
 21
4.139169
 31
5.88
  0
LINE
  5
45FDF
100
AcDbEntity
  8
0
100
AcDbLine
 10
0.072657
 20
4.701746
 30
5.88
 11
0.072657
 21
4.455618
 31
5.88
  0
LINE
  5
45FE0
100
AcDbEntity
  8
0
100
AcDbLine
 10
0.022657
 20
4.701749
 30
5.88
 11
0.022657
 21
4.455621
 31
5.88
  0
LINE
  5
45FE1
100
AcDbEntity
  8
0
100
AcDbLine
 10
0.022657
 20
4.455618
 30
5.88
 11
0.072657
 21
4.455618
 31
5.88
  0
LINE
  5
45FE2
100
AcDbEntity
  8
0
100
AcDbLine
 10
0.022657
 20
4.385297
 30
5.88
 11
0.072657
 21
4.385297
 31
5.88
  0
LINE
  5
45FE3
100
AcDbEntity
  8
0
100
AcDbLine
 10
0.022657
 20
4.701746
 30
5.88
 11
0.072657
 21
4.701746
 31
5.88
  0
POLYLINE
  5
45FE4
100
AcDbEntity
  8
0
100
AcDbPolygonMesh
 66
     1
 10
0.0
 20
0.0
 30
0.0
 70
    16
 71
     6
 72
     3
  0
VERTEX
  5
45FE5
100
AcDbEntity
  8
0
100
AcDbVertex
100
AcDbPolygonMeshVertex
 10
0.068
 20
9.8
 30
4.755
 70
    64
  0
VERTEX
  5
45FE6
100
AcDbEntity
  8
0
100
AcDbVertex
100
AcDbPolygonMeshVertex
 10
0.068
 20
9.8
 30
0.0
 70
    64
  0
VERTEX
  5
45FE7
100
AcDbEntity
  8
0
100
AcDbVertex
100
AcDbPolygonMeshVertex
 10
0.068
 20
9.8
 30
0.0
 70
    64
  0
VERTEX
  5
45FE8
100
AcDbEntity
  8
0
100
AcDbVertex
100
AcDbPolygonMeshVertex
 10
0.0
 20
9.8
 30
4.755
 70
    64
  0
VERTEX
  5
45FE9
100
AcDbEntity
  8
0
100
AcDbVertex
100
AcDbPolygonMeshVertex
 10
0.0
 20
9.8
 30
0.0
 70
    64
  0
VERTEX
  5
45FEA
100
AcDbEntity
  8
0
100
AcDbVertex
100
AcDbPolygonMeshVertex
 10
0.0
 20
9.8
 30
0.0
 70
    64
  0
VERTEX
  5
45FEB
100
AcDbEntity
  8
0
100
AcDbVertex
100
AcDbPolygonMeshVertex
 10
0.0
 20
10.0
 30
4.755
 70
    64
  0
VERTEX
  5
45FEC
100
AcDbEntity
  8
0
100
AcDbVertex
100
AcDbPolygonMeshVertex
 10
0.0
 20
10.0
 30
0.0
 70
    64
  0
VERTEX
  5
45FED
100
AcDbEntity
  8
0
100
AcDbVertex
100
AcDbPolygonMeshVertex
 10
0.0
 20
9.8
 30
0.0
 70
    64
  0
VERTEX
  5
45FEE
100
AcDbEntity
  8
0
100
AcDbVertex
100
AcDbPolygonMeshVertex
 10
0.068
 20
10.0
 30
4.755
 70
    64
  0
VERTEX
  5
45FEF
100
AcDbEntity
  8
0
100
AcDbVertex
100
AcDbPolygonMeshVertex
 10
0.068
 20
10.0
 30
0.0
 70
    64
  0
VERTEX
  5
45FF0
100
AcDbEntity
  8
0
100
AcDbVertex
100
AcDbPolygonMeshVertex
 10
0.068
 20
9.8
 30
0.0
 70
    64
  0
VERTEX
  5
45FF1
100
AcDbEntity
  8
0
100
AcDbVertex
100
AcDbPolygonMeshVertex
 10
0.068
 20
10.0
 30
4.755
 70
    64
  0
VERTEX
  5
45FF2
100
AcDbEntity
  8
0
100
AcDbVertex
100
AcDbPolygonMeshVertex
 10
0.068
 20
10.0
 30
4.755
 70
    64
  0
VERTEX
  5
45FF3
100
AcDbEntity
  8
0
100
AcDbVertex
100
AcDbPolygonMeshVertex
 10
0.068
 20
9.8
 30
4.755
 70
    64
  0
VERTEX
  5
45FF4
100
AcDbEntity
  8
0
100
AcDbVertex
100
AcDbPolygonMeshVertex
 10
0.0
 20
10.0
 30
4.755
 70
    64
  0
VERTEX
  5
45FF5
100
AcDbEntity
  8
0
100
AcDbVertex
100
AcDbPolygonMeshVertex
 10
0.0
 20
10.0
 30
4.755
 70
    64
  0
VERTEX
  5
45FF6
100
AcDbEntity
  8
0
100
AcDbVertex
100
AcDbPolygonMeshVertex
 10
0.0
 20
9.8
 30
4.755
 70
    64
  0
SEQEND
  5
45FF7
100
AcDbEntity
  8
0
  0
LINE
  5
45FF8
100
AcDbEntity
  8
0
100
AcDbLine
 10
-0.158345
 20
8.190493
 30
5.88
 11
-0.158345
 21
7.898558
 31
5.88
  0
LINE
  5
45FF9
100
AcDbEntity
  8
0
100
AcDbLine
 10
-0.374443
 20
8.190493
 30
5.88
 11
-0.374443
 21
7.898558
 31
5.88
  0
LINE
  5
45FFA
100
AcDbEntity
  8
0
100
AcDbLine
 10
-0.422591
 20
8.628084
 30
5.88
 11
-0.422591
 21
7.643572
 31
5.88
  0
LINE
  5
45FFB
100
AcDbEntity
  8
0
100
AcDbLine
 10
-0.851402
 20
7.64106
 30
5.88
 11
-0.851402
 21
8.625571
 31
5.88
  0
LINE
  5
45FFC
100
AcDbEntity
  8
0
100
AcDbLine
 10
-0.022565
 20
8.625571
 30
5.88
 11
-0.022565
 21
7.64106
 31
5.88
  0
LINE
  5
45FFD
100
AcDbEntity
  8
0
100
AcDbLine
 10
-0.022565
 20
8.625608
 30
5.88
 11
-0.022565
 21
7.646048
 31
5.88
  0
TEXT
  5
45FFE
100
AcDbEntity
  8
0
100
AcDbText
 39
0.001
 10
-0.697436
 20
7.95226
 30
5.879973
 40
0.05
  1
FAULT
 72
     1
 11
-0.58077
 21
7.95226
 31
5.879973
100
AcDbText
  0
LINE
  5
45FFF
100
AcDbEntity
  8
0
100
AcDbLine
 10
-0.806555
 20
7.143784
 30
5.88
 11
0.27004
 21
7.143784
 31
5.88
  0
LINE
  5
46000
100
AcDbEntity
  8
0
100
AcDbLine
 10
0.27004
 20
7.214105
 30
5.88
 11
-0.89199
 21
7.214105
 31
5.88
  0
LINE
  5
46001
100
AcDbEntity
  8
0
100
AcDbLine
 10
-0.886963
 20
7.530556
 30
5.88
 11
0.270035
 21
7.530556
 31
5.88
  0
LINE
  5
46002
100
AcDbEntity
  8
0
100
AcDbLine
 10
-0.022565
 20
7.64106
 30
5.88
 11
-0.851402
 21
7.64106
 31
5.88
  0
LINE
  5
46003
100
AcDbEntity
  8
0
100
AcDbLine
 10
-0.806555
 20
7.530556
 30
5.88
 11
-0.806555
 21
7.214105
 31
5.88
  0
LINE
  5
46004
100
AcDbEntity
  8
0
100
AcDbLine
 10
0.072657
 20
6.580359
 30
5.88
 11
0.072657
 21
6.334231
 31
5.88
  0
LINE
  5
46005
100
AcDbEntity
  8
0
100
AcDbLine
 10
-0.398979
 20
6.334231
 30
5.88
 11
-0.398979
 21
6.580359
 31
5.88
  0
LINE
  5
46006
100
AcDbEntity
  8
0
100
AcDbLine
 10
-0.022573
 20
6.394507
 30
5.88
 11
-0.037649
 21
6.369392
 31
5.88
  0
LINE
  5
46007
100
AcDbEntity
  8
0
100
AcDbLine
 10
0.022657
 20
6.580359
 30
5.88
 11
0.022657
 21
6.334231
 31
5.88
  0
LINE
  5
46008
100
AcDbEntity
  8
0
100
AcDbLine
 10
-0.20852
 20
6.369392
 30
5.88
 11
-0.228622
 21
6.394507
 31
5.88
  0
LINE
  5
46009
100
AcDbEntity
  8
0
100
AcDbLine
 10
-0.298979
 20
6.334231
 30
5.88
 11
-0.298979
 21
6.580359
 31
5.88
  0
LINE
  5
4600A
100
AcDbEntity
  8
0
100
AcDbLine
 10
-0.198467
 20
6.540174
 30
5.88
 11
-0.0477
 21
6.364369
 31
5.88
  0
LINE
  5
4600B
100
AcDbEntity
  8
0
100
AcDbLine
 10
-0.398979
 20
5.394926
 30
5.88
 11
-0.398979
 21
5.641054
 31
5.88
  0
LINE
  5
4600C
100
AcDbEntity
  8
0
100
AcDbLine
 10
0.072657
 20
5.641054
 30
5.88
 11
0.072657
 21
5.394926
 31
5.88
  0
LINE
  5
4600D
100
AcDbEntity
  8
0
100
AcDbLine
 10
-0.017547
 20
5.555662
 30
5.88
 11
-0.012522
 21
5.530546
 31
5.88
  0
LINE
  5
4600E
100
AcDbEntity
  8
0
100
AcDbLine
 10
0.022657
 20
5.641054
 30
5.88
 11
0.022657
 21
5.394926
 31
5.88
  0
LINE
  5
4600F
100
AcDbEntity
  8
0
100
AcDbLine
 10
-0.238673
 20
5.530546
 30
5.88
 11
-0.233648
 21
5.555662
 31
5.88
  0
LINE
  5
46010
100
AcDbEntity
  8
0
100
AcDbLine
 10
-0.298979
 20
5.394926
 30
5.88
 11
-0.298979
 21
5.641054
 31
5.88
  0
LINE
  5
46011
100
AcDbEntity
  8
0
100
AcDbLine
 10
-0.198467
 20
5.600869
 30
5.88
 11
-0.0477
 21
5.425064
 31
5.88
  0
LINE
  5
46012
100
AcDbEntity
  8
0
100
AcDbLine
 10
0.022657
 20
5.394926
 30
5.88
 11
-0.298979
 21
5.394926
 31
5.88
  0
LINE
  5
46013
100
AcDbEntity
  8
0
100
AcDbLine
 10
-0.298979
 20
5.329627
 30
5.88
 11
0.022657
 21
5.329627
 31
5.88
  0
LINE
  5
46014
100
AcDbEntity
  8
0
100
AcDbLine
 10
0.022657
 20
5.083497
 30
5.88
 11
-0.298979
 21
5.083497
 31
5.88
  0
LINE
  5
46015
100
AcDbEntity
  8
0
100
AcDbLine
 10
-0.298979
 20
5.013176
 30
5.88
 11
0.022657
 21
5.013176
 31
5.88
  0
LINE
  5
46016
100
AcDbEntity
  8
0
100
AcDbLine
 10
0.022657
 20
4.767048
 30
5.88
 11
-0.298979
 21
4.767048
 31
5.88
  0
LINE
  5
46017
100
AcDbEntity
  8
0
100
AcDbLine
 10
-0.398979
 20
5.083499
 30
5.88
 11
-0.398979
 21
5.329627
 31
5.88
  0
LINE
  5
46018
100
AcDbEntity
  8
0
100
AcDbLine
 10
-0.022573
 20
5.138751
 30
5.88
 11
-0.037649
 21
5.118659
 31
5.88
  0
LINE
  5
46019
100
AcDbEntity
  8
0
100
AcDbLine
 10
-0.20852
 20
5.118659
 30
5.88
 11
-0.228622
 21
5.138751
 31
5.88
  0
LINE
  5
4601A
100
AcDbEntity
  8
0
100
AcDbLine
 10
-0.298979
 20
5.083497
 30
5.88
 11
-0.298979
 21
5.329627
 31
5.88
  0
LINE
  5
4601B
100
AcDbEntity
  8
0
100
AcDbLine
 10
-0.198467
 20
5.289442
 30
5.88
 11
-0.0477
 21
5.113637
 31
5.88
  0
LINE
  5
4601C
100
AcDbEntity
  8
0
100
AcDbLine
 10
-0.238673
 20
4.90267
 30
5.88
 11
-0.233648
 21
4.927785
 31
5.88
  0
LINE
  5
4601D
100
AcDbEntity
  8
0
100
AcDbLine
 10
-0.228622
 20
4.827326
 30
5.88
 11
-0.238673
 21
4.85244
 31
5.88
  0
LINE
  5
4601E
100
AcDbEntity
  8
0
100
AcDbLine
 10
-0.398979
 20
4.767048
 30
5.88
 11
-0.398979
 21
5.013176
 31
5.88
  0
LINE
  5
4601F
100
AcDbEntity
  8
0
100
AcDbLine
 10
-0.298979
 20
4.767048
 30
5.88
 11
-0.298979
 21
5.013176
 31
5.88
  0
LINE
  5
46020
100
AcDbEntity
  8
0
100
AcDbLine
 10
-0.398979
 20
4.767048
 30
5.88
 11
-0.298979
 21
4.767048
 31
5.88
  0
LINE
  5
46021
100
AcDbEntity
  8
0
100
AcDbLine
 10
-0.238673
 20
4.85244
 30
5.88
 11
-0.243699
 21
4.877554
 31
5.88
  0
LINE
  5
46022
100
AcDbEntity
  8
0
100
AcDbLine
 10
-0.243699
 20
4.877554
 30
5.88
 11
-0.238673
 21
4.90267
 31
5.88
  0
LINE
  5
46023
100
AcDbEntity
  8
0
100
AcDbLine
 10
-0.398979
 20
5.083499
 30
5.88
 11
-0.298979
 21
5.083499
 31
5.88
  0
LINE
  5
46024
100
AcDbEntity
  8
0
100
AcDbLine
 10
-0.398979
 20
5.013176
 30
5.88
 11
-0.298979
 21
5.013176
 31
5.88
  0
LINE
  5
46025
100
AcDbEntity
  8
0
100
AcDbLine
 10
-0.017547
 20
4.932808
 30
5.88
 11
-0.012522
 21
4.907692
 31
5.88
  0
LINE
  5
46026
100
AcDbEntity
  8
0
100
AcDbLine
 10
-0.198467
 20
4.972991
 30
5.88
 11
-0.0477
 21
4.797186
 31
5.88
  0
LINE
  5
46027
100
AcDbEntity
  8
0
100
AcDbLine
 10
-0.082881
 20
4.777094
 30
5.88
 11
-0.113034
 21
4.767048
 31
5.88
  0
LINE
  5
46028
100
AcDbEntity
  8
0
100
AcDbLine
 10
-0.113034
 20
4.767048
 30
5.88
 11
-0.138161
 21
4.767048
 31
5.88
  0
LINE
  5
46029
100
AcDbEntity
  8
0
100
AcDbLine
 10
-0.138161
 20
4.767048
 30
5.88
 11
-0.163289
 21
4.772072
 31
5.88
  0
LINE
  5
4602A
100
AcDbEntity
  8
0
100
AcDbLine
 10
-0.163289
 20
4.772072
 30
5.88
 11
-0.188416
 21
4.787141
 31
5.88
  0
LINE
  5
4602B
100
AcDbEntity
  8
0
100
AcDbLine
 10
-0.188416
 20
4.787141
 30
5.88
 11
-0.20852
 21
4.80221
 31
5.88
  0
LINE
  5
4602C
100
AcDbEntity
  8
0
100
AcDbLine
 10
-0.20852
 20
4.80221
 30
5.88
 11
-0.228622
 21
4.827326
 31
5.88
  0
LINE
  5
4602D
100
AcDbEntity
  8
0
100
AcDbLine
 10
-0.012522
 20
4.907692
 30
5.88
 11
-0.007496
 21
4.877554
 31
5.88
  0
LINE
  5
4602E
100
AcDbEntity
  8
0
100
AcDbLine
 10
-0.007496
 20
4.877554
 30
5.88
 11
-0.012522
 21
4.85244
 31
5.88
  0
LINE
  5
4602F
100
AcDbEntity
  8
0
100
AcDbLine
 10
-0.012522
 20
4.85244
 30
5.88
 11
-0.022573
 21
4.827326
 31
5.88
  0
LINE
  5
46030
100
AcDbEntity
  8
0
100
AcDbLine
 10
-0.037649
 20
4.80221
 30
5.88
 11
-0.062779
 21
4.787141
 31
5.88
  0
LINE
  5
46031
100
AcDbEntity
  8
0
100
AcDbLine
 10
-0.062779
 20
4.787141
 30
5.88
 11
-0.082881
 21
4.777094
 31
5.88
  0
LINE
  5
46032
100
AcDbEntity
  8
0
100
AcDbLine
 10
-0.022573
 20
4.827326
 30
5.88
 11
-0.037649
 21
4.80221
 31
5.88
  0
LINE
  5
46033
100
AcDbEntity
  8
0
100
AcDbLine
 10
-0.082881
 20
5.088521
 30
5.88
 11
-0.113034
 21
5.083497
 31
5.88
  0
LINE
  5
46034
100
AcDbEntity
  8
0
100
AcDbLine
 10
-0.12811
 20
5.003131
 30
5.88
 11
-0.097957
 21
4.998107
 31
5.88
  0
LINE
  5
46035
100
AcDbEntity
  8
0
100
AcDbLine
 10
-0.113034
 20
5.083497
 30
5.88
 11
-0.138161
 21
5.083497
 31
5.88
  0
LINE
  5
46036
100
AcDbEntity
  8
0
100
AcDbLine
 10
-0.138161
 20
5.083497
 30
5.88
 11
-0.163289
 21
5.088521
 31
5.88
  0
LINE
  5
46037
100
AcDbEntity
  8
0
100
AcDbLine
 10
-0.163289
 20
5.088521
 30
5.88
 11
-0.188416
 21
5.098568
 31
5.88
  0
LINE
  5
46038
100
AcDbEntity
  8
0
100
AcDbLine
 10
-0.188416
 20
5.098568
 30
5.88
 11
-0.20852
 21
5.118659
 31
5.88
  0
LINE
  5
46039
100
AcDbEntity
  8
0
100
AcDbLine
 10
-0.203495
 20
4.972991
 30
5.88
 11
-0.178365
 21
4.98806
 31
5.88
  0
LINE
  5
4603A
100
AcDbEntity
  8
0
100
AcDbLine
 10
-0.178365
 20
4.98806
 30
5.88
 11
-0.153238
 21
4.998107
 31
5.88
  0
LINE
  5
4603B
100
AcDbEntity
  8
0
100
AcDbLine
 10
-0.153238
 20
4.998107
 30
5.88
 11
-0.12811
 21
5.003131
 31
5.88
  0
LINE
  5
4603C
100
AcDbEntity
  8
0
100
AcDbLine
 10
-0.233648
 20
4.927785
 30
5.88
 11
-0.218569
 21
4.952899
 31
5.88
  0
LINE
  5
4603D
100
AcDbEntity
  8
0
100
AcDbLine
 10
-0.218569
 20
4.952899
 30
5.88
 11
-0.203495
 21
4.972991
 31
5.88
  0
LINE
  5
4603E
100
AcDbEntity
  8
0
100
AcDbLine
 10
-0.037649
 20
5.118659
 30
5.88
 11
-0.062779
 21
5.098568
 31
5.88
  0
LINE
  5
4603F
100
AcDbEntity
  8
0
100
AcDbLine
 10
-0.062779
 20
5.098568
 30
5.88
 11
-0.082881
 21
5.088521
 31
5.88
  0
LINE
  5
46040
100
AcDbEntity
  8
0
100
AcDbLine
 10
-0.07283
 20
4.98806
 30
5.88
 11
-0.052726
 21
4.972991
 31
5.88
  0
LINE
  5
46041
100
AcDbEntity
  8
0
100
AcDbLine
 10
-0.052726
 20
4.972991
 30
5.88
 11
-0.032624
 21
4.952899
 31
5.88
  0
LINE
  5
46042
100
AcDbEntity
  8
0
100
AcDbLine
 10
-0.032624
 20
4.952899
 30
5.88
 11
-0.017547
 21
4.932808
 31
5.88
  0
LINE
  5
46043
100
AcDbEntity
  8
0
100
AcDbLine
 10
-0.097957
 20
4.998107
 30
5.88
 11
-0.07283
 21
4.98806
 31
5.88
  0
LINE
  5
46044
100
AcDbEntity
  8
0
100
AcDbLine
 10
-0.228622
 20
5.45018
 30
5.88
 11
-0.238673
 21
5.475292
 31
5.88
  0
LINE
  5
46045
100
AcDbEntity
  8
0
100
AcDbLine
 10
-0.228622
 20
5.138751
 30
5.88
 11
-0.238673
 21
5.163867
 31
5.88
  0
LINE
  5
46046
100
AcDbEntity
  8
0
100
AcDbLine
 10
-0.238673
 20
5.219119
 30
5.88
 11
-0.233648
 21
5.244235
 31
5.88
  0
LINE
  5
46047
100
AcDbEntity
  8
0
100
AcDbLine
 10
-0.238673
 20
5.163867
 30
5.88
 11
-0.243699
 21
5.188981
 31
5.88
  0
LINE
  5
46048
100
AcDbEntity
  8
0
100
AcDbLine
 10
-0.243699
 20
5.188981
 30
5.88
 11
-0.238673
 21
5.219119
 31
5.88
  0
LINE
  5
46049
100
AcDbEntity
  8
0
100
AcDbLine
 10
-0.398979
 20
5.329627
 30
5.88
 11
-0.298979
 21
5.329627
 31
5.88
  0
LINE
  5
4604A
100
AcDbEntity
  8
0
100
AcDbLine
 10
-0.398979
 20
5.394926
 30
5.88
 11
-0.298979
 21
5.394926
 31
5.88
  0
LINE
  5
4604B
100
AcDbEntity
  8
0
100
AcDbLine
 10
-0.238673
 20
5.475292
 30
5.88
 11
-0.243699
 21
5.505432
 31
5.88
  0
LINE
  5
4604C
100
AcDbEntity
  8
0
100
AcDbLine
 10
-0.243699
 20
5.505432
 30
5.88
 11
-0.238673
 21
5.530546
 31
5.88
  0
LINE
  5
4604D
100
AcDbEntity
  8
0
100
AcDbLine
 10
-0.12811
 20
5.314558
 30
5.88
 11
-0.097957
 21
5.309534
 31
5.88
  0
LINE
  5
4604E
100
AcDbEntity
  8
0
100
AcDbLine
 10
-0.203495
 20
5.284418
 30
5.88
 11
-0.178365
 21
5.299487
 31
5.88
  0
LINE
  5
4604F
100
AcDbEntity
  8
0
100
AcDbLine
 10
-0.178365
 20
5.299487
 30
5.88
 11
-0.153238
 21
5.309534
 31
5.88
  0
LINE
  5
46050
100
AcDbEntity
  8
0
100
AcDbLine
 10
-0.153238
 20
5.309534
 30
5.88
 11
-0.12811
 21
5.314558
 31
5.88
  0
LINE
  5
46051
100
AcDbEntity
  8
0
100
AcDbLine
 10
-0.233648
 20
5.244235
 30
5.88
 11
-0.218569
 21
5.269349
 31
5.88
  0
LINE
  5
46052
100
AcDbEntity
  8
0
100
AcDbLine
 10
-0.218569
 20
5.269349
 30
5.88
 11
-0.203495
 21
5.284418
 31
5.88
  0
LINE
  5
46053
100
AcDbEntity
  8
0
100
AcDbLine
 10
-0.07283
 20
5.304511
 30
5.88
 11
-0.052726
 21
5.289442
 31
5.88
  0
LINE
  5
46054
100
AcDbEntity
  8
0
100
AcDbLine
 10
-0.052726
 20
5.289442
 30
5.88
 11
-0.032624
 21
5.269349
 31
5.88
  0
LINE
  5
46055
100
AcDbEntity
  8
0
100
AcDbLine
 10
-0.032624
 20
5.269349
 30
5.88
 11
-0.017547
 21
5.244235
 31
5.88
  0
LINE
  5
46056
100
AcDbEntity
  8
0
100
AcDbLine
 10
-0.012522
 20
5.219119
 30
5.88
 11
-0.007496
 21
5.194005
 31
5.88
  0
LINE
  5
46057
100
AcDbEntity
  8
0
100
AcDbLine
 10
-0.007496
 20
5.194005
 30
5.88
 11
-0.012522
 21
5.163867
 31
5.88
  0
LINE
  5
46058
100
AcDbEntity
  8
0
100
AcDbLine
 10
-0.012522
 20
5.163867
 30
5.88
 11
-0.022573
 21
5.138751
 31
5.88
  0
LINE
  5
46059
100
AcDbEntity
  8
0
100
AcDbLine
 10
-0.017547
 20
5.244235
 30
5.88
 11
-0.012522
 21
5.219119
 31
5.88
  0
LINE
  5
4605A
100
AcDbEntity
  8
0
100
AcDbLine
 10
-0.097957
 20
5.309534
 30
5.88
 11
-0.07283
 21
5.304511
 31
5.88
  0
LINE
  5
4605B
100
AcDbEntity
  8
0
100
AcDbLine
 10
-0.082881
 20
5.39995
 30
5.88
 11
-0.113034
 21
5.394926
 31
5.88
  0
LINE
  5
4605C
100
AcDbEntity
  8
0
100
AcDbLine
 10
-0.20852
 20
5.430088
 30
5.88
 11
-0.228622
 21
5.45018
 31
5.88
  0
LINE
  5
4605D
100
AcDbEntity
  8
0
100
AcDbLine
 10
-0.113034
 20
5.394926
 30
5.88
 11
-0.138161
 21
5.394926
 31
5.88
  0
LINE
  5
4605E
100
AcDbEntity
  8
0
100
AcDbLine
 10
-0.138161
 20
5.394926
 30
5.88
 11
-0.163289
 21
5.39995
 31
5.88
  0
LINE
  5
4605F
100
AcDbEntity
  8
0
100
AcDbLine
 10
-0.163289
 20
5.39995
 30
5.88
 11
-0.188416
 21
5.415019
 31
5.88
  0
LINE
  5
46060
100
AcDbEntity
  8
0
100
AcDbLine
 10
-0.188416
 20
5.415019
 30
5.88
 11
-0.20852
 21
5.430088
 31
5.88
  0
LINE
  5
46061
100
AcDbEntity
  8
0
100
AcDbLine
 10
-0.012522
 20
5.530546
 30
5.88
 11
-0.007496
 21
5.505432
 31
5.88
  0
LINE
  5
46062
100
AcDbEntity
  8
0
100
AcDbLine
 10
-0.007496
 20
5.505432
 30
5.88
 11
-0.012522
 21
5.480316
 31
5.88
  0
LINE
  5
46063
100
AcDbEntity
  8
0
100
AcDbLine
 10
-0.012522
 20
5.480316
 30
5.88
 11
-0.022573
 21
5.455204
 31
5.88
  0
LINE
  5
46064
100
AcDbEntity
  8
0
100
AcDbLine
 10
-0.022573
 20
5.455204
 30
5.88
 11
-0.037649
 21
5.430088
 31
5.88
  0
LINE
  5
46065
100
AcDbEntity
  8
0
100
AcDbLine
 10
-0.062779
 20
5.415019
 30
5.88
 11
-0.082881
 21
5.39995
 31
5.88
  0
LINE
  5
46066
100
AcDbEntity
  8
0
100
AcDbLine
 10
-0.037649
 20
5.430088
 30
5.88
 11
-0.062779
 21
5.415019
 31
5.88
  0
LINE
  5
46067
100
AcDbEntity
  8
0
100
AcDbLine
 10
0.072657
 20
5.329627
 30
5.88
 11
0.072657
 21
5.083499
 31
5.88
  0
LINE
  5
46068
100
AcDbEntity
  8
0
100
AcDbLine
 10
0.022657
 20
5.329627
 30
5.88
 11
0.022657
 21
5.083497
 31
5.88
  0
LINE
  5
46069
100
AcDbEntity
  8
0
100
AcDbLine
 10
0.072657
 20
5.013176
 30
5.88
 11
0.072657
 21
4.767048
 31
5.88
  0
LINE
  5
4606A
100
AcDbEntity
  8
0
100
AcDbLine
 10
0.022657
 20
5.013176
 30
5.88
 11
0.022657
 21
4.767048
 31
5.88
  0
LINE
  5
4606B
100
AcDbEntity
  8
0
100
AcDbLine
 10
0.022657
 20
4.767048
 30
5.88
 11
0.072657
 21
4.767048
 31
5.88
  0
LINE
  5
4606C
100
AcDbEntity
  8
0
100
AcDbLine
 10
0.022657
 20
5.083499
 30
5.88
 11
0.072657
 21
5.083499
 31
5.88
  0
LINE
  5
4606D
100
AcDbEntity
  8
0
100
AcDbLine
 10
0.022657
 20
5.013176
 30
5.88
 11
0.072657
 21
5.013176
 31
5.88
  0
LINE
  5
4606E
100
AcDbEntity
  8
0
100
AcDbLine
 10
0.022657
 20
5.329627
 30
5.88
 11
0.072657
 21
5.329627
 31
5.88
  0
LINE
  5
4606F
100
AcDbEntity
  8
0
100
AcDbLine
 10
0.022657
 20
5.394926
 30
5.88
 11
0.072657
 21
5.394926
 31
5.88
  0
LINE
  5
46070
100
AcDbEntity
  8
0
100
AcDbLine
 10
0.022657
 20
6.334231
 30
5.88
 11
-0.298979
 21
6.334231
 31
5.88
  0
LINE
  5
46071
100
AcDbEntity
  8
0
100
AcDbLine
 10
-0.298979
 20
6.26893
 30
5.88
 11
0.022657
 21
6.26893
 31
5.88
  0
LINE
  5
46072
100
AcDbEntity
  8
0
100
AcDbLine
 10
0.022657
 20
6.022802
 30
5.88
 11
-0.298979
 21
6.022802
 31
5.88
  0
LINE
  5
46073
100
AcDbEntity
  8
0
100
AcDbLine
 10
-0.298979
 20
5.952479
 30
5.88
 11
0.022657
 21
5.952479
 31
5.88
  0
LINE
  5
46074
100
AcDbEntity
  8
0
100
AcDbLine
 10
0.022657
 20
5.706351
 30
5.88
 11
-0.298979
 21
5.706351
 31
5.88
  0
LINE
  5
46075
100
AcDbEntity
  8
0
100
AcDbLine
 10
-0.298979
 20
5.641054
 30
5.88
 11
0.022657
 21
5.641054
 31
5.88
  0
LINE
  5
46076
100
AcDbEntity
  8
0
100
AcDbLine
 10
-0.238673
 20
5.841975
 30
5.88
 11
-0.233648
 21
5.872113
 31
5.88
  0
LINE
  5
46077
100
AcDbEntity
  8
0
100
AcDbLine
 10
-0.228622
 20
5.766629
 30
5.88
 11
-0.238673
 21
5.791743
 31
5.88
  0
LINE
  5
46078
100
AcDbEntity
  8
0
100
AcDbLine
 10
-0.398979
 20
5.706351
 30
5.88
 11
-0.398979
 21
5.952479
 31
5.88
  0
LINE
  5
46079
100
AcDbEntity
  8
0
100
AcDbLine
 10
-0.298979
 20
5.706351
 30
5.88
 11
-0.298979
 21
5.952479
 31
5.88
  0
LINE
  5
4607A
100
AcDbEntity
  8
0
100
AcDbLine
 10
-0.398979
 20
5.641054
 30
5.88
 11
-0.298979
 21
5.641054
 31
5.88
  0
LINE
  5
4607B
100
AcDbEntity
  8
0
100
AcDbLine
 10
-0.398979
 20
5.706351
 30
5.88
 11
-0.298979
 21
5.706351
 31
5.88
  0
LINE
  5
4607C
100
AcDbEntity
  8
0
100
AcDbLine
 10
-0.398979
 20
5.952479
 30
5.88
 11
-0.298979
 21
5.952479
 31
5.88
  0
LINE
  5
4607D
100
AcDbEntity
  8
0
100
AcDbLine
 10
-0.238673
 20
5.791743
 30
5.88
 11
-0.243699
 21
5.816859
 31
5.88
  0
LINE
  5
4607E
100
AcDbEntity
  8
0
100
AcDbLine
 10
-0.243699
 20
5.816859
 30
5.88
 11
-0.238673
 21
5.841975
 31
5.88
  0
LINE
  5
4607F
100
AcDbEntity
  8
0
100
AcDbLine
 10
-0.022573
 20
5.766629
 30
5.88
 11
-0.037649
 21
5.746536
 31
5.88
  0
LINE
  5
46080
100
AcDbEntity
  8
0
100
AcDbLine
 10
-0.20852
 20
5.741513
 30
5.88
 11
-0.228622
 21
5.766629
 31
5.88
  0
LINE
  5
46081
100
AcDbEntity
  8
0
100
AcDbLine
 10
-0.198467
 20
5.91732
 30
5.88
 11
-0.0477
 21
5.741513
 31
5.88
  0
LINE
  5
46082
100
AcDbEntity
  8
0
100
AcDbLine
 10
-0.12811
 20
5.625985
 30
5.88
 11
-0.097957
 21
5.625985
 31
5.88
  0
LINE
  5
46083
100
AcDbEntity
  8
0
100
AcDbLine
 10
-0.082881
 20
5.716399
 30
5.88
 11
-0.113034
 21
5.706351
 31
5.88
  0
LINE
  5
46084
100
AcDbEntity
  8
0
100
AcDbLine
 10
-0.113034
 20
5.706351
 30
5.88
 11
-0.138161
 21
5.706351
 31
5.88
  0
LINE
  5
46085
100
AcDbEntity
  8
0
100
AcDbLine
 10
-0.138161
 20
5.706351
 30
5.88
 11
-0.163289
 21
5.716399
 31
5.88
  0
LINE
  5
46086
100
AcDbEntity
  8
0
100
AcDbLine
 10
-0.163289
 20
5.716399
 30
5.88
 11
-0.188416
 21
5.726444
 31
5.88
  0
LINE
  5
46087
100
AcDbEntity
  8
0
100
AcDbLine
 10
-0.188416
 20
5.726444
 30
5.88
 11
-0.20852
 21
5.741513
 31
5.88
  0
LINE
  5
46088
100
AcDbEntity
  8
0
100
AcDbLine
 10
-0.153238
 20
5.625985
 30
5.88
 11
-0.12811
 21
5.625985
 31
5.88
  0
LINE
  5
46089
100
AcDbEntity
  8
0
100
AcDbLine
 10
-0.203495
 20
5.600869
 30
5.88
 11
-0.178365
 21
5.615938
 31
5.88
  0
LINE
  5
4608A
100
AcDbEntity
  8
0
100
AcDbLine
 10
-0.233648
 20
5.555662
 30
5.88
 11
-0.218569
 21
5.580777
 31
5.88
  0
LINE
  5
4608B
100
AcDbEntity
  8
0
100
AcDbLine
 10
-0.218569
 20
5.580777
 30
5.88
 11
-0.203495
 21
5.600869
 31
5.88
  0
LINE
  5
4608C
100
AcDbEntity
  8
0
100
AcDbLine
 10
-0.178365
 20
5.615938
 30
5.88
 11
-0.153238
 21
5.625985
 31
5.88
  0
LINE
  5
4608D
100
AcDbEntity
  8
0
100
AcDbLine
 10
-0.037649
 20
5.746536
 30
5.88
 11
-0.062779
 21
5.726444
 31
5.88
  0
LINE
  5
4608E
100
AcDbEntity
  8
0
100
AcDbLine
 10
-0.062779
 20
5.726444
 30
5.88
 11
-0.082881
 21
5.716399
 31
5.88
  0
LINE
  5
4608F
100
AcDbEntity
  8
0
100
AcDbLine
 10
-0.07283
 20
5.615938
 30
5.88
 11
-0.052726
 21
5.600869
 31
5.88
  0
LINE
  5
46090
100
AcDbEntity
  8
0
100
AcDbLine
 10
-0.052726
 20
5.600869
 30
5.88
 11
-0.032624
 21
5.580777
 31
5.88
  0
LINE
  5
46091
100
AcDbEntity
  8
0
100
AcDbLine
 10
-0.032624
 20
5.580777
 30
5.88
 11
-0.017547
 21
5.555662
 31
5.88
  0
LINE
  5
46092
100
AcDbEntity
  8
0
100
AcDbLine
 10
-0.097957
 20
5.625985
 30
5.88
 11
-0.07283
 21
5.615938
 31
5.88
  0
LINE
  5
46093
100
AcDbEntity
  8
0
100
AcDbLine
 10
-0.12811
 20
5.942436
 30
5.88
 11
-0.097957
 21
5.937412
 31
5.88
  0
LINE
  5
46094
100
AcDbEntity
  8
0
100
AcDbLine
 10
-0.203495
 20
5.912298
 30
5.88
 11
-0.178365
 21
5.927367
 31
5.88
  0
LINE
  5
46095
100
AcDbEntity
  8
0
100
AcDbLine
 10
-0.178365
 20
5.927367
 30
5.88
 11
-0.153238
 21
5.937412
 31
5.88
  0
LINE
  5
46096
100
AcDbEntity
  8
0
100
AcDbLine
 10
-0.153238
 20
5.937412
 30
5.88
 11
-0.12811
 21
5.942436
 31
5.88
  0
LINE
  5
46097
100
AcDbEntity
  8
0
100
AcDbLine
 10
-0.233648
 20
5.872113
 30
5.88
 11
-0.218569
 21
5.892206
 31
5.88
  0
LINE
  5
46098
100
AcDbEntity
  8
0
100
AcDbLine
 10
-0.218569
 20
5.892206
 30
5.88
 11
-0.203495
 21
5.912298
 31
5.88
  0
LINE
  5
46099
100
AcDbEntity
  8
0
100
AcDbLine
 10
-0.07283
 20
5.927367
 30
5.88
 11
-0.052726
 21
5.912298
 31
5.88
  0
LINE
  5
4609A
100
AcDbEntity
  8
0
100
AcDbLine
 10
-0.052726
 20
5.912298
 30
5.88
 11
-0.032624
 21
5.897227
 31
5.88
  0
LINE
  5
4609B
100
AcDbEntity
  8
0
100
AcDbLine
 10
-0.032624
 20
5.897227
 30
5.88
 11
-0.017547
 21
5.872113
 31
5.88
  0
LINE
  5
4609C
100
AcDbEntity
  8
0
100
AcDbLine
 10
-0.017547
 20
5.872113
 30
5.88
 11
-0.012522
 21
5.846997
 31
5.88
  0
LINE
  5
4609D
100
AcDbEntity
  8
0
100
AcDbLine
 10
-0.097957
 20
5.937412
 30
5.88
 11
-0.07283
 21
5.927367
 31
5.88
  0
LINE
  5
4609E
100
AcDbEntity
  8
0
100
AcDbLine
 10
-0.007496
 20
5.816859
 30
5.88
 11
-0.012522
 21
5.791743
 31
5.88
  0
LINE
  5
4609F
100
AcDbEntity
  8
0
100
AcDbLine
 10
-0.012522
 20
5.791743
 30
5.88
 11
-0.022573
 21
5.766629
 31
5.88
  0
LINE
  5
460A0
100
AcDbEntity
  8
0
100
AcDbLine
 10
-0.012522
 20
5.846997
 30
5.88
 11
-0.007496
 21
5.816859
 31
5.88
  0
LINE
  5
460A1
100
AcDbEntity
  8
0
100
AcDbLine
 10
-0.238673
 20
6.158426
 30
5.88
 11
-0.233648
 21
6.18354
 31
5.88
  0
LINE
  5
460A2
100
AcDbEntity
  8
0
100
AcDbLine
 10
-0.228622
 20
6.078056
 30
5.88
 11
-0.238673
 21
6.103172
 31
5.88
  0
LINE
  5
460A3
100
AcDbEntity
  8
0
100
AcDbLine
 10
-0.398979
 20
6.022802
 30
5.88
 11
-0.398979
 21
6.26893
 31
5.88
  0
LINE
  5
460A4
100
AcDbEntity
  8
0
100
AcDbLine
 10
-0.298979
 20
6.022802
 30
5.88
 11
-0.298979
 21
6.26893
 31
5.88
  0
LINE
  5
460A5
100
AcDbEntity
  8
0
100
AcDbLine
 10
-0.398979
 20
6.022802
 30
5.88
 11
-0.298979
 21
6.022802
 31
5.88
  0
LINE
  5
460A6
100
AcDbEntity
  8
0
100
AcDbLine
 10
-0.238673
 20
6.103172
 30
5.88
 11
-0.243699
 21
6.128286
 31
5.88
  0
LINE
  5
460A7
100
AcDbEntity
  8
0
100
AcDbLine
 10
-0.243699
 20
6.128286
 30
5.88
 11
-0.238673
 21
6.158426
 31
5.88
  0
LINE
  5
460A8
100
AcDbEntity
  8
0
100
AcDbLine
 10
-0.398979
 20
6.26893
 30
5.88
 11
-0.298979
 21
6.26893
 31
5.88
  0
LINE
  5
460A9
100
AcDbEntity
  8
0
100
AcDbLine
 10
-0.398979
 20
6.334231
 30
5.88
 11
-0.298979
 21
6.334231
 31
5.88
  0
LINE
  5
460AA
100
AcDbEntity
  8
0
100
AcDbLine
 10
-0.017547
 20
6.18354
 30
5.88
 11
-0.012522
 21
6.158426
 31
5.88
  0
LINE
  5
460AB
100
AcDbEntity
  8
0
100
AcDbLine
 10
-0.198467
 20
6.228747
 30
5.88
 11
-0.0477
 21
6.052942
 31
5.88
  0
LINE
  5
460AC
100
AcDbEntity
  8
0
100
AcDbLine
 10
-0.082881
 20
6.027826
 30
5.88
 11
-0.113034
 21
6.022802
 31
5.88
  0
LINE
  5
460AD
100
AcDbEntity
  8
0
100
AcDbLine
 10
-0.113034
 20
6.022802
 30
5.88
 11
-0.138161
 21
6.022802
 31
5.88
  0
LINE
  5
460AE
100
AcDbEntity
  8
0
100
AcDbLine
 10
-0.138161
 20
6.022802
 30
5.88
 11
-0.163289
 21
6.027826
 31
5.88
  0
LINE
  5
460AF
100
AcDbEntity
  8
0
100
AcDbLine
 10
-0.163289
 20
6.027826
 30
5.88
 11
-0.188416
 21
6.037871
 31
5.88
  0
LINE
  5
460B0
100
AcDbEntity
  8
0
100
AcDbLine
 10
-0.188416
 20
6.037871
 30
5.88
 11
-0.20852
 21
6.057963
 31
5.88
  0
LINE
  5
460B1
100
AcDbEntity
  8
0
100
AcDbLine
 10
-0.20852
 20
6.057963
 30
5.88
 11
-0.228622
 21
6.078056
 31
5.88
  0
LINE
  5
460B2
100
AcDbEntity
  8
0
100
AcDbLine
 10
-0.012522
 20
6.158426
 30
5.88
 11
-0.007496
 21
6.13331
 31
5.88
  0
LINE
  5
460B3
100
AcDbEntity
  8
0
100
AcDbLine
 10
-0.007496
 20
6.13331
 30
5.88
 11
-0.012522
 21
6.103172
 31
5.88
  0
LINE
  5
460B4
100
AcDbEntity
  8
0
100
AcDbLine
 10
-0.012522
 20
6.103172
 30
5.88
 11
-0.022573
 21
6.078056
 31
5.88
  0
LINE
  5
460B5
100
AcDbEntity
  8
0
100
AcDbLine
 10
-0.022573
 20
6.078056
 30
5.88
 11
-0.037649
 21
6.057963
 31
5.88
  0
LINE
  5
460B6
100
AcDbEntity
  8
0
100
AcDbLine
 10
-0.037649
 20
6.057963
 30
5.88
 11
-0.062779
 21
6.042895
 31
5.88
  0
LINE
  5
460B7
100
AcDbEntity
  8
0
100
AcDbLine
 10
-0.062779
 20
6.042895
 30
5.88
 11
-0.082881
 21
6.027826
 31
5.88
  0
LINE
  5
460B8
100
AcDbEntity
  8
0
100
AcDbLine
 10
-0.12811
 20
6.253861
 30
5.88
 11
-0.097957
 21
6.253861
 31
5.88
  0
LINE
  5
460B9
100
AcDbEntity
  8
0
100
AcDbLine
 10
-0.082881
 20
6.344276
 30
5.88
 11
-0.113034
 21
6.334231
 31
5.88
  0
LINE
  5
460BA
100
AcDbEntity
  8
0
100
AcDbLine
 10
-0.113034
 20
6.334231
 30
5.88
 11
-0.138161
 21
6.334231
 31
5.88
  0
LINE
  5
460BB
100
AcDbEntity
  8
0
100
AcDbLine
 10
-0.138161
 20
6.334231
 30
5.88
 11
-0.163289
 21
6.339253
 31
5.88
  0
LINE
  5
460BC
100
AcDbEntity
  8
0
100
AcDbLine
 10
-0.163289
 20
6.339253
 30
5.88
 11
-0.188416
 21
6.354322
 31
5.88
  0
LINE
  5
460BD
100
AcDbEntity
  8
0
100
AcDbLine
 10
-0.188416
 20
6.354322
 30
5.88
 11
-0.20852
 21
6.369392
 31
5.88
  0
LINE
  5
460BE
100
AcDbEntity
  8
0
100
AcDbLine
 10
-0.203495
 20
6.228747
 30
5.88
 11
-0.178365
 21
6.243816
 31
5.88
  0
LINE
  5
460BF
100
AcDbEntity
  8
0
100
AcDbLine
 10
-0.178365
 20
6.243816
 30
5.88
 11
-0.153238
 21
6.253861
 31
5.88
  0
LINE
  5
460C0
100
AcDbEntity
  8
0
100
AcDbLine
 10
-0.153238
 20
6.253861
 30
5.88
 11
-0.12811
 21
6.253861
 31
5.88
  0
LINE
  5
460C1
100
AcDbEntity
  8
0
100
AcDbLine
 10
-0.233648
 20
6.18354
 30
5.88
 11
-0.218569
 21
6.208656
 31
5.88
  0
LINE
  5
460C2
100
AcDbEntity
  8
0
100
AcDbLine
 10
-0.218569
 20
6.208656
 30
5.88
 11
-0.203495
 21
6.228747
 31
5.88
  0
LINE
  5
460C3
100
AcDbEntity
  8
0
100
AcDbLine
 10
-0.037649
 20
6.369392
 30
5.88
 11
-0.062779
 21
6.354322
 31
5.88
  0
LINE
  5
460C4
100
AcDbEntity
  8
0
100
AcDbLine
 10
-0.062779
 20
6.354322
 30
5.88
 11
-0.082881
 21
6.344276
 31
5.88
  0
LINE
  5
460C5
100
AcDbEntity
  8
0
100
AcDbLine
 10
-0.07283
 20
6.243816
 30
5.88
 11
-0.052726
 21
6.228747
 31
5.88
  0
LINE
  5
460C6
100
AcDbEntity
  8
0
100
AcDbLine
 10
-0.032624
 20
6.208656
 30
5.88
 11
-0.017547
 21
6.18354
 31
5.88
  0
LINE
  5
460C7
100
AcDbEntity
  8
0
100
AcDbLine
 10
-0.052726
 20
6.228747
 30
5.88
 11
-0.032624
 21
6.208656
 31
5.88
  0
LINE
  5
460C8
100
AcDbEntity
  8
0
100
AcDbLine
 10
-0.097957
 20
6.253861
 30
5.88
 11
-0.07283
 21
6.243816
 31
5.88
  0
LINE
  5
460C9
100
AcDbEntity
  8
0
100
AcDbLine
 10
0.072657
 20
5.952479
 30
5.88
 11
0.072657
 21
5.706351
 31
5.88
  0
LINE
  5
460CA
100
AcDbEntity
  8
0
100
AcDbLine
 10
0.022657
 20
5.952479
 30
5.88
 11
0.022657
 21
5.706351
 31
5.88
  0
LINE
  5
460CB
100
AcDbEntity
  8
0
100
AcDbLine
 10
0.022657
 20
5.641054
 30
5.88
 11
0.072657
 21
5.641054
 31
5.88
  0
LINE
  5
460CC
100
AcDbEntity
  8
0
100
AcDbLine
 10
0.022657
 20
5.706351
 30
5.88
 11
0.072657
 21
5.706351
 31
5.88
  0
LINE
  5
460CD
100
AcDbEntity
  8
0
100
AcDbLine
 10
0.022657
 20
5.952479
 30
5.88
 11
0.072657
 21
5.952479
 31
5.88
  0
LINE
  5
460CE
100
AcDbEntity
  8
0
100
AcDbLine
 10
0.072657
 20
6.26893
 30
5.88
 11
0.072657
 21
6.022802
 31
5.88
  0
LINE
  5
460CF
100
AcDbEntity
  8
0
100
AcDbLine
 10
0.022657
 20
6.26893
 30
5.88
 11
0.022657
 21
6.022802
 31
5.88
  0
LINE
  5
460D0
100
AcDbEntity
  8
0
100
AcDbLine
 10
0.022657
 20
6.022802
 30
5.88
 11
0.072657
 21
6.022802
 31
5.88
  0
LINE
  5
460D1
100
AcDbEntity
  8
0
100
AcDbLine
 10
0.022657
 20
6.26893
 30
5.88
 11
0.072657
 21
6.26893
 31
5.88
  0
LINE
  5
460D2
100
AcDbEntity
  8
0
100
AcDbLine
 10
0.022657
 20
6.334231
 30
5.88
 11
0.072657
 21
6.334231
 31
5.88
  0
LINE
  5
460D3
100
AcDbEntity
  8
0
100
AcDbLine
 10
0.022657
 20
6.645659
 30
5.88
 11
-0.298979
 21
6.645659
 31
5.88
  0
LINE
  5
460D4
100
AcDbEntity
  8
0
100
AcDbLine
 10
-0.298979
 20
6.891787
 30
5.88
 11
0.022657
 21
6.891787
 31
5.88
  0
LINE
  5
460D5
100
AcDbEntity
  8
0
100
AcDbLine
 10
-0.298979
 20
6.580359
 30
5.88
 11
0.022657
 21
6.580359
 31
5.88
  0
LINE
  5
460D6
100
AcDbEntity
  8
0
100
AcDbLine
 10
-0.398979
 20
6.645659
 30
5.88
 11
-0.398979
 21
6.891787
 31
5.88
  0
LINE
  5
460D7
100
AcDbEntity
  8
0
100
AcDbLine
 10
-0.017547
 20
6.811417
 30
5.88
 11
-0.012522
 21
6.786303
 31
5.88
  0
LINE
  5
460D8
100
AcDbEntity
  8
0
100
AcDbLine
 10
-0.238673
 20
6.781279
 30
5.88
 11
-0.233648
 21
6.806393
 31
5.88
  0
LINE
  5
460D9
100
AcDbEntity
  8
0
100
AcDbLine
 10
-0.298979
 20
6.645659
 30
5.88
 11
-0.298979
 21
6.891787
 31
5.88
  0
LINE
  5
460DA
100
AcDbEntity
  8
0
100
AcDbLine
 10
-0.198467
 20
6.851602
 30
5.88
 11
-0.0477
 21
6.675797
 31
5.88
  0
LINE
  5
460DB
100
AcDbEntity
  8
0
100
AcDbLine
 10
-0.228622
 20
6.705935
 30
5.88
 11
-0.238673
 21
6.731051
 31
5.88
  0
LINE
  5
460DC
100
AcDbEntity
  8
0
100
AcDbLine
 10
-0.238673
 20
6.469851
 30
5.88
 11
-0.233648
 21
6.494965
 31
5.88
  0
LINE
  5
460DD
100
AcDbEntity
  8
0
100
AcDbLine
 10
-0.228622
 20
6.394507
 30
5.88
 11
-0.238673
 21
6.419623
 31
5.88
  0
LINE
  5
460DE
100
AcDbEntity
  8
0
100
AcDbLine
 10
-0.398979
 20
6.580359
 30
5.88
 11
-0.298979
 21
6.580359
 31
5.88
  0
LINE
  5
460DF
100
AcDbEntity
  8
0
100
AcDbLine
 10
-0.238673
 20
6.419623
 30
5.88
 11
-0.243699
 21
6.444735
 31
5.88
  0
LINE
  5
460E0
100
AcDbEntity
  8
0
100
AcDbLine
 10
-0.243699
 20
6.444735
 30
5.88
 11
-0.238673
 21
6.469851
 31
5.88
  0
LINE
  5
460E1
100
AcDbEntity
  8
0
100
AcDbLine
 10
-0.398979
 20
6.645659
 30
5.88
 11
-0.298979
 21
6.645659
 31
5.88
  0
LINE
  5
460E2
100
AcDbEntity
  8
0
100
AcDbLine
 10
-0.243699
 20
6.756163
 30
5.88
 11
-0.238673
 21
6.781279
 31
5.88
  0
LINE
  5
460E3
100
AcDbEntity
  8
0
100
AcDbLine
 10
-0.238673
 20
6.731051
 30
5.88
 11
-0.243699
 21
6.756163
 31
5.88
  0
LINE
  5
460E4
100
AcDbEntity
  8
0
100
AcDbLine
 10
-0.12811
 20
6.570312
 30
5.88
 11
-0.097957
 21
6.565288
 31
5.88
  0
LINE
  5
460E5
100
AcDbEntity
  8
0
100
AcDbLine
 10
-0.203495
 20
6.540174
 30
5.88
 11
-0.178365
 21
6.555243
 31
5.88
  0
LINE
  5
460E6
100
AcDbEntity
  8
0
100
AcDbLine
 10
-0.178365
 20
6.555243
 30
5.88
 11
-0.153238
 21
6.565288
 31
5.88
  0
LINE
  5
460E7
100
AcDbEntity
  8
0
100
AcDbLine
 10
-0.153238
 20
6.565288
 30
5.88
 11
-0.12811
 21
6.570312
 31
5.88
  0
LINE
  5
460E8
100
AcDbEntity
  8
0
100
AcDbLine
 10
-0.233648
 20
6.494965
 30
5.88
 11
-0.218569
 21
6.520081
 31
5.88
  0
LINE
  5
460E9
100
AcDbEntity
  8
0
100
AcDbLine
 10
-0.218569
 20
6.520081
 30
5.88
 11
-0.203495
 21
6.540174
 31
5.88
  0
LINE
  5
460EA
100
AcDbEntity
  8
0
100
AcDbLine
 10
-0.07283
 20
6.555243
 30
5.88
 11
-0.052726
 21
6.540174
 31
5.88
  0
LINE
  5
460EB
100
AcDbEntity
  8
0
100
AcDbLine
 10
-0.052726
 20
6.540174
 30
5.88
 11
-0.032624
 21
6.520081
 31
5.88
  0
LINE
  5
460EC
100
AcDbEntity
  8
0
100
AcDbLine
 10
-0.032624
 20
6.520081
 30
5.88
 11
-0.017547
 21
6.499989
 31
5.88
  0
LINE
  5
460ED
100
AcDbEntity
  8
0
100
AcDbLine
 10
-0.017547
 20
6.499989
 30
5.88
 11
-0.012522
 21
6.474875
 31
5.88
  0
LINE
  5
460EE
100
AcDbEntity
  8
0
100
AcDbLine
 10
-0.012522
 20
6.474875
 30
5.88
 11
-0.007496
 21
6.444735
 31
5.88
  0
LINE
  5
460EF
100
AcDbEntity
  8
0
100
AcDbLine
 10
-0.007496
 20
6.444735
 30
5.88
 11
-0.012522
 21
6.419623
 31
5.88
  0
LINE
  5
460F0
100
AcDbEntity
  8
0
100
AcDbLine
 10
-0.012522
 20
6.419623
 30
5.88
 11
-0.022573
 21
6.394507
 31
5.88
  0
LINE
  5
460F1
100
AcDbEntity
  8
0
100
AcDbLine
 10
-0.097957
 20
6.565288
 30
5.88
 11
-0.07283
 21
6.555243
 31
5.88
  0
LINE
  5
460F2
100
AcDbEntity
  8
0
100
AcDbLine
 10
-0.082881
 20
6.655704
 30
5.88
 11
-0.113034
 21
6.645659
 31
5.88
  0
LINE
  5
460F3
100
AcDbEntity
  8
0
100
AcDbLine
 10
-0.188416
 20
6.66575
 30
5.88
 11
-0.20852
 21
6.680821
 31
5.88
  0
LINE
  5
460F4
100
AcDbEntity
  8
0
100
AcDbLine
 10
-0.163289
 20
6.650681
 30
5.88
 11
-0.188416
 21
6.66575
 31
5.88
  0
LINE
  5
460F5
100
AcDbEntity
  8
0
100
AcDbLine
 10
-0.138161
 20
6.645659
 30
5.88
 11
-0.163289
 21
6.650681
 31
5.88
  0
LINE
  5
460F6
100
AcDbEntity
  8
0
100
AcDbLine
 10
-0.113034
 20
6.645659
 30
5.88
 11
-0.138161
 21
6.645659
 31
5.88
  0
LINE
  5
460F7
100
AcDbEntity
  8
0
100
AcDbLine
 10
-0.20852
 20
6.680821
 30
5.88
 11
-0.228622
 21
6.705935
 31
5.88
  0
LINE
  5
460F8
100
AcDbEntity
  8
0
100
AcDbLine
 10
-0.012522
 20
6.731051
 30
5.88
 11
-0.022573
 21
6.705935
 31
5.88
  0
LINE
  5
460F9
100
AcDbEntity
  8
0
100
AcDbLine
 10
-0.062779
 20
6.66575
 30
5.88
 11
-0.082881
 21
6.655704
 31
5.88
  0
LINE
  5
460FA
100
AcDbEntity
  8
0
100
AcDbLine
 10
-0.037649
 20
6.680821
 30
5.88
 11
-0.062779
 21
6.66575
 31
5.88
  0
LINE
  5
460FB
100
AcDbEntity
  8
0
100
AcDbLine
 10
-0.022573
 20
6.705935
 30
5.88
 11
-0.037649
 21
6.680821
 31
5.88
  0
LINE
  5
460FC
100
AcDbEntity
  8
0
100
AcDbLine
 10
-0.007496
 20
6.756163
 30
5.88
 11
-0.012522
 21
6.731051
 31
5.88
  0
LINE
  5
460FD
100
AcDbEntity
  8
0
100
AcDbLine
 10
-0.012522
 20
6.786303
 30
5.88
 11
-0.007496
 21
6.756163
 31
5.88
  0
LINE
  5
460FE
100
AcDbEntity
  8
0
100
AcDbLine
 10
-0.398979
 20
6.891787
 30
5.88
 11
-0.298979
 21
6.891787
 31
5.88
  0
LINE
  5
460FF
100
AcDbEntity
  8
0
100
AcDbLine
 10
-0.12811
 20
6.88174
 30
5.88
 11
-0.097957
 21
6.876716
 31
5.88
  0
LINE
  5
46100
100
AcDbEntity
  8
0
100
AcDbLine
 10
-0.153238
 20
6.876716
 30
5.88
 11
-0.12811
 21
6.88174
 31
5.88
  0
LINE
  5
46101
100
AcDbEntity
  8
0
100
AcDbLine
 10
-0.178365
 20
6.866671
 30
5.88
 11
-0.153238
 21
6.876716
 31
5.88
  0
LINE
  5
46102
100
AcDbEntity
  8
0
100
AcDbLine
 10
-0.203495
 20
6.851602
 30
5.88
 11
-0.178365
 21
6.866671
 31
5.88
  0
LINE
  5
46103
100
AcDbEntity
  8
0
100
AcDbLine
 10
-0.233648
 20
6.806393
 30
5.88
 11
-0.218569
 21
6.83151
 31
5.88
  0
LINE
  5
46104
100
AcDbEntity
  8
0
100
AcDbLine
 10
-0.218569
 20
6.83151
 30
5.88
 11
-0.203495
 21
6.851602
 31
5.88
  0
LINE
  5
46105
100
AcDbEntity
  8
0
100
AcDbLine
 10
-0.07283
 20
6.866671
 30
5.88
 11
-0.052726
 21
6.851602
 31
5.88
  0
LINE
  5
46106
100
AcDbEntity
  8
0
100
AcDbLine
 10
-0.032624
 20
6.83151
 30
5.88
 11
-0.017547
 21
6.811417
 31
5.88
  0
LINE
  5
46107
100
AcDbEntity
  8
0
100
AcDbLine
 10
-0.052726
 20
6.851602
 30
5.88
 11
-0.032624
 21
6.83151
 31
5.88
  0
LINE
  5
46108
100
AcDbEntity
  8
0
100
AcDbLine
 10
-0.097957
 20
6.876716
 30
5.88
 11
-0.07283
 21
6.866671
 31
5.88
  0
LINE
  5
46109
100
AcDbEntity
  8
0
100
AcDbLine
 10
0.072657
 20
6.891787
 30
5.88
 11
0.072657
 21
6.645659
 31
5.88
  0
LINE
  5
4610A
100
AcDbEntity
  8
0
100
AcDbLine
 10
0.022657
 20
6.891787
 30
5.88
 11
0.022657
 21
6.645659
 31
5.88
  0
LINE
  5
4610B
100
AcDbEntity
  8
0
100
AcDbLine
 10
0.022657
 20
6.580359
 30
5.88
 11
0.072657
 21
6.580359
 31
5.88
  0
LINE
  5
4610C
100
AcDbEntity
  8
0
100
AcDbLine
 10
0.022657
 20
6.645659
 30
5.88
 11
0.072657
 21
6.645659
 31
5.88
  0
LINE
  5
4610D
100
AcDbEntity
  8
0
100
AcDbLine
 10
0.022657
 20
6.891787
 30
5.88
 11
0.072657
 21
6.891787
 31
5.88
  0
LINE
  5
4610E
100
AcDbEntity
  8
0
100
AcDbLine
 10
-0.228704
 20
7.879066
 30
5.88
 11
-0.248806
 21
7.874042
 31
5.88
  0
LINE
  5
4610F
100
AcDbEntity
  8
0
100
AcDbLine
 10
-0.253831
 20
8.03478
 30
5.88
 11
-0.233729
 21
8.024733
 31
5.88
  0
LINE
  5
46110
100
AcDbEntity
  8
0
100
AcDbLine
 10
-0.228704
 20
7.798096
 30
5.88
 11
-0.253831
 21
7.793074
 31
5.88
  0
LINE
  5
46111
100
AcDbEntity
  8
0
100
AcDbLine
 10
-0.349316
 20
7.828235
 30
5.88
 11
-0.364394
 21
7.848328
 31
5.88
  0
LINE
  5
46112
100
AcDbEntity
  8
0
100
AcDbLine
 10
-0.329216
 20
7.808143
 30
5.88
 11
-0.349316
 21
7.828235
 31
5.88
  0
LINE
  5
46113
100
AcDbEntity
  8
0
100
AcDbLine
 10
-0.304086
 20
7.798096
 30
5.88
 11
-0.329216
 21
7.808143
 31
5.88
  0
LINE
  5
46114
100
AcDbEntity
  8
0
100
AcDbLine
 10
-0.278959
 20
7.793074
 30
5.88
 11
-0.304086
 21
7.798096
 31
5.88
  0
LINE
  5
46115
100
AcDbEntity
  8
0
100
AcDbLine
 10
-0.253831
 20
7.793074
 30
5.88
 11
-0.278959
 21
7.793074
 31
5.88
  0
LINE
  5
46116
100
AcDbEntity
  8
0
100
AcDbLine
 10
-0.374443
 20
7.873442
 30
5.88
 11
-0.374443
 21
7.898558
 31
5.88
  0
LINE
  5
46117
100
AcDbEntity
  8
0
100
AcDbLine
 10
-0.364394
 20
7.848328
 30
5.88
 11
-0.374443
 21
7.873442
 31
5.88
  0
LINE
  5
46118
100
AcDbEntity
  8
0
100
AcDbLine
 10
-0.354343
 20
7.959434
 30
5.88
 11
-0.349316
 21
7.98455
 31
5.88
  0
LINE
  5
46119
100
AcDbEntity
  8
0
100
AcDbLine
 10
-0.349316
 20
7.939342
 30
5.88
 11
-0.354343
 21
7.959434
 31
5.88
  0
LINE
  5
4611A
100
AcDbEntity
  8
0
100
AcDbLine
 10
-0.34429
 20
7.919249
 30
5.88
 11
-0.349316
 21
7.939342
 31
5.88
  0
LINE
  5
4611B
100
AcDbEntity
  8
0
100
AcDbLine
 10
-0.334239
 20
7.899157
 30
5.88
 11
-0.34429
 21
7.919249
 31
5.88
  0
LINE
  5
4611C
100
AcDbEntity
  8
0
100
AcDbLine
 10
-0.314137
 20
7.884088
 30
5.88
 11
-0.334239
 21
7.899157
 31
5.88
  0
LINE
  5
4611D
100
AcDbEntity
  8
0
100
AcDbLine
 10
-0.294035
 20
7.874042
 30
5.88
 11
-0.314137
 21
7.884088
 31
5.88
  0
LINE
  5
4611E
100
AcDbEntity
  8
0
100
AcDbLine
 10
-0.273933
 20
7.869019
 30
5.88
 11
-0.294035
 21
7.874042
 31
5.88
  0
LINE
  5
4611F
100
AcDbEntity
  8
0
100
AcDbLine
 10
-0.248806
 20
7.874042
 30
5.88
 11
-0.273933
 21
7.869019
 31
5.88
  0
LINE
  5
46120
100
AcDbEntity
  8
0
100
AcDbLine
 10
-0.278959
 20
8.03478
 30
5.88
 11
-0.253831
 21
8.03478
 31
5.88
  0
LINE
  5
46121
100
AcDbEntity
  8
0
100
AcDbLine
 10
-0.299061
 20
8.029757
 30
5.88
 11
-0.278959
 21
8.03478
 31
5.88
  0
LINE
  5
46122
100
AcDbEntity
  8
0
100
AcDbLine
 10
-0.319163
 20
8.019712
 30
5.88
 11
-0.299061
 21
8.029757
 31
5.88
  0
LINE
  5
46123
100
AcDbEntity
  8
0
100
AcDbLine
 10
-0.334239
 20
8.004641
 30
5.88
 11
-0.319163
 21
8.019712
 31
5.88
  0
LINE
  5
46124
100
AcDbEntity
  8
0
100
AcDbLine
 10
-0.349316
 20
7.98455
 30
5.88
 11
-0.334239
 21
8.004641
 31
5.88
  0
LINE
  5
46125
100
AcDbEntity
  8
0
100
AcDbLine
 10
-0.173422
 20
7.848328
 30
5.88
 11
-0.188498
 21
7.828235
 31
5.88
  0
LINE
  5
46126
100
AcDbEntity
  8
0
100
AcDbLine
 10
-0.208602
 20
7.808143
 30
5.88
 11
-0.228704
 21
7.798096
 31
5.88
  0
LINE
  5
46127
100
AcDbEntity
  8
0
100
AcDbLine
 10
-0.188498
 20
7.828235
 30
5.88
 11
-0.208602
 21
7.808143
 31
5.88
  0
LINE
  5
46128
100
AcDbEntity
  8
0
100
AcDbLine
 10
-0.213626
 20
7.894135
 30
5.88
 11
-0.228704
 21
7.879066
 31
5.88
  0
LINE
  5
46129
100
AcDbEntity
  8
0
100
AcDbLine
 10
-0.198549
 20
7.909204
 30
5.88
 11
-0.213626
 21
7.894135
 31
5.88
  0
LINE
  5
4612A
100
AcDbEntity
  8
0
100
AcDbLine
 10
-0.188498
 20
7.934318
 30
5.88
 11
-0.198549
 21
7.909204
 31
5.88
  0
LINE
  5
4612B
100
AcDbEntity
  8
0
100
AcDbLine
 10
-0.188498
 20
7.95441
 30
5.88
 11
-0.188498
 21
7.934318
 31
5.88
  0
LINE
  5
4612C
100
AcDbEntity
  8
0
100
AcDbLine
 10
-0.193525
 20
7.974503
 30
5.88
 11
-0.188498
 21
7.95441
 31
5.88
  0
LINE
  5
4612D
100
AcDbEntity
  8
0
100
AcDbLine
 10
-0.198549
 20
7.999619
 30
5.88
 11
-0.193525
 21
7.974503
 31
5.88
  0
LINE
  5
4612E
100
AcDbEntity
  8
0
100
AcDbLine
 10
-0.213626
 20
8.014688
 30
5.88
 11
-0.198549
 21
7.999619
 31
5.88
  0
LINE
  5
4612F
100
AcDbEntity
  8
0
100
AcDbLine
 10
-0.233729
 20
8.024733
 30
5.88
 11
-0.213626
 21
8.014688
 31
5.88
  0
LINE
  5
46130
100
AcDbEntity
  8
0
100
AcDbLine
 10
-0.163371
 20
7.873442
 30
5.88
 11
-0.173422
 21
7.848328
 31
5.88
  0
LINE
  5
46131
100
AcDbEntity
  8
0
100
AcDbLine
 10
-0.158345
 20
7.898558
 30
5.88
 11
-0.163371
 21
7.873442
 31
5.88
  0
TEXT
  5
46132
100
AcDbEntity
  8
0
100
AcDbText
 39
0.001
 10
-0.597436
 20
8.10226
 30
5.879973
 40
0.05
  1
RUN
 72
     1
 11
-0.53077
 21
8.10226
 31
5.879973
100
AcDbText
  0
TEXT
  5
46133
100
AcDbEntity
  8
0
100
AcDbText
 39
0.001
 10
-0.789103
 20
8.25226
 30
5.879973
 40
0.05
  1
(12 BIT)
 72
     1
 11
-0.63077
 21
8.25226
 31
5.879973
100
AcDbText
  0
LINE
  5
46134
100
AcDbEntity
  8
0
100
AcDbLine
 10
-0.851402
 20
8.625571
 30
5.88
 11
-0.022565
 21
8.625571
 31
5.88
  0
TEXT
  5
46135
100
AcDbEntity
  8
0
100
AcDbText
 39
0.001
 10
-0.822436
 20
8.42726
 30
5.879973
 40
0.05
  1
ANALOG
 72
     1
 11
-0.68077
 21
8.42726
 31
5.879973
100
AcDbText
  0
TEXT
  5
46136
100
AcDbEntity
  8
0
100
AcDbText
 39
0.001
 10
-0.714103
 20
8.35226
 30
5.879973
 40
0.05
  1
IN
 72
     1
 11
-0.68077
 21
8.35226
 31
5.879973
100
AcDbText
  0
POLYLINE
  5
46137
100
AcDbEntity
  8
0
100
AcDbPolygonMesh
 66
     1
 10
0.0
 20
0.0
 30
0.0
 70
    16
 71
     6
 72
     3
  0
VERTEX
  5
46138
100
AcDbEntity
  8
0
100
AcDbVertex
100
AcDbPolygonMeshVertex
 10
0.265
 20
9.0811
 30
5.837
 70
    64
  0
VERTEX
  5
46139
100
AcDbEntity
  8
0
100
AcDbVertex
100
AcDbPolygonMeshVertex
 10
0.265
 20
9.0811
 30
5.747
 70
    64
  0
VERTEX
  5
4613A
100
AcDbEntity
  8
0
100
AcDbVertex
100
AcDbPolygonMeshVertex
 10
0.265
 20
9.0811
 30
5.747
 70
    64
  0
VERTEX
  5
4613B
100
AcDbEntity
  8
0
100
AcDbVertex
100
AcDbPolygonMeshVertex
 10
-0.197
 20
9.0811
 30
5.837
 70
    64
  0
VERTEX
  5
4613C
100
AcDbEntity
  8
0
100
AcDbVertex
100
AcDbPolygonMeshVertex
 10
-0.197
 20
9.0811
 30
5.747
 70
    64
  0
VERTEX
  5
4613D
100
AcDbEntity
  8
0
100
AcDbVertex
100
AcDbPolygonMeshVertex
 10
-0.197
 20
9.0811
 30
5.747
 70
    64
  0
VERTEX
  5
4613E
100
AcDbEntity
  8
0
100
AcDbVertex
100
AcDbPolygonMeshVertex
 10
-0.197
 20
10.0432
 30
5.837
 70
    64
  0
VERTEX
  5
4613F
100
AcDbEntity
  8
0
100
AcDbVertex
100
AcDbPolygonMeshVertex
 10
-0.197
 20
10.0432
 30
5.747
 70
    64
  0
VERTEX
  5
46140
100
AcDbEntity
  8
0
100
AcDbVertex
100
AcDbPolygonMeshVertex
 10
-0.197
 20
9.0811
 30
5.747
 70
    64
  0
VERTEX
  5
46141
100
AcDbEntity
  8
0
100
AcDbVertex
100
AcDbPolygonMeshVertex
 10
0.265
 20
10.0432
 30
5.837
 70
    64
  0
VERTEX
  5
46142
100
AcDbEntity
  8
0
100
AcDbVertex
100
AcDbPolygonMeshVertex
 10
0.265
 20
10.0432
 30
5.747
 70
    64
  0
VERTEX
  5
46143
100
AcDbEntity
  8
0
100
AcDbVertex
100
AcDbPolygonMeshVertex
 10
0.265
 20
9.0811
 30
5.747
 70
    64
  0
VERTEX
  5
46144
100
AcDbEntity
  8
0
100
AcDbVertex
100
AcDbPolygonMeshVertex
 10
0.265
 20
10.0432
 30
5.837
 70
    64
  0
VERTEX
  5
46145
100
AcDbEntity
  8
0
100
AcDbVertex
100
AcDbPolygonMeshVertex
 10
0.265
 20
10.0432
 30
5.837
 70
    64
  0
VERTEX
  5
46146
100
AcDbEntity
  8
0
100
AcDbVertex
100
AcDbPolygonMeshVertex
 10
0.265
 20
9.0811
 30
5.837
 70
    64
  0
VERTEX
  5
46147
100
AcDbEntity
  8
0
100
AcDbVertex
100
AcDbPolygonMeshVertex
 10
-0.197
 20
10.0432
 30
5.837
 70
    64
  0
VERTEX
  5
46148
100
AcDbEntity
  8
0
100
AcDbVertex
100
AcDbPolygonMeshVertex
 10
-0.197
 20
10.0432
 30
5.837
 70
    64
  0
VERTEX
  5
46149
100
AcDbEntity
  8
0
100
AcDbVertex
100
AcDbPolygonMeshVertex
 10
-0.197
 20
9.0811
 30
5.837
 70
    64
  0
SEQEND
  5
4614A
100
AcDbEntity
  8
0
  0
POLYLINE
  5
4614B
100
AcDbEntity
  8
0
100
AcDbPolygonMesh
 66
     1
 10
0.0
 20
0.0
 30
0.0
 70
    16
 71
     6
 72
     3
  0
VERTEX
  5
4614C
100
AcDbEntity
  8
0
100
AcDbVertex
100
AcDbPolygonMeshVertex
 10
0.068
 20
8.912
 30
5.747
 70
    64
  0
VERTEX
  5
4614D
100
AcDbEntity
  8
0
100
AcDbVertex
100
AcDbPolygonMeshVertex
 10
0.068
 20
8.912
 30
5.39
 70
    64
  0
VERTEX
  5
4614E
100
AcDbEntity
  8
0
100
AcDbVertex
100
AcDbPolygonMeshVertex
 10
0.068
 20
8.912
 30
5.39
 70
    64
  0
VERTEX
  5
4614F
100
AcDbEntity
  8
0
100
AcDbVertex
100
AcDbPolygonMeshVertex
 10
0.0
 20
8.912
 30
5.747
 70
    64
  0
VERTEX
  5
46150
100
AcDbEntity
  8
0
100
AcDbVertex
100
AcDbPolygonMeshVertex
 10
0.0
 20
8.912
 30
5.39
 70
    64
  0
VERTEX
  5
46151
100
AcDbEntity
  8
0
100
AcDbVertex
100
AcDbPolygonMeshVertex
 10
0.0
 20
8.912
 30
5.39
 70
    64
  0
VERTEX
  5
46152
100
AcDbEntity
  8
0
100
AcDbVertex
100
AcDbPolygonMeshVertex
 10
0.0
 20
9.6931
 30
5.747
 70
    64
  0
VERTEX
  5
46153
100
AcDbEntity
  8
0
100
AcDbVertex
100
AcDbPolygonMeshVertex
 10
0.0
 20
9.6931
 30
5.39
 70
    64
  0
VERTEX
  5
46154
100
AcDbEntity
  8
0
100
AcDbVertex
100
AcDbPolygonMeshVertex
 10
0.0
 20
8.912
 30
5.39
 70
    64
  0
VERTEX
  5
46155
100
AcDbEntity
  8
0
100
AcDbVertex
100
AcDbPolygonMeshVertex
 10
0.068
 20
9.6931
 30
5.747
 70
    64
  0
VERTEX
  5
46156
100
AcDbEntity
  8
0
100
AcDbVertex
100
AcDbPolygonMeshVertex
 10
0.068
 20
9.6931
 30
5.39
 70
    64
  0
VERTEX
  5
46157
100
AcDbEntity
  8
0
100
AcDbVertex
100
AcDbPolygonMeshVertex
 10
0.068
 20
8.912
 30
5.39
 70
    64
  0
VERTEX
  5
46158
100
AcDbEntity
  8
0
100
AcDbVertex
100
AcDbPolygonMeshVertex
 10
0.068
 20
9.6931
 30
5.747
 70
    64
  0
VERTEX
  5
46159
100
AcDbEntity
  8
0
100
AcDbVertex
100
AcDbPolygonMeshVertex
 10
0.068
 20
9.6931
 30
5.747
 70
    64
  0
VERTEX
  5
4615A
100
AcDbEntity
  8
0
100
AcDbVertex
100
AcDbPolygonMeshVertex
 10
0.068
 20
8.912
 30
5.747
 70
    64
  0
VERTEX
  5
4615B
100
AcDbEntity
  8
0
100
AcDbVertex
100
AcDbPolygonMeshVertex
 10
0.0
 20
9.6931
 30
5.747
 70
    64
  0
VERTEX
  5
4615C
100
AcDbEntity
  8
0
100
AcDbVertex
100
AcDbPolygonMeshVertex
 10
0.0
 20
9.6931
 30
5.747
 70
    64
  0
VERTEX
  5
4615D
100
AcDbEntity
  8
0
100
AcDbVertex
100
AcDbPolygonMeshVertex
 10
0.0
 20
8.912
 30
5.747
 70
    64
  0
SEQEND
  5
4615E
100
AcDbEntity
  8
0
  0
POLYLINE
  5
4615F
100
AcDbEntity
  8
0
100
AcDbPolygonMesh
 66
     1
 10
0.0
 20
0.0
 30
0.0
 70
    16
 71
     6
 72
     3
  0
VERTEX
  5
46160
100
AcDbEntity
  8
0
100
AcDbVertex
100
AcDbPolygonMeshVertex
 10
0.136
 20
9.0811
 30
5.747
 70
    64
  0
VERTEX
  5
46161
100
AcDbEntity
  8
0
100
AcDbVertex
100
AcDbPolygonMeshVertex
 10
0.136
 20
9.0811
 30
5.747
 70
    64
  0
VERTEX
  5
46162
100
AcDbEntity
  8
0
100
AcDbVertex
100
AcDbPolygonMeshVertex
 10
0.136
 20
9.0811
 30
5.747
 70
    64
  0
VERTEX
  5
46163
100
AcDbEntity
  8
0
100
AcDbVertex
100
AcDbPolygonMeshVertex
 10
0.136
 20
9.6931
 30
5.437
 70
    64
  0
VERTEX
  5
46164
100
AcDbEntity
  8
0
100
AcDbVertex
100
AcDbPolygonMeshVertex
 10
0.136
 20
9.6931
 30
5.747
 70
    64
  0
VERTEX
  5
46165
100
AcDbEntity
  8
0
100
AcDbVertex
100
AcDbPolygonMeshVertex
 10
0.136
 20
9.6931
 30
5.747
 70
    64
  0
VERTEX
  5
46166
100
AcDbEntity
  8
0
100
AcDbVertex
100
AcDbPolygonMeshVertex
 10
0.068
 20
9.6931
 30
5.437
 70
    64
  0
VERTEX
  5
46167
100
AcDbEntity
  8
0
100
AcDbVertex
100
AcDbPolygonMeshVertex
 10
0.068
 20
9.6931
 30
5.747
 70
    64
  0
VERTEX
  5
46168
100
AcDbEntity
  8
0
100
AcDbVertex
100
AcDbPolygonMeshVertex
 10
0.136
 20
9.6931
 30
5.747
 70
    64
  0
VERTEX
  5
46169
100
AcDbEntity
  8
0
100
AcDbVertex
100
AcDbPolygonMeshVertex
 10
0.068
 20
9.0811
 30
5.747
 70
    64
  0
VERTEX
  5
4616A
100
AcDbEntity
  8
0
100
AcDbVertex
100
AcDbPolygonMeshVertex
 10
0.068
 20
9.0811
 30
5.747
 70
    64
  0
VERTEX
  5
4616B
100
AcDbEntity
  8
0
100
AcDbVertex
100
AcDbPolygonMeshVertex
 10
0.136
 20
9.0811
 30
5.747
 70
    64
  0
VERTEX
  5
4616C
100
AcDbEntity
  8
0
100
AcDbVertex
100
AcDbPolygonMeshVertex
 10
0.068
 20
9.0811
 30
5.747
 70
    64
  0
VERTEX
  5
4616D
100
AcDbEntity
  8
0
100
AcDbVertex
100
AcDbPolygonMeshVertex
 10
0.068
 20
9.0811
 30
5.747
 70
    64
  0
VERTEX
  5
4616E
100
AcDbEntity
  8
0
100
AcDbVertex
100
AcDbPolygonMeshVertex
 10
0.136
 20
9.0811
 30
5.747
 70
    64
  0
VERTEX
  5
4616F
100
AcDbEntity
  8
0
100
AcDbVertex
100
AcDbPolygonMeshVertex
 10
0.068
 20
9.6931
 30
5.437
 70
    64
  0
VERTEX
  5
46170
100
AcDbEntity
  8
0
100
AcDbVertex
100
AcDbPolygonMeshVertex
 10
0.068
 20
9.6931
 30
5.437
 70
    64
  0
VERTEX
  5
46171
100
AcDbEntity
  8
0
100
AcDbVertex
100
AcDbPolygonMeshVertex
 10
0.136
 20
9.6931
 30
5.437
 70
    64
  0
SEQEND
  5
46172
100
AcDbEntity
  8
0
  0
POLYLINE
  5
46173
100
AcDbEntity
  8
0
100
AcDbPolygonMesh
 66
     1
 10
0.0
 20
0.0
 30
0.0
 70
    16
 71
     6
 72
     3
  0
VERTEX
  5
46174
100
AcDbEntity
  8
0
100
AcDbVertex
100
AcDbPolygonMeshVertex
 10
0.0
 20
9.0811
 30
5.747
 70
    64
  0
VERTEX
  5
46175
100
AcDbEntity
  8
0
100
AcDbVertex
100
AcDbPolygonMeshVertex
 10
0.0
 20
9.0811
 30
5.747
 70
    64
  0
VERTEX
  5
46176
100
AcDbEntity
  8
0
100
AcDbVertex
100
AcDbPolygonMeshVertex
 10
0.0
 20
9.0811
 30
5.747
 70
    64
  0
VERTEX
  5
46177
100
AcDbEntity
  8
0
100
AcDbVertex
100
AcDbPolygonMeshVertex
 10
0.0
 20
9.6931
 30
5.437
 70
    64
  0
VERTEX
  5
46178
100
AcDbEntity
  8
0
100
AcDbVertex
100
AcDbPolygonMeshVertex
 10
0.0
 20
9.6931
 30
5.747
 70
    64
  0
VERTEX
  5
46179
100
AcDbEntity
  8
0
100
AcDbVertex
100
AcDbPolygonMeshVertex
 10
0.0
 20
9.6931
 30
5.747
 70
    64
  0
VERTEX
  5
4617A
100
AcDbEntity
  8
0
100
AcDbVertex
100
AcDbPolygonMeshVertex
 10
-0.068
 20
9.6931
 30
5.437
 70
    64
  0
VERTEX
  5
4617B
100
AcDbEntity
  8
0
100
AcDbVertex
100
AcDbPolygonMeshVertex
 10
-0.068
 20
9.6931
 30
5.747
 70
    64
  0
VERTEX
  5
4617C
100
AcDbEntity
  8
0
100
AcDbVertex
100
AcDbPolygonMeshVertex
 10
0.0
 20
9.6931
 30
5.747
 70
    64
  0
VERTEX
  5
4617D
100
AcDbEntity
  8
0
100
AcDbVertex
100
AcDbPolygonMeshVertex
 10
-0.068
 20
9.0811
 30
5.747
 70
    64
  0
VERTEX
  5
4617E
100
AcDbEntity
  8
0
100
AcDbVertex
100
AcDbPolygonMeshVertex
 10
-0.068
 20
9.0811
 30
5.747
 70
    64
  0
VERTEX
  5
4617F
100
AcDbEntity
  8
0
100
AcDbVertex
100
AcDbPolygonMeshVertex
 10
0.0
 20
9.0811
 30
5.747
 70
    64
  0
VERTEX
  5
46180
100
AcDbEntity
  8
0
100
AcDbVertex
100
AcDbPolygonMeshVertex
 10
-0.068
 20
9.0811
 30
5.747
 70
    64
  0
VERTEX
  5
46181
100
AcDbEntity
  8
0
100
AcDbVertex
100
AcDbPolygonMeshVertex
 10
-0.068
 20
9.0811
 30
5.747
 70
    64
  0
VERTEX
  5
46182
100
AcDbEntity
  8
0
100
AcDbVertex
100
AcDbPolygonMeshVertex
 10
0.0
 20
9.0811
 30
5.747
 70
    64
  0
VERTEX
  5
46183
100
AcDbEntity
  8
0
100
AcDbVertex
100
AcDbPolygonMeshVertex
 10
-0.068
 20
9.6931
 30
5.437
 70
    64
  0
VERTEX
  5
46184
100
AcDbEntity
  8
0
100
AcDbVertex
100
AcDbPolygonMeshVertex
 10
-0.068
 20
9.6931
 30
5.437
 70
    64
  0
VERTEX
  5
46185
100
AcDbEntity
  8
0
100
AcDbVertex
100
AcDbPolygonMeshVertex
 10
0.0
 20
9.6931
 30
5.437
 70
    64
  0
SEQEND
  5
46186
100
AcDbEntity
  8
0
  0
CIRCLE
  5
46187
100
AcDbEntity
  8
0
100
AcDbCircle
 10
9.586379
 20
5.592
 30
-0.068
 40
0.05206
210
1.0
220
0.0
230
0.0
  0
CIRCLE
  5
46188
100
AcDbEntity
  8
0
100
AcDbCircle
 10
9.586379
 20
5.592
 30
0.136
 40
0.05206
210
1.0
220
0.0
230
0.0
  0
LINE
  5
46189
100
AcDbEntity
  8
0
100
AcDbLine
 10
-0.228704
 20
8.069942
 30
5.88
 11
-0.248806
 21
8.064918
 31
5.88
  0
LINE
  5
4618A
100
AcDbEntity
  8
0
100
AcDbLine
 10
-0.253831
 20
8.225654
 30
5.88
 11
-0.233729
 21
8.220631
 31
5.88
  0
LINE
  5
4618B
100
AcDbEntity
  8
0
100
AcDbLine
 10
-0.253831
 20
8.295977
 30
5.88
 11
-0.228704
 21
8.290954
 31
5.88
  0
LINE
  5
4618C
100
AcDbEntity
  8
0
100
AcDbLine
 10
-0.364394
 20
8.240723
 30
5.88
 11
-0.349316
 21
8.260816
 31
5.88
  0
LINE
  5
4618D
100
AcDbEntity
  8
0
100
AcDbLine
 10
-0.374443
 20
8.215607
 30
5.88
 11
-0.364394
 21
8.240723
 31
5.88
  0
LINE
  5
4618E
100
AcDbEntity
  8
0
100
AcDbLine
 10
-0.374443
 20
8.190493
 30
5.88
 11
-0.374443
 21
8.215607
 31
5.88
  0
LINE
  5
4618F
100
AcDbEntity
  8
0
100
AcDbLine
 10
-0.354343
 20
8.150308
 30
5.88
 11
-0.349316
 21
8.175424
 31
5.88
  0
LINE
  5
46190
100
AcDbEntity
  8
0
100
AcDbLine
 10
-0.349316
 20
8.130216
 30
5.88
 11
-0.354343
 21
8.150308
 31
5.88
  0
LINE
  5
46191
100
AcDbEntity
  8
0
100
AcDbLine
 10
-0.34429
 20
8.110123
 30
5.88
 11
-0.349316
 21
8.130216
 31
5.88
  0
LINE
  5
46192
100
AcDbEntity
  8
0
100
AcDbLine
 10
-0.334239
 20
8.090034
 30
5.88
 11
-0.34429
 21
8.110123
 31
5.88
  0
LINE
  5
46193
100
AcDbEntity
  8
0
100
AcDbLine
 10
-0.314137
 20
8.074962
 30
5.88
 11
-0.334239
 21
8.090034
 31
5.88
  0
LINE
  5
46194
100
AcDbEntity
  8
0
100
AcDbLine
 10
-0.294035
 20
8.064918
 30
5.88
 11
-0.314137
 21
8.074962
 31
5.88
  0
LINE
  5
46195
100
AcDbEntity
  8
0
100
AcDbLine
 10
-0.273933
 20
8.059893
 30
5.88
 11
-0.294035
 21
8.064918
 31
5.88
  0
LINE
  5
46196
100
AcDbEntity
  8
0
100
AcDbLine
 10
-0.248806
 20
8.064918
 30
5.88
 11
-0.273933
 21
8.059893
 31
5.88
  0
LINE
  5
46197
100
AcDbEntity
  8
0
100
AcDbLine
 10
-0.278959
 20
8.225654
 30
5.88
 11
-0.253831
 21
8.225654
 31
5.88
  0
LINE
  5
46198
100
AcDbEntity
  8
0
100
AcDbLine
 10
-0.299061
 20
8.220631
 30
5.88
 11
-0.278959
 21
8.225654
 31
5.88
  0
LINE
  5
46199
100
AcDbEntity
  8
0
100
AcDbLine
 10
-0.319163
 20
8.210586
 30
5.88
 11
-0.299061
 21
8.220631
 31
5.88
  0
LINE
  5
4619A
100
AcDbEntity
  8
0
100
AcDbLine
 10
-0.334239
 20
8.195517
 30
5.88
 11
-0.319163
 21
8.210586
 31
5.88
  0
LINE
  5
4619B
100
AcDbEntity
  8
0
100
AcDbLine
 10
-0.349316
 20
8.175424
 30
5.88
 11
-0.334239
 21
8.195517
 31
5.88
  0
LINE
  5
4619C
100
AcDbEntity
  8
0
100
AcDbLine
 10
-0.278959
 20
8.295977
 30
5.88
 11
-0.253831
 21
8.295977
 31
5.88
  0
LINE
  5
4619D
100
AcDbEntity
  8
0
100
AcDbLine
 10
-0.304086
 20
8.290954
 30
5.88
 11
-0.278959
 21
8.295977
 31
5.88
  0
LINE
  5
4619E
100
AcDbEntity
  8
0
100
AcDbLine
 10
-0.329216
 20
8.275885
 30
5.88
 11
-0.304086
 21
8.290954
 31
5.88
  0
LINE
  5
4619F
100
AcDbEntity
  8
0
100
AcDbLine
 10
-0.349316
 20
8.260816
 30
5.88
 11
-0.329216
 21
8.275885
 31
5.88
  0
LINE
  5
461A0
100
AcDbEntity
  8
0
100
AcDbLine
 10
-0.188498
 20
8.260816
 30
5.88
 11
-0.173422
 21
8.240723
 31
5.88
  0
LINE
  5
461A1
100
AcDbEntity
  8
0
100
AcDbLine
 10
-0.213626
 20
8.085009
 30
5.88
 11
-0.228704
 21
8.069942
 31
5.88
  0
LINE
  5
461A2
100
AcDbEntity
  8
0
100
AcDbLine
 10
-0.198549
 20
8.105101
 30
5.88
 11
-0.213626
 21
8.085009
 31
5.88
  0
LINE
  5
461A3
100
AcDbEntity
  8
0
100
AcDbLine
 10
-0.188498
 20
8.125194
 30
5.88
 11
-0.198549
 21
8.105101
 31
5.88
  0
LINE
  5
461A4
100
AcDbEntity
  8
0
100
AcDbLine
 10
-0.188498
 20
8.145284
 30
5.88
 11
-0.188498
 21
8.125194
 31
5.88
  0
LINE
  5
461A5
100
AcDbEntity
  8
0
100
AcDbLine
 10
-0.193525
 20
8.170401
 30
5.88
 11
-0.188498
 21
8.145284
 31
5.88
  0
LINE
  5
461A6
100
AcDbEntity
  8
0
100
AcDbLine
 10
-0.198549
 20
8.190493
 30
5.88
 11
-0.193525
 21
8.170401
 31
5.88
  0
LINE
  5
461A7
100
AcDbEntity
  8
0
100
AcDbLine
 10
-0.213626
 20
8.205562
 30
5.88
 11
-0.198549
 21
8.190493
 31
5.88
  0
LINE
  5
461A8
100
AcDbEntity
  8
0
100
AcDbLine
 10
-0.233729
 20
8.220631
 30
5.88
 11
-0.213626
 21
8.205562
 31
5.88
  0
LINE
  5
461A9
100
AcDbEntity
  8
0
100
AcDbLine
 10
-0.163371
 20
8.215607
 30
5.88
 11
-0.158345
 21
8.190493
 31
5.88
  0
LINE
  5
461AA
100
AcDbEntity
  8
0
100
AcDbLine
 10
-0.173422
 20
8.240723
 30
5.88
 11
-0.163371
 21
8.215607
 31
5.88
  0
LINE
  5
461AB
100
AcDbEntity
  8
0
100
AcDbLine
 10
-0.208602
 20
8.275885
 30
5.88
 11
-0.188498
 21
8.260816
 31
5.88
  0
LINE
  5
461AC
100
AcDbEntity
  8
0
100
AcDbLine
 10
-0.228704
 20
8.290954
 30
5.88
 11
-0.208602
 21
8.275885
 31
5.88
  0
DIMENSION
  5
461AE
100
AcDbEntity
  8
AREA1
100
AcDbDimension
  2
*D0
 10
1.241299
 20
10.0432
 30
0.0
 11
1.241299
 21
4.703807
 31
0.0
 70
    32
  3
ABECAD_3D
100
AcDbAlignedDimension
 13
-0.123077
 23
-0.635587
 33
5.88
 14
0.265
 24
10.0432
 34
5.747
 50
90.0
100
AcDbRotatedDimension
  0
DIMENSION
  5
461BC
100
AcDbEntity
  8
AREA1
100
AcDbDimension
  2
*D1
 10
0.265
 20
10.817272
 30
0.0
 11
1.525
 21
10.817272
 31
0.0
 70
    32
  3
ABECAD_3D
100
AcDbAlignedDimension
 13
-0.89
 23
9.8
 33
0.0
 14
0.265
 24
10.0432
 34
5.747
100
AcDbRotatedDimension
  0
LINE
  5
461FF
100
AcDbEntity
  8
SCALE
100
AcDbLine
 10
-0.853267
 20
-1.248164
 30
0.0
 11
0.146733
 21
-1.248164
 31
0.0
  0
LINE
  5
46200
100
AcDbEntity
  8
SCALE
100
AcDbLine
 10
0.146733
 20
-1.248164
 30
0.0
 11
0.146733
 21
-1.348164
 31
0.0
  0
LINE
  5
46201
100
AcDbEntity
  8
SCALE
100
AcDbLine
 10
0.146733
 20
-1.348164
 30
0.0
 11
0.146733
 21
-1.148164
 31
0.0
  0
LINE
  5
46202
100
AcDbEntity
  8
SCALE
100
AcDbLine
 10
-0.853267
 20
-1.348164
 30
0.0
 11
-0.853267
 21
-1.148164
 31
0.0
  0
LINE
  5
46203
100
AcDbEntity
  8
SCALE
100
AcDbLine
 10
-0.853267
 20
-1.648164
 30
0.0
 11
-0.853267
 21
-1.448164
 31
0.0
  0
LINE
  5
46204
100
AcDbEntity
  8
SCALE
100
AcDbLine
 10
-0.459567
 20
-1.648164
 30
0.0
 11
-0.459567
 21
-1.448164
 31
0.0
  0
LINE
  5
46205
100
AcDbEntity
  8
SCALE
100
AcDbLine
 10
-0.853267
 20
-1.548164
 30
0.0
 11
-0.459567
 21
-1.548164
 31
0.0
  0
TEXT
  5
46206
100
AcDbEntity
  8
SCALE
100
AcDbText
 10
-0.793844
 20
-1.502425
 30
0.0
 40
0.0625
  1
[10mm]
100
AcDbText
  0
TEXT
  5
46207
100
AcDbEntity
  8
SCALE
100
AcDbText
 10
-0.489984
 20
-1.179115
 30
0.0
 40
0.0625
  1
1 Inch
100
AcDbText
  0
TEXT
  5
46208
100
AcDbEntity
  8
SCALE
100
AcDbText
 10
-0.851736
 20
-0.973287
 30
0.0
 40
0.0625
  1
SCALE:
100
AcDbText
  0
LWPOLYLINE
  5
46209
100
AcDbEntity
  8
SCALE
100
AcDbPolyline
 90
        4
 70
     1
 43
0.0
 10
-0.911265
 20
-0.868086
 10
0.224364
 20
-0.868086
 10
0.224364
 20
-1.709695
 10
-0.911265
 20
-1.709695
  0
ENDSEC
  0
SECTION
  2
OBJECTS
  0
DICTIONARY
  5
458CB
100
AcDbDictionary
  3
ACAD_GROUP
350
458CC
  3
ACAD_LAYOUT
350
458FB
  3
ACAD_MLINESTYLE
350
458D9
  3
ACAD_PLOTSETTINGS
350
458FC
  3
ACAD_PLOTSTYLENAME
350
458F9
  3
ACDBHEADERROUNDTRIPXREC
350
462AB
  3
ACDBVARIABLEDICTIONARY
350
458E1
  3
DWGPROPS
350
45901
  0
DICTIONARY
  5
462A9
100
AcDbDictionary
280
     1
  3
ACAD_XREC_ROUNDTRIP
360
462AA
  0
DICTIONARY
  5
462D4
100
AcDbDictionary
280
     1
  3
ACAD_XREC_ROUNDTRIP
360
462D5
  0
DICTIONARY
  5
462A7
100
AcDbDictionary
280
     1
  3
ACAD_XREC_ROUNDTRIP
360
462A8
  0
DICTIONARY
  5
462CE
100
AcDbDictionary
280
     1
  3
ACAD_XREC_ROUNDTRIP
360
462CF
  0
DICTIONARY
  5
462D0
100
AcDbDictionary
280
     1
  3
ACAD_XREC_ROUNDTRIP
360
462D1
  0
DICTIONARY
  5
4592C
100
AcDbDictionary
280
     1
  3
ACAD_LAYOUTSELFREF
360
462CD
  0
DICTIONARY
  5
4592A
100
AcDbDictionary
280
     1
  3
ACAD_LAYOUTSELFREF
360
462CC
  0
DICTIONARY
  5
458CC
102
{ACAD_REACTORS
330
458CB
102
}
100
AcDbDictionary
  0
DICTIONARY
  5
458FB
102
{ACAD_XDICTIONARY
360
462D2
102
}
102
{ACAD_REACTORS
330
458CB
102
}
100
AcDbDictionary
  3
LAYOUT1
350
458FE
  3
MODEL
350
458FD
  0
DICTIONARY
  5
458D9
102
{ACAD_REACTORS
330
458CB
102
}
100
AcDbDictionary
  3
STANDARD
350
458DA
  0
DICTIONARY
  5
458FC
102
{ACAD_REACTORS
330
458CB
102
}
100
AcDbDictionary
  0
ACAD_PROXY_OBJECT
  5
458F9
102
{ACAD_REACTORS
330
458CB
102
}
100
AcDbProxyObject
 90
      499
 91
      501
 93
       86
310
405010041939BDC9B585B0
350
458FA
340
458FA
 94
        0
  0
DICTIONARY
  5
462AB
102
{ACAD_REACTORS
330
458CB
102
}
100
AcDbDictionary
  3
CEPSNTYPE
350
462B5
  3
DIMSTYLEDATA
350
462B9
  3
FINGERPRINTGUID
350
462B6
  3
HYPERLINKBASE
350
462AE
  3
INSUNITS
350
462B4
  3
LAYOUTDICT
350
462B0
  3
LWETCUNION
350
462B3
  3
PLOTSETDICT
350
462B1
  3
PLOTSTYLNAMDICT
350
462B2
  3
PSVPSCALE
350
462B8
  3
PUCSBASE
350
462BC
  3
PUCSORGBACK
350
462C2
  3
PUCSORGBOTTOM
350
462BE
  3
PUCSORGFRONT
350
462C1
  3
PUCSORGLEFT
350
462BF
  3
PUCSORGRIGHT
350
462C0
  3
PUCSORGTOP
350
462BD
  3
PUCSORTHOREF
350
462BA
  3
PUCSORTHOVIEW
350
462BB
  3
STYLESHEET
350
462AF
  3
TSTACKALIGN
350
462AC
  3
TSTACKSIZE
350
462AD
  3
UCSBASE
350
462C5
  3
UCSORGBACK
350
462CB
  3
UCSORGBOTTOM
350
462C7
  3
UCSORGFRONT
350
462CA
  3
UCSORGLEFT
350
462C8
  3
UCSORGRIGHT
350
462C9
  3
UCSORGTOP
350
462C6
  3
UCSORTHOREF
350
462C3
  3
UCSORTHOVIEW
350
462C4
  3
VERSIONGUID
350
462B7
  0
DICTIONARY
  5
458E1
102
{ACAD_REACTORS
330
458CB
102
}
100
AcDbDictionary
  3
DIMADEC
350
458E2
  0
XRECORD
  5
45901
102
{ACAD_REACTORS
330
458CB
102
}
100
AcDbXrecord
  1
DWGPROPS COOKIE
  2

  3

  4

  6

  7

  8
colin
  9

300
=
301
=
302
=
303
=
304
=
305
=
306
=
307
=
308
=
309
=
 40
0.000599
 41
2451670.444777
 42
2451670.445376
  1

 90
        0
  0
XRECORD
  5
462AA
102
{ACAD_REACTORS
330
462A9
102
}
100
AcDbXrecord
102
EXTNAMES
  1
*ACTIVE
  2
*Active
102
UCS
 74
     0
 71
     1
 10
0.0
 20
0.0
 30
0.0
 10
1.0
 20
0.0
 30
0.0
 10
0.0
 20
1.0
 30
0.0
146
0.0
 79
     1
102
VIEW
281
     0
  0
XRECORD
  5
462D5
102
{ACAD_REACTORS
330
462D4
102
}
100
AcDbXrecord
102
PLOTBIT
280
     0
  0
XRECORD
  5
462A8
102
{ACAD_REACTORS
330
462A7
102
}
100
AcDbXrecord
102
EXTNAMES
  1
DEFPOINTS
  2
Defpoints
102
PLOTBIT
280
     0
  0
XRECORD
  5
462CF
102
{ACAD_REACTORS
330
462CE
102
}
100
AcDbXrecord
102
ACADR14ROUNDTRIP
1000
DSTYLE
1002
{
1070
   276
 70
     2
1070
   277
 70
     5
1002
}
  0
XRECORD
  5
462D1
102
{ACAD_REACTORS
330
462D0
102
}
100
AcDbXrecord
102
ACADR14ROUNDTRIP
1000
DSTYLE
1002
{
1070
   276
 70
     2
1070
   277
 70
     5
1002
}
  0
XRECORD
  5
462CD
102
{ACAD_REACTORS
330
4592C
102
}
100
AcDbXrecord
340
458D6
  0
XRECORD
  5
462CC
102
{ACAD_REACTORS
330
4592A
102
}
100
AcDbXrecord
340
458D3
  0
DICTIONARY
  5
462D2
100
AcDbDictionary
280
     1
  3
ACAD_XREC_ROUNDTRIP
360
462D3
  0
ACAD_PROXY_OBJECT
  5
458FE
102
{ACAD_REACTORS
330
458FB
102
}
100
AcDbProxyObject
 90
      499
 91
      503
 93
     1348
310
91D4850204C617365724A65742035303030205365726965732050434C20362C00AAAAAA416AA547D11959985D5B1D08148C4D081C195B88185CDCDA59DB9B595B9D1CCB98DD1891069074C61796F75743140501A800000000000000000000000000000000000000000000A1000000000000008902A6A6A10232D5E076BC551
310
0408CB5781DAF154410232D5E076BC5510408CB5781DAF15C410232D5E076BC5710408CB5781DAF15C40
330
458D3
330
0
340
0
340
0
 94
        0
  0
ACAD_PROXY_OBJECT
  5
458FD
102
{ACAD_REACTORS
330
458FB
102
}
100
AcDbProxyObject
 90
      499
 91
      503
 93
      924
310
91D4850204C617365724A65742035303030205365726965732050434C20362C01AAAAAAAAA547D11959985D5B1D08148C4D081C195B88185CDCDA59DB9B595B9D1CCB98DD18A69054D6F64656C901A800000000000000000000000000000000000000000000A1000000000000008902A6A6AAAA0
330
458D6
330
0
340
0
340
0
 94
        0
  0
MLINESTYLE
  5
458DA
102
{ACAD_REACTORS
330
458D9
102
}
100
AcDbMlineStyle
  2
STANDARD
 70
     0
  3

 62
   256
 51
90.0
 52
90.0
 71
     2
 49
0.5
 62
   256
  6
BYLAYER
 49
-0.5
 62
   256
  6
BYLAYER
  0
ACAD_PROXY_OBJECT
  5
458FA
102
{ACAD_REACTORS
330
458F9
102
}
100
AcDbProxyObject
 90
      499
 91
      502
 93
        0
 94
        0
  0
XRECORD
  5
462B5
102
{ACAD_REACTORS
330
462AB
102
}
100
AcDbXrecord
 90
        0
  0
XRECORD
  5
462B9
102
{ACAD_REACTORS
330
462AB
102
}
100
AcDbXrecord
1000
DSTYLE
1002
{
1070
   276
 70
     2
1070
   277
 70
     5
1002
}
  0
XRECORD
  5
462B6
102
{ACAD_REACTORS
330
462AB
102
}
100
AcDbXrecord
  1
{6E0CF4B8-225E-11D4-A150-00A0CC3303EC}
  0
XRECORD
  5
462AE
102
{ACAD_REACTORS
330
462AB
102
}
100
AcDbXrecord
  1

  0
XRECORD
  5
462B4
102
{ACAD_REACTORS
330
462AB
102
}
100
AcDbXrecord
 90
        0
  0
XRECORD
  5
462B0
102
{ACAD_REACTORS
330
462AB
102
}
100
AcDbXrecord
340
458FB
  0
XRECORD
  5
462B3
102
{ACAD_REACTORS
330
462AB
102
}
100
AcDbXrecord
 90
    14877
  0
XRECORD
  5
462B1
102
{ACAD_REACTORS
330
462AB
102
}
100
AcDbXrecord
340
458FC
  0
XRECORD
  5
462B2
102
{ACAD_REACTORS
330
462AB
102
}
100
AcDbXrecord
340
458F9
  0
XRECORD
  5
462B8
102
{ACAD_REACTORS
330
462AB
102
}
100
AcDbXrecord
 40
0.0
  0
XRECORD
  5
462BC
102
{ACAD_REACTORS
330
462AB
102
}
100
AcDbXrecord
340
0
  0
XRECORD
  5
462C2
102
{ACAD_REACTORS
330
462AB
102
}
100
AcDbXrecord
 10
0.0
 20
0.0
 30
0.0
  0
XRECORD
  5
462BE
102
{ACAD_REACTORS
330
462AB
102
}
100
AcDbXrecord
 10
0.0
 20
0.0
 30
0.0
  0
XRECORD
  5
462C1
102
{ACAD_REACTORS
330
462AB
102
}
100
AcDbXrecord
 10
0.0
 20
0.0
 30
0.0
  0
XRECORD
  5
462BF
102
{ACAD_REACTORS
330
462AB
102
}
100
AcDbXrecord
 10
0.0
 20
0.0
 30
0.0
  0
XRECORD
  5
462C0
102
{ACAD_REACTORS
330
462AB
102
}
100
AcDbXrecord
 10
0.0
 20
0.0
 30
0.0
  0
XRECORD
  5
462BD
102
{ACAD_REACTORS
330
462AB
102
}
100
AcDbXrecord
 10
0.0
 20
0.0
 30
0.0
  0
XRECORD
  5
462BA
102
{ACAD_REACTORS
330
462AB
102
}
100
AcDbXrecord
340
0
  0
XRECORD
  5
462BB
102
{ACAD_REACTORS
330
462AB
102
}
100
AcDbXrecord
 70
     0
  0
XRECORD
  5
462AF
102
{ACAD_REACTORS
330
462AB
102
}
100
AcDbXrecord
  1

  0
XRECORD
  5
462AC
102
{ACAD_REACTORS
330
462AB
102
}
100
AcDbXrecord
 90
        1
  0
XRECORD
  5
462AD
102
{ACAD_REACTORS
330
462AB
102
}
100
AcDbXrecord
 90
       70
  0
XRECORD
  5
462C5
102
{ACAD_REACTORS
330
462AB
102
}
100
AcDbXrecord
340
0
  0
XRECORD
  5
462CB
102
{ACAD_REACTORS
330
462AB
102
}
100
AcDbXrecord
 10
0.0
 20
0.0
 30
0.0
  0
XRECORD
  5
462C7
102
{ACAD_REACTORS
330
462AB
102
}
100
AcDbXrecord
 10
0.0
 20
0.0
 30
0.0
  0
XRECORD
  5
462CA
102
{ACAD_REACTORS
330
462AB
102
}
100
AcDbXrecord
 10
0.0
 20
0.0
 30
0.0
  0
XRECORD
  5
462C8
102
{ACAD_REACTORS
330
462AB
102
}
100
AcDbXrecord
 10
0.0
 20
0.0
 30
0.0
  0
XRECORD
  5
462C9
102
{ACAD_REACTORS
330
462AB
102
}
100
AcDbXrecord
 10
0.0
 20
0.0
 30
0.0
  0
XRECORD
  5
462C6
102
{ACAD_REACTORS
330
462AB
102
}
100
AcDbXrecord
 10
0.0
 20
0.0
 30
0.0
  0
XRECORD
  5
462C3
102
{ACAD_REACTORS
330
462AB
102
}
100
AcDbXrecord
340
0
  0
XRECORD
  5
462C4
102
{ACAD_REACTORS
330
462AB
102
}
100
AcDbXrecord
 70
     1
  0
XRECORD
  5
462B7
102
{ACAD_REACTORS
330
462AB
102
}
100
AcDbXrecord
  1
{C65928F6-A3EB-4F26-BD45-B40970F655DB}
  0
DICTIONARYVAR
  5
458E2
102
{ACAD_REACTORS
330
458E1
102
}
100
DictionaryVariables
280
     0
  1
0
  0
XRECORD
  5
462D3
102
{ACAD_REACTORS
330
462D2
102
}
100
AcDbXrecord
102
EXTNAMES
  1
LAYOUT1
  2
Layout1
  1
MODEL
  2
Model
  0
ENDSEC
  0
EOF
