  0
SECTION
  2
HEADER
  9
$ACADVER
  1
AC1014
  9
$ACADMAINTVER
 70
     8
  9
$DWGCODEPAGE
  3
ANSI_1252
  9
$INSBASE
 10
0.0
 20
0.0
 30
0.0
  9
$EXTMIN
 10
-0.89199
 20
-1.80497
 30
0.0
  9
$EXTMAX
 10
2.52
 20
11.00687
 30
5.880973
  9
$LIMMIN
 10
0.0
 20
0.0
  9
$LIMMAX
 10
12.0
 20
9.0
  9
$ORTHOMODE
 70
     0
  9
$REGENMODE
 70
     1
  9
$FILLMODE
 70
     1
  9
$QTEXTMODE
 70
     0
  9
$MIRRTEXT
 70
     1
  9
$DRAGMODE
 70
     2
  9
$LTSCALE
 40
1.0
  9
$OSMODE
 70
    37
  9
$ATTMODE
 70
     1
  9
$TEXTSIZE
 40
0.12
  9
$TRACEWID
 40
0.05
  9
$TEXTSTYLE
  7
STANDARD
  9
$CLAYER
  8
0
  9
$CELTYPE
  6
BYLAYER
  9
$CECOLOR
 62
   256
  9
$CELTSCALE
 40
1.0
  9
$DELOBJ
 70
     1
  9
$DISPSILH
 70
     0
  9
$DIMSCALE
 40
1.0
  9
$DIMASZ
 40
0.18
  9
$DIMEXO
 40
0.0625
  9
$DIMDLI
 40
0.375
  9
$DIMRND
 40
0.0
  9
$DIMDLE
 40
0.0
  9
$DIMEXE
 40
0.18
  9
$DIMTP
 40
0.0
  9
$DIMTM
 40
0.0
  9
$DIMTXT
 40
0.18
  9
$DIMCEN
 40
0.09
  9
$DIMTSZ
 40
0.0
  9
$DIMTOL
 70
     0
  9
$DIMLIM
 70
     0
  9
$DIMTIH
 70
     0
  9
$DIMTOH
 70
     1
  9
$DIMSE1
 70
     0
  9
$DIMSE2
 70
     0
  9
$DIMTAD
 70
     0
  9
$DIMZIN
 70
     4
  9
$DIMBLK
  1

  9
$DIMASO
 70
     1
  9
$DIMSHO
 70
     1
  9
$DIMPOST
  1

  9
$DIMAPOST
  1

  9
$DIMALT
 70
     1
  9
$DIMALTD
 70
     1
  9
$DIMALTF
 40
25.4
  9
$DIMLFAC
 40
1.0
  9
$DIMTOFL
 70
     0
  9
$DIMTVP
 40
0.0
  9
$DIMTIX
 70
     0
  9
$DIMSOXD
 70
     0
  9
$DIMSAH
 70
     0
  9
$DIMBLK1
  1

  9
$DIMBLK2
  1

  9
$DIMSTYLE
  2
ABECAD_3D
  9
$DIMCLRD
 70
     0
  9
$DIMCLRE
 70
     0
  9
$DIMCLRT
 70
     0
  9
$DIMTFAC
 40
1.5
  9
$DIMGAP
 40
0.09
  9
$DIMJUST
 70
     0
  9
$DIMSD1
 70
     0
  9
$DIMSD2
 70
     0
  9
$DIMTOLJ
 70
     1
  9
$DIMTZIN
 70
     4
  9
$DIMALTZ
 70
     4
  9
$DIMALTTZ
 70
     4
  9
$DIMFIT
 70
     3
  9
$DIMUPT
 70
     0
  9
$DIMUNIT
 70
     7
  9
$DIMDEC
 70
     6
  9
$DIMTDEC
 70
     6
  9
$DIMALTU
 70
     2
  9
$DIMALTTD
 70
     1
  9
$DIMTXSTY
  7
STANDARD
  9
$DIMAUNIT
 70
     0
  9
$LUNITS
 70
     2
  9
$LUPREC
 70
     4
  9
$SKETCHINC
 40
0.1
  9
$FILLETRAD
 40
0.0
  9
$AUNITS
 70
     0
  9
$AUPREC
 70
     0
  9
$MENU
  1
ACAD
  9
$ELEVATION
 40
0.0
  9
$PELEVATION
 40
0.0
  9
$THICKNESS
 40
0.0
  9
$LIMCHECK
 70
     0
  9
$BLIPMODE
 70
     0
  9
$CHAMFERA
 40
0.0
  9
$CHAMFERB
 40
0.0
  9
$CHAMFERC
 40
0.0
  9
$CHAMFERD
 40
0.0
  9
$SKPOLY
 70
     0
  9
$TDCREATE
 40
2451670.444776967
  9
$TDUPDATE
 40
2452010.488594675
  9
$TDINDWG
 40
0.0064306713
  9
$TDUSRTIMER
 40
0.0064306713
  9
$USRTIMER
 70
     1
  9
$ANGBASE
 50
0.0
  9
$ANGDIR
 70
     0
  9
$PDMODE
 70
     3
  9
$PDSIZE
 40
0.09
  9
$PLINEWID
 40
0.0
  9
$COORDS
 70
     1
  9
$SPLFRAME
 70
     1
  9
$SPLINETYPE
 70
     6
  9
$SPLINESEGS
 70
     8
  9
$ATTDIA
 70
     0
  9
$ATTREQ
 70
     1
  9
$HANDLING
 70
     1
  9
$HANDSEED
  5
4660A
  9
$SURFTAB1
 70
     6
  9
$SURFTAB2
 70
     6
  9
$SURFTYPE
 70
     6
  9
$SURFU
 70
     6
  9
$SURFV
 70
     6
  9
$UCSNAME
  2

  9
$UCSORG
 10
0.0
 20
0.0
 30
0.0
  9
$UCSXDIR
 10
1.0
 20
0.0
 30
0.0
  9
$UCSYDIR
 10
0.0
 20
1.0
 30
0.0
  9
$PUCSNAME
  2

  9
$PUCSORG
 10
0.0
 20
0.0
 30
0.0
  9
$PUCSXDIR
 10
1.0
 20
0.0
 30
0.0
  9
$PUCSYDIR
 10
0.0
 20
1.0
 30
0.0
  9
$USERI1
 70
     0
  9
$USERI2
 70
     0
  9
$USERI3
 70
     0
  9
$USERI4
 70
     0
  9
$USERI5
 70
     0
  9
$USERR1
 40
0.0
  9
$USERR2
 40
0.0
  9
$USERR3
 40
0.0
  9
$USERR4
 40
0.0
  9
$USERR5
 40
0.0
  9
$WORLDVIEW
 70
     1
  9
$SHADEDGE
 70
     3
  9
$SHADEDIF
 70
    70
  9
$TILEMODE
 70
     1
  9
$MAXACTVP
 70
    16
  9
$PINSBASE
 10
0.0
 20
0.0
 30
0.0
  9
$PLIMCHECK
 70
     0
  9
$PEXTMIN
 10
1.000000E+20
 20
1.000000E+20
 30
1.000000E+20
  9
$PEXTMAX
 10
-1.000000E+20
 20
-1.000000E+20
 30
-1.000000E+20
  9
$PLIMMIN
 10
0.0
 20
0.0
  9
$PLIMMAX
 10
12.0
 20
9.0
  9
$UNITMODE
 70
     0
  9
$VISRETAIN
 70
     0
  9
$PLINEGEN
 70
     0
  9
$PSLTSCALE
 70
     1
  9
$TREEDEPTH
 70
  3020
  9
$PICKSTYLE
 70
     1
  9
$CMLSTYLE
  2
STANDARD
  9
$CMLJUST
 70
     0
  9
$CMLSCALE
 40
1.0
  9
$PROXYGRAPHICS
 70
     1
  9
$MEASUREMENT
 70
     0
  0
ENDSEC
  0
SECTION
  2
CLASSES
  0
CLASS
  1
DICTIONARYVAR
  2
AcDbDictionaryVar
  3
"AutoCAD"
 90
        0
280
     0
281
     0
  0
CLASS
  1
ACDBDICTIONARYWDFLT
  2
AcDbDictionaryWithDefault
  3
AutoCAD 2000
 90
        0
280
     0
281
     0
  0
CLASS
  1
ACDBPLACEHOLDER
  2
AcDbPlaceHolder
  3
AutoCAD 2000
 90
        0
280
     0
281
     0
  0
CLASS
  1
LAYOUT
  2
AcDbLayout
  3
AutoCAD 2000
 90
        0
280
     0
281
     0
  0
CLASS
  1
LONG_TRANSACTION
  2
AcDbLongTransaction
  3
AutoCAD 2000
 90
        0
280
     0
281
     0
  0
CLASS
  1
LWPOLYLINE
  2
AcDbPolyline
  3
"AutoCAD"
 90
        0
280
     0
281
     1
  0
CLASS
  1
HATCH
  2
AcDbHatch
  3
"ACAD_SEDONA"
 90
        0
280
     0
281
     1
  0
CLASS
  1
XRECORD
  2
AcDbXrecord
  3
"<Built In>"
 90
        0
280
     0
281
     0
  0
CLASS
  1
LONG_TRANSACTION
  2
AcDbLongTransaction
  3
AutoCAD 2000
 90
        0
280
     0
281
     0
  0
CLASS
  1
LWPOLYLINE
  2
AcDbPolyline
  3
"AutoCAD"
 90
        0
280
     0
281
     1
  0
CLASS
  1
HATCH
  2
AcDbHatch
  3
"ACAD_SEDONA"
 90
        0
280
     0
281
     1
  0
CLASS
  1
XRECORD
  2
AcDbXrecord
  3
"<Built In>"
 90
        0
280
     0
281
     0
  0
CLASS
  1
LONG_TRANSACTION
  2
AcDbLongTransaction
  3
AutoCAD 2000
 90
        0
280
     0
281
     0
  0
CLASS
  1
LWPOLYLINE
  2
AcDbPolyline
  3
"AutoCAD"
 90
        0
280
     0
281
     1
  0
CLASS
  1
HATCH
  2
AcDbHatch
  3
"ACAD_SEDONA"
 90
        0
280
     0
281
     1
  0
CLASS
  1
XRECORD
  2
AcDbXrecord
  3
"<Built In>"
 90
        0
280
     0
281
     0
  0
CLASS
  1
LONG_TRANSACTION
  2
AcDbLongTransaction
  3
AutoCAD 2000
 90
        0
280
     0
281
     0
  0
CLASS
  1
LWPOLYLINE
  2
AcDbPolyline
  3
"AutoCAD"
 90
        0
280
     0
281
     1
  0
CLASS
  1
HATCH
  2
AcDbHatch
  3
"ACAD_SEDONA"
 90
        0
280
     0
281
     1
  0
CLASS
  1
XRECORD
  2
AcDbXrecord
  3
"<Built In>"
 90
        0
280
     0
281
     0
  0
CLASS
  1
LONG_TRANSACTION
  2
AcDbLongTransaction
  3
AutoCAD 2000
 90
        0
280
     0
281
     0
  0
CLASS
  1
LWPOLYLINE
  2
AcDbPolyline
  3
"AutoCAD"
 90
        0
280
     0
281
     1
  0
CLASS
  1
HATCH
  2
AcDbHatch
  3
"ACAD_SEDONA"
 90
        0
280
     0
281
     1
  0
CLASS
  1
XRECORD
  2
AcDbXrecord
  3
"<Built In>"
 90
        0
280
     0
281
     0
  0
ENDSEC
  0
SECTION
  2
TABLES
  0
TABLE
  2
VPORT
  5
458C7
100
AcDbSymbolTable
 70
     1
  0
VPORT
  5
465D7
102
{ACAD_XDICTIONARY
360
465DA
102
}
100
AcDbSymbolTableRecord
100
AcDbViewportTableRecord
  2
*ACTIVE
 70
     0
 10
0.0
 20
0.0
 11
1.0
 21
1.0
 12
0.814129
 22
4.60095
 13
0.0
 23
0.0
 14
0.25
 24
0.25
 15
0.25
 25
0.25
 16
0.0
 26
0.0
 36
1.0
 17
0.0
 27
0.0
 37
0.0
 40
13.027961
 41
1.960674
 42
50.0
 43
0.0
 44
0.0
 50
0.0
 51
0.0
 71
     0
 72
 20000
 73
     1
 74
     1
 75
     0
 76
     0
 77
     0
 78
     0
  0
ENDTAB
  0
TABLE
  2
LTYPE
  5
458C4
100
AcDbSymbolTable
 70
     1
  0
LTYPE
  5
458D0
100
AcDbSymbolTableRecord
100
AcDbLinetypeTableRecord
  2
BYBLOCK
 70
     0
  3

 72
    65
 73
     0
 40
0.0
  0
LTYPE
  5
458D1
100
AcDbSymbolTableRecord
100
AcDbLinetypeTableRecord
  2
BYLAYER
 70
     0
  3

 72
    65
 73
     0
 40
0.0
  0
LTYPE
  5
458D2
100
AcDbSymbolTableRecord
100
AcDbLinetypeTableRecord
  2
CONTINUOUS
 70
     0
  3
Solid line
 72
    65
 73
     0
 40
0.0
  0
ENDTAB
  0
TABLE
  2
LAYER
  5
458C1
100
AcDbSymbolTable
 70
     7
  0
LAYER
  5
458CD
100
AcDbSymbolTableRecord
100
AcDbLayerTableRecord
  2
0
 70
     0
 62
     7
  6
CONTINUOUS
  0
LAYER
  5
458EA
100
AcDbSymbolTableRecord
100
AcDbLayerTableRecord
  2
DIMS-MTG-HOLES
 70
     0
 62
     1
  6
CONTINUOUS
  0
LAYER
  5
458EB
100
AcDbSymbolTableRecord
100
AcDbLayerTableRecord
  2
ATTRIBUTES
 70
     0
 62
     7
  6
CONTINUOUS
  0
LAYER
  5
4593B
102
{ACAD_XDICTIONARY
360
46605
102
}
100
AcDbSymbolTableRecord
100
AcDbLayerTableRecord
  2
AREA1
 70
     0
 62
    -7
  6
CONTINUOUS
  0
LAYER
  5
45940
102
{ACAD_XDICTIONARY
360
465D8
102
}
100
AcDbSymbolTableRecord
100
AcDbLayerTableRecord
  2
DEFPOINTS
 70
     0
 62
    -7
  6
CONTINUOUS
  0
LAYER
  5
45954
100
AcDbSymbolTableRecord
100
AcDbLayerTableRecord
  2
SCALE
 70
     0
 62
    -7
  6
CONTINUOUS
  0
LAYER
  5
46570
100
AcDbSymbolTableRecord
100
AcDbLayerTableRecord
  2
SNAP_POINTS
 70
     0
 62
    -1
  6
CONTINUOUS
  0
ENDTAB
  0
TABLE
  2
STYLE
  5
458C2
100
AcDbSymbolTable
 70
     1
  0
STYLE
  5
458CE
100
AcDbSymbolTableRecord
100
AcDbTextStyleTableRecord
  2
STANDARD
 70
     0
 40
0.0
 41
1.0
 50
0.0
 71
     0
 42
0.12
  3
txt
  4

  0
ENDTAB
  0
TABLE
  2
VIEW
  5
458C5
100
AcDbSymbolTable
 70
     0
  0
ENDTAB
  0
TABLE
  2
UCS
  5
458C6
100
AcDbSymbolTable
 70
     0
  0
ENDTAB
  0
TABLE
  2
APPID
  5
458C8
100
AcDbSymbolTable
 70
     1
  0
APPID
  5
458CF
100
AcDbSymbolTableRecord
100
AcDbRegAppTableRecord
  2
ACAD
 70
     0
  0
ENDTAB
  0
TABLE
  2
DIMSTYLE
  5
458C9
100
AcDbSymbolTable
 70
     2
  0
DIMSTYLE
105
458F1
102
{ACAD_XDICTIONARY
360
465FF
102
}
100
AcDbSymbolTableRecord
100
AcDbDimStyleTableRecord
  2
ABECAD
 70
     0
  3

  4

  5

  6

  7

 40
1.0
 41
0.18
 42
0.0625
 43
0.375
 44
0.18
 45
0.0
 46
0.0
 47
0.0
 48
0.0
140
0.18
141
0.09
142
0.0
143
25.4
144
1.0
145
0.0
146
1.5
147
0.09
 71
     0
 72
     0
 73
     0
 74
     1
 75
     0
 76
     0
 77
     0
 78
     4
170
     1
171
     1
172
     0
173
     0
174
     0
175
     0
176
     0
177
     0
178
     0
270
     7
271
     6
272
     6
273
     2
274
     1
340
458CE
275
     0
280
     0
281
     0
282
     0
283
     1
284
     4
285
     4
286
     4
287
     3
288
     0
  0
DIMSTYLE
105
458F6
102
{ACAD_XDICTIONARY
360
46601
102
}
102
{ACAD_REACTORS
330
46514
330
46522
102
}
100
AcDbSymbolTableRecord
100
AcDbDimStyleTableRecord
  2
ABECAD_3D
 70
     0
  3

  4

  5

  6

  7

 40
1.0
 41
0.18
 42
0.0625
 43
0.375
 44
0.18
 45
0.0
 46
0.0
 47
0.0
 48
0.0
140
0.18
141
0.09
142
0.0
143
25.4
144
1.0
145
0.0
146
1.5
147
0.09
 71
     0
 72
     0
 73
     0
 74
     1
 75
     0
 76
     0
 77
     0
 78
     4
170
     1
171
     1
172
     0
173
     0
174
     0
175
     0
176
     0
177
     0
178
     0
270
     7
271
     6
272
     6
273
     2
274
     1
340
458CE
275
     0
280
     0
281
     0
282
     0
283
     1
284
     4
285
     4
286
     4
287
     3
288
     0
  0
ENDTAB
  0
TABLE
  2
BLOCK_RECORD
  5
458C0
100
AcDbSymbolTable
 70
     2
  0
BLOCK_RECORD
  5
458D6
102
{ACAD_XDICTIONARY
360
4592C
102
}
100
AcDbSymbolTableRecord
100
AcDbBlockTableRecord
  2
*MODEL_SPACE
  0
BLOCK_RECORD
  5
458D3
102
{ACAD_XDICTIONARY
360
4592A
102
}
100
AcDbSymbolTableRecord
100
AcDbBlockTableRecord
  2
*PAPER_SPACE
  0
BLOCK_RECORD
  5
46515
100
AcDbSymbolTableRecord
100
AcDbBlockTableRecord
  2
*D0
  0
BLOCK_RECORD
  5
46523
100
AcDbSymbolTableRecord
100
AcDbBlockTableRecord
  2
*D1
  0
ENDTAB
  0
ENDSEC
  0
SECTION
  2
BLOCKS
  0
BLOCK
  5
458DF
100
AcDbEntity
  8
0
100
AcDbBlockBegin
  2
*MODEL_SPACE
 70
     0
 10
0.0
 20
0.0
 30
0.0
  3
*MODEL_SPACE
  1

  0
ENDBLK
  5
458E0
100
AcDbEntity
  8
0
100
AcDbBlockEnd
  0
BLOCK
  5
458DD
100
AcDbEntity
 67
     1
  8
0
100
AcDbBlockBegin
  2
*PAPER_SPACE
 70
     0
 10
0.0
 20
0.0
 30
0.0
  3
*PAPER_SPACE
  1

  0
ENDBLK
  5
458DE
100
AcDbEntity
 67
     1
  8
0
100
AcDbBlockEnd
  0
BLOCK
  5
46520
100
AcDbEntity
  8
0
100
AcDbBlockBegin
  2
*D0
 70
     1
 10
0.0
 20
0.0
 30
0.0
  3
*D0
  1

  0
LINE
  5
46516
100
AcDbEntity
  8
AREA1
 62
     0
100
AcDbLine
 10
-0.060577
 20
-0.654587
 30
0.0
 11
1.481236
 21
-0.654587
 31
0.0
1001
ACAD
1000
RTLwPs
1070
   158
  0
LINE
  5
46517
100
AcDbEntity
  8
AREA1
 62
     0
100
AcDbLine
 10
0.3275
 20
10.0432
 30
0.0
 11
1.481236
 21
10.0432
 31
0.0
1001
ACAD
1000
RTLwPs
1070
   158
  0
LINE
  5
46518
100
AcDbEntity
  8
AREA1
 62
     0
100
AcDbLine
 10
1.301236
 20
-0.474587
 30
0.0
 11
1.301236
 21
3.389307
 31
0.0
1001
ACAD
1000
RTLwPs
1070
   158
  0
LINE
  5
46519
100
AcDbEntity
  8
AREA1
 62
     0
100
AcDbLine
 10
1.301236
 20
9.8632
 30
0.0
 11
1.301236
 21
5.999307
 31
0.0
1001
ACAD
1000
RTLwPs
1070
   158
  0
SOLID
  5
4651A
100
AcDbEntity
  8
AREA1
 62
     0
100
AcDbTrace
 10
1.271236
 20
-0.474587
 30
0.0
 11
1.331236
 21
-0.474587
 31
0.0
 12
1.301236
 22
-0.654587
 32
0.0
 13
1.301236
 23
-0.654587
 33
0.0
  0
SOLID
  5
4651B
100
AcDbEntity
  8
AREA1
 62
     0
100
AcDbTrace
 10
1.271236
 20
9.8632
 30
0.0
 11
1.331236
 21
9.8632
 31
0.0
 12
1.301236
 22
10.0432
 32
0.0
 13
1.301236
 23
10.0432
 33
0.0
  0
MTEXT
  5
4651C
100
AcDbEntity
  8
AREA1
 62
     0
100
AcDbMText
 10
1.301236
 20
4.694307
 30
0.0
 40
0.18
 41
0.0
 71
     5
 72
     1
  1
\A1;10 45/64 [271.7]
 11
0.0
 21
1.0
 31
0.0
1001
ACAD
1000
MTEXTBEGIN
1070
    73
1070
     1
1070
    44
1040
1.0
1070
    74
1070
     0
1000
MTEXTEND
1000
MTEXTBEGIN
1070
    73
1070
     1
1070
    44
1040
1.0
1070
    74
1070
     0
1000
MTEXTEND
1000
MTEXTBEGIN
1070
    73
1070
     1
1070
    44
1040
1.0
1070
    74
1070
     0
1000
MTEXTEND
1000
MTEXTBEGIN
1070
    73
1070
     1
1070
    44
1040
1.0
1070
    74
1070
     0
1000
MTEXTEND
  0
POINT
  5
4651D
100
AcDbEntity
  8
DEFPOINTS
 62
     0
100
AcDbPoint
 10
-0.123077
 20
-0.654587
 30
5.88
  0
POINT
  5
4651E
100
AcDbEntity
  8
DEFPOINTS
 62
     0
100
AcDbPoint
 10
0.265
 20
10.0432
 30
5.747
  0
POINT
  5
4651F
100
AcDbEntity
  8
DEFPOINTS
 62
     0
100
AcDbPoint
 10
1.301236
 20
10.0432
 30
0.0
  0
ENDBLK
  5
46521
100
AcDbEntity
  8
0
100
AcDbBlockEnd
  0
BLOCK
  5
4652E
100
AcDbEntity
  8
0
100
AcDbBlockBegin
  2
*D1
 70
     1
 10
0.0
 20
0.0
 30
0.0
  3
*D1
  1

  0
LINE
  5
46524
100
AcDbEntity
  8
AREA1
 62
     0
100
AcDbLine
 10
-0.89
 20
9.8625
 30
0.0
 11
-0.89
 21
11.00687
 31
0.0
1001
ACAD
1000
RTLwPs
1070
   158
  0
LINE
  5
46525
100
AcDbEntity
  8
AREA1
 62
     0
100
AcDbLine
 10
0.27
 20
9.8625
 30
0.0
 11
0.27
 21
11.00687
 31
0.0
1001
ACAD
1000
RTLwPs
1070
   158
  0
LINE
  5
46526
100
AcDbEntity
  8
AREA1
 62
     0
100
AcDbLine
 10
-0.71
 20
10.82687
 30
0.0
 11
0.09
 21
10.82687
 31
0.0
1001
ACAD
1000
RTLwPs
1070
   158
  0
LINE
  5
46527
100
AcDbEntity
  8
AREA1
 62
     0
100
AcDbLine
 10
0.27
 20
10.82687
 30
0.0
 11
0.45
 21
10.82687
 31
0.0
1001
ACAD
1000
RTLwPs
1070
   158
  0
SOLID
  5
46528
100
AcDbEntity
  8
AREA1
 62
     0
100
AcDbTrace
 10
-0.71
 20
10.85687
 30
0.0
 11
-0.71
 21
10.79687
 31
0.0
 12
-0.89
 22
10.82687
 32
0.0
 13
-0.89
 23
10.82687
 33
0.0
  0
SOLID
  5
46529
100
AcDbEntity
  8
AREA1
 62
     0
100
AcDbTrace
 10
0.09
 20
10.85687
 30
0.0
 11
0.09
 21
10.79687
 31
0.0
 12
0.27
 22
10.82687
 32
0.0
 13
0.27
 23
10.82687
 33
0.0
  0
MTEXT
  5
4652A
100
AcDbEntity
  8
AREA1
 62
     0
100
AcDbMText
 10
1.53
 20
10.82687
 30
0.0
 40
0.18
 41
0.0
 71
     5
 72
     1
  1
\A1;1 5/32 [29.5]
1001
ACAD
1000
MTEXTBEGIN
1070
    73
1070
     1
1070
    44
1040
1.0
1070
    74
1070
     0
1000
MTEXTEND
1000
MTEXTBEGIN
1070
    73
1070
     1
1070
    44
1040
1.0
1070
    74
1070
     0
1000
MTEXTEND
1000
MTEXTBEGIN
1070
    73
1070
     1
1070
    44
1040
1.0
1070
    74
1070
     0
1000
MTEXTEND
1000
MTEXTBEGIN
1070
    73
1070
     1
1070
    44
1040
1.0
1070
    74
1070
     0
1000
MTEXTEND
  0
POINT
  5
4652B
100
AcDbEntity
  8
DEFPOINTS
 62
     0
100
AcDbPoint
 10
-0.89
 20
9.8
 30
0.0
  0
POINT
  5
4652C
100
AcDbEntity
  8
DEFPOINTS
 62
     0
100
AcDbPoint
 10
0.27
 20
9.8
 30
0.0
  0
POINT
  5
4652D
100
AcDbEntity
  8
DEFPOINTS
 62
     0
100
AcDbPoint
 10
0.27
 20
10.82687
 30
0.0
  0
ENDBLK
  5
4652F
100
AcDbEntity
  8
0
100
AcDbBlockEnd
  0
ENDSEC
  0
SECTION
  2
ENTITIES
  0
ATTDEF
  5
1
100
AcDbEntity
  8
ATTRIBUTES
100
AcDbText
 10
-0.7539
 20
1.343272
 30
0.0
 40
0.06
  1
ALLEN-BRADLEY
100
AcDbAttributeDefinition
  3
MANUFACTURER NAME?
  2
AC_VND_LABEL
 70
     1
  0
ATTDEF
  5
2
100
AcDbEntity
  8
ATTRIBUTES
100
AcDbText
 10
-0.7539
 20
1.218272
 30
0.0
 40
0.06
  1
1771-OQ
100
AcDbAttributeDefinition
  3
CATALOG NUMBER?
  2
AC_PART_NO
 70
     1
  0
ATTDEF
  5
3
100
AcDbEntity
  8
ATTRIBUTES
100
AcDbText
 10
-0.7539
 20
1.093272
 30
0.0
 40
0.06
  1
1771-OQ:24V DC ISOLATED OUTPUT MODULE, 8 OUT
100
AcDbAttributeDefinition
  3
PART DESCRIPTION?
  2
AC_DESCRIPTION
 70
     1
  0
ATTDEF
  5
4
100
AcDbEntity
  8
ATTRIBUTES
100
AcDbText
 10
-0.7539
 20
0.968272
 30
0.0
 40
0.06
  1

100
AcDbAttributeDefinition
  3
DEVICE ID?
  2
DEVICE_ID
 70
     1
  0
ATTDEF
  5
5
100
AcDbEntity
  8
ATTRIBUTES
100
AcDbText
 10
-0.7539
 20
0.843272
 30
0.0
 40
0.06
  1

100
AcDbAttributeDefinition
  3
CUSTOMER PART NUMBER?
  2
AC_CPART_NO
 70
     1
  0
ATTDEF
  5
6
100
AcDbEntity
  8
ATTRIBUTES
100
AcDbText
 10
-0.7539
 20
0.718272
 30
0.0
 40
0.06
  1

100
AcDbAttributeDefinition
  3
CUSTOMER NOTE?
  2
AC_NOTE
 70
     1
  0
ATTDEF
  5
7
100
AcDbEntity
  8
ATTRIBUTES
100
AcDbText
 10
-0.7539
 20
0.593272
 30
0.0
 40
0.06
  1

100
AcDbAttributeDefinition
  3
FASTENER DATA?
  2
FASTENER
 70
     1
  0
ATTDEF
  5
8
100
AcDbEntity
  8
ATTRIBUTES
100
AcDbText
 10
-0.7539
 20
0.468272
 30
0.0
 40
0.06
  1
INCH
100
AcDbAttributeDefinition
  3
UNIT OF SCALE?
  2
AC_SCALE_UNIT
 70
     1
  0
ATTDEF
  5
9
100
AcDbEntity
  8
ATTRIBUTES
100
AcDbText
 10
-0.7539
 20
0.343272
 30
0.0
 40
0.06
  1
0
100
AcDbAttributeDefinition
  3
VIEW CODE?
  2
AC_VIEW_CODE
 70
     1
  0
POLYLINE
  5
45F2B
100
AcDbEntity
  8
0
100
AcDbPolygonMesh
 66
     1
 10
0.0
 20
0.0
 30
0.0
 70
    16
 71
     6
 72
     3
  0
VERTEX
  5
45F2C
100
AcDbEntity
  8
0
100
AcDbVertex
100
AcDbPolygonMeshVertex
 10
0.265
 20
9.0811
 30
5.837
 70
    64
  0
VERTEX
  5
45F2D
100
AcDbEntity
  8
0
100
AcDbVertex
100
AcDbPolygonMeshVertex
 10
0.265
 20
9.0811
 30
5.747
 70
    64
  0
VERTEX
  5
45F2E
100
AcDbEntity
  8
0
100
AcDbVertex
100
AcDbPolygonMeshVertex
 10
0.265
 20
9.0811
 30
5.747
 70
    64
  0
VERTEX
  5
45F2F
100
AcDbEntity
  8
0
100
AcDbVertex
100
AcDbPolygonMeshVertex
 10
-0.197
 20
9.0811
 30
5.837
 70
    64
  0
VERTEX
  5
45F30
100
AcDbEntity
  8
0
100
AcDbVertex
100
AcDbPolygonMeshVertex
 10
-0.197
 20
9.0811
 30
5.747
 70
    64
  0
VERTEX
  5
45F31
100
AcDbEntity
  8
0
100
AcDbVertex
100
AcDbPolygonMeshVertex
 10
-0.197
 20
9.0811
 30
5.747
 70
    64
  0
VERTEX
  5
45F32
100
AcDbEntity
  8
0
100
AcDbVertex
100
AcDbPolygonMeshVertex
 10
-0.197
 20
10.0432
 30
5.837
 70
    64
  0
VERTEX
  5
45F33
100
AcDbEntity
  8
0
100
AcDbVertex
100
AcDbPolygonMeshVertex
 10
-0.197
 20
10.0432
 30
5.747
 70
    64
  0
VERTEX
  5
45F34
100
AcDbEntity
  8
0
100
AcDbVertex
100
AcDbPolygonMeshVertex
 10
-0.197
 20
9.0811
 30
5.747
 70
    64
  0
VERTEX
  5
45F35
100
AcDbEntity
  8
0
100
AcDbVertex
100
AcDbPolygonMeshVertex
 10
0.265
 20
10.0432
 30
5.837
 70
    64
  0
VERTEX
  5
45F36
100
AcDbEntity
  8
0
100
AcDbVertex
100
AcDbPolygonMeshVertex
 10
0.265
 20
10.0432
 30
5.747
 70
    64
  0
VERTEX
  5
45F37
100
AcDbEntity
  8
0
100
AcDbVertex
100
AcDbPolygonMeshVertex
 10
0.265
 20
9.0811
 30
5.747
 70
    64
  0
VERTEX
  5
45F38
100
AcDbEntity
  8
0
100
AcDbVertex
100
AcDbPolygonMeshVertex
 10
0.265
 20
10.0432
 30
5.837
 70
    64
  0
VERTEX
  5
45F39
100
AcDbEntity
  8
0
100
AcDbVertex
100
AcDbPolygonMeshVertex
 10
0.265
 20
10.0432
 30
5.837
 70
    64
  0
VERTEX
  5
45F3A
100
AcDbEntity
  8
0
100
AcDbVertex
100
AcDbPolygonMeshVertex
 10
0.265
 20
9.0811
 30
5.837
 70
    64
  0
VERTEX
  5
45F3B
100
AcDbEntity
  8
0
100
AcDbVertex
100
AcDbPolygonMeshVertex
 10
-0.197
 20
10.0432
 30
5.837
 70
    64
  0
VERTEX
  5
45F3C
100
AcDbEntity
  8
0
100
AcDbVertex
100
AcDbPolygonMeshVertex
 10
-0.197
 20
10.0432
 30
5.837
 70
    64
  0
VERTEX
  5
45F3D
100
AcDbEntity
  8
0
100
AcDbVertex
100
AcDbPolygonMeshVertex
 10
-0.197
 20
9.0811
 30
5.837
 70
    64
  0
SEQEND
  5
45F3E
100
AcDbEntity
  8
0
  0
LINE
  5
45F3F
100
AcDbEntity
  8
0
100
AcDbLine
 10
-0.228615
 20
4.711767
 30
5.88
 11
-0.23364
 21
4.686653
 31
5.88
  0
LINE
  5
45F40
100
AcDbEntity
  8
0
100
AcDbLine
 10
-0.19846
 20
4.847389
 30
5.88
 11
-0.19846
 21
4.601261
 31
5.88
  0
LINE
  5
45F41
100
AcDbEntity
  8
0
100
AcDbLine
 10
-0.419585
 20
4.807204
 30
5.88
 11
-0.263793
 21
4.631399
 31
5.88
  0
LINE
  5
45F42
100
AcDbEntity
  8
0
100
AcDbLine
 10
-0.454764
 20
4.686653
 30
5.88
 11
-0.459791
 21
4.711767
 31
5.88
  0
LINE
  5
45F43
100
AcDbEntity
  8
0
100
AcDbLine
 10
-0.520097
 20
4.601261
 30
5.88
 11
-0.520097
 21
4.847389
 31
5.88
  0
LINE
  5
45F44
100
AcDbEntity
  8
0
100
AcDbLine
 10
0.178457
 20
4.696698
 30
5.88
 11
0.178457
 21
4.450571
 31
5.88
  0
LINE
  5
45F45
100
AcDbEntity
  8
0
100
AcDbLine
 10
-0.143179
 20
4.450571
 30
5.88
 11
-0.143179
 21
4.696698
 31
5.88
  0
LINE
  5
45F46
100
AcDbEntity
  8
0
100
AcDbLine
 10
-0.806555
 20
7.143784
 30
5.88
 11
-0.806555
 21
-0.654587
 31
5.88
  0
LINE
  5
45F47
100
AcDbEntity
  8
0
100
AcDbLine
 10
-0.89199
 20
7.214105
 30
5.88
 11
-0.89199
 21
-0.654587
 31
5.88
  0
POLYLINE
  5
45F48
100
AcDbEntity
  8
0
100
AcDbPolygonMesh
 66
     1
 10
0.0
 20
0.0
 30
0.0
 70
    16
 71
     6
 72
     3
  0
VERTEX
  5
45F49
100
AcDbEntity
  8
0
100
AcDbVertex
100
AcDbPolygonMeshVertex
 10
0.27
 20
0.2
 30
5.39
 70
    64
  0
VERTEX
  5
45F4A
100
AcDbEntity
  8
0
100
AcDbVertex
100
AcDbPolygonMeshVertex
 10
0.27
 20
0.2
 30
0.0
 70
    64
  0
VERTEX
  5
45F4B
100
AcDbEntity
  8
0
100
AcDbVertex
100
AcDbPolygonMeshVertex
 10
0.27
 20
0.2
 30
0.0
 70
    64
  0
VERTEX
  5
45F4C
100
AcDbEntity
  8
0
100
AcDbVertex
100
AcDbPolygonMeshVertex
 10
-0.89
 20
0.2
 30
5.39
 70
    64
  0
VERTEX
  5
45F4D
100
AcDbEntity
  8
0
100
AcDbVertex
100
AcDbPolygonMeshVertex
 10
-0.89
 20
0.2
 30
0.0
 70
    64
  0
VERTEX
  5
45F4E
100
AcDbEntity
  8
0
100
AcDbVertex
100
AcDbPolygonMeshVertex
 10
-0.89
 20
0.2
 30
0.0
 70
    64
  0
VERTEX
  5
45F4F
100
AcDbEntity
  8
0
100
AcDbVertex
100
AcDbPolygonMeshVertex
 10
-0.89
 20
9.8
 30
5.39
 70
    64
  0
VERTEX
  5
45F50
100
AcDbEntity
  8
0
100
AcDbVertex
100
AcDbPolygonMeshVertex
 10
-0.89
 20
9.8
 30
0.0
 70
    64
  0
VERTEX
  5
45F51
100
AcDbEntity
  8
0
100
AcDbVertex
100
AcDbPolygonMeshVertex
 10
-0.89
 20
0.2
 30
0.0
 70
    64
  0
VERTEX
  5
45F52
100
AcDbEntity
  8
0
100
AcDbVertex
100
AcDbPolygonMeshVertex
 10
0.27
 20
9.8
 30
5.39
 70
    64
  0
VERTEX
  5
45F53
100
AcDbEntity
  8
0
100
AcDbVertex
100
AcDbPolygonMeshVertex
 10
0.27
 20
9.8
 30
0.0
 70
    64
  0
VERTEX
  5
45F54
100
AcDbEntity
  8
0
100
AcDbVertex
100
AcDbPolygonMeshVertex
 10
0.27
 20
0.2
 30
0.0
 70
    64
  0
VERTEX
  5
45F55
100
AcDbEntity
  8
0
100
AcDbVertex
100
AcDbPolygonMeshVertex
 10
0.27
 20
9.8
 30
5.39
 70
    64
  0
VERTEX
  5
45F56
100
AcDbEntity
  8
0
100
AcDbVertex
100
AcDbPolygonMeshVertex
 10
0.27
 20
9.8
 30
5.39
 70
    64
  0
VERTEX
  5
45F57
100
AcDbEntity
  8
0
100
AcDbVertex
100
AcDbPolygonMeshVertex
 10
0.27
 20
0.2
 30
5.39
 70
    64
  0
VERTEX
  5
45F58
100
AcDbEntity
  8
0
100
AcDbVertex
100
AcDbPolygonMeshVertex
 10
-0.89
 20
9.8
 30
5.39
 70
    64
  0
VERTEX
  5
45F59
100
AcDbEntity
  8
0
100
AcDbVertex
100
AcDbPolygonMeshVertex
 10
-0.89
 20
9.8
 30
5.39
 70
    64
  0
VERTEX
  5
45F5A
100
AcDbEntity
  8
0
100
AcDbVertex
100
AcDbPolygonMeshVertex
 10
-0.89
 20
0.2
 30
5.39
 70
    64
  0
SEQEND
  5
45F5B
100
AcDbEntity
  8
0
  0
POLYLINE
  5
45F5C
100
AcDbEntity
  8
0
100
AcDbPolygonMesh
 66
     1
 10
0.0
 20
0.0
 30
0.0
 70
    16
 71
     6
 72
     3
  0
VERTEX
  5
45F5D
100
AcDbEntity
  8
0
100
AcDbVertex
100
AcDbPolygonMeshVertex
 10
0.27
 20
0.2
 30
5.88
 70
    64
  0
VERTEX
  5
45F5E
100
AcDbEntity
  8
0
100
AcDbVertex
100
AcDbPolygonMeshVertex
 10
0.27
 20
0.2
 30
5.39
 70
    64
  0
VERTEX
  5
45F5F
100
AcDbEntity
  8
0
100
AcDbVertex
100
AcDbPolygonMeshVertex
 10
0.27
 20
0.2
 30
5.39
 70
    64
  0
VERTEX
  5
45F60
100
AcDbEntity
  8
0
100
AcDbVertex
100
AcDbPolygonMeshVertex
 10
-0.89
 20
0.2
 30
5.88
 70
    64
  0
VERTEX
  5
45F61
100
AcDbEntity
  8
0
100
AcDbVertex
100
AcDbPolygonMeshVertex
 10
-0.89
 20
0.2
 30
5.39
 70
    64
  0
VERTEX
  5
45F62
100
AcDbEntity
  8
0
100
AcDbVertex
100
AcDbPolygonMeshVertex
 10
-0.89
 20
0.2
 30
5.39
 70
    64
  0
VERTEX
  5
45F63
100
AcDbEntity
  8
0
100
AcDbVertex
100
AcDbPolygonMeshVertex
 10
-0.89
 20
8.912
 30
5.88
 70
    64
  0
VERTEX
  5
45F64
100
AcDbEntity
  8
0
100
AcDbVertex
100
AcDbPolygonMeshVertex
 10
-0.89
 20
8.912
 30
5.39
 70
    64
  0
VERTEX
  5
45F65
100
AcDbEntity
  8
0
100
AcDbVertex
100
AcDbPolygonMeshVertex
 10
-0.89
 20
0.2
 30
5.39
 70
    64
  0
VERTEX
  5
45F66
100
AcDbEntity
  8
0
100
AcDbVertex
100
AcDbPolygonMeshVertex
 10
0.27
 20
8.912
 30
5.88
 70
    64
  0
VERTEX
  5
45F67
100
AcDbEntity
  8
0
100
AcDbVertex
100
AcDbPolygonMeshVertex
 10
0.27
 20
8.912
 30
5.39
 70
    64
  0
VERTEX
  5
45F68
100
AcDbEntity
  8
0
100
AcDbVertex
100
AcDbPolygonMeshVertex
 10
0.27
 20
0.2
 30
5.39
 70
    64
  0
VERTEX
  5
45F69
100
AcDbEntity
  8
0
100
AcDbVertex
100
AcDbPolygonMeshVertex
 10
0.27
 20
8.912
 30
5.88
 70
    64
  0
VERTEX
  5
45F6A
100
AcDbEntity
  8
0
100
AcDbVertex
100
AcDbPolygonMeshVertex
 10
0.27
 20
8.912
 30
5.88
 70
    64
  0
VERTEX
  5
45F6B
100
AcDbEntity
  8
0
100
AcDbVertex
100
AcDbPolygonMeshVertex
 10
0.27
 20
0.2
 30
5.88
 70
    64
  0
VERTEX
  5
45F6C
100
AcDbEntity
  8
0
100
AcDbVertex
100
AcDbPolygonMeshVertex
 10
-0.89
 20
8.912
 30
5.88
 70
    64
  0
VERTEX
  5
45F6D
100
AcDbEntity
  8
0
100
AcDbVertex
100
AcDbPolygonMeshVertex
 10
-0.89
 20
8.912
 30
5.88
 70
    64
  0
VERTEX
  5
45F6E
100
AcDbEntity
  8
0
100
AcDbVertex
100
AcDbPolygonMeshVertex
 10
-0.89
 20
0.2
 30
5.88
 70
    64
  0
SEQEND
  5
45F6F
100
AcDbEntity
  8
0
  0
POLYLINE
  5
45F70
100
AcDbEntity
  8
0
100
AcDbPolygonMesh
 66
     1
 10
0.0
 20
0.0
 30
0.0
 70
    16
 71
     6
 72
     3
  0
VERTEX
  5
45F71
100
AcDbEntity
  8
0
100
AcDbVertex
100
AcDbPolygonMeshVertex
 10
0.068
 20
0.0
 30
4.755
 70
    64
  0
VERTEX
  5
45F72
100
AcDbEntity
  8
0
100
AcDbVertex
100
AcDbPolygonMeshVertex
 10
0.068
 20
0.0
 30
0.0
 70
    64
  0
VERTEX
  5
45F73
100
AcDbEntity
  8
0
100
AcDbVertex
100
AcDbPolygonMeshVertex
 10
0.068
 20
0.0
 30
0.0
 70
    64
  0
VERTEX
  5
45F74
100
AcDbEntity
  8
0
100
AcDbVertex
100
AcDbPolygonMeshVertex
 10
0.0
 20
0.0
 30
4.755
 70
    64
  0
VERTEX
  5
45F75
100
AcDbEntity
  8
0
100
AcDbVertex
100
AcDbPolygonMeshVertex
 10
0.0
 20
0.0
 30
0.0
 70
    64
  0
VERTEX
  5
45F76
100
AcDbEntity
  8
0
100
AcDbVertex
100
AcDbPolygonMeshVertex
 10
0.0
 20
0.0
 30
0.0
 70
    64
  0
VERTEX
  5
45F77
100
AcDbEntity
  8
0
100
AcDbVertex
100
AcDbPolygonMeshVertex
 10
0.0
 20
0.2
 30
4.755
 70
    64
  0
VERTEX
  5
45F78
100
AcDbEntity
  8
0
100
AcDbVertex
100
AcDbPolygonMeshVertex
 10
0.0
 20
0.2
 30
0.0
 70
    64
  0
VERTEX
  5
45F79
100
AcDbEntity
  8
0
100
AcDbVertex
100
AcDbPolygonMeshVertex
 10
0.0
 20
0.0
 30
0.0
 70
    64
  0
VERTEX
  5
45F7A
100
AcDbEntity
  8
0
100
AcDbVertex
100
AcDbPolygonMeshVertex
 10
0.068
 20
0.2
 30
4.755
 70
    64
  0
VERTEX
  5
45F7B
100
AcDbEntity
  8
0
100
AcDbVertex
100
AcDbPolygonMeshVertex
 10
0.068
 20
0.2
 30
0.0
 70
    64
  0
VERTEX
  5
45F7C
100
AcDbEntity
  8
0
100
AcDbVertex
100
AcDbPolygonMeshVertex
 10
0.068
 20
0.0
 30
0.0
 70
    64
  0
VERTEX
  5
45F7D
100
AcDbEntity
  8
0
100
AcDbVertex
100
AcDbPolygonMeshVertex
 10
0.068
 20
0.2
 30
4.755
 70
    64
  0
VERTEX
  5
45F7E
100
AcDbEntity
  8
0
100
AcDbVertex
100
AcDbPolygonMeshVertex
 10
0.068
 20
0.2
 30
4.755
 70
    64
  0
VERTEX
  5
45F7F
100
AcDbEntity
  8
0
100
AcDbVertex
100
AcDbPolygonMeshVertex
 10
0.068
 20
0.0
 30
4.755
 70
    64
  0
VERTEX
  5
45F80
100
AcDbEntity
  8
0
100
AcDbVertex
100
AcDbPolygonMeshVertex
 10
0.0
 20
0.2
 30
4.755
 70
    64
  0
VERTEX
  5
45F81
100
AcDbEntity
  8
0
100
AcDbVertex
100
AcDbPolygonMeshVertex
 10
0.0
 20
0.2
 30
4.755
 70
    64
  0
VERTEX
  5
45F82
100
AcDbEntity
  8
0
100
AcDbVertex
100
AcDbPolygonMeshVertex
 10
0.0
 20
0.0
 30
4.755
 70
    64
  0
SEQEND
  5
45F83
100
AcDbEntity
  8
0
  0
POINT
  5
45F84
100
AcDbEntity
  8
SNAP_POINTS
100
AcDbPoint
 10
0.034
 20
0.0
 30
0.0
  0
LINE
  5
45F85
100
AcDbEntity
  8
0
100
AcDbLine
 10
0.178457
 20
1.562335
 30
5.88
 11
0.178457
 21
1.316207
 31
5.88
  0
LINE
  5
45F86
100
AcDbEntity
  8
0
100
AcDbLine
 10
-0.143179
 20
1.316207
 30
5.88
 11
-0.143179
 21
1.562335
 31
5.88
  0
LINE
  5
45F87
100
AcDbEntity
  8
0
100
AcDbLine
 10
0.118151
 20
1.356392
 30
5.88
 11
0.093021
 21
1.3363
 31
5.88
  0
LINE
  5
45F88
100
AcDbEntity
  8
0
100
AcDbLine
 10
-0.032616
 20
1.3363
 30
5.88
 11
-0.05272
 21
1.351368
 31
5.88
  0
LINE
  5
45F89
100
AcDbEntity
  8
0
100
AcDbLine
 10
-0.19846
 20
1.401599
 30
5.88
 11
-0.19846
 21
1.155471
 31
5.88
  0
LINE
  5
45F8A
100
AcDbEntity
  8
0
100
AcDbLine
 10
-0.439687
 20
1.341321
 30
5.88
 11
-0.419585
 21
1.361414
 31
5.88
  0
LINE
  5
45F8B
100
AcDbEntity
  8
0
100
AcDbLine
 10
-0.268819
 20
1.361414
 30
5.88
 11
-0.253742
 21
1.341321
 31
5.88
  0
LINE
  5
45F8C
100
AcDbEntity
  8
0
100
AcDbLine
 10
-0.419585
 20
1.361414
 30
5.88
 11
-0.263793
 21
1.185609
 31
5.88
  0
LINE
  5
45F8D
100
AcDbEntity
  8
0
100
AcDbLine
 10
-0.520097
 20
1.155471
 30
5.88
 11
-0.520097
 21
1.401599
 31
5.88
  0
LINE
  5
45F8E
100
AcDbEntity
  8
0
100
AcDbLine
 10
-0.19846
 20
1.155471
 30
5.88
 11
-0.520097
 21
1.155471
 31
5.88
  0
LINE
  5
45F8F
100
AcDbEntity
  8
0
100
AcDbLine
 10
-0.520097
 20
1.085148
 30
5.88
 11
-0.19846
 21
1.085148
 31
5.88
  0
LINE
  5
45F90
100
AcDbEntity
  8
0
100
AcDbLine
 10
-0.19846
 20
0.83902
 30
5.88
 11
-0.520097
 21
0.83902
 31
5.88
  0
LINE
  5
45F91
100
AcDbEntity
  8
0
100
AcDbLine
 10
-0.520097
 20
0.773721
 30
5.88
 11
-0.19846
 21
0.773721
 31
5.88
  0
LINE
  5
45F92
100
AcDbEntity
  8
0
100
AcDbLine
 10
-0.19846
 20
0.527593
 30
5.88
 11
-0.520097
 21
0.527593
 31
5.88
  0
LINE
  5
45F93
100
AcDbEntity
  8
0
100
AcDbLine
 10
-0.886963
 20
-0.654587
 30
5.88
 11
-0.123077
 21
-0.654587
 31
5.88
  0
LINE
  5
45F94
100
AcDbEntity
  8
0
100
AcDbLine
 10
-0.701017
 20
0.127911
 30
5.88
 11
-0.701017
 21
-0.142238
 31
5.88
  0
LINE
  5
45F95
100
AcDbEntity
  8
0
100
AcDbLine
 10
-0.801529
 20
-0.142238
 30
5.88
 11
-0.701017
 21
-0.142238
 31
5.88
  0
LINE
  5
45F96
100
AcDbEntity
  8
0
100
AcDbLine
 10
-0.801529
 20
0.127911
 30
5.88
 11
-0.701017
 21
0.127911
 31
5.88
  0
LINE
  5
45F97
100
AcDbEntity
  8
0
100
AcDbLine
 10
-0.520097
 20
0.83902
 30
5.88
 11
-0.520097
 21
1.085148
 31
5.88
  0
LINE
  5
45F98
100
AcDbEntity
  8
0
100
AcDbLine
 10
-0.520097
 20
0.527593
 30
5.88
 11
-0.520097
 21
0.773721
 31
5.88
  0
LINE
  5
45F99
100
AcDbEntity
  8
0
100
AcDbLine
 10
-0.19846
 20
0.283593
 30
5.88
 11
-0.19846
 21
-0.654587
 31
5.88
  0
LINE
  5
45F9A
100
AcDbEntity
  8
0
100
AcDbLine
 10
-0.123077
 20
-0.654587
 30
5.88
 11
-0.123077
 21
0.198234
 31
5.88
  0
LINE
  5
45F9B
100
AcDbEntity
  8
0
100
AcDbLine
 10
-0.19846
 20
0.283626
 30
5.88
 11
0.26999
 21
0.283626
 31
5.88
  0
LINE
  5
45F9C
100
AcDbEntity
  8
0
100
AcDbLine
 10
0.248816
 20
0.198234
 30
5.88
 11
-0.123077
 21
0.198234
 31
5.88
  0
LINE
  5
45F9D
100
AcDbEntity
  8
0
100
AcDbLine
 10
-0.309023
 20
-0.147262
 30
5.88
 11
-0.309023
 21
0.127911
 31
5.88
  0
LINE
  5
45F9E
100
AcDbEntity
  8
0
100
AcDbLine
 10
-0.309023
 20
-0.147262
 30
5.88
 11
-0.208513
 21
-0.147262
 31
5.88
  0
LINE
  5
45F9F
100
AcDbEntity
  8
0
100
AcDbLine
 10
-0.309023
 20
0.127911
 30
5.88
 11
-0.208513
 21
0.127911
 31
5.88
  0
LINE
  5
45FA0
100
AcDbEntity
  8
0
100
AcDbLine
 10
0.017639
 20
1.316207
 30
5.88
 11
-0.007489
 21
1.326252
 31
5.88
  0
LINE
  5
45FA1
100
AcDbEntity
  8
0
100
AcDbLine
 10
0.002562
 20
1.235839
 30
5.88
 11
0.02769
 21
1.235839
 31
5.88
  0
LINE
  5
45FA2
100
AcDbEntity
  8
0
100
AcDbLine
 10
0.017639
 20
1.00478
 30
5.88
 11
-0.007489
 21
1.009802
 31
5.88
  0
LINE
  5
45FA3
100
AcDbEntity
  8
0
100
AcDbLine
 10
0.002562
 20
0.919388
 30
5.88
 11
0.02769
 21
0.924412
 31
5.88
  0
LINE
  5
45FA4
100
AcDbEntity
  8
0
100
AcDbLine
 10
0.017639
 20
0.693353
 30
5.88
 11
-0.007489
 21
0.698376
 31
5.88
  0
LINE
  5
45FA5
100
AcDbEntity
  8
0
100
AcDbLine
 10
0.178457
 20
1.316207
 30
5.88
 11
-0.143179
 21
1.316207
 31
5.88
  0
LINE
  5
45FA6
100
AcDbEntity
  8
0
100
AcDbLine
 10
-0.143179
 20
1.250908
 30
5.88
 11
0.178457
 21
1.250908
 31
5.88
  0
LINE
  5
45FA7
100
AcDbEntity
  8
0
100
AcDbLine
 10
0.178457
 20
1.00478
 30
5.88
 11
-0.143179
 21
1.00478
 31
5.88
  0
LINE
  5
45FA8
100
AcDbEntity
  8
0
100
AcDbLine
 10
-0.042667
 20
1.210723
 30
5.88
 11
0.1081
 21
1.034918
 31
5.88
  0
LINE
  5
45FA9
100
AcDbEntity
  8
0
100
AcDbLine
 10
-0.143179
 20
0.939481
 30
5.88
 11
0.178457
 21
0.939481
 31
5.88
  0
LINE
  5
45FAA
100
AcDbEntity
  8
0
100
AcDbLine
 10
0.178457
 20
0.693353
 30
5.88
 11
-0.143179
 21
0.693353
 31
5.88
  0
LINE
  5
45FAB
100
AcDbEntity
  8
0
100
AcDbLine
 10
-0.042667
 20
0.899296
 30
5.88
 11
0.1081
 21
0.723491
 31
5.88
  0
LINE
  5
45FAC
100
AcDbEntity
  8
0
100
AcDbLine
 10
-0.143179
 20
0.693353
 30
5.88
 11
-0.143179
 21
0.939481
 31
5.88
  0
LINE
  5
45FAD
100
AcDbEntity
  8
0
100
AcDbLine
 10
-0.228615
 20
0.949526
 30
5.88
 11
-0.23364
 21
0.924412
 31
5.88
  0
LINE
  5
45FAE
100
AcDbEntity
  8
0
100
AcDbLine
 10
-0.19846
 20
1.085148
 30
5.88
 11
-0.19846
 21
0.83902
 31
5.88
  0
LINE
  5
45FAF
100
AcDbEntity
  8
0
100
AcDbLine
 10
-0.419585
 20
1.049987
 30
5.88
 11
-0.263793
 21
0.874182
 31
5.88
  0
LINE
  5
45FB0
100
AcDbEntity
  8
0
100
AcDbLine
 10
-0.454764
 20
0.924412
 30
5.88
 11
-0.459791
 21
0.949526
 31
5.88
  0
LINE
  5
45FB1
100
AcDbEntity
  8
0
100
AcDbLine
 10
-0.23364
 20
0.924412
 30
5.88
 11
-0.243691
 21
0.899296
 31
5.88
  0
LINE
  5
45FB2
100
AcDbEntity
  8
0
100
AcDbLine
 10
-0.238666
 20
0.693353
 30
5.88
 11
-0.228615
 21
0.663215
 31
5.88
  0
LINE
  5
45FB3
100
AcDbEntity
  8
0
100
AcDbLine
 10
-0.23364
 20
0.612985
 30
5.88
 11
-0.243691
 21
0.587869
 31
5.88
  0
LINE
  5
45FB4
100
AcDbEntity
  8
0
100
AcDbLine
 10
-0.268819
 20
0.733538
 30
5.88
 11
-0.253742
 21
0.713445
 31
5.88
  0
LINE
  5
45FB5
100
AcDbEntity
  8
0
100
AcDbLine
 10
-0.439687
 20
0.713445
 30
5.88
 11
-0.419585
 21
0.733538
 31
5.88
  0
LINE
  5
45FB6
100
AcDbEntity
  8
0
100
AcDbLine
 10
-0.419585
 20
0.733538
 30
5.88
 11
-0.263793
 21
0.557731
 31
5.88
  0
LINE
  5
45FB7
100
AcDbEntity
  8
0
100
AcDbLine
 10
-0.359279
 20
0.527593
 30
5.88
 11
-0.384407
 21
0.532615
 31
5.88
  0
LINE
  5
45FB8
100
AcDbEntity
  8
0
100
AcDbLine
 10
-0.384407
 20
0.532615
 30
5.88
 11
-0.409534
 21
0.547686
 31
5.88
  0
LINE
  5
45FB9
100
AcDbEntity
  8
0
100
AcDbLine
 10
-0.409534
 20
0.547686
 30
5.88
 11
-0.429636
 21
0.562754
 31
5.88
  0
LINE
  5
45FBA
100
AcDbEntity
  8
0
100
AcDbLine
 10
-0.459791
 20
0.663215
 30
5.88
 11
-0.454764
 21
0.688329
 31
5.88
  0
LINE
  5
45FBB
100
AcDbEntity
  8
0
100
AcDbLine
 10
-0.444713
 20
0.582847
 30
5.88
 11
-0.454764
 21
0.607961
 31
5.88
  0
LINE
  5
45FBC
100
AcDbEntity
  8
0
100
AcDbLine
 10
-0.454764
 20
0.607961
 30
5.88
 11
-0.459791
 21
0.638099
 31
5.88
  0
LINE
  5
45FBD
100
AcDbEntity
  8
0
100
AcDbLine
 10
-0.459791
 20
0.638099
 30
5.88
 11
-0.459791
 21
0.663215
 31
5.88
  0
LINE
  5
45FBE
100
AcDbEntity
  8
0
100
AcDbLine
 10
-0.454764
 20
0.688329
 30
5.88
 11
-0.439687
 21
0.713445
 31
5.88
  0
LINE
  5
45FBF
100
AcDbEntity
  8
0
100
AcDbLine
 10
-0.429636
 20
0.562754
 30
5.88
 11
-0.444713
 21
0.582847
 31
5.88
  0
LINE
  5
45FC0
100
AcDbEntity
  8
0
100
AcDbLine
 10
-0.253742
 20
0.713445
 30
5.88
 11
-0.238666
 21
0.693353
 31
5.88
  0
LINE
  5
45FC1
100
AcDbEntity
  8
0
100
AcDbLine
 10
-0.243691
 20
0.587869
 30
5.88
 11
-0.258768
 21
0.562754
 31
5.88
  0
LINE
  5
45FC2
100
AcDbEntity
  8
0
100
AcDbLine
 10
-0.27887
 20
0.547686
 30
5.88
 11
-0.303997
 21
0.532615
 31
5.88
  0
LINE
  5
45FC3
100
AcDbEntity
  8
0
100
AcDbLine
 10
-0.329126
 20
0.527593
 30
5.88
 11
-0.359279
 21
0.527593
 31
5.88
  0
LINE
  5
45FC4
100
AcDbEntity
  8
0
100
AcDbLine
 10
-0.303997
 20
0.532615
 30
5.88
 11
-0.329126
 21
0.527593
 31
5.88
  0
LINE
  5
45FC5
100
AcDbEntity
  8
0
100
AcDbLine
 10
-0.258768
 20
0.562754
 30
5.88
 11
-0.27887
 21
0.547686
 31
5.88
  0
LINE
  5
45FC6
100
AcDbEntity
  8
0
100
AcDbLine
 10
-0.359279
 20
0.83902
 30
5.88
 11
-0.384407
 21
0.849065
 31
5.88
  0
LINE
  5
45FC7
100
AcDbEntity
  8
0
100
AcDbLine
 10
-0.374356
 20
0.758652
 30
5.88
 11
-0.344203
 21
0.758652
 31
5.88
  0
LINE
  5
45FC8
100
AcDbEntity
  8
0
100
AcDbLine
 10
-0.384407
 20
0.849065
 30
5.88
 11
-0.409534
 21
0.859113
 31
5.88
  0
LINE
  5
45FC9
100
AcDbEntity
  8
0
100
AcDbLine
 10
-0.409534
 20
0.859113
 30
5.88
 11
-0.429636
 21
0.879205
 31
5.88
  0
LINE
  5
45FCA
100
AcDbEntity
  8
0
100
AcDbLine
 10
-0.419585
 20
0.733538
 30
5.88
 11
-0.399483
 21
0.748607
 31
5.88
  0
LINE
  5
45FCB
100
AcDbEntity
  8
0
100
AcDbLine
 10
-0.399483
 20
0.748607
 30
5.88
 11
-0.374356
 21
0.758652
 31
5.88
  0
LINE
  5
45FCC
100
AcDbEntity
  8
0
100
AcDbLine
 10
-0.444713
 20
0.899296
 30
5.88
 11
-0.454764
 21
0.924412
 31
5.88
  0
LINE
  5
45FCD
100
AcDbEntity
  8
0
100
AcDbLine
 10
-0.429636
 20
0.879205
 30
5.88
 11
-0.444713
 21
0.899296
 31
5.88
  0
LINE
  5
45FCE
100
AcDbEntity
  8
0
100
AcDbLine
 10
-0.243691
 20
0.899296
 30
5.88
 11
-0.258768
 21
0.879205
 31
5.88
  0
LINE
  5
45FCF
100
AcDbEntity
  8
0
100
AcDbLine
 10
-0.258768
 20
0.879205
 30
5.88
 11
-0.27887
 21
0.859113
 31
5.88
  0
LINE
  5
45FD0
100
AcDbEntity
  8
0
100
AcDbLine
 10
-0.27887
 20
0.859113
 30
5.88
 11
-0.303997
 21
0.849065
 31
5.88
  0
LINE
  5
45FD1
100
AcDbEntity
  8
0
100
AcDbLine
 10
-0.329126
 20
0.844044
 30
5.88
 11
-0.359279
 21
0.83902
 31
5.88
  0
LINE
  5
45FD2
100
AcDbEntity
  8
0
100
AcDbLine
 10
-0.344203
 20
0.758652
 30
5.88
 11
-0.319074
 21
0.758652
 31
5.88
  0
LINE
  5
45FD3
100
AcDbEntity
  8
0
100
AcDbLine
 10
-0.303997
 20
0.849065
 30
5.88
 11
-0.329126
 21
0.844044
 31
5.88
  0
LINE
  5
45FD4
100
AcDbEntity
  8
0
100
AcDbLine
 10
-0.293946
 20
0.748607
 30
5.88
 11
-0.268819
 21
0.733538
 31
5.88
  0
LINE
  5
45FD5
100
AcDbEntity
  8
0
100
AcDbLine
 10
-0.319074
 20
0.758652
 30
5.88
 11
-0.293946
 21
0.748607
 31
5.88
  0
LINE
  5
45FD6
100
AcDbEntity
  8
0
100
AcDbLine
 10
-0.032616
 20
0.708422
 30
5.88
 11
-0.05272
 21
0.728514
 31
5.88
  0
LINE
  5
45FD7
100
AcDbEntity
  8
0
100
AcDbLine
 10
-0.19846
 20
0.773721
 30
5.88
 11
-0.19846
 21
0.527593
 31
5.88
  0
LINE
  5
45FD8
100
AcDbEntity
  8
0
100
AcDbLine
 10
-0.228615
 20
0.663215
 30
5.88
 11
-0.228615
 21
0.638099
 31
5.88
  0
LINE
  5
45FD9
100
AcDbEntity
  8
0
100
AcDbLine
 10
-0.228615
 20
0.638099
 30
5.88
 11
-0.23364
 21
0.612985
 31
5.88
  0
LINE
  5
45FDA
100
AcDbEntity
  8
0
100
AcDbLine
 10
-0.007489
 20
0.698376
 30
5.88
 11
-0.032616
 21
0.708422
 31
5.88
  0
LINE
  5
45FDB
100
AcDbEntity
  8
0
100
AcDbLine
 10
-0.047695
 20
0.899296
 30
5.88
 11
-0.022565
 21
0.914365
 31
5.88
  0
LINE
  5
45FDC
100
AcDbEntity
  8
0
100
AcDbLine
 10
-0.022565
 20
0.914365
 30
5.88
 11
0.002562
 21
0.919388
 31
5.88
  0
LINE
  5
45FDD
100
AcDbEntity
  8
0
100
AcDbLine
 10
-0.082873
 20
0.828975
 30
5.88
 11
-0.077848
 21
0.854089
 31
5.88
  0
LINE
  5
45FDE
100
AcDbEntity
  8
0
100
AcDbLine
 10
-0.077848
 20
0.854089
 30
5.88
 11
-0.062769
 21
0.879205
 31
5.88
  0
LINE
  5
45FDF
100
AcDbEntity
  8
0
100
AcDbLine
 10
-0.082873
 20
0.773721
 30
5.88
 11
-0.087899
 21
0.798835
 31
5.88
  0
LINE
  5
45FE0
100
AcDbEntity
  8
0
100
AcDbLine
 10
-0.087899
 20
0.798835
 30
5.88
 11
-0.082873
 21
0.828975
 31
5.88
  0
LINE
  5
45FE1
100
AcDbEntity
  8
0
100
AcDbLine
 10
-0.062769
 20
0.879205
 30
5.88
 11
-0.047695
 21
0.899296
 31
5.88
  0
LINE
  5
45FE2
100
AcDbEntity
  8
0
100
AcDbLine
 10
-0.05272
 20
0.728514
 30
5.88
 11
-0.072822
 21
0.748607
 31
5.88
  0
LINE
  5
45FE3
100
AcDbEntity
  8
0
100
AcDbLine
 10
-0.072822
 20
0.748607
 30
5.88
 11
-0.082873
 21
0.773721
 31
5.88
  0
LINE
  5
45FE4
100
AcDbEntity
  8
0
100
AcDbLine
 10
-0.238666
 20
1.316207
 30
5.88
 11
-0.228615
 21
1.291091
 31
5.88
  0
LINE
  5
45FE5
100
AcDbEntity
  8
0
100
AcDbLine
 10
-0.23364
 20
1.235839
 30
5.88
 11
-0.243691
 21
1.215746
 31
5.88
  0
LINE
  5
45FE6
100
AcDbEntity
  8
0
100
AcDbLine
 10
-0.238666
 20
1.00478
 30
5.88
 11
-0.228615
 21
0.979666
 31
5.88
  0
LINE
  5
45FE7
100
AcDbEntity
  8
0
100
AcDbLine
 10
-0.374356
 20
1.070079
 30
5.88
 11
-0.344203
 21
1.075103
 31
5.88
  0
LINE
  5
45FE8
100
AcDbEntity
  8
0
100
AcDbLine
 10
-0.439687
 20
1.024871
 30
5.88
 11
-0.419585
 21
1.044963
 31
5.88
  0
LINE
  5
45FE9
100
AcDbEntity
  8
0
100
AcDbLine
 10
-0.419585
 20
1.044963
 30
5.88
 11
-0.399483
 21
1.060032
 31
5.88
  0
LINE
  5
45FEA
100
AcDbEntity
  8
0
100
AcDbLine
 10
-0.399483
 20
1.060032
 30
5.88
 11
-0.374356
 21
1.070079
 31
5.88
  0
LINE
  5
45FEB
100
AcDbEntity
  8
0
100
AcDbLine
 10
-0.459791
 20
0.979666
 30
5.88
 11
-0.454764
 21
1.00478
 31
5.88
  0
LINE
  5
45FEC
100
AcDbEntity
  8
0
100
AcDbLine
 10
-0.459791
 20
0.949526
 30
5.88
 11
-0.459791
 21
0.979666
 31
5.88
  0
LINE
  5
45FED
100
AcDbEntity
  8
0
100
AcDbLine
 10
-0.454764
 20
1.00478
 30
5.88
 11
-0.439687
 21
1.024871
 31
5.88
  0
LINE
  5
45FEE
100
AcDbEntity
  8
0
100
AcDbLine
 10
-0.293946
 20
1.060032
 30
5.88
 11
-0.268819
 21
1.049987
 31
5.88
  0
LINE
  5
45FEF
100
AcDbEntity
  8
0
100
AcDbLine
 10
-0.268819
 20
1.049987
 30
5.88
 11
-0.253742
 21
1.029894
 31
5.88
  0
LINE
  5
45FF0
100
AcDbEntity
  8
0
100
AcDbLine
 10
-0.253742
 20
1.029894
 30
5.88
 11
-0.238666
 21
1.00478
 31
5.88
  0
LINE
  5
45FF1
100
AcDbEntity
  8
0
100
AcDbLine
 10
-0.344203
 20
1.075103
 30
5.88
 11
-0.319074
 21
1.070079
 31
5.88
  0
LINE
  5
45FF2
100
AcDbEntity
  8
0
100
AcDbLine
 10
-0.319074
 20
1.070079
 30
5.88
 11
-0.293946
 21
1.060032
 31
5.88
  0
LINE
  5
45FF3
100
AcDbEntity
  8
0
100
AcDbLine
 10
-0.359279
 20
1.155471
 30
5.88
 11
-0.384407
 21
1.160493
 31
5.88
  0
LINE
  5
45FF4
100
AcDbEntity
  8
0
100
AcDbLine
 10
-0.384407
 20
1.160493
 30
5.88
 11
-0.409534
 21
1.17054
 31
5.88
  0
LINE
  5
45FF5
100
AcDbEntity
  8
0
100
AcDbLine
 10
-0.409534
 20
1.17054
 30
5.88
 11
-0.429636
 21
1.190632
 31
5.88
  0
LINE
  5
45FF6
100
AcDbEntity
  8
0
100
AcDbLine
 10
-0.459791
 20
1.291091
 30
5.88
 11
-0.454764
 21
1.316207
 31
5.88
  0
LINE
  5
45FF7
100
AcDbEntity
  8
0
100
AcDbLine
 10
-0.444713
 20
1.210723
 30
5.88
 11
-0.454764
 21
1.235839
 31
5.88
  0
LINE
  5
45FF8
100
AcDbEntity
  8
0
100
AcDbLine
 10
-0.454764
 20
1.235839
 30
5.88
 11
-0.459791
 21
1.265977
 31
5.88
  0
LINE
  5
45FF9
100
AcDbEntity
  8
0
100
AcDbLine
 10
-0.459791
 20
1.265977
 30
5.88
 11
-0.459791
 21
1.291091
 31
5.88
  0
LINE
  5
45FFA
100
AcDbEntity
  8
0
100
AcDbLine
 10
-0.454764
 20
1.316207
 30
5.88
 11
-0.439687
 21
1.341321
 31
5.88
  0
LINE
  5
45FFB
100
AcDbEntity
  8
0
100
AcDbLine
 10
-0.429636
 20
1.190632
 30
5.88
 11
-0.444713
 21
1.210723
 31
5.88
  0
LINE
  5
45FFC
100
AcDbEntity
  8
0
100
AcDbLine
 10
-0.253742
 20
1.341321
 30
5.88
 11
-0.238666
 21
1.316207
 31
5.88
  0
LINE
  5
45FFD
100
AcDbEntity
  8
0
100
AcDbLine
 10
-0.243691
 20
1.215746
 30
5.88
 11
-0.258768
 21
1.190632
 31
5.88
  0
LINE
  5
45FFE
100
AcDbEntity
  8
0
100
AcDbLine
 10
-0.258768
 20
1.190632
 30
5.88
 11
-0.27887
 21
1.175561
 31
5.88
  0
LINE
  5
45FFF
100
AcDbEntity
  8
0
100
AcDbLine
 10
-0.27887
 20
1.175561
 30
5.88
 11
-0.303997
 21
1.160493
 31
5.88
  0
LINE
  5
46000
100
AcDbEntity
  8
0
100
AcDbLine
 10
-0.329126
 20
1.155471
 30
5.88
 11
-0.359279
 21
1.155471
 31
5.88
  0
LINE
  5
46001
100
AcDbEntity
  8
0
100
AcDbLine
 10
-0.303997
 20
1.160493
 30
5.88
 11
-0.329126
 21
1.155471
 31
5.88
  0
LINE
  5
46002
100
AcDbEntity
  8
0
100
AcDbLine
 10
-0.143179
 20
1.00478
 30
5.88
 11
-0.143179
 21
1.250908
 31
5.88
  0
LINE
  5
46003
100
AcDbEntity
  8
0
100
AcDbLine
 10
-0.082873
 20
1.1404
 30
5.88
 11
-0.077848
 21
1.165516
 31
5.88
  0
LINE
  5
46004
100
AcDbEntity
  8
0
100
AcDbLine
 10
-0.228615
 20
0.979666
 30
5.88
 11
-0.228615
 21
0.949526
 31
5.88
  0
LINE
  5
46005
100
AcDbEntity
  8
0
100
AcDbLine
 10
-0.007489
 20
1.009802
 30
5.88
 11
-0.032616
 21
1.024871
 31
5.88
  0
LINE
  5
46006
100
AcDbEntity
  8
0
100
AcDbLine
 10
-0.032616
 20
1.024871
 30
5.88
 11
-0.05272
 21
1.039941
 31
5.88
  0
LINE
  5
46007
100
AcDbEntity
  8
0
100
AcDbLine
 10
-0.072822
 20
1.060032
 30
5.88
 11
-0.082873
 21
1.085148
 31
5.88
  0
LINE
  5
46008
100
AcDbEntity
  8
0
100
AcDbLine
 10
-0.082873
 20
1.085148
 30
5.88
 11
-0.087899
 21
1.115286
 31
5.88
  0
LINE
  5
46009
100
AcDbEntity
  8
0
100
AcDbLine
 10
-0.087899
 20
1.115286
 30
5.88
 11
-0.082873
 21
1.1404
 31
5.88
  0
LINE
  5
4600A
100
AcDbEntity
  8
0
100
AcDbLine
 10
-0.05272
 20
1.039941
 30
5.88
 11
-0.072822
 21
1.060032
 31
5.88
  0
LINE
  5
4600B
100
AcDbEntity
  8
0
100
AcDbLine
 10
-0.228615
 20
1.291091
 30
5.88
 11
-0.228615
 21
1.265977
 31
5.88
  0
LINE
  5
4600C
100
AcDbEntity
  8
0
100
AcDbLine
 10
-0.228615
 20
1.265977
 30
5.88
 11
-0.23364
 21
1.235839
 31
5.88
  0
LINE
  5
4600D
100
AcDbEntity
  8
0
100
AcDbLine
 10
-0.007489
 20
1.326252
 30
5.88
 11
-0.032616
 21
1.3363
 31
5.88
  0
LINE
  5
4600E
100
AcDbEntity
  8
0
100
AcDbLine
 10
-0.047695
 20
1.210723
 30
5.88
 11
-0.022565
 21
1.225794
 31
5.88
  0
LINE
  5
4600F
100
AcDbEntity
  8
0
100
AcDbLine
 10
-0.022565
 20
1.225794
 30
5.88
 11
0.002562
 21
1.235839
 31
5.88
  0
LINE
  5
46010
100
AcDbEntity
  8
0
100
AcDbLine
 10
-0.077848
 20
1.165516
 30
5.88
 11
-0.062769
 21
1.190632
 31
5.88
  0
LINE
  5
46011
100
AcDbEntity
  8
0
100
AcDbLine
 10
-0.062769
 20
1.190632
 30
5.88
 11
-0.047695
 21
1.210723
 31
5.88
  0
LINE
  5
46012
100
AcDbEntity
  8
0
100
AcDbLine
 10
0.178457
 20
0.939481
 30
5.88
 11
0.178457
 21
0.693353
 31
5.88
  0
LINE
  5
46013
100
AcDbEntity
  8
0
100
AcDbLine
 10
0.118151
 20
0.728514
 30
5.88
 11
0.093021
 21
0.708422
 31
5.88
  0
LINE
  5
46014
100
AcDbEntity
  8
0
100
AcDbLine
 10
0.093021
 20
0.708422
 30
5.88
 11
0.072919
 21
0.698376
 31
5.88
  0
LINE
  5
46015
100
AcDbEntity
  8
0
100
AcDbLine
 10
0.042766
 20
0.693353
 30
5.88
 11
0.017639
 21
0.693353
 31
5.88
  0
LINE
  5
46016
100
AcDbEntity
  8
0
100
AcDbLine
 10
0.072919
 20
0.698376
 30
5.88
 11
0.042766
 21
0.693353
 31
5.88
  0
LINE
  5
46017
100
AcDbEntity
  8
0
100
AcDbLine
 10
0.138253
 20
0.854089
 30
5.88
 11
0.143278
 21
0.828975
 31
5.88
  0
LINE
  5
46018
100
AcDbEntity
  8
0
100
AcDbLine
 10
0.143278
 20
0.773721
 30
5.88
 11
0.133227
 21
0.748607
 31
5.88
  0
LINE
  5
46019
100
AcDbEntity
  8
0
100
AcDbLine
 10
0.08297
 20
0.914365
 30
5.88
 11
0.103074
 21
0.899296
 31
5.88
  0
LINE
  5
4601A
100
AcDbEntity
  8
0
100
AcDbLine
 10
0.103074
 20
0.899296
 30
5.88
 11
0.123176
 21
0.879205
 31
5.88
  0
LINE
  5
4601B
100
AcDbEntity
  8
0
100
AcDbLine
 10
0.123176
 20
0.879205
 30
5.88
 11
0.138253
 21
0.854089
 31
5.88
  0
LINE
  5
4601C
100
AcDbEntity
  8
0
100
AcDbLine
 10
0.133227
 20
0.748607
 30
5.88
 11
0.118151
 21
0.728514
 31
5.88
  0
LINE
  5
4601D
100
AcDbEntity
  8
0
100
AcDbLine
 10
0.02769
 20
0.924412
 30
5.88
 11
0.057843
 21
0.919388
 31
5.88
  0
LINE
  5
4601E
100
AcDbEntity
  8
0
100
AcDbLine
 10
0.057843
 20
0.919388
 30
5.88
 11
0.08297
 21
0.914365
 31
5.88
  0
LINE
  5
4601F
100
AcDbEntity
  8
0
100
AcDbLine
 10
0.143278
 20
0.828975
 30
5.88
 11
0.148304
 21
0.803859
 31
5.88
  0
LINE
  5
46020
100
AcDbEntity
  8
0
100
AcDbLine
 10
0.148304
 20
0.803859
 30
5.88
 11
0.143278
 21
0.773721
 31
5.88
  0
LINE
  5
46021
100
AcDbEntity
  8
0
100
AcDbLine
 10
0.178457
 20
1.250908
 30
5.88
 11
0.178457
 21
1.00478
 31
5.88
  0
LINE
  5
46022
100
AcDbEntity
  8
0
100
AcDbLine
 10
0.138253
 20
1.17054
 30
5.88
 11
0.143278
 21
1.1404
 31
5.88
  0
LINE
  5
46023
100
AcDbEntity
  8
0
100
AcDbLine
 10
0.143278
 20
1.090172
 30
5.88
 11
0.133227
 21
1.065056
 31
5.88
  0
LINE
  5
46024
100
AcDbEntity
  8
0
100
AcDbLine
 10
0.133227
 20
1.065056
 30
5.88
 11
0.118151
 21
1.039941
 31
5.88
  0
LINE
  5
46025
100
AcDbEntity
  8
0
100
AcDbLine
 10
0.118151
 20
1.039941
 30
5.88
 11
0.093021
 21
1.024871
 31
5.88
  0
LINE
  5
46026
100
AcDbEntity
  8
0
100
AcDbLine
 10
0.093021
 20
1.024871
 30
5.88
 11
0.072919
 21
1.009802
 31
5.88
  0
LINE
  5
46027
100
AcDbEntity
  8
0
100
AcDbLine
 10
0.042766
 20
1.00478
 30
5.88
 11
0.017639
 21
1.00478
 31
5.88
  0
LINE
  5
46028
100
AcDbEntity
  8
0
100
AcDbLine
 10
0.072919
 20
1.009802
 30
5.88
 11
0.042766
 21
1.00478
 31
5.88
  0
LINE
  5
46029
100
AcDbEntity
  8
0
100
AcDbLine
 10
0.143278
 20
1.1404
 30
5.88
 11
0.148304
 21
1.115286
 31
5.88
  0
LINE
  5
4602A
100
AcDbEntity
  8
0
100
AcDbLine
 10
0.148304
 20
1.115286
 30
5.88
 11
0.143278
 21
1.090172
 31
5.88
  0
LINE
  5
4602B
100
AcDbEntity
  8
0
100
AcDbLine
 10
0.093021
 20
1.3363
 30
5.88
 11
0.072919
 21
1.326252
 31
5.88
  0
LINE
  5
4602C
100
AcDbEntity
  8
0
100
AcDbLine
 10
0.08297
 20
1.225794
 30
5.88
 11
0.103074
 21
1.210723
 31
5.88
  0
LINE
  5
4602D
100
AcDbEntity
  8
0
100
AcDbLine
 10
0.103074
 20
1.210723
 30
5.88
 11
0.123176
 21
1.190632
 31
5.88
  0
LINE
  5
4602E
100
AcDbEntity
  8
0
100
AcDbLine
 10
0.123176
 20
1.190632
 30
5.88
 11
0.138253
 21
1.17054
 31
5.88
  0
LINE
  5
4602F
100
AcDbEntity
  8
0
100
AcDbLine
 10
0.042766
 20
1.316207
 30
5.88
 11
0.017639
 21
1.316207
 31
5.88
  0
LINE
  5
46030
100
AcDbEntity
  8
0
100
AcDbLine
 10
0.02769
 20
1.235839
 30
5.88
 11
0.057843
 21
1.235839
 31
5.88
  0
LINE
  5
46031
100
AcDbEntity
  8
0
100
AcDbLine
 10
0.072919
 20
1.326252
 30
5.88
 11
0.042766
 21
1.316207
 31
5.88
  0
LINE
  5
46032
100
AcDbEntity
  8
0
100
AcDbLine
 10
0.057843
 20
1.235839
 30
5.88
 11
0.08297
 21
1.225794
 31
5.88
  0
LINE
  5
46033
100
AcDbEntity
  8
0
100
AcDbLine
 10
-0.19846
 20
4.601261
 30
5.88
 11
-0.520097
 21
4.601261
 31
5.88
  0
LINE
  5
46034
100
AcDbEntity
  8
0
100
AcDbLine
 10
-0.520097
 20
4.535962
 30
5.88
 11
-0.19846
 21
4.535962
 31
5.88
  0
LINE
  5
46035
100
AcDbEntity
  8
0
100
AcDbLine
 10
-0.19846
 20
4.289834
 30
5.88
 11
-0.520097
 21
4.289834
 31
5.88
  0
LINE
  5
46036
100
AcDbEntity
  8
0
100
AcDbLine
 10
-0.520097
 20
4.219512
 30
5.88
 11
-0.19846
 21
4.219512
 31
5.88
  0
LINE
  5
46037
100
AcDbEntity
  8
0
100
AcDbLine
 10
-0.19846
 20
3.973384
 30
5.88
 11
-0.520097
 21
3.973384
 31
5.88
  0
LINE
  5
46038
100
AcDbEntity
  8
0
100
AcDbLine
 10
-0.520097
 20
3.908084
 30
5.88
 11
-0.19846
 21
3.908084
 31
5.88
  0
LINE
  5
46039
100
AcDbEntity
  8
0
100
AcDbLine
 10
-0.19846
 20
3.661957
 30
5.88
 11
-0.520097
 21
3.661957
 31
5.88
  0
LINE
  5
4603A
100
AcDbEntity
  8
0
100
AcDbLine
 10
-0.520097
 20
3.596657
 30
5.88
 11
-0.19846
 21
3.596657
 31
5.88
  0
LINE
  5
4603B
100
AcDbEntity
  8
0
100
AcDbLine
 10
-0.19846
 20
3.350529
 30
5.88
 11
-0.520097
 21
3.350529
 31
5.88
  0
LINE
  5
4603C
100
AcDbEntity
  8
0
100
AcDbLine
 10
-0.520097
 20
3.280207
 30
5.88
 11
-0.19846
 21
3.280207
 31
5.88
  0
LINE
  5
4603D
100
AcDbEntity
  8
0
100
AcDbLine
 10
-0.19846
 20
3.034079
 30
5.88
 11
-0.520097
 21
3.034079
 31
5.88
  0
LINE
  5
4603E
100
AcDbEntity
  8
0
100
AcDbLine
 10
-0.520097
 20
2.96878
 30
5.88
 11
-0.19846
 21
2.96878
 31
5.88
  0
LINE
  5
4603F
100
AcDbEntity
  8
0
100
AcDbLine
 10
-0.19846
 20
2.722652
 30
5.88
 11
-0.520097
 21
2.722652
 31
5.88
  0
LINE
  5
46040
100
AcDbEntity
  8
0
100
AcDbLine
 10
-0.520097
 20
2.652329
 30
5.88
 11
-0.19846
 21
2.652329
 31
5.88
  0
LINE
  5
46041
100
AcDbEntity
  8
0
100
AcDbLine
 10
-0.19846
 20
2.406201
 30
5.88
 11
-0.520097
 21
2.406201
 31
5.88
  0
LINE
  5
46042
100
AcDbEntity
  8
0
100
AcDbLine
 10
-0.520097
 20
2.340904
 30
5.88
 11
-0.19846
 21
2.340904
 31
5.88
  0
LINE
  5
46043
100
AcDbEntity
  8
0
100
AcDbLine
 10
-0.19846
 20
2.094776
 30
5.88
 11
-0.520097
 21
2.094776
 31
5.88
  0
LINE
  5
46044
100
AcDbEntity
  8
0
100
AcDbLine
 10
-0.520097
 20
2.029475
 30
5.88
 11
-0.19846
 21
2.029475
 31
5.88
  0
LINE
  5
46045
100
AcDbEntity
  8
0
100
AcDbLine
 10
-0.19846
 20
1.783347
 30
5.88
 11
-0.520097
 21
1.783347
 31
5.88
  0
LINE
  5
46046
100
AcDbEntity
  8
0
100
AcDbLine
 10
-0.520097
 20
1.713026
 30
5.88
 11
-0.19846
 21
1.713026
 31
5.88
  0
LINE
  5
46047
100
AcDbEntity
  8
0
100
AcDbLine
 10
-0.19846
 20
1.466898
 30
5.88
 11
-0.520097
 21
1.466898
 31
5.88
  0
LINE
  5
46048
100
AcDbEntity
  8
0
100
AcDbLine
 10
-0.520097
 20
1.401599
 30
5.88
 11
-0.19846
 21
1.401599
 31
5.88
  0
LINE
  5
46049
100
AcDbEntity
  8
0
100
AcDbLine
 10
-0.520097
 20
2.094776
 30
5.88
 11
-0.520097
 21
2.340904
 31
5.88
  0
LINE
  5
4604A
100
AcDbEntity
  8
0
100
AcDbLine
 10
-0.520097
 20
1.466898
 30
5.88
 11
-0.520097
 21
1.713026
 31
5.88
  0
LINE
  5
4604B
100
AcDbEntity
  8
0
100
AcDbLine
 10
-0.520097
 20
1.783347
 30
5.88
 11
-0.520097
 21
2.029475
 31
5.88
  0
LINE
  5
4604C
100
AcDbEntity
  8
0
100
AcDbLine
 10
-0.520097
 20
2.406201
 30
5.88
 11
-0.520097
 21
2.652329
 31
5.88
  0
LINE
  5
4604D
100
AcDbEntity
  8
0
100
AcDbLine
 10
-0.520097
 20
2.722652
 30
5.88
 11
-0.520097
 21
2.96878
 31
5.88
  0
LINE
  5
4604E
100
AcDbEntity
  8
0
100
AcDbLine
 10
-0.520097
 20
3.661957
 30
5.88
 11
-0.520097
 21
3.908084
 31
5.88
  0
LINE
  5
4604F
100
AcDbEntity
  8
0
100
AcDbLine
 10
-0.520097
 20
3.350529
 30
5.88
 11
-0.520097
 21
3.596657
 31
5.88
  0
LINE
  5
46050
100
AcDbEntity
  8
0
100
AcDbLine
 10
-0.520097
 20
3.034079
 30
5.88
 11
-0.520097
 21
3.280207
 31
5.88
  0
LINE
  5
46051
100
AcDbEntity
  8
0
100
AcDbLine
 10
-0.520097
 20
3.973384
 30
5.88
 11
-0.520097
 21
4.219512
 31
5.88
  0
LINE
  5
46052
100
AcDbEntity
  8
0
100
AcDbLine
 10
-0.520097
 20
4.289834
 30
5.88
 11
-0.520097
 21
4.535962
 31
5.88
  0
LINE
  5
46053
100
AcDbEntity
  8
0
100
AcDbLine
 10
0.143278
 20
3.024033
 30
5.88
 11
0.148304
 21
2.993894
 31
5.88
  0
LINE
  5
46054
100
AcDbEntity
  8
0
100
AcDbLine
 10
-0.082873
 20
3.01901
 30
5.88
 11
-0.077848
 21
3.049148
 31
5.88
  0
LINE
  5
46055
100
AcDbEntity
  8
0
100
AcDbLine
 10
0.178457
 20
3.129518
 30
5.88
 11
0.178457
 21
2.883388
 31
5.88
  0
LINE
  5
46056
100
AcDbEntity
  8
0
100
AcDbLine
 10
-0.143179
 20
2.883388
 30
5.88
 11
-0.143179
 21
3.129518
 31
5.88
  0
LINE
  5
46057
100
AcDbEntity
  8
0
100
AcDbLine
 10
-0.042667
 20
3.094356
 30
5.88
 11
0.1081
 21
2.918549
 31
5.88
  0
LINE
  5
46058
100
AcDbEntity
  8
0
100
AcDbLine
 10
-0.228615
 20
2.205282
 30
5.88
 11
-0.23364
 21
2.180166
 31
5.88
  0
LINE
  5
46059
100
AcDbEntity
  8
0
100
AcDbLine
 10
0.178457
 20
2.190213
 30
5.88
 11
0.178457
 21
1.944085
 31
5.88
  0
LINE
  5
4605A
100
AcDbEntity
  8
0
100
AcDbLine
 10
-0.143179
 20
1.944085
 30
5.88
 11
-0.143179
 21
2.190213
 31
5.88
  0
LINE
  5
4605B
100
AcDbEntity
  8
0
100
AcDbLine
 10
-0.19846
 20
2.340904
 30
5.88
 11
-0.19846
 21
2.094776
 31
5.88
  0
LINE
  5
4605C
100
AcDbEntity
  8
0
100
AcDbLine
 10
-0.419585
 20
2.300719
 30
5.88
 11
-0.263793
 21
2.124912
 31
5.88
  0
LINE
  5
4605D
100
AcDbEntity
  8
0
100
AcDbLine
 10
-0.454764
 20
2.175144
 30
5.88
 11
-0.459791
 21
2.205282
 31
5.88
  0
LINE
  5
4605E
100
AcDbEntity
  8
0
100
AcDbLine
 10
0.002562
 20
2.175144
 30
5.88
 11
0.02769
 21
2.180166
 31
5.88
  0
LINE
  5
4605F
100
AcDbEntity
  8
0
100
AcDbLine
 10
0.002562
 20
1.863717
 30
5.88
 11
0.02769
 21
1.863717
 31
5.88
  0
LINE
  5
46060
100
AcDbEntity
  8
0
100
AcDbLine
 10
0.017639
 20
1.944085
 30
5.88
 11
-0.007489
 21
1.949107
 31
5.88
  0
LINE
  5
46061
100
AcDbEntity
  8
0
100
AcDbLine
 10
0.017639
 20
1.632656
 30
5.88
 11
-0.007489
 21
1.637681
 31
5.88
  0
LINE
  5
46062
100
AcDbEntity
  8
0
100
AcDbLine
 10
0.002562
 20
1.547266
 30
5.88
 11
0.02769
 21
1.552288
 31
5.88
  0
LINE
  5
46063
100
AcDbEntity
  8
0
100
AcDbLine
 10
0.178457
 20
1.944085
 30
5.88
 11
-0.143179
 21
1.944085
 31
5.88
  0
LINE
  5
46064
100
AcDbEntity
  8
0
100
AcDbLine
 10
-0.143179
 20
1.878784
 30
5.88
 11
0.178457
 21
1.878784
 31
5.88
  0
LINE
  5
46065
100
AcDbEntity
  8
0
100
AcDbLine
 10
0.178457
 20
1.632656
 30
5.88
 11
-0.143179
 21
1.632656
 31
5.88
  0
LINE
  5
46066
100
AcDbEntity
  8
0
100
AcDbLine
 10
-0.042667
 20
1.838601
 30
5.88
 11
0.1081
 21
1.662796
 31
5.88
  0
LINE
  5
46067
100
AcDbEntity
  8
0
100
AcDbLine
 10
-0.143179
 20
1.562335
 30
5.88
 11
0.178457
 21
1.562335
 31
5.88
  0
LINE
  5
46068
100
AcDbEntity
  8
0
100
AcDbLine
 10
-0.042667
 20
1.527174
 30
5.88
 11
0.1081
 21
1.351368
 31
5.88
  0
LINE
  5
46069
100
AcDbEntity
  8
0
100
AcDbLine
 10
-0.042667
 20
2.150028
 30
5.88
 11
0.1081
 21
1.974223
 31
5.88
  0
LINE
  5
4606A
100
AcDbEntity
  8
0
100
AcDbLine
 10
-0.082873
 20
1.768278
 30
5.88
 11
-0.077848
 21
1.793394
 31
5.88
  0
LINE
  5
4606B
100
AcDbEntity
  8
0
100
AcDbLine
 10
-0.143179
 20
1.632656
 30
5.88
 11
-0.143179
 21
1.878784
 31
5.88
  0
LINE
  5
4606C
100
AcDbEntity
  8
0
100
AcDbLine
 10
-0.238666
 20
1.632656
 30
5.88
 11
-0.228615
 21
1.607542
 31
5.88
  0
LINE
  5
4606D
100
AcDbEntity
  8
0
100
AcDbLine
 10
-0.23364
 20
1.552288
 30
5.88
 11
-0.243691
 21
1.527174
 31
5.88
  0
LINE
  5
4606E
100
AcDbEntity
  8
0
100
AcDbLine
 10
-0.419585
 20
1.672841
 30
5.88
 11
-0.263793
 21
1.497036
 31
5.88
  0
LINE
  5
4606F
100
AcDbEntity
  8
0
100
AcDbLine
 10
-0.454764
 20
1.552288
 30
5.88
 11
-0.459791
 21
1.577404
 31
5.88
  0
LINE
  5
46070
100
AcDbEntity
  8
0
100
AcDbLine
 10
-0.359279
 20
1.466898
 30
5.88
 11
-0.384407
 21
1.471922
 31
5.88
  0
LINE
  5
46071
100
AcDbEntity
  8
0
100
AcDbLine
 10
-0.374356
 20
1.386528
 30
5.88
 11
-0.344203
 21
1.386528
 31
5.88
  0
LINE
  5
46072
100
AcDbEntity
  8
0
100
AcDbLine
 10
-0.384407
 20
1.471922
 30
5.88
 11
-0.409534
 21
1.48699
 31
5.88
  0
LINE
  5
46073
100
AcDbEntity
  8
0
100
AcDbLine
 10
-0.409534
 20
1.48699
 30
5.88
 11
-0.429636
 21
1.502057
 31
5.88
  0
LINE
  5
46074
100
AcDbEntity
  8
0
100
AcDbLine
 10
-0.419585
 20
1.361414
 30
5.88
 11
-0.399483
 21
1.376483
 31
5.88
  0
LINE
  5
46075
100
AcDbEntity
  8
0
100
AcDbLine
 10
-0.399483
 20
1.376483
 30
5.88
 11
-0.374356
 21
1.386528
 31
5.88
  0
LINE
  5
46076
100
AcDbEntity
  8
0
100
AcDbLine
 10
-0.444713
 20
1.527174
 30
5.88
 11
-0.454764
 21
1.552288
 31
5.88
  0
LINE
  5
46077
100
AcDbEntity
  8
0
100
AcDbLine
 10
-0.429636
 20
1.502057
 30
5.88
 11
-0.444713
 21
1.527174
 31
5.88
  0
LINE
  5
46078
100
AcDbEntity
  8
0
100
AcDbLine
 10
-0.243691
 20
1.527174
 30
5.88
 11
-0.258768
 21
1.507083
 31
5.88
  0
LINE
  5
46079
100
AcDbEntity
  8
0
100
AcDbLine
 10
-0.258768
 20
1.507083
 30
5.88
 11
-0.27887
 21
1.48699
 31
5.88
  0
LINE
  5
4607A
100
AcDbEntity
  8
0
100
AcDbLine
 10
-0.27887
 20
1.48699
 30
5.88
 11
-0.303997
 21
1.476943
 31
5.88
  0
LINE
  5
4607B
100
AcDbEntity
  8
0
100
AcDbLine
 10
-0.293946
 20
1.376483
 30
5.88
 11
-0.268819
 21
1.361414
 31
5.88
  0
LINE
  5
4607C
100
AcDbEntity
  8
0
100
AcDbLine
 10
-0.329126
 20
1.466898
 30
5.88
 11
-0.359279
 21
1.466898
 31
5.88
  0
LINE
  5
4607D
100
AcDbEntity
  8
0
100
AcDbLine
 10
-0.344203
 20
1.386528
 30
5.88
 11
-0.319074
 21
1.386528
 31
5.88
  0
LINE
  5
4607E
100
AcDbEntity
  8
0
100
AcDbLine
 10
-0.303997
 20
1.476943
 30
5.88
 11
-0.329126
 21
1.466898
 31
5.88
  0
LINE
  5
4607F
100
AcDbEntity
  8
0
100
AcDbLine
 10
-0.319074
 20
1.386528
 30
5.88
 11
-0.293946
 21
1.376483
 31
5.88
  0
LINE
  5
46080
100
AcDbEntity
  8
0
100
AcDbLine
 10
-0.374356
 20
1.697957
 30
5.88
 11
-0.344203
 21
1.702979
 31
5.88
  0
LINE
  5
46081
100
AcDbEntity
  8
0
100
AcDbLine
 10
-0.439687
 20
1.652748
 30
5.88
 11
-0.419585
 21
1.672841
 31
5.88
  0
LINE
  5
46082
100
AcDbEntity
  8
0
100
AcDbLine
 10
-0.419585
 20
1.672841
 30
5.88
 11
-0.399483
 21
1.68791
 31
5.88
  0
LINE
  5
46083
100
AcDbEntity
  8
0
100
AcDbLine
 10
-0.399483
 20
1.68791
 30
5.88
 11
-0.374356
 21
1.697957
 31
5.88
  0
LINE
  5
46084
100
AcDbEntity
  8
0
100
AcDbLine
 10
-0.459791
 20
1.60252
 30
5.88
 11
-0.454764
 21
1.632656
 31
5.88
  0
LINE
  5
46085
100
AcDbEntity
  8
0
100
AcDbLine
 10
-0.459791
 20
1.577404
 30
5.88
 11
-0.459791
 21
1.60252
 31
5.88
  0
LINE
  5
46086
100
AcDbEntity
  8
0
100
AcDbLine
 10
-0.454764
 20
1.632656
 30
5.88
 11
-0.439687
 21
1.652748
 31
5.88
  0
LINE
  5
46087
100
AcDbEntity
  8
0
100
AcDbLine
 10
-0.293946
 20
1.68791
 30
5.88
 11
-0.268819
 21
1.672841
 31
5.88
  0
LINE
  5
46088
100
AcDbEntity
  8
0
100
AcDbLine
 10
-0.268819
 20
1.672841
 30
5.88
 11
-0.253742
 21
1.652748
 31
5.88
  0
LINE
  5
46089
100
AcDbEntity
  8
0
100
AcDbLine
 10
-0.253742
 20
1.652748
 30
5.88
 11
-0.238666
 21
1.632656
 31
5.88
  0
LINE
  5
4608A
100
AcDbEntity
  8
0
100
AcDbLine
 10
-0.344203
 20
1.702979
 30
5.88
 11
-0.319074
 21
1.697957
 31
5.88
  0
LINE
  5
4608B
100
AcDbEntity
  8
0
100
AcDbLine
 10
-0.319074
 20
1.697957
 30
5.88
 11
-0.293946
 21
1.68791
 31
5.88
  0
LINE
  5
4608C
100
AcDbEntity
  8
0
100
AcDbLine
 10
-0.228615
 20
1.577404
 30
5.88
 11
-0.23364
 21
1.552288
 31
5.88
  0
LINE
  5
4608D
100
AcDbEntity
  8
0
100
AcDbLine
 10
-0.19846
 20
1.713026
 30
5.88
 11
-0.19846
 21
1.466898
 31
5.88
  0
LINE
  5
4608E
100
AcDbEntity
  8
0
100
AcDbLine
 10
-0.047695
 20
1.52215
 30
5.88
 11
-0.022565
 21
1.537219
 31
5.88
  0
LINE
  5
4608F
100
AcDbEntity
  8
0
100
AcDbLine
 10
-0.022565
 20
1.537219
 30
5.88
 11
0.002562
 21
1.547266
 31
5.88
  0
LINE
  5
46090
100
AcDbEntity
  8
0
100
AcDbLine
 10
-0.082873
 20
1.451829
 30
5.88
 11
-0.077848
 21
1.481967
 31
5.88
  0
LINE
  5
46091
100
AcDbEntity
  8
0
100
AcDbLine
 10
-0.077848
 20
1.481967
 30
5.88
 11
-0.062769
 21
1.502057
 31
5.88
  0
LINE
  5
46092
100
AcDbEntity
  8
0
100
AcDbLine
 10
-0.072822
 20
1.376483
 30
5.88
 11
-0.082873
 21
1.401599
 31
5.88
  0
LINE
  5
46093
100
AcDbEntity
  8
0
100
AcDbLine
 10
-0.082873
 20
1.401599
 30
5.88
 11
-0.087899
 21
1.426713
 31
5.88
  0
LINE
  5
46094
100
AcDbEntity
  8
0
100
AcDbLine
 10
-0.087899
 20
1.426713
 30
5.88
 11
-0.082873
 21
1.451829
 31
5.88
  0
LINE
  5
46095
100
AcDbEntity
  8
0
100
AcDbLine
 10
-0.062769
 20
1.502057
 30
5.88
 11
-0.047695
 21
1.52215
 31
5.88
  0
LINE
  5
46096
100
AcDbEntity
  8
0
100
AcDbLine
 10
-0.05272
 20
1.351368
 30
5.88
 11
-0.072822
 21
1.376483
 31
5.88
  0
LINE
  5
46097
100
AcDbEntity
  8
0
100
AcDbLine
 10
-0.228615
 20
1.607542
 30
5.88
 11
-0.228615
 21
1.577404
 31
5.88
  0
LINE
  5
46098
100
AcDbEntity
  8
0
100
AcDbLine
 10
-0.007489
 20
1.637681
 30
5.88
 11
-0.032616
 21
1.647727
 31
5.88
  0
LINE
  5
46099
100
AcDbEntity
  8
0
100
AcDbLine
 10
-0.032616
 20
1.647727
 30
5.88
 11
-0.05272
 21
1.667817
 31
5.88
  0
LINE
  5
4609A
100
AcDbEntity
  8
0
100
AcDbLine
 10
-0.072822
 20
1.68791
 30
5.88
 11
-0.082873
 21
1.713026
 31
5.88
  0
LINE
  5
4609B
100
AcDbEntity
  8
0
100
AcDbLine
 10
-0.082873
 20
1.713026
 30
5.88
 11
-0.087899
 21
1.73814
 31
5.88
  0
LINE
  5
4609C
100
AcDbEntity
  8
0
100
AcDbLine
 10
-0.05272
 20
1.667817
 30
5.88
 11
-0.072822
 21
1.68791
 31
5.88
  0
LINE
  5
4609D
100
AcDbEntity
  8
0
100
AcDbLine
 10
-0.087899
 20
1.73814
 30
5.88
 11
-0.082873
 21
1.768278
 31
5.88
  0
LINE
  5
4609E
100
AcDbEntity
  8
0
100
AcDbLine
 10
-0.23364
 20
2.180166
 30
5.88
 11
-0.243691
 21
2.155051
 31
5.88
  0
LINE
  5
4609F
100
AcDbEntity
  8
0
100
AcDbLine
 10
-0.238666
 20
1.944085
 30
5.88
 11
-0.228615
 21
1.918969
 31
5.88
  0
LINE
  5
460A0
100
AcDbEntity
  8
0
100
AcDbLine
 10
-0.23364
 20
1.863717
 30
5.88
 11
-0.243691
 21
1.838601
 31
5.88
  0
LINE
  5
460A1
100
AcDbEntity
  8
0
100
AcDbLine
 10
-0.268819
 20
1.989292
 30
5.88
 11
-0.253742
 21
1.969199
 31
5.88
  0
LINE
  5
460A2
100
AcDbEntity
  8
0
100
AcDbLine
 10
-0.439687
 20
1.969199
 30
5.88
 11
-0.419585
 21
1.989292
 31
5.88
  0
LINE
  5
460A3
100
AcDbEntity
  8
0
100
AcDbLine
 10
-0.419585
 20
1.989292
 30
5.88
 11
-0.263793
 21
1.813486
 31
5.88
  0
LINE
  5
460A4
100
AcDbEntity
  8
0
100
AcDbLine
 10
-0.359279
 20
1.783347
 30
5.88
 11
-0.384407
 21
1.78837
 31
5.88
  0
LINE
  5
460A5
100
AcDbEntity
  8
0
100
AcDbLine
 10
-0.384407
 20
1.78837
 30
5.88
 11
-0.409534
 21
1.798416
 31
5.88
  0
LINE
  5
460A6
100
AcDbEntity
  8
0
100
AcDbLine
 10
-0.409534
 20
1.798416
 30
5.88
 11
-0.429636
 21
1.818508
 31
5.88
  0
LINE
  5
460A7
100
AcDbEntity
  8
0
100
AcDbLine
 10
-0.459791
 20
1.918969
 30
5.88
 11
-0.454764
 21
1.944085
 31
5.88
  0
LINE
  5
460A8
100
AcDbEntity
  8
0
100
AcDbLine
 10
-0.444713
 20
1.838601
 30
5.88
 11
-0.454764
 21
1.863717
 31
5.88
  0
LINE
  5
460A9
100
AcDbEntity
  8
0
100
AcDbLine
 10
-0.454764
 20
1.863717
 30
5.88
 11
-0.459791
 21
1.888831
 31
5.88
  0
LINE
  5
460AA
100
AcDbEntity
  8
0
100
AcDbLine
 10
-0.459791
 20
1.888831
 30
5.88
 11
-0.459791
 21
1.918969
 31
5.88
  0
LINE
  5
460AB
100
AcDbEntity
  8
0
100
AcDbLine
 10
-0.454764
 20
1.944085
 30
5.88
 11
-0.439687
 21
1.969199
 31
5.88
  0
LINE
  5
460AC
100
AcDbEntity
  8
0
100
AcDbLine
 10
-0.429636
 20
1.818508
 30
5.88
 11
-0.444713
 21
1.838601
 31
5.88
  0
LINE
  5
460AD
100
AcDbEntity
  8
0
100
AcDbLine
 10
-0.243691
 20
1.838601
 30
5.88
 11
-0.258768
 21
1.818508
 31
5.88
  0
LINE
  5
460AE
100
AcDbEntity
  8
0
100
AcDbLine
 10
-0.258768
 20
1.818508
 30
5.88
 11
-0.27887
 21
1.798416
 31
5.88
  0
LINE
  5
460AF
100
AcDbEntity
  8
0
100
AcDbLine
 10
-0.27887
 20
1.798416
 30
5.88
 11
-0.303997
 21
1.78837
 31
5.88
  0
LINE
  5
460B0
100
AcDbEntity
  8
0
100
AcDbLine
 10
-0.329126
 20
1.783347
 30
5.88
 11
-0.359279
 21
1.783347
 31
5.88
  0
LINE
  5
460B1
100
AcDbEntity
  8
0
100
AcDbLine
 10
-0.303997
 20
1.78837
 30
5.88
 11
-0.329126
 21
1.783347
 31
5.88
  0
LINE
  5
460B2
100
AcDbEntity
  8
0
100
AcDbLine
 10
-0.253742
 20
1.969199
 30
5.88
 11
-0.238666
 21
1.944085
 31
5.88
  0
LINE
  5
460B3
100
AcDbEntity
  8
0
100
AcDbLine
 10
-0.359279
 20
2.094776
 30
5.88
 11
-0.384407
 21
2.099797
 31
5.88
  0
LINE
  5
460B4
100
AcDbEntity
  8
0
100
AcDbLine
 10
-0.374356
 20
2.009382
 30
5.88
 11
-0.344203
 21
2.014406
 31
5.88
  0
LINE
  5
460B5
100
AcDbEntity
  8
0
100
AcDbLine
 10
-0.384407
 20
2.099797
 30
5.88
 11
-0.409534
 21
2.114866
 31
5.88
  0
LINE
  5
460B6
100
AcDbEntity
  8
0
100
AcDbLine
 10
-0.409534
 20
2.114866
 30
5.88
 11
-0.429636
 21
2.129937
 31
5.88
  0
LINE
  5
460B7
100
AcDbEntity
  8
0
100
AcDbLine
 10
-0.419585
 20
1.989292
 30
5.88
 11
-0.399483
 21
2.00436
 31
5.88
  0
LINE
  5
460B8
100
AcDbEntity
  8
0
100
AcDbLine
 10
-0.399483
 20
2.00436
 30
5.88
 11
-0.374356
 21
2.009382
 31
5.88
  0
LINE
  5
460B9
100
AcDbEntity
  8
0
100
AcDbLine
 10
-0.444713
 20
2.150028
 30
5.88
 11
-0.454764
 21
2.175144
 31
5.88
  0
LINE
  5
460BA
100
AcDbEntity
  8
0
100
AcDbLine
 10
-0.429636
 20
2.129937
 30
5.88
 11
-0.444713
 21
2.150028
 31
5.88
  0
LINE
  5
460BB
100
AcDbEntity
  8
0
100
AcDbLine
 10
-0.258768
 20
2.129937
 30
5.88
 11
-0.27887
 21
2.114866
 31
5.88
  0
LINE
  5
460BC
100
AcDbEntity
  8
0
100
AcDbLine
 10
-0.27887
 20
2.114866
 30
5.88
 11
-0.303997
 21
2.099797
 31
5.88
  0
LINE
  5
460BD
100
AcDbEntity
  8
0
100
AcDbLine
 10
-0.293946
 20
2.00436
 30
5.88
 11
-0.268819
 21
1.989292
 31
5.88
  0
LINE
  5
460BE
100
AcDbEntity
  8
0
100
AcDbLine
 10
-0.329126
 20
2.094776
 30
5.88
 11
-0.359279
 21
2.094776
 31
5.88
  0
LINE
  5
460BF
100
AcDbEntity
  8
0
100
AcDbLine
 10
-0.344203
 20
2.014406
 30
5.88
 11
-0.319074
 21
2.009382
 31
5.88
  0
LINE
  5
460C0
100
AcDbEntity
  8
0
100
AcDbLine
 10
-0.303997
 20
2.099797
 30
5.88
 11
-0.329126
 21
2.094776
 31
5.88
  0
LINE
  5
460C1
100
AcDbEntity
  8
0
100
AcDbLine
 10
-0.319074
 20
2.009382
 30
5.88
 11
-0.293946
 21
2.00436
 31
5.88
  0
LINE
  5
460C2
100
AcDbEntity
  8
0
100
AcDbLine
 10
-0.243691
 20
2.155051
 30
5.88
 11
-0.258768
 21
2.129937
 31
5.88
  0
LINE
  5
460C3
100
AcDbEntity
  8
0
100
AcDbLine
 10
-0.032616
 20
1.964177
 30
5.88
 11
-0.05272
 21
1.979246
 31
5.88
  0
LINE
  5
460C4
100
AcDbEntity
  8
0
100
AcDbLine
 10
-0.19846
 20
2.029475
 30
5.88
 11
-0.19846
 21
1.783347
 31
5.88
  0
LINE
  5
460C5
100
AcDbEntity
  8
0
100
AcDbLine
 10
-0.228615
 20
1.918969
 30
5.88
 11
-0.228615
 21
1.893855
 31
5.88
  0
LINE
  5
460C6
100
AcDbEntity
  8
0
100
AcDbLine
 10
-0.228615
 20
1.893855
 30
5.88
 11
-0.23364
 21
1.863717
 31
5.88
  0
LINE
  5
460C7
100
AcDbEntity
  8
0
100
AcDbLine
 10
-0.007489
 20
1.949107
 30
5.88
 11
-0.032616
 21
1.964177
 31
5.88
  0
LINE
  5
460C8
100
AcDbEntity
  8
0
100
AcDbLine
 10
-0.047695
 20
1.838601
 30
5.88
 11
-0.022565
 21
1.85367
 31
5.88
  0
LINE
  5
460C9
100
AcDbEntity
  8
0
100
AcDbLine
 10
-0.022565
 20
1.85367
 30
5.88
 11
0.002562
 21
1.863717
 31
5.88
  0
LINE
  5
460CA
100
AcDbEntity
  8
0
100
AcDbLine
 10
-0.077848
 20
1.793394
 30
5.88
 11
-0.062769
 21
1.818508
 31
5.88
  0
LINE
  5
460CB
100
AcDbEntity
  8
0
100
AcDbLine
 10
-0.062769
 20
1.818508
 30
5.88
 11
-0.047695
 21
1.838601
 31
5.88
  0
LINE
  5
460CC
100
AcDbEntity
  8
0
100
AcDbLine
 10
-0.047695
 20
2.150028
 30
5.88
 11
-0.022565
 21
2.165097
 31
5.88
  0
LINE
  5
460CD
100
AcDbEntity
  8
0
100
AcDbLine
 10
-0.022565
 20
2.165097
 30
5.88
 11
0.002562
 21
2.175144
 31
5.88
  0
LINE
  5
460CE
100
AcDbEntity
  8
0
100
AcDbLine
 10
-0.082873
 20
2.079705
 30
5.88
 11
-0.077848
 21
2.104821
 31
5.88
  0
LINE
  5
460CF
100
AcDbEntity
  8
0
100
AcDbLine
 10
-0.077848
 20
2.104821
 30
5.88
 11
-0.062769
 21
2.129937
 31
5.88
  0
LINE
  5
460D0
100
AcDbEntity
  8
0
100
AcDbLine
 10
-0.072822
 20
2.00436
 30
5.88
 11
-0.082873
 21
2.029475
 31
5.88
  0
LINE
  5
460D1
100
AcDbEntity
  8
0
100
AcDbLine
 10
-0.082873
 20
2.029475
 30
5.88
 11
-0.087899
 21
2.054591
 31
5.88
  0
LINE
  5
460D2
100
AcDbEntity
  8
0
100
AcDbLine
 10
-0.087899
 20
2.054591
 30
5.88
 11
-0.082873
 21
2.079705
 31
5.88
  0
LINE
  5
460D3
100
AcDbEntity
  8
0
100
AcDbLine
 10
-0.05272
 20
1.979246
 30
5.88
 11
-0.072822
 21
2.00436
 31
5.88
  0
LINE
  5
460D4
100
AcDbEntity
  8
0
100
AcDbLine
 10
-0.062769
 20
2.129937
 30
5.88
 11
-0.047695
 21
2.150028
 31
5.88
  0
LINE
  5
460D5
100
AcDbEntity
  8
0
100
AcDbLine
 10
0.138253
 20
1.793394
 30
5.88
 11
0.143278
 21
1.768278
 31
5.88
  0
LINE
  5
460D6
100
AcDbEntity
  8
0
100
AcDbLine
 10
0.178457
 20
1.878784
 30
5.88
 11
0.178457
 21
1.632656
 31
5.88
  0
LINE
  5
460D7
100
AcDbEntity
  8
0
100
AcDbLine
 10
0.138253
 20
1.481967
 30
5.88
 11
0.143278
 21
1.456851
 31
5.88
  0
LINE
  5
460D8
100
AcDbEntity
  8
0
100
AcDbLine
 10
0.143278
 20
1.401599
 30
5.88
 11
0.133227
 21
1.376483
 31
5.88
  0
LINE
  5
460D9
100
AcDbEntity
  8
0
100
AcDbLine
 10
0.08297
 20
1.537219
 30
5.88
 11
0.103074
 21
1.52215
 31
5.88
  0
LINE
  5
460DA
100
AcDbEntity
  8
0
100
AcDbLine
 10
0.103074
 20
1.52215
 30
5.88
 11
0.123176
 21
1.507083
 31
5.88
  0
LINE
  5
460DB
100
AcDbEntity
  8
0
100
AcDbLine
 10
0.123176
 20
1.507083
 30
5.88
 11
0.138253
 21
1.481967
 31
5.88
  0
LINE
  5
460DC
100
AcDbEntity
  8
0
100
AcDbLine
 10
0.133227
 20
1.376483
 30
5.88
 11
0.118151
 21
1.356392
 31
5.88
  0
LINE
  5
460DD
100
AcDbEntity
  8
0
100
AcDbLine
 10
0.02769
 20
1.552288
 30
5.88
 11
0.057843
 21
1.547266
 31
5.88
  0
LINE
  5
460DE
100
AcDbEntity
  8
0
100
AcDbLine
 10
0.057843
 20
1.547266
 30
5.88
 11
0.08297
 21
1.537219
 31
5.88
  0
LINE
  5
460DF
100
AcDbEntity
  8
0
100
AcDbLine
 10
0.143278
 20
1.456851
 30
5.88
 11
0.148304
 21
1.426713
 31
5.88
  0
LINE
  5
460E0
100
AcDbEntity
  8
0
100
AcDbLine
 10
0.148304
 20
1.426713
 30
5.88
 11
0.143278
 21
1.401599
 31
5.88
  0
LINE
  5
460E1
100
AcDbEntity
  8
0
100
AcDbLine
 10
0.143278
 20
1.713026
 30
5.88
 11
0.133227
 21
1.68791
 31
5.88
  0
LINE
  5
460E2
100
AcDbEntity
  8
0
100
AcDbLine
 10
0.133227
 20
1.68791
 30
5.88
 11
0.118151
 21
1.667817
 31
5.88
  0
LINE
  5
460E3
100
AcDbEntity
  8
0
100
AcDbLine
 10
0.118151
 20
1.667817
 30
5.88
 11
0.093021
 21
1.652748
 31
5.88
  0
LINE
  5
460E4
100
AcDbEntity
  8
0
100
AcDbLine
 10
0.093021
 20
1.652748
 30
5.88
 11
0.072919
 21
1.637681
 31
5.88
  0
LINE
  5
460E5
100
AcDbEntity
  8
0
100
AcDbLine
 10
0.042766
 20
1.632656
 30
5.88
 11
0.017639
 21
1.632656
 31
5.88
  0
LINE
  5
460E6
100
AcDbEntity
  8
0
100
AcDbLine
 10
0.072919
 20
1.637681
 30
5.88
 11
0.042766
 21
1.632656
 31
5.88
  0
LINE
  5
460E7
100
AcDbEntity
  8
0
100
AcDbLine
 10
0.148304
 20
1.743164
 30
5.88
 11
0.143278
 21
1.713026
 31
5.88
  0
LINE
  5
460E8
100
AcDbEntity
  8
0
100
AcDbLine
 10
0.143278
 20
1.768278
 30
5.88
 11
0.148304
 21
1.743164
 31
5.88
  0
LINE
  5
460E9
100
AcDbEntity
  8
0
100
AcDbLine
 10
0.118151
 20
1.979246
 30
5.88
 11
0.093021
 21
1.964177
 31
5.88
  0
LINE
  5
460EA
100
AcDbEntity
  8
0
100
AcDbLine
 10
0.093021
 20
1.964177
 30
5.88
 11
0.072919
 21
1.95413
 31
5.88
  0
LINE
  5
460EB
100
AcDbEntity
  8
0
100
AcDbLine
 10
0.08297
 20
1.85367
 30
5.88
 11
0.103074
 21
1.838601
 31
5.88
  0
LINE
  5
460EC
100
AcDbEntity
  8
0
100
AcDbLine
 10
0.103074
 20
1.838601
 30
5.88
 11
0.123176
 21
1.818508
 31
5.88
  0
LINE
  5
460ED
100
AcDbEntity
  8
0
100
AcDbLine
 10
0.123176
 20
1.818508
 30
5.88
 11
0.138253
 21
1.793394
 31
5.88
  0
LINE
  5
460EE
100
AcDbEntity
  8
0
100
AcDbLine
 10
0.042766
 20
1.944085
 30
5.88
 11
0.017639
 21
1.944085
 31
5.88
  0
LINE
  5
460EF
100
AcDbEntity
  8
0
100
AcDbLine
 10
0.02769
 20
1.863717
 30
5.88
 11
0.057843
 21
1.863717
 31
5.88
  0
LINE
  5
460F0
100
AcDbEntity
  8
0
100
AcDbLine
 10
0.072919
 20
1.95413
 30
5.88
 11
0.042766
 21
1.944085
 31
5.88
  0
LINE
  5
460F1
100
AcDbEntity
  8
0
100
AcDbLine
 10
0.057843
 20
1.863717
 30
5.88
 11
0.08297
 21
1.85367
 31
5.88
  0
LINE
  5
460F2
100
AcDbEntity
  8
0
100
AcDbLine
 10
0.138253
 20
2.109845
 30
5.88
 11
0.143278
 21
2.084729
 31
5.88
  0
LINE
  5
460F3
100
AcDbEntity
  8
0
100
AcDbLine
 10
0.143278
 20
2.029475
 30
5.88
 11
0.133227
 21
2.00436
 31
5.88
  0
LINE
  5
460F4
100
AcDbEntity
  8
0
100
AcDbLine
 10
0.08297
 20
2.165097
 30
5.88
 11
0.103074
 21
2.150028
 31
5.88
  0
LINE
  5
460F5
100
AcDbEntity
  8
0
100
AcDbLine
 10
0.02769
 20
2.180166
 30
5.88
 11
0.057843
 21
2.175144
 31
5.88
  0
LINE
  5
460F6
100
AcDbEntity
  8
0
100
AcDbLine
 10
0.057843
 20
2.175144
 30
5.88
 11
0.08297
 21
2.165097
 31
5.88
  0
LINE
  5
460F7
100
AcDbEntity
  8
0
100
AcDbLine
 10
0.123176
 20
2.129937
 30
5.88
 11
0.138253
 21
2.109845
 31
5.88
  0
LINE
  5
460F8
100
AcDbEntity
  8
0
100
AcDbLine
 10
0.133227
 20
2.00436
 30
5.88
 11
0.118151
 21
1.979246
 31
5.88
  0
LINE
  5
460F9
100
AcDbEntity
  8
0
100
AcDbLine
 10
0.103074
 20
2.150028
 30
5.88
 11
0.123176
 21
2.129937
 31
5.88
  0
LINE
  5
460FA
100
AcDbEntity
  8
0
100
AcDbLine
 10
0.143278
 20
2.084729
 30
5.88
 11
0.148304
 21
2.054591
 31
5.88
  0
LINE
  5
460FB
100
AcDbEntity
  8
0
100
AcDbLine
 10
0.148304
 20
2.054591
 30
5.88
 11
0.143278
 21
2.029475
 31
5.88
  0
LINE
  5
460FC
100
AcDbEntity
  8
0
100
AcDbLine
 10
0.017639
 20
2.883388
 30
5.88
 11
-0.007489
 21
2.893435
 31
5.88
  0
LINE
  5
460FD
100
AcDbEntity
  8
0
100
AcDbLine
 10
0.002562
 20
2.80302
 30
5.88
 11
0.02769
 21
2.80302
 31
5.88
  0
LINE
  5
460FE
100
AcDbEntity
  8
0
100
AcDbLine
 10
0.017639
 20
2.571961
 30
5.88
 11
-0.007489
 21
2.576984
 31
5.88
  0
LINE
  5
460FF
100
AcDbEntity
  8
0
100
AcDbLine
 10
0.002562
 20
2.486571
 30
5.88
 11
0.02769
 21
2.491595
 31
5.88
  0
LINE
  5
46100
100
AcDbEntity
  8
0
100
AcDbLine
 10
0.017639
 20
2.260534
 30
5.88
 11
-0.007489
 21
2.265557
 31
5.88
  0
LINE
  5
46101
100
AcDbEntity
  8
0
100
AcDbLine
 10
0.178457
 20
2.883388
 30
5.88
 11
-0.143179
 21
2.883388
 31
5.88
  0
LINE
  5
46102
100
AcDbEntity
  8
0
100
AcDbLine
 10
-0.143179
 20
2.818089
 30
5.88
 11
0.178457
 21
2.818089
 31
5.88
  0
LINE
  5
46103
100
AcDbEntity
  8
0
100
AcDbLine
 10
0.178457
 20
2.571961
 30
5.88
 11
-0.143179
 21
2.571961
 31
5.88
  0
LINE
  5
46104
100
AcDbEntity
  8
0
100
AcDbLine
 10
-0.042667
 20
2.777906
 30
5.88
 11
0.1081
 21
2.6021
 31
5.88
  0
LINE
  5
46105
100
AcDbEntity
  8
0
100
AcDbLine
 10
-0.143179
 20
2.506663
 30
5.88
 11
0.178457
 21
2.506663
 31
5.88
  0
LINE
  5
46106
100
AcDbEntity
  8
0
100
AcDbLine
 10
0.178457
 20
2.260534
 30
5.88
 11
-0.143179
 21
2.260534
 31
5.88
  0
LINE
  5
46107
100
AcDbEntity
  8
0
100
AcDbLine
 10
-0.042667
 20
2.466478
 30
5.88
 11
0.1081
 21
2.290671
 31
5.88
  0
LINE
  5
46108
100
AcDbEntity
  8
0
100
AcDbLine
 10
-0.143179
 20
2.190213
 30
5.88
 11
0.178457
 21
2.190213
 31
5.88
  0
LINE
  5
46109
100
AcDbEntity
  8
0
100
AcDbLine
 10
-0.032616
 20
2.592053
 30
5.88
 11
-0.05272
 21
2.607122
 31
5.88
  0
LINE
  5
4610A
100
AcDbEntity
  8
0
100
AcDbLine
 10
-0.143179
 20
2.571961
 30
5.88
 11
-0.143179
 21
2.818089
 31
5.88
  0
LINE
  5
4610B
100
AcDbEntity
  8
0
100
AcDbLine
 10
-0.268819
 20
2.617169
 30
5.88
 11
-0.253742
 21
2.597077
 31
5.88
  0
LINE
  5
4610C
100
AcDbEntity
  8
0
100
AcDbLine
 10
-0.439687
 20
2.592053
 30
5.88
 11
-0.419585
 21
2.612146
 31
5.88
  0
LINE
  5
4610D
100
AcDbEntity
  8
0
100
AcDbLine
 10
-0.19846
 20
2.652329
 30
5.88
 11
-0.19846
 21
2.406201
 31
5.88
  0
LINE
  5
4610E
100
AcDbEntity
  8
0
100
AcDbLine
 10
-0.419585
 20
2.617169
 30
5.88
 11
-0.263793
 21
2.441362
 31
5.88
  0
LINE
  5
4610F
100
AcDbEntity
  8
0
100
AcDbLine
 10
-0.238666
 20
2.571961
 30
5.88
 11
-0.228615
 21
2.546847
 31
5.88
  0
LINE
  5
46110
100
AcDbEntity
  8
0
100
AcDbLine
 10
-0.23364
 20
2.491595
 30
5.88
 11
-0.243691
 21
2.466478
 31
5.88
  0
LINE
  5
46111
100
AcDbEntity
  8
0
100
AcDbLine
 10
-0.238666
 20
2.260534
 30
5.88
 11
-0.228615
 21
2.230396
 31
5.88
  0
LINE
  5
46112
100
AcDbEntity
  8
0
100
AcDbLine
 10
-0.374356
 20
2.325833
 30
5.88
 11
-0.344203
 21
2.325833
 31
5.88
  0
LINE
  5
46113
100
AcDbEntity
  8
0
100
AcDbLine
 10
-0.439687
 20
2.280626
 30
5.88
 11
-0.419585
 21
2.300719
 31
5.88
  0
LINE
  5
46114
100
AcDbEntity
  8
0
100
AcDbLine
 10
-0.419585
 20
2.300719
 30
5.88
 11
-0.399483
 21
2.315788
 31
5.88
  0
LINE
  5
46115
100
AcDbEntity
  8
0
100
AcDbLine
 10
-0.399483
 20
2.315788
 30
5.88
 11
-0.374356
 21
2.325833
 31
5.88
  0
LINE
  5
46116
100
AcDbEntity
  8
0
100
AcDbLine
 10
-0.459791
 20
2.230396
 30
5.88
 11
-0.454764
 21
2.25551
 31
5.88
  0
LINE
  5
46117
100
AcDbEntity
  8
0
100
AcDbLine
 10
-0.459791
 20
2.205282
 30
5.88
 11
-0.459791
 21
2.230396
 31
5.88
  0
LINE
  5
46118
100
AcDbEntity
  8
0
100
AcDbLine
 10
-0.454764
 20
2.25551
 30
5.88
 11
-0.439687
 21
2.280626
 31
5.88
  0
LINE
  5
46119
100
AcDbEntity
  8
0
100
AcDbLine
 10
-0.293946
 20
2.315788
 30
5.88
 11
-0.268819
 21
2.300719
 31
5.88
  0
LINE
  5
4611A
100
AcDbEntity
  8
0
100
AcDbLine
 10
-0.268819
 20
2.300719
 30
5.88
 11
-0.253742
 21
2.280626
 31
5.88
  0
LINE
  5
4611B
100
AcDbEntity
  8
0
100
AcDbLine
 10
-0.253742
 20
2.280626
 30
5.88
 11
-0.238666
 21
2.260534
 31
5.88
  0
LINE
  5
4611C
100
AcDbEntity
  8
0
100
AcDbLine
 10
-0.344203
 20
2.325833
 30
5.88
 11
-0.319074
 21
2.325833
 31
5.88
  0
LINE
  5
4611D
100
AcDbEntity
  8
0
100
AcDbLine
 10
-0.319074
 20
2.325833
 30
5.88
 11
-0.293946
 21
2.315788
 31
5.88
  0
LINE
  5
4611E
100
AcDbEntity
  8
0
100
AcDbLine
 10
-0.359279
 20
2.406201
 30
5.88
 11
-0.384407
 21
2.416248
 31
5.88
  0
LINE
  5
4611F
100
AcDbEntity
  8
0
100
AcDbLine
 10
-0.384407
 20
2.416248
 30
5.88
 11
-0.409534
 21
2.426293
 31
5.88
  0
LINE
  5
46120
100
AcDbEntity
  8
0
100
AcDbLine
 10
-0.409534
 20
2.426293
 30
5.88
 11
-0.429636
 21
2.446386
 31
5.88
  0
LINE
  5
46121
100
AcDbEntity
  8
0
100
AcDbLine
 10
-0.459791
 20
2.546847
 30
5.88
 11
-0.454764
 21
2.571961
 31
5.88
  0
LINE
  5
46122
100
AcDbEntity
  8
0
100
AcDbLine
 10
-0.444713
 20
2.466478
 30
5.88
 11
-0.454764
 21
2.491595
 31
5.88
  0
LINE
  5
46123
100
AcDbEntity
  8
0
100
AcDbLine
 10
-0.454764
 20
2.491595
 30
5.88
 11
-0.459791
 21
2.516709
 31
5.88
  0
LINE
  5
46124
100
AcDbEntity
  8
0
100
AcDbLine
 10
-0.459791
 20
2.516709
 30
5.88
 11
-0.459791
 21
2.546847
 31
5.88
  0
LINE
  5
46125
100
AcDbEntity
  8
0
100
AcDbLine
 10
-0.454764
 20
2.571961
 30
5.88
 11
-0.439687
 21
2.592053
 31
5.88
  0
LINE
  5
46126
100
AcDbEntity
  8
0
100
AcDbLine
 10
-0.429636
 20
2.446386
 30
5.88
 11
-0.444713
 21
2.466478
 31
5.88
  0
LINE
  5
46127
100
AcDbEntity
  8
0
100
AcDbLine
 10
-0.253742
 20
2.597077
 30
5.88
 11
-0.238666
 21
2.571961
 31
5.88
  0
LINE
  5
46128
100
AcDbEntity
  8
0
100
AcDbLine
 10
-0.243691
 20
2.466478
 30
5.88
 11
-0.258768
 21
2.446386
 31
5.88
  0
LINE
  5
46129
100
AcDbEntity
  8
0
100
AcDbLine
 10
-0.258768
 20
2.446386
 30
5.88
 11
-0.27887
 21
2.426293
 31
5.88
  0
LINE
  5
4612A
100
AcDbEntity
  8
0
100
AcDbLine
 10
-0.27887
 20
2.426293
 30
5.88
 11
-0.303997
 21
2.416248
 31
5.88
  0
LINE
  5
4612B
100
AcDbEntity
  8
0
100
AcDbLine
 10
-0.329126
 20
2.411225
 30
5.88
 11
-0.359279
 21
2.406201
 31
5.88
  0
LINE
  5
4612C
100
AcDbEntity
  8
0
100
AcDbLine
 10
-0.303997
 20
2.416248
 30
5.88
 11
-0.329126
 21
2.411225
 31
5.88
  0
LINE
  5
4612D
100
AcDbEntity
  8
0
100
AcDbLine
 10
-0.087899
 20
2.366018
 30
5.88
 11
-0.082873
 21
2.396156
 31
5.88
  0
LINE
  5
4612E
100
AcDbEntity
  8
0
100
AcDbLine
 10
-0.143179
 20
2.260534
 30
5.88
 11
-0.143179
 21
2.506663
 31
5.88
  0
LINE
  5
4612F
100
AcDbEntity
  8
0
100
AcDbLine
 10
-0.228615
 20
2.230396
 30
5.88
 11
-0.228615
 21
2.205282
 31
5.88
  0
LINE
  5
46130
100
AcDbEntity
  8
0
100
AcDbLine
 10
-0.007489
 20
2.265557
 30
5.88
 11
-0.032616
 21
2.275603
 31
5.88
  0
LINE
  5
46131
100
AcDbEntity
  8
0
100
AcDbLine
 10
-0.032616
 20
2.275603
 30
5.88
 11
-0.05272
 21
2.295695
 31
5.88
  0
LINE
  5
46132
100
AcDbEntity
  8
0
100
AcDbLine
 10
-0.072822
 20
2.315788
 30
5.88
 11
-0.082873
 21
2.340904
 31
5.88
  0
LINE
  5
46133
100
AcDbEntity
  8
0
100
AcDbLine
 10
-0.05272
 20
2.295695
 30
5.88
 11
-0.072822
 21
2.315788
 31
5.88
  0
LINE
  5
46134
100
AcDbEntity
  8
0
100
AcDbLine
 10
-0.082873
 20
2.340904
 30
5.88
 11
-0.087899
 21
2.366018
 31
5.88
  0
LINE
  5
46135
100
AcDbEntity
  8
0
100
AcDbLine
 10
-0.228615
 20
2.516709
 30
5.88
 11
-0.23364
 21
2.491595
 31
5.88
  0
LINE
  5
46136
100
AcDbEntity
  8
0
100
AcDbLine
 10
-0.228615
 20
2.546847
 30
5.88
 11
-0.228615
 21
2.516709
 31
5.88
  0
LINE
  5
46137
100
AcDbEntity
  8
0
100
AcDbLine
 10
-0.007489
 20
2.576984
 30
5.88
 11
-0.032616
 21
2.592053
 31
5.88
  0
LINE
  5
46138
100
AcDbEntity
  8
0
100
AcDbLine
 10
-0.047695
 20
2.461455
 30
5.88
 11
-0.022565
 21
2.476524
 31
5.88
  0
LINE
  5
46139
100
AcDbEntity
  8
0
100
AcDbLine
 10
-0.022565
 20
2.476524
 30
5.88
 11
0.002562
 21
2.486571
 31
5.88
  0
LINE
  5
4613A
100
AcDbEntity
  8
0
100
AcDbLine
 10
-0.082873
 20
2.396156
 30
5.88
 11
-0.077848
 21
2.421272
 31
5.88
  0
LINE
  5
4613B
100
AcDbEntity
  8
0
100
AcDbLine
 10
-0.077848
 20
2.421272
 30
5.88
 11
-0.062769
 21
2.446386
 31
5.88
  0
LINE
  5
4613C
100
AcDbEntity
  8
0
100
AcDbLine
 10
-0.062769
 20
2.446386
 30
5.88
 11
-0.047695
 21
2.461455
 31
5.88
  0
LINE
  5
4613D
100
AcDbEntity
  8
0
100
AcDbLine
 10
-0.238666
 20
2.883388
 30
5.88
 11
-0.228615
 21
2.858274
 31
5.88
  0
LINE
  5
4613E
100
AcDbEntity
  8
0
100
AcDbLine
 10
-0.23364
 20
2.80302
 30
5.88
 11
-0.243691
 21
2.777906
 31
5.88
  0
LINE
  5
4613F
100
AcDbEntity
  8
0
100
AcDbLine
 10
-0.419585
 20
2.928596
 30
5.88
 11
-0.263793
 21
2.752791
 31
5.88
  0
LINE
  5
46140
100
AcDbEntity
  8
0
100
AcDbLine
 10
-0.454764
 20
2.80302
 30
5.88
 11
-0.459791
 21
2.833159
 31
5.88
  0
LINE
  5
46141
100
AcDbEntity
  8
0
100
AcDbLine
 10
-0.359279
 20
2.722652
 30
5.88
 11
-0.384407
 21
2.727675
 31
5.88
  0
LINE
  5
46142
100
AcDbEntity
  8
0
100
AcDbLine
 10
-0.374356
 20
2.63726
 30
5.88
 11
-0.344203
 21
2.642284
 31
5.88
  0
LINE
  5
46143
100
AcDbEntity
  8
0
100
AcDbLine
 10
-0.384407
 20
2.727675
 30
5.88
 11
-0.409534
 21
2.737722
 31
5.88
  0
LINE
  5
46144
100
AcDbEntity
  8
0
100
AcDbLine
 10
-0.419585
 20
2.612146
 30
5.88
 11
-0.399483
 21
2.627215
 31
5.88
  0
LINE
  5
46145
100
AcDbEntity
  8
0
100
AcDbLine
 10
-0.399483
 20
2.627215
 30
5.88
 11
-0.374356
 21
2.63726
 31
5.88
  0
LINE
  5
46146
100
AcDbEntity
  8
0
100
AcDbLine
 10
-0.409534
 20
2.737722
 30
5.88
 11
-0.429636
 21
2.757813
 31
5.88
  0
LINE
  5
46147
100
AcDbEntity
  8
0
100
AcDbLine
 10
-0.444713
 20
2.777906
 30
5.88
 11
-0.454764
 21
2.80302
 31
5.88
  0
LINE
  5
46148
100
AcDbEntity
  8
0
100
AcDbLine
 10
-0.429636
 20
2.757813
 30
5.88
 11
-0.444713
 21
2.777906
 31
5.88
  0
LINE
  5
46149
100
AcDbEntity
  8
0
100
AcDbLine
 10
-0.243691
 20
2.777906
 30
5.88
 11
-0.258768
 21
2.757813
 31
5.88
  0
LINE
  5
4614A
100
AcDbEntity
  8
0
100
AcDbLine
 10
-0.27887
 20
2.742744
 30
5.88
 11
-0.303997
 21
2.727675
 31
5.88
  0
LINE
  5
4614B
100
AcDbEntity
  8
0
100
AcDbLine
 10
-0.293946
 20
2.627215
 30
5.88
 11
-0.268819
 21
2.617169
 31
5.88
  0
LINE
  5
4614C
100
AcDbEntity
  8
0
100
AcDbLine
 10
-0.329126
 20
2.722652
 30
5.88
 11
-0.359279
 21
2.722652
 31
5.88
  0
LINE
  5
4614D
100
AcDbEntity
  8
0
100
AcDbLine
 10
-0.344203
 20
2.642284
 30
5.88
 11
-0.319074
 21
2.63726
 31
5.88
  0
LINE
  5
4614E
100
AcDbEntity
  8
0
100
AcDbLine
 10
-0.303997
 20
2.727675
 30
5.88
 11
-0.329126
 21
2.722652
 31
5.88
  0
LINE
  5
4614F
100
AcDbEntity
  8
0
100
AcDbLine
 10
-0.319074
 20
2.63726
 30
5.88
 11
-0.293946
 21
2.627215
 31
5.88
  0
LINE
  5
46150
100
AcDbEntity
  8
0
100
AcDbLine
 10
-0.258768
 20
2.757813
 30
5.88
 11
-0.27887
 21
2.742744
 31
5.88
  0
LINE
  5
46151
100
AcDbEntity
  8
0
100
AcDbLine
 10
-0.374356
 20
2.953711
 30
5.88
 11
-0.344203
 21
2.953711
 31
5.88
  0
LINE
  5
46152
100
AcDbEntity
  8
0
100
AcDbLine
 10
-0.439687
 20
2.908504
 30
5.88
 11
-0.419585
 21
2.928596
 31
5.88
  0
LINE
  5
46153
100
AcDbEntity
  8
0
100
AcDbLine
 10
-0.419585
 20
2.928596
 30
5.88
 11
-0.399483
 21
2.943665
 31
5.88
  0
LINE
  5
46154
100
AcDbEntity
  8
0
100
AcDbLine
 10
-0.399483
 20
2.943665
 30
5.88
 11
-0.374356
 21
2.953711
 31
5.88
  0
LINE
  5
46155
100
AcDbEntity
  8
0
100
AcDbLine
 10
-0.459791
 20
2.858274
 30
5.88
 11
-0.454764
 21
2.883388
 31
5.88
  0
LINE
  5
46156
100
AcDbEntity
  8
0
100
AcDbLine
 10
-0.459791
 20
2.833159
 30
5.88
 11
-0.459791
 21
2.858274
 31
5.88
  0
LINE
  5
46157
100
AcDbEntity
  8
0
100
AcDbLine
 10
-0.454764
 20
2.883388
 30
5.88
 11
-0.439687
 21
2.908504
 31
5.88
  0
LINE
  5
46158
100
AcDbEntity
  8
0
100
AcDbLine
 10
-0.344203
 20
2.953711
 30
5.88
 11
-0.319074
 21
2.953711
 31
5.88
  0
LINE
  5
46159
100
AcDbEntity
  8
0
100
AcDbLine
 10
-0.293946
 20
2.943665
 30
5.88
 11
-0.268819
 21
2.928596
 31
5.88
  0
LINE
  5
4615A
100
AcDbEntity
  8
0
100
AcDbLine
 10
-0.268819
 20
2.928596
 30
5.88
 11
-0.253742
 21
2.908504
 31
5.88
  0
LINE
  5
4615B
100
AcDbEntity
  8
0
100
AcDbLine
 10
-0.253742
 20
2.908504
 30
5.88
 11
-0.238666
 21
2.883388
 31
5.88
  0
LINE
  5
4615C
100
AcDbEntity
  8
0
100
AcDbLine
 10
-0.319074
 20
2.953711
 30
5.88
 11
-0.293946
 21
2.943665
 31
5.88
  0
LINE
  5
4615D
100
AcDbEntity
  8
0
100
AcDbLine
 10
-0.228615
 20
2.833159
 30
5.88
 11
-0.23364
 21
2.80302
 31
5.88
  0
LINE
  5
4615E
100
AcDbEntity
  8
0
100
AcDbLine
 10
-0.19846
 20
2.96878
 30
5.88
 11
-0.19846
 21
2.722652
 31
5.88
  0
LINE
  5
4615F
100
AcDbEntity
  8
0
100
AcDbLine
 10
-0.047695
 20
2.777906
 30
5.88
 11
-0.022565
 21
2.792974
 31
5.88
  0
LINE
  5
46160
100
AcDbEntity
  8
0
100
AcDbLine
 10
-0.022565
 20
2.792974
 30
5.88
 11
0.002562
 21
2.80302
 31
5.88
  0
LINE
  5
46161
100
AcDbEntity
  8
0
100
AcDbLine
 10
-0.062769
 20
2.757813
 30
5.88
 11
-0.047695
 21
2.777906
 31
5.88
  0
LINE
  5
46162
100
AcDbEntity
  8
0
100
AcDbLine
 10
-0.082873
 20
2.707583
 30
5.88
 11
-0.077848
 21
2.732699
 31
5.88
  0
LINE
  5
46163
100
AcDbEntity
  8
0
100
AcDbLine
 10
-0.072822
 20
2.627215
 30
5.88
 11
-0.082873
 21
2.652329
 31
5.88
  0
LINE
  5
46164
100
AcDbEntity
  8
0
100
AcDbLine
 10
-0.082873
 20
2.652329
 30
5.88
 11
-0.087899
 21
2.682469
 31
5.88
  0
LINE
  5
46165
100
AcDbEntity
  8
0
100
AcDbLine
 10
-0.087899
 20
2.682469
 30
5.88
 11
-0.082873
 21
2.707583
 31
5.88
  0
LINE
  5
46166
100
AcDbEntity
  8
0
100
AcDbLine
 10
-0.05272
 20
2.607122
 30
5.88
 11
-0.072822
 21
2.627215
 31
5.88
  0
LINE
  5
46167
100
AcDbEntity
  8
0
100
AcDbLine
 10
-0.077848
 20
2.732699
 30
5.88
 11
-0.062769
 21
2.757813
 31
5.88
  0
LINE
  5
46168
100
AcDbEntity
  8
0
100
AcDbLine
 10
-0.228615
 20
2.858274
 30
5.88
 11
-0.228615
 21
2.833159
 31
5.88
  0
LINE
  5
46169
100
AcDbEntity
  8
0
100
AcDbLine
 10
-0.082873
 20
2.96878
 30
5.88
 11
-0.087899
 21
2.993894
 31
5.88
  0
LINE
  5
4616A
100
AcDbEntity
  8
0
100
AcDbLine
 10
-0.087899
 20
2.993894
 30
5.88
 11
-0.082873
 21
3.01901
 31
5.88
  0
LINE
  5
4616B
100
AcDbEntity
  8
0
100
AcDbLine
 10
-0.007489
 20
2.893435
 30
5.88
 11
-0.032616
 21
2.90348
 31
5.88
  0
LINE
  5
4616C
100
AcDbEntity
  8
0
100
AcDbLine
 10
-0.032616
 20
2.90348
 30
5.88
 11
-0.05272
 21
2.918549
 31
5.88
  0
LINE
  5
4616D
100
AcDbEntity
  8
0
100
AcDbLine
 10
-0.05272
 20
2.918549
 30
5.88
 11
-0.072822
 21
2.943665
 31
5.88
  0
LINE
  5
4616E
100
AcDbEntity
  8
0
100
AcDbLine
 10
-0.072822
 20
2.943665
 30
5.88
 11
-0.082873
 21
2.96878
 31
5.88
  0
LINE
  5
4616F
100
AcDbEntity
  8
0
100
AcDbLine
 10
0.118151
 20
2.607122
 30
5.88
 11
0.093021
 21
2.592053
 31
5.88
  0
LINE
  5
46170
100
AcDbEntity
  8
0
100
AcDbLine
 10
0.178457
 20
2.818089
 30
5.88
 11
0.178457
 21
2.571961
 31
5.88
  0
LINE
  5
46171
100
AcDbEntity
  8
0
100
AcDbLine
 10
0.143278
 20
2.396156
 30
5.88
 11
0.148304
 21
2.371041
 31
5.88
  0
LINE
  5
46172
100
AcDbEntity
  8
0
100
AcDbLine
 10
0.178457
 20
2.506663
 30
5.88
 11
0.178457
 21
2.260534
 31
5.88
  0
LINE
  5
46173
100
AcDbEntity
  8
0
100
AcDbLine
 10
0.143278
 20
2.340904
 30
5.88
 11
0.133227
 21
2.315788
 31
5.88
  0
LINE
  5
46174
100
AcDbEntity
  8
0
100
AcDbLine
 10
0.133227
 20
2.315788
 30
5.88
 11
0.118151
 21
2.295695
 31
5.88
  0
LINE
  5
46175
100
AcDbEntity
  8
0
100
AcDbLine
 10
0.118151
 20
2.295695
 30
5.88
 11
0.093021
 21
2.275603
 31
5.88
  0
LINE
  5
46176
100
AcDbEntity
  8
0
100
AcDbLine
 10
0.093021
 20
2.275603
 30
5.88
 11
0.072919
 21
2.265557
 31
5.88
  0
LINE
  5
46177
100
AcDbEntity
  8
0
100
AcDbLine
 10
0.042766
 20
2.260534
 30
5.88
 11
0.017639
 21
2.260534
 31
5.88
  0
LINE
  5
46178
100
AcDbEntity
  8
0
100
AcDbLine
 10
0.072919
 20
2.265557
 30
5.88
 11
0.042766
 21
2.260534
 31
5.88
  0
LINE
  5
46179
100
AcDbEntity
  8
0
100
AcDbLine
 10
0.148304
 20
2.371041
 30
5.88
 11
0.143278
 21
2.340904
 31
5.88
  0
LINE
  5
4617A
100
AcDbEntity
  8
0
100
AcDbLine
 10
0.138253
 20
2.421272
 30
5.88
 11
0.143278
 21
2.396156
 31
5.88
  0
LINE
  5
4617B
100
AcDbEntity
  8
0
100
AcDbLine
 10
0.093021
 20
2.592053
 30
5.88
 11
0.072919
 21
2.576984
 31
5.88
  0
LINE
  5
4617C
100
AcDbEntity
  8
0
100
AcDbLine
 10
0.08297
 20
2.481547
 30
5.88
 11
0.103074
 21
2.466478
 31
5.88
  0
LINE
  5
4617D
100
AcDbEntity
  8
0
100
AcDbLine
 10
0.103074
 20
2.466478
 30
5.88
 11
0.123176
 21
2.446386
 31
5.88
  0
LINE
  5
4617E
100
AcDbEntity
  8
0
100
AcDbLine
 10
0.123176
 20
2.446386
 30
5.88
 11
0.138253
 21
2.421272
 31
5.88
  0
LINE
  5
4617F
100
AcDbEntity
  8
0
100
AcDbLine
 10
0.042766
 20
2.571961
 30
5.88
 11
0.017639
 21
2.571961
 31
5.88
  0
LINE
  5
46180
100
AcDbEntity
  8
0
100
AcDbLine
 10
0.02769
 20
2.491595
 30
5.88
 11
0.057843
 21
2.486571
 31
5.88
  0
LINE
  5
46181
100
AcDbEntity
  8
0
100
AcDbLine
 10
0.072919
 20
2.576984
 30
5.88
 11
0.042766
 21
2.571961
 31
5.88
  0
LINE
  5
46182
100
AcDbEntity
  8
0
100
AcDbLine
 10
0.057843
 20
2.486571
 30
5.88
 11
0.08297
 21
2.481547
 31
5.88
  0
LINE
  5
46183
100
AcDbEntity
  8
0
100
AcDbLine
 10
0.138253
 20
2.732699
 30
5.88
 11
0.143278
 21
2.707583
 31
5.88
  0
LINE
  5
46184
100
AcDbEntity
  8
0
100
AcDbLine
 10
0.143278
 20
2.657352
 30
5.88
 11
0.133227
 21
2.632238
 31
5.88
  0
LINE
  5
46185
100
AcDbEntity
  8
0
100
AcDbLine
 10
0.08297
 20
2.792974
 30
5.88
 11
0.103074
 21
2.777906
 31
5.88
  0
LINE
  5
46186
100
AcDbEntity
  8
0
100
AcDbLine
 10
0.103074
 20
2.777906
 30
5.88
 11
0.123176
 21
2.757813
 31
5.88
  0
LINE
  5
46187
100
AcDbEntity
  8
0
100
AcDbLine
 10
0.133227
 20
2.632238
 30
5.88
 11
0.118151
 21
2.607122
 31
5.88
  0
LINE
  5
46188
100
AcDbEntity
  8
0
100
AcDbLine
 10
0.123176
 20
2.757813
 30
5.88
 11
0.138253
 21
2.732699
 31
5.88
  0
LINE
  5
46189
100
AcDbEntity
  8
0
100
AcDbLine
 10
0.02769
 20
2.80302
 30
5.88
 11
0.057843
 21
2.80302
 31
5.88
  0
LINE
  5
4618A
100
AcDbEntity
  8
0
100
AcDbLine
 10
0.057843
 20
2.80302
 30
5.88
 11
0.08297
 21
2.792974
 31
5.88
  0
LINE
  5
4618B
100
AcDbEntity
  8
0
100
AcDbLine
 10
0.143278
 20
2.707583
 30
5.88
 11
0.148304
 21
2.682469
 31
5.88
  0
LINE
  5
4618C
100
AcDbEntity
  8
0
100
AcDbLine
 10
0.148304
 20
2.682469
 30
5.88
 11
0.143278
 21
2.657352
 31
5.88
  0
LINE
  5
4618D
100
AcDbEntity
  8
0
100
AcDbLine
 10
0.143278
 20
2.96878
 30
5.88
 11
0.133227
 21
2.943665
 31
5.88
  0
LINE
  5
4618E
100
AcDbEntity
  8
0
100
AcDbLine
 10
0.133227
 20
2.943665
 30
5.88
 11
0.118151
 21
2.923573
 31
5.88
  0
LINE
  5
4618F
100
AcDbEntity
  8
0
100
AcDbLine
 10
0.118151
 20
2.923573
 30
5.88
 11
0.093021
 21
2.90348
 31
5.88
  0
LINE
  5
46190
100
AcDbEntity
  8
0
100
AcDbLine
 10
0.093021
 20
2.90348
 30
5.88
 11
0.072919
 21
2.893435
 31
5.88
  0
LINE
  5
46191
100
AcDbEntity
  8
0
100
AcDbLine
 10
0.042766
 20
2.883388
 30
5.88
 11
0.017639
 21
2.883388
 31
5.88
  0
LINE
  5
46192
100
AcDbEntity
  8
0
100
AcDbLine
 10
0.072919
 20
2.893435
 30
5.88
 11
0.042766
 21
2.883388
 31
5.88
  0
LINE
  5
46193
100
AcDbEntity
  8
0
100
AcDbLine
 10
0.148304
 20
2.993894
 30
5.88
 11
0.143278
 21
2.96878
 31
5.88
  0
LINE
  5
46194
100
AcDbEntity
  8
0
100
AcDbLine
 10
0.118151
 20
3.862878
 30
5.88
 11
0.093021
 21
3.842785
 31
5.88
  0
LINE
  5
46195
100
AcDbEntity
  8
0
100
AcDbLine
 10
0.178457
 20
4.073844
 30
5.88
 11
0.178457
 21
3.827716
 31
5.88
  0
LINE
  5
46196
100
AcDbEntity
  8
0
100
AcDbLine
 10
-0.032616
 20
3.842785
 30
5.88
 11
-0.05272
 21
3.862878
 31
5.88
  0
LINE
  5
46197
100
AcDbEntity
  8
0
100
AcDbLine
 10
-0.143179
 20
3.827716
 30
5.88
 11
-0.143179
 21
4.073844
 31
5.88
  0
LINE
  5
46198
100
AcDbEntity
  8
0
100
AcDbLine
 10
-0.268819
 20
3.867901
 30
5.88
 11
-0.253742
 21
3.847809
 31
5.88
  0
LINE
  5
46199
100
AcDbEntity
  8
0
100
AcDbLine
 10
-0.439687
 20
3.847809
 30
5.88
 11
-0.419585
 21
3.867901
 31
5.88
  0
LINE
  5
4619A
100
AcDbEntity
  8
0
100
AcDbLine
 10
-0.042667
 20
4.033659
 30
5.88
 11
0.1081
 21
3.857854
 31
5.88
  0
LINE
  5
4619B
100
AcDbEntity
  8
0
100
AcDbLine
 10
-0.19846
 20
3.908084
 30
5.88
 11
-0.19846
 21
3.661957
 31
5.88
  0
LINE
  5
4619C
100
AcDbEntity
  8
0
100
AcDbLine
 10
-0.419585
 20
3.867901
 30
5.88
 11
-0.263793
 21
3.692094
 31
5.88
  0
LINE
  5
4619D
100
AcDbEntity
  8
0
100
AcDbLine
 10
0.017639
 20
3.827716
 30
5.88
 11
-0.007489
 21
3.83274
 31
5.88
  0
LINE
  5
4619E
100
AcDbEntity
  8
0
100
AcDbLine
 10
0.002562
 20
3.742325
 30
5.88
 11
0.02769
 21
3.747348
 31
5.88
  0
LINE
  5
4619F
100
AcDbEntity
  8
0
100
AcDbLine
 10
0.178457
 20
3.827716
 30
5.88
 11
-0.143179
 21
3.827716
 31
5.88
  0
LINE
  5
461A0
100
AcDbEntity
  8
0
100
AcDbLine
 10
-0.143179
 20
3.757395
 30
5.88
 11
0.178457
 21
3.757395
 31
5.88
  0
LINE
  5
461A1
100
AcDbEntity
  8
0
100
AcDbLine
 10
0.017639
 20
3.511268
 30
5.88
 11
-0.007489
 21
3.516289
 31
5.88
  0
LINE
  5
461A2
100
AcDbEntity
  8
0
100
AcDbLine
 10
0.002562
 20
3.430898
 30
5.88
 11
0.02769
 21
3.430898
 31
5.88
  0
LINE
  5
461A3
100
AcDbEntity
  8
0
100
AcDbLine
 10
0.017639
 20
3.199839
 30
5.88
 11
-0.007489
 21
3.204862
 31
5.88
  0
LINE
  5
461A4
100
AcDbEntity
  8
0
100
AcDbLine
 10
0.002562
 20
3.114449
 30
5.88
 11
0.02769
 21
3.11947
 31
5.88
  0
LINE
  5
461A5
100
AcDbEntity
  8
0
100
AcDbLine
 10
0.178457
 20
3.511268
 30
5.88
 11
-0.143179
 21
3.511268
 31
5.88
  0
LINE
  5
461A6
100
AcDbEntity
  8
0
100
AcDbLine
 10
-0.042667
 20
3.71721
 30
5.88
 11
0.1081
 21
3.541403
 31
5.88
  0
LINE
  5
461A7
100
AcDbEntity
  8
0
100
AcDbLine
 10
-0.143179
 20
3.445966
 30
5.88
 11
0.178457
 21
3.445966
 31
5.88
  0
LINE
  5
461A8
100
AcDbEntity
  8
0
100
AcDbLine
 10
0.178457
 20
3.199839
 30
5.88
 11
-0.143179
 21
3.199839
 31
5.88
  0
LINE
  5
461A9
100
AcDbEntity
  8
0
100
AcDbLine
 10
-0.042667
 20
3.405783
 30
5.88
 11
0.1081
 21
3.229978
 31
5.88
  0
LINE
  5
461AA
100
AcDbEntity
  8
0
100
AcDbLine
 10
-0.143179
 20
3.129518
 30
5.88
 11
0.178457
 21
3.129518
 31
5.88
  0
LINE
  5
461AB
100
AcDbEntity
  8
0
100
AcDbLine
 10
-0.228615
 20
3.461035
 30
5.88
 11
-0.23364
 21
3.430898
 31
5.88
  0
LINE
  5
461AC
100
AcDbEntity
  8
0
100
AcDbLine
 10
-0.19846
 20
3.596657
 30
5.88
 11
-0.19846
 21
3.350529
 31
5.88
  0
LINE
  5
461AD
100
AcDbEntity
  8
0
100
AcDbLine
 10
-0.419585
 20
3.556472
 30
5.88
 11
-0.263793
 21
3.380667
 31
5.88
  0
LINE
  5
461AE
100
AcDbEntity
  8
0
100
AcDbLine
 10
-0.143179
 20
3.199839
 30
5.88
 11
-0.143179
 21
3.445966
 31
5.88
  0
LINE
  5
461AF
100
AcDbEntity
  8
0
100
AcDbLine
 10
-0.454764
 20
3.430898
 30
5.88
 11
-0.459791
 21
3.456014
 31
5.88
  0
LINE
  5
461B0
100
AcDbEntity
  8
0
100
AcDbLine
 10
-0.23364
 20
3.430898
 30
5.88
 11
-0.243691
 21
3.405783
 31
5.88
  0
LINE
  5
461B1
100
AcDbEntity
  8
0
100
AcDbLine
 10
-0.238666
 20
3.199839
 30
5.88
 11
-0.228615
 21
3.174724
 31
5.88
  0
LINE
  5
461B2
100
AcDbEntity
  8
0
100
AcDbLine
 10
-0.23364
 20
3.11947
 30
5.88
 11
-0.243691
 21
3.094356
 31
5.88
  0
LINE
  5
461B3
100
AcDbEntity
  8
0
100
AcDbLine
 10
-0.268819
 20
3.240024
 30
5.88
 11
-0.253742
 21
3.219931
 31
5.88
  0
LINE
  5
461B4
100
AcDbEntity
  8
0
100
AcDbLine
 10
-0.439687
 20
3.219931
 30
5.88
 11
-0.419585
 21
3.240024
 31
5.88
  0
LINE
  5
461B5
100
AcDbEntity
  8
0
100
AcDbLine
 10
-0.419585
 20
3.240024
 30
5.88
 11
-0.263793
 21
3.064217
 31
5.88
  0
LINE
  5
461B6
100
AcDbEntity
  8
0
100
AcDbLine
 10
-0.359279
 20
3.034079
 30
5.88
 11
-0.384407
 21
3.039102
 31
5.88
  0
LINE
  5
461B7
100
AcDbEntity
  8
0
100
AcDbLine
 10
-0.384407
 20
3.039102
 30
5.88
 11
-0.409534
 21
3.054171
 31
5.88
  0
LINE
  5
461B8
100
AcDbEntity
  8
0
100
AcDbLine
 10
-0.409534
 20
3.054171
 30
5.88
 11
-0.429636
 21
3.06924
 31
5.88
  0
LINE
  5
461B9
100
AcDbEntity
  8
0
100
AcDbLine
 10
-0.459791
 20
3.169701
 30
5.88
 11
-0.454764
 21
3.199839
 31
5.88
  0
LINE
  5
461BA
100
AcDbEntity
  8
0
100
AcDbLine
 10
-0.459791
 20
3.144585
 30
5.88
 11
-0.459791
 21
3.169701
 31
5.88
  0
LINE
  5
461BB
100
AcDbEntity
  8
0
100
AcDbLine
 10
-0.444713
 20
3.094356
 30
5.88
 11
-0.454764
 21
3.11947
 31
5.88
  0
LINE
  5
461BC
100
AcDbEntity
  8
0
100
AcDbLine
 10
-0.454764
 20
3.11947
 30
5.88
 11
-0.459791
 21
3.144585
 31
5.88
  0
LINE
  5
461BD
100
AcDbEntity
  8
0
100
AcDbLine
 10
-0.454764
 20
3.199839
 30
5.88
 11
-0.439687
 21
3.219931
 31
5.88
  0
LINE
  5
461BE
100
AcDbEntity
  8
0
100
AcDbLine
 10
-0.429636
 20
3.06924
 30
5.88
 11
-0.444713
 21
3.094356
 31
5.88
  0
LINE
  5
461BF
100
AcDbEntity
  8
0
100
AcDbLine
 10
-0.253742
 20
3.219931
 30
5.88
 11
-0.238666
 21
3.199839
 31
5.88
  0
LINE
  5
461C0
100
AcDbEntity
  8
0
100
AcDbLine
 10
-0.243691
 20
3.094356
 30
5.88
 11
-0.258768
 21
3.074264
 31
5.88
  0
LINE
  5
461C1
100
AcDbEntity
  8
0
100
AcDbLine
 10
-0.258768
 20
3.074264
 30
5.88
 11
-0.27887
 21
3.054171
 31
5.88
  0
LINE
  5
461C2
100
AcDbEntity
  8
0
100
AcDbLine
 10
-0.27887
 20
3.054171
 30
5.88
 11
-0.303997
 21
3.044126
 31
5.88
  0
LINE
  5
461C3
100
AcDbEntity
  8
0
100
AcDbLine
 10
-0.329126
 20
3.034079
 30
5.88
 11
-0.359279
 21
3.034079
 31
5.88
  0
LINE
  5
461C4
100
AcDbEntity
  8
0
100
AcDbLine
 10
-0.303997
 20
3.044126
 30
5.88
 11
-0.329126
 21
3.034079
 31
5.88
  0
LINE
  5
461C5
100
AcDbEntity
  8
0
100
AcDbLine
 10
-0.359279
 20
3.350529
 30
5.88
 11
-0.384407
 21
3.355553
 31
5.88
  0
LINE
  5
461C6
100
AcDbEntity
  8
0
100
AcDbLine
 10
-0.374356
 20
3.26514
 30
5.88
 11
-0.344203
 21
3.270161
 31
5.88
  0
LINE
  5
461C7
100
AcDbEntity
  8
0
100
AcDbLine
 10
-0.384407
 20
3.355553
 30
5.88
 11
-0.409534
 21
3.365598
 31
5.88
  0
LINE
  5
461C8
100
AcDbEntity
  8
0
100
AcDbLine
 10
-0.409534
 20
3.365598
 30
5.88
 11
-0.429636
 21
3.385691
 31
5.88
  0
LINE
  5
461C9
100
AcDbEntity
  8
0
100
AcDbLine
 10
-0.419585
 20
3.240024
 30
5.88
 11
-0.399483
 21
3.255092
 31
5.88
  0
LINE
  5
461CA
100
AcDbEntity
  8
0
100
AcDbLine
 10
-0.399483
 20
3.255092
 30
5.88
 11
-0.374356
 21
3.26514
 31
5.88
  0
LINE
  5
461CB
100
AcDbEntity
  8
0
100
AcDbLine
 10
-0.444713
 20
3.405783
 30
5.88
 11
-0.454764
 21
3.430898
 31
5.88
  0
LINE
  5
461CC
100
AcDbEntity
  8
0
100
AcDbLine
 10
-0.429636
 20
3.385691
 30
5.88
 11
-0.444713
 21
3.405783
 31
5.88
  0
LINE
  5
461CD
100
AcDbEntity
  8
0
100
AcDbLine
 10
-0.243691
 20
3.405783
 30
5.88
 11
-0.258768
 21
3.385691
 31
5.88
  0
LINE
  5
461CE
100
AcDbEntity
  8
0
100
AcDbLine
 10
-0.258768
 20
3.385691
 30
5.88
 11
-0.27887
 21
3.365598
 31
5.88
  0
LINE
  5
461CF
100
AcDbEntity
  8
0
100
AcDbLine
 10
-0.27887
 20
3.365598
 30
5.88
 11
-0.303997
 21
3.355553
 31
5.88
  0
LINE
  5
461D0
100
AcDbEntity
  8
0
100
AcDbLine
 10
-0.329126
 20
3.350529
 30
5.88
 11
-0.359279
 21
3.350529
 31
5.88
  0
LINE
  5
461D1
100
AcDbEntity
  8
0
100
AcDbLine
 10
-0.303997
 20
3.355553
 30
5.88
 11
-0.329126
 21
3.350529
 31
5.88
  0
LINE
  5
461D2
100
AcDbEntity
  8
0
100
AcDbLine
 10
-0.293946
 20
3.255092
 30
5.88
 11
-0.268819
 21
3.240024
 31
5.88
  0
LINE
  5
461D3
100
AcDbEntity
  8
0
100
AcDbLine
 10
-0.344203
 20
3.270161
 30
5.88
 11
-0.319074
 21
3.26514
 31
5.88
  0
LINE
  5
461D4
100
AcDbEntity
  8
0
100
AcDbLine
 10
-0.319074
 20
3.26514
 30
5.88
 11
-0.293946
 21
3.255092
 31
5.88
  0
LINE
  5
461D5
100
AcDbEntity
  8
0
100
AcDbLine
 10
-0.032616
 20
3.214907
 30
5.88
 11
-0.05272
 21
3.235
 31
5.88
  0
LINE
  5
461D6
100
AcDbEntity
  8
0
100
AcDbLine
 10
-0.19846
 20
3.280207
 30
5.88
 11
-0.19846
 21
3.034079
 31
5.88
  0
LINE
  5
461D7
100
AcDbEntity
  8
0
100
AcDbLine
 10
-0.228615
 20
3.174724
 30
5.88
 11
-0.228615
 21
3.144585
 31
5.88
  0
LINE
  5
461D8
100
AcDbEntity
  8
0
100
AcDbLine
 10
-0.228615
 20
3.144585
 30
5.88
 11
-0.23364
 21
3.11947
 31
5.88
  0
LINE
  5
461D9
100
AcDbEntity
  8
0
100
AcDbLine
 10
-0.007489
 20
3.204862
 30
5.88
 11
-0.032616
 21
3.214907
 31
5.88
  0
LINE
  5
461DA
100
AcDbEntity
  8
0
100
AcDbLine
 10
-0.047695
 20
3.089333
 30
5.88
 11
-0.022565
 21
3.104402
 31
5.88
  0
LINE
  5
461DB
100
AcDbEntity
  8
0
100
AcDbLine
 10
-0.022565
 20
3.104402
 30
5.88
 11
0.002562
 21
3.114449
 31
5.88
  0
LINE
  5
461DC
100
AcDbEntity
  8
0
100
AcDbLine
 10
-0.077848
 20
3.049148
 30
5.88
 11
-0.062769
 21
3.06924
 31
5.88
  0
LINE
  5
461DD
100
AcDbEntity
  8
0
100
AcDbLine
 10
-0.062769
 20
3.06924
 30
5.88
 11
-0.047695
 21
3.089333
 31
5.88
  0
LINE
  5
461DE
100
AcDbEntity
  8
0
100
AcDbLine
 10
-0.047695
 20
3.405783
 30
5.88
 11
-0.022565
 21
3.420852
 31
5.88
  0
LINE
  5
461DF
100
AcDbEntity
  8
0
100
AcDbLine
 10
-0.022565
 20
3.420852
 30
5.88
 11
0.002562
 21
3.430898
 31
5.88
  0
LINE
  5
461E0
100
AcDbEntity
  8
0
100
AcDbLine
 10
-0.077848
 20
3.360577
 30
5.88
 11
-0.062769
 21
3.385691
 31
5.88
  0
LINE
  5
461E1
100
AcDbEntity
  8
0
100
AcDbLine
 10
-0.062769
 20
3.385691
 30
5.88
 11
-0.047695
 21
3.405783
 31
5.88
  0
LINE
  5
461E2
100
AcDbEntity
  8
0
100
AcDbLine
 10
-0.072822
 20
3.255092
 30
5.88
 11
-0.082873
 21
3.280207
 31
5.88
  0
LINE
  5
461E3
100
AcDbEntity
  8
0
100
AcDbLine
 10
-0.082873
 20
3.280207
 30
5.88
 11
-0.087899
 21
3.305323
 31
5.88
  0
LINE
  5
461E4
100
AcDbEntity
  8
0
100
AcDbLine
 10
-0.087899
 20
3.305323
 30
5.88
 11
-0.082873
 21
3.335461
 31
5.88
  0
LINE
  5
461E5
100
AcDbEntity
  8
0
100
AcDbLine
 10
-0.05272
 20
3.235
 30
5.88
 11
-0.072822
 21
3.255092
 31
5.88
  0
LINE
  5
461E6
100
AcDbEntity
  8
0
100
AcDbLine
 10
-0.082873
 20
3.335461
 30
5.88
 11
-0.077848
 21
3.360577
 31
5.88
  0
LINE
  5
461E7
100
AcDbEntity
  8
0
100
AcDbLine
 10
-0.238666
 20
3.827716
 30
5.88
 11
-0.228615
 21
3.797579
 31
5.88
  0
LINE
  5
461E8
100
AcDbEntity
  8
0
100
AcDbLine
 10
-0.238666
 20
3.511268
 30
5.88
 11
-0.228615
 21
3.486151
 31
5.88
  0
LINE
  5
461E9
100
AcDbEntity
  8
0
100
AcDbLine
 10
-0.23364
 20
3.747348
 30
5.88
 11
-0.243691
 21
3.722234
 31
5.88
  0
LINE
  5
461EA
100
AcDbEntity
  8
0
100
AcDbLine
 10
-0.374356
 20
3.576565
 30
5.88
 11
-0.344203
 21
3.581588
 31
5.88
  0
LINE
  5
461EB
100
AcDbEntity
  8
0
100
AcDbLine
 10
-0.419585
 20
3.556472
 30
5.88
 11
-0.399483
 21
3.571543
 31
5.88
  0
LINE
  5
461EC
100
AcDbEntity
  8
0
100
AcDbLine
 10
-0.399483
 20
3.571543
 30
5.88
 11
-0.374356
 21
3.576565
 31
5.88
  0
LINE
  5
461ED
100
AcDbEntity
  8
0
100
AcDbLine
 10
-0.439687
 20
3.536382
 30
5.88
 11
-0.419585
 21
3.556472
 31
5.88
  0
LINE
  5
461EE
100
AcDbEntity
  8
0
100
AcDbLine
 10
-0.459791
 20
3.486151
 30
5.88
 11
-0.454764
 21
3.511268
 31
5.88
  0
LINE
  5
461EF
100
AcDbEntity
  8
0
100
AcDbLine
 10
-0.459791
 20
3.456014
 30
5.88
 11
-0.459791
 21
3.486151
 31
5.88
  0
LINE
  5
461F0
100
AcDbEntity
  8
0
100
AcDbLine
 10
-0.454764
 20
3.511268
 30
5.88
 11
-0.439687
 21
3.536382
 31
5.88
  0
LINE
  5
461F1
100
AcDbEntity
  8
0
100
AcDbLine
 10
-0.293946
 20
3.571543
 30
5.88
 11
-0.268819
 21
3.556472
 31
5.88
  0
LINE
  5
461F2
100
AcDbEntity
  8
0
100
AcDbLine
 10
-0.344203
 20
3.581588
 30
5.88
 11
-0.319074
 21
3.576565
 31
5.88
  0
LINE
  5
461F3
100
AcDbEntity
  8
0
100
AcDbLine
 10
-0.319074
 20
3.576565
 30
5.88
 11
-0.293946
 21
3.571543
 31
5.88
  0
LINE
  5
461F4
100
AcDbEntity
  8
0
100
AcDbLine
 10
-0.253742
 20
3.536382
 30
5.88
 11
-0.238666
 21
3.511268
 31
5.88
  0
LINE
  5
461F5
100
AcDbEntity
  8
0
100
AcDbLine
 10
-0.268819
 20
3.556472
 30
5.88
 11
-0.253742
 21
3.536382
 31
5.88
  0
LINE
  5
461F6
100
AcDbEntity
  8
0
100
AcDbLine
 10
-0.359279
 20
3.661957
 30
5.88
 11
-0.384407
 21
3.66698
 31
5.88
  0
LINE
  5
461F7
100
AcDbEntity
  8
0
100
AcDbLine
 10
-0.384407
 20
3.66698
 30
5.88
 11
-0.409534
 21
3.682049
 31
5.88
  0
LINE
  5
461F8
100
AcDbEntity
  8
0
100
AcDbLine
 10
-0.409534
 20
3.682049
 30
5.88
 11
-0.429636
 21
3.697118
 31
5.88
  0
LINE
  5
461F9
100
AcDbEntity
  8
0
100
AcDbLine
 10
-0.459791
 20
3.797579
 30
5.88
 11
-0.454764
 21
3.822693
 31
5.88
  0
LINE
  5
461FA
100
AcDbEntity
  8
0
100
AcDbLine
 10
-0.454764
 20
3.742325
 30
5.88
 11
-0.459791
 21
3.772462
 31
5.88
  0
LINE
  5
461FB
100
AcDbEntity
  8
0
100
AcDbLine
 10
-0.459791
 20
3.772462
 30
5.88
 11
-0.459791
 21
3.797579
 31
5.88
  0
LINE
  5
461FC
100
AcDbEntity
  8
0
100
AcDbLine
 10
-0.444713
 20
3.71721
 30
5.88
 11
-0.454764
 21
3.742325
 31
5.88
  0
LINE
  5
461FD
100
AcDbEntity
  8
0
100
AcDbLine
 10
-0.454764
 20
3.822693
 30
5.88
 11
-0.439687
 21
3.847809
 31
5.88
  0
LINE
  5
461FE
100
AcDbEntity
  8
0
100
AcDbLine
 10
-0.429636
 20
3.697118
 30
5.88
 11
-0.444713
 21
3.71721
 31
5.88
  0
LINE
  5
461FF
100
AcDbEntity
  8
0
100
AcDbLine
 10
-0.253742
 20
3.847809
 30
5.88
 11
-0.238666
 21
3.827716
 31
5.88
  0
LINE
  5
46200
100
AcDbEntity
  8
0
100
AcDbLine
 10
-0.243691
 20
3.722234
 30
5.88
 11
-0.258768
 21
3.697118
 31
5.88
  0
LINE
  5
46201
100
AcDbEntity
  8
0
100
AcDbLine
 10
-0.258768
 20
3.697118
 30
5.88
 11
-0.27887
 21
3.682049
 31
5.88
  0
LINE
  5
46202
100
AcDbEntity
  8
0
100
AcDbLine
 10
-0.27887
 20
3.682049
 30
5.88
 11
-0.303997
 21
3.66698
 31
5.88
  0
LINE
  5
46203
100
AcDbEntity
  8
0
100
AcDbLine
 10
-0.329126
 20
3.661957
 30
5.88
 11
-0.359279
 21
3.661957
 31
5.88
  0
LINE
  5
46204
100
AcDbEntity
  8
0
100
AcDbLine
 10
-0.303997
 20
3.66698
 30
5.88
 11
-0.329126
 21
3.661957
 31
5.88
  0
LINE
  5
46205
100
AcDbEntity
  8
0
100
AcDbLine
 10
-0.082873
 20
3.646888
 30
5.88
 11
-0.077848
 21
3.672002
 31
5.88
  0
LINE
  5
46206
100
AcDbEntity
  8
0
100
AcDbLine
 10
-0.143179
 20
3.511268
 30
5.88
 11
-0.143179
 21
3.757395
 31
5.88
  0
LINE
  5
46207
100
AcDbEntity
  8
0
100
AcDbLine
 10
-0.228615
 20
3.486151
 30
5.88
 11
-0.228615
 21
3.461035
 31
5.88
  0
LINE
  5
46208
100
AcDbEntity
  8
0
100
AcDbLine
 10
-0.072822
 20
3.571543
 30
5.88
 11
-0.082873
 21
3.596657
 31
5.88
  0
LINE
  5
46209
100
AcDbEntity
  8
0
100
AcDbLine
 10
-0.082873
 20
3.596657
 30
5.88
 11
-0.087899
 21
3.621773
 31
5.88
  0
LINE
  5
4620A
100
AcDbEntity
  8
0
100
AcDbLine
 10
-0.087899
 20
3.621773
 30
5.88
 11
-0.082873
 21
3.646888
 31
5.88
  0
LINE
  5
4620B
100
AcDbEntity
  8
0
100
AcDbLine
 10
-0.05272
 20
3.546427
 30
5.88
 11
-0.072822
 21
3.571543
 31
5.88
  0
LINE
  5
4620C
100
AcDbEntity
  8
0
100
AcDbLine
 10
-0.007489
 20
3.516289
 30
5.88
 11
-0.032616
 21
3.531358
 31
5.88
  0
LINE
  5
4620D
100
AcDbEntity
  8
0
100
AcDbLine
 10
-0.032616
 20
3.531358
 30
5.88
 11
-0.05272
 21
3.546427
 31
5.88
  0
LINE
  5
4620E
100
AcDbEntity
  8
0
100
AcDbLine
 10
-0.228615
 20
3.797579
 30
5.88
 11
-0.228615
 21
3.772462
 31
5.88
  0
LINE
  5
4620F
100
AcDbEntity
  8
0
100
AcDbLine
 10
-0.228615
 20
3.772462
 30
5.88
 11
-0.23364
 21
3.747348
 31
5.88
  0
LINE
  5
46210
100
AcDbEntity
  8
0
100
AcDbLine
 10
-0.007489
 20
3.83274
 30
5.88
 11
-0.032616
 21
3.842785
 31
5.88
  0
LINE
  5
46211
100
AcDbEntity
  8
0
100
AcDbLine
 10
-0.047695
 20
3.71721
 30
5.88
 11
-0.022565
 21
3.732279
 31
5.88
  0
LINE
  5
46212
100
AcDbEntity
  8
0
100
AcDbLine
 10
-0.077848
 20
3.672002
 30
5.88
 11
-0.062769
 21
3.697118
 31
5.88
  0
LINE
  5
46213
100
AcDbEntity
  8
0
100
AcDbLine
 10
-0.062769
 20
3.697118
 30
5.88
 11
-0.047695
 21
3.71721
 31
5.88
  0
LINE
  5
46214
100
AcDbEntity
  8
0
100
AcDbLine
 10
-0.022565
 20
3.732279
 30
5.88
 11
0.002562
 21
3.742325
 31
5.88
  0
LINE
  5
46215
100
AcDbEntity
  8
0
100
AcDbLine
 10
0.178457
 20
3.445966
 30
5.88
 11
0.178457
 21
3.199839
 31
5.88
  0
LINE
  5
46216
100
AcDbEntity
  8
0
100
AcDbLine
 10
0.118151
 20
3.235
 30
5.88
 11
0.093021
 21
3.219931
 31
5.88
  0
LINE
  5
46217
100
AcDbEntity
  8
0
100
AcDbLine
 10
0.138253
 20
3.049148
 30
5.88
 11
0.143278
 21
3.024033
 31
5.88
  0
LINE
  5
46218
100
AcDbEntity
  8
0
100
AcDbLine
 10
0.093021
 20
3.219931
 30
5.88
 11
0.072919
 21
3.204862
 31
5.88
  0
LINE
  5
46219
100
AcDbEntity
  8
0
100
AcDbLine
 10
0.08297
 20
3.104402
 30
5.88
 11
0.103074
 21
3.089333
 31
5.88
  0
LINE
  5
4621A
100
AcDbEntity
  8
0
100
AcDbLine
 10
0.103074
 20
3.089333
 30
5.88
 11
0.123176
 21
3.074264
 31
5.88
  0
LINE
  5
4621B
100
AcDbEntity
  8
0
100
AcDbLine
 10
0.123176
 20
3.074264
 30
5.88
 11
0.138253
 21
3.049148
 31
5.88
  0
LINE
  5
4621C
100
AcDbEntity
  8
0
100
AcDbLine
 10
0.042766
 20
3.199839
 30
5.88
 11
0.017639
 21
3.199839
 31
5.88
  0
LINE
  5
4621D
100
AcDbEntity
  8
0
100
AcDbLine
 10
0.02769
 20
3.11947
 30
5.88
 11
0.057843
 21
3.114449
 31
5.88
  0
LINE
  5
4621E
100
AcDbEntity
  8
0
100
AcDbLine
 10
0.072919
 20
3.204862
 30
5.88
 11
0.042766
 21
3.199839
 31
5.88
  0
LINE
  5
4621F
100
AcDbEntity
  8
0
100
AcDbLine
 10
0.057843
 20
3.114449
 30
5.88
 11
0.08297
 21
3.104402
 31
5.88
  0
LINE
  5
46220
100
AcDbEntity
  8
0
100
AcDbLine
 10
0.143278
 20
3.280207
 30
5.88
 11
0.133227
 21
3.255092
 31
5.88
  0
LINE
  5
46221
100
AcDbEntity
  8
0
100
AcDbLine
 10
0.138253
 20
3.360577
 30
5.88
 11
0.143278
 21
3.335461
 31
5.88
  0
LINE
  5
46222
100
AcDbEntity
  8
0
100
AcDbLine
 10
0.08297
 20
3.420852
 30
5.88
 11
0.103074
 21
3.405783
 31
5.88
  0
LINE
  5
46223
100
AcDbEntity
  8
0
100
AcDbLine
 10
0.103074
 20
3.405783
 30
5.88
 11
0.123176
 21
3.385691
 31
5.88
  0
LINE
  5
46224
100
AcDbEntity
  8
0
100
AcDbLine
 10
0.123176
 20
3.385691
 30
5.88
 11
0.138253
 21
3.360577
 31
5.88
  0
LINE
  5
46225
100
AcDbEntity
  8
0
100
AcDbLine
 10
0.133227
 20
3.255092
 30
5.88
 11
0.118151
 21
3.235
 31
5.88
  0
LINE
  5
46226
100
AcDbEntity
  8
0
100
AcDbLine
 10
0.02769
 20
3.430898
 30
5.88
 11
0.057843
 21
3.430898
 31
5.88
  0
LINE
  5
46227
100
AcDbEntity
  8
0
100
AcDbLine
 10
0.057843
 20
3.430898
 30
5.88
 11
0.08297
 21
3.420852
 31
5.88
  0
LINE
  5
46228
100
AcDbEntity
  8
0
100
AcDbLine
 10
0.143278
 20
3.335461
 30
5.88
 11
0.148304
 21
3.310344
 31
5.88
  0
LINE
  5
46229
100
AcDbEntity
  8
0
100
AcDbLine
 10
0.148304
 20
3.310344
 30
5.88
 11
0.143278
 21
3.280207
 31
5.88
  0
LINE
  5
4622A
100
AcDbEntity
  8
0
100
AcDbLine
 10
0.143278
 20
3.651911
 30
5.88
 11
0.148304
 21
3.621773
 31
5.88
  0
LINE
  5
4622B
100
AcDbEntity
  8
0
100
AcDbLine
 10
0.178457
 20
3.757395
 30
5.88
 11
0.178457
 21
3.511268
 31
5.88
  0
LINE
  5
4622C
100
AcDbEntity
  8
0
100
AcDbLine
 10
0.143278
 20
3.596657
 30
5.88
 11
0.133227
 21
3.571543
 31
5.88
  0
LINE
  5
4622D
100
AcDbEntity
  8
0
100
AcDbLine
 10
0.133227
 20
3.571543
 30
5.88
 11
0.118151
 21
3.546427
 31
5.88
  0
LINE
  5
4622E
100
AcDbEntity
  8
0
100
AcDbLine
 10
0.093021
 20
3.531358
 30
5.88
 11
0.072919
 21
3.521311
 31
5.88
  0
LINE
  5
4622F
100
AcDbEntity
  8
0
100
AcDbLine
 10
0.118151
 20
3.546427
 30
5.88
 11
0.093021
 21
3.531358
 31
5.88
  0
LINE
  5
46230
100
AcDbEntity
  8
0
100
AcDbLine
 10
0.042766
 20
3.511268
 30
5.88
 11
0.017639
 21
3.511268
 31
5.88
  0
LINE
  5
46231
100
AcDbEntity
  8
0
100
AcDbLine
 10
0.072919
 20
3.521311
 30
5.88
 11
0.042766
 21
3.511268
 31
5.88
  0
LINE
  5
46232
100
AcDbEntity
  8
0
100
AcDbLine
 10
0.148304
 20
3.621773
 30
5.88
 11
0.143278
 21
3.596657
 31
5.88
  0
LINE
  5
46233
100
AcDbEntity
  8
0
100
AcDbLine
 10
0.138253
 20
3.677025
 30
5.88
 11
0.143278
 21
3.651911
 31
5.88
  0
LINE
  5
46234
100
AcDbEntity
  8
0
100
AcDbLine
 10
0.093021
 20
3.842785
 30
5.88
 11
0.072919
 21
3.83274
 31
5.88
  0
LINE
  5
46235
100
AcDbEntity
  8
0
100
AcDbLine
 10
0.042766
 20
3.827716
 30
5.88
 11
0.017639
 21
3.827716
 31
5.88
  0
LINE
  5
46236
100
AcDbEntity
  8
0
100
AcDbLine
 10
0.02769
 20
3.747348
 30
5.88
 11
0.057843
 21
3.742325
 31
5.88
  0
LINE
  5
46237
100
AcDbEntity
  8
0
100
AcDbLine
 10
0.072919
 20
3.83274
 30
5.88
 11
0.042766
 21
3.827716
 31
5.88
  0
LINE
  5
46238
100
AcDbEntity
  8
0
100
AcDbLine
 10
0.08297
 20
3.732279
 30
5.88
 11
0.103074
 21
3.71721
 31
5.88
  0
LINE
  5
46239
100
AcDbEntity
  8
0
100
AcDbLine
 10
0.103074
 20
3.71721
 30
5.88
 11
0.123176
 21
3.697118
 31
5.88
  0
LINE
  5
4623A
100
AcDbEntity
  8
0
100
AcDbLine
 10
0.123176
 20
3.697118
 30
5.88
 11
0.138253
 21
3.677025
 31
5.88
  0
LINE
  5
4623B
100
AcDbEntity
  8
0
100
AcDbLine
 10
0.057843
 20
3.742325
 30
5.88
 11
0.08297
 21
3.732279
 31
5.88
  0
LINE
  5
4623C
100
AcDbEntity
  8
0
100
AcDbLine
 10
0.002562
 20
4.68163
 30
5.88
 11
0.02769
 21
4.686653
 31
5.88
  0
LINE
  5
4623D
100
AcDbEntity
  8
0
100
AcDbLine
 10
0.017639
 20
4.450571
 30
5.88
 11
-0.007489
 21
4.460618
 31
5.88
  0
LINE
  5
4623E
100
AcDbEntity
  8
0
100
AcDbLine
 10
0.002562
 20
4.370202
 30
5.88
 11
0.02769
 21
4.370202
 31
5.88
  0
LINE
  5
4623F
100
AcDbEntity
  8
0
100
AcDbLine
 10
0.002562
 20
4.053752
 30
5.88
 11
0.02769
 21
4.058775
 31
5.88
  0
LINE
  5
46240
100
AcDbEntity
  8
0
100
AcDbLine
 10
0.017639
 20
4.139143
 30
5.88
 11
-0.007489
 21
4.144167
 31
5.88
  0
LINE
  5
46241
100
AcDbEntity
  8
0
100
AcDbLine
 10
0.178457
 20
4.450571
 30
5.88
 11
-0.143179
 21
4.450571
 31
5.88
  0
LINE
  5
46242
100
AcDbEntity
  8
0
100
AcDbLine
 10
-0.143179
 20
4.385271
 30
5.88
 11
0.178457
 21
4.385271
 31
5.88
  0
LINE
  5
46243
100
AcDbEntity
  8
0
100
AcDbLine
 10
0.178457
 20
4.139143
 30
5.88
 11
-0.143179
 21
4.139143
 31
5.88
  0
LINE
  5
46244
100
AcDbEntity
  8
0
100
AcDbLine
 10
-0.042667
 20
4.345088
 30
5.88
 11
0.1081
 21
4.169281
 31
5.88
  0
LINE
  5
46245
100
AcDbEntity
  8
0
100
AcDbLine
 10
-0.143179
 20
4.073844
 30
5.88
 11
0.178457
 21
4.073844
 31
5.88
  0
LINE
  5
46246
100
AcDbEntity
  8
0
100
AcDbLine
 10
-0.042667
 20
4.661537
 30
5.88
 11
0.1081
 21
4.485732
 31
5.88
  0
LINE
  5
46247
100
AcDbEntity
  8
0
100
AcDbLine
 10
-0.082873
 20
4.274765
 30
5.88
 11
-0.077848
 21
4.29988
 31
5.88
  0
LINE
  5
46248
100
AcDbEntity
  8
0
100
AcDbLine
 10
-0.143179
 20
4.139143
 30
5.88
 11
-0.143179
 21
4.385271
 31
5.88
  0
LINE
  5
46249
100
AcDbEntity
  8
0
100
AcDbLine
 10
-0.238666
 20
4.139143
 30
5.88
 11
-0.228615
 21
4.114029
 31
5.88
  0
LINE
  5
4624A
100
AcDbEntity
  8
0
100
AcDbLine
 10
-0.23364
 20
4.058775
 30
5.88
 11
-0.243691
 21
4.033659
 31
5.88
  0
LINE
  5
4624B
100
AcDbEntity
  8
0
100
AcDbLine
 10
-0.419585
 20
4.18435
 30
5.88
 11
-0.263793
 21
4.008545
 31
5.88
  0
LINE
  5
4624C
100
AcDbEntity
  8
0
100
AcDbLine
 10
-0.454764
 20
4.058775
 30
5.88
 11
-0.459791
 21
4.08389
 31
5.88
  0
LINE
  5
4624D
100
AcDbEntity
  8
0
100
AcDbLine
 10
-0.359279
 20
3.973384
 30
5.88
 11
-0.384407
 21
3.983431
 31
5.88
  0
LINE
  5
4624E
100
AcDbEntity
  8
0
100
AcDbLine
 10
-0.374356
 20
3.893016
 30
5.88
 11
-0.344203
 21
3.893016
 31
5.88
  0
LINE
  5
4624F
100
AcDbEntity
  8
0
100
AcDbLine
 10
-0.384407
 20
3.983431
 30
5.88
 11
-0.409534
 21
3.993476
 31
5.88
  0
LINE
  5
46250
100
AcDbEntity
  8
0
100
AcDbLine
 10
-0.409534
 20
3.993476
 30
5.88
 11
-0.429636
 21
4.013567
 31
5.88
  0
LINE
  5
46251
100
AcDbEntity
  8
0
100
AcDbLine
 10
-0.419585
 20
3.867901
 30
5.88
 11
-0.399483
 21
3.882968
 31
5.88
  0
LINE
  5
46252
100
AcDbEntity
  8
0
100
AcDbLine
 10
-0.399483
 20
3.882968
 30
5.88
 11
-0.374356
 21
3.893016
 31
5.88
  0
LINE
  5
46253
100
AcDbEntity
  8
0
100
AcDbLine
 10
-0.444713
 20
4.033659
 30
5.88
 11
-0.454764
 21
4.058775
 31
5.88
  0
LINE
  5
46254
100
AcDbEntity
  8
0
100
AcDbLine
 10
-0.429636
 20
4.013567
 30
5.88
 11
-0.444713
 21
4.033659
 31
5.88
  0
LINE
  5
46255
100
AcDbEntity
  8
0
100
AcDbLine
 10
-0.243691
 20
4.033659
 30
5.88
 11
-0.258768
 21
4.013567
 31
5.88
  0
LINE
  5
46256
100
AcDbEntity
  8
0
100
AcDbLine
 10
-0.258768
 20
4.013567
 30
5.88
 11
-0.27887
 21
3.993476
 31
5.88
  0
LINE
  5
46257
100
AcDbEntity
  8
0
100
AcDbLine
 10
-0.27887
 20
3.993476
 30
5.88
 11
-0.303997
 21
3.983431
 31
5.88
  0
LINE
  5
46258
100
AcDbEntity
  8
0
100
AcDbLine
 10
-0.329126
 20
3.978407
 30
5.88
 11
-0.359279
 21
3.973384
 31
5.88
  0
LINE
  5
46259
100
AcDbEntity
  8
0
100
AcDbLine
 10
-0.303997
 20
3.983431
 30
5.88
 11
-0.329126
 21
3.978407
 31
5.88
  0
LINE
  5
4625A
100
AcDbEntity
  8
0
100
AcDbLine
 10
-0.293946
 20
3.882968
 30
5.88
 11
-0.268819
 21
3.867901
 31
5.88
  0
LINE
  5
4625B
100
AcDbEntity
  8
0
100
AcDbLine
 10
-0.344203
 20
3.893016
 30
5.88
 11
-0.319074
 21
3.893016
 31
5.88
  0
LINE
  5
4625C
100
AcDbEntity
  8
0
100
AcDbLine
 10
-0.319074
 20
3.893016
 30
5.88
 11
-0.293946
 21
3.882968
 31
5.88
  0
LINE
  5
4625D
100
AcDbEntity
  8
0
100
AcDbLine
 10
-0.374356
 20
4.204443
 30
5.88
 11
-0.344203
 21
4.209466
 31
5.88
  0
LINE
  5
4625E
100
AcDbEntity
  8
0
100
AcDbLine
 10
-0.439687
 20
4.159236
 30
5.88
 11
-0.419585
 21
4.179328
 31
5.88
  0
LINE
  5
4625F
100
AcDbEntity
  8
0
100
AcDbLine
 10
-0.419585
 20
4.179328
 30
5.88
 11
-0.399483
 21
4.194397
 31
5.88
  0
LINE
  5
46260
100
AcDbEntity
  8
0
100
AcDbLine
 10
-0.399483
 20
4.194397
 30
5.88
 11
-0.374356
 21
4.204443
 31
5.88
  0
LINE
  5
46261
100
AcDbEntity
  8
0
100
AcDbLine
 10
-0.459791
 20
4.114029
 30
5.88
 11
-0.454764
 21
4.139143
 31
5.88
  0
LINE
  5
46262
100
AcDbEntity
  8
0
100
AcDbLine
 10
-0.459791
 20
4.08389
 30
5.88
 11
-0.459791
 21
4.114029
 31
5.88
  0
LINE
  5
46263
100
AcDbEntity
  8
0
100
AcDbLine
 10
-0.454764
 20
4.139143
 30
5.88
 11
-0.439687
 21
4.159236
 31
5.88
  0
LINE
  5
46264
100
AcDbEntity
  8
0
100
AcDbLine
 10
-0.293946
 20
4.194397
 30
5.88
 11
-0.268819
 21
4.18435
 31
5.88
  0
LINE
  5
46265
100
AcDbEntity
  8
0
100
AcDbLine
 10
-0.268819
 20
4.18435
 30
5.88
 11
-0.253742
 21
4.164258
 31
5.88
  0
LINE
  5
46266
100
AcDbEntity
  8
0
100
AcDbLine
 10
-0.344203
 20
4.209466
 30
5.88
 11
-0.319074
 21
4.204443
 31
5.88
  0
LINE
  5
46267
100
AcDbEntity
  8
0
100
AcDbLine
 10
-0.319074
 20
4.204443
 30
5.88
 11
-0.293946
 21
4.194397
 31
5.88
  0
LINE
  5
46268
100
AcDbEntity
  8
0
100
AcDbLine
 10
-0.253742
 20
4.164258
 30
5.88
 11
-0.238666
 21
4.139143
 31
5.88
  0
LINE
  5
46269
100
AcDbEntity
  8
0
100
AcDbLine
 10
-0.228615
 20
4.08389
 30
5.88
 11
-0.23364
 21
4.058775
 31
5.88
  0
LINE
  5
4626A
100
AcDbEntity
  8
0
100
AcDbLine
 10
-0.19846
 20
4.219512
 30
5.88
 11
-0.19846
 21
3.973384
 31
5.88
  0
LINE
  5
4626B
100
AcDbEntity
  8
0
100
AcDbLine
 10
-0.047695
 20
4.028638
 30
5.88
 11
-0.022565
 21
4.043706
 31
5.88
  0
LINE
  5
4626C
100
AcDbEntity
  8
0
100
AcDbLine
 10
-0.022565
 20
4.043706
 30
5.88
 11
0.002562
 21
4.053752
 31
5.88
  0
LINE
  5
4626D
100
AcDbEntity
  8
0
100
AcDbLine
 10
-0.082873
 20
3.963338
 30
5.88
 11
-0.077848
 21
3.988453
 31
5.88
  0
LINE
  5
4626E
100
AcDbEntity
  8
0
100
AcDbLine
 10
-0.077848
 20
3.988453
 30
5.88
 11
-0.062769
 21
4.013567
 31
5.88
  0
LINE
  5
4626F
100
AcDbEntity
  8
0
100
AcDbLine
 10
-0.062769
 20
4.013567
 30
5.88
 11
-0.047695
 21
4.028638
 31
5.88
  0
LINE
  5
46270
100
AcDbEntity
  8
0
100
AcDbLine
 10
-0.072822
 20
3.882968
 30
5.88
 11
-0.082873
 21
3.908084
 31
5.88
  0
LINE
  5
46271
100
AcDbEntity
  8
0
100
AcDbLine
 10
-0.082873
 20
3.908084
 30
5.88
 11
-0.087899
 21
3.933201
 31
5.88
  0
LINE
  5
46272
100
AcDbEntity
  8
0
100
AcDbLine
 10
-0.05272
 20
3.862878
 30
5.88
 11
-0.072822
 21
3.882968
 31
5.88
  0
LINE
  5
46273
100
AcDbEntity
  8
0
100
AcDbLine
 10
-0.087899
 20
3.933201
 30
5.88
 11
-0.082873
 21
3.963338
 31
5.88
  0
LINE
  5
46274
100
AcDbEntity
  8
0
100
AcDbLine
 10
-0.228615
 20
4.114029
 30
5.88
 11
-0.228615
 21
4.08389
 31
5.88
  0
LINE
  5
46275
100
AcDbEntity
  8
0
100
AcDbLine
 10
-0.007489
 20
4.144167
 30
5.88
 11
-0.032616
 21
4.159236
 31
5.88
  0
LINE
  5
46276
100
AcDbEntity
  8
0
100
AcDbLine
 10
-0.032616
 20
4.159236
 30
5.88
 11
-0.05272
 21
4.174305
 31
5.88
  0
LINE
  5
46277
100
AcDbEntity
  8
0
100
AcDbLine
 10
-0.072822
 20
4.194397
 30
5.88
 11
-0.082873
 21
4.219512
 31
5.88
  0
LINE
  5
46278
100
AcDbEntity
  8
0
100
AcDbLine
 10
-0.082873
 20
4.219512
 30
5.88
 11
-0.087899
 21
4.249651
 31
5.88
  0
LINE
  5
46279
100
AcDbEntity
  8
0
100
AcDbLine
 10
-0.087899
 20
4.249651
 30
5.88
 11
-0.082873
 21
4.274765
 31
5.88
  0
LINE
  5
4627A
100
AcDbEntity
  8
0
100
AcDbLine
 10
-0.05272
 20
4.174305
 30
5.88
 11
-0.072822
 21
4.194397
 31
5.88
  0
LINE
  5
4627B
100
AcDbEntity
  8
0
100
AcDbLine
 10
-0.23364
 20
4.686653
 30
5.88
 11
-0.243691
 21
4.661537
 31
5.88
  0
LINE
  5
4627C
100
AcDbEntity
  8
0
100
AcDbLine
 10
-0.238666
 20
4.450571
 30
5.88
 11
-0.228615
 21
4.425456
 31
5.88
  0
LINE
  5
4627D
100
AcDbEntity
  8
0
100
AcDbLine
 10
-0.23364
 20
4.370202
 30
5.88
 11
-0.243691
 21
4.345088
 31
5.88
  0
LINE
  5
4627E
100
AcDbEntity
  8
0
100
AcDbLine
 10
-0.268819
 20
4.495779
 30
5.88
 11
-0.253742
 21
4.475687
 31
5.88
  0
LINE
  5
4627F
100
AcDbEntity
  8
0
100
AcDbLine
 10
-0.439687
 20
4.475687
 30
5.88
 11
-0.419585
 21
4.495779
 31
5.88
  0
LINE
  5
46280
100
AcDbEntity
  8
0
100
AcDbLine
 10
-0.419585
 20
4.495779
 30
5.88
 11
-0.263793
 21
4.319972
 31
5.88
  0
LINE
  5
46281
100
AcDbEntity
  8
0
100
AcDbLine
 10
-0.359279
 20
4.289834
 30
5.88
 11
-0.384407
 21
4.294858
 31
5.88
  0
LINE
  5
46282
100
AcDbEntity
  8
0
100
AcDbLine
 10
-0.384407
 20
4.294858
 30
5.88
 11
-0.409534
 21
4.304903
 31
5.88
  0
LINE
  5
46283
100
AcDbEntity
  8
0
100
AcDbLine
 10
-0.409534
 20
4.304903
 30
5.88
 11
-0.429636
 21
4.324996
 31
5.88
  0
LINE
  5
46284
100
AcDbEntity
  8
0
100
AcDbLine
 10
-0.459791
 20
4.425456
 30
5.88
 11
-0.454764
 21
4.450571
 31
5.88
  0
LINE
  5
46285
100
AcDbEntity
  8
0
100
AcDbLine
 10
-0.444713
 20
4.345088
 30
5.88
 11
-0.454764
 21
4.370202
 31
5.88
  0
LINE
  5
46286
100
AcDbEntity
  8
0
100
AcDbLine
 10
-0.454764
 20
4.370202
 30
5.88
 11
-0.459791
 21
4.40034
 31
5.88
  0
LINE
  5
46287
100
AcDbEntity
  8
0
100
AcDbLine
 10
-0.459791
 20
4.40034
 30
5.88
 11
-0.459791
 21
4.425456
 31
5.88
  0
LINE
  5
46288
100
AcDbEntity
  8
0
100
AcDbLine
 10
-0.454764
 20
4.450571
 30
5.88
 11
-0.439687
 21
4.475687
 31
5.88
  0
LINE
  5
46289
100
AcDbEntity
  8
0
100
AcDbLine
 10
-0.429636
 20
4.324996
 30
5.88
 11
-0.444713
 21
4.345088
 31
5.88
  0
LINE
  5
4628A
100
AcDbEntity
  8
0
100
AcDbLine
 10
-0.253742
 20
4.475687
 30
5.88
 11
-0.238666
 21
4.450571
 31
5.88
  0
LINE
  5
4628B
100
AcDbEntity
  8
0
100
AcDbLine
 10
-0.258768
 20
4.324996
 30
5.88
 11
-0.27887
 21
4.309927
 31
5.88
  0
LINE
  5
4628C
100
AcDbEntity
  8
0
100
AcDbLine
 10
-0.27887
 20
4.309927
 30
5.88
 11
-0.303997
 21
4.294858
 31
5.88
  0
LINE
  5
4628D
100
AcDbEntity
  8
0
100
AcDbLine
 10
-0.329126
 20
4.289834
 30
5.88
 11
-0.359279
 21
4.289834
 31
5.88
  0
LINE
  5
4628E
100
AcDbEntity
  8
0
100
AcDbLine
 10
-0.303997
 20
4.294858
 30
5.88
 11
-0.329126
 21
4.289834
 31
5.88
  0
LINE
  5
4628F
100
AcDbEntity
  8
0
100
AcDbLine
 10
-0.243691
 20
4.345088
 30
5.88
 11
-0.258768
 21
4.324996
 31
5.88
  0
LINE
  5
46290
100
AcDbEntity
  8
0
100
AcDbLine
 10
-0.359279
 20
4.601261
 30
5.88
 11
-0.384407
 21
4.606285
 31
5.88
  0
LINE
  5
46291
100
AcDbEntity
  8
0
100
AcDbLine
 10
-0.374356
 20
4.520893
 30
5.88
 11
-0.344203
 21
4.520893
 31
5.88
  0
LINE
  5
46292
100
AcDbEntity
  8
0
100
AcDbLine
 10
-0.384407
 20
4.606285
 30
5.88
 11
-0.409534
 21
4.621354
 31
5.88
  0
LINE
  5
46293
100
AcDbEntity
  8
0
100
AcDbLine
 10
-0.409534
 20
4.621354
 30
5.88
 11
-0.429636
 21
4.636423
 31
5.88
  0
LINE
  5
46294
100
AcDbEntity
  8
0
100
AcDbLine
 10
-0.444713
 20
4.661537
 30
5.88
 11
-0.454764
 21
4.686653
 31
5.88
  0
LINE
  5
46295
100
AcDbEntity
  8
0
100
AcDbLine
 10
-0.429636
 20
4.636423
 30
5.88
 11
-0.444713
 21
4.661537
 31
5.88
  0
LINE
  5
46296
100
AcDbEntity
  8
0
100
AcDbLine
 10
-0.419585
 20
4.495779
 30
5.88
 11
-0.399483
 21
4.510846
 31
5.88
  0
LINE
  5
46297
100
AcDbEntity
  8
0
100
AcDbLine
 10
-0.399483
 20
4.510846
 30
5.88
 11
-0.374356
 21
4.520893
 31
5.88
  0
LINE
  5
46298
100
AcDbEntity
  8
0
100
AcDbLine
 10
-0.243691
 20
4.661537
 30
5.88
 11
-0.258768
 21
4.641445
 31
5.88
  0
LINE
  5
46299
100
AcDbEntity
  8
0
100
AcDbLine
 10
-0.258768
 20
4.641445
 30
5.88
 11
-0.27887
 21
4.621354
 31
5.88
  0
LINE
  5
4629A
100
AcDbEntity
  8
0
100
AcDbLine
 10
-0.27887
 20
4.621354
 30
5.88
 11
-0.303997
 21
4.611309
 31
5.88
  0
LINE
  5
4629B
100
AcDbEntity
  8
0
100
AcDbLine
 10
-0.329126
 20
4.601261
 30
5.88
 11
-0.359279
 21
4.601261
 31
5.88
  0
LINE
  5
4629C
100
AcDbEntity
  8
0
100
AcDbLine
 10
-0.303997
 20
4.611309
 30
5.88
 11
-0.329126
 21
4.601261
 31
5.88
  0
LINE
  5
4629D
100
AcDbEntity
  8
0
100
AcDbLine
 10
-0.293946
 20
4.510846
 30
5.88
 11
-0.268819
 21
4.495779
 31
5.88
  0
LINE
  5
4629E
100
AcDbEntity
  8
0
100
AcDbLine
 10
-0.344203
 20
4.520893
 30
5.88
 11
-0.319074
 21
4.520893
 31
5.88
  0
LINE
  5
4629F
100
AcDbEntity
  8
0
100
AcDbLine
 10
-0.319074
 20
4.520893
 30
5.88
 11
-0.293946
 21
4.510846
 31
5.88
  0
LINE
  5
462A0
100
AcDbEntity
  8
0
100
AcDbLine
 10
-0.032616
 20
4.470663
 30
5.88
 11
-0.05272
 21
4.485732
 31
5.88
  0
LINE
  5
462A1
100
AcDbEntity
  8
0
100
AcDbLine
 10
-0.19846
 20
4.535962
 30
5.88
 11
-0.19846
 21
4.289834
 31
5.88
  0
LINE
  5
462A2
100
AcDbEntity
  8
0
100
AcDbLine
 10
-0.228615
 20
4.425456
 30
5.88
 11
-0.228615
 21
4.40034
 31
5.88
  0
LINE
  5
462A3
100
AcDbEntity
  8
0
100
AcDbLine
 10
-0.228615
 20
4.40034
 30
5.88
 11
-0.23364
 21
4.370202
 31
5.88
  0
LINE
  5
462A4
100
AcDbEntity
  8
0
100
AcDbLine
 10
-0.007489
 20
4.460618
 30
5.88
 11
-0.032616
 21
4.470663
 31
5.88
  0
LINE
  5
462A5
100
AcDbEntity
  8
0
100
AcDbLine
 10
-0.047695
 20
4.345088
 30
5.88
 11
-0.022565
 21
4.360157
 31
5.88
  0
LINE
  5
462A6
100
AcDbEntity
  8
0
100
AcDbLine
 10
-0.022565
 20
4.360157
 30
5.88
 11
0.002562
 21
4.370202
 31
5.88
  0
LINE
  5
462A7
100
AcDbEntity
  8
0
100
AcDbLine
 10
-0.077848
 20
4.29988
 30
5.88
 11
-0.062769
 21
4.324996
 31
5.88
  0
LINE
  5
462A8
100
AcDbEntity
  8
0
100
AcDbLine
 10
-0.062769
 20
4.324996
 30
5.88
 11
-0.047695
 21
4.345088
 31
5.88
  0
LINE
  5
462A9
100
AcDbEntity
  8
0
100
AcDbLine
 10
-0.047695
 20
4.656513
 30
5.88
 11
-0.022565
 21
4.671584
 31
5.88
  0
LINE
  5
462AA
100
AcDbEntity
  8
0
100
AcDbLine
 10
-0.022565
 20
4.671584
 30
5.88
 11
0.002562
 21
4.68163
 31
5.88
  0
LINE
  5
462AB
100
AcDbEntity
  8
0
100
AcDbLine
 10
-0.082873
 20
4.586193
 30
5.88
 11
-0.077848
 21
4.61633
 31
5.88
  0
LINE
  5
462AC
100
AcDbEntity
  8
0
100
AcDbLine
 10
-0.077848
 20
4.61633
 30
5.88
 11
-0.062769
 21
4.636423
 31
5.88
  0
LINE
  5
462AD
100
AcDbEntity
  8
0
100
AcDbLine
 10
-0.087899
 20
4.561076
 30
5.88
 11
-0.082873
 21
4.586193
 31
5.88
  0
LINE
  5
462AE
100
AcDbEntity
  8
0
100
AcDbLine
 10
-0.062769
 20
4.636423
 30
5.88
 11
-0.047695
 21
4.656513
 31
5.88
  0
LINE
  5
462AF
100
AcDbEntity
  8
0
100
AcDbLine
 10
-0.072822
 20
4.510846
 30
5.88
 11
-0.082873
 21
4.535962
 31
5.88
  0
LINE
  5
462B0
100
AcDbEntity
  8
0
100
AcDbLine
 10
-0.05272
 20
4.485732
 30
5.88
 11
-0.072822
 21
4.510846
 31
5.88
  0
LINE
  5
462B1
100
AcDbEntity
  8
0
100
AcDbLine
 10
-0.082873
 20
4.535962
 30
5.88
 11
-0.087899
 21
4.561076
 31
5.88
  0
LINE
  5
462B2
100
AcDbEntity
  8
0
100
AcDbLine
 10
0.138253
 20
4.29988
 30
5.88
 11
0.143278
 21
4.274765
 31
5.88
  0
LINE
  5
462B3
100
AcDbEntity
  8
0
100
AcDbLine
 10
0.178457
 20
4.385271
 30
5.88
 11
0.178457
 21
4.139143
 31
5.88
  0
LINE
  5
462B4
100
AcDbEntity
  8
0
100
AcDbLine
 10
0.138253
 20
3.988453
 30
5.88
 11
0.143278
 21
3.963338
 31
5.88
  0
LINE
  5
462B5
100
AcDbEntity
  8
0
100
AcDbLine
 10
0.143278
 20
3.908084
 30
5.88
 11
0.133227
 21
3.882968
 31
5.88
  0
LINE
  5
462B6
100
AcDbEntity
  8
0
100
AcDbLine
 10
0.08297
 20
4.048728
 30
5.88
 11
0.103074
 21
4.033659
 31
5.88
  0
LINE
  5
462B7
100
AcDbEntity
  8
0
100
AcDbLine
 10
0.103074
 20
4.033659
 30
5.88
 11
0.123176
 21
4.013567
 31
5.88
  0
LINE
  5
462B8
100
AcDbEntity
  8
0
100
AcDbLine
 10
0.123176
 20
4.013567
 30
5.88
 11
0.138253
 21
3.988453
 31
5.88
  0
LINE
  5
462B9
100
AcDbEntity
  8
0
100
AcDbLine
 10
0.133227
 20
3.882968
 30
5.88
 11
0.118151
 21
3.862878
 31
5.88
  0
LINE
  5
462BA
100
AcDbEntity
  8
0
100
AcDbLine
 10
0.02769
 20
4.058775
 30
5.88
 11
0.057843
 21
4.053752
 31
5.88
  0
LINE
  5
462BB
100
AcDbEntity
  8
0
100
AcDbLine
 10
0.057843
 20
4.053752
 30
5.88
 11
0.08297
 21
4.048728
 31
5.88
  0
LINE
  5
462BC
100
AcDbEntity
  8
0
100
AcDbLine
 10
0.148304
 20
3.938222
 30
5.88
 11
0.143278
 21
3.908084
 31
5.88
  0
LINE
  5
462BD
100
AcDbEntity
  8
0
100
AcDbLine
 10
0.143278
 20
3.963338
 30
5.88
 11
0.148304
 21
3.938222
 31
5.88
  0
LINE
  5
462BE
100
AcDbEntity
  8
0
100
AcDbLine
 10
0.143278
 20
4.224535
 30
5.88
 11
0.133227
 21
4.199419
 31
5.88
  0
LINE
  5
462BF
100
AcDbEntity
  8
0
100
AcDbLine
 10
0.133227
 20
4.199419
 30
5.88
 11
0.118151
 21
4.174305
 31
5.88
  0
LINE
  5
462C0
100
AcDbEntity
  8
0
100
AcDbLine
 10
0.118151
 20
4.174305
 30
5.88
 11
0.093021
 21
4.159236
 31
5.88
  0
LINE
  5
462C1
100
AcDbEntity
  8
0
100
AcDbLine
 10
0.093021
 20
4.159236
 30
5.88
 11
0.072919
 21
4.144167
 31
5.88
  0
LINE
  5
462C2
100
AcDbEntity
  8
0
100
AcDbLine
 10
0.042766
 20
4.139143
 30
5.88
 11
0.017639
 21
4.139143
 31
5.88
  0
LINE
  5
462C3
100
AcDbEntity
  8
0
100
AcDbLine
 10
0.072919
 20
4.144167
 30
5.88
 11
0.042766
 21
4.139143
 31
5.88
  0
LINE
  5
462C4
100
AcDbEntity
  8
0
100
AcDbLine
 10
0.143278
 20
4.274765
 30
5.88
 11
0.148304
 21
4.249651
 31
5.88
  0
LINE
  5
462C5
100
AcDbEntity
  8
0
100
AcDbLine
 10
0.148304
 20
4.249651
 30
5.88
 11
0.143278
 21
4.224535
 31
5.88
  0
LINE
  5
462C6
100
AcDbEntity
  8
0
100
AcDbLine
 10
0.118151
 20
4.490756
 30
5.88
 11
0.093021
 21
4.470663
 31
5.88
  0
LINE
  5
462C7
100
AcDbEntity
  8
0
100
AcDbLine
 10
0.093021
 20
4.470663
 30
5.88
 11
0.072919
 21
4.460618
 31
5.88
  0
LINE
  5
462C8
100
AcDbEntity
  8
0
100
AcDbLine
 10
0.08297
 20
4.360157
 30
5.88
 11
0.103074
 21
4.345088
 31
5.88
  0
LINE
  5
462C9
100
AcDbEntity
  8
0
100
AcDbLine
 10
0.123176
 20
4.324996
 30
5.88
 11
0.138253
 21
4.29988
 31
5.88
  0
LINE
  5
462CA
100
AcDbEntity
  8
0
100
AcDbLine
 10
0.103074
 20
4.345088
 30
5.88
 11
0.123176
 21
4.324996
 31
5.88
  0
LINE
  5
462CB
100
AcDbEntity
  8
0
100
AcDbLine
 10
0.042766
 20
4.450571
 30
5.88
 11
0.017639
 21
4.450571
 31
5.88
  0
LINE
  5
462CC
100
AcDbEntity
  8
0
100
AcDbLine
 10
0.02769
 20
4.370202
 30
5.88
 11
0.057843
 21
4.370202
 31
5.88
  0
LINE
  5
462CD
100
AcDbEntity
  8
0
100
AcDbLine
 10
0.072919
 20
4.460618
 30
5.88
 11
0.042766
 21
4.450571
 31
5.88
  0
LINE
  5
462CE
100
AcDbEntity
  8
0
100
AcDbLine
 10
0.057843
 20
4.370202
 30
5.88
 11
0.08297
 21
4.360157
 31
5.88
  0
LINE
  5
462CF
100
AcDbEntity
  8
0
100
AcDbLine
 10
0.138253
 20
4.61633
 30
5.88
 11
0.143278
 21
4.591216
 31
5.88
  0
LINE
  5
462D0
100
AcDbEntity
  8
0
100
AcDbLine
 10
0.143278
 20
4.535962
 30
5.88
 11
0.133227
 21
4.510846
 31
5.88
  0
LINE
  5
462D1
100
AcDbEntity
  8
0
100
AcDbLine
 10
0.08297
 20
4.671584
 30
5.88
 11
0.103074
 21
4.656513
 31
5.88
  0
LINE
  5
462D2
100
AcDbEntity
  8
0
100
AcDbLine
 10
0.103074
 20
4.656513
 30
5.88
 11
0.123176
 21
4.641445
 31
5.88
  0
LINE
  5
462D3
100
AcDbEntity
  8
0
100
AcDbLine
 10
0.123176
 20
4.641445
 30
5.88
 11
0.138253
 21
4.61633
 31
5.88
  0
LINE
  5
462D4
100
AcDbEntity
  8
0
100
AcDbLine
 10
0.02769
 20
4.686653
 30
5.88
 11
0.057843
 21
4.68163
 31
5.88
  0
LINE
  5
462D5
100
AcDbEntity
  8
0
100
AcDbLine
 10
0.057843
 20
4.68163
 30
5.88
 11
0.08297
 21
4.671584
 31
5.88
  0
LINE
  5
462D6
100
AcDbEntity
  8
0
100
AcDbLine
 10
0.133227
 20
4.510846
 30
5.88
 11
0.118151
 21
4.490756
 31
5.88
  0
LINE
  5
462D7
100
AcDbEntity
  8
0
100
AcDbLine
 10
0.143278
 20
4.591216
 30
5.88
 11
0.148304
 21
4.561076
 31
5.88
  0
LINE
  5
462D8
100
AcDbEntity
  8
0
100
AcDbLine
 10
0.148304
 20
4.561076
 30
5.88
 11
0.143278
 21
4.535962
 31
5.88
  0
POLYLINE
  5
462D9
100
AcDbEntity
  8
0
100
AcDbPolygonMesh
 66
     1
 10
0.0
 20
0.0
 30
0.0
 70
    16
 71
     6
 72
     3
  0
VERTEX
  5
462DA
100
AcDbEntity
  8
0
100
AcDbVertex
100
AcDbPolygonMeshVertex
 10
0.068
 20
9.8
 30
4.755
 70
    64
  0
VERTEX
  5
462DB
100
AcDbEntity
  8
0
100
AcDbVertex
100
AcDbPolygonMeshVertex
 10
0.068
 20
9.8
 30
0.0
 70
    64
  0
VERTEX
  5
462DC
100
AcDbEntity
  8
0
100
AcDbVertex
100
AcDbPolygonMeshVertex
 10
0.068
 20
9.8
 30
0.0
 70
    64
  0
VERTEX
  5
462DD
100
AcDbEntity
  8
0
100
AcDbVertex
100
AcDbPolygonMeshVertex
 10
0.0
 20
9.8
 30
4.755
 70
    64
  0
VERTEX
  5
462DE
100
AcDbEntity
  8
0
100
AcDbVertex
100
AcDbPolygonMeshVertex
 10
0.0
 20
9.8
 30
0.0
 70
    64
  0
VERTEX
  5
462DF
100
AcDbEntity
  8
0
100
AcDbVertex
100
AcDbPolygonMeshVertex
 10
0.0
 20
9.8
 30
0.0
 70
    64
  0
VERTEX
  5
462E0
100
AcDbEntity
  8
0
100
AcDbVertex
100
AcDbPolygonMeshVertex
 10
0.0
 20
10.0
 30
4.755
 70
    64
  0
VERTEX
  5
462E1
100
AcDbEntity
  8
0
100
AcDbVertex
100
AcDbPolygonMeshVertex
 10
0.0
 20
10.0
 30
0.0
 70
    64
  0
VERTEX
  5
462E2
100
AcDbEntity
  8
0
100
AcDbVertex
100
AcDbPolygonMeshVertex
 10
0.0
 20
9.8
 30
0.0
 70
    64
  0
VERTEX
  5
462E3
100
AcDbEntity
  8
0
100
AcDbVertex
100
AcDbPolygonMeshVertex
 10
0.068
 20
10.0
 30
4.755
 70
    64
  0
VERTEX
  5
462E4
100
AcDbEntity
  8
0
100
AcDbVertex
100
AcDbPolygonMeshVertex
 10
0.068
 20
10.0
 30
0.0
 70
    64
  0
VERTEX
  5
462E5
100
AcDbEntity
  8
0
100
AcDbVertex
100
AcDbPolygonMeshVertex
 10
0.068
 20
9.8
 30
0.0
 70
    64
  0
VERTEX
  5
462E6
100
AcDbEntity
  8
0
100
AcDbVertex
100
AcDbPolygonMeshVertex
 10
0.068
 20
10.0
 30
4.755
 70
    64
  0
VERTEX
  5
462E7
100
AcDbEntity
  8
0
100
AcDbVertex
100
AcDbPolygonMeshVertex
 10
0.068
 20
10.0
 30
4.755
 70
    64
  0
VERTEX
  5
462E8
100
AcDbEntity
  8
0
100
AcDbVertex
100
AcDbPolygonMeshVertex
 10
0.068
 20
9.8
 30
4.755
 70
    64
  0
VERTEX
  5
462E9
100
AcDbEntity
  8
0
100
AcDbVertex
100
AcDbPolygonMeshVertex
 10
0.0
 20
10.0
 30
4.755
 70
    64
  0
VERTEX
  5
462EA
100
AcDbEntity
  8
0
100
AcDbVertex
100
AcDbPolygonMeshVertex
 10
0.0
 20
10.0
 30
4.755
 70
    64
  0
VERTEX
  5
462EB
100
AcDbEntity
  8
0
100
AcDbVertex
100
AcDbPolygonMeshVertex
 10
0.0
 20
9.8
 30
4.755
 70
    64
  0
SEQEND
  5
462EC
100
AcDbEntity
  8
0
  0
TEXT
  5
462ED
100
AcDbEntity
  8
0
100
AcDbText
 39
0.001
 10
-0.747436
 20
8.02726
 30
5.879973
 40
0.05
  1
3
 72
     1
 11
-0.73077
 21
8.02726
 31
5.879973
100
AcDbText
  0
LINE
  5
462EE
100
AcDbEntity
  8
0
100
AcDbLine
 10
-0.684791
 20
8.625571
 30
5.88
 11
-0.684791
 21
7.64106
 31
5.88
  0
LINE
  5
462EF
100
AcDbEntity
  8
0
100
AcDbLine
 10
-0.851402
 20
7.64106
 30
5.88
 11
-0.851402
 21
8.625571
 31
5.88
  0
LINE
  5
462F0
100
AcDbEntity
  8
0
100
AcDbLine
 10
-0.022565
 20
8.625571
 30
5.88
 11
-0.022565
 21
7.64106
 31
5.88
  0
LINE
  5
462F1
100
AcDbEntity
  8
0
100
AcDbLine
 10
-0.022565
 20
8.625608
 30
5.88
 11
-0.022565
 21
7.646048
 31
5.88
  0
LINE
  5
462F2
100
AcDbEntity
  8
0
100
AcDbLine
 10
-0.520097
 20
6.731023
 30
5.88
 11
-0.19846
 21
6.731023
 31
5.88
  0
LINE
  5
462F3
100
AcDbEntity
  8
0
100
AcDbLine
 10
-0.19846
 20
6.484895
 30
5.88
 11
-0.520097
 21
6.484895
 31
5.88
  0
LINE
  5
462F4
100
AcDbEntity
  8
0
100
AcDbLine
 10
-0.520097
 20
6.414572
 30
5.88
 11
-0.19846
 21
6.414572
 31
5.88
  0
LINE
  5
462F5
100
AcDbEntity
  8
0
100
AcDbLine
 10
-0.19846
 20
6.168444
 30
5.88
 11
-0.520097
 21
6.168444
 31
5.88
  0
LINE
  5
462F6
100
AcDbEntity
  8
0
100
AcDbLine
 10
-0.520097
 20
6.103143
 30
5.88
 11
-0.19846
 21
6.103143
 31
5.88
  0
LINE
  5
462F7
100
AcDbEntity
  8
0
100
AcDbLine
 10
-0.19846
 20
5.857015
 30
5.88
 11
-0.520097
 21
5.857015
 31
5.88
  0
LINE
  5
462F8
100
AcDbEntity
  8
0
100
AcDbLine
 10
-0.520097
 20
5.786692
 30
5.88
 11
-0.19846
 21
5.786692
 31
5.88
  0
LINE
  5
462F9
100
AcDbEntity
  8
0
100
AcDbLine
 10
-0.19846
 20
5.540566
 30
5.88
 11
-0.520097
 21
5.540566
 31
5.88
  0
LINE
  5
462FA
100
AcDbEntity
  8
0
100
AcDbLine
 10
-0.520097
 20
5.475267
 30
5.88
 11
-0.19846
 21
5.475267
 31
5.88
  0
LINE
  5
462FB
100
AcDbEntity
  8
0
100
AcDbLine
 10
-0.19846
 20
5.229139
 30
5.88
 11
-0.520097
 21
5.229139
 31
5.88
  0
LINE
  5
462FC
100
AcDbEntity
  8
0
100
AcDbLine
 10
-0.520097
 20
5.16384
 30
5.88
 11
-0.19846
 21
5.16384
 31
5.88
  0
LINE
  5
462FD
100
AcDbEntity
  8
0
100
AcDbLine
 10
-0.19846
 20
4.917712
 30
5.88
 11
-0.520097
 21
4.917712
 31
5.88
  0
LINE
  5
462FE
100
AcDbEntity
  8
0
100
AcDbLine
 10
-0.520097
 20
4.847389
 30
5.88
 11
-0.19846
 21
4.847389
 31
5.88
  0
LINE
  5
462FF
100
AcDbEntity
  8
0
100
AcDbLine
 10
-0.806555
 20
7.143784
 30
5.88
 11
-0.19846
 21
7.143784
 31
5.88
  0
LINE
  5
46300
100
AcDbEntity
  8
0
100
AcDbLine
 10
-0.19846
 20
7.214105
 30
5.88
 11
-0.89199
 21
7.214105
 31
5.88
  0
LINE
  5
46301
100
AcDbEntity
  8
0
100
AcDbLine
 10
-0.886963
 20
7.530556
 30
5.88
 11
0.270035
 21
7.530556
 31
5.88
  0
LINE
  5
46302
100
AcDbEntity
  8
0
100
AcDbLine
 10
-0.022565
 20
7.64106
 30
5.88
 11
-0.851402
 21
7.64106
 31
5.88
  0
LINE
  5
46303
100
AcDbEntity
  8
0
100
AcDbLine
 10
-0.520097
 20
6.168444
 30
5.88
 11
-0.520097
 21
6.414572
 31
5.88
  0
LINE
  5
46304
100
AcDbEntity
  8
0
100
AcDbLine
 10
-0.520097
 20
4.917712
 30
5.88
 11
-0.520097
 21
5.16384
 31
5.88
  0
LINE
  5
46305
100
AcDbEntity
  8
0
100
AcDbLine
 10
-0.520097
 20
5.229139
 30
5.88
 11
-0.520097
 21
5.475267
 31
5.88
  0
LINE
  5
46306
100
AcDbEntity
  8
0
100
AcDbLine
 10
-0.520097
 20
5.857015
 30
5.88
 11
-0.520097
 21
6.103143
 31
5.88
  0
LINE
  5
46307
100
AcDbEntity
  8
0
100
AcDbLine
 10
-0.520097
 20
5.540566
 30
5.88
 11
-0.520097
 21
5.786692
 31
5.88
  0
LINE
  5
46308
100
AcDbEntity
  8
0
100
AcDbLine
 10
-0.520097
 20
6.484895
 30
5.88
 11
-0.520097
 21
6.731023
 31
5.88
  0
LINE
  5
46309
100
AcDbEntity
  8
0
100
AcDbLine
 10
-0.806555
 20
7.530556
 30
5.88
 11
-0.806555
 21
7.214105
 31
5.88
  0
TEXT
  5
4630A
100
AcDbEntity
  8
0
100
AcDbText
 39
0.001
 10
-0.75577
 20
7.87726
 30
5.879973
 40
0.05
  1
V
 72
     1
 11
-0.73077
 21
7.87726
 31
5.879973
100
AcDbText
  0
TEXT
  5
4630B
100
AcDbEntity
  8
0
100
AcDbText
 39
0.001
 10
-0.74327
 20
7.95226
 30
5.879973
 40
0.05
  1
0
 72
     1
 11
-0.73077
 21
7.95226
 31
5.879973
100
AcDbText
  0
TEXT
  5
4630C
100
AcDbEntity
  8
0
100
AcDbText
 39
0.001
 10
-0.822436
 20
7.82726
 30
5.879973
 40
0.05
  1
U
 72
     1
 11
-0.80577
 21
7.82726
 31
5.879973
100
AcDbText
  0
TEXT
  5
4630D
100
AcDbEntity
  8
0
100
AcDbText
 39
0.001
 10
-0.822436
 20
7.75226
 30
5.879973
 40
0.05
  1
T
 72
     1
 11
-0.80577
 21
7.75226
 31
5.879973
100
AcDbText
  0
TEXT
  5
4630E
100
AcDbEntity
  8
0
100
AcDbText
 39
0.001
 10
-0.822436
 20
7.90226
 30
5.879973
 40
0.05
  1
P
 72
     1
 11
-0.80577
 21
7.90226
 31
5.879973
100
AcDbText
  0
TEXT
  5
4630F
100
AcDbEntity
  8
0
100
AcDbText
 39
0.001
 10
-0.822436
 20
7.97726
 30
5.879973
 40
0.05
  1
T
 72
     1
 11
-0.80577
 21
7.97726
 31
5.879973
100
AcDbText
  0
LINE
  5
46310
100
AcDbEntity
  8
0
100
AcDbLine
 10
0.118151
 20
6.369363
 30
5.88
 11
0.093021
 21
6.354295
 31
5.88
  0
LINE
  5
46311
100
AcDbEntity
  8
0
100
AcDbLine
 10
0.178457
 20
6.58033
 30
5.88
 11
0.178457
 21
6.334202
 31
5.88
  0
LINE
  5
46312
100
AcDbEntity
  8
0
100
AcDbLine
 10
-0.032616
 20
6.349271
 30
5.88
 11
-0.05272
 21
6.369363
 31
5.88
  0
LINE
  5
46313
100
AcDbEntity
  8
0
100
AcDbLine
 10
-0.268819
 20
6.374387
 30
5.88
 11
-0.253742
 21
6.354295
 31
5.88
  0
LINE
  5
46314
100
AcDbEntity
  8
0
100
AcDbLine
 10
-0.439687
 20
6.354295
 30
5.88
 11
-0.419585
 21
6.374387
 31
5.88
  0
LINE
  5
46315
100
AcDbEntity
  8
0
100
AcDbLine
 10
-0.19846
 20
6.414572
 30
5.88
 11
-0.19846
 21
6.168444
 31
5.88
  0
LINE
  5
46316
100
AcDbEntity
  8
0
100
AcDbLine
 10
-0.419585
 20
6.374387
 30
5.88
 11
-0.263793
 21
6.198582
 31
5.88
  0
LINE
  5
46317
100
AcDbEntity
  8
0
100
AcDbLine
 10
-0.143179
 20
6.334202
 30
5.88
 11
-0.143179
 21
6.58033
 31
5.88
  0
LINE
  5
46318
100
AcDbEntity
  8
0
100
AcDbLine
 10
-0.042667
 20
6.540147
 30
5.88
 11
0.1081
 21
6.364342
 31
5.88
  0
LINE
  5
46319
100
AcDbEntity
  8
0
100
AcDbLine
 10
0.143278
 20
5.530519
 30
5.88
 11
0.148304
 21
5.505405
 31
5.88
  0
LINE
  5
4631A
100
AcDbEntity
  8
0
100
AcDbLine
 10
0.178457
 20
5.641027
 30
5.88
 11
0.178457
 21
5.394897
 31
5.88
  0
LINE
  5
4631B
100
AcDbEntity
  8
0
100
AcDbLine
 10
-0.087899
 20
5.500381
 30
5.88
 11
-0.082873
 21
5.530519
 31
5.88
  0
LINE
  5
4631C
100
AcDbEntity
  8
0
100
AcDbLine
 10
-0.143179
 20
5.394897
 30
5.88
 11
-0.143179
 21
5.641027
 31
5.88
  0
LINE
  5
4631D
100
AcDbEntity
  8
0
100
AcDbLine
 10
-0.042667
 20
5.600842
 30
5.88
 11
0.1081
 21
5.425037
 31
5.88
  0
LINE
  5
4631E
100
AcDbEntity
  8
0
100
AcDbLine
 10
0.017639
 20
5.394897
 30
5.88
 11
-0.007489
 21
5.399921
 31
5.88
  0
LINE
  5
4631F
100
AcDbEntity
  8
0
100
AcDbLine
 10
0.178457
 20
5.394897
 30
5.88
 11
-0.143179
 21
5.394897
 31
5.88
  0
LINE
  5
46320
100
AcDbEntity
  8
0
100
AcDbLine
 10
0.002562
 20
5.309507
 30
5.88
 11
0.02769
 21
5.314531
 31
5.88
  0
LINE
  5
46321
100
AcDbEntity
  8
0
100
AcDbLine
 10
0.017639
 20
5.078448
 30
5.88
 11
-0.007489
 21
5.083472
 31
5.88
  0
LINE
  5
46322
100
AcDbEntity
  8
0
100
AcDbLine
 10
0.002562
 20
4.99808
 30
5.88
 11
0.02769
 21
4.99808
 31
5.88
  0
LINE
  5
46323
100
AcDbEntity
  8
0
100
AcDbLine
 10
0.017639
 20
4.767021
 30
5.88
 11
-0.007489
 21
4.772043
 31
5.88
  0
LINE
  5
46324
100
AcDbEntity
  8
0
100
AcDbLine
 10
-0.143179
 20
5.324576
 30
5.88
 11
0.178457
 21
5.324576
 31
5.88
  0
LINE
  5
46325
100
AcDbEntity
  8
0
100
AcDbLine
 10
0.178457
 20
5.078448
 30
5.88
 11
-0.143179
 21
5.078448
 31
5.88
  0
LINE
  5
46326
100
AcDbEntity
  8
0
100
AcDbLine
 10
-0.042667
 20
5.284391
 30
5.88
 11
0.1081
 21
5.108586
 31
5.88
  0
LINE
  5
46327
100
AcDbEntity
  8
0
100
AcDbLine
 10
-0.143179
 20
5.013149
 30
5.88
 11
0.178457
 21
5.013149
 31
5.88
  0
LINE
  5
46328
100
AcDbEntity
  8
0
100
AcDbLine
 10
0.178457
 20
4.767021
 30
5.88
 11
-0.143179
 21
4.767021
 31
5.88
  0
LINE
  5
46329
100
AcDbEntity
  8
0
100
AcDbLine
 10
-0.042667
 20
4.972964
 30
5.88
 11
0.1081
 21
4.797159
 31
5.88
  0
LINE
  5
4632A
100
AcDbEntity
  8
0
100
AcDbLine
 10
-0.143179
 20
4.696698
 30
5.88
 11
0.178457
 21
4.696698
 31
5.88
  0
LINE
  5
4632B
100
AcDbEntity
  8
0
100
AcDbLine
 10
-0.032616
 20
5.098541
 30
5.88
 11
-0.05272
 21
5.11361
 31
5.88
  0
LINE
  5
4632C
100
AcDbEntity
  8
0
100
AcDbLine
 10
-0.143179
 20
5.078448
 30
5.88
 11
-0.143179
 21
5.324576
 31
5.88
  0
LINE
  5
4632D
100
AcDbEntity
  8
0
100
AcDbLine
 10
-0.268819
 20
5.123655
 30
5.88
 11
-0.253742
 21
5.103564
 31
5.88
  0
LINE
  5
4632E
100
AcDbEntity
  8
0
100
AcDbLine
 10
-0.439687
 20
5.103564
 30
5.88
 11
-0.419585
 21
5.123655
 31
5.88
  0
LINE
  5
4632F
100
AcDbEntity
  8
0
100
AcDbLine
 10
-0.419585
 20
5.123655
 30
5.88
 11
-0.263793
 21
4.94785
 31
5.88
  0
LINE
  5
46330
100
AcDbEntity
  8
0
100
AcDbLine
 10
-0.19846
 20
5.16384
 30
5.88
 11
-0.19846
 21
4.917712
 31
5.88
  0
LINE
  5
46331
100
AcDbEntity
  8
0
100
AcDbLine
 10
-0.238666
 20
5.078448
 30
5.88
 11
-0.228615
 21
5.053332
 31
5.88
  0
LINE
  5
46332
100
AcDbEntity
  8
0
100
AcDbLine
 10
-0.23364
 20
4.99808
 30
5.88
 11
-0.243691
 21
4.972964
 31
5.88
  0
LINE
  5
46333
100
AcDbEntity
  8
0
100
AcDbLine
 10
-0.238666
 20
4.767021
 30
5.88
 11
-0.228615
 21
4.741907
 31
5.88
  0
LINE
  5
46334
100
AcDbEntity
  8
0
100
AcDbLine
 10
-0.374356
 20
4.83232
 30
5.88
 11
-0.344203
 21
4.837344
 31
5.88
  0
LINE
  5
46335
100
AcDbEntity
  8
0
100
AcDbLine
 10
-0.439687
 20
4.787114
 30
5.88
 11
-0.419585
 21
4.807204
 31
5.88
  0
LINE
  5
46336
100
AcDbEntity
  8
0
100
AcDbLine
 10
-0.419585
 20
4.807204
 30
5.88
 11
-0.399483
 21
4.822275
 31
5.88
  0
LINE
  5
46337
100
AcDbEntity
  8
0
100
AcDbLine
 10
-0.399483
 20
4.822275
 30
5.88
 11
-0.374356
 21
4.83232
 31
5.88
  0
LINE
  5
46338
100
AcDbEntity
  8
0
100
AcDbLine
 10
-0.459791
 20
4.711767
 30
5.88
 11
-0.459791
 21
4.736883
 31
5.88
  0
LINE
  5
46339
100
AcDbEntity
  8
0
100
AcDbLine
 10
-0.459791
 20
4.736883
 30
5.88
 11
-0.454764
 21
4.761998
 31
5.88
  0
LINE
  5
4633A
100
AcDbEntity
  8
0
100
AcDbLine
 10
-0.454764
 20
4.761998
 30
5.88
 11
-0.439687
 21
4.787114
 31
5.88
  0
LINE
  5
4633B
100
AcDbEntity
  8
0
100
AcDbLine
 10
-0.293946
 20
4.822275
 30
5.88
 11
-0.268819
 21
4.807204
 31
5.88
  0
LINE
  5
4633C
100
AcDbEntity
  8
0
100
AcDbLine
 10
-0.268819
 20
4.807204
 30
5.88
 11
-0.253742
 21
4.787114
 31
5.88
  0
LINE
  5
4633D
100
AcDbEntity
  8
0
100
AcDbLine
 10
-0.253742
 20
4.787114
 30
5.88
 11
-0.238666
 21
4.767021
 31
5.88
  0
LINE
  5
4633E
100
AcDbEntity
  8
0
100
AcDbLine
 10
-0.344203
 20
4.837344
 30
5.88
 11
-0.319074
 21
4.83232
 31
5.88
  0
LINE
  5
4633F
100
AcDbEntity
  8
0
100
AcDbLine
 10
-0.319074
 20
4.83232
 30
5.88
 11
-0.293946
 21
4.822275
 31
5.88
  0
LINE
  5
46340
100
AcDbEntity
  8
0
100
AcDbLine
 10
-0.359279
 20
4.917712
 30
5.88
 11
-0.384407
 21
4.922734
 31
5.88
  0
LINE
  5
46341
100
AcDbEntity
  8
0
100
AcDbLine
 10
-0.384407
 20
4.922734
 30
5.88
 11
-0.409534
 21
4.932781
 31
5.88
  0
LINE
  5
46342
100
AcDbEntity
  8
0
100
AcDbLine
 10
-0.409534
 20
4.932781
 30
5.88
 11
-0.429636
 21
4.952874
 31
5.88
  0
LINE
  5
46343
100
AcDbEntity
  8
0
100
AcDbLine
 10
-0.459791
 20
5.053332
 30
5.88
 11
-0.454764
 21
5.078448
 31
5.88
  0
LINE
  5
46344
100
AcDbEntity
  8
0
100
AcDbLine
 10
-0.444713
 20
4.972964
 30
5.88
 11
-0.454764
 21
4.99808
 31
5.88
  0
LINE
  5
46345
100
AcDbEntity
  8
0
100
AcDbLine
 10
-0.454764
 20
4.99808
 30
5.88
 11
-0.459791
 21
5.023194
 31
5.88
  0
LINE
  5
46346
100
AcDbEntity
  8
0
100
AcDbLine
 10
-0.459791
 20
5.023194
 30
5.88
 11
-0.459791
 21
5.053332
 31
5.88
  0
LINE
  5
46347
100
AcDbEntity
  8
0
100
AcDbLine
 10
-0.454764
 20
5.078448
 30
5.88
 11
-0.439687
 21
5.103564
 31
5.88
  0
LINE
  5
46348
100
AcDbEntity
  8
0
100
AcDbLine
 10
-0.429636
 20
4.952874
 30
5.88
 11
-0.444713
 21
4.972964
 31
5.88
  0
LINE
  5
46349
100
AcDbEntity
  8
0
100
AcDbLine
 10
-0.253742
 20
5.103564
 30
5.88
 11
-0.238666
 21
5.078448
 31
5.88
  0
LINE
  5
4634A
100
AcDbEntity
  8
0
100
AcDbLine
 10
-0.243691
 20
4.972964
 30
5.88
 11
-0.258768
 21
4.952874
 31
5.88
  0
LINE
  5
4634B
100
AcDbEntity
  8
0
100
AcDbLine
 10
-0.27887
 20
4.932781
 30
5.88
 11
-0.303997
 21
4.922734
 31
5.88
  0
LINE
  5
4634C
100
AcDbEntity
  8
0
100
AcDbLine
 10
-0.329126
 20
4.917712
 30
5.88
 11
-0.359279
 21
4.917712
 31
5.88
  0
LINE
  5
4634D
100
AcDbEntity
  8
0
100
AcDbLine
 10
-0.303997
 20
4.922734
 30
5.88
 11
-0.329126
 21
4.917712
 31
5.88
  0
LINE
  5
4634E
100
AcDbEntity
  8
0
100
AcDbLine
 10
-0.258768
 20
4.952874
 30
5.88
 11
-0.27887
 21
4.932781
 31
5.88
  0
LINE
  5
4634F
100
AcDbEntity
  8
0
100
AcDbLine
 10
-0.082873
 20
4.902641
 30
5.88
 11
-0.077848
 21
4.927757
 31
5.88
  0
LINE
  5
46350
100
AcDbEntity
  8
0
100
AcDbLine
 10
-0.143179
 20
4.767021
 30
5.88
 11
-0.143179
 21
5.013149
 31
5.88
  0
LINE
  5
46351
100
AcDbEntity
  8
0
100
AcDbLine
 10
-0.228615
 20
4.741907
 30
5.88
 11
-0.228615
 21
4.711767
 31
5.88
  0
LINE
  5
46352
100
AcDbEntity
  8
0
100
AcDbLine
 10
-0.007489
 20
4.772043
 30
5.88
 11
-0.032616
 21
4.78209
 31
5.88
  0
LINE
  5
46353
100
AcDbEntity
  8
0
100
AcDbLine
 10
-0.032616
 20
4.78209
 30
5.88
 11
-0.05272
 21
4.802183
 31
5.88
  0
LINE
  5
46354
100
AcDbEntity
  8
0
100
AcDbLine
 10
-0.072822
 20
4.822275
 30
5.88
 11
-0.082873
 21
4.847389
 31
5.88
  0
LINE
  5
46355
100
AcDbEntity
  8
0
100
AcDbLine
 10
-0.082873
 20
4.847389
 30
5.88
 11
-0.087899
 21
4.872505
 31
5.88
  0
LINE
  5
46356
100
AcDbEntity
  8
0
100
AcDbLine
 10
-0.087899
 20
4.872505
 30
5.88
 11
-0.082873
 21
4.902641
 31
5.88
  0
LINE
  5
46357
100
AcDbEntity
  8
0
100
AcDbLine
 10
-0.05272
 20
4.802183
 30
5.88
 11
-0.072822
 21
4.822275
 31
5.88
  0
LINE
  5
46358
100
AcDbEntity
  8
0
100
AcDbLine
 10
-0.228615
 20
5.053332
 30
5.88
 11
-0.228615
 21
5.028218
 31
5.88
  0
LINE
  5
46359
100
AcDbEntity
  8
0
100
AcDbLine
 10
-0.228615
 20
5.028218
 30
5.88
 11
-0.23364
 21
4.99808
 31
5.88
  0
LINE
  5
4635A
100
AcDbEntity
  8
0
100
AcDbLine
 10
-0.007489
 20
5.083472
 30
5.88
 11
-0.032616
 21
5.098541
 31
5.88
  0
LINE
  5
4635B
100
AcDbEntity
  8
0
100
AcDbLine
 10
-0.047695
 20
4.972964
 30
5.88
 11
-0.022565
 21
4.988035
 31
5.88
  0
LINE
  5
4635C
100
AcDbEntity
  8
0
100
AcDbLine
 10
-0.022565
 20
4.988035
 30
5.88
 11
0.002562
 21
4.99808
 31
5.88
  0
LINE
  5
4635D
100
AcDbEntity
  8
0
100
AcDbLine
 10
-0.062769
 20
4.952874
 30
5.88
 11
-0.047695
 21
4.972964
 31
5.88
  0
LINE
  5
4635E
100
AcDbEntity
  8
0
100
AcDbLine
 10
-0.077848
 20
4.927757
 30
5.88
 11
-0.062769
 21
4.952874
 31
5.88
  0
LINE
  5
4635F
100
AcDbEntity
  8
0
100
AcDbLine
 10
-0.238666
 20
5.394897
 30
5.88
 11
-0.228615
 21
5.364761
 31
5.88
  0
LINE
  5
46360
100
AcDbEntity
  8
0
100
AcDbLine
 10
-0.23364
 20
5.314531
 30
5.88
 11
-0.243691
 21
5.289415
 31
5.88
  0
LINE
  5
46361
100
AcDbEntity
  8
0
100
AcDbLine
 10
-0.419585
 20
5.435082
 30
5.88
 11
-0.263793
 21
5.259277
 31
5.88
  0
LINE
  5
46362
100
AcDbEntity
  8
0
100
AcDbLine
 10
-0.454764
 20
5.309507
 30
5.88
 11
-0.459791
 21
5.339645
 31
5.88
  0
LINE
  5
46363
100
AcDbEntity
  8
0
100
AcDbLine
 10
-0.359279
 20
5.229139
 30
5.88
 11
-0.384407
 21
5.234163
 31
5.88
  0
LINE
  5
46364
100
AcDbEntity
  8
0
100
AcDbLine
 10
-0.374356
 20
5.143748
 30
5.88
 11
-0.344203
 21
5.148769
 31
5.88
  0
LINE
  5
46365
100
AcDbEntity
  8
0
100
AcDbLine
 10
-0.384407
 20
5.234163
 30
5.88
 11
-0.409534
 21
5.249232
 31
5.88
  0
LINE
  5
46366
100
AcDbEntity
  8
0
100
AcDbLine
 10
-0.409534
 20
5.249232
 30
5.88
 11
-0.429636
 21
5.264299
 31
5.88
  0
LINE
  5
46367
100
AcDbEntity
  8
0
100
AcDbLine
 10
-0.399483
 20
5.138726
 30
5.88
 11
-0.374356
 21
5.143748
 31
5.88
  0
LINE
  5
46368
100
AcDbEntity
  8
0
100
AcDbLine
 10
-0.419585
 20
5.123655
 30
5.88
 11
-0.399483
 21
5.138726
 31
5.88
  0
LINE
  5
46369
100
AcDbEntity
  8
0
100
AcDbLine
 10
-0.444713
 20
5.284391
 30
5.88
 11
-0.454764
 21
5.309507
 31
5.88
  0
LINE
  5
4636A
100
AcDbEntity
  8
0
100
AcDbLine
 10
-0.429636
 20
5.264299
 30
5.88
 11
-0.444713
 21
5.284391
 31
5.88
  0
LINE
  5
4636B
100
AcDbEntity
  8
0
100
AcDbLine
 10
-0.243691
 20
5.289415
 30
5.88
 11
-0.258768
 21
5.264299
 31
5.88
  0
LINE
  5
4636C
100
AcDbEntity
  8
0
100
AcDbLine
 10
-0.258768
 20
5.264299
 30
5.88
 11
-0.27887
 21
5.249232
 31
5.88
  0
LINE
  5
4636D
100
AcDbEntity
  8
0
100
AcDbLine
 10
-0.27887
 20
5.249232
 30
5.88
 11
-0.303997
 21
5.234163
 31
5.88
  0
LINE
  5
4636E
100
AcDbEntity
  8
0
100
AcDbLine
 10
-0.329126
 20
5.229139
 30
5.88
 11
-0.359279
 21
5.229139
 31
5.88
  0
LINE
  5
4636F
100
AcDbEntity
  8
0
100
AcDbLine
 10
-0.344203
 20
5.148769
 30
5.88
 11
-0.319074
 21
5.143748
 31
5.88
  0
LINE
  5
46370
100
AcDbEntity
  8
0
100
AcDbLine
 10
-0.303997
 20
5.234163
 30
5.88
 11
-0.329126
 21
5.229139
 31
5.88
  0
LINE
  5
46371
100
AcDbEntity
  8
0
100
AcDbLine
 10
-0.319074
 20
5.143748
 30
5.88
 11
-0.293946
 21
5.138726
 31
5.88
  0
LINE
  5
46372
100
AcDbEntity
  8
0
100
AcDbLine
 10
-0.293946
 20
5.138726
 30
5.88
 11
-0.268819
 21
5.123655
 31
5.88
  0
LINE
  5
46373
100
AcDbEntity
  8
0
100
AcDbLine
 10
-0.374356
 20
5.460198
 30
5.88
 11
-0.344203
 21
5.460198
 31
5.88
  0
LINE
  5
46374
100
AcDbEntity
  8
0
100
AcDbLine
 10
-0.439687
 20
5.41499
 30
5.88
 11
-0.419585
 21
5.435082
 31
5.88
  0
LINE
  5
46375
100
AcDbEntity
  8
0
100
AcDbLine
 10
-0.419585
 20
5.435082
 30
5.88
 11
-0.399483
 21
5.450151
 31
5.88
  0
LINE
  5
46376
100
AcDbEntity
  8
0
100
AcDbLine
 10
-0.399483
 20
5.450151
 30
5.88
 11
-0.374356
 21
5.460198
 31
5.88
  0
LINE
  5
46377
100
AcDbEntity
  8
0
100
AcDbLine
 10
-0.459791
 20
5.364761
 30
5.88
 11
-0.454764
 21
5.389875
 31
5.88
  0
LINE
  5
46378
100
AcDbEntity
  8
0
100
AcDbLine
 10
-0.459791
 20
5.339645
 30
5.88
 11
-0.459791
 21
5.364761
 31
5.88
  0
LINE
  5
46379
100
AcDbEntity
  8
0
100
AcDbLine
 10
-0.454764
 20
5.389875
 30
5.88
 11
-0.439687
 21
5.41499
 31
5.88
  0
LINE
  5
4637A
100
AcDbEntity
  8
0
100
AcDbLine
 10
-0.293946
 20
5.450151
 30
5.88
 11
-0.268819
 21
5.435082
 31
5.88
  0
LINE
  5
4637B
100
AcDbEntity
  8
0
100
AcDbLine
 10
-0.268819
 20
5.435082
 30
5.88
 11
-0.253742
 21
5.41499
 31
5.88
  0
LINE
  5
4637C
100
AcDbEntity
  8
0
100
AcDbLine
 10
-0.253742
 20
5.41499
 30
5.88
 11
-0.238666
 21
5.394897
 31
5.88
  0
LINE
  5
4637D
100
AcDbEntity
  8
0
100
AcDbLine
 10
-0.344203
 20
5.460198
 30
5.88
 11
-0.319074
 21
5.460198
 31
5.88
  0
LINE
  5
4637E
100
AcDbEntity
  8
0
100
AcDbLine
 10
-0.319074
 20
5.460198
 30
5.88
 11
-0.293946
 21
5.450151
 31
5.88
  0
LINE
  5
4637F
100
AcDbEntity
  8
0
100
AcDbLine
 10
-0.19846
 20
5.475267
 30
5.88
 11
-0.19846
 21
5.229139
 31
5.88
  0
LINE
  5
46380
100
AcDbEntity
  8
0
100
AcDbLine
 10
-0.228615
 20
5.339645
 30
5.88
 11
-0.23364
 21
5.314531
 31
5.88
  0
LINE
  5
46381
100
AcDbEntity
  8
0
100
AcDbLine
 10
-0.047695
 20
5.284391
 30
5.88
 11
-0.022565
 21
5.29946
 31
5.88
  0
LINE
  5
46382
100
AcDbEntity
  8
0
100
AcDbLine
 10
-0.022565
 20
5.29946
 30
5.88
 11
0.002562
 21
5.309507
 31
5.88
  0
LINE
  5
46383
100
AcDbEntity
  8
0
100
AcDbLine
 10
-0.082873
 20
5.21407
 30
5.88
 11
-0.077848
 21
5.239185
 31
5.88
  0
LINE
  5
46384
100
AcDbEntity
  8
0
100
AcDbLine
 10
-0.077848
 20
5.239185
 30
5.88
 11
-0.062769
 21
5.264299
 31
5.88
  0
LINE
  5
46385
100
AcDbEntity
  8
0
100
AcDbLine
 10
-0.072822
 20
5.138726
 30
5.88
 11
-0.082873
 21
5.16384
 31
5.88
  0
LINE
  5
46386
100
AcDbEntity
  8
0
100
AcDbLine
 10
-0.082873
 20
5.16384
 30
5.88
 11
-0.087899
 21
5.188954
 31
5.88
  0
LINE
  5
46387
100
AcDbEntity
  8
0
100
AcDbLine
 10
-0.087899
 20
5.188954
 30
5.88
 11
-0.082873
 21
5.21407
 31
5.88
  0
LINE
  5
46388
100
AcDbEntity
  8
0
100
AcDbLine
 10
-0.062769
 20
5.264299
 30
5.88
 11
-0.047695
 21
5.284391
 31
5.88
  0
LINE
  5
46389
100
AcDbEntity
  8
0
100
AcDbLine
 10
-0.05272
 20
5.11361
 30
5.88
 11
-0.072822
 21
5.138726
 31
5.88
  0
LINE
  5
4638A
100
AcDbEntity
  8
0
100
AcDbLine
 10
-0.228615
 20
5.364761
 30
5.88
 11
-0.228615
 21
5.339645
 31
5.88
  0
LINE
  5
4638B
100
AcDbEntity
  8
0
100
AcDbLine
 10
-0.007489
 20
5.399921
 30
5.88
 11
-0.032616
 21
5.409968
 31
5.88
  0
LINE
  5
4638C
100
AcDbEntity
  8
0
100
AcDbLine
 10
-0.032616
 20
5.409968
 30
5.88
 11
-0.05272
 21
5.430059
 31
5.88
  0
LINE
  5
4638D
100
AcDbEntity
  8
0
100
AcDbLine
 10
-0.072822
 20
5.450151
 30
5.88
 11
-0.082873
 21
5.475267
 31
5.88
  0
LINE
  5
4638E
100
AcDbEntity
  8
0
100
AcDbLine
 10
-0.082873
 20
5.475267
 30
5.88
 11
-0.087899
 21
5.500381
 31
5.88
  0
LINE
  5
4638F
100
AcDbEntity
  8
0
100
AcDbLine
 10
-0.05272
 20
5.430059
 30
5.88
 11
-0.072822
 21
5.450151
 31
5.88
  0
LINE
  5
46390
100
AcDbEntity
  8
0
100
AcDbLine
 10
0.118151
 20
5.11361
 30
5.88
 11
0.093021
 21
5.098541
 31
5.88
  0
LINE
  5
46391
100
AcDbEntity
  8
0
100
AcDbLine
 10
0.178457
 20
5.324576
 30
5.88
 11
0.178457
 21
5.078448
 31
5.88
  0
LINE
  5
46392
100
AcDbEntity
  8
0
100
AcDbLine
 10
0.138253
 20
4.927757
 30
5.88
 11
0.143278
 21
4.902641
 31
5.88
  0
LINE
  5
46393
100
AcDbEntity
  8
0
100
AcDbLine
 10
0.178457
 20
5.013149
 30
5.88
 11
0.178457
 21
4.767021
 31
5.88
  0
LINE
  5
46394
100
AcDbEntity
  8
0
100
AcDbLine
 10
0.143278
 20
4.847389
 30
5.88
 11
0.133227
 21
4.822275
 31
5.88
  0
LINE
  5
46395
100
AcDbEntity
  8
0
100
AcDbLine
 10
0.133227
 20
4.822275
 30
5.88
 11
0.118151
 21
4.802183
 31
5.88
  0
LINE
  5
46396
100
AcDbEntity
  8
0
100
AcDbLine
 10
0.118151
 20
4.802183
 30
5.88
 11
0.093021
 21
4.787114
 31
5.88
  0
LINE
  5
46397
100
AcDbEntity
  8
0
100
AcDbLine
 10
0.093021
 20
4.787114
 30
5.88
 11
0.072919
 21
4.772043
 31
5.88
  0
LINE
  5
46398
100
AcDbEntity
  8
0
100
AcDbLine
 10
0.042766
 20
4.767021
 30
5.88
 11
0.017639
 21
4.767021
 31
5.88
  0
LINE
  5
46399
100
AcDbEntity
  8
0
100
AcDbLine
 10
0.072919
 20
4.772043
 30
5.88
 11
0.042766
 21
4.767021
 31
5.88
  0
LINE
  5
4639A
100
AcDbEntity
  8
0
100
AcDbLine
 10
0.143278
 20
4.902641
 30
5.88
 11
0.148304
 21
4.877527
 31
5.88
  0
LINE
  5
4639B
100
AcDbEntity
  8
0
100
AcDbLine
 10
0.148304
 20
4.877527
 30
5.88
 11
0.143278
 21
4.847389
 31
5.88
  0
LINE
  5
4639C
100
AcDbEntity
  8
0
100
AcDbLine
 10
0.093021
 20
5.098541
 30
5.88
 11
0.072919
 21
5.088494
 31
5.88
  0
LINE
  5
4639D
100
AcDbEntity
  8
0
100
AcDbLine
 10
0.08297
 20
4.988035
 30
5.88
 11
0.103074
 21
4.972964
 31
5.88
  0
LINE
  5
4639E
100
AcDbEntity
  8
0
100
AcDbLine
 10
0.103074
 20
4.972964
 30
5.88
 11
0.123176
 21
4.952874
 31
5.88
  0
LINE
  5
4639F
100
AcDbEntity
  8
0
100
AcDbLine
 10
0.123176
 20
4.952874
 30
5.88
 11
0.138253
 21
4.927757
 31
5.88
  0
LINE
  5
463A0
100
AcDbEntity
  8
0
100
AcDbLine
 10
0.042766
 20
5.078448
 30
5.88
 11
0.017639
 21
5.078448
 31
5.88
  0
LINE
  5
463A1
100
AcDbEntity
  8
0
100
AcDbLine
 10
0.02769
 20
4.99808
 30
5.88
 11
0.057843
 21
4.99808
 31
5.88
  0
LINE
  5
463A2
100
AcDbEntity
  8
0
100
AcDbLine
 10
0.072919
 20
5.088494
 30
5.88
 11
0.042766
 21
5.078448
 31
5.88
  0
LINE
  5
463A3
100
AcDbEntity
  8
0
100
AcDbLine
 10
0.057843
 20
4.99808
 30
5.88
 11
0.08297
 21
4.988035
 31
5.88
  0
LINE
  5
463A4
100
AcDbEntity
  8
0
100
AcDbLine
 10
0.138253
 20
5.244208
 30
5.88
 11
0.143278
 21
5.219092
 31
5.88
  0
LINE
  5
463A5
100
AcDbEntity
  8
0
100
AcDbLine
 10
0.143278
 20
5.16384
 30
5.88
 11
0.133227
 21
5.138726
 31
5.88
  0
LINE
  5
463A6
100
AcDbEntity
  8
0
100
AcDbLine
 10
0.08297
 20
5.29946
 30
5.88
 11
0.103074
 21
5.284391
 31
5.88
  0
LINE
  5
463A7
100
AcDbEntity
  8
0
100
AcDbLine
 10
0.103074
 20
5.284391
 30
5.88
 11
0.123176
 21
5.264299
 31
5.88
  0
LINE
  5
463A8
100
AcDbEntity
  8
0
100
AcDbLine
 10
0.123176
 20
5.264299
 30
5.88
 11
0.138253
 21
5.244208
 31
5.88
  0
LINE
  5
463A9
100
AcDbEntity
  8
0
100
AcDbLine
 10
0.133227
 20
5.138726
 30
5.88
 11
0.118151
 21
5.11361
 31
5.88
  0
LINE
  5
463AA
100
AcDbEntity
  8
0
100
AcDbLine
 10
0.02769
 20
5.314531
 30
5.88
 11
0.057843
 21
5.309507
 31
5.88
  0
LINE
  5
463AB
100
AcDbEntity
  8
0
100
AcDbLine
 10
0.057843
 20
5.309507
 30
5.88
 11
0.08297
 21
5.29946
 31
5.88
  0
LINE
  5
463AC
100
AcDbEntity
  8
0
100
AcDbLine
 10
0.143278
 20
5.219092
 30
5.88
 11
0.148304
 21
5.188954
 31
5.88
  0
LINE
  5
463AD
100
AcDbEntity
  8
0
100
AcDbLine
 10
0.148304
 20
5.188954
 30
5.88
 11
0.143278
 21
5.16384
 31
5.88
  0
LINE
  5
463AE
100
AcDbEntity
  8
0
100
AcDbLine
 10
0.143278
 20
5.475267
 30
5.88
 11
0.133227
 21
5.450151
 31
5.88
  0
LINE
  5
463AF
100
AcDbEntity
  8
0
100
AcDbLine
 10
0.133227
 20
5.450151
 30
5.88
 11
0.118151
 21
5.430059
 31
5.88
  0
LINE
  5
463B0
100
AcDbEntity
  8
0
100
AcDbLine
 10
0.118151
 20
5.430059
 30
5.88
 11
0.093021
 21
5.409968
 31
5.88
  0
LINE
  5
463B1
100
AcDbEntity
  8
0
100
AcDbLine
 10
0.093021
 20
5.409968
 30
5.88
 11
0.072919
 21
5.399921
 31
5.88
  0
LINE
  5
463B2
100
AcDbEntity
  8
0
100
AcDbLine
 10
0.042766
 20
5.394897
 30
5.88
 11
0.017639
 21
5.394897
 31
5.88
  0
LINE
  5
463B3
100
AcDbEntity
  8
0
100
AcDbLine
 10
0.072919
 20
5.399921
 30
5.88
 11
0.042766
 21
5.394897
 31
5.88
  0
LINE
  5
463B4
100
AcDbEntity
  8
0
100
AcDbLine
 10
0.148304
 20
5.505405
 30
5.88
 11
0.143278
 21
5.475267
 31
5.88
  0
LINE
  5
463B5
100
AcDbEntity
  8
0
100
AcDbLine
 10
0.017639
 20
6.334202
 30
5.88
 11
-0.007489
 21
6.339226
 31
5.88
  0
LINE
  5
463B6
100
AcDbEntity
  8
0
100
AcDbLine
 10
0.002562
 20
6.248812
 30
5.88
 11
0.02769
 21
6.253836
 31
5.88
  0
LINE
  5
463B7
100
AcDbEntity
  8
0
100
AcDbLine
 10
0.178457
 20
6.334202
 30
5.88
 11
-0.143179
 21
6.334202
 31
5.88
  0
LINE
  5
463B8
100
AcDbEntity
  8
0
100
AcDbLine
 10
-0.143179
 20
6.263879
 30
5.88
 11
0.178457
 21
6.263879
 31
5.88
  0
LINE
  5
463B9
100
AcDbEntity
  8
0
100
AcDbLine
 10
0.017639
 20
6.017751
 30
5.88
 11
-0.007489
 21
6.027799
 31
5.88
  0
LINE
  5
463BA
100
AcDbEntity
  8
0
100
AcDbLine
 10
0.002562
 20
5.937385
 30
5.88
 11
0.02769
 21
5.937385
 31
5.88
  0
LINE
  5
463BB
100
AcDbEntity
  8
0
100
AcDbLine
 10
0.017639
 20
5.706326
 30
5.88
 11
-0.007489
 21
5.71135
 31
5.88
  0
LINE
  5
463BC
100
AcDbEntity
  8
0
100
AcDbLine
 10
0.002562
 20
5.620934
 30
5.88
 11
0.02769
 21
5.625958
 31
5.88
  0
LINE
  5
463BD
100
AcDbEntity
  8
0
100
AcDbLine
 10
0.178457
 20
6.017751
 30
5.88
 11
-0.143179
 21
6.017751
 31
5.88
  0
LINE
  5
463BE
100
AcDbEntity
  8
0
100
AcDbLine
 10
-0.143179
 20
5.952454
 30
5.88
 11
0.178457
 21
5.952454
 31
5.88
  0
LINE
  5
463BF
100
AcDbEntity
  8
0
100
AcDbLine
 10
0.178457
 20
5.706326
 30
5.88
 11
-0.143179
 21
5.706326
 31
5.88
  0
LINE
  5
463C0
100
AcDbEntity
  8
0
100
AcDbLine
 10
-0.042667
 20
5.912269
 30
5.88
 11
0.1081
 21
5.736464
 31
5.88
  0
LINE
  5
463C1
100
AcDbEntity
  8
0
100
AcDbLine
 10
-0.143179
 20
5.641027
 30
5.88
 11
0.178457
 21
5.641027
 31
5.88
  0
LINE
  5
463C2
100
AcDbEntity
  8
0
100
AcDbLine
 10
-0.042667
 20
6.22872
 30
5.88
 11
0.1081
 21
6.052913
 31
5.88
  0
LINE
  5
463C3
100
AcDbEntity
  8
0
100
AcDbLine
 10
-0.228615
 20
5.967523
 30
5.88
 11
-0.23364
 21
5.937385
 31
5.88
  0
LINE
  5
463C4
100
AcDbEntity
  8
0
100
AcDbLine
 10
-0.19846
 20
6.103143
 30
5.88
 11
-0.19846
 21
5.857015
 31
5.88
  0
LINE
  5
463C5
100
AcDbEntity
  8
0
100
AcDbLine
 10
-0.419585
 20
6.06296
 30
5.88
 11
-0.263793
 21
5.887155
 31
5.88
  0
LINE
  5
463C6
100
AcDbEntity
  8
0
100
AcDbLine
 10
-0.143179
 20
5.706326
 30
5.88
 11
-0.143179
 21
5.952454
 31
5.88
  0
LINE
  5
463C7
100
AcDbEntity
  8
0
100
AcDbLine
 10
-0.454764
 20
5.937385
 30
5.88
 11
-0.459791
 21
5.962499
 31
5.88
  0
LINE
  5
463C8
100
AcDbEntity
  8
0
100
AcDbLine
 10
-0.23364
 20
5.937385
 30
5.88
 11
-0.243691
 21
5.912269
 31
5.88
  0
LINE
  5
463C9
100
AcDbEntity
  8
0
100
AcDbLine
 10
-0.238666
 20
5.706326
 30
5.88
 11
-0.228615
 21
5.68121
 31
5.88
  0
LINE
  5
463CA
100
AcDbEntity
  8
0
100
AcDbLine
 10
-0.23364
 20
5.625958
 30
5.88
 11
-0.243691
 21
5.600842
 31
5.88
  0
LINE
  5
463CB
100
AcDbEntity
  8
0
100
AcDbLine
 10
-0.439687
 20
5.726419
 30
5.88
 11
-0.419585
 21
5.746511
 31
5.88
  0
LINE
  5
463CC
100
AcDbEntity
  8
0
100
AcDbLine
 10
-0.268819
 20
5.751531
 30
5.88
 11
-0.253742
 21
5.731442
 31
5.88
  0
LINE
  5
463CD
100
AcDbEntity
  8
0
100
AcDbLine
 10
-0.419585
 20
5.751531
 30
5.88
 11
-0.263793
 21
5.575726
 31
5.88
  0
LINE
  5
463CE
100
AcDbEntity
  8
0
100
AcDbLine
 10
-0.359279
 20
5.540566
 30
5.88
 11
-0.384407
 21
5.550612
 31
5.88
  0
LINE
  5
463CF
100
AcDbEntity
  8
0
100
AcDbLine
 10
-0.384407
 20
5.550612
 30
5.88
 11
-0.409534
 21
5.560659
 31
5.88
  0
LINE
  5
463D0
100
AcDbEntity
  8
0
100
AcDbLine
 10
-0.409534
 20
5.560659
 30
5.88
 11
-0.429636
 21
5.580749
 31
5.88
  0
LINE
  5
463D1
100
AcDbEntity
  8
0
100
AcDbLine
 10
-0.459791
 20
5.676188
 30
5.88
 11
-0.454764
 21
5.706326
 31
5.88
  0
LINE
  5
463D2
100
AcDbEntity
  8
0
100
AcDbLine
 10
-0.444713
 20
5.600842
 30
5.88
 11
-0.454764
 21
5.625958
 31
5.88
  0
LINE
  5
463D3
100
AcDbEntity
  8
0
100
AcDbLine
 10
-0.454764
 20
5.625958
 30
5.88
 11
-0.459791
 21
5.651072
 31
5.88
  0
LINE
  5
463D4
100
AcDbEntity
  8
0
100
AcDbLine
 10
-0.459791
 20
5.651072
 30
5.88
 11
-0.459791
 21
5.676188
 31
5.88
  0
LINE
  5
463D5
100
AcDbEntity
  8
0
100
AcDbLine
 10
-0.454764
 20
5.706326
 30
5.88
 11
-0.439687
 21
5.726419
 31
5.88
  0
LINE
  5
463D6
100
AcDbEntity
  8
0
100
AcDbLine
 10
-0.429636
 20
5.580749
 30
5.88
 11
-0.444713
 21
5.600842
 31
5.88
  0
LINE
  5
463D7
100
AcDbEntity
  8
0
100
AcDbLine
 10
-0.253742
 20
5.731442
 30
5.88
 11
-0.238666
 21
5.706326
 31
5.88
  0
LINE
  5
463D8
100
AcDbEntity
  8
0
100
AcDbLine
 10
-0.243691
 20
5.600842
 30
5.88
 11
-0.258768
 21
5.580749
 31
5.88
  0
LINE
  5
463D9
100
AcDbEntity
  8
0
100
AcDbLine
 10
-0.258768
 20
5.580749
 30
5.88
 11
-0.27887
 21
5.560659
 31
5.88
  0
LINE
  5
463DA
100
AcDbEntity
  8
0
100
AcDbLine
 10
-0.27887
 20
5.560659
 30
5.88
 11
-0.303997
 21
5.550612
 31
5.88
  0
LINE
  5
463DB
100
AcDbEntity
  8
0
100
AcDbLine
 10
-0.329126
 20
5.540566
 30
5.88
 11
-0.359279
 21
5.540566
 31
5.88
  0
LINE
  5
463DC
100
AcDbEntity
  8
0
100
AcDbLine
 10
-0.303997
 20
5.550612
 30
5.88
 11
-0.329126
 21
5.540566
 31
5.88
  0
LINE
  5
463DD
100
AcDbEntity
  8
0
100
AcDbLine
 10
-0.359279
 20
5.857015
 30
5.88
 11
-0.384407
 21
5.862039
 31
5.88
  0
LINE
  5
463DE
100
AcDbEntity
  8
0
100
AcDbLine
 10
-0.374356
 20
5.771623
 30
5.88
 11
-0.344203
 21
5.776647
 31
5.88
  0
LINE
  5
463DF
100
AcDbEntity
  8
0
100
AcDbLine
 10
-0.384407
 20
5.862039
 30
5.88
 11
-0.409534
 21
5.872086
 31
5.88
  0
LINE
  5
463E0
100
AcDbEntity
  8
0
100
AcDbLine
 10
-0.409534
 20
5.872086
 30
5.88
 11
-0.429636
 21
5.892177
 31
5.88
  0
LINE
  5
463E1
100
AcDbEntity
  8
0
100
AcDbLine
 10
-0.419585
 20
5.746511
 30
5.88
 11
-0.399483
 21
5.76158
 31
5.88
  0
LINE
  5
463E2
100
AcDbEntity
  8
0
100
AcDbLine
 10
-0.399483
 20
5.76158
 30
5.88
 11
-0.374356
 21
5.771623
 31
5.88
  0
LINE
  5
463E3
100
AcDbEntity
  8
0
100
AcDbLine
 10
-0.444713
 20
5.912269
 30
5.88
 11
-0.454764
 21
5.937385
 31
5.88
  0
LINE
  5
463E4
100
AcDbEntity
  8
0
100
AcDbLine
 10
-0.429636
 20
5.892177
 30
5.88
 11
-0.444713
 21
5.912269
 31
5.88
  0
LINE
  5
463E5
100
AcDbEntity
  8
0
100
AcDbLine
 10
-0.243691
 20
5.912269
 30
5.88
 11
-0.258768
 21
5.892177
 31
5.88
  0
LINE
  5
463E6
100
AcDbEntity
  8
0
100
AcDbLine
 10
-0.258768
 20
5.892177
 30
5.88
 11
-0.27887
 21
5.877108
 31
5.88
  0
LINE
  5
463E7
100
AcDbEntity
  8
0
100
AcDbLine
 10
-0.27887
 20
5.877108
 30
5.88
 11
-0.303997
 21
5.862039
 31
5.88
  0
LINE
  5
463E8
100
AcDbEntity
  8
0
100
AcDbLine
 10
-0.293946
 20
5.76158
 30
5.88
 11
-0.268819
 21
5.751531
 31
5.88
  0
LINE
  5
463E9
100
AcDbEntity
  8
0
100
AcDbLine
 10
-0.329126
 20
5.857015
 30
5.88
 11
-0.359279
 21
5.857015
 31
5.88
  0
LINE
  5
463EA
100
AcDbEntity
  8
0
100
AcDbLine
 10
-0.344203
 20
5.776647
 30
5.88
 11
-0.319074
 21
5.771623
 31
5.88
  0
LINE
  5
463EB
100
AcDbEntity
  8
0
100
AcDbLine
 10
-0.303997
 20
5.862039
 30
5.88
 11
-0.329126
 21
5.857015
 31
5.88
  0
LINE
  5
463EC
100
AcDbEntity
  8
0
100
AcDbLine
 10
-0.319074
 20
5.771623
 30
5.88
 11
-0.293946
 21
5.76158
 31
5.88
  0
LINE
  5
463ED
100
AcDbEntity
  8
0
100
AcDbLine
 10
-0.032616
 20
5.726419
 30
5.88
 11
-0.05272
 21
5.741488
 31
5.88
  0
LINE
  5
463EE
100
AcDbEntity
  8
0
100
AcDbLine
 10
-0.19846
 20
5.786692
 30
5.88
 11
-0.19846
 21
5.540566
 31
5.88
  0
LINE
  5
463EF
100
AcDbEntity
  8
0
100
AcDbLine
 10
-0.228615
 20
5.68121
 30
5.88
 11
-0.228615
 21
5.651072
 31
5.88
  0
LINE
  5
463F0
100
AcDbEntity
  8
0
100
AcDbLine
 10
-0.228615
 20
5.651072
 30
5.88
 11
-0.23364
 21
5.625958
 31
5.88
  0
LINE
  5
463F1
100
AcDbEntity
  8
0
100
AcDbLine
 10
-0.007489
 20
5.71135
 30
5.88
 11
-0.032616
 21
5.726419
 31
5.88
  0
LINE
  5
463F2
100
AcDbEntity
  8
0
100
AcDbLine
 10
-0.047695
 20
5.595818
 30
5.88
 11
-0.022565
 21
5.610887
 31
5.88
  0
LINE
  5
463F3
100
AcDbEntity
  8
0
100
AcDbLine
 10
-0.022565
 20
5.610887
 30
5.88
 11
0.002562
 21
5.620934
 31
5.88
  0
LINE
  5
463F4
100
AcDbEntity
  8
0
100
AcDbLine
 10
-0.077848
 20
5.555635
 30
5.88
 11
-0.062769
 21
5.580749
 31
5.88
  0
LINE
  5
463F5
100
AcDbEntity
  8
0
100
AcDbLine
 10
-0.062769
 20
5.580749
 30
5.88
 11
-0.047695
 21
5.595818
 31
5.88
  0
LINE
  5
463F6
100
AcDbEntity
  8
0
100
AcDbLine
 10
-0.082873
 20
5.530519
 30
5.88
 11
-0.077848
 21
5.555635
 31
5.88
  0
LINE
  5
463F7
100
AcDbEntity
  8
0
100
AcDbLine
 10
-0.047695
 20
5.912269
 30
5.88
 11
-0.022565
 21
5.927338
 31
5.88
  0
LINE
  5
463F8
100
AcDbEntity
  8
0
100
AcDbLine
 10
-0.082873
 20
5.841946
 30
5.88
 11
-0.077848
 21
5.867062
 31
5.88
  0
LINE
  5
463F9
100
AcDbEntity
  8
0
100
AcDbLine
 10
-0.077848
 20
5.867062
 30
5.88
 11
-0.062769
 21
5.892177
 31
5.88
  0
LINE
  5
463FA
100
AcDbEntity
  8
0
100
AcDbLine
 10
-0.072822
 20
5.76158
 30
5.88
 11
-0.082873
 21
5.786692
 31
5.88
  0
LINE
  5
463FB
100
AcDbEntity
  8
0
100
AcDbLine
 10
-0.082873
 20
5.786692
 30
5.88
 11
-0.087899
 21
5.816832
 31
5.88
  0
LINE
  5
463FC
100
AcDbEntity
  8
0
100
AcDbLine
 10
-0.087899
 20
5.816832
 30
5.88
 11
-0.082873
 21
5.841946
 31
5.88
  0
LINE
  5
463FD
100
AcDbEntity
  8
0
100
AcDbLine
 10
-0.062769
 20
5.892177
 30
5.88
 11
-0.047695
 21
5.912269
 31
5.88
  0
LINE
  5
463FE
100
AcDbEntity
  8
0
100
AcDbLine
 10
-0.05272
 20
5.741488
 30
5.88
 11
-0.072822
 21
5.76158
 31
5.88
  0
LINE
  5
463FF
100
AcDbEntity
  8
0
100
AcDbLine
 10
-0.022565
 20
5.927338
 30
5.88
 11
0.002562
 21
5.937385
 31
5.88
  0
LINE
  5
46400
100
AcDbEntity
  8
0
100
AcDbLine
 10
-0.23364
 20
6.253836
 30
5.88
 11
-0.243691
 21
6.22872
 31
5.88
  0
LINE
  5
46401
100
AcDbEntity
  8
0
100
AcDbLine
 10
-0.238666
 20
6.334202
 30
5.88
 11
-0.228615
 21
6.309088
 31
5.88
  0
LINE
  5
46402
100
AcDbEntity
  8
0
100
AcDbLine
 10
-0.238666
 20
6.017751
 30
5.88
 11
-0.228615
 21
5.992639
 31
5.88
  0
LINE
  5
46403
100
AcDbEntity
  8
0
100
AcDbLine
 10
-0.374356
 20
6.088074
 30
5.88
 11
-0.344203
 21
6.088074
 31
5.88
  0
LINE
  5
46404
100
AcDbEntity
  8
0
100
AcDbLine
 10
-0.439687
 20
6.042867
 30
5.88
 11
-0.419585
 21
6.06296
 31
5.88
  0
LINE
  5
46405
100
AcDbEntity
  8
0
100
AcDbLine
 10
-0.419585
 20
6.06296
 30
5.88
 11
-0.399483
 21
6.078029
 31
5.88
  0
LINE
  5
46406
100
AcDbEntity
  8
0
100
AcDbLine
 10
-0.399483
 20
6.078029
 30
5.88
 11
-0.374356
 21
6.088074
 31
5.88
  0
LINE
  5
46407
100
AcDbEntity
  8
0
100
AcDbLine
 10
-0.459791
 20
5.992639
 30
5.88
 11
-0.454764
 21
6.017751
 31
5.88
  0
LINE
  5
46408
100
AcDbEntity
  8
0
100
AcDbLine
 10
-0.459791
 20
5.962499
 30
5.88
 11
-0.459791
 21
5.992639
 31
5.88
  0
LINE
  5
46409
100
AcDbEntity
  8
0
100
AcDbLine
 10
-0.454764
 20
6.017751
 30
5.88
 11
-0.439687
 21
6.042867
 31
5.88
  0
LINE
  5
4640A
100
AcDbEntity
  8
0
100
AcDbLine
 10
-0.293946
 20
6.078029
 30
5.88
 11
-0.268819
 21
6.06296
 31
5.88
  0
LINE
  5
4640B
100
AcDbEntity
  8
0
100
AcDbLine
 10
-0.268819
 20
6.06296
 30
5.88
 11
-0.253742
 21
6.042867
 31
5.88
  0
LINE
  5
4640C
100
AcDbEntity
  8
0
100
AcDbLine
 10
-0.253742
 20
6.042867
 30
5.88
 11
-0.238666
 21
6.017751
 31
5.88
  0
LINE
  5
4640D
100
AcDbEntity
  8
0
100
AcDbLine
 10
-0.344203
 20
6.088074
 30
5.88
 11
-0.319074
 21
6.088074
 31
5.88
  0
LINE
  5
4640E
100
AcDbEntity
  8
0
100
AcDbLine
 10
-0.319074
 20
6.088074
 30
5.88
 11
-0.293946
 21
6.078029
 31
5.88
  0
LINE
  5
4640F
100
AcDbEntity
  8
0
100
AcDbLine
 10
-0.359279
 20
6.168444
 30
5.88
 11
-0.384407
 21
6.173466
 31
5.88
  0
LINE
  5
46410
100
AcDbEntity
  8
0
100
AcDbLine
 10
-0.384407
 20
6.173466
 30
5.88
 11
-0.409534
 21
6.188537
 31
5.88
  0
LINE
  5
46411
100
AcDbEntity
  8
0
100
AcDbLine
 10
-0.409534
 20
6.188537
 30
5.88
 11
-0.429636
 21
6.203606
 31
5.88
  0
LINE
  5
46412
100
AcDbEntity
  8
0
100
AcDbLine
 10
-0.459791
 20
6.304064
 30
5.88
 11
-0.454764
 21
6.32918
 31
5.88
  0
LINE
  5
46413
100
AcDbEntity
  8
0
100
AcDbLine
 10
-0.444713
 20
6.22872
 30
5.88
 11
-0.454764
 21
6.253836
 31
5.88
  0
LINE
  5
46414
100
AcDbEntity
  8
0
100
AcDbLine
 10
-0.454764
 20
6.253836
 30
5.88
 11
-0.459791
 21
6.278948
 31
5.88
  0
LINE
  5
46415
100
AcDbEntity
  8
0
100
AcDbLine
 10
-0.459791
 20
6.278948
 30
5.88
 11
-0.459791
 21
6.304064
 31
5.88
  0
LINE
  5
46416
100
AcDbEntity
  8
0
100
AcDbLine
 10
-0.454764
 20
6.32918
 30
5.88
 11
-0.439687
 21
6.354295
 31
5.88
  0
LINE
  5
46417
100
AcDbEntity
  8
0
100
AcDbLine
 10
-0.429636
 20
6.203606
 30
5.88
 11
-0.444713
 21
6.22872
 31
5.88
  0
LINE
  5
46418
100
AcDbEntity
  8
0
100
AcDbLine
 10
-0.253742
 20
6.354295
 30
5.88
 11
-0.238666
 21
6.334202
 31
5.88
  0
LINE
  5
46419
100
AcDbEntity
  8
0
100
AcDbLine
 10
-0.243691
 20
6.22872
 30
5.88
 11
-0.258768
 21
6.208627
 31
5.88
  0
LINE
  5
4641A
100
AcDbEntity
  8
0
100
AcDbLine
 10
-0.258768
 20
6.208627
 30
5.88
 11
-0.27887
 21
6.188537
 31
5.88
  0
LINE
  5
4641B
100
AcDbEntity
  8
0
100
AcDbLine
 10
-0.27887
 20
6.188537
 30
5.88
 11
-0.303997
 21
6.178489
 31
5.88
  0
LINE
  5
4641C
100
AcDbEntity
  8
0
100
AcDbLine
 10
-0.329126
 20
6.168444
 30
5.88
 11
-0.359279
 21
6.168444
 31
5.88
  0
LINE
  5
4641D
100
AcDbEntity
  8
0
100
AcDbLine
 10
-0.303997
 20
6.178489
 30
5.88
 11
-0.329126
 21
6.168444
 31
5.88
  0
LINE
  5
4641E
100
AcDbEntity
  8
0
100
AcDbLine
 10
-0.082873
 20
6.153375
 30
5.88
 11
-0.077848
 21
6.183513
 31
5.88
  0
LINE
  5
4641F
100
AcDbEntity
  8
0
100
AcDbLine
 10
-0.143179
 20
6.017751
 30
5.88
 11
-0.143179
 21
6.263879
 31
5.88
  0
LINE
  5
46420
100
AcDbEntity
  8
0
100
AcDbLine
 10
-0.228615
 20
5.992639
 30
5.88
 11
-0.228615
 21
5.967523
 31
5.88
  0
LINE
  5
46421
100
AcDbEntity
  8
0
100
AcDbLine
 10
-0.007489
 20
6.027799
 30
5.88
 11
-0.032616
 21
6.037844
 31
5.88
  0
LINE
  5
46422
100
AcDbEntity
  8
0
100
AcDbLine
 10
-0.032616
 20
6.037844
 30
5.88
 11
-0.05272
 21
6.052913
 31
5.88
  0
LINE
  5
46423
100
AcDbEntity
  8
0
100
AcDbLine
 10
-0.072822
 20
6.078029
 30
5.88
 11
-0.082873
 21
6.103143
 31
5.88
  0
LINE
  5
46424
100
AcDbEntity
  8
0
100
AcDbLine
 10
-0.082873
 20
6.103143
 30
5.88
 11
-0.087899
 21
6.128259
 31
5.88
  0
LINE
  5
46425
100
AcDbEntity
  8
0
100
AcDbLine
 10
-0.05272
 20
6.052913
 30
5.88
 11
-0.072822
 21
6.078029
 31
5.88
  0
LINE
  5
46426
100
AcDbEntity
  8
0
100
AcDbLine
 10
-0.087899
 20
6.128259
 30
5.88
 11
-0.082873
 21
6.153375
 31
5.88
  0
LINE
  5
46427
100
AcDbEntity
  8
0
100
AcDbLine
 10
-0.228615
 20
6.309088
 30
5.88
 11
-0.228615
 21
6.278948
 31
5.88
  0
LINE
  5
46428
100
AcDbEntity
  8
0
100
AcDbLine
 10
-0.228615
 20
6.278948
 30
5.88
 11
-0.23364
 21
6.253836
 31
5.88
  0
LINE
  5
46429
100
AcDbEntity
  8
0
100
AcDbLine
 10
-0.007489
 20
6.339226
 30
5.88
 11
-0.032616
 21
6.349271
 31
5.88
  0
LINE
  5
4642A
100
AcDbEntity
  8
0
100
AcDbLine
 10
-0.047695
 20
6.223698
 30
5.88
 11
-0.022565
 21
6.238767
 31
5.88
  0
LINE
  5
4642B
100
AcDbEntity
  8
0
100
AcDbLine
 10
-0.022565
 20
6.238767
 30
5.88
 11
0.002562
 21
6.248812
 31
5.88
  0
LINE
  5
4642C
100
AcDbEntity
  8
0
100
AcDbLine
 10
-0.077848
 20
6.183513
 30
5.88
 11
-0.062769
 21
6.203606
 31
5.88
  0
LINE
  5
4642D
100
AcDbEntity
  8
0
100
AcDbLine
 10
-0.062769
 20
6.203606
 30
5.88
 11
-0.047695
 21
6.223698
 31
5.88
  0
LINE
  5
4642E
100
AcDbEntity
  8
0
100
AcDbLine
 10
0.178457
 20
5.952454
 30
5.88
 11
0.178457
 21
5.706326
 31
5.88
  0
LINE
  5
4642F
100
AcDbEntity
  8
0
100
AcDbLine
 10
0.118151
 20
5.741488
 30
5.88
 11
0.093021
 21
5.726419
 31
5.88
  0
LINE
  5
46430
100
AcDbEntity
  8
0
100
AcDbLine
 10
0.138253
 20
5.555635
 30
5.88
 11
0.143278
 21
5.530519
 31
5.88
  0
LINE
  5
46431
100
AcDbEntity
  8
0
100
AcDbLine
 10
0.093021
 20
5.726419
 30
5.88
 11
0.072919
 21
5.71135
 31
5.88
  0
LINE
  5
46432
100
AcDbEntity
  8
0
100
AcDbLine
 10
0.08297
 20
5.615911
 30
5.88
 11
0.103074
 21
5.600842
 31
5.88
  0
LINE
  5
46433
100
AcDbEntity
  8
0
100
AcDbLine
 10
0.103074
 20
5.600842
 30
5.88
 11
0.123176
 21
5.580749
 31
5.88
  0
LINE
  5
46434
100
AcDbEntity
  8
0
100
AcDbLine
 10
0.123176
 20
5.580749
 30
5.88
 11
0.138253
 21
5.555635
 31
5.88
  0
LINE
  5
46435
100
AcDbEntity
  8
0
100
AcDbLine
 10
0.042766
 20
5.706326
 30
5.88
 11
0.017639
 21
5.706326
 31
5.88
  0
LINE
  5
46436
100
AcDbEntity
  8
0
100
AcDbLine
 10
0.02769
 20
5.625958
 30
5.88
 11
0.057843
 21
5.620934
 31
5.88
  0
LINE
  5
46437
100
AcDbEntity
  8
0
100
AcDbLine
 10
0.072919
 20
5.71135
 30
5.88
 11
0.042766
 21
5.706326
 31
5.88
  0
LINE
  5
46438
100
AcDbEntity
  8
0
100
AcDbLine
 10
0.057843
 20
5.620934
 30
5.88
 11
0.08297
 21
5.615911
 31
5.88
  0
LINE
  5
46439
100
AcDbEntity
  8
0
100
AcDbLine
 10
0.138253
 20
5.867062
 30
5.88
 11
0.143278
 21
5.841946
 31
5.88
  0
LINE
  5
4643A
100
AcDbEntity
  8
0
100
AcDbLine
 10
0.143278
 20
5.791716
 30
5.88
 11
0.133227
 21
5.766604
 31
5.88
  0
LINE
  5
4643B
100
AcDbEntity
  8
0
100
AcDbLine
 10
0.08297
 20
5.927338
 30
5.88
 11
0.103074
 21
5.912269
 31
5.88
  0
LINE
  5
4643C
100
AcDbEntity
  8
0
100
AcDbLine
 10
0.103074
 20
5.912269
 30
5.88
 11
0.123176
 21
5.892177
 31
5.88
  0
LINE
  5
4643D
100
AcDbEntity
  8
0
100
AcDbLine
 10
0.123176
 20
5.892177
 30
5.88
 11
0.138253
 21
5.867062
 31
5.88
  0
LINE
  5
4643E
100
AcDbEntity
  8
0
100
AcDbLine
 10
0.133227
 20
5.766604
 30
5.88
 11
0.118151
 21
5.741488
 31
5.88
  0
LINE
  5
4643F
100
AcDbEntity
  8
0
100
AcDbLine
 10
0.02769
 20
5.937385
 30
5.88
 11
0.057843
 21
5.937385
 31
5.88
  0
LINE
  5
46440
100
AcDbEntity
  8
0
100
AcDbLine
 10
0.057843
 20
5.937385
 30
5.88
 11
0.08297
 21
5.927338
 31
5.88
  0
LINE
  5
46441
100
AcDbEntity
  8
0
100
AcDbLine
 10
0.143278
 20
5.841946
 30
5.88
 11
0.148304
 21
5.816832
 31
5.88
  0
LINE
  5
46442
100
AcDbEntity
  8
0
100
AcDbLine
 10
0.148304
 20
5.816832
 30
5.88
 11
0.143278
 21
5.791716
 31
5.88
  0
LINE
  5
46443
100
AcDbEntity
  8
0
100
AcDbLine
 10
0.178457
 20
6.263879
 30
5.88
 11
0.178457
 21
6.017751
 31
5.88
  0
LINE
  5
46444
100
AcDbEntity
  8
0
100
AcDbLine
 10
0.143278
 20
6.158397
 30
5.88
 11
0.148304
 21
6.128259
 31
5.88
  0
LINE
  5
46445
100
AcDbEntity
  8
0
100
AcDbLine
 10
0.143278
 20
6.103143
 30
5.88
 11
0.133227
 21
6.078029
 31
5.88
  0
LINE
  5
46446
100
AcDbEntity
  8
0
100
AcDbLine
 10
0.133227
 20
6.078029
 30
5.88
 11
0.118151
 21
6.057936
 31
5.88
  0
LINE
  5
46447
100
AcDbEntity
  8
0
100
AcDbLine
 10
0.118151
 20
6.057936
 30
5.88
 11
0.093021
 21
6.037844
 31
5.88
  0
LINE
  5
46448
100
AcDbEntity
  8
0
100
AcDbLine
 10
0.093021
 20
6.037844
 30
5.88
 11
0.072919
 21
6.027799
 31
5.88
  0
LINE
  5
46449
100
AcDbEntity
  8
0
100
AcDbLine
 10
0.042766
 20
6.017751
 30
5.88
 11
0.017639
 21
6.017751
 31
5.88
  0
LINE
  5
4644A
100
AcDbEntity
  8
0
100
AcDbLine
 10
0.072919
 20
6.027799
 30
5.88
 11
0.042766
 21
6.017751
 31
5.88
  0
LINE
  5
4644B
100
AcDbEntity
  8
0
100
AcDbLine
 10
0.148304
 20
6.128259
 30
5.88
 11
0.143278
 21
6.103143
 31
5.88
  0
LINE
  5
4644C
100
AcDbEntity
  8
0
100
AcDbLine
 10
0.138253
 20
6.183513
 30
5.88
 11
0.143278
 21
6.158397
 31
5.88
  0
LINE
  5
4644D
100
AcDbEntity
  8
0
100
AcDbLine
 10
0.093021
 20
6.354295
 30
5.88
 11
0.072919
 21
6.339226
 31
5.88
  0
LINE
  5
4644E
100
AcDbEntity
  8
0
100
AcDbLine
 10
0.08297
 20
6.238767
 30
5.88
 11
0.103074
 21
6.223698
 31
5.88
  0
LINE
  5
4644F
100
AcDbEntity
  8
0
100
AcDbLine
 10
0.103074
 20
6.223698
 30
5.88
 11
0.123176
 21
6.208627
 31
5.88
  0
LINE
  5
46450
100
AcDbEntity
  8
0
100
AcDbLine
 10
0.123176
 20
6.208627
 30
5.88
 11
0.138253
 21
6.183513
 31
5.88
  0
LINE
  5
46451
100
AcDbEntity
  8
0
100
AcDbLine
 10
0.042766
 20
6.334202
 30
5.88
 11
0.017639
 21
6.334202
 31
5.88
  0
LINE
  5
46452
100
AcDbEntity
  8
0
100
AcDbLine
 10
0.02769
 20
6.253836
 30
5.88
 11
0.057843
 21
6.248812
 31
5.88
  0
LINE
  5
46453
100
AcDbEntity
  8
0
100
AcDbLine
 10
0.072919
 20
6.339226
 30
5.88
 11
0.042766
 21
6.334202
 31
5.88
  0
LINE
  5
46454
100
AcDbEntity
  8
0
100
AcDbLine
 10
0.057843
 20
6.248812
 30
5.88
 11
0.08297
 21
6.238767
 31
5.88
  0
LINE
  5
46455
100
AcDbEntity
  8
0
100
AcDbLine
 10
-0.19846
 20
7.143784
 30
5.88
 11
-0.19846
 21
7.410005
 31
5.88
  0
LINE
  5
46456
100
AcDbEntity
  8
0
100
AcDbLine
 10
0.002562
 20
6.876688
 30
5.88
 11
0.02769
 21
6.881712
 31
5.88
  0
LINE
  5
46457
100
AcDbEntity
  8
0
100
AcDbLine
 10
0.017639
 20
6.645631
 30
5.88
 11
-0.007489
 21
6.650653
 31
5.88
  0
LINE
  5
46458
100
AcDbEntity
  8
0
100
AcDbLine
 10
0.002562
 20
6.565261
 30
5.88
 11
0.02769
 21
6.565261
 31
5.88
  0
LINE
  5
46459
100
AcDbEntity
  8
0
100
AcDbLine
 10
-0.143179
 20
6.891759
 30
5.88
 11
0.178457
 21
6.891759
 31
5.88
  0
LINE
  5
4645A
100
AcDbEntity
  8
0
100
AcDbLine
 10
0.178457
 20
6.645631
 30
5.88
 11
-0.143179
 21
6.645631
 31
5.88
  0
LINE
  5
4645B
100
AcDbEntity
  8
0
100
AcDbLine
 10
-0.042667
 20
6.851574
 30
5.88
 11
0.1081
 21
6.675769
 31
5.88
  0
LINE
  5
4645C
100
AcDbEntity
  8
0
100
AcDbLine
 10
-0.143179
 20
6.58033
 30
5.88
 11
0.178457
 21
6.58033
 31
5.88
  0
LINE
  5
4645D
100
AcDbEntity
  8
0
100
AcDbLine
 10
-0.082873
 20
6.781251
 30
5.88
 11
-0.077848
 21
6.806365
 31
5.88
  0
LINE
  5
4645E
100
AcDbEntity
  8
0
100
AcDbLine
 10
-0.143179
 20
6.645631
 30
5.88
 11
-0.143179
 21
6.891759
 31
5.88
  0
LINE
  5
4645F
100
AcDbEntity
  8
0
100
AcDbLine
 10
-0.238666
 20
6.645631
 30
5.88
 11
-0.228615
 21
6.620515
 31
5.88
  0
LINE
  5
46460
100
AcDbEntity
  8
0
100
AcDbLine
 10
-0.23364
 20
6.565261
 30
5.88
 11
-0.243691
 21
6.540147
 31
5.88
  0
LINE
  5
46461
100
AcDbEntity
  8
0
100
AcDbLine
 10
-0.419585
 20
6.690838
 30
5.88
 11
-0.263793
 21
6.515031
 31
5.88
  0
LINE
  5
46462
100
AcDbEntity
  8
0
100
AcDbLine
 10
-0.454764
 20
6.565261
 30
5.88
 11
-0.459791
 21
6.590377
 31
5.88
  0
LINE
  5
46463
100
AcDbEntity
  8
0
100
AcDbLine
 10
-0.359279
 20
6.484895
 30
5.88
 11
-0.384407
 21
6.489915
 31
5.88
  0
LINE
  5
46464
100
AcDbEntity
  8
0
100
AcDbLine
 10
-0.374356
 20
6.399503
 30
5.88
 11
-0.344203
 21
6.404525
 31
5.88
  0
LINE
  5
46465
100
AcDbEntity
  8
0
100
AcDbLine
 10
-0.384407
 20
6.489915
 30
5.88
 11
-0.409534
 21
6.499964
 31
5.88
  0
LINE
  5
46466
100
AcDbEntity
  8
0
100
AcDbLine
 10
-0.409534
 20
6.499964
 30
5.88
 11
-0.429636
 21
6.520056
 31
5.88
  0
LINE
  5
46467
100
AcDbEntity
  8
0
100
AcDbLine
 10
-0.419585
 20
6.374387
 30
5.88
 11
-0.399483
 21
6.389456
 31
5.88
  0
LINE
  5
46468
100
AcDbEntity
  8
0
100
AcDbLine
 10
-0.399483
 20
6.389456
 30
5.88
 11
-0.374356
 21
6.399503
 31
5.88
  0
LINE
  5
46469
100
AcDbEntity
  8
0
100
AcDbLine
 10
-0.444713
 20
6.540147
 30
5.88
 11
-0.454764
 21
6.565261
 31
5.88
  0
LINE
  5
4646A
100
AcDbEntity
  8
0
100
AcDbLine
 10
-0.429636
 20
6.520056
 30
5.88
 11
-0.444713
 21
6.540147
 31
5.88
  0
LINE
  5
4646B
100
AcDbEntity
  8
0
100
AcDbLine
 10
-0.258768
 20
6.520056
 30
5.88
 11
-0.27887
 21
6.499964
 31
5.88
  0
LINE
  5
4646C
100
AcDbEntity
  8
0
100
AcDbLine
 10
-0.27887
 20
6.499964
 30
5.88
 11
-0.303997
 21
6.489915
 31
5.88
  0
LINE
  5
4646D
100
AcDbEntity
  8
0
100
AcDbLine
 10
-0.293946
 20
6.389456
 30
5.88
 11
-0.268819
 21
6.374387
 31
5.88
  0
LINE
  5
4646E
100
AcDbEntity
  8
0
100
AcDbLine
 10
-0.329126
 20
6.484895
 30
5.88
 11
-0.359279
 21
6.484895
 31
5.88
  0
LINE
  5
4646F
100
AcDbEntity
  8
0
100
AcDbLine
 10
-0.344203
 20
6.404525
 30
5.88
 11
-0.319074
 21
6.399503
 31
5.88
  0
LINE
  5
46470
100
AcDbEntity
  8
0
100
AcDbLine
 10
-0.303997
 20
6.489915
 30
5.88
 11
-0.329126
 21
6.484895
 31
5.88
  0
LINE
  5
46471
100
AcDbEntity
  8
0
100
AcDbLine
 10
-0.319074
 20
6.399503
 30
5.88
 11
-0.293946
 21
6.389456
 31
5.88
  0
LINE
  5
46472
100
AcDbEntity
  8
0
100
AcDbLine
 10
-0.243691
 20
6.540147
 30
5.88
 11
-0.258768
 21
6.520056
 31
5.88
  0
LINE
  5
46473
100
AcDbEntity
  8
0
100
AcDbLine
 10
-0.374356
 20
6.71093
 30
5.88
 11
-0.344203
 21
6.715954
 31
5.88
  0
LINE
  5
46474
100
AcDbEntity
  8
0
100
AcDbLine
 10
-0.439687
 20
6.670745
 30
5.88
 11
-0.419585
 21
6.690838
 31
5.88
  0
LINE
  5
46475
100
AcDbEntity
  8
0
100
AcDbLine
 10
-0.419585
 20
6.690838
 30
5.88
 11
-0.399483
 21
6.705907
 31
5.88
  0
LINE
  5
46476
100
AcDbEntity
  8
0
100
AcDbLine
 10
-0.399483
 20
6.705907
 30
5.88
 11
-0.374356
 21
6.71093
 31
5.88
  0
LINE
  5
46477
100
AcDbEntity
  8
0
100
AcDbLine
 10
-0.459791
 20
6.620515
 30
5.88
 11
-0.454764
 21
6.645631
 31
5.88
  0
LINE
  5
46478
100
AcDbEntity
  8
0
100
AcDbLine
 10
-0.459791
 20
6.590377
 30
5.88
 11
-0.459791
 21
6.620515
 31
5.88
  0
LINE
  5
46479
100
AcDbEntity
  8
0
100
AcDbLine
 10
-0.454764
 20
6.645631
 30
5.88
 11
-0.439687
 21
6.670745
 31
5.88
  0
LINE
  5
4647A
100
AcDbEntity
  8
0
100
AcDbLine
 10
-0.293946
 20
6.705907
 30
5.88
 11
-0.268819
 21
6.690838
 31
5.88
  0
LINE
  5
4647B
100
AcDbEntity
  8
0
100
AcDbLine
 10
-0.268819
 20
6.690838
 30
5.88
 11
-0.253742
 21
6.670745
 31
5.88
  0
LINE
  5
4647C
100
AcDbEntity
  8
0
100
AcDbLine
 10
-0.253742
 20
6.670745
 30
5.88
 11
-0.238666
 21
6.645631
 31
5.88
  0
LINE
  5
4647D
100
AcDbEntity
  8
0
100
AcDbLine
 10
-0.344203
 20
6.715954
 30
5.88
 11
-0.319074
 21
6.71093
 31
5.88
  0
LINE
  5
4647E
100
AcDbEntity
  8
0
100
AcDbLine
 10
-0.319074
 20
6.71093
 30
5.88
 11
-0.293946
 21
6.705907
 31
5.88
  0
LINE
  5
4647F
100
AcDbEntity
  8
0
100
AcDbLine
 10
-0.228615
 20
6.595399
 30
5.88
 11
-0.23364
 21
6.565261
 31
5.88
  0
LINE
  5
46480
100
AcDbEntity
  8
0
100
AcDbLine
 10
-0.19846
 20
6.731023
 30
5.88
 11
-0.19846
 21
6.484895
 31
5.88
  0
LINE
  5
46481
100
AcDbEntity
  8
0
100
AcDbLine
 10
-0.047695
 20
6.540147
 30
5.88
 11
-0.022565
 21
6.555216
 31
5.88
  0
LINE
  5
46482
100
AcDbEntity
  8
0
100
AcDbLine
 10
-0.022565
 20
6.555216
 30
5.88
 11
0.002562
 21
6.565261
 31
5.88
  0
LINE
  5
46483
100
AcDbEntity
  8
0
100
AcDbLine
 10
-0.082873
 20
6.469826
 30
5.88
 11
-0.077848
 21
6.49494
 31
5.88
  0
LINE
  5
46484
100
AcDbEntity
  8
0
100
AcDbLine
 10
-0.077848
 20
6.49494
 30
5.88
 11
-0.062769
 21
6.520056
 31
5.88
  0
LINE
  5
46485
100
AcDbEntity
  8
0
100
AcDbLine
 10
-0.072822
 20
6.389456
 30
5.88
 11
-0.082873
 21
6.414572
 31
5.88
  0
LINE
  5
46486
100
AcDbEntity
  8
0
100
AcDbLine
 10
-0.082873
 20
6.414572
 30
5.88
 11
-0.087899
 21
6.439686
 31
5.88
  0
LINE
  5
46487
100
AcDbEntity
  8
0
100
AcDbLine
 10
-0.087899
 20
6.439686
 30
5.88
 11
-0.082873
 21
6.469826
 31
5.88
  0
LINE
  5
46488
100
AcDbEntity
  8
0
100
AcDbLine
 10
-0.05272
 20
6.369363
 30
5.88
 11
-0.072822
 21
6.389456
 31
5.88
  0
LINE
  5
46489
100
AcDbEntity
  8
0
100
AcDbLine
 10
-0.062769
 20
6.520056
 30
5.88
 11
-0.047695
 21
6.540147
 31
5.88
  0
LINE
  5
4648A
100
AcDbEntity
  8
0
100
AcDbLine
 10
-0.228615
 20
6.620515
 30
5.88
 11
-0.228615
 21
6.595399
 31
5.88
  0
LINE
  5
4648B
100
AcDbEntity
  8
0
100
AcDbLine
 10
-0.082873
 20
6.731023
 30
5.88
 11
-0.087899
 21
6.756135
 31
5.88
  0
LINE
  5
4648C
100
AcDbEntity
  8
0
100
AcDbLine
 10
-0.087899
 20
6.756135
 30
5.88
 11
-0.082873
 21
6.781251
 31
5.88
  0
LINE
  5
4648D
100
AcDbEntity
  8
0
100
AcDbLine
 10
-0.007489
 20
6.650653
 30
5.88
 11
-0.032616
 21
6.665722
 31
5.88
  0
LINE
  5
4648E
100
AcDbEntity
  8
0
100
AcDbLine
 10
-0.032616
 20
6.665722
 30
5.88
 11
-0.05272
 21
6.680792
 31
5.88
  0
LINE
  5
4648F
100
AcDbEntity
  8
0
100
AcDbLine
 10
-0.05272
 20
6.680792
 30
5.88
 11
-0.072822
 21
6.705907
 31
5.88
  0
LINE
  5
46490
100
AcDbEntity
  8
0
100
AcDbLine
 10
-0.072822
 20
6.705907
 30
5.88
 11
-0.082873
 21
6.731023
 31
5.88
  0
LINE
  5
46491
100
AcDbEntity
  8
0
100
AcDbLine
 10
-0.047695
 20
6.851574
 30
5.88
 11
-0.022565
 21
6.866643
 31
5.88
  0
LINE
  5
46492
100
AcDbEntity
  8
0
100
AcDbLine
 10
-0.022565
 20
6.866643
 30
5.88
 11
0.002562
 21
6.876688
 31
5.88
  0
LINE
  5
46493
100
AcDbEntity
  8
0
100
AcDbLine
 10
-0.077848
 20
6.806365
 30
5.88
 11
-0.062769
 21
6.831481
 31
5.88
  0
LINE
  5
46494
100
AcDbEntity
  8
0
100
AcDbLine
 10
-0.062769
 20
6.831481
 30
5.88
 11
-0.047695
 21
6.851574
 31
5.88
  0
LINE
  5
46495
100
AcDbEntity
  8
0
100
AcDbLine
 10
0.143278
 20
6.786275
 30
5.88
 11
0.148304
 21
6.756135
 31
5.88
  0
LINE
  5
46496
100
AcDbEntity
  8
0
100
AcDbLine
 10
0.178457
 20
6.891759
 30
5.88
 11
0.178457
 21
6.645631
 31
5.88
  0
LINE
  5
46497
100
AcDbEntity
  8
0
100
AcDbLine
 10
0.138253
 20
6.49494
 30
5.88
 11
0.143278
 21
6.469826
 31
5.88
  0
LINE
  5
46498
100
AcDbEntity
  8
0
100
AcDbLine
 10
0.143278
 20
6.414572
 30
5.88
 11
0.133227
 21
6.389456
 31
5.88
  0
LINE
  5
46499
100
AcDbEntity
  8
0
100
AcDbLine
 10
0.08297
 20
6.555216
 30
5.88
 11
0.103074
 21
6.540147
 31
5.88
  0
LINE
  5
4649A
100
AcDbEntity
  8
0
100
AcDbLine
 10
0.123176
 20
6.520056
 30
5.88
 11
0.138253
 21
6.49494
 31
5.88
  0
LINE
  5
4649B
100
AcDbEntity
  8
0
100
AcDbLine
 10
0.133227
 20
6.389456
 30
5.88
 11
0.118151
 21
6.369363
 31
5.88
  0
LINE
  5
4649C
100
AcDbEntity
  8
0
100
AcDbLine
 10
0.103074
 20
6.540147
 30
5.88
 11
0.123176
 21
6.520056
 31
5.88
  0
LINE
  5
4649D
100
AcDbEntity
  8
0
100
AcDbLine
 10
0.02769
 20
6.565261
 30
5.88
 11
0.057843
 21
6.565261
 31
5.88
  0
LINE
  5
4649E
100
AcDbEntity
  8
0
100
AcDbLine
 10
0.057843
 20
6.565261
 30
5.88
 11
0.08297
 21
6.555216
 31
5.88
  0
LINE
  5
4649F
100
AcDbEntity
  8
0
100
AcDbLine
 10
0.143278
 20
6.469826
 30
5.88
 11
0.148304
 21
6.44471
 31
5.88
  0
LINE
  5
464A0
100
AcDbEntity
  8
0
100
AcDbLine
 10
0.148304
 20
6.44471
 30
5.88
 11
0.143278
 21
6.414572
 31
5.88
  0
LINE
  5
464A1
100
AcDbEntity
  8
0
100
AcDbLine
 10
0.143278
 20
6.731023
 30
5.88
 11
0.133227
 21
6.705907
 31
5.88
  0
LINE
  5
464A2
100
AcDbEntity
  8
0
100
AcDbLine
 10
0.133227
 20
6.705907
 30
5.88
 11
0.118151
 21
6.680792
 31
5.88
  0
LINE
  5
464A3
100
AcDbEntity
  8
0
100
AcDbLine
 10
0.118151
 20
6.680792
 30
5.88
 11
0.093021
 21
6.665722
 31
5.88
  0
LINE
  5
464A4
100
AcDbEntity
  8
0
100
AcDbLine
 10
0.093021
 20
6.665722
 30
5.88
 11
0.072919
 21
6.655676
 31
5.88
  0
LINE
  5
464A5
100
AcDbEntity
  8
0
100
AcDbLine
 10
0.042766
 20
6.645631
 30
5.88
 11
0.017639
 21
6.645631
 31
5.88
  0
LINE
  5
464A6
100
AcDbEntity
  8
0
100
AcDbLine
 10
0.072919
 20
6.655676
 30
5.88
 11
0.042766
 21
6.645631
 31
5.88
  0
LINE
  5
464A7
100
AcDbEntity
  8
0
100
AcDbLine
 10
0.148304
 20
6.756135
 30
5.88
 11
0.143278
 21
6.731023
 31
5.88
  0
LINE
  5
464A8
100
AcDbEntity
  8
0
100
AcDbLine
 10
0.138253
 20
6.811389
 30
5.88
 11
0.143278
 21
6.786275
 31
5.88
  0
LINE
  5
464A9
100
AcDbEntity
  8
0
100
AcDbLine
 10
0.08297
 20
6.866643
 30
5.88
 11
0.103074
 21
6.851574
 31
5.88
  0
LINE
  5
464AA
100
AcDbEntity
  8
0
100
AcDbLine
 10
0.103074
 20
6.851574
 30
5.88
 11
0.123176
 21
6.831481
 31
5.88
  0
LINE
  5
464AB
100
AcDbEntity
  8
0
100
AcDbLine
 10
0.123176
 20
6.831481
 30
5.88
 11
0.138253
 21
6.811389
 31
5.88
  0
LINE
  5
464AC
100
AcDbEntity
  8
0
100
AcDbLine
 10
0.02769
 20
6.881712
 30
5.88
 11
0.057843
 21
6.876688
 31
5.88
  0
LINE
  5
464AD
100
AcDbEntity
  8
0
100
AcDbLine
 10
0.057843
 20
6.876688
 30
5.88
 11
0.08297
 21
6.866643
 31
5.88
  0
LINE
  5
464AE
100
AcDbEntity
  8
0
100
AcDbLine
 10
-0.19846
 20
7.324611
 30
5.88
 11
0.27
 21
7.324611
 31
5.88
  0
LINE
  5
464AF
100
AcDbEntity
  8
0
100
AcDbLine
 10
-0.19846
 20
7.410005
 30
5.88
 11
0.27
 21
7.410005
 31
5.88
  0
LINE
  5
464B0
100
AcDbEntity
  8
0
100
AcDbLine
 10
-0.851402
 20
8.625571
 30
5.88
 11
-0.022565
 21
8.625571
 31
5.88
  0
TEXT
  5
464B1
100
AcDbEntity
  8
0
100
AcDbText
 39
0.001
 10
-0.822436
 20
8.42726
 30
5.879973
 40
0.05
  1
D
 72
     1
 11
-0.80577
 21
8.42726
 31
5.879973
100
AcDbText
  0
TEXT
  5
464B2
100
AcDbEntity
  8
0
100
AcDbText
 39
0.001
 10
-0.74327
 20
8.30226
 30
5.879973
 40
0.05
  1
0
 72
     1
 11
-0.73077
 21
8.30226
 31
5.879973
100
AcDbText
  0
TEXT
  5
464B3
100
AcDbEntity
  8
0
100
AcDbText
 39
0.001
 10
-0.747436
 20
8.20226
 30
5.879973
 40
0.05
  1
T
 72
     1
 11
-0.73077
 21
8.20226
 31
5.879973
100
AcDbText
  0
TEXT
  5
464B4
100
AcDbEntity
  8
0
100
AcDbText
 39
0.001
 10
-0.747436
 20
8.12726
 30
5.879973
 40
0.05
  1
O
 72
     1
 11
-0.73077
 21
8.12726
 31
5.879973
100
AcDbText
  0
TEXT
  5
464B5
100
AcDbEntity
  8
0
100
AcDbText
 39
0.001
 10
-0.822436
 20
8.05226
 30
5.879973
 40
0.05
  1
U
 72
     1
 11
-0.80577
 21
8.05226
 31
5.879973
100
AcDbText
  0
TEXT
  5
464B6
100
AcDbEntity
  8
0
100
AcDbText
 39
0.001
 10
-0.822436
 20
8.12726
 30
5.879973
 40
0.05
  1
O
 72
     1
 11
-0.80577
 21
8.12726
 31
5.879973
100
AcDbText
  0
TEXT
  5
464B7
100
AcDbEntity
  8
0
100
AcDbText
 39
0.001
 10
-0.822436
 20
8.35226
 30
5.879973
 40
0.05
  1
C
 72
     1
 11
-0.80577
 21
8.35226
 31
5.879973
100
AcDbText
  0
TEXT
  5
464B8
100
AcDbEntity
  8
0
100
AcDbText
 39
0.001
 10
-0.739103
 20
8.37726
 30
5.879973
 40
0.05
  1
1
 72
     1
 11
-0.73077
 21
8.37726
 31
5.879973
100
AcDbText
  0
POLYLINE
  5
464B9
100
AcDbEntity
  8
0
100
AcDbPolygonMesh
 66
     1
 10
0.0
 20
0.0
 30
0.0
 70
    16
 71
     6
 72
     3
  0
VERTEX
  5
464BA
100
AcDbEntity
  8
0
100
AcDbVertex
100
AcDbPolygonMeshVertex
 10
0.068
 20
8.912
 30
5.747
 70
    64
  0
VERTEX
  5
464BB
100
AcDbEntity
  8
0
100
AcDbVertex
100
AcDbPolygonMeshVertex
 10
0.068
 20
8.912
 30
5.39
 70
    64
  0
VERTEX
  5
464BC
100
AcDbEntity
  8
0
100
AcDbVertex
100
AcDbPolygonMeshVertex
 10
0.068
 20
8.912
 30
5.39
 70
    64
  0
VERTEX
  5
464BD
100
AcDbEntity
  8
0
100
AcDbVertex
100
AcDbPolygonMeshVertex
 10
0.0
 20
8.912
 30
5.747
 70
    64
  0
VERTEX
  5
464BE
100
AcDbEntity
  8
0
100
AcDbVertex
100
AcDbPolygonMeshVertex
 10
0.0
 20
8.912
 30
5.39
 70
    64
  0
VERTEX
  5
464BF
100
AcDbEntity
  8
0
100
AcDbVertex
100
AcDbPolygonMeshVertex
 10
0.0
 20
8.912
 30
5.39
 70
    64
  0
VERTEX
  5
464C0
100
AcDbEntity
  8
0
100
AcDbVertex
100
AcDbPolygonMeshVertex
 10
0.0
 20
9.6931
 30
5.747
 70
    64
  0
VERTEX
  5
464C1
100
AcDbEntity
  8
0
100
AcDbVertex
100
AcDbPolygonMeshVertex
 10
0.0
 20
9.6931
 30
5.39
 70
    64
  0
VERTEX
  5
464C2
100
AcDbEntity
  8
0
100
AcDbVertex
100
AcDbPolygonMeshVertex
 10
0.0
 20
8.912
 30
5.39
 70
    64
  0
VERTEX
  5
464C3
100
AcDbEntity
  8
0
100
AcDbVertex
100
AcDbPolygonMeshVertex
 10
0.068
 20
9.6931
 30
5.747
 70
    64
  0
VERTEX
  5
464C4
100
AcDbEntity
  8
0
100
AcDbVertex
100
AcDbPolygonMeshVertex
 10
0.068
 20
9.6931
 30
5.39
 70
    64
  0
VERTEX
  5
464C5
100
AcDbEntity
  8
0
100
AcDbVertex
100
AcDbPolygonMeshVertex
 10
0.068
 20
8.912
 30
5.39
 70
    64
  0
VERTEX
  5
464C6
100
AcDbEntity
  8
0
100
AcDbVertex
100
AcDbPolygonMeshVertex
 10
0.068
 20
9.6931
 30
5.747
 70
    64
  0
VERTEX
  5
464C7
100
AcDbEntity
  8
0
100
AcDbVertex
100
AcDbPolygonMeshVertex
 10
0.068
 20
9.6931
 30
5.747
 70
    64
  0
VERTEX
  5
464C8
100
AcDbEntity
  8
0
100
AcDbVertex
100
AcDbPolygonMeshVertex
 10
0.068
 20
8.912
 30
5.747
 70
    64
  0
VERTEX
  5
464C9
100
AcDbEntity
  8
0
100
AcDbVertex
100
AcDbPolygonMeshVertex
 10
0.0
 20
9.6931
 30
5.747
 70
    64
  0
VERTEX
  5
464CA
100
AcDbEntity
  8
0
100
AcDbVertex
100
AcDbPolygonMeshVertex
 10
0.0
 20
9.6931
 30
5.747
 70
    64
  0
VERTEX
  5
464CB
100
AcDbEntity
  8
0
100
AcDbVertex
100
AcDbPolygonMeshVertex
 10
0.0
 20
8.912
 30
5.747
 70
    64
  0
SEQEND
  5
464CC
100
AcDbEntity
  8
0
  0
POLYLINE
  5
464CD
100
AcDbEntity
  8
0
100
AcDbPolygonMesh
 66
     1
 10
0.0
 20
0.0
 30
0.0
 70
    16
 71
     6
 72
     3
  0
VERTEX
  5
464CE
100
AcDbEntity
  8
0
100
AcDbVertex
100
AcDbPolygonMeshVertex
 10
0.136
 20
9.0811
 30
5.747
 70
    64
  0
VERTEX
  5
464CF
100
AcDbEntity
  8
0
100
AcDbVertex
100
AcDbPolygonMeshVertex
 10
0.136
 20
9.0811
 30
5.747
 70
    64
  0
VERTEX
  5
464D0
100
AcDbEntity
  8
0
100
AcDbVertex
100
AcDbPolygonMeshVertex
 10
0.136
 20
9.0811
 30
5.747
 70
    64
  0
VERTEX
  5
464D1
100
AcDbEntity
  8
0
100
AcDbVertex
100
AcDbPolygonMeshVertex
 10
0.136
 20
9.6931
 30
5.437
 70
    64
  0
VERTEX
  5
464D2
100
AcDbEntity
  8
0
100
AcDbVertex
100
AcDbPolygonMeshVertex
 10
0.136
 20
9.6931
 30
5.747
 70
    64
  0
VERTEX
  5
464D3
100
AcDbEntity
  8
0
100
AcDbVertex
100
AcDbPolygonMeshVertex
 10
0.136
 20
9.6931
 30
5.747
 70
    64
  0
VERTEX
  5
464D4
100
AcDbEntity
  8
0
100
AcDbVertex
100
AcDbPolygonMeshVertex
 10
0.068
 20
9.6931
 30
5.437
 70
    64
  0
VERTEX
  5
464D5
100
AcDbEntity
  8
0
100
AcDbVertex
100
AcDbPolygonMeshVertex
 10
0.068
 20
9.6931
 30
5.747
 70
    64
  0
VERTEX
  5
464D6
100
AcDbEntity
  8
0
100
AcDbVertex
100
AcDbPolygonMeshVertex
 10
0.136
 20
9.6931
 30
5.747
 70
    64
  0
VERTEX
  5
464D7
100
AcDbEntity
  8
0
100
AcDbVertex
100
AcDbPolygonMeshVertex
 10
0.068
 20
9.0811
 30
5.747
 70
    64
  0
VERTEX
  5
464D8
100
AcDbEntity
  8
0
100
AcDbVertex
100
AcDbPolygonMeshVertex
 10
0.068
 20
9.0811
 30
5.747
 70
    64
  0
VERTEX
  5
464D9
100
AcDbEntity
  8
0
100
AcDbVertex
100
AcDbPolygonMeshVertex
 10
0.136
 20
9.0811
 30
5.747
 70
    64
  0
VERTEX
  5
464DA
100
AcDbEntity
  8
0
100
AcDbVertex
100
AcDbPolygonMeshVertex
 10
0.068
 20
9.0811
 30
5.747
 70
    64
  0
VERTEX
  5
464DB
100
AcDbEntity
  8
0
100
AcDbVertex
100
AcDbPolygonMeshVertex
 10
0.068
 20
9.0811
 30
5.747
 70
    64
  0
VERTEX
  5
464DC
100
AcDbEntity
  8
0
100
AcDbVertex
100
AcDbPolygonMeshVertex
 10
0.136
 20
9.0811
 30
5.747
 70
    64
  0
VERTEX
  5
464DD
100
AcDbEntity
  8
0
100
AcDbVertex
100
AcDbPolygonMeshVertex
 10
0.068
 20
9.6931
 30
5.437
 70
    64
  0
VERTEX
  5
464DE
100
AcDbEntity
  8
0
100
AcDbVertex
100
AcDbPolygonMeshVertex
 10
0.068
 20
9.6931
 30
5.437
 70
    64
  0
VERTEX
  5
464DF
100
AcDbEntity
  8
0
100
AcDbVertex
100
AcDbPolygonMeshVertex
 10
0.136
 20
9.6931
 30
5.437
 70
    64
  0
SEQEND
  5
464E0
100
AcDbEntity
  8
0
  0
POLYLINE
  5
464E1
100
AcDbEntity
  8
0
100
AcDbPolygonMesh
 66
     1
 10
0.0
 20
0.0
 30
0.0
 70
    16
 71
     6
 72
     3
  0
VERTEX
  5
464E2
100
AcDbEntity
  8
0
100
AcDbVertex
100
AcDbPolygonMeshVertex
 10
0.0
 20
9.0811
 30
5.747
 70
    64
  0
VERTEX
  5
464E3
100
AcDbEntity
  8
0
100
AcDbVertex
100
AcDbPolygonMeshVertex
 10
0.0
 20
9.0811
 30
5.747
 70
    64
  0
VERTEX
  5
464E4
100
AcDbEntity
  8
0
100
AcDbVertex
100
AcDbPolygonMeshVertex
 10
0.0
 20
9.0811
 30
5.747
 70
    64
  0
VERTEX
  5
464E5
100
AcDbEntity
  8
0
100
AcDbVertex
100
AcDbPolygonMeshVertex
 10
0.0
 20
9.6931
 30
5.437
 70
    64
  0
VERTEX
  5
464E6
100
AcDbEntity
  8
0
100
AcDbVertex
100
AcDbPolygonMeshVertex
 10
0.0
 20
9.6931
 30
5.747
 70
    64
  0
VERTEX
  5
464E7
100
AcDbEntity
  8
0
100
AcDbVertex
100
AcDbPolygonMeshVertex
 10
0.0
 20
9.6931
 30
5.747
 70
    64
  0
VERTEX
  5
464E8
100
AcDbEntity
  8
0
100
AcDbVertex
100
AcDbPolygonMeshVertex
 10
-0.068
 20
9.6931
 30
5.437
 70
    64
  0
VERTEX
  5
464E9
100
AcDbEntity
  8
0
100
AcDbVertex
100
AcDbPolygonMeshVertex
 10
-0.068
 20
9.6931
 30
5.747
 70
    64
  0
VERTEX
  5
464EA
100
AcDbEntity
  8
0
100
AcDbVertex
100
AcDbPolygonMeshVertex
 10
0.0
 20
9.6931
 30
5.747
 70
    64
  0
VERTEX
  5
464EB
100
AcDbEntity
  8
0
100
AcDbVertex
100
AcDbPolygonMeshVertex
 10
-0.068
 20
9.0811
 30
5.747
 70
    64
  0
VERTEX
  5
464EC
100
AcDbEntity
  8
0
100
AcDbVertex
100
AcDbPolygonMeshVertex
 10
-0.068
 20
9.0811
 30
5.747
 70
    64
  0
VERTEX
  5
464ED
100
AcDbEntity
  8
0
100
AcDbVertex
100
AcDbPolygonMeshVertex
 10
0.0
 20
9.0811
 30
5.747
 70
    64
  0
VERTEX
  5
464EE
100
AcDbEntity
  8
0
100
AcDbVertex
100
AcDbPolygonMeshVertex
 10
-0.068
 20
9.0811
 30
5.747
 70
    64
  0
VERTEX
  5
464EF
100
AcDbEntity
  8
0
100
AcDbVertex
100
AcDbPolygonMeshVertex
 10
-0.068
 20
9.0811
 30
5.747
 70
    64
  0
VERTEX
  5
464F0
100
AcDbEntity
  8
0
100
AcDbVertex
100
AcDbPolygonMeshVertex
 10
0.0
 20
9.0811
 30
5.747
 70
    64
  0
VERTEX
  5
464F1
100
AcDbEntity
  8
0
100
AcDbVertex
100
AcDbPolygonMeshVertex
 10
-0.068
 20
9.6931
 30
5.437
 70
    64
  0
VERTEX
  5
464F2
100
AcDbEntity
  8
0
100
AcDbVertex
100
AcDbPolygonMeshVertex
 10
-0.068
 20
9.6931
 30
5.437
 70
    64
  0
VERTEX
  5
464F3
100
AcDbEntity
  8
0
100
AcDbVertex
100
AcDbPolygonMeshVertex
 10
0.0
 20
9.6931
 30
5.437
 70
    64
  0
SEQEND
  5
464F4
100
AcDbEntity
  8
0
  0
CIRCLE
  5
464F5
100
AcDbEntity
  8
0
100
AcDbCircle
 10
9.586379
 20
5.592
 30
-0.068
 40
0.05206
210
1.0
220
0.0
230
0.0
  0
CIRCLE
  5
464F6
100
AcDbEntity
  8
0
100
AcDbCircle
 10
9.586379
 20
5.592
 30
0.136
 40
0.05206
210
1.0
220
0.0
230
0.0
  0
DIMENSION
  5
46514
100
AcDbEntity
  8
AREA1
100
AcDbDimension
  2
*D0
 10
1.301236
 20
10.0432
 30
0.0
 11
1.301236
 21
4.694307
 31
0.0
 70
    32
  3
ABECAD_3D
100
AcDbAlignedDimension
 13
-0.123077
 23
-0.654587
 33
5.88
 14
0.265
 24
10.0432
 34
5.747
 50
90.0
100
AcDbRotatedDimension
  0
DIMENSION
  5
46522
100
AcDbEntity
  8
AREA1
100
AcDbDimension
  2
*D1
 10
0.27
 20
10.82687
 30
0.0
 11
1.53
 21
10.82687
 31
0.0
 70
    32
  3
ABECAD_3D
100
AcDbAlignedDimension
 13
-0.89
 23
9.8
 33
0.0
 14
0.27
 24
9.8
 34
0.0
100
AcDbRotatedDimension
  0
LINE
  5
46565
100
AcDbEntity
  8
SCALE
100
AcDbLine
 10
-0.805549
 20
-1.343439
 30
0.0
 11
0.194451
 21
-1.343439
 31
0.0
  0
LINE
  5
46566
100
AcDbEntity
  8
SCALE
100
AcDbLine
 10
0.194451
 20
-1.343439
 30
0.0
 11
0.194451
 21
-1.443439
 31
0.0
  0
LINE
  5
46567
100
AcDbEntity
  8
SCALE
100
AcDbLine
 10
0.194451
 20
-1.443439
 30
0.0
 11
0.194451
 21
-1.243439
 31
0.0
  0
LINE
  5
46568
100
AcDbEntity
  8
SCALE
100
AcDbLine
 10
-0.805549
 20
-1.443439
 30
0.0
 11
-0.805549
 21
-1.243439
 31
0.0
  0
LINE
  5
46569
100
AcDbEntity
  8
SCALE
100
AcDbLine
 10
-0.805549
 20
-1.743439
 30
0.0
 11
-0.805549
 21
-1.543439
 31
0.0
  0
LINE
  5
4656A
100
AcDbEntity
  8
SCALE
100
AcDbLine
 10
-0.411849
 20
-1.743439
 30
0.0
 11
-0.411849
 21
-1.543439
 31
0.0
  0
LINE
  5
4656B
100
AcDbEntity
  8
SCALE
100
AcDbLine
 10
-0.805549
 20
-1.643439
 30
0.0
 11
-0.411849
 21
-1.643439
 31
0.0
  0
TEXT
  5
4656C
100
AcDbEntity
  8
SCALE
100
AcDbText
 10
-0.746127
 20
-1.597699
 30
0.0
 40
0.0625
  1
[10mm]
100
AcDbText
  0
TEXT
  5
4656D
100
AcDbEntity
  8
SCALE
100
AcDbText
 10
-0.442266
 20
-1.27439
 30
0.0
 40
0.0625
  1
1 Inch
100
AcDbText
  0
TEXT
  5
4656E
100
AcDbEntity
  8
SCALE
100
AcDbText
 10
-0.804019
 20
-1.068562
 30
0.0
 40
0.0625
  1
SCALE:
100
AcDbText
  0
LWPOLYLINE
  5
4656F
100
AcDbEntity
  8
SCALE
100
AcDbPolyline
 90
        4
 70
     1
 43
0.0
 10
-0.863548
 20
-0.96336
 10
0.272081
 20
-0.96336
 10
0.272081
 20
-1.80497
 10
-0.863548
 20
-1.80497
  0
ENDSEC
  0
SECTION
  2
OBJECTS
  0
DICTIONARY
  5
458CB
100
AcDbDictionary
  3
ACAD_GROUP
350
458CC
  3
ACAD_LAYOUT
350
458FB
  3
ACAD_MLINESTYLE
350
458D9
  3
ACAD_PLOTSETTINGS
350
458FC
  3
ACAD_PLOTSTYLENAME
350
458F9
  3
ACDBHEADERROUNDTRIPXREC
350
465DC
  3
ACDBVARIABLEDICTIONARY
350
458E1
  3
DWGPROPS
350
45901
  0
DICTIONARY
  5
465DA
100
AcDbDictionary
280
     1
  3
ACAD_XREC_ROUNDTRIP
360
465DB
  0
DICTIONARY
  5
46605
100
AcDbDictionary
280
     1
  3
ACAD_XREC_ROUNDTRIP
360
46606
  0
DICTIONARY
  5
465D8
100
AcDbDictionary
280
     1
  3
ACAD_XREC_ROUNDTRIP
360
465D9
  0
DICTIONARY
  5
465FF
100
AcDbDictionary
280
     1
  3
ACAD_XREC_ROUNDTRIP
360
46600
  0
DICTIONARY
  5
46601
100
AcDbDictionary
280
     1
  3
ACAD_XREC_ROUNDTRIP
360
46602
  0
DICTIONARY
  5
4592C
100
AcDbDictionary
280
     1
  3
ACAD_LAYOUTSELFREF
360
465FE
  0
DICTIONARY
  5
4592A
100
AcDbDictionary
280
     1
  3
ACAD_LAYOUTSELFREF
360
465FD
  0
DICTIONARY
  5
458CC
102
{ACAD_REACTORS
330
458CB
102
}
100
AcDbDictionary
  0
DICTIONARY
  5
458FB
102
{ACAD_XDICTIONARY
360
46603
102
}
102
{ACAD_REACTORS
330
458CB
102
}
100
AcDbDictionary
  3
LAYOUT1
350
458FE
  3
MODEL
350
458FD
  0
DICTIONARY
  5
458D9
102
{ACAD_REACTORS
330
458CB
102
}
100
AcDbDictionary
  3
STANDARD
350
458DA
  0
DICTIONARY
  5
458FC
102
{ACAD_REACTORS
330
458CB
102
}
100
AcDbDictionary
  0
ACAD_PROXY_OBJECT
  5
458F9
102
{ACAD_REACTORS
330
458CB
102
}
100
AcDbProxyObject
 90
      499
 91
      501
 93
       86
310
405010041939BDC9B585B0
350
458FA
340
458FA
 94
        0
  0
DICTIONARY
  5
465DC
102
{ACAD_REACTORS
330
458CB
102
}
100
AcDbDictionary
  3
CEPSNTYPE
350
465E6
  3
DIMSTYLEDATA
350
465EA
  3
FINGERPRINTGUID
350
465E7
  3
HYPERLINKBASE
350
465DF
  3
INSUNITS
350
465E5
  3
LAYOUTDICT
350
465E1
  3
LWETCUNION
350
465E4
  3
PLOTSETDICT
350
465E2
  3
PLOTSTYLNAMDICT
350
465E3
  3
PSVPSCALE
350
465E9
  3
PUCSBASE
350
465ED
  3
PUCSORGBACK
350
465F3
  3
PUCSORGBOTTOM
350
465EF
  3
PUCSORGFRONT
350
465F2
  3
PUCSORGLEFT
350
465F0
  3
PUCSORGRIGHT
350
465F1
  3
PUCSORGTOP
350
465EE
  3
PUCSORTHOREF
350
465EB
  3
PUCSORTHOVIEW
350
465EC
  3
STYLESHEET
350
465E0
  3
TSTACKALIGN
350
465DD
  3
TSTACKSIZE
350
465DE
  3
UCSBASE
350
465F6
  3
UCSORGBACK
350
465FC
  3
UCSORGBOTTOM
350
465F8
  3
UCSORGFRONT
350
465FB
  3
UCSORGLEFT
350
465F9
  3
UCSORGRIGHT
350
465FA
  3
UCSORGTOP
350
465F7
  3
UCSORTHOREF
350
465F4
  3
UCSORTHOVIEW
350
465F5
  3
VERSIONGUID
350
465E8
  0
DICTIONARY
  5
458E1
102
{ACAD_REACTORS
330
458CB
102
}
100
AcDbDictionary
  3
DIMADEC
350
458E2
  0
XRECORD
  5
45901
102
{ACAD_REACTORS
330
458CB
102
}
100
AcDbXrecord
  1
DWGPROPS COOKIE
  2

  3

  4

  6

  7

  8
colin
  9

300
=
301
=
302
=
303
=
304
=
305
=
306
=
307
=
308
=
309
=
 40
0.000599
 41
2451670.444777
 42
2451670.445376
  1

 90
        0
  0
XRECORD
  5
465DB
102
{ACAD_REACTORS
330
465DA
102
}
100
AcDbXrecord
102
EXTNAMES
  1
*ACTIVE
  2
*Active
102
UCS
 74
     0
 71
     1
 10
0.0
 20
0.0
 30
0.0
 10
1.0
 20
0.0
 30
0.0
 10
0.0
 20
1.0
 30
0.0
146
0.0
 79
     1
102
VIEW
281
     0
  0
XRECORD
  5
46606
102
{ACAD_REACTORS
330
46605
102
}
100
AcDbXrecord
102
PLOTBIT
280
     0
  0
XRECORD
  5
465D9
102
{ACAD_REACTORS
330
465D8
102
}
100
AcDbXrecord
102
EXTNAMES
  1
DEFPOINTS
  2
Defpoints
102
PLOTBIT
280
     0
  0
XRECORD
  5
46600
102
{ACAD_REACTORS
330
465FF
102
}
100
AcDbXrecord
102
ACADR14ROUNDTRIP
1000
DSTYLE
1002
{
1070
   276
 70
     2
1070
   277
 70
     5
1002
}
  0
XRECORD
  5
46602
102
{ACAD_REACTORS
330
46601
102
}
100
AcDbXrecord
102
ACADR14ROUNDTRIP
1000
DSTYLE
1002
{
1070
   276
 70
     2
1070
   277
 70
     5
1002
}
  0
XRECORD
  5
465FE
102
{ACAD_REACTORS
330
4592C
102
}
100
AcDbXrecord
340
458D6
  0
XRECORD
  5
465FD
102
{ACAD_REACTORS
330
4592A
102
}
100
AcDbXrecord
340
458D3
  0
DICTIONARY
  5
46603
100
AcDbDictionary
280
     1
  3
ACAD_XREC_ROUNDTRIP
360
46604
  0
ACAD_PROXY_OBJECT
  5
458FE
102
{ACAD_REACTORS
330
458FB
102
}
100
AcDbProxyObject
 90
      499
 91
      503
 93
     1348
310
91D4850204C617365724A65742035303030205365726965732050434C20362C00AAAAAA416AA547D11959985D5B1D08148C4D081C195B88185CDCDA59DB9B595B9D1CCB98DD1891069074C61796F75743140501A800000000000000000000000000000000000000000000A1000000000000008902A6A6A10232D5E076BC551
310
0408CB5781DAF154410232D5E076BC5510408CB5781DAF15C410232D5E076BC5710408CB5781DAF15C40
330
458D3
330
0
340
0
340
0
 94
        0
  0
ACAD_PROXY_OBJECT
  5
458FD
102
{ACAD_REACTORS
330
458FB
102
}
100
AcDbProxyObject
 90
      499
 91
      503
 93
      924
310
91D4850204C617365724A65742035303030205365726965732050434C20362C01AAAAAAAAA547D11959985D5B1D08148C4D081C195B88185CDCDA59DB9B595B9D1CCB98DD18A69054D6F64656C901A800000000000000000000000000000000000000000000A1000000000000008902A6A6AAAA0
330
458D6
330
0
340
0
340
0
 94
        0
  0
MLINESTYLE
  5
458DA
102
{ACAD_REACTORS
330
458D9
102
}
100
AcDbMlineStyle
  2
STANDARD
 70
     0
  3

 62
   256
 51
90.0
 52
90.0
 71
     2
 49
0.5
 62
   256
  6
BYLAYER
 49
-0.5
 62
   256
  6
BYLAYER
  0
ACAD_PROXY_OBJECT
  5
458FA
102
{ACAD_REACTORS
330
458F9
102
}
100
AcDbProxyObject
 90
      499
 91
      502
 93
        0
 94
        0
  0
XRECORD
  5
465E6
102
{ACAD_REACTORS
330
465DC
102
}
100
AcDbXrecord
 90
        0
  0
XRECORD
  5
465EA
102
{ACAD_REACTORS
330
465DC
102
}
100
AcDbXrecord
1000
DSTYLE
1002
{
1070
   276
 70
     2
1070
   277
 70
     5
1002
}
  0
XRECORD
  5
465E7
102
{ACAD_REACTORS
330
465DC
102
}
100
AcDbXrecord
  1
{6E0CF4B8-225E-11D4-A150-00A0CC3303EC}
  0
XRECORD
  5
465DF
102
{ACAD_REACTORS
330
465DC
102
}
100
AcDbXrecord
  1

  0
XRECORD
  5
465E5
102
{ACAD_REACTORS
330
465DC
102
}
100
AcDbXrecord
 90
        0
  0
XRECORD
  5
465E1
102
{ACAD_REACTORS
330
465DC
102
}
100
AcDbXrecord
340
458FB
  0
XRECORD
  5
465E4
102
{ACAD_REACTORS
330
465DC
102
}
100
AcDbXrecord
 90
    14877
  0
XRECORD
  5
465E2
102
{ACAD_REACTORS
330
465DC
102
}
100
AcDbXrecord
340
458FC
  0
XRECORD
  5
465E3
102
{ACAD_REACTORS
330
465DC
102
}
100
AcDbXrecord
340
458F9
  0
XRECORD
  5
465E9
102
{ACAD_REACTORS
330
465DC
102
}
100
AcDbXrecord
 40
0.0
  0
XRECORD
  5
465ED
102
{ACAD_REACTORS
330
465DC
102
}
100
AcDbXrecord
340
0
  0
XRECORD
  5
465F3
102
{ACAD_REACTORS
330
465DC
102
}
100
AcDbXrecord
 10
0.0
 20
0.0
 30
0.0
  0
XRECORD
  5
465EF
102
{ACAD_REACTORS
330
465DC
102
}
100
AcDbXrecord
 10
0.0
 20
0.0
 30
0.0
  0
XRECORD
  5
465F2
102
{ACAD_REACTORS
330
465DC
102
}
100
AcDbXrecord
 10
0.0
 20
0.0
 30
0.0
  0
XRECORD
  5
465F0
102
{ACAD_REACTORS
330
465DC
102
}
100
AcDbXrecord
 10
0.0
 20
0.0
 30
0.0
  0
XRECORD
  5
465F1
102
{ACAD_REACTORS
330
465DC
102
}
100
AcDbXrecord
 10
0.0
 20
0.0
 30
0.0
  0
XRECORD
  5
465EE
102
{ACAD_REACTORS
330
465DC
102
}
100
AcDbXrecord
 10
0.0
 20
0.0
 30
0.0
  0
XRECORD
  5
465EB
102
{ACAD_REACTORS
330
465DC
102
}
100
AcDbXrecord
340
0
  0
XRECORD
  5
465EC
102
{ACAD_REACTORS
330
465DC
102
}
100
AcDbXrecord
 70
     0
  0
XRECORD
  5
465E0
102
{ACAD_REACTORS
330
465DC
102
}
100
AcDbXrecord
  1

  0
XRECORD
  5
465DD
102
{ACAD_REACTORS
330
465DC
102
}
100
AcDbXrecord
 90
        1
  0
XRECORD
  5
465DE
102
{ACAD_REACTORS
330
465DC
102
}
100
AcDbXrecord
 90
       70
  0
XRECORD
  5
465F6
102
{ACAD_REACTORS
330
465DC
102
}
100
AcDbXrecord
340
0
  0
XRECORD
  5
465FC
102
{ACAD_REACTORS
330
465DC
102
}
100
AcDbXrecord
 10
0.0
 20
0.0
 30
0.0
  0
XRECORD
  5
465F8
102
{ACAD_REACTORS
330
465DC
102
}
100
AcDbXrecord
 10
0.0
 20
0.0
 30
0.0
  0
XRECORD
  5
465FB
102
{ACAD_REACTORS
330
465DC
102
}
100
AcDbXrecord
 10
0.0
 20
0.0
 30
0.0
  0
XRECORD
  5
465F9
102
{ACAD_REACTORS
330
465DC
102
}
100
AcDbXrecord
 10
0.0
 20
0.0
 30
0.0
  0
XRECORD
  5
465FA
102
{ACAD_REACTORS
330
465DC
102
}
100
AcDbXrecord
 10
0.0
 20
0.0
 30
0.0
  0
XRECORD
  5
465F7
102
{ACAD_REACTORS
330
465DC
102
}
100
AcDbXrecord
 10
0.0
 20
0.0
 30
0.0
  0
XRECORD
  5
465F4
102
{ACAD_REACTORS
330
465DC
102
}
100
AcDbXrecord
340
0
  0
XRECORD
  5
465F5
102
{ACAD_REACTORS
330
465DC
102
}
100
AcDbXrecord
 70
     1
  0
XRECORD
  5
465E8
102
{ACAD_REACTORS
330
465DC
102
}
100
AcDbXrecord
  1
{3F856010-2079-4956-A515-DC6B789CCAED}
  0
DICTIONARYVAR
  5
458E2
102
{ACAD_REACTORS
330
458E1
102
}
100
DictionaryVariables
280
     0
  1
0
  0
XRECORD
  5
46604
102
{ACAD_REACTORS
330
46603
102
}
100
AcDbXrecord
102
EXTNAMES
  1
LAYOUT1
  2
Layout1
  1
MODEL
  2
Model
  0
ENDSEC
  0
EOF
