  0
SECTION
  2
HEADER
  9
$ACADVER
  1
AC1014
  9
$ACADMAINTVER
 70
     8
  9
$DWGCODEPAGE
  3
ANSI_1252
  9
$INSBASE
 10
0.0
 20
0.0
 30
0.0
  9
$EXTMIN
 10
-1.972799
 20
-1.825331
 30
0.0
  9
$EXTMAX
 10
2.447
 20
10.905668
 30
5.880973
  9
$LIMMIN
 10
0.0
 20
0.0
  9
$LIMMAX
 10
12.0
 20
9.0
  9
$ORTHOMODE
 70
     0
  9
$REGENMODE
 70
     1
  9
$FILLMODE
 70
     1
  9
$QTEXTMODE
 70
     0
  9
$MIRRTEXT
 70
     1
  9
$DRAGMODE
 70
     2
  9
$LTSCALE
 40
1.0
  9
$OSMODE
 70
    37
  9
$ATTMODE
 70
     0
  9
$TEXTSIZE
 40
0.2
  9
$TRACEWID
 40
0.05
  9
$TEXTSTYLE
  7
STANDARD
  9
$CLAYER
  8
0
  9
$CELTYPE
  6
BYLAYER
  9
$CECOLOR
 62
   256
  9
$CELTSCALE
 40
1.0
  9
$DELOBJ
 70
     1
  9
$DISPSILH
 70
     0
  9
$DIMSCALE
 40
0.0
  9
$DIMASZ
 40
0.179688
  9
$DIMEXO
 40
0.0625
  9
$DIMDLI
 40
0.375
  9
$DIMRND
 40
0.0
  9
$DIMDLE
 40
0.0
  9
$DIMEXE
 40
0.179688
  9
$DIMTP
 40
0.0
  9
$DIMTM
 40
0.0
  9
$DIMTXT
 40
0.125
  9
$DIMCEN
 40
0.089844
  9
$DIMTSZ
 40
0.0
  9
$DIMTOL
 70
     0
  9
$DIMLIM
 70
     0
  9
$DIMTIH
 70
     0
  9
$DIMTOH
 70
     0
  9
$DIMSE1
 70
     0
  9
$DIMSE2
 70
     0
  9
$DIMTAD
 70
     0
  9
$DIMZIN
 70
     4
  9
$DIMBLK
  1

  9
$DIMASO
 70
     1
  9
$DIMSHO
 70
     1
  9
$DIMPOST
  1

  9
$DIMAPOST
  1

  9
$DIMALT
 70
     1
  9
$DIMALTD
 70
     1
  9
$DIMALTF
 40
25.4
  9
$DIMLFAC
 40
1.0
  9
$DIMTOFL
 70
     0
  9
$DIMTVP
 40
0.0
  9
$DIMTIX
 70
     1
  9
$DIMSOXD
 70
     0
  9
$DIMSAH
 70
     0
  9
$DIMBLK1
  1

  9
$DIMBLK2
  1

  9
$DIMSTYLE
  2
ABECAD_3V
  9
$DIMCLRD
 70
     0
  9
$DIMCLRE
 70
     0
  9
$DIMCLRT
 70
     0
  9
$DIMTFAC
 40
1.5
  9
$DIMGAP
 40
0.09375
  9
$DIMJUST
 70
     0
  9
$DIMSD1
 70
     0
  9
$DIMSD2
 70
     0
  9
$DIMTOLJ
 70
     1
  9
$DIMTZIN
 70
     4
  9
$DIMALTZ
 70
     4
  9
$DIMALTTZ
 70
     4
  9
$DIMFIT
 70
     5
  9
$DIMUPT
 70
     0
  9
$DIMUNIT
 70
     7
  9
$DIMDEC
 70
     6
  9
$DIMTDEC
 70
     6
  9
$DIMALTU
 70
     2
  9
$DIMALTTD
 70
     1
  9
$DIMTXSTY
  7
STANDARD
  9
$DIMAUNIT
 70
     0
  9
$LUNITS
 70
     5
  9
$LUPREC
 70
     6
  9
$SKETCHINC
 40
0.1
  9
$FILLETRAD
 40
0.0
  9
$AUNITS
 70
     0
  9
$AUPREC
 70
     0
  9
$MENU
  1
acad
  9
$ELEVATION
 40
0.0
  9
$PELEVATION
 40
0.0
  9
$THICKNESS
 40
0.0
  9
$LIMCHECK
 70
     0
  9
$BLIPMODE
 70
     0
  9
$CHAMFERA
 40
0.0
  9
$CHAMFERB
 40
0.0
  9
$CHAMFERC
 40
0.0
  9
$CHAMFERD
 40
0.0
  9
$SKPOLY
 70
     0
  9
$TDCREATE
 40
2451670.441490278
  9
$TDUPDATE
 40
2452010.727336805
  9
$TDINDWG
 40
0.0064450231
  9
$TDUSRTIMER
 40
0.0064450231
  9
$USRTIMER
 70
     1
  9
$ANGBASE
 50
0.0
  9
$ANGDIR
 70
     0
  9
$PDMODE
 70
     2
  9
$PDSIZE
 40
0.0
  9
$PLINEWID
 40
0.0
  9
$COORDS
 70
     1
  9
$SPLFRAME
 70
     0
  9
$SPLINETYPE
 70
     6
  9
$SPLINESEGS
 70
     8
  9
$ATTDIA
 70
     0
  9
$ATTREQ
 70
     1
  9
$HANDLING
 70
     1
  9
$HANDSEED
  5
C5C
  9
$SURFTAB1
 70
     6
  9
$SURFTAB2
 70
     6
  9
$SURFTYPE
 70
     6
  9
$SURFU
 70
     6
  9
$SURFV
 70
     6
  9
$UCSNAME
  2

  9
$UCSORG
 10
0.0
 20
0.0
 30
0.0
  9
$UCSXDIR
 10
1.0
 20
0.0
 30
0.0
  9
$UCSYDIR
 10
0.0
 20
0.0
 30
1.0
  9
$PUCSNAME
  2

  9
$PUCSORG
 10
0.0
 20
0.0
 30
0.0
  9
$PUCSXDIR
 10
1.0
 20
0.0
 30
0.0
  9
$PUCSYDIR
 10
0.0
 20
1.0
 30
0.0
  9
$USERI1
 70
     0
  9
$USERI2
 70
     0
  9
$USERI3
 70
     0
  9
$USERI4
 70
     0
  9
$USERI5
 70
     0
  9
$USERR1
 40
0.0
  9
$USERR2
 40
0.0
  9
$USERR3
 40
0.0
  9
$USERR4
 40
0.0
  9
$USERR5
 40
0.0
  9
$WORLDVIEW
 70
     1
  9
$SHADEDGE
 70
     3
  9
$SHADEDIF
 70
    70
  9
$TILEMODE
 70
     0
  9
$MAXACTVP
 70
    16
  9
$PINSBASE
 10
0.0
 20
0.0
 30
0.0
  9
$PLIMCHECK
 70
     0
  9
$PEXTMIN
 10
0.0
 20
0.0
 30
0.0
  9
$PEXTMAX
 10
10.0
 20
7.5
 30
0.0
  9
$PLIMMIN
 10
-0.187029
 20
-0.186938
  9
$PLIMMAX
 10
10.187518
 20
7.829757
  9
$UNITMODE
 70
     0
  9
$VISRETAIN
 70
     0
  9
$PLINEGEN
 70
     0
  9
$PSLTSCALE
 70
     1
  9
$TREEDEPTH
 70
  3020
  9
$PICKSTYLE
 70
     1
  9
$CMLSTYLE
  2
STANDARD
  9
$CMLJUST
 70
     0
  9
$CMLSCALE
 40
1.0
  9
$PROXYGRAPHICS
 70
     1
  9
$MEASUREMENT
 70
     0
  0
ENDSEC
  0
SECTION
  2
CLASSES
  0
CLASS
  1
DICTIONARYVAR
  2
AcDbDictionaryVar
  3
"AutoCAD"
 90
        0
280
     0
281
     0
  0
CLASS
  1
ACDBDICTIONARYWDFLT
  2
AcDbDictionaryWithDefault
  3
AutoCAD 2000
 90
        0
280
     0
281
     0
  0
CLASS
  1
ACDBPLACEHOLDER
  2
AcDbPlaceHolder
  3
AutoCAD 2000
 90
        0
280
     0
281
     0
  0
CLASS
  1
LAYOUT
  2
AcDbLayout
  3
AutoCAD 2000
 90
        0
280
     0
281
     0
  0
CLASS
  1
LONG_TRANSACTION
  2
AcDbLongTransaction
  3
AutoCAD 2000
 90
        0
280
     0
281
     0
  0
CLASS
  1
LWPOLYLINE
  2
AcDbPolyline
  3
"AutoCAD"
 90
        0
280
     0
281
     1
  0
CLASS
  1
HATCH
  2
AcDbHatch
  3
"ACAD_SEDONA"
 90
        0
280
     0
281
     1
  0
CLASS
  1
XRECORD
  2
AcDbXrecord
  3
"<Built In>"
 90
        0
280
     0
281
     0
  0
CLASS
  1
LONG_TRANSACTION
  2
AcDbLongTransaction
  3
AutoCAD 2000
 90
        0
280
     0
281
     0
  0
CLASS
  1
LWPOLYLINE
  2
AcDbPolyline
  3
"AutoCAD"
 90
        0
280
     0
281
     1
  0
CLASS
  1
HATCH
  2
AcDbHatch
  3
"ACAD_SEDONA"
 90
        0
280
     0
281
     1
  0
CLASS
  1
XRECORD
  2
AcDbXrecord
  3
"<Built In>"
 90
        0
280
     0
281
     0
  0
CLASS
  1
LONG_TRANSACTION
  2
AcDbLongTransaction
  3
AutoCAD 2000
 90
        0
280
     0
281
     0
  0
CLASS
  1
LWPOLYLINE
  2
AcDbPolyline
  3
"AutoCAD"
 90
        0
280
     0
281
     1
  0
CLASS
  1
HATCH
  2
AcDbHatch
  3
"ACAD_SEDONA"
 90
        0
280
     0
281
     1
  0
CLASS
  1
XRECORD
  2
AcDbXrecord
  3
"<Built In>"
 90
        0
280
     0
281
     0
  0
CLASS
  1
LONG_TRANSACTION
  2
AcDbLongTransaction
  3
AutoCAD 2000
 90
        0
280
     0
281
     0
  0
CLASS
  1
LWPOLYLINE
  2
AcDbPolyline
  3
"AutoCAD"
 90
        0
280
     0
281
     1
  0
CLASS
  1
HATCH
  2
AcDbHatch
  3
"ACAD_SEDONA"
 90
        0
280
     0
281
     1
  0
CLASS
  1
XRECORD
  2
AcDbXrecord
  3
"<Built In>"
 90
        0
280
     0
281
     0
  0
CLASS
  1
LONG_TRANSACTION
  2
AcDbLongTransaction
  3
AutoCAD 2000
 90
        0
280
     0
281
     0
  0
CLASS
  1
LWPOLYLINE
  2
AcDbPolyline
  3
"AutoCAD"
 90
        0
280
     0
281
     1
  0
CLASS
  1
HATCH
  2
AcDbHatch
  3
"ACAD_SEDONA"
 90
        0
280
     0
281
     1
  0
CLASS
  1
XRECORD
  2
AcDbXrecord
  3
"<Built In>"
 90
        0
280
     0
281
     0
  0
CLASS
  1
LONG_TRANSACTION
  2
AcDbLongTransaction
  3
AutoCAD 2000
 90
        0
280
     0
281
     0
  0
CLASS
  1
LWPOLYLINE
  2
AcDbPolyline
  3
"AutoCAD"
 90
        0
280
     0
281
     1
  0
CLASS
  1
HATCH
  2
AcDbHatch
  3
"ACAD_SEDONA"
 90
        0
280
     0
281
     1
  0
CLASS
  1
XRECORD
  2
AcDbXrecord
  3
"<Built In>"
 90
        0
280
     0
281
     0
  0
ENDSEC
  0
SECTION
  2
TABLES
  0
TABLE
  2
VPORT
  5
469
100
AcDbSymbolTable
 70
     1
  0
VPORT
  5
B63
102
{ACAD_XDICTIONARY
360
C22
102
}
100
AcDbSymbolTableRecord
100
AcDbViewportTableRecord
  2
*ACTIVE
 70
     0
 10
0.0
 20
0.0
 11
1.0
 21
1.0
 12
0.2371
 22
4.540168
 13
0.0
 23
0.0
 14
1.0
 24
1.0
 15
0.0
 25
0.0
 16
0.0
 26
0.0
 36
1.0
 17
0.0
 27
0.0
 37
0.0
 40
12.997152
 41
2.531469
 42
50.0
 43
0.0
 44
0.0
 50
0.0
 51
0.0
 71
     0
 72
   100
 73
     1
 74
     1
 75
     0
 76
     0
 77
     0
 78
     0
  0
ENDTAB
  0
TABLE
  2
LTYPE
  5
466
100
AcDbSymbolTable
 70
     1
  0
LTYPE
  5
472
100
AcDbSymbolTableRecord
100
AcDbLinetypeTableRecord
  2
BYBLOCK
 70
     0
  3

 72
    65
 73
     0
 40
0.0
  0
LTYPE
  5
473
100
AcDbSymbolTableRecord
100
AcDbLinetypeTableRecord
  2
BYLAYER
 70
     0
  3

 72
    65
 73
     0
 40
0.0
  0
LTYPE
  5
474
100
AcDbSymbolTableRecord
100
AcDbLinetypeTableRecord
  2
CONTINUOUS
 70
     0
  3
Solid line
 72
    65
 73
     0
 40
0.0
  0
ENDTAB
  0
TABLE
  2
LAYER
  5
463
100
AcDbSymbolTable
 70
     8
  0
LAYER
  5
46F
100
AcDbSymbolTableRecord
100
AcDbLayerTableRecord
  2
0
 70
     0
 62
     7
  6
CONTINUOUS
  0
LAYER
  5
485
100
AcDbSymbolTableRecord
100
AcDbLayerTableRecord
  2
AREA1
 70
     0
 62
     7
  6
CONTINUOUS
  0
LAYER
  5
486
100
AcDbSymbolTableRecord
100
AcDbLayerTableRecord
  2
AREA2
 70
     0
 62
     7
  6
CONTINUOUS
  0
LAYER
  5
494
102
{ACAD_XDICTIONARY
360
C4F
102
}
100
AcDbSymbolTableRecord
100
AcDbLayerTableRecord
  2
DEFPOINTS
 70
     0
 62
    -7
  6
CONTINUOUS
  0
LAYER
  5
495
100
AcDbSymbolTableRecord
100
AcDbLayerTableRecord
  2
DIMS-MTG-HOLES
 70
     0
 62
    -1
  6
CONTINUOUS
  0
LAYER
  5
4E9
100
AcDbSymbolTableRecord
100
AcDbLayerTableRecord
  2
SCALE
 70
     0
 62
    -7
  6
CONTINUOUS
  0
LAYER
  5
4EA
100
AcDbSymbolTableRecord
100
AcDbLayerTableRecord
  2
SNAP_POINTS
 70
     0
 62
    -1
  6
CONTINUOUS
  0
LAYER
  5
56D
100
AcDbSymbolTableRecord
100
AcDbLayerTableRecord
  2
ATTRIBUTES
 70
     0
 62
    -7
  6
CONTINUOUS
  0
ENDTAB
  0
TABLE
  2
STYLE
  5
464
100
AcDbSymbolTable
 70
     1
  0
STYLE
  5
470
100
AcDbSymbolTableRecord
100
AcDbTextStyleTableRecord
  2
STANDARD
 70
     0
 40
0.0
 41
1.0
 50
0.0
 71
     0
 42
0.2
  3
txt
  4

  0
ENDTAB
  0
TABLE
  2
VIEW
  5
467
100
AcDbSymbolTable
 70
     0
  0
ENDTAB
  0
TABLE
  2
UCS
  5
468
100
AcDbSymbolTable
 70
     0
  0
ENDTAB
  0
TABLE
  2
APPID
  5
46A
100
AcDbSymbolTable
 70
     2
  0
APPID
  5
471
100
AcDbSymbolTableRecord
100
AcDbRegAppTableRecord
  2
ACAD
 70
     0
  0
APPID
  5
47E
100
AcDbSymbolTableRecord
100
AcDbRegAppTableRecord
  2
AVE_RENDER
 70
     0
  0
ENDTAB
  0
TABLE
  2
DIMSTYLE
  5
46B
100
AcDbSymbolTable
 70
     3
  0
DIMSTYLE
105
496
102
{ACAD_XDICTIONARY
360
C51
102
}
100
AcDbSymbolTableRecord
100
AcDbDimStyleTableRecord
  2
ABECAD
 70
     0
  3

  4

  5

  6

  7

 40
0.0
 41
0.179688
 42
0.0625
 43
0.375
 44
0.179688
 45
0.0
 46
0.0
 47
0.0
 48
0.0
140
0.125
141
0.089844
142
0.0
143
25.4
144
1.0
145
0.0
146
1.5
147
0.09375
 71
     0
 72
     0
 73
     0
 74
     0
 75
     0
 76
     0
 77
     0
 78
     4
170
     1
171
     1
172
     0
173
     0
174
     1
175
     0
176
     0
177
     0
178
     0
270
     7
271
     6
272
     6
273
     2
274
     1
340
470
275
     0
280
     0
281
     0
282
     0
283
     1
284
     4
285
     4
286
     4
287
     5
288
     0
  0
DIMSTYLE
105
49A
102
{ACAD_XDICTIONARY
360
C53
102
}
102
{ACAD_REACTORS
330
B55
102
}
100
AcDbSymbolTableRecord
100
AcDbDimStyleTableRecord
  2
ABECAD_3V
 70
     0
  3

  4

  5

  6

  7

 40
0.0
 41
0.179688
 42
0.0625
 43
0.375
 44
0.179688
 45
0.0
 46
0.0
 47
0.0
 48
0.0
140
0.125
141
0.089844
142
0.0
143
25.4
144
1.0
145
0.0
146
1.5
147
0.09375
 71
     0
 72
     0
 73
     0
 74
     0
 75
     0
 76
     0
 77
     0
 78
     4
170
     1
171
     1
172
     0
173
     0
174
     1
175
     0
176
     0
177
     0
178
     0
270
     7
271
     6
272
     6
273
     2
274
     1
340
470
275
     0
280
     0
281
     0
282
     0
283
     1
284
     4
285
     4
286
     4
287
     5
288
     0
  0
DIMSTYLE
105
56E
102
{ACAD_XDICTIONARY
360
C57
102
}
102
{ACAD_REACTORS
330
B45
330
B46
102
}
100
AcDbSymbolTableRecord
100
AcDbDimStyleTableRecord
  2
ABECAD_3D
 70
     0
  3

  4

  5

  6

  7

 40
1.0
 41
0.18
 42
0.0625
 43
0.375
 44
0.18
 45
0.0
 46
0.0
 47
0.0
 48
0.0
140
0.18
141
0.09
142
0.0
143
25.4
144
1.0
145
0.0
146
1.5
147
0.09
 71
     0
 72
     0
 73
     0
 74
     1
 75
     0
 76
     0
 77
     0
 78
     4
170
     1
171
     1
172
     0
173
     0
174
     0
175
     0
176
     0
177
     0
178
     0
270
     7
271
     6
272
     6
273
     2
274
     1
340
470
275
     0
280
     0
281
     0
282
     0
283
     1
284
     4
285
     4
286
     4
287
     3
288
     0
  0
ENDTAB
  0
TABLE
  2
BLOCK_RECORD
  5
462
100
AcDbSymbolTable
 70
     5
  0
BLOCK_RECORD
  5
478
102
{ACAD_XDICTIONARY
360
4D2
102
}
100
AcDbSymbolTableRecord
100
AcDbBlockTableRecord
  2
*MODEL_SPACE
  0
BLOCK_RECORD
  5
475
102
{ACAD_XDICTIONARY
360
4D0
102
}
100
AcDbSymbolTableRecord
100
AcDbBlockTableRecord
  2
*PAPER_SPACE
  0
BLOCK_RECORD
  5
545
100
AcDbSymbolTableRecord
100
AcDbBlockTableRecord
  2
*D0
  0
BLOCK_RECORD
  5
552
100
AcDbSymbolTableRecord
100
AcDbBlockTableRecord
  2
*D1
  0
BLOCK_RECORD
  5
55F
102
{ACAD_XDICTIONARY
360
C1E
102
}
100
AcDbSymbolTableRecord
100
AcDbBlockTableRecord
  2
SCALE
1001
ACAD
1000
DesignCenter Data
1002
{
1070
     1
1070
     1
1002
}
  0
BLOCK_RECORD
  5
56F
102
{ACAD_XDICTIONARY
360
C20
102
}
100
AcDbSymbolTableRecord
100
AcDbBlockTableRecord
  2
ABIOE060
  0
BLOCK_RECORD
  5
B56
100
AcDbSymbolTableRecord
100
AcDbBlockTableRecord
  2
*D4
  0
ENDTAB
  0
ENDSEC
  0
SECTION
  2
BLOCKS
  0
BLOCK
  5
48B
100
AcDbEntity
  8
0
100
AcDbBlockBegin
  2
*MODEL_SPACE
 70
     0
 10
0.0
 20
0.0
 30
0.0
  3
*MODEL_SPACE
  1

  0
ENDBLK
  5
48C
100
AcDbEntity
  8
0
100
AcDbBlockEnd
  0
BLOCK
  5
489
100
AcDbEntity
 67
     1
  8
0
100
AcDbBlockBegin
  2
*PAPER_SPACE
 70
     0
 10
0.0
 20
0.0
 30
0.0
  3
*PAPER_SPACE
  1

  0
ENDBLK
  5
48A
100
AcDbEntity
 67
     1
  8
0
100
AcDbBlockEnd
  0
BLOCK
  5
550
100
AcDbEntity
  8
0
100
AcDbBlockBegin
  2
*D0
 70
     1
 10
0.0
 20
0.0
 30
0.0
  3
*D0
  1

  0
LINE
  5
546
100
AcDbEntity
  8
AREA1
 62
     0
100
AcDbLine
 10
-0.128577
 20
-0.654587
 30
0.0
 11
1.220454
 21
-0.654587
 31
0.0
1001
ACAD
1000
RTLwPs
1070
   158
  0
LINE
  5
547
100
AcDbEntity
  8
AREA1
 62
     0
100
AcDbLine
 10
0.2595
 20
10.0432
 30
0.0
 11
1.220454
 21
10.0432
 31
0.0
1001
ACAD
1000
RTLwPs
1070
   158
  0
LINE
  5
548
100
AcDbEntity
  8
AREA1
 62
     0
100
AcDbLine
 10
1.040454
 20
-0.474587
 30
0.0
 11
1.040454
 21
3.389307
 31
0.0
1001
ACAD
1000
RTLwPs
1070
   158
  0
LINE
  5
549
100
AcDbEntity
  8
AREA1
 62
     0
100
AcDbLine
 10
1.040454
 20
9.8632
 30
0.0
 11
1.040454
 21
5.999307
 31
0.0
1001
ACAD
1000
RTLwPs
1070
   158
  0
SOLID
  5
54A
100
AcDbEntity
  8
AREA1
 62
     0
100
AcDbTrace
 10
1.010454
 20
-0.474587
 30
0.0
 11
1.070454
 21
-0.474587
 31
0.0
 12
1.040454
 22
-0.654587
 32
0.0
 13
1.040454
 23
-0.654587
 33
0.0
  0
SOLID
  5
54B
100
AcDbEntity
  8
AREA1
 62
     0
100
AcDbTrace
 10
1.010454
 20
9.8632
 30
0.0
 11
1.070454
 21
9.8632
 31
0.0
 12
1.040454
 22
10.0432
 32
0.0
 13
1.040454
 23
10.0432
 33
0.0
  0
MTEXT
  5
54C
100
AcDbEntity
  8
AREA1
 62
     0
100
AcDbMText
 10
1.040454
 20
4.694307
 30
0.0
 40
0.18
 41
0.0
 71
     5
 72
     1
  1
\A1;10 45/64 [271.7]
 11
0.0
 21
1.0
 31
0.0
1001
ACAD
1000
MTEXTBEGIN
1070
    73
1070
     1
1070
    44
1040
1.0
1070
    74
1070
     0
1000
MTEXTEND
1000
MTEXTBEGIN
1070
    73
1070
     1
1070
    44
1040
1.0
1070
    74
1070
     0
1000
MTEXTEND
1000
MTEXTBEGIN
1070
    73
1070
     1
1070
    44
1040
1.0
1070
    74
1070
     0
1000
MTEXTEND
1000
MTEXTBEGIN
1070
    73
1070
     1
1070
    44
1040
1.0
1070
    74
1070
     0
1000
MTEXTEND
1000
MTEXTBEGIN
1070
    73
1070
     1
1070
    44
1040
1.0
1070
    74
1070
     0
1000
MTEXTEND
1000
MTEXTBEGIN
1070
    73
1070
     1
1070
    44
1040
1.0
1070
    74
1070
     0
1000
MTEXTEND
1000
MTEXTBEGIN
1070
    73
1070
     1
1070
    44
1040
1.0
1070
    74
1070
     0
1000
MTEXTEND
  0
POINT
  5
54D
100
AcDbEntity
  8
DEFPOINTS
 62
     0
100
AcDbPoint
 10
-0.191077
 20
-0.654587
 30
5.88
  0
POINT
  5
54E
100
AcDbEntity
  8
DEFPOINTS
 62
     0
100
AcDbPoint
 10
0.197
 20
10.0432
 30
5.747
  0
POINT
  5
54F
100
AcDbEntity
  8
DEFPOINTS
 62
     0
100
AcDbPoint
 10
1.040454
 20
10.0432
 30
0.0
  0
ENDBLK
  5
551
100
AcDbEntity
  8
0
100
AcDbBlockEnd
  0
BLOCK
  5
55D
100
AcDbEntity
  8
0
100
AcDbBlockBegin
  2
*D1
 70
     1
 10
0.0
 20
0.0
 30
0.0
  3
*D1
  1

  0
LINE
  5
553
100
AcDbEntity
  8
AREA1
 62
     0
100
AcDbLine
 10
-0.958
 20
9.8625
 30
0.0
 11
-0.958
 21
10.905668
 31
0.0
1001
ACAD
1000
RTLwPs
1070
   158
  0
LINE
  5
554
100
AcDbEntity
  8
AREA1
 62
     0
100
AcDbLine
 10
0.197
 20
10.1057
 30
0.0
 11
0.197
 21
10.905668
 31
0.0
1001
ACAD
1000
RTLwPs
1070
   158
  0
LINE
  5
555
100
AcDbEntity
  8
AREA1
 62
     0
100
AcDbLine
 10
-0.778
 20
10.725668
 30
0.0
 11
0.017
 21
10.725668
 31
0.0
1001
ACAD
1000
RTLwPs
1070
   158
  0
LINE
  5
556
100
AcDbEntity
  8
AREA1
 62
     0
100
AcDbLine
 10
0.197
 20
10.725668
 30
0.0
 11
0.377
 21
10.725668
 31
0.0
1001
ACAD
1000
RTLwPs
1070
   158
  0
SOLID
  5
557
100
AcDbEntity
  8
AREA1
 62
     0
100
AcDbTrace
 10
-0.778
 20
10.755668
 30
0.0
 11
-0.778
 21
10.695668
 31
0.0
 12
-0.958
 22
10.725668
 32
0.0
 13
-0.958
 23
10.725668
 33
0.0
  0
SOLID
  5
558
100
AcDbEntity
  8
AREA1
 62
     0
100
AcDbTrace
 10
0.017
 20
10.755668
 30
0.0
 11
0.017
 21
10.695668
 31
0.0
 12
0.197
 22
10.725668
 32
0.0
 13
0.197
 23
10.725668
 33
0.0
  0
MTEXT
  5
559
100
AcDbEntity
  8
AREA1
 62
     0
100
AcDbMText
 10
1.457
 20
10.725668
 30
0.0
 40
0.18
 41
0.0
 71
     5
 72
     1
  1
\A1;1 5/32 [29.3]
1001
ACAD
1000
MTEXTBEGIN
1070
    73
1070
     1
1070
    44
1040
1.0
1070
    74
1070
     0
1000
MTEXTEND
1000
MTEXTBEGIN
1070
    73
1070
     1
1070
    44
1040
1.0
1070
    74
1070
     0
1000
MTEXTEND
1000
MTEXTBEGIN
1070
    73
1070
     1
1070
    44
1040
1.0
1070
    74
1070
     0
1000
MTEXTEND
1000
MTEXTBEGIN
1070
    73
1070
     1
1070
    44
1040
1.0
1070
    74
1070
     0
1000
MTEXTEND
1000
MTEXTBEGIN
1070
    73
1070
     1
1070
    44
1040
1.0
1070
    74
1070
     0
1000
MTEXTEND
1000
MTEXTBEGIN
1070
    73
1070
     1
1070
    44
1040
1.0
1070
    74
1070
     0
1000
MTEXTEND
1000
MTEXTBEGIN
1070
    73
1070
     1
1070
    44
1040
1.0
1070
    74
1070
     0
1000
MTEXTEND
  0
POINT
  5
55A
100
AcDbEntity
  8
DEFPOINTS
 62
     0
100
AcDbPoint
 10
-0.958
 20
9.8
 30
0.0
  0
POINT
  5
55B
100
AcDbEntity
  8
DEFPOINTS
 62
     0
100
AcDbPoint
 10
0.197
 20
10.0432
 30
5.747
  0
POINT
  5
55C
100
AcDbEntity
  8
DEFPOINTS
 62
     0
100
AcDbPoint
 10
0.197
 20
10.725668
 30
0.0
  0
ENDBLK
  5
55E
100
AcDbEntity
  8
0
100
AcDbBlockEnd
  0
BLOCK
  5
56B
100
AcDbEntity
  8
0
100
AcDbBlockBegin
  2
SCALE
 70
     0
 10
0.0
 20
0.0
 30
0.0
  3
SCALE
  1

  0
LINE
  5
560
100
AcDbEntity
  8
SCALE
100
AcDbLine
 10
0.057999
 20
-0.380078
 30
0.0
 11
1.057999
 21
-0.380078
 31
0.0
  0
LWPOLYLINE
  5
561
100
AcDbEntity
  8
SCALE
100
AcDbPolyline
 90
        4
 70
     1
 43
0.0
 10
0.0
 20
0.0
 10
1.135629
 20
0.0
 10
1.135629
 20
-0.84161
 10
0.0
 20
-0.84161
  0
LINE
  5
562
100
AcDbEntity
  8
SCALE
100
AcDbLine
 10
0.057999
 20
-0.480078
 30
0.0
 11
0.057999
 21
-0.280078
 31
0.0
  0
TEXT
  5
563
100
AcDbEntity
  8
SCALE
100
AcDbText
 10
0.117421
 20
-0.634339
 30
0.0
 40
0.0625
  1
[10mm]
100
AcDbText
  0
LINE
  5
564
100
AcDbEntity
  8
SCALE
100
AcDbLine
 10
0.057999
 20
-0.680078
 30
0.0
 11
0.451699
 21
-0.680078
 31
0.0
  0
LINE
  5
565
100
AcDbEntity
  8
SCALE
100
AcDbLine
 10
0.057999
 20
-0.780078
 30
0.0
 11
0.057999
 21
-0.580078
 31
0.0
  0
LINE
  5
566
100
AcDbEntity
  8
SCALE
100
AcDbLine
 10
0.451699
 20
-0.780078
 30
0.0
 11
0.451699
 21
-0.580078
 31
0.0
  0
TEXT
  5
567
100
AcDbEntity
  8
SCALE
100
AcDbText
 10
0.059529
 20
-0.105201
 30
0.0
 40
0.0625
  1
SCALE:
100
AcDbText
  0
TEXT
  5
568
100
AcDbEntity
  8
SCALE
100
AcDbText
 10
0.421282
 20
-0.31103
 30
0.0
 40
0.0625
  1
1 Inch
100
AcDbText
  0
LINE
  5
569
100
AcDbEntity
  8
SCALE
100
AcDbLine
 10
1.057999
 20
-0.380078
 30
0.0
 11
1.057999
 21
-0.480078
 31
0.0
  0
LINE
  5
56A
100
AcDbEntity
  8
SCALE
100
AcDbLine
 10
1.057999
 20
-0.480078
 30
0.0
 11
1.057999
 21
-0.280078
 31
0.0
  0
ENDBLK
  5
56C
100
AcDbEntity
  8
0
100
AcDbBlockEnd
  0
BLOCK
  5
B48
100
AcDbEntity
  8
0
100
AcDbBlockBegin
  2
ABIOE060
 70
     2
 10
0.0
 20
0.0
 30
0.0
  3
ABIOE060
  1

  0
ATTDEF
  5
570
100
AcDbEntity
  8
ATTRIBUTES
100
AcDbText
 10
-0.814543
 20
1.491692
 30
0.0
 40
0.0675
  1
ALLEN-BRADLEY
100
AcDbAttributeDefinition
  3
MANUFACTURER NAME?
  2
AC_VND_LABEL
 70
     1
  0
ATTDEF
  5
571
100
AcDbEntity
  8
ATTRIBUTES
100
AcDbText
 10
-0.814543
 20
1.351067
 30
0.0
 40
0.0675
  1
1771-IAN
100
AcDbAttributeDefinition
  3
CATALOG NUMBER?
  2
AC_PART_NO
 70
     1
  0
ATTDEF
  5
572
100
AcDbEntity
  8
ATTRIBUTES
100
AcDbText
 10
-0.814543
 20
1.210442
 30
0.0
 40
0.0675
  1
1771-IAN:120V AC INPUT MODULE, 16 INPUTS
100
AcDbAttributeDefinition
  3
PART DESCRIPTION?
  2
AC_DESCRIPTION
 70
     1
  0
ATTDEF
  5
573
100
AcDbEntity
  8
ATTRIBUTES
100
AcDbText
 10
-0.814543
 20
1.069817
 30
0.0
 40
0.0675
  1

100
AcDbAttributeDefinition
  3
DEVICE ID?
  2
DEVICE_ID
 70
     1
  0
ATTDEF
  5
574
100
AcDbEntity
  8
ATTRIBUTES
100
AcDbText
 10
-0.814543
 20
0.929192
 30
0.0
 40
0.0675
  1

100
AcDbAttributeDefinition
  3
CUSTOMER PART NUMBER?
  2
AC_CPART_NO
 70
     1
  0
ATTDEF
  5
575
100
AcDbEntity
  8
ATTRIBUTES
100
AcDbText
 10
-0.814543
 20
0.788567
 30
0.0
 40
0.0675
  1

100
AcDbAttributeDefinition
  3
CUSTOMER NOTE?
  2
AC_NOTE
 70
     1
  0
ATTDEF
  5
576
100
AcDbEntity
  8
ATTRIBUTES
100
AcDbText
 10
-0.814543
 20
0.647942
 30
0.0
 40
0.0675
  1

100
AcDbAttributeDefinition
  3
FASTENER DATA?
  2
FASTENER
 70
     1
  0
ATTDEF
  5
577
100
AcDbEntity
  8
ATTRIBUTES
100
AcDbText
 10
-0.814543
 20
0.507317
 30
0.0
 40
0.0675
  1
INCH
100
AcDbAttributeDefinition
  3
UNIT OF SCALE?
  2
AC_SCALE_UNIT
 70
     1
  0
ATTDEF
  5
578
100
AcDbEntity
  8
ATTRIBUTES
100
AcDbText
 10
-0.814543
 20
0.366692
 30
0.0
 40
0.0675
  1
0
100
AcDbAttributeDefinition
  3
VIEW CODE?
  2
AC_VIEW_CODE
 70
     1
  0
LINE
  5
579
100
AcDbEntity
  8
0
100
AcDbLine
 10
-0.296615
 20
4.711767
 30
5.88
 11
-0.30164
 21
4.686653
 31
5.88
  0
LINE
  5
57A
100
AcDbEntity
  8
0
100
AcDbLine
 10
-0.26646
 20
4.847389
 30
5.88
 11
-0.26646
 21
4.601261
 31
5.88
  0
LINE
  5
57B
100
AcDbEntity
  8
0
100
AcDbLine
 10
-0.487585
 20
4.807204
 30
5.88
 11
-0.331793
 21
4.631399
 31
5.88
  0
LINE
  5
57C
100
AcDbEntity
  8
0
100
AcDbLine
 10
-0.522764
 20
4.686653
 30
5.88
 11
-0.527791
 21
4.711767
 31
5.88
  0
LINE
  5
57D
100
AcDbEntity
  8
0
100
AcDbLine
 10
-0.588097
 20
4.601261
 30
5.88
 11
-0.588097
 21
4.847389
 31
5.88
  0
LINE
  5
57E
100
AcDbEntity
  8
0
100
AcDbLine
 10
0.110457
 20
4.696698
 30
5.88
 11
0.110457
 21
4.450571
 31
5.88
  0
LINE
  5
57F
100
AcDbEntity
  8
0
100
AcDbLine
 10
-0.211179
 20
4.450571
 30
5.88
 11
-0.211179
 21
4.696698
 31
5.88
  0
LINE
  5
580
100
AcDbEntity
  8
0
100
AcDbLine
 10
-0.874555
 20
7.143784
 30
5.88
 11
-0.874555
 21
-0.654587
 31
5.88
  0
LINE
  5
581
100
AcDbEntity
  8
0
100
AcDbLine
 10
-0.95999
 20
7.214105
 30
5.88
 11
-0.95999
 21
-0.654587
 31
5.88
  0
POLYLINE
  5
582
100
AcDbEntity
  8
0
100
AcDbPolygonMesh
 66
     1
 10
0.0
 20
0.0
 30
0.0
 70
    16
 71
     6
 72
     3
  0
VERTEX
  5
583
100
AcDbEntity
  8
0
100
AcDbVertex
100
AcDbPolygonMeshVertex
 10
0.202
 20
0.2
 30
5.39
 70
    64
  0
VERTEX
  5
584
100
AcDbEntity
  8
0
100
AcDbVertex
100
AcDbPolygonMeshVertex
 10
0.202
 20
0.2
 30
0.0
 70
    64
  0
VERTEX
  5
585
100
AcDbEntity
  8
0
100
AcDbVertex
100
AcDbPolygonMeshVertex
 10
0.202
 20
0.2
 30
0.0
 70
    64
  0
VERTEX
  5
586
100
AcDbEntity
  8
0
100
AcDbVertex
100
AcDbPolygonMeshVertex
 10
-0.958
 20
0.2
 30
5.39
 70
    64
  0
VERTEX
  5
587
100
AcDbEntity
  8
0
100
AcDbVertex
100
AcDbPolygonMeshVertex
 10
-0.958
 20
0.2
 30
0.0
 70
    64
  0
VERTEX
  5
588
100
AcDbEntity
  8
0
100
AcDbVertex
100
AcDbPolygonMeshVertex
 10
-0.958
 20
0.2
 30
0.0
 70
    64
  0
VERTEX
  5
589
100
AcDbEntity
  8
0
100
AcDbVertex
100
AcDbPolygonMeshVertex
 10
-0.958
 20
9.8
 30
5.39
 70
    64
  0
VERTEX
  5
58A
100
AcDbEntity
  8
0
100
AcDbVertex
100
AcDbPolygonMeshVertex
 10
-0.958
 20
9.8
 30
0.0
 70
    64
  0
VERTEX
  5
58B
100
AcDbEntity
  8
0
100
AcDbVertex
100
AcDbPolygonMeshVertex
 10
-0.958
 20
0.2
 30
0.0
 70
    64
  0
VERTEX
  5
58C
100
AcDbEntity
  8
0
100
AcDbVertex
100
AcDbPolygonMeshVertex
 10
0.202
 20
9.8
 30
5.39
 70
    64
  0
VERTEX
  5
58D
100
AcDbEntity
  8
0
100
AcDbVertex
100
AcDbPolygonMeshVertex
 10
0.202
 20
9.8
 30
0.0
 70
    64
  0
VERTEX
  5
58E
100
AcDbEntity
  8
0
100
AcDbVertex
100
AcDbPolygonMeshVertex
 10
0.202
 20
0.2
 30
0.0
 70
    64
  0
VERTEX
  5
58F
100
AcDbEntity
  8
0
100
AcDbVertex
100
AcDbPolygonMeshVertex
 10
0.202
 20
9.8
 30
5.39
 70
    64
  0
VERTEX
  5
590
100
AcDbEntity
  8
0
100
AcDbVertex
100
AcDbPolygonMeshVertex
 10
0.202
 20
9.8
 30
5.39
 70
    64
  0
VERTEX
  5
591
100
AcDbEntity
  8
0
100
AcDbVertex
100
AcDbPolygonMeshVertex
 10
0.202
 20
0.2
 30
5.39
 70
    64
  0
VERTEX
  5
592
100
AcDbEntity
  8
0
100
AcDbVertex
100
AcDbPolygonMeshVertex
 10
-0.958
 20
9.8
 30
5.39
 70
    64
  0
VERTEX
  5
593
100
AcDbEntity
  8
0
100
AcDbVertex
100
AcDbPolygonMeshVertex
 10
-0.958
 20
9.8
 30
5.39
 70
    64
  0
VERTEX
  5
594
100
AcDbEntity
  8
0
100
AcDbVertex
100
AcDbPolygonMeshVertex
 10
-0.958
 20
0.2
 30
5.39
 70
    64
  0
SEQEND
  5
595
100
AcDbEntity
  8
0
  0
POLYLINE
  5
596
100
AcDbEntity
  8
0
100
AcDbPolygonMesh
 66
     1
 10
0.0
 20
0.0
 30
0.0
 70
    16
 71
     6
 72
     3
  0
VERTEX
  5
597
100
AcDbEntity
  8
0
100
AcDbVertex
100
AcDbPolygonMeshVertex
 10
0.202
 20
0.2
 30
5.88
 70
    64
  0
VERTEX
  5
598
100
AcDbEntity
  8
0
100
AcDbVertex
100
AcDbPolygonMeshVertex
 10
0.202
 20
0.2
 30
5.39
 70
    64
  0
VERTEX
  5
599
100
AcDbEntity
  8
0
100
AcDbVertex
100
AcDbPolygonMeshVertex
 10
0.202
 20
0.2
 30
5.39
 70
    64
  0
VERTEX
  5
59A
100
AcDbEntity
  8
0
100
AcDbVertex
100
AcDbPolygonMeshVertex
 10
-0.958
 20
0.2
 30
5.88
 70
    64
  0
VERTEX
  5
59B
100
AcDbEntity
  8
0
100
AcDbVertex
100
AcDbPolygonMeshVertex
 10
-0.958
 20
0.2
 30
5.39
 70
    64
  0
VERTEX
  5
59C
100
AcDbEntity
  8
0
100
AcDbVertex
100
AcDbPolygonMeshVertex
 10
-0.958
 20
0.2
 30
5.39
 70
    64
  0
VERTEX
  5
59D
100
AcDbEntity
  8
0
100
AcDbVertex
100
AcDbPolygonMeshVertex
 10
-0.958
 20
8.912
 30
5.88
 70
    64
  0
VERTEX
  5
59E
100
AcDbEntity
  8
0
100
AcDbVertex
100
AcDbPolygonMeshVertex
 10
-0.958
 20
8.912
 30
5.39
 70
    64
  0
VERTEX
  5
59F
100
AcDbEntity
  8
0
100
AcDbVertex
100
AcDbPolygonMeshVertex
 10
-0.958
 20
0.2
 30
5.39
 70
    64
  0
VERTEX
  5
5A0
100
AcDbEntity
  8
0
100
AcDbVertex
100
AcDbPolygonMeshVertex
 10
0.202
 20
8.912
 30
5.88
 70
    64
  0
VERTEX
  5
5A1
100
AcDbEntity
  8
0
100
AcDbVertex
100
AcDbPolygonMeshVertex
 10
0.202
 20
8.912
 30
5.39
 70
    64
  0
VERTEX
  5
5A2
100
AcDbEntity
  8
0
100
AcDbVertex
100
AcDbPolygonMeshVertex
 10
0.202
 20
0.2
 30
5.39
 70
    64
  0
VERTEX
  5
5A3
100
AcDbEntity
  8
0
100
AcDbVertex
100
AcDbPolygonMeshVertex
 10
0.202
 20
8.912
 30
5.88
 70
    64
  0
VERTEX
  5
5A4
100
AcDbEntity
  8
0
100
AcDbVertex
100
AcDbPolygonMeshVertex
 10
0.202
 20
8.912
 30
5.88
 70
    64
  0
VERTEX
  5
5A5
100
AcDbEntity
  8
0
100
AcDbVertex
100
AcDbPolygonMeshVertex
 10
0.202
 20
0.2
 30
5.88
 70
    64
  0
VERTEX
  5
5A6
100
AcDbEntity
  8
0
100
AcDbVertex
100
AcDbPolygonMeshVertex
 10
-0.958
 20
8.912
 30
5.88
 70
    64
  0
VERTEX
  5
5A7
100
AcDbEntity
  8
0
100
AcDbVertex
100
AcDbPolygonMeshVertex
 10
-0.958
 20
8.912
 30
5.88
 70
    64
  0
VERTEX
  5
5A8
100
AcDbEntity
  8
0
100
AcDbVertex
100
AcDbPolygonMeshVertex
 10
-0.958
 20
0.2
 30
5.88
 70
    64
  0
SEQEND
  5
5A9
100
AcDbEntity
  8
0
  0
POLYLINE
  5
5AA
100
AcDbEntity
  8
0
100
AcDbPolygonMesh
 66
     1
 10
0.0
 20
0.0
 30
0.0
 70
    16
 71
     6
 72
     3
  0
VERTEX
  5
5AB
100
AcDbEntity
  8
0
100
AcDbVertex
100
AcDbPolygonMeshVertex
 10
0.0
 20
0.0
 30
4.755
 70
    64
  0
VERTEX
  5
5AC
100
AcDbEntity
  8
0
100
AcDbVertex
100
AcDbPolygonMeshVertex
 10
0.0
 20
0.0
 30
0.0
 70
    64
  0
VERTEX
  5
5AD
100
AcDbEntity
  8
0
100
AcDbVertex
100
AcDbPolygonMeshVertex
 10
0.0
 20
0.0
 30
0.0
 70
    64
  0
VERTEX
  5
5AE
100
AcDbEntity
  8
0
100
AcDbVertex
100
AcDbPolygonMeshVertex
 10
-0.068
 20
0.0
 30
4.755
 70
    64
  0
VERTEX
  5
5AF
100
AcDbEntity
  8
0
100
AcDbVertex
100
AcDbPolygonMeshVertex
 10
-0.068
 20
0.0
 30
0.0
 70
    64
  0
VERTEX
  5
5B0
100
AcDbEntity
  8
0
100
AcDbVertex
100
AcDbPolygonMeshVertex
 10
-0.068
 20
0.0
 30
0.0
 70
    64
  0
VERTEX
  5
5B1
100
AcDbEntity
  8
0
100
AcDbVertex
100
AcDbPolygonMeshVertex
 10
-0.068
 20
0.2
 30
4.755
 70
    64
  0
VERTEX
  5
5B2
100
AcDbEntity
  8
0
100
AcDbVertex
100
AcDbPolygonMeshVertex
 10
-0.068
 20
0.2
 30
0.0
 70
    64
  0
VERTEX
  5
5B3
100
AcDbEntity
  8
0
100
AcDbVertex
100
AcDbPolygonMeshVertex
 10
-0.068
 20
0.0
 30
0.0
 70
    64
  0
VERTEX
  5
5B4
100
AcDbEntity
  8
0
100
AcDbVertex
100
AcDbPolygonMeshVertex
 10
0.0
 20
0.2
 30
4.755
 70
    64
  0
VERTEX
  5
5B5
100
AcDbEntity
  8
0
100
AcDbVertex
100
AcDbPolygonMeshVertex
 10
0.0
 20
0.2
 30
0.0
 70
    64
  0
VERTEX
  5
5B6
100
AcDbEntity
  8
0
100
AcDbVertex
100
AcDbPolygonMeshVertex
 10
0.0
 20
0.0
 30
0.0
 70
    64
  0
VERTEX
  5
5B7
100
AcDbEntity
  8
0
100
AcDbVertex
100
AcDbPolygonMeshVertex
 10
0.0
 20
0.2
 30
4.755
 70
    64
  0
VERTEX
  5
5B8
100
AcDbEntity
  8
0
100
AcDbVertex
100
AcDbPolygonMeshVertex
 10
0.0
 20
0.2
 30
4.755
 70
    64
  0
VERTEX
  5
5B9
100
AcDbEntity
  8
0
100
AcDbVertex
100
AcDbPolygonMeshVertex
 10
0.0
 20
0.0
 30
4.755
 70
    64
  0
VERTEX
  5
5BA
100
AcDbEntity
  8
0
100
AcDbVertex
100
AcDbPolygonMeshVertex
 10
-0.068
 20
0.2
 30
4.755
 70
    64
  0
VERTEX
  5
5BB
100
AcDbEntity
  8
0
100
AcDbVertex
100
AcDbPolygonMeshVertex
 10
-0.068
 20
0.2
 30
4.755
 70
    64
  0
VERTEX
  5
5BC
100
AcDbEntity
  8
0
100
AcDbVertex
100
AcDbPolygonMeshVertex
 10
-0.068
 20
0.0
 30
4.755
 70
    64
  0
SEQEND
  5
5BD
100
AcDbEntity
  8
0
  0
POINT
  5
5BE
100
AcDbEntity
  8
SNAP_POINTS
100
AcDbPoint
 10
-0.034
 20
0.0
 30
0.0
  0
LINE
  5
5BF
100
AcDbEntity
  8
0
100
AcDbLine
 10
0.110457
 20
1.562335
 30
5.88
 11
0.110457
 21
1.316207
 31
5.88
  0
LINE
  5
5C0
100
AcDbEntity
  8
0
100
AcDbLine
 10
-0.211179
 20
1.316207
 30
5.88
 11
-0.211179
 21
1.562335
 31
5.88
  0
LINE
  5
5C1
100
AcDbEntity
  8
0
100
AcDbLine
 10
0.050151
 20
1.356392
 30
5.88
 11
0.025021
 21
1.3363
 31
5.88
  0
LINE
  5
5C2
100
AcDbEntity
  8
0
100
AcDbLine
 10
-0.100616
 20
1.3363
 30
5.88
 11
-0.12072
 21
1.351368
 31
5.88
  0
LINE
  5
5C3
100
AcDbEntity
  8
0
100
AcDbLine
 10
-0.26646
 20
1.401599
 30
5.88
 11
-0.26646
 21
1.155471
 31
5.88
  0
LINE
  5
5C4
100
AcDbEntity
  8
0
100
AcDbLine
 10
-0.507687
 20
1.341321
 30
5.88
 11
-0.487585
 21
1.361414
 31
5.88
  0
LINE
  5
5C5
100
AcDbEntity
  8
0
100
AcDbLine
 10
-0.336819
 20
1.361414
 30
5.88
 11
-0.321742
 21
1.341321
 31
5.88
  0
LINE
  5
5C6
100
AcDbEntity
  8
0
100
AcDbLine
 10
-0.487585
 20
1.361414
 30
5.88
 11
-0.331793
 21
1.185609
 31
5.88
  0
LINE
  5
5C7
100
AcDbEntity
  8
0
100
AcDbLine
 10
-0.588097
 20
1.155471
 30
5.88
 11
-0.588097
 21
1.401599
 31
5.88
  0
LINE
  5
5C8
100
AcDbEntity
  8
0
100
AcDbLine
 10
-0.26646
 20
1.155471
 30
5.88
 11
-0.588097
 21
1.155471
 31
5.88
  0
LINE
  5
5C9
100
AcDbEntity
  8
0
100
AcDbLine
 10
-0.588097
 20
1.085148
 30
5.88
 11
-0.26646
 21
1.085148
 31
5.88
  0
LINE
  5
5CA
100
AcDbEntity
  8
0
100
AcDbLine
 10
-0.26646
 20
0.83902
 30
5.88
 11
-0.588097
 21
0.83902
 31
5.88
  0
LINE
  5
5CB
100
AcDbEntity
  8
0
100
AcDbLine
 10
-0.588097
 20
0.773721
 30
5.88
 11
-0.26646
 21
0.773721
 31
5.88
  0
LINE
  5
5CC
100
AcDbEntity
  8
0
100
AcDbLine
 10
-0.26646
 20
0.527593
 30
5.88
 11
-0.588097
 21
0.527593
 31
5.88
  0
LINE
  5
5CD
100
AcDbEntity
  8
0
100
AcDbLine
 10
-0.769017
 20
0.127911
 30
5.88
 11
-0.769017
 21
-0.142238
 31
5.88
  0
LINE
  5
5CE
100
AcDbEntity
  8
0
100
AcDbLine
 10
-0.869529
 20
-0.142238
 30
5.88
 11
-0.769017
 21
-0.142238
 31
5.88
  0
LINE
  5
5CF
100
AcDbEntity
  8
0
100
AcDbLine
 10
-0.869529
 20
0.127911
 30
5.88
 11
-0.769017
 21
0.127911
 31
5.88
  0
LINE
  5
5D0
100
AcDbEntity
  8
0
100
AcDbLine
 10
-0.588097
 20
0.83902
 30
5.88
 11
-0.588097
 21
1.085148
 31
5.88
  0
LINE
  5
5D1
100
AcDbEntity
  8
0
100
AcDbLine
 10
-0.588097
 20
0.527593
 30
5.88
 11
-0.588097
 21
0.773721
 31
5.88
  0
LINE
  5
5D2
100
AcDbEntity
  8
0
100
AcDbLine
 10
-0.26646
 20
0.283593
 30
5.88
 11
-0.26646
 21
-0.654587
 31
5.88
  0
LINE
  5
5D3
100
AcDbEntity
  8
0
100
AcDbLine
 10
-0.191077
 20
-0.654587
 30
5.88
 11
-0.191077
 21
0.198234
 31
5.88
  0
LINE
  5
5D4
100
AcDbEntity
  8
0
100
AcDbLine
 10
-0.26646
 20
0.283626
 30
5.88
 11
0.20199
 21
0.283626
 31
5.88
  0
LINE
  5
5D5
100
AcDbEntity
  8
0
100
AcDbLine
 10
0.180816
 20
0.198234
 30
5.88
 11
-0.191077
 21
0.198234
 31
5.88
  0
LINE
  5
5D6
100
AcDbEntity
  8
0
100
AcDbLine
 10
-0.377023
 20
-0.147262
 30
5.88
 11
-0.377023
 21
0.127911
 31
5.88
  0
LINE
  5
5D7
100
AcDbEntity
  8
0
100
AcDbLine
 10
-0.377023
 20
-0.147262
 30
5.88
 11
-0.276513
 21
-0.147262
 31
5.88
  0
LINE
  5
5D8
100
AcDbEntity
  8
0
100
AcDbLine
 10
-0.377023
 20
0.127911
 30
5.88
 11
-0.276513
 21
0.127911
 31
5.88
  0
LINE
  5
5D9
100
AcDbEntity
  8
0
100
AcDbLine
 10
-0.050361
 20
1.316207
 30
5.88
 11
-0.075489
 21
1.326252
 31
5.88
  0
LINE
  5
5DA
100
AcDbEntity
  8
0
100
AcDbLine
 10
-0.065438
 20
1.235839
 30
5.88
 11
-0.04031
 21
1.235839
 31
5.88
  0
LINE
  5
5DB
100
AcDbEntity
  8
0
100
AcDbLine
 10
-0.050361
 20
1.00478
 30
5.88
 11
-0.075489
 21
1.009802
 31
5.88
  0
LINE
  5
5DC
100
AcDbEntity
  8
0
100
AcDbLine
 10
-0.065438
 20
0.919388
 30
5.88
 11
-0.04031
 21
0.924412
 31
5.88
  0
LINE
  5
5DD
100
AcDbEntity
  8
0
100
AcDbLine
 10
-0.050361
 20
0.693353
 30
5.88
 11
-0.075489
 21
0.698376
 31
5.88
  0
LINE
  5
5DE
100
AcDbEntity
  8
0
100
AcDbLine
 10
0.110457
 20
1.316207
 30
5.88
 11
-0.211179
 21
1.316207
 31
5.88
  0
LINE
  5
5DF
100
AcDbEntity
  8
0
100
AcDbLine
 10
-0.211179
 20
1.250908
 30
5.88
 11
0.110457
 21
1.250908
 31
5.88
  0
LINE
  5
5E0
100
AcDbEntity
  8
0
100
AcDbLine
 10
0.110457
 20
1.00478
 30
5.88
 11
-0.211179
 21
1.00478
 31
5.88
  0
LINE
  5
5E1
100
AcDbEntity
  8
0
100
AcDbLine
 10
-0.110667
 20
1.210723
 30
5.88
 11
0.0401
 21
1.034918
 31
5.88
  0
LINE
  5
5E2
100
AcDbEntity
  8
0
100
AcDbLine
 10
-0.211179
 20
0.939481
 30
5.88
 11
0.110457
 21
0.939481
 31
5.88
  0
LINE
  5
5E3
100
AcDbEntity
  8
0
100
AcDbLine
 10
0.110457
 20
0.693353
 30
5.88
 11
-0.211179
 21
0.693353
 31
5.88
  0
LINE
  5
5E4
100
AcDbEntity
  8
0
100
AcDbLine
 10
-0.110667
 20
0.899296
 30
5.88
 11
0.0401
 21
0.723491
 31
5.88
  0
LINE
  5
5E5
100
AcDbEntity
  8
0
100
AcDbLine
 10
-0.211179
 20
0.693353
 30
5.88
 11
-0.211179
 21
0.939481
 31
5.88
  0
LINE
  5
5E6
100
AcDbEntity
  8
0
100
AcDbLine
 10
-0.296615
 20
0.949526
 30
5.88
 11
-0.30164
 21
0.924412
 31
5.88
  0
LINE
  5
5E7
100
AcDbEntity
  8
0
100
AcDbLine
 10
-0.26646
 20
1.085148
 30
5.88
 11
-0.26646
 21
0.83902
 31
5.88
  0
LINE
  5
5E8
100
AcDbEntity
  8
0
100
AcDbLine
 10
-0.487585
 20
1.049987
 30
5.88
 11
-0.331793
 21
0.874182
 31
5.88
  0
LINE
  5
5E9
100
AcDbEntity
  8
0
100
AcDbLine
 10
-0.522764
 20
0.924412
 30
5.88
 11
-0.527791
 21
0.949526
 31
5.88
  0
LINE
  5
5EA
100
AcDbEntity
  8
0
100
AcDbLine
 10
-0.30164
 20
0.924412
 30
5.88
 11
-0.311691
 21
0.899296
 31
5.88
  0
LINE
  5
5EB
100
AcDbEntity
  8
0
100
AcDbLine
 10
-0.306666
 20
0.693353
 30
5.88
 11
-0.296615
 21
0.663215
 31
5.88
  0
LINE
  5
5EC
100
AcDbEntity
  8
0
100
AcDbLine
 10
-0.30164
 20
0.612985
 30
5.88
 11
-0.311691
 21
0.587869
 31
5.88
  0
LINE
  5
5ED
100
AcDbEntity
  8
0
100
AcDbLine
 10
-0.336819
 20
0.733538
 30
5.88
 11
-0.321742
 21
0.713445
 31
5.88
  0
LINE
  5
5EE
100
AcDbEntity
  8
0
100
AcDbLine
 10
-0.507687
 20
0.713445
 30
5.88
 11
-0.487585
 21
0.733538
 31
5.88
  0
LINE
  5
5EF
100
AcDbEntity
  8
0
100
AcDbLine
 10
-0.487585
 20
0.733538
 30
5.88
 11
-0.331793
 21
0.557731
 31
5.88
  0
LINE
  5
5F0
100
AcDbEntity
  8
0
100
AcDbLine
 10
-0.427279
 20
0.527593
 30
5.88
 11
-0.452407
 21
0.532615
 31
5.88
  0
LINE
  5
5F1
100
AcDbEntity
  8
0
100
AcDbLine
 10
-0.452407
 20
0.532615
 30
5.88
 11
-0.477534
 21
0.547686
 31
5.88
  0
LINE
  5
5F2
100
AcDbEntity
  8
0
100
AcDbLine
 10
-0.477534
 20
0.547686
 30
5.88
 11
-0.497636
 21
0.562754
 31
5.88
  0
LINE
  5
5F3
100
AcDbEntity
  8
0
100
AcDbLine
 10
-0.527791
 20
0.663215
 30
5.88
 11
-0.522764
 21
0.688329
 31
5.88
  0
LINE
  5
5F4
100
AcDbEntity
  8
0
100
AcDbLine
 10
-0.512713
 20
0.582847
 30
5.88
 11
-0.522764
 21
0.607961
 31
5.88
  0
LINE
  5
5F5
100
AcDbEntity
  8
0
100
AcDbLine
 10
-0.522764
 20
0.607961
 30
5.88
 11
-0.527791
 21
0.638099
 31
5.88
  0
LINE
  5
5F6
100
AcDbEntity
  8
0
100
AcDbLine
 10
-0.527791
 20
0.638099
 30
5.88
 11
-0.527791
 21
0.663215
 31
5.88
  0
LINE
  5
5F7
100
AcDbEntity
  8
0
100
AcDbLine
 10
-0.522764
 20
0.688329
 30
5.88
 11
-0.507687
 21
0.713445
 31
5.88
  0
LINE
  5
5F8
100
AcDbEntity
  8
0
100
AcDbLine
 10
-0.497636
 20
0.562754
 30
5.88
 11
-0.512713
 21
0.582847
 31
5.88
  0
LINE
  5
5F9
100
AcDbEntity
  8
0
100
AcDbLine
 10
-0.321742
 20
0.713445
 30
5.88
 11
-0.306666
 21
0.693353
 31
5.88
  0
LINE
  5
5FA
100
AcDbEntity
  8
0
100
AcDbLine
 10
-0.311691
 20
0.587869
 30
5.88
 11
-0.326768
 21
0.562754
 31
5.88
  0
LINE
  5
5FB
100
AcDbEntity
  8
0
100
AcDbLine
 10
-0.34687
 20
0.547686
 30
5.88
 11
-0.371997
 21
0.532615
 31
5.88
  0
LINE
  5
5FC
100
AcDbEntity
  8
0
100
AcDbLine
 10
-0.397126
 20
0.527593
 30
5.88
 11
-0.427279
 21
0.527593
 31
5.88
  0
LINE
  5
5FD
100
AcDbEntity
  8
0
100
AcDbLine
 10
-0.371997
 20
0.532615
 30
5.88
 11
-0.397126
 21
0.527593
 31
5.88
  0
LINE
  5
5FE
100
AcDbEntity
  8
0
100
AcDbLine
 10
-0.326768
 20
0.562754
 30
5.88
 11
-0.34687
 21
0.547686
 31
5.88
  0
LINE
  5
5FF
100
AcDbEntity
  8
0
100
AcDbLine
 10
-0.427279
 20
0.83902
 30
5.88
 11
-0.452407
 21
0.849065
 31
5.88
  0
LINE
  5
600
100
AcDbEntity
  8
0
100
AcDbLine
 10
-0.442356
 20
0.758652
 30
5.88
 11
-0.412203
 21
0.758652
 31
5.88
  0
LINE
  5
601
100
AcDbEntity
  8
0
100
AcDbLine
 10
-0.452407
 20
0.849065
 30
5.88
 11
-0.477534
 21
0.859113
 31
5.88
  0
LINE
  5
602
100
AcDbEntity
  8
0
100
AcDbLine
 10
-0.477534
 20
0.859113
 30
5.88
 11
-0.497636
 21
0.879205
 31
5.88
  0
LINE
  5
603
100
AcDbEntity
  8
0
100
AcDbLine
 10
-0.487585
 20
0.733538
 30
5.88
 11
-0.467483
 21
0.748607
 31
5.88
  0
LINE
  5
604
100
AcDbEntity
  8
0
100
AcDbLine
 10
-0.467483
 20
0.748607
 30
5.88
 11
-0.442356
 21
0.758652
 31
5.88
  0
LINE
  5
605
100
AcDbEntity
  8
0
100
AcDbLine
 10
-0.512713
 20
0.899296
 30
5.88
 11
-0.522764
 21
0.924412
 31
5.88
  0
LINE
  5
606
100
AcDbEntity
  8
0
100
AcDbLine
 10
-0.497636
 20
0.879205
 30
5.88
 11
-0.512713
 21
0.899296
 31
5.88
  0
LINE
  5
607
100
AcDbEntity
  8
0
100
AcDbLine
 10
-0.311691
 20
0.899296
 30
5.88
 11
-0.326768
 21
0.879205
 31
5.88
  0
LINE
  5
608
100
AcDbEntity
  8
0
100
AcDbLine
 10
-0.326768
 20
0.879205
 30
5.88
 11
-0.34687
 21
0.859113
 31
5.88
  0
LINE
  5
609
100
AcDbEntity
  8
0
100
AcDbLine
 10
-0.34687
 20
0.859113
 30
5.88
 11
-0.371997
 21
0.849065
 31
5.88
  0
LINE
  5
60A
100
AcDbEntity
  8
0
100
AcDbLine
 10
-0.397126
 20
0.844044
 30
5.88
 11
-0.427279
 21
0.83902
 31
5.88
  0
LINE
  5
60B
100
AcDbEntity
  8
0
100
AcDbLine
 10
-0.412203
 20
0.758652
 30
5.88
 11
-0.387074
 21
0.758652
 31
5.88
  0
LINE
  5
60C
100
AcDbEntity
  8
0
100
AcDbLine
 10
-0.371997
 20
0.849065
 30
5.88
 11
-0.397126
 21
0.844044
 31
5.88
  0
LINE
  5
60D
100
AcDbEntity
  8
0
100
AcDbLine
 10
-0.361946
 20
0.748607
 30
5.88
 11
-0.336819
 21
0.733538
 31
5.88
  0
LINE
  5
60E
100
AcDbEntity
  8
0
100
AcDbLine
 10
-0.387074
 20
0.758652
 30
5.88
 11
-0.361946
 21
0.748607
 31
5.88
  0
LINE
  5
60F
100
AcDbEntity
  8
0
100
AcDbLine
 10
-0.100616
 20
0.708422
 30
5.88
 11
-0.12072
 21
0.728514
 31
5.88
  0
LINE
  5
610
100
AcDbEntity
  8
0
100
AcDbLine
 10
-0.26646
 20
0.773721
 30
5.88
 11
-0.26646
 21
0.527593
 31
5.88
  0
LINE
  5
611
100
AcDbEntity
  8
0
100
AcDbLine
 10
-0.296615
 20
0.663215
 30
5.88
 11
-0.296615
 21
0.638099
 31
5.88
  0
LINE
  5
612
100
AcDbEntity
  8
0
100
AcDbLine
 10
-0.296615
 20
0.638099
 30
5.88
 11
-0.30164
 21
0.612985
 31
5.88
  0
LINE
  5
613
100
AcDbEntity
  8
0
100
AcDbLine
 10
-0.075489
 20
0.698376
 30
5.88
 11
-0.100616
 21
0.708422
 31
5.88
  0
LINE
  5
614
100
AcDbEntity
  8
0
100
AcDbLine
 10
-0.115695
 20
0.899296
 30
5.88
 11
-0.090565
 21
0.914365
 31
5.88
  0
LINE
  5
615
100
AcDbEntity
  8
0
100
AcDbLine
 10
-0.090565
 20
0.914365
 30
5.88
 11
-0.065438
 21
0.919388
 31
5.88
  0
LINE
  5
616
100
AcDbEntity
  8
0
100
AcDbLine
 10
-0.150873
 20
0.828975
 30
5.88
 11
-0.145848
 21
0.854089
 31
5.88
  0
LINE
  5
617
100
AcDbEntity
  8
0
100
AcDbLine
 10
-0.145848
 20
0.854089
 30
5.88
 11
-0.130769
 21
0.879205
 31
5.88
  0
LINE
  5
618
100
AcDbEntity
  8
0
100
AcDbLine
 10
-0.150873
 20
0.773721
 30
5.88
 11
-0.155899
 21
0.798835
 31
5.88
  0
LINE
  5
619
100
AcDbEntity
  8
0
100
AcDbLine
 10
-0.155899
 20
0.798835
 30
5.88
 11
-0.150873
 21
0.828975
 31
5.88
  0
LINE
  5
61A
100
AcDbEntity
  8
0
100
AcDbLine
 10
-0.130769
 20
0.879205
 30
5.88
 11
-0.115695
 21
0.899296
 31
5.88
  0
LINE
  5
61B
100
AcDbEntity
  8
0
100
AcDbLine
 10
-0.12072
 20
0.728514
 30
5.88
 11
-0.140822
 21
0.748607
 31
5.88
  0
LINE
  5
61C
100
AcDbEntity
  8
0
100
AcDbLine
 10
-0.140822
 20
0.748607
 30
5.88
 11
-0.150873
 21
0.773721
 31
5.88
  0
LINE
  5
61D
100
AcDbEntity
  8
0
100
AcDbLine
 10
-0.306666
 20
1.316207
 30
5.88
 11
-0.296615
 21
1.291091
 31
5.88
  0
LINE
  5
61E
100
AcDbEntity
  8
0
100
AcDbLine
 10
-0.30164
 20
1.235839
 30
5.88
 11
-0.311691
 21
1.215746
 31
5.88
  0
LINE
  5
61F
100
AcDbEntity
  8
0
100
AcDbLine
 10
-0.306666
 20
1.00478
 30
5.88
 11
-0.296615
 21
0.979666
 31
5.88
  0
LINE
  5
620
100
AcDbEntity
  8
0
100
AcDbLine
 10
-0.442356
 20
1.070079
 30
5.88
 11
-0.412203
 21
1.075103
 31
5.88
  0
LINE
  5
621
100
AcDbEntity
  8
0
100
AcDbLine
 10
-0.507687
 20
1.024871
 30
5.88
 11
-0.487585
 21
1.044963
 31
5.88
  0
LINE
  5
622
100
AcDbEntity
  8
0
100
AcDbLine
 10
-0.487585
 20
1.044963
 30
5.88
 11
-0.467483
 21
1.060032
 31
5.88
  0
LINE
  5
623
100
AcDbEntity
  8
0
100
AcDbLine
 10
-0.467483
 20
1.060032
 30
5.88
 11
-0.442356
 21
1.070079
 31
5.88
  0
LINE
  5
624
100
AcDbEntity
  8
0
100
AcDbLine
 10
-0.527791
 20
0.979666
 30
5.88
 11
-0.522764
 21
1.00478
 31
5.88
  0
LINE
  5
625
100
AcDbEntity
  8
0
100
AcDbLine
 10
-0.527791
 20
0.949526
 30
5.88
 11
-0.527791
 21
0.979666
 31
5.88
  0
LINE
  5
626
100
AcDbEntity
  8
0
100
AcDbLine
 10
-0.522764
 20
1.00478
 30
5.88
 11
-0.507687
 21
1.024871
 31
5.88
  0
LINE
  5
627
100
AcDbEntity
  8
0
100
AcDbLine
 10
-0.361946
 20
1.060032
 30
5.88
 11
-0.336819
 21
1.049987
 31
5.88
  0
LINE
  5
628
100
AcDbEntity
  8
0
100
AcDbLine
 10
-0.336819
 20
1.049987
 30
5.88
 11
-0.321742
 21
1.029894
 31
5.88
  0
LINE
  5
629
100
AcDbEntity
  8
0
100
AcDbLine
 10
-0.321742
 20
1.029894
 30
5.88
 11
-0.306666
 21
1.00478
 31
5.88
  0
LINE
  5
62A
100
AcDbEntity
  8
0
100
AcDbLine
 10
-0.412203
 20
1.075103
 30
5.88
 11
-0.387074
 21
1.070079
 31
5.88
  0
LINE
  5
62B
100
AcDbEntity
  8
0
100
AcDbLine
 10
-0.387074
 20
1.070079
 30
5.88
 11
-0.361946
 21
1.060032
 31
5.88
  0
LINE
  5
62C
100
AcDbEntity
  8
0
100
AcDbLine
 10
-0.427279
 20
1.155471
 30
5.88
 11
-0.452407
 21
1.160493
 31
5.88
  0
LINE
  5
62D
100
AcDbEntity
  8
0
100
AcDbLine
 10
-0.452407
 20
1.160493
 30
5.88
 11
-0.477534
 21
1.17054
 31
5.88
  0
LINE
  5
62E
100
AcDbEntity
  8
0
100
AcDbLine
 10
-0.477534
 20
1.17054
 30
5.88
 11
-0.497636
 21
1.190632
 31
5.88
  0
LINE
  5
62F
100
AcDbEntity
  8
0
100
AcDbLine
 10
-0.527791
 20
1.291091
 30
5.88
 11
-0.522764
 21
1.316207
 31
5.88
  0
LINE
  5
630
100
AcDbEntity
  8
0
100
AcDbLine
 10
-0.512713
 20
1.210723
 30
5.88
 11
-0.522764
 21
1.235839
 31
5.88
  0
LINE
  5
631
100
AcDbEntity
  8
0
100
AcDbLine
 10
-0.522764
 20
1.235839
 30
5.88
 11
-0.527791
 21
1.265977
 31
5.88
  0
LINE
  5
632
100
AcDbEntity
  8
0
100
AcDbLine
 10
-0.527791
 20
1.265977
 30
5.88
 11
-0.527791
 21
1.291091
 31
5.88
  0
LINE
  5
633
100
AcDbEntity
  8
0
100
AcDbLine
 10
-0.522764
 20
1.316207
 30
5.88
 11
-0.507687
 21
1.341321
 31
5.88
  0
LINE
  5
634
100
AcDbEntity
  8
0
100
AcDbLine
 10
-0.497636
 20
1.190632
 30
5.88
 11
-0.512713
 21
1.210723
 31
5.88
  0
LINE
  5
635
100
AcDbEntity
  8
0
100
AcDbLine
 10
-0.321742
 20
1.341321
 30
5.88
 11
-0.306666
 21
1.316207
 31
5.88
  0
LINE
  5
636
100
AcDbEntity
  8
0
100
AcDbLine
 10
-0.311691
 20
1.215746
 30
5.88
 11
-0.326768
 21
1.190632
 31
5.88
  0
LINE
  5
637
100
AcDbEntity
  8
0
100
AcDbLine
 10
-0.326768
 20
1.190632
 30
5.88
 11
-0.34687
 21
1.175561
 31
5.88
  0
LINE
  5
638
100
AcDbEntity
  8
0
100
AcDbLine
 10
-0.34687
 20
1.175561
 30
5.88
 11
-0.371997
 21
1.160493
 31
5.88
  0
LINE
  5
639
100
AcDbEntity
  8
0
100
AcDbLine
 10
-0.397126
 20
1.155471
 30
5.88
 11
-0.427279
 21
1.155471
 31
5.88
  0
LINE
  5
63A
100
AcDbEntity
  8
0
100
AcDbLine
 10
-0.371997
 20
1.160493
 30
5.88
 11
-0.397126
 21
1.155471
 31
5.88
  0
LINE
  5
63B
100
AcDbEntity
  8
0
100
AcDbLine
 10
-0.211179
 20
1.00478
 30
5.88
 11
-0.211179
 21
1.250908
 31
5.88
  0
LINE
  5
63C
100
AcDbEntity
  8
0
100
AcDbLine
 10
-0.150873
 20
1.1404
 30
5.88
 11
-0.145848
 21
1.165516
 31
5.88
  0
LINE
  5
63D
100
AcDbEntity
  8
0
100
AcDbLine
 10
-0.296615
 20
0.979666
 30
5.88
 11
-0.296615
 21
0.949526
 31
5.88
  0
LINE
  5
63E
100
AcDbEntity
  8
0
100
AcDbLine
 10
-0.075489
 20
1.009802
 30
5.88
 11
-0.100616
 21
1.024871
 31
5.88
  0
LINE
  5
63F
100
AcDbEntity
  8
0
100
AcDbLine
 10
-0.100616
 20
1.024871
 30
5.88
 11
-0.12072
 21
1.039941
 31
5.88
  0
LINE
  5
640
100
AcDbEntity
  8
0
100
AcDbLine
 10
-0.140822
 20
1.060032
 30
5.88
 11
-0.150873
 21
1.085148
 31
5.88
  0
LINE
  5
641
100
AcDbEntity
  8
0
100
AcDbLine
 10
-0.150873
 20
1.085148
 30
5.88
 11
-0.155899
 21
1.115286
 31
5.88
  0
LINE
  5
642
100
AcDbEntity
  8
0
100
AcDbLine
 10
-0.155899
 20
1.115286
 30
5.88
 11
-0.150873
 21
1.1404
 31
5.88
  0
LINE
  5
643
100
AcDbEntity
  8
0
100
AcDbLine
 10
-0.12072
 20
1.039941
 30
5.88
 11
-0.140822
 21
1.060032
 31
5.88
  0
LINE
  5
644
100
AcDbEntity
  8
0
100
AcDbLine
 10
-0.296615
 20
1.291091
 30
5.88
 11
-0.296615
 21
1.265977
 31
5.88
  0
LINE
  5
645
100
AcDbEntity
  8
0
100
AcDbLine
 10
-0.296615
 20
1.265977
 30
5.88
 11
-0.30164
 21
1.235839
 31
5.88
  0
LINE
  5
646
100
AcDbEntity
  8
0
100
AcDbLine
 10
-0.075489
 20
1.326252
 30
5.88
 11
-0.100616
 21
1.3363
 31
5.88
  0
LINE
  5
647
100
AcDbEntity
  8
0
100
AcDbLine
 10
-0.115695
 20
1.210723
 30
5.88
 11
-0.090565
 21
1.225794
 31
5.88
  0
LINE
  5
648
100
AcDbEntity
  8
0
100
AcDbLine
 10
-0.090565
 20
1.225794
 30
5.88
 11
-0.065438
 21
1.235839
 31
5.88
  0
LINE
  5
649
100
AcDbEntity
  8
0
100
AcDbLine
 10
-0.145848
 20
1.165516
 30
5.88
 11
-0.130769
 21
1.190632
 31
5.88
  0
LINE
  5
64A
100
AcDbEntity
  8
0
100
AcDbLine
 10
-0.130769
 20
1.190632
 30
5.88
 11
-0.115695
 21
1.210723
 31
5.88
  0
LINE
  5
64B
100
AcDbEntity
  8
0
100
AcDbLine
 10
0.110457
 20
0.939481
 30
5.88
 11
0.110457
 21
0.693353
 31
5.88
  0
LINE
  5
64C
100
AcDbEntity
  8
0
100
AcDbLine
 10
0.050151
 20
0.728514
 30
5.88
 11
0.025021
 21
0.708422
 31
5.88
  0
LINE
  5
64D
100
AcDbEntity
  8
0
100
AcDbLine
 10
0.025021
 20
0.708422
 30
5.88
 11
0.004919
 21
0.698376
 31
5.88
  0
LINE
  5
64E
100
AcDbEntity
  8
0
100
AcDbLine
 10
-0.025234
 20
0.693353
 30
5.88
 11
-0.050361
 21
0.693353
 31
5.88
  0
LINE
  5
64F
100
AcDbEntity
  8
0
100
AcDbLine
 10
0.004919
 20
0.698376
 30
5.88
 11
-0.025234
 21
0.693353
 31
5.88
  0
LINE
  5
650
100
AcDbEntity
  8
0
100
AcDbLine
 10
0.070253
 20
0.854089
 30
5.88
 11
0.075278
 21
0.828975
 31
5.88
  0
LINE
  5
651
100
AcDbEntity
  8
0
100
AcDbLine
 10
0.075278
 20
0.773721
 30
5.88
 11
0.065227
 21
0.748607
 31
5.88
  0
LINE
  5
652
100
AcDbEntity
  8
0
100
AcDbLine
 10
0.01497
 20
0.914365
 30
5.88
 11
0.035074
 21
0.899296
 31
5.88
  0
LINE
  5
653
100
AcDbEntity
  8
0
100
AcDbLine
 10
0.035074
 20
0.899296
 30
5.88
 11
0.055176
 21
0.879205
 31
5.88
  0
LINE
  5
654
100
AcDbEntity
  8
0
100
AcDbLine
 10
0.055176
 20
0.879205
 30
5.88
 11
0.070253
 21
0.854089
 31
5.88
  0
LINE
  5
655
100
AcDbEntity
  8
0
100
AcDbLine
 10
0.065227
 20
0.748607
 30
5.88
 11
0.050151
 21
0.728514
 31
5.88
  0
LINE
  5
656
100
AcDbEntity
  8
0
100
AcDbLine
 10
-0.04031
 20
0.924412
 30
5.88
 11
-0.010157
 21
0.919388
 31
5.88
  0
LINE
  5
657
100
AcDbEntity
  8
0
100
AcDbLine
 10
-0.010157
 20
0.919388
 30
5.88
 11
0.01497
 21
0.914365
 31
5.88
  0
LINE
  5
658
100
AcDbEntity
  8
0
100
AcDbLine
 10
0.075278
 20
0.828975
 30
5.88
 11
0.080304
 21
0.803859
 31
5.88
  0
LINE
  5
659
100
AcDbEntity
  8
0
100
AcDbLine
 10
0.080304
 20
0.803859
 30
5.88
 11
0.075278
 21
0.773721
 31
5.88
  0
LINE
  5
65A
100
AcDbEntity
  8
0
100
AcDbLine
 10
0.110457
 20
1.250908
 30
5.88
 11
0.110457
 21
1.00478
 31
5.88
  0
LINE
  5
65B
100
AcDbEntity
  8
0
100
AcDbLine
 10
0.070253
 20
1.17054
 30
5.88
 11
0.075278
 21
1.1404
 31
5.88
  0
LINE
  5
65C
100
AcDbEntity
  8
0
100
AcDbLine
 10
0.075278
 20
1.090172
 30
5.88
 11
0.065227
 21
1.065056
 31
5.88
  0
LINE
  5
65D
100
AcDbEntity
  8
0
100
AcDbLine
 10
0.065227
 20
1.065056
 30
5.88
 11
0.050151
 21
1.039941
 31
5.88
  0
LINE
  5
65E
100
AcDbEntity
  8
0
100
AcDbLine
 10
0.050151
 20
1.039941
 30
5.88
 11
0.025021
 21
1.024871
 31
5.88
  0
LINE
  5
65F
100
AcDbEntity
  8
0
100
AcDbLine
 10
0.025021
 20
1.024871
 30
5.88
 11
0.004919
 21
1.009802
 31
5.88
  0
LINE
  5
660
100
AcDbEntity
  8
0
100
AcDbLine
 10
-0.025234
 20
1.00478
 30
5.88
 11
-0.050361
 21
1.00478
 31
5.88
  0
LINE
  5
661
100
AcDbEntity
  8
0
100
AcDbLine
 10
0.004919
 20
1.009802
 30
5.88
 11
-0.025234
 21
1.00478
 31
5.88
  0
LINE
  5
662
100
AcDbEntity
  8
0
100
AcDbLine
 10
0.075278
 20
1.1404
 30
5.88
 11
0.080304
 21
1.115286
 31
5.88
  0
LINE
  5
663
100
AcDbEntity
  8
0
100
AcDbLine
 10
0.080304
 20
1.115286
 30
5.88
 11
0.075278
 21
1.090172
 31
5.88
  0
LINE
  5
664
100
AcDbEntity
  8
0
100
AcDbLine
 10
0.025021
 20
1.3363
 30
5.88
 11
0.004919
 21
1.326252
 31
5.88
  0
LINE
  5
665
100
AcDbEntity
  8
0
100
AcDbLine
 10
0.01497
 20
1.225794
 30
5.88
 11
0.035074
 21
1.210723
 31
5.88
  0
LINE
  5
666
100
AcDbEntity
  8
0
100
AcDbLine
 10
0.035074
 20
1.210723
 30
5.88
 11
0.055176
 21
1.190632
 31
5.88
  0
LINE
  5
667
100
AcDbEntity
  8
0
100
AcDbLine
 10
0.055176
 20
1.190632
 30
5.88
 11
0.070253
 21
1.17054
 31
5.88
  0
LINE
  5
668
100
AcDbEntity
  8
0
100
AcDbLine
 10
-0.025234
 20
1.316207
 30
5.88
 11
-0.050361
 21
1.316207
 31
5.88
  0
LINE
  5
669
100
AcDbEntity
  8
0
100
AcDbLine
 10
-0.04031
 20
1.235839
 30
5.88
 11
-0.010157
 21
1.235839
 31
5.88
  0
LINE
  5
66A
100
AcDbEntity
  8
0
100
AcDbLine
 10
0.004919
 20
1.326252
 30
5.88
 11
-0.025234
 21
1.316207
 31
5.88
  0
LINE
  5
66B
100
AcDbEntity
  8
0
100
AcDbLine
 10
-0.010157
 20
1.235839
 30
5.88
 11
0.01497
 21
1.225794
 31
5.88
  0
LINE
  5
66C
100
AcDbEntity
  8
0
100
AcDbLine
 10
-0.26646
 20
4.601261
 30
5.88
 11
-0.588097
 21
4.601261
 31
5.88
  0
LINE
  5
66D
100
AcDbEntity
  8
0
100
AcDbLine
 10
-0.588097
 20
4.535962
 30
5.88
 11
-0.26646
 21
4.535962
 31
5.88
  0
LINE
  5
66E
100
AcDbEntity
  8
0
100
AcDbLine
 10
-0.26646
 20
4.289834
 30
5.88
 11
-0.588097
 21
4.289834
 31
5.88
  0
LINE
  5
66F
100
AcDbEntity
  8
0
100
AcDbLine
 10
-0.588097
 20
4.219512
 30
5.88
 11
-0.26646
 21
4.219512
 31
5.88
  0
LINE
  5
670
100
AcDbEntity
  8
0
100
AcDbLine
 10
-0.26646
 20
3.973384
 30
5.88
 11
-0.588097
 21
3.973384
 31
5.88
  0
LINE
  5
671
100
AcDbEntity
  8
0
100
AcDbLine
 10
-0.588097
 20
3.908084
 30
5.88
 11
-0.26646
 21
3.908084
 31
5.88
  0
LINE
  5
672
100
AcDbEntity
  8
0
100
AcDbLine
 10
-0.26646
 20
3.661957
 30
5.88
 11
-0.588097
 21
3.661957
 31
5.88
  0
LINE
  5
673
100
AcDbEntity
  8
0
100
AcDbLine
 10
-0.588097
 20
3.596657
 30
5.88
 11
-0.26646
 21
3.596657
 31
5.88
  0
LINE
  5
674
100
AcDbEntity
  8
0
100
AcDbLine
 10
-0.26646
 20
3.350529
 30
5.88
 11
-0.588097
 21
3.350529
 31
5.88
  0
LINE
  5
675
100
AcDbEntity
  8
0
100
AcDbLine
 10
-0.588097
 20
3.280207
 30
5.88
 11
-0.26646
 21
3.280207
 31
5.88
  0
LINE
  5
676
100
AcDbEntity
  8
0
100
AcDbLine
 10
-0.26646
 20
3.034079
 30
5.88
 11
-0.588097
 21
3.034079
 31
5.88
  0
LINE
  5
677
100
AcDbEntity
  8
0
100
AcDbLine
 10
-0.588097
 20
2.96878
 30
5.88
 11
-0.26646
 21
2.96878
 31
5.88
  0
LINE
  5
678
100
AcDbEntity
  8
0
100
AcDbLine
 10
-0.26646
 20
2.722652
 30
5.88
 11
-0.588097
 21
2.722652
 31
5.88
  0
LINE
  5
679
100
AcDbEntity
  8
0
100
AcDbLine
 10
-0.588097
 20
2.652329
 30
5.88
 11
-0.26646
 21
2.652329
 31
5.88
  0
LINE
  5
67A
100
AcDbEntity
  8
0
100
AcDbLine
 10
-0.26646
 20
2.406201
 30
5.88
 11
-0.588097
 21
2.406201
 31
5.88
  0
LINE
  5
67B
100
AcDbEntity
  8
0
100
AcDbLine
 10
-0.588097
 20
2.340904
 30
5.88
 11
-0.26646
 21
2.340904
 31
5.88
  0
LINE
  5
67C
100
AcDbEntity
  8
0
100
AcDbLine
 10
-0.26646
 20
2.094776
 30
5.88
 11
-0.588097
 21
2.094776
 31
5.88
  0
LINE
  5
67D
100
AcDbEntity
  8
0
100
AcDbLine
 10
-0.588097
 20
2.029475
 30
5.88
 11
-0.26646
 21
2.029475
 31
5.88
  0
LINE
  5
67E
100
AcDbEntity
  8
0
100
AcDbLine
 10
-0.26646
 20
1.783347
 30
5.88
 11
-0.588097
 21
1.783347
 31
5.88
  0
LINE
  5
67F
100
AcDbEntity
  8
0
100
AcDbLine
 10
-0.588097
 20
1.713026
 30
5.88
 11
-0.26646
 21
1.713026
 31
5.88
  0
LINE
  5
680
100
AcDbEntity
  8
0
100
AcDbLine
 10
-0.26646
 20
1.466898
 30
5.88
 11
-0.588097
 21
1.466898
 31
5.88
  0
LINE
  5
681
100
AcDbEntity
  8
0
100
AcDbLine
 10
-0.588097
 20
1.401599
 30
5.88
 11
-0.26646
 21
1.401599
 31
5.88
  0
LINE
  5
682
100
AcDbEntity
  8
0
100
AcDbLine
 10
-0.588097
 20
2.094776
 30
5.88
 11
-0.588097
 21
2.340904
 31
5.88
  0
LINE
  5
683
100
AcDbEntity
  8
0
100
AcDbLine
 10
-0.588097
 20
1.466898
 30
5.88
 11
-0.588097
 21
1.713026
 31
5.88
  0
LINE
  5
684
100
AcDbEntity
  8
0
100
AcDbLine
 10
-0.588097
 20
1.783347
 30
5.88
 11
-0.588097
 21
2.029475
 31
5.88
  0
LINE
  5
685
100
AcDbEntity
  8
0
100
AcDbLine
 10
-0.588097
 20
2.406201
 30
5.88
 11
-0.588097
 21
2.652329
 31
5.88
  0
LINE
  5
686
100
AcDbEntity
  8
0
100
AcDbLine
 10
-0.588097
 20
2.722652
 30
5.88
 11
-0.588097
 21
2.96878
 31
5.88
  0
LINE
  5
687
100
AcDbEntity
  8
0
100
AcDbLine
 10
-0.588097
 20
3.661957
 30
5.88
 11
-0.588097
 21
3.908084
 31
5.88
  0
LINE
  5
688
100
AcDbEntity
  8
0
100
AcDbLine
 10
-0.588097
 20
3.350529
 30
5.88
 11
-0.588097
 21
3.596657
 31
5.88
  0
LINE
  5
689
100
AcDbEntity
  8
0
100
AcDbLine
 10
-0.588097
 20
3.034079
 30
5.88
 11
-0.588097
 21
3.280207
 31
5.88
  0
LINE
  5
68A
100
AcDbEntity
  8
0
100
AcDbLine
 10
-0.588097
 20
3.973384
 30
5.88
 11
-0.588097
 21
4.219512
 31
5.88
  0
LINE
  5
68B
100
AcDbEntity
  8
0
100
AcDbLine
 10
-0.588097
 20
4.289834
 30
5.88
 11
-0.588097
 21
4.535962
 31
5.88
  0
LINE
  5
68C
100
AcDbEntity
  8
0
100
AcDbLine
 10
0.075278
 20
3.024033
 30
5.88
 11
0.080304
 21
2.993894
 31
5.88
  0
LINE
  5
68D
100
AcDbEntity
  8
0
100
AcDbLine
 10
-0.150873
 20
3.01901
 30
5.88
 11
-0.145848
 21
3.049148
 31
5.88
  0
LINE
  5
68E
100
AcDbEntity
  8
0
100
AcDbLine
 10
0.110457
 20
3.129518
 30
5.88
 11
0.110457
 21
2.883388
 31
5.88
  0
LINE
  5
68F
100
AcDbEntity
  8
0
100
AcDbLine
 10
-0.211179
 20
2.883388
 30
5.88
 11
-0.211179
 21
3.129518
 31
5.88
  0
LINE
  5
690
100
AcDbEntity
  8
0
100
AcDbLine
 10
-0.110667
 20
3.094356
 30
5.88
 11
0.0401
 21
2.918549
 31
5.88
  0
LINE
  5
691
100
AcDbEntity
  8
0
100
AcDbLine
 10
-0.296615
 20
2.205282
 30
5.88
 11
-0.30164
 21
2.180166
 31
5.88
  0
LINE
  5
692
100
AcDbEntity
  8
0
100
AcDbLine
 10
0.110457
 20
2.190213
 30
5.88
 11
0.110457
 21
1.944085
 31
5.88
  0
LINE
  5
693
100
AcDbEntity
  8
0
100
AcDbLine
 10
-0.211179
 20
1.944085
 30
5.88
 11
-0.211179
 21
2.190213
 31
5.88
  0
LINE
  5
694
100
AcDbEntity
  8
0
100
AcDbLine
 10
-0.26646
 20
2.340904
 30
5.88
 11
-0.26646
 21
2.094776
 31
5.88
  0
LINE
  5
695
100
AcDbEntity
  8
0
100
AcDbLine
 10
-0.487585
 20
2.300719
 30
5.88
 11
-0.331793
 21
2.124912
 31
5.88
  0
LINE
  5
696
100
AcDbEntity
  8
0
100
AcDbLine
 10
-0.522764
 20
2.175144
 30
5.88
 11
-0.527791
 21
2.205282
 31
5.88
  0
LINE
  5
697
100
AcDbEntity
  8
0
100
AcDbLine
 10
-0.065438
 20
2.175144
 30
5.88
 11
-0.04031
 21
2.180166
 31
5.88
  0
LINE
  5
698
100
AcDbEntity
  8
0
100
AcDbLine
 10
-0.065438
 20
1.863717
 30
5.88
 11
-0.04031
 21
1.863717
 31
5.88
  0
LINE
  5
699
100
AcDbEntity
  8
0
100
AcDbLine
 10
-0.050361
 20
1.944085
 30
5.88
 11
-0.075489
 21
1.949107
 31
5.88
  0
LINE
  5
69A
100
AcDbEntity
  8
0
100
AcDbLine
 10
-0.050361
 20
1.632656
 30
5.88
 11
-0.075489
 21
1.637681
 31
5.88
  0
LINE
  5
69B
100
AcDbEntity
  8
0
100
AcDbLine
 10
-0.065438
 20
1.547266
 30
5.88
 11
-0.04031
 21
1.552288
 31
5.88
  0
LINE
  5
69C
100
AcDbEntity
  8
0
100
AcDbLine
 10
0.110457
 20
1.944085
 30
5.88
 11
-0.211179
 21
1.944085
 31
5.88
  0
LINE
  5
69D
100
AcDbEntity
  8
0
100
AcDbLine
 10
-0.211179
 20
1.878784
 30
5.88
 11
0.110457
 21
1.878784
 31
5.88
  0
LINE
  5
69E
100
AcDbEntity
  8
0
100
AcDbLine
 10
0.110457
 20
1.632656
 30
5.88
 11
-0.211179
 21
1.632656
 31
5.88
  0
LINE
  5
69F
100
AcDbEntity
  8
0
100
AcDbLine
 10
-0.110667
 20
1.838601
 30
5.88
 11
0.0401
 21
1.662796
 31
5.88
  0
LINE
  5
6A0
100
AcDbEntity
  8
0
100
AcDbLine
 10
-0.211179
 20
1.562335
 30
5.88
 11
0.110457
 21
1.562335
 31
5.88
  0
LINE
  5
6A1
100
AcDbEntity
  8
0
100
AcDbLine
 10
-0.110667
 20
1.527174
 30
5.88
 11
0.0401
 21
1.351368
 31
5.88
  0
LINE
  5
6A2
100
AcDbEntity
  8
0
100
AcDbLine
 10
-0.110667
 20
2.150028
 30
5.88
 11
0.0401
 21
1.974223
 31
5.88
  0
LINE
  5
6A3
100
AcDbEntity
  8
0
100
AcDbLine
 10
-0.150873
 20
1.768278
 30
5.88
 11
-0.145848
 21
1.793394
 31
5.88
  0
LINE
  5
6A4
100
AcDbEntity
  8
0
100
AcDbLine
 10
-0.211179
 20
1.632656
 30
5.88
 11
-0.211179
 21
1.878784
 31
5.88
  0
LINE
  5
6A5
100
AcDbEntity
  8
0
100
AcDbLine
 10
-0.306666
 20
1.632656
 30
5.88
 11
-0.296615
 21
1.607542
 31
5.88
  0
LINE
  5
6A6
100
AcDbEntity
  8
0
100
AcDbLine
 10
-0.30164
 20
1.552288
 30
5.88
 11
-0.311691
 21
1.527174
 31
5.88
  0
LINE
  5
6A7
100
AcDbEntity
  8
0
100
AcDbLine
 10
-0.487585
 20
1.672841
 30
5.88
 11
-0.331793
 21
1.497036
 31
5.88
  0
LINE
  5
6A8
100
AcDbEntity
  8
0
100
AcDbLine
 10
-0.522764
 20
1.552288
 30
5.88
 11
-0.527791
 21
1.577404
 31
5.88
  0
LINE
  5
6A9
100
AcDbEntity
  8
0
100
AcDbLine
 10
-0.427279
 20
1.466898
 30
5.88
 11
-0.452407
 21
1.471922
 31
5.88
  0
LINE
  5
6AA
100
AcDbEntity
  8
0
100
AcDbLine
 10
-0.442356
 20
1.386528
 30
5.88
 11
-0.412203
 21
1.386528
 31
5.88
  0
LINE
  5
6AB
100
AcDbEntity
  8
0
100
AcDbLine
 10
-0.452407
 20
1.471922
 30
5.88
 11
-0.477534
 21
1.48699
 31
5.88
  0
LINE
  5
6AC
100
AcDbEntity
  8
0
100
AcDbLine
 10
-0.477534
 20
1.48699
 30
5.88
 11
-0.497636
 21
1.502057
 31
5.88
  0
LINE
  5
6AD
100
AcDbEntity
  8
0
100
AcDbLine
 10
-0.487585
 20
1.361414
 30
5.88
 11
-0.467483
 21
1.376483
 31
5.88
  0
LINE
  5
6AE
100
AcDbEntity
  8
0
100
AcDbLine
 10
-0.467483
 20
1.376483
 30
5.88
 11
-0.442356
 21
1.386528
 31
5.88
  0
LINE
  5
6AF
100
AcDbEntity
  8
0
100
AcDbLine
 10
-0.512713
 20
1.527174
 30
5.88
 11
-0.522764
 21
1.552288
 31
5.88
  0
LINE
  5
6B0
100
AcDbEntity
  8
0
100
AcDbLine
 10
-0.497636
 20
1.502057
 30
5.88
 11
-0.512713
 21
1.527174
 31
5.88
  0
LINE
  5
6B1
100
AcDbEntity
  8
0
100
AcDbLine
 10
-0.311691
 20
1.527174
 30
5.88
 11
-0.326768
 21
1.507083
 31
5.88
  0
LINE
  5
6B2
100
AcDbEntity
  8
0
100
AcDbLine
 10
-0.326768
 20
1.507083
 30
5.88
 11
-0.34687
 21
1.48699
 31
5.88
  0
LINE
  5
6B3
100
AcDbEntity
  8
0
100
AcDbLine
 10
-0.34687
 20
1.48699
 30
5.88
 11
-0.371997
 21
1.476943
 31
5.88
  0
LINE
  5
6B4
100
AcDbEntity
  8
0
100
AcDbLine
 10
-0.361946
 20
1.376483
 30
5.88
 11
-0.336819
 21
1.361414
 31
5.88
  0
LINE
  5
6B5
100
AcDbEntity
  8
0
100
AcDbLine
 10
-0.397126
 20
1.466898
 30
5.88
 11
-0.427279
 21
1.466898
 31
5.88
  0
LINE
  5
6B6
100
AcDbEntity
  8
0
100
AcDbLine
 10
-0.412203
 20
1.386528
 30
5.88
 11
-0.387074
 21
1.386528
 31
5.88
  0
LINE
  5
6B7
100
AcDbEntity
  8
0
100
AcDbLine
 10
-0.371997
 20
1.476943
 30
5.88
 11
-0.397126
 21
1.466898
 31
5.88
  0
LINE
  5
6B8
100
AcDbEntity
  8
0
100
AcDbLine
 10
-0.387074
 20
1.386528
 30
5.88
 11
-0.361946
 21
1.376483
 31
5.88
  0
LINE
  5
6B9
100
AcDbEntity
  8
0
100
AcDbLine
 10
-0.442356
 20
1.697957
 30
5.88
 11
-0.412203
 21
1.702979
 31
5.88
  0
LINE
  5
6BA
100
AcDbEntity
  8
0
100
AcDbLine
 10
-0.507687
 20
1.652748
 30
5.88
 11
-0.487585
 21
1.672841
 31
5.88
  0
LINE
  5
6BB
100
AcDbEntity
  8
0
100
AcDbLine
 10
-0.487585
 20
1.672841
 30
5.88
 11
-0.467483
 21
1.68791
 31
5.88
  0
LINE
  5
6BC
100
AcDbEntity
  8
0
100
AcDbLine
 10
-0.467483
 20
1.68791
 30
5.88
 11
-0.442356
 21
1.697957
 31
5.88
  0
LINE
  5
6BD
100
AcDbEntity
  8
0
100
AcDbLine
 10
-0.527791
 20
1.60252
 30
5.88
 11
-0.522764
 21
1.632656
 31
5.88
  0
LINE
  5
6BE
100
AcDbEntity
  8
0
100
AcDbLine
 10
-0.527791
 20
1.577404
 30
5.88
 11
-0.527791
 21
1.60252
 31
5.88
  0
LINE
  5
6BF
100
AcDbEntity
  8
0
100
AcDbLine
 10
-0.522764
 20
1.632656
 30
5.88
 11
-0.507687
 21
1.652748
 31
5.88
  0
LINE
  5
6C0
100
AcDbEntity
  8
0
100
AcDbLine
 10
-0.361946
 20
1.68791
 30
5.88
 11
-0.336819
 21
1.672841
 31
5.88
  0
LINE
  5
6C1
100
AcDbEntity
  8
0
100
AcDbLine
 10
-0.336819
 20
1.672841
 30
5.88
 11
-0.321742
 21
1.652748
 31
5.88
  0
LINE
  5
6C2
100
AcDbEntity
  8
0
100
AcDbLine
 10
-0.321742
 20
1.652748
 30
5.88
 11
-0.306666
 21
1.632656
 31
5.88
  0
LINE
  5
6C3
100
AcDbEntity
  8
0
100
AcDbLine
 10
-0.412203
 20
1.702979
 30
5.88
 11
-0.387074
 21
1.697957
 31
5.88
  0
LINE
  5
6C4
100
AcDbEntity
  8
0
100
AcDbLine
 10
-0.387074
 20
1.697957
 30
5.88
 11
-0.361946
 21
1.68791
 31
5.88
  0
LINE
  5
6C5
100
AcDbEntity
  8
0
100
AcDbLine
 10
-0.296615
 20
1.577404
 30
5.88
 11
-0.30164
 21
1.552288
 31
5.88
  0
LINE
  5
6C6
100
AcDbEntity
  8
0
100
AcDbLine
 10
-0.26646
 20
1.713026
 30
5.88
 11
-0.26646
 21
1.466898
 31
5.88
  0
LINE
  5
6C7
100
AcDbEntity
  8
0
100
AcDbLine
 10
-0.115695
 20
1.52215
 30
5.88
 11
-0.090565
 21
1.537219
 31
5.88
  0
LINE
  5
6C8
100
AcDbEntity
  8
0
100
AcDbLine
 10
-0.090565
 20
1.537219
 30
5.88
 11
-0.065438
 21
1.547266
 31
5.88
  0
LINE
  5
6C9
100
AcDbEntity
  8
0
100
AcDbLine
 10
-0.150873
 20
1.451829
 30
5.88
 11
-0.145848
 21
1.481967
 31
5.88
  0
LINE
  5
6CA
100
AcDbEntity
  8
0
100
AcDbLine
 10
-0.145848
 20
1.481967
 30
5.88
 11
-0.130769
 21
1.502057
 31
5.88
  0
LINE
  5
6CB
100
AcDbEntity
  8
0
100
AcDbLine
 10
-0.140822
 20
1.376483
 30
5.88
 11
-0.150873
 21
1.401599
 31
5.88
  0
LINE
  5
6CC
100
AcDbEntity
  8
0
100
AcDbLine
 10
-0.150873
 20
1.401599
 30
5.88
 11
-0.155899
 21
1.426713
 31
5.88
  0
LINE
  5
6CD
100
AcDbEntity
  8
0
100
AcDbLine
 10
-0.155899
 20
1.426713
 30
5.88
 11
-0.150873
 21
1.451829
 31
5.88
  0
LINE
  5
6CE
100
AcDbEntity
  8
0
100
AcDbLine
 10
-0.130769
 20
1.502057
 30
5.88
 11
-0.115695
 21
1.52215
 31
5.88
  0
LINE
  5
6CF
100
AcDbEntity
  8
0
100
AcDbLine
 10
-0.12072
 20
1.351368
 30
5.88
 11
-0.140822
 21
1.376483
 31
5.88
  0
LINE
  5
6D0
100
AcDbEntity
  8
0
100
AcDbLine
 10
-0.296615
 20
1.607542
 30
5.88
 11
-0.296615
 21
1.577404
 31
5.88
  0
LINE
  5
6D1
100
AcDbEntity
  8
0
100
AcDbLine
 10
-0.075489
 20
1.637681
 30
5.88
 11
-0.100616
 21
1.647727
 31
5.88
  0
LINE
  5
6D2
100
AcDbEntity
  8
0
100
AcDbLine
 10
-0.100616
 20
1.647727
 30
5.88
 11
-0.12072
 21
1.667817
 31
5.88
  0
LINE
  5
6D3
100
AcDbEntity
  8
0
100
AcDbLine
 10
-0.140822
 20
1.68791
 30
5.88
 11
-0.150873
 21
1.713026
 31
5.88
  0
LINE
  5
6D4
100
AcDbEntity
  8
0
100
AcDbLine
 10
-0.150873
 20
1.713026
 30
5.88
 11
-0.155899
 21
1.73814
 31
5.88
  0
LINE
  5
6D5
100
AcDbEntity
  8
0
100
AcDbLine
 10
-0.12072
 20
1.667817
 30
5.88
 11
-0.140822
 21
1.68791
 31
5.88
  0
LINE
  5
6D6
100
AcDbEntity
  8
0
100
AcDbLine
 10
-0.155899
 20
1.73814
 30
5.88
 11
-0.150873
 21
1.768278
 31
5.88
  0
LINE
  5
6D7
100
AcDbEntity
  8
0
100
AcDbLine
 10
-0.30164
 20
2.180166
 30
5.88
 11
-0.311691
 21
2.155051
 31
5.88
  0
LINE
  5
6D8
100
AcDbEntity
  8
0
100
AcDbLine
 10
-0.306666
 20
1.944085
 30
5.88
 11
-0.296615
 21
1.918969
 31
5.88
  0
LINE
  5
6D9
100
AcDbEntity
  8
0
100
AcDbLine
 10
-0.30164
 20
1.863717
 30
5.88
 11
-0.311691
 21
1.838601
 31
5.88
  0
LINE
  5
6DA
100
AcDbEntity
  8
0
100
AcDbLine
 10
-0.336819
 20
1.989292
 30
5.88
 11
-0.321742
 21
1.969199
 31
5.88
  0
LINE
  5
6DB
100
AcDbEntity
  8
0
100
AcDbLine
 10
-0.507687
 20
1.969199
 30
5.88
 11
-0.487585
 21
1.989292
 31
5.88
  0
LINE
  5
6DC
100
AcDbEntity
  8
0
100
AcDbLine
 10
-0.487585
 20
1.989292
 30
5.88
 11
-0.331793
 21
1.813486
 31
5.88
  0
LINE
  5
6DD
100
AcDbEntity
  8
0
100
AcDbLine
 10
-0.427279
 20
1.783347
 30
5.88
 11
-0.452407
 21
1.78837
 31
5.88
  0
LINE
  5
6DE
100
AcDbEntity
  8
0
100
AcDbLine
 10
-0.452407
 20
1.78837
 30
5.88
 11
-0.477534
 21
1.798416
 31
5.88
  0
LINE
  5
6DF
100
AcDbEntity
  8
0
100
AcDbLine
 10
-0.477534
 20
1.798416
 30
5.88
 11
-0.497636
 21
1.818508
 31
5.88
  0
LINE
  5
6E0
100
AcDbEntity
  8
0
100
AcDbLine
 10
-0.527791
 20
1.918969
 30
5.88
 11
-0.522764
 21
1.944085
 31
5.88
  0
LINE
  5
6E1
100
AcDbEntity
  8
0
100
AcDbLine
 10
-0.512713
 20
1.838601
 30
5.88
 11
-0.522764
 21
1.863717
 31
5.88
  0
LINE
  5
6E2
100
AcDbEntity
  8
0
100
AcDbLine
 10
-0.522764
 20
1.863717
 30
5.88
 11
-0.527791
 21
1.888831
 31
5.88
  0
LINE
  5
6E3
100
AcDbEntity
  8
0
100
AcDbLine
 10
-0.527791
 20
1.888831
 30
5.88
 11
-0.527791
 21
1.918969
 31
5.88
  0
LINE
  5
6E4
100
AcDbEntity
  8
0
100
AcDbLine
 10
-0.522764
 20
1.944085
 30
5.88
 11
-0.507687
 21
1.969199
 31
5.88
  0
LINE
  5
6E5
100
AcDbEntity
  8
0
100
AcDbLine
 10
-0.497636
 20
1.818508
 30
5.88
 11
-0.512713
 21
1.838601
 31
5.88
  0
LINE
  5
6E6
100
AcDbEntity
  8
0
100
AcDbLine
 10
-0.311691
 20
1.838601
 30
5.88
 11
-0.326768
 21
1.818508
 31
5.88
  0
LINE
  5
6E7
100
AcDbEntity
  8
0
100
AcDbLine
 10
-0.326768
 20
1.818508
 30
5.88
 11
-0.34687
 21
1.798416
 31
5.88
  0
LINE
  5
6E8
100
AcDbEntity
  8
0
100
AcDbLine
 10
-0.34687
 20
1.798416
 30
5.88
 11
-0.371997
 21
1.78837
 31
5.88
  0
LINE
  5
6E9
100
AcDbEntity
  8
0
100
AcDbLine
 10
-0.397126
 20
1.783347
 30
5.88
 11
-0.427279
 21
1.783347
 31
5.88
  0
LINE
  5
6EA
100
AcDbEntity
  8
0
100
AcDbLine
 10
-0.371997
 20
1.78837
 30
5.88
 11
-0.397126
 21
1.783347
 31
5.88
  0
LINE
  5
6EB
100
AcDbEntity
  8
0
100
AcDbLine
 10
-0.321742
 20
1.969199
 30
5.88
 11
-0.306666
 21
1.944085
 31
5.88
  0
LINE
  5
6EC
100
AcDbEntity
  8
0
100
AcDbLine
 10
-0.427279
 20
2.094776
 30
5.88
 11
-0.452407
 21
2.099797
 31
5.88
  0
LINE
  5
6ED
100
AcDbEntity
  8
0
100
AcDbLine
 10
-0.442356
 20
2.009382
 30
5.88
 11
-0.412203
 21
2.014406
 31
5.88
  0
LINE
  5
6EE
100
AcDbEntity
  8
0
100
AcDbLine
 10
-0.452407
 20
2.099797
 30
5.88
 11
-0.477534
 21
2.114866
 31
5.88
  0
LINE
  5
6EF
100
AcDbEntity
  8
0
100
AcDbLine
 10
-0.477534
 20
2.114866
 30
5.88
 11
-0.497636
 21
2.129937
 31
5.88
  0
LINE
  5
6F0
100
AcDbEntity
  8
0
100
AcDbLine
 10
-0.487585
 20
1.989292
 30
5.88
 11
-0.467483
 21
2.00436
 31
5.88
  0
LINE
  5
6F1
100
AcDbEntity
  8
0
100
AcDbLine
 10
-0.467483
 20
2.00436
 30
5.88
 11
-0.442356
 21
2.009382
 31
5.88
  0
LINE
  5
6F2
100
AcDbEntity
  8
0
100
AcDbLine
 10
-0.512713
 20
2.150028
 30
5.88
 11
-0.522764
 21
2.175144
 31
5.88
  0
LINE
  5
6F3
100
AcDbEntity
  8
0
100
AcDbLine
 10
-0.497636
 20
2.129937
 30
5.88
 11
-0.512713
 21
2.150028
 31
5.88
  0
LINE
  5
6F4
100
AcDbEntity
  8
0
100
AcDbLine
 10
-0.326768
 20
2.129937
 30
5.88
 11
-0.34687
 21
2.114866
 31
5.88
  0
LINE
  5
6F5
100
AcDbEntity
  8
0
100
AcDbLine
 10
-0.34687
 20
2.114866
 30
5.88
 11
-0.371997
 21
2.099797
 31
5.88
  0
LINE
  5
6F6
100
AcDbEntity
  8
0
100
AcDbLine
 10
-0.361946
 20
2.00436
 30
5.88
 11
-0.336819
 21
1.989292
 31
5.88
  0
LINE
  5
6F7
100
AcDbEntity
  8
0
100
AcDbLine
 10
-0.397126
 20
2.094776
 30
5.88
 11
-0.427279
 21
2.094776
 31
5.88
  0
LINE
  5
6F8
100
AcDbEntity
  8
0
100
AcDbLine
 10
-0.412203
 20
2.014406
 30
5.88
 11
-0.387074
 21
2.009382
 31
5.88
  0
LINE
  5
6F9
100
AcDbEntity
  8
0
100
AcDbLine
 10
-0.371997
 20
2.099797
 30
5.88
 11
-0.397126
 21
2.094776
 31
5.88
  0
LINE
  5
6FA
100
AcDbEntity
  8
0
100
AcDbLine
 10
-0.387074
 20
2.009382
 30
5.88
 11
-0.361946
 21
2.00436
 31
5.88
  0
LINE
  5
6FB
100
AcDbEntity
  8
0
100
AcDbLine
 10
-0.311691
 20
2.155051
 30
5.88
 11
-0.326768
 21
2.129937
 31
5.88
  0
LINE
  5
6FC
100
AcDbEntity
  8
0
100
AcDbLine
 10
-0.100616
 20
1.964177
 30
5.88
 11
-0.12072
 21
1.979246
 31
5.88
  0
LINE
  5
6FD
100
AcDbEntity
  8
0
100
AcDbLine
 10
-0.26646
 20
2.029475
 30
5.88
 11
-0.26646
 21
1.783347
 31
5.88
  0
LINE
  5
6FE
100
AcDbEntity
  8
0
100
AcDbLine
 10
-0.296615
 20
1.918969
 30
5.88
 11
-0.296615
 21
1.893855
 31
5.88
  0
LINE
  5
6FF
100
AcDbEntity
  8
0
100
AcDbLine
 10
-0.296615
 20
1.893855
 30
5.88
 11
-0.30164
 21
1.863717
 31
5.88
  0
LINE
  5
700
100
AcDbEntity
  8
0
100
AcDbLine
 10
-0.075489
 20
1.949107
 30
5.88
 11
-0.100616
 21
1.964177
 31
5.88
  0
LINE
  5
701
100
AcDbEntity
  8
0
100
AcDbLine
 10
-0.115695
 20
1.838601
 30
5.88
 11
-0.090565
 21
1.85367
 31
5.88
  0
LINE
  5
702
100
AcDbEntity
  8
0
100
AcDbLine
 10
-0.090565
 20
1.85367
 30
5.88
 11
-0.065438
 21
1.863717
 31
5.88
  0
LINE
  5
703
100
AcDbEntity
  8
0
100
AcDbLine
 10
-0.145848
 20
1.793394
 30
5.88
 11
-0.130769
 21
1.818508
 31
5.88
  0
LINE
  5
704
100
AcDbEntity
  8
0
100
AcDbLine
 10
-0.130769
 20
1.818508
 30
5.88
 11
-0.115695
 21
1.838601
 31
5.88
  0
LINE
  5
705
100
AcDbEntity
  8
0
100
AcDbLine
 10
-0.115695
 20
2.150028
 30
5.88
 11
-0.090565
 21
2.165097
 31
5.88
  0
LINE
  5
706
100
AcDbEntity
  8
0
100
AcDbLine
 10
-0.090565
 20
2.165097
 30
5.88
 11
-0.065438
 21
2.175144
 31
5.88
  0
LINE
  5
707
100
AcDbEntity
  8
0
100
AcDbLine
 10
-0.150873
 20
2.079705
 30
5.88
 11
-0.145848
 21
2.104821
 31
5.88
  0
LINE
  5
708
100
AcDbEntity
  8
0
100
AcDbLine
 10
-0.145848
 20
2.104821
 30
5.88
 11
-0.130769
 21
2.129937
 31
5.88
  0
LINE
  5
709
100
AcDbEntity
  8
0
100
AcDbLine
 10
-0.140822
 20
2.00436
 30
5.88
 11
-0.150873
 21
2.029475
 31
5.88
  0
LINE
  5
70A
100
AcDbEntity
  8
0
100
AcDbLine
 10
-0.150873
 20
2.029475
 30
5.88
 11
-0.155899
 21
2.054591
 31
5.88
  0
LINE
  5
70B
100
AcDbEntity
  8
0
100
AcDbLine
 10
-0.155899
 20
2.054591
 30
5.88
 11
-0.150873
 21
2.079705
 31
5.88
  0
LINE
  5
70C
100
AcDbEntity
  8
0
100
AcDbLine
 10
-0.12072
 20
1.979246
 30
5.88
 11
-0.140822
 21
2.00436
 31
5.88
  0
LINE
  5
70D
100
AcDbEntity
  8
0
100
AcDbLine
 10
-0.130769
 20
2.129937
 30
5.88
 11
-0.115695
 21
2.150028
 31
5.88
  0
LINE
  5
70E
100
AcDbEntity
  8
0
100
AcDbLine
 10
0.070253
 20
1.793394
 30
5.88
 11
0.075278
 21
1.768278
 31
5.88
  0
LINE
  5
70F
100
AcDbEntity
  8
0
100
AcDbLine
 10
0.110457
 20
1.878784
 30
5.88
 11
0.110457
 21
1.632656
 31
5.88
  0
LINE
  5
710
100
AcDbEntity
  8
0
100
AcDbLine
 10
0.070253
 20
1.481967
 30
5.88
 11
0.075278
 21
1.456851
 31
5.88
  0
LINE
  5
711
100
AcDbEntity
  8
0
100
AcDbLine
 10
0.075278
 20
1.401599
 30
5.88
 11
0.065227
 21
1.376483
 31
5.88
  0
LINE
  5
712
100
AcDbEntity
  8
0
100
AcDbLine
 10
0.01497
 20
1.537219
 30
5.88
 11
0.035074
 21
1.52215
 31
5.88
  0
LINE
  5
713
100
AcDbEntity
  8
0
100
AcDbLine
 10
0.035074
 20
1.52215
 30
5.88
 11
0.055176
 21
1.507083
 31
5.88
  0
LINE
  5
714
100
AcDbEntity
  8
0
100
AcDbLine
 10
0.055176
 20
1.507083
 30
5.88
 11
0.070253
 21
1.481967
 31
5.88
  0
LINE
  5
715
100
AcDbEntity
  8
0
100
AcDbLine
 10
0.065227
 20
1.376483
 30
5.88
 11
0.050151
 21
1.356392
 31
5.88
  0
LINE
  5
716
100
AcDbEntity
  8
0
100
AcDbLine
 10
-0.04031
 20
1.552288
 30
5.88
 11
-0.010157
 21
1.547266
 31
5.88
  0
LINE
  5
717
100
AcDbEntity
  8
0
100
AcDbLine
 10
-0.010157
 20
1.547266
 30
5.88
 11
0.01497
 21
1.537219
 31
5.88
  0
LINE
  5
718
100
AcDbEntity
  8
0
100
AcDbLine
 10
0.075278
 20
1.456851
 30
5.88
 11
0.080304
 21
1.426713
 31
5.88
  0
LINE
  5
719
100
AcDbEntity
  8
0
100
AcDbLine
 10
0.080304
 20
1.426713
 30
5.88
 11
0.075278
 21
1.401599
 31
5.88
  0
LINE
  5
71A
100
AcDbEntity
  8
0
100
AcDbLine
 10
0.075278
 20
1.713026
 30
5.88
 11
0.065227
 21
1.68791
 31
5.88
  0
LINE
  5
71B
100
AcDbEntity
  8
0
100
AcDbLine
 10
0.065227
 20
1.68791
 30
5.88
 11
0.050151
 21
1.667817
 31
5.88
  0
LINE
  5
71C
100
AcDbEntity
  8
0
100
AcDbLine
 10
0.050151
 20
1.667817
 30
5.88
 11
0.025021
 21
1.652748
 31
5.88
  0
LINE
  5
71D
100
AcDbEntity
  8
0
100
AcDbLine
 10
0.025021
 20
1.652748
 30
5.88
 11
0.004919
 21
1.637681
 31
5.88
  0
LINE
  5
71E
100
AcDbEntity
  8
0
100
AcDbLine
 10
-0.025234
 20
1.632656
 30
5.88
 11
-0.050361
 21
1.632656
 31
5.88
  0
LINE
  5
71F
100
AcDbEntity
  8
0
100
AcDbLine
 10
0.004919
 20
1.637681
 30
5.88
 11
-0.025234
 21
1.632656
 31
5.88
  0
LINE
  5
720
100
AcDbEntity
  8
0
100
AcDbLine
 10
0.080304
 20
1.743164
 30
5.88
 11
0.075278
 21
1.713026
 31
5.88
  0
LINE
  5
721
100
AcDbEntity
  8
0
100
AcDbLine
 10
0.075278
 20
1.768278
 30
5.88
 11
0.080304
 21
1.743164
 31
5.88
  0
LINE
  5
722
100
AcDbEntity
  8
0
100
AcDbLine
 10
0.050151
 20
1.979246
 30
5.88
 11
0.025021
 21
1.964177
 31
5.88
  0
LINE
  5
723
100
AcDbEntity
  8
0
100
AcDbLine
 10
0.025021
 20
1.964177
 30
5.88
 11
0.004919
 21
1.95413
 31
5.88
  0
LINE
  5
724
100
AcDbEntity
  8
0
100
AcDbLine
 10
0.01497
 20
1.85367
 30
5.88
 11
0.035074
 21
1.838601
 31
5.88
  0
LINE
  5
725
100
AcDbEntity
  8
0
100
AcDbLine
 10
0.035074
 20
1.838601
 30
5.88
 11
0.055176
 21
1.818508
 31
5.88
  0
LINE
  5
726
100
AcDbEntity
  8
0
100
AcDbLine
 10
0.055176
 20
1.818508
 30
5.88
 11
0.070253
 21
1.793394
 31
5.88
  0
LINE
  5
727
100
AcDbEntity
  8
0
100
AcDbLine
 10
-0.025234
 20
1.944085
 30
5.88
 11
-0.050361
 21
1.944085
 31
5.88
  0
LINE
  5
728
100
AcDbEntity
  8
0
100
AcDbLine
 10
-0.04031
 20
1.863717
 30
5.88
 11
-0.010157
 21
1.863717
 31
5.88
  0
LINE
  5
729
100
AcDbEntity
  8
0
100
AcDbLine
 10
0.004919
 20
1.95413
 30
5.88
 11
-0.025234
 21
1.944085
 31
5.88
  0
LINE
  5
72A
100
AcDbEntity
  8
0
100
AcDbLine
 10
-0.010157
 20
1.863717
 30
5.88
 11
0.01497
 21
1.85367
 31
5.88
  0
LINE
  5
72B
100
AcDbEntity
  8
0
100
AcDbLine
 10
0.070253
 20
2.109845
 30
5.88
 11
0.075278
 21
2.084729
 31
5.88
  0
LINE
  5
72C
100
AcDbEntity
  8
0
100
AcDbLine
 10
0.075278
 20
2.029475
 30
5.88
 11
0.065227
 21
2.00436
 31
5.88
  0
LINE
  5
72D
100
AcDbEntity
  8
0
100
AcDbLine
 10
0.01497
 20
2.165097
 30
5.88
 11
0.035074
 21
2.150028
 31
5.88
  0
LINE
  5
72E
100
AcDbEntity
  8
0
100
AcDbLine
 10
-0.04031
 20
2.180166
 30
5.88
 11
-0.010157
 21
2.175144
 31
5.88
  0
LINE
  5
72F
100
AcDbEntity
  8
0
100
AcDbLine
 10
-0.010157
 20
2.175144
 30
5.88
 11
0.01497
 21
2.165097
 31
5.88
  0
LINE
  5
730
100
AcDbEntity
  8
0
100
AcDbLine
 10
0.055176
 20
2.129937
 30
5.88
 11
0.070253
 21
2.109845
 31
5.88
  0
LINE
  5
731
100
AcDbEntity
  8
0
100
AcDbLine
 10
0.065227
 20
2.00436
 30
5.88
 11
0.050151
 21
1.979246
 31
5.88
  0
LINE
  5
732
100
AcDbEntity
  8
0
100
AcDbLine
 10
0.035074
 20
2.150028
 30
5.88
 11
0.055176
 21
2.129937
 31
5.88
  0
LINE
  5
733
100
AcDbEntity
  8
0
100
AcDbLine
 10
0.075278
 20
2.084729
 30
5.88
 11
0.080304
 21
2.054591
 31
5.88
  0
LINE
  5
734
100
AcDbEntity
  8
0
100
AcDbLine
 10
0.080304
 20
2.054591
 30
5.88
 11
0.075278
 21
2.029475
 31
5.88
  0
LINE
  5
735
100
AcDbEntity
  8
0
100
AcDbLine
 10
-0.050361
 20
2.883388
 30
5.88
 11
-0.075489
 21
2.893435
 31
5.88
  0
LINE
  5
736
100
AcDbEntity
  8
0
100
AcDbLine
 10
-0.065438
 20
2.80302
 30
5.88
 11
-0.04031
 21
2.80302
 31
5.88
  0
LINE
  5
737
100
AcDbEntity
  8
0
100
AcDbLine
 10
-0.050361
 20
2.571961
 30
5.88
 11
-0.075489
 21
2.576984
 31
5.88
  0
LINE
  5
738
100
AcDbEntity
  8
0
100
AcDbLine
 10
-0.065438
 20
2.486571
 30
5.88
 11
-0.04031
 21
2.491595
 31
5.88
  0
LINE
  5
739
100
AcDbEntity
  8
0
100
AcDbLine
 10
-0.050361
 20
2.260534
 30
5.88
 11
-0.075489
 21
2.265557
 31
5.88
  0
LINE
  5
73A
100
AcDbEntity
  8
0
100
AcDbLine
 10
0.110457
 20
2.883388
 30
5.88
 11
-0.211179
 21
2.883388
 31
5.88
  0
LINE
  5
73B
100
AcDbEntity
  8
0
100
AcDbLine
 10
-0.211179
 20
2.818089
 30
5.88
 11
0.110457
 21
2.818089
 31
5.88
  0
LINE
  5
73C
100
AcDbEntity
  8
0
100
AcDbLine
 10
0.110457
 20
2.571961
 30
5.88
 11
-0.211179
 21
2.571961
 31
5.88
  0
LINE
  5
73D
100
AcDbEntity
  8
0
100
AcDbLine
 10
-0.110667
 20
2.777906
 30
5.88
 11
0.0401
 21
2.6021
 31
5.88
  0
LINE
  5
73E
100
AcDbEntity
  8
0
100
AcDbLine
 10
-0.211179
 20
2.506663
 30
5.88
 11
0.110457
 21
2.506663
 31
5.88
  0
LINE
  5
73F
100
AcDbEntity
  8
0
100
AcDbLine
 10
0.110457
 20
2.260534
 30
5.88
 11
-0.211179
 21
2.260534
 31
5.88
  0
LINE
  5
740
100
AcDbEntity
  8
0
100
AcDbLine
 10
-0.110667
 20
2.466478
 30
5.88
 11
0.0401
 21
2.290671
 31
5.88
  0
LINE
  5
741
100
AcDbEntity
  8
0
100
AcDbLine
 10
-0.211179
 20
2.190213
 30
5.88
 11
0.110457
 21
2.190213
 31
5.88
  0
LINE
  5
742
100
AcDbEntity
  8
0
100
AcDbLine
 10
-0.100616
 20
2.592053
 30
5.88
 11
-0.12072
 21
2.607122
 31
5.88
  0
LINE
  5
743
100
AcDbEntity
  8
0
100
AcDbLine
 10
-0.211179
 20
2.571961
 30
5.88
 11
-0.211179
 21
2.818089
 31
5.88
  0
LINE
  5
744
100
AcDbEntity
  8
0
100
AcDbLine
 10
-0.336819
 20
2.617169
 30
5.88
 11
-0.321742
 21
2.597077
 31
5.88
  0
LINE
  5
745
100
AcDbEntity
  8
0
100
AcDbLine
 10
-0.507687
 20
2.592053
 30
5.88
 11
-0.487585
 21
2.612146
 31
5.88
  0
LINE
  5
746
100
AcDbEntity
  8
0
100
AcDbLine
 10
-0.26646
 20
2.652329
 30
5.88
 11
-0.26646
 21
2.406201
 31
5.88
  0
LINE
  5
747
100
AcDbEntity
  8
0
100
AcDbLine
 10
-0.487585
 20
2.617169
 30
5.88
 11
-0.331793
 21
2.441362
 31
5.88
  0
LINE
  5
748
100
AcDbEntity
  8
0
100
AcDbLine
 10
-0.306666
 20
2.571961
 30
5.88
 11
-0.296615
 21
2.546847
 31
5.88
  0
LINE
  5
749
100
AcDbEntity
  8
0
100
AcDbLine
 10
-0.30164
 20
2.491595
 30
5.88
 11
-0.311691
 21
2.466478
 31
5.88
  0
LINE
  5
74A
100
AcDbEntity
  8
0
100
AcDbLine
 10
-0.306666
 20
2.260534
 30
5.88
 11
-0.296615
 21
2.230396
 31
5.88
  0
LINE
  5
74B
100
AcDbEntity
  8
0
100
AcDbLine
 10
-0.442356
 20
2.325833
 30
5.88
 11
-0.412203
 21
2.325833
 31
5.88
  0
LINE
  5
74C
100
AcDbEntity
  8
0
100
AcDbLine
 10
-0.507687
 20
2.280626
 30
5.88
 11
-0.487585
 21
2.300719
 31
5.88
  0
LINE
  5
74D
100
AcDbEntity
  8
0
100
AcDbLine
 10
-0.487585
 20
2.300719
 30
5.88
 11
-0.467483
 21
2.315788
 31
5.88
  0
LINE
  5
74E
100
AcDbEntity
  8
0
100
AcDbLine
 10
-0.467483
 20
2.315788
 30
5.88
 11
-0.442356
 21
2.325833
 31
5.88
  0
LINE
  5
74F
100
AcDbEntity
  8
0
100
AcDbLine
 10
-0.527791
 20
2.230396
 30
5.88
 11
-0.522764
 21
2.25551
 31
5.88
  0
LINE
  5
750
100
AcDbEntity
  8
0
100
AcDbLine
 10
-0.527791
 20
2.205282
 30
5.88
 11
-0.527791
 21
2.230396
 31
5.88
  0
LINE
  5
751
100
AcDbEntity
  8
0
100
AcDbLine
 10
-0.522764
 20
2.25551
 30
5.88
 11
-0.507687
 21
2.280626
 31
5.88
  0
LINE
  5
752
100
AcDbEntity
  8
0
100
AcDbLine
 10
-0.361946
 20
2.315788
 30
5.88
 11
-0.336819
 21
2.300719
 31
5.88
  0
LINE
  5
753
100
AcDbEntity
  8
0
100
AcDbLine
 10
-0.336819
 20
2.300719
 30
5.88
 11
-0.321742
 21
2.280626
 31
5.88
  0
LINE
  5
754
100
AcDbEntity
  8
0
100
AcDbLine
 10
-0.321742
 20
2.280626
 30
5.88
 11
-0.306666
 21
2.260534
 31
5.88
  0
LINE
  5
755
100
AcDbEntity
  8
0
100
AcDbLine
 10
-0.412203
 20
2.325833
 30
5.88
 11
-0.387074
 21
2.325833
 31
5.88
  0
LINE
  5
756
100
AcDbEntity
  8
0
100
AcDbLine
 10
-0.387074
 20
2.325833
 30
5.88
 11
-0.361946
 21
2.315788
 31
5.88
  0
LINE
  5
757
100
AcDbEntity
  8
0
100
AcDbLine
 10
-0.427279
 20
2.406201
 30
5.88
 11
-0.452407
 21
2.416248
 31
5.88
  0
LINE
  5
758
100
AcDbEntity
  8
0
100
AcDbLine
 10
-0.452407
 20
2.416248
 30
5.88
 11
-0.477534
 21
2.426293
 31
5.88
  0
LINE
  5
759
100
AcDbEntity
  8
0
100
AcDbLine
 10
-0.477534
 20
2.426293
 30
5.88
 11
-0.497636
 21
2.446386
 31
5.88
  0
LINE
  5
75A
100
AcDbEntity
  8
0
100
AcDbLine
 10
-0.527791
 20
2.546847
 30
5.88
 11
-0.522764
 21
2.571961
 31
5.88
  0
LINE
  5
75B
100
AcDbEntity
  8
0
100
AcDbLine
 10
-0.512713
 20
2.466478
 30
5.88
 11
-0.522764
 21
2.491595
 31
5.88
  0
LINE
  5
75C
100
AcDbEntity
  8
0
100
AcDbLine
 10
-0.522764
 20
2.491595
 30
5.88
 11
-0.527791
 21
2.516709
 31
5.88
  0
LINE
  5
75D
100
AcDbEntity
  8
0
100
AcDbLine
 10
-0.527791
 20
2.516709
 30
5.88
 11
-0.527791
 21
2.546847
 31
5.88
  0
LINE
  5
75E
100
AcDbEntity
  8
0
100
AcDbLine
 10
-0.522764
 20
2.571961
 30
5.88
 11
-0.507687
 21
2.592053
 31
5.88
  0
LINE
  5
75F
100
AcDbEntity
  8
0
100
AcDbLine
 10
-0.497636
 20
2.446386
 30
5.88
 11
-0.512713
 21
2.466478
 31
5.88
  0
LINE
  5
760
100
AcDbEntity
  8
0
100
AcDbLine
 10
-0.321742
 20
2.597077
 30
5.88
 11
-0.306666
 21
2.571961
 31
5.88
  0
LINE
  5
761
100
AcDbEntity
  8
0
100
AcDbLine
 10
-0.311691
 20
2.466478
 30
5.88
 11
-0.326768
 21
2.446386
 31
5.88
  0
LINE
  5
762
100
AcDbEntity
  8
0
100
AcDbLine
 10
-0.326768
 20
2.446386
 30
5.88
 11
-0.34687
 21
2.426293
 31
5.88
  0
LINE
  5
763
100
AcDbEntity
  8
0
100
AcDbLine
 10
-0.34687
 20
2.426293
 30
5.88
 11
-0.371997
 21
2.416248
 31
5.88
  0
LINE
  5
764
100
AcDbEntity
  8
0
100
AcDbLine
 10
-0.397126
 20
2.411225
 30
5.88
 11
-0.427279
 21
2.406201
 31
5.88
  0
LINE
  5
765
100
AcDbEntity
  8
0
100
AcDbLine
 10
-0.371997
 20
2.416248
 30
5.88
 11
-0.397126
 21
2.411225
 31
5.88
  0
LINE
  5
766
100
AcDbEntity
  8
0
100
AcDbLine
 10
-0.155899
 20
2.366018
 30
5.88
 11
-0.150873
 21
2.396156
 31
5.88
  0
LINE
  5
767
100
AcDbEntity
  8
0
100
AcDbLine
 10
-0.211179
 20
2.260534
 30
5.88
 11
-0.211179
 21
2.506663
 31
5.88
  0
LINE
  5
768
100
AcDbEntity
  8
0
100
AcDbLine
 10
-0.296615
 20
2.230396
 30
5.88
 11
-0.296615
 21
2.205282
 31
5.88
  0
LINE
  5
769
100
AcDbEntity
  8
0
100
AcDbLine
 10
-0.075489
 20
2.265557
 30
5.88
 11
-0.100616
 21
2.275603
 31
5.88
  0
LINE
  5
76A
100
AcDbEntity
  8
0
100
AcDbLine
 10
-0.100616
 20
2.275603
 30
5.88
 11
-0.12072
 21
2.295695
 31
5.88
  0
LINE
  5
76B
100
AcDbEntity
  8
0
100
AcDbLine
 10
-0.140822
 20
2.315788
 30
5.88
 11
-0.150873
 21
2.340904
 31
5.88
  0
LINE
  5
76C
100
AcDbEntity
  8
0
100
AcDbLine
 10
-0.12072
 20
2.295695
 30
5.88
 11
-0.140822
 21
2.315788
 31
5.88
  0
LINE
  5
76D
100
AcDbEntity
  8
0
100
AcDbLine
 10
-0.150873
 20
2.340904
 30
5.88
 11
-0.155899
 21
2.366018
 31
5.88
  0
LINE
  5
76E
100
AcDbEntity
  8
0
100
AcDbLine
 10
-0.296615
 20
2.516709
 30
5.88
 11
-0.30164
 21
2.491595
 31
5.88
  0
LINE
  5
76F
100
AcDbEntity
  8
0
100
AcDbLine
 10
-0.296615
 20
2.546847
 30
5.88
 11
-0.296615
 21
2.516709
 31
5.88
  0
LINE
  5
770
100
AcDbEntity
  8
0
100
AcDbLine
 10
-0.075489
 20
2.576984
 30
5.88
 11
-0.100616
 21
2.592053
 31
5.88
  0
LINE
  5
771
100
AcDbEntity
  8
0
100
AcDbLine
 10
-0.115695
 20
2.461455
 30
5.88
 11
-0.090565
 21
2.476524
 31
5.88
  0
LINE
  5
772
100
AcDbEntity
  8
0
100
AcDbLine
 10
-0.090565
 20
2.476524
 30
5.88
 11
-0.065438
 21
2.486571
 31
5.88
  0
LINE
  5
773
100
AcDbEntity
  8
0
100
AcDbLine
 10
-0.150873
 20
2.396156
 30
5.88
 11
-0.145848
 21
2.421272
 31
5.88
  0
LINE
  5
774
100
AcDbEntity
  8
0
100
AcDbLine
 10
-0.145848
 20
2.421272
 30
5.88
 11
-0.130769
 21
2.446386
 31
5.88
  0
LINE
  5
775
100
AcDbEntity
  8
0
100
AcDbLine
 10
-0.130769
 20
2.446386
 30
5.88
 11
-0.115695
 21
2.461455
 31
5.88
  0
LINE
  5
776
100
AcDbEntity
  8
0
100
AcDbLine
 10
-0.306666
 20
2.883388
 30
5.88
 11
-0.296615
 21
2.858274
 31
5.88
  0
LINE
  5
777
100
AcDbEntity
  8
0
100
AcDbLine
 10
-0.30164
 20
2.80302
 30
5.88
 11
-0.311691
 21
2.777906
 31
5.88
  0
LINE
  5
778
100
AcDbEntity
  8
0
100
AcDbLine
 10
-0.487585
 20
2.928596
 30
5.88
 11
-0.331793
 21
2.752791
 31
5.88
  0
LINE
  5
779
100
AcDbEntity
  8
0
100
AcDbLine
 10
-0.522764
 20
2.80302
 30
5.88
 11
-0.527791
 21
2.833159
 31
5.88
  0
LINE
  5
77A
100
AcDbEntity
  8
0
100
AcDbLine
 10
-0.427279
 20
2.722652
 30
5.88
 11
-0.452407
 21
2.727675
 31
5.88
  0
LINE
  5
77B
100
AcDbEntity
  8
0
100
AcDbLine
 10
-0.442356
 20
2.63726
 30
5.88
 11
-0.412203
 21
2.642284
 31
5.88
  0
LINE
  5
77C
100
AcDbEntity
  8
0
100
AcDbLine
 10
-0.452407
 20
2.727675
 30
5.88
 11
-0.477534
 21
2.737722
 31
5.88
  0
LINE
  5
77D
100
AcDbEntity
  8
0
100
AcDbLine
 10
-0.487585
 20
2.612146
 30
5.88
 11
-0.467483
 21
2.627215
 31
5.88
  0
LINE
  5
77E
100
AcDbEntity
  8
0
100
AcDbLine
 10
-0.467483
 20
2.627215
 30
5.88
 11
-0.442356
 21
2.63726
 31
5.88
  0
LINE
  5
77F
100
AcDbEntity
  8
0
100
AcDbLine
 10
-0.477534
 20
2.737722
 30
5.88
 11
-0.497636
 21
2.757813
 31
5.88
  0
LINE
  5
780
100
AcDbEntity
  8
0
100
AcDbLine
 10
-0.512713
 20
2.777906
 30
5.88
 11
-0.522764
 21
2.80302
 31
5.88
  0
LINE
  5
781
100
AcDbEntity
  8
0
100
AcDbLine
 10
-0.497636
 20
2.757813
 30
5.88
 11
-0.512713
 21
2.777906
 31
5.88
  0
LINE
  5
782
100
AcDbEntity
  8
0
100
AcDbLine
 10
-0.311691
 20
2.777906
 30
5.88
 11
-0.326768
 21
2.757813
 31
5.88
  0
LINE
  5
783
100
AcDbEntity
  8
0
100
AcDbLine
 10
-0.34687
 20
2.742744
 30
5.88
 11
-0.371997
 21
2.727675
 31
5.88
  0
LINE
  5
784
100
AcDbEntity
  8
0
100
AcDbLine
 10
-0.361946
 20
2.627215
 30
5.88
 11
-0.336819
 21
2.617169
 31
5.88
  0
LINE
  5
785
100
AcDbEntity
  8
0
100
AcDbLine
 10
-0.397126
 20
2.722652
 30
5.88
 11
-0.427279
 21
2.722652
 31
5.88
  0
LINE
  5
786
100
AcDbEntity
  8
0
100
AcDbLine
 10
-0.412203
 20
2.642284
 30
5.88
 11
-0.387074
 21
2.63726
 31
5.88
  0
LINE
  5
787
100
AcDbEntity
  8
0
100
AcDbLine
 10
-0.371997
 20
2.727675
 30
5.88
 11
-0.397126
 21
2.722652
 31
5.88
  0
LINE
  5
788
100
AcDbEntity
  8
0
100
AcDbLine
 10
-0.387074
 20
2.63726
 30
5.88
 11
-0.361946
 21
2.627215
 31
5.88
  0
LINE
  5
789
100
AcDbEntity
  8
0
100
AcDbLine
 10
-0.326768
 20
2.757813
 30
5.88
 11
-0.34687
 21
2.742744
 31
5.88
  0
LINE
  5
78A
100
AcDbEntity
  8
0
100
AcDbLine
 10
-0.442356
 20
2.953711
 30
5.88
 11
-0.412203
 21
2.953711
 31
5.88
  0
LINE
  5
78B
100
AcDbEntity
  8
0
100
AcDbLine
 10
-0.507687
 20
2.908504
 30
5.88
 11
-0.487585
 21
2.928596
 31
5.88
  0
LINE
  5
78C
100
AcDbEntity
  8
0
100
AcDbLine
 10
-0.487585
 20
2.928596
 30
5.88
 11
-0.467483
 21
2.943665
 31
5.88
  0
LINE
  5
78D
100
AcDbEntity
  8
0
100
AcDbLine
 10
-0.467483
 20
2.943665
 30
5.88
 11
-0.442356
 21
2.953711
 31
5.88
  0
LINE
  5
78E
100
AcDbEntity
  8
0
100
AcDbLine
 10
-0.527791
 20
2.858274
 30
5.88
 11
-0.522764
 21
2.883388
 31
5.88
  0
LINE
  5
78F
100
AcDbEntity
  8
0
100
AcDbLine
 10
-0.527791
 20
2.833159
 30
5.88
 11
-0.527791
 21
2.858274
 31
5.88
  0
LINE
  5
790
100
AcDbEntity
  8
0
100
AcDbLine
 10
-0.522764
 20
2.883388
 30
5.88
 11
-0.507687
 21
2.908504
 31
5.88
  0
LINE
  5
791
100
AcDbEntity
  8
0
100
AcDbLine
 10
-0.412203
 20
2.953711
 30
5.88
 11
-0.387074
 21
2.953711
 31
5.88
  0
LINE
  5
792
100
AcDbEntity
  8
0
100
AcDbLine
 10
-0.361946
 20
2.943665
 30
5.88
 11
-0.336819
 21
2.928596
 31
5.88
  0
LINE
  5
793
100
AcDbEntity
  8
0
100
AcDbLine
 10
-0.336819
 20
2.928596
 30
5.88
 11
-0.321742
 21
2.908504
 31
5.88
  0
LINE
  5
794
100
AcDbEntity
  8
0
100
AcDbLine
 10
-0.321742
 20
2.908504
 30
5.88
 11
-0.306666
 21
2.883388
 31
5.88
  0
LINE
  5
795
100
AcDbEntity
  8
0
100
AcDbLine
 10
-0.387074
 20
2.953711
 30
5.88
 11
-0.361946
 21
2.943665
 31
5.88
  0
LINE
  5
796
100
AcDbEntity
  8
0
100
AcDbLine
 10
-0.296615
 20
2.833159
 30
5.88
 11
-0.30164
 21
2.80302
 31
5.88
  0
LINE
  5
797
100
AcDbEntity
  8
0
100
AcDbLine
 10
-0.26646
 20
2.96878
 30
5.88
 11
-0.26646
 21
2.722652
 31
5.88
  0
LINE
  5
798
100
AcDbEntity
  8
0
100
AcDbLine
 10
-0.115695
 20
2.777906
 30
5.88
 11
-0.090565
 21
2.792974
 31
5.88
  0
LINE
  5
799
100
AcDbEntity
  8
0
100
AcDbLine
 10
-0.090565
 20
2.792974
 30
5.88
 11
-0.065438
 21
2.80302
 31
5.88
  0
LINE
  5
79A
100
AcDbEntity
  8
0
100
AcDbLine
 10
-0.130769
 20
2.757813
 30
5.88
 11
-0.115695
 21
2.777906
 31
5.88
  0
LINE
  5
79B
100
AcDbEntity
  8
0
100
AcDbLine
 10
-0.150873
 20
2.707583
 30
5.88
 11
-0.145848
 21
2.732699
 31
5.88
  0
LINE
  5
79C
100
AcDbEntity
  8
0
100
AcDbLine
 10
-0.140822
 20
2.627215
 30
5.88
 11
-0.150873
 21
2.652329
 31
5.88
  0
LINE
  5
79D
100
AcDbEntity
  8
0
100
AcDbLine
 10
-0.150873
 20
2.652329
 30
5.88
 11
-0.155899
 21
2.682469
 31
5.88
  0
LINE
  5
79E
100
AcDbEntity
  8
0
100
AcDbLine
 10
-0.155899
 20
2.682469
 30
5.88
 11
-0.150873
 21
2.707583
 31
5.88
  0
LINE
  5
79F
100
AcDbEntity
  8
0
100
AcDbLine
 10
-0.12072
 20
2.607122
 30
5.88
 11
-0.140822
 21
2.627215
 31
5.88
  0
LINE
  5
7A0
100
AcDbEntity
  8
0
100
AcDbLine
 10
-0.145848
 20
2.732699
 30
5.88
 11
-0.130769
 21
2.757813
 31
5.88
  0
LINE
  5
7A1
100
AcDbEntity
  8
0
100
AcDbLine
 10
-0.296615
 20
2.858274
 30
5.88
 11
-0.296615
 21
2.833159
 31
5.88
  0
LINE
  5
7A2
100
AcDbEntity
  8
0
100
AcDbLine
 10
-0.150873
 20
2.96878
 30
5.88
 11
-0.155899
 21
2.993894
 31
5.88
  0
LINE
  5
7A3
100
AcDbEntity
  8
0
100
AcDbLine
 10
-0.155899
 20
2.993894
 30
5.88
 11
-0.150873
 21
3.01901
 31
5.88
  0
LINE
  5
7A4
100
AcDbEntity
  8
0
100
AcDbLine
 10
-0.075489
 20
2.893435
 30
5.88
 11
-0.100616
 21
2.90348
 31
5.88
  0
LINE
  5
7A5
100
AcDbEntity
  8
0
100
AcDbLine
 10
-0.100616
 20
2.90348
 30
5.88
 11
-0.12072
 21
2.918549
 31
5.88
  0
LINE
  5
7A6
100
AcDbEntity
  8
0
100
AcDbLine
 10
-0.12072
 20
2.918549
 30
5.88
 11
-0.140822
 21
2.943665
 31
5.88
  0
LINE
  5
7A7
100
AcDbEntity
  8
0
100
AcDbLine
 10
-0.140822
 20
2.943665
 30
5.88
 11
-0.150873
 21
2.96878
 31
5.88
  0
LINE
  5
7A8
100
AcDbEntity
  8
0
100
AcDbLine
 10
0.050151
 20
2.607122
 30
5.88
 11
0.025021
 21
2.592053
 31
5.88
  0
LINE
  5
7A9
100
AcDbEntity
  8
0
100
AcDbLine
 10
0.110457
 20
2.818089
 30
5.88
 11
0.110457
 21
2.571961
 31
5.88
  0
LINE
  5
7AA
100
AcDbEntity
  8
0
100
AcDbLine
 10
0.075278
 20
2.396156
 30
5.88
 11
0.080304
 21
2.371041
 31
5.88
  0
LINE
  5
7AB
100
AcDbEntity
  8
0
100
AcDbLine
 10
0.110457
 20
2.506663
 30
5.88
 11
0.110457
 21
2.260534
 31
5.88
  0
LINE
  5
7AC
100
AcDbEntity
  8
0
100
AcDbLine
 10
0.075278
 20
2.340904
 30
5.88
 11
0.065227
 21
2.315788
 31
5.88
  0
LINE
  5
7AD
100
AcDbEntity
  8
0
100
AcDbLine
 10
0.065227
 20
2.315788
 30
5.88
 11
0.050151
 21
2.295695
 31
5.88
  0
LINE
  5
7AE
100
AcDbEntity
  8
0
100
AcDbLine
 10
0.050151
 20
2.295695
 30
5.88
 11
0.025021
 21
2.275603
 31
5.88
  0
LINE
  5
7AF
100
AcDbEntity
  8
0
100
AcDbLine
 10
0.025021
 20
2.275603
 30
5.88
 11
0.004919
 21
2.265557
 31
5.88
  0
LINE
  5
7B0
100
AcDbEntity
  8
0
100
AcDbLine
 10
-0.025234
 20
2.260534
 30
5.88
 11
-0.050361
 21
2.260534
 31
5.88
  0
LINE
  5
7B1
100
AcDbEntity
  8
0
100
AcDbLine
 10
0.004919
 20
2.265557
 30
5.88
 11
-0.025234
 21
2.260534
 31
5.88
  0
LINE
  5
7B2
100
AcDbEntity
  8
0
100
AcDbLine
 10
0.080304
 20
2.371041
 30
5.88
 11
0.075278
 21
2.340904
 31
5.88
  0
LINE
  5
7B3
100
AcDbEntity
  8
0
100
AcDbLine
 10
0.070253
 20
2.421272
 30
5.88
 11
0.075278
 21
2.396156
 31
5.88
  0
LINE
  5
7B4
100
AcDbEntity
  8
0
100
AcDbLine
 10
0.025021
 20
2.592053
 30
5.88
 11
0.004919
 21
2.576984
 31
5.88
  0
LINE
  5
7B5
100
AcDbEntity
  8
0
100
AcDbLine
 10
0.01497
 20
2.481547
 30
5.88
 11
0.035074
 21
2.466478
 31
5.88
  0
LINE
  5
7B6
100
AcDbEntity
  8
0
100
AcDbLine
 10
0.035074
 20
2.466478
 30
5.88
 11
0.055176
 21
2.446386
 31
5.88
  0
LINE
  5
7B7
100
AcDbEntity
  8
0
100
AcDbLine
 10
0.055176
 20
2.446386
 30
5.88
 11
0.070253
 21
2.421272
 31
5.88
  0
LINE
  5
7B8
100
AcDbEntity
  8
0
100
AcDbLine
 10
-0.025234
 20
2.571961
 30
5.88
 11
-0.050361
 21
2.571961
 31
5.88
  0
LINE
  5
7B9
100
AcDbEntity
  8
0
100
AcDbLine
 10
-0.04031
 20
2.491595
 30
5.88
 11
-0.010157
 21
2.486571
 31
5.88
  0
LINE
  5
7BA
100
AcDbEntity
  8
0
100
AcDbLine
 10
0.004919
 20
2.576984
 30
5.88
 11
-0.025234
 21
2.571961
 31
5.88
  0
LINE
  5
7BB
100
AcDbEntity
  8
0
100
AcDbLine
 10
-0.010157
 20
2.486571
 30
5.88
 11
0.01497
 21
2.481547
 31
5.88
  0
LINE
  5
7BC
100
AcDbEntity
  8
0
100
AcDbLine
 10
0.070253
 20
2.732699
 30
5.88
 11
0.075278
 21
2.707583
 31
5.88
  0
LINE
  5
7BD
100
AcDbEntity
  8
0
100
AcDbLine
 10
0.075278
 20
2.657352
 30
5.88
 11
0.065227
 21
2.632238
 31
5.88
  0
LINE
  5
7BE
100
AcDbEntity
  8
0
100
AcDbLine
 10
0.01497
 20
2.792974
 30
5.88
 11
0.035074
 21
2.777906
 31
5.88
  0
LINE
  5
7BF
100
AcDbEntity
  8
0
100
AcDbLine
 10
0.035074
 20
2.777906
 30
5.88
 11
0.055176
 21
2.757813
 31
5.88
  0
LINE
  5
7C0
100
AcDbEntity
  8
0
100
AcDbLine
 10
0.065227
 20
2.632238
 30
5.88
 11
0.050151
 21
2.607122
 31
5.88
  0
LINE
  5
7C1
100
AcDbEntity
  8
0
100
AcDbLine
 10
0.055176
 20
2.757813
 30
5.88
 11
0.070253
 21
2.732699
 31
5.88
  0
LINE
  5
7C2
100
AcDbEntity
  8
0
100
AcDbLine
 10
-0.04031
 20
2.80302
 30
5.88
 11
-0.010157
 21
2.80302
 31
5.88
  0
LINE
  5
7C3
100
AcDbEntity
  8
0
100
AcDbLine
 10
-0.010157
 20
2.80302
 30
5.88
 11
0.01497
 21
2.792974
 31
5.88
  0
LINE
  5
7C4
100
AcDbEntity
  8
0
100
AcDbLine
 10
0.075278
 20
2.707583
 30
5.88
 11
0.080304
 21
2.682469
 31
5.88
  0
LINE
  5
7C5
100
AcDbEntity
  8
0
100
AcDbLine
 10
0.080304
 20
2.682469
 30
5.88
 11
0.075278
 21
2.657352
 31
5.88
  0
LINE
  5
7C6
100
AcDbEntity
  8
0
100
AcDbLine
 10
0.075278
 20
2.96878
 30
5.88
 11
0.065227
 21
2.943665
 31
5.88
  0
LINE
  5
7C7
100
AcDbEntity
  8
0
100
AcDbLine
 10
0.065227
 20
2.943665
 30
5.88
 11
0.050151
 21
2.923573
 31
5.88
  0
LINE
  5
7C8
100
AcDbEntity
  8
0
100
AcDbLine
 10
0.050151
 20
2.923573
 30
5.88
 11
0.025021
 21
2.90348
 31
5.88
  0
LINE
  5
7C9
100
AcDbEntity
  8
0
100
AcDbLine
 10
0.025021
 20
2.90348
 30
5.88
 11
0.004919
 21
2.893435
 31
5.88
  0
LINE
  5
7CA
100
AcDbEntity
  8
0
100
AcDbLine
 10
-0.025234
 20
2.883388
 30
5.88
 11
-0.050361
 21
2.883388
 31
5.88
  0
LINE
  5
7CB
100
AcDbEntity
  8
0
100
AcDbLine
 10
0.004919
 20
2.893435
 30
5.88
 11
-0.025234
 21
2.883388
 31
5.88
  0
LINE
  5
7CC
100
AcDbEntity
  8
0
100
AcDbLine
 10
0.080304
 20
2.993894
 30
5.88
 11
0.075278
 21
2.96878
 31
5.88
  0
LINE
  5
7CD
100
AcDbEntity
  8
0
100
AcDbLine
 10
0.050151
 20
3.862878
 30
5.88
 11
0.025021
 21
3.842785
 31
5.88
  0
LINE
  5
7CE
100
AcDbEntity
  8
0
100
AcDbLine
 10
0.110457
 20
4.073844
 30
5.88
 11
0.110457
 21
3.827716
 31
5.88
  0
LINE
  5
7CF
100
AcDbEntity
  8
0
100
AcDbLine
 10
-0.100616
 20
3.842785
 30
5.88
 11
-0.12072
 21
3.862878
 31
5.88
  0
LINE
  5
7D0
100
AcDbEntity
  8
0
100
AcDbLine
 10
-0.211179
 20
3.827716
 30
5.88
 11
-0.211179
 21
4.073844
 31
5.88
  0
LINE
  5
7D1
100
AcDbEntity
  8
0
100
AcDbLine
 10
-0.336819
 20
3.867901
 30
5.88
 11
-0.321742
 21
3.847809
 31
5.88
  0
LINE
  5
7D2
100
AcDbEntity
  8
0
100
AcDbLine
 10
-0.507687
 20
3.847809
 30
5.88
 11
-0.487585
 21
3.867901
 31
5.88
  0
LINE
  5
7D3
100
AcDbEntity
  8
0
100
AcDbLine
 10
-0.110667
 20
4.033659
 30
5.88
 11
0.0401
 21
3.857854
 31
5.88
  0
LINE
  5
7D4
100
AcDbEntity
  8
0
100
AcDbLine
 10
-0.26646
 20
3.908084
 30
5.88
 11
-0.26646
 21
3.661957
 31
5.88
  0
LINE
  5
7D5
100
AcDbEntity
  8
0
100
AcDbLine
 10
-0.487585
 20
3.867901
 30
5.88
 11
-0.331793
 21
3.692094
 31
5.88
  0
LINE
  5
7D6
100
AcDbEntity
  8
0
100
AcDbLine
 10
-0.050361
 20
3.827716
 30
5.88
 11
-0.075489
 21
3.83274
 31
5.88
  0
LINE
  5
7D7
100
AcDbEntity
  8
0
100
AcDbLine
 10
-0.065438
 20
3.742325
 30
5.88
 11
-0.04031
 21
3.747348
 31
5.88
  0
LINE
  5
7D8
100
AcDbEntity
  8
0
100
AcDbLine
 10
0.110457
 20
3.827716
 30
5.88
 11
-0.211179
 21
3.827716
 31
5.88
  0
LINE
  5
7D9
100
AcDbEntity
  8
0
100
AcDbLine
 10
-0.211179
 20
3.757395
 30
5.88
 11
0.110457
 21
3.757395
 31
5.88
  0
LINE
  5
7DA
100
AcDbEntity
  8
0
100
AcDbLine
 10
-0.050361
 20
3.511268
 30
5.88
 11
-0.075489
 21
3.516289
 31
5.88
  0
LINE
  5
7DB
100
AcDbEntity
  8
0
100
AcDbLine
 10
-0.065438
 20
3.430898
 30
5.88
 11
-0.04031
 21
3.430898
 31
5.88
  0
LINE
  5
7DC
100
AcDbEntity
  8
0
100
AcDbLine
 10
-0.050361
 20
3.199839
 30
5.88
 11
-0.075489
 21
3.204862
 31
5.88
  0
LINE
  5
7DD
100
AcDbEntity
  8
0
100
AcDbLine
 10
-0.065438
 20
3.114449
 30
5.88
 11
-0.04031
 21
3.11947
 31
5.88
  0
LINE
  5
7DE
100
AcDbEntity
  8
0
100
AcDbLine
 10
0.110457
 20
3.511268
 30
5.88
 11
-0.211179
 21
3.511268
 31
5.88
  0
LINE
  5
7DF
100
AcDbEntity
  8
0
100
AcDbLine
 10
-0.110667
 20
3.71721
 30
5.88
 11
0.0401
 21
3.541403
 31
5.88
  0
LINE
  5
7E0
100
AcDbEntity
  8
0
100
AcDbLine
 10
-0.211179
 20
3.445966
 30
5.88
 11
0.110457
 21
3.445966
 31
5.88
  0
LINE
  5
7E1
100
AcDbEntity
  8
0
100
AcDbLine
 10
0.110457
 20
3.199839
 30
5.88
 11
-0.211179
 21
3.199839
 31
5.88
  0
LINE
  5
7E2
100
AcDbEntity
  8
0
100
AcDbLine
 10
-0.110667
 20
3.405783
 30
5.88
 11
0.0401
 21
3.229978
 31
5.88
  0
LINE
  5
7E3
100
AcDbEntity
  8
0
100
AcDbLine
 10
-0.211179
 20
3.129518
 30
5.88
 11
0.110457
 21
3.129518
 31
5.88
  0
LINE
  5
7E4
100
AcDbEntity
  8
0
100
AcDbLine
 10
-0.296615
 20
3.461035
 30
5.88
 11
-0.30164
 21
3.430898
 31
5.88
  0
LINE
  5
7E5
100
AcDbEntity
  8
0
100
AcDbLine
 10
-0.26646
 20
3.596657
 30
5.88
 11
-0.26646
 21
3.350529
 31
5.88
  0
LINE
  5
7E6
100
AcDbEntity
  8
0
100
AcDbLine
 10
-0.487585
 20
3.556472
 30
5.88
 11
-0.331793
 21
3.380667
 31
5.88
  0
LINE
  5
7E7
100
AcDbEntity
  8
0
100
AcDbLine
 10
-0.211179
 20
3.199839
 30
5.88
 11
-0.211179
 21
3.445966
 31
5.88
  0
LINE
  5
7E8
100
AcDbEntity
  8
0
100
AcDbLine
 10
-0.522764
 20
3.430898
 30
5.88
 11
-0.527791
 21
3.456014
 31
5.88
  0
LINE
  5
7E9
100
AcDbEntity
  8
0
100
AcDbLine
 10
-0.30164
 20
3.430898
 30
5.88
 11
-0.311691
 21
3.405783
 31
5.88
  0
LINE
  5
7EA
100
AcDbEntity
  8
0
100
AcDbLine
 10
-0.306666
 20
3.199839
 30
5.88
 11
-0.296615
 21
3.174724
 31
5.88
  0
LINE
  5
7EB
100
AcDbEntity
  8
0
100
AcDbLine
 10
-0.30164
 20
3.11947
 30
5.88
 11
-0.311691
 21
3.094356
 31
5.88
  0
LINE
  5
7EC
100
AcDbEntity
  8
0
100
AcDbLine
 10
-0.336819
 20
3.240024
 30
5.88
 11
-0.321742
 21
3.219931
 31
5.88
  0
LINE
  5
7ED
100
AcDbEntity
  8
0
100
AcDbLine
 10
-0.507687
 20
3.219931
 30
5.88
 11
-0.487585
 21
3.240024
 31
5.88
  0
LINE
  5
7EE
100
AcDbEntity
  8
0
100
AcDbLine
 10
-0.487585
 20
3.240024
 30
5.88
 11
-0.331793
 21
3.064217
 31
5.88
  0
LINE
  5
7EF
100
AcDbEntity
  8
0
100
AcDbLine
 10
-0.427279
 20
3.034079
 30
5.88
 11
-0.452407
 21
3.039102
 31
5.88
  0
LINE
  5
7F0
100
AcDbEntity
  8
0
100
AcDbLine
 10
-0.452407
 20
3.039102
 30
5.88
 11
-0.477534
 21
3.054171
 31
5.88
  0
LINE
  5
7F1
100
AcDbEntity
  8
0
100
AcDbLine
 10
-0.477534
 20
3.054171
 30
5.88
 11
-0.497636
 21
3.06924
 31
5.88
  0
LINE
  5
7F2
100
AcDbEntity
  8
0
100
AcDbLine
 10
-0.527791
 20
3.169701
 30
5.88
 11
-0.522764
 21
3.199839
 31
5.88
  0
LINE
  5
7F3
100
AcDbEntity
  8
0
100
AcDbLine
 10
-0.527791
 20
3.144585
 30
5.88
 11
-0.527791
 21
3.169701
 31
5.88
  0
LINE
  5
7F4
100
AcDbEntity
  8
0
100
AcDbLine
 10
-0.512713
 20
3.094356
 30
5.88
 11
-0.522764
 21
3.11947
 31
5.88
  0
LINE
  5
7F5
100
AcDbEntity
  8
0
100
AcDbLine
 10
-0.522764
 20
3.11947
 30
5.88
 11
-0.527791
 21
3.144585
 31
5.88
  0
LINE
  5
7F6
100
AcDbEntity
  8
0
100
AcDbLine
 10
-0.522764
 20
3.199839
 30
5.88
 11
-0.507687
 21
3.219931
 31
5.88
  0
LINE
  5
7F7
100
AcDbEntity
  8
0
100
AcDbLine
 10
-0.497636
 20
3.06924
 30
5.88
 11
-0.512713
 21
3.094356
 31
5.88
  0
LINE
  5
7F8
100
AcDbEntity
  8
0
100
AcDbLine
 10
-0.321742
 20
3.219931
 30
5.88
 11
-0.306666
 21
3.199839
 31
5.88
  0
LINE
  5
7F9
100
AcDbEntity
  8
0
100
AcDbLine
 10
-0.311691
 20
3.094356
 30
5.88
 11
-0.326768
 21
3.074264
 31
5.88
  0
LINE
  5
7FA
100
AcDbEntity
  8
0
100
AcDbLine
 10
-0.326768
 20
3.074264
 30
5.88
 11
-0.34687
 21
3.054171
 31
5.88
  0
LINE
  5
7FB
100
AcDbEntity
  8
0
100
AcDbLine
 10
-0.34687
 20
3.054171
 30
5.88
 11
-0.371997
 21
3.044126
 31
5.88
  0
LINE
  5
7FC
100
AcDbEntity
  8
0
100
AcDbLine
 10
-0.397126
 20
3.034079
 30
5.88
 11
-0.427279
 21
3.034079
 31
5.88
  0
LINE
  5
7FD
100
AcDbEntity
  8
0
100
AcDbLine
 10
-0.371997
 20
3.044126
 30
5.88
 11
-0.397126
 21
3.034079
 31
5.88
  0
LINE
  5
7FE
100
AcDbEntity
  8
0
100
AcDbLine
 10
-0.427279
 20
3.350529
 30
5.88
 11
-0.452407
 21
3.355553
 31
5.88
  0
LINE
  5
7FF
100
AcDbEntity
  8
0
100
AcDbLine
 10
-0.442356
 20
3.26514
 30
5.88
 11
-0.412203
 21
3.270161
 31
5.88
  0
LINE
  5
800
100
AcDbEntity
  8
0
100
AcDbLine
 10
-0.452407
 20
3.355553
 30
5.88
 11
-0.477534
 21
3.365598
 31
5.88
  0
LINE
  5
801
100
AcDbEntity
  8
0
100
AcDbLine
 10
-0.477534
 20
3.365598
 30
5.88
 11
-0.497636
 21
3.385691
 31
5.88
  0
LINE
  5
802
100
AcDbEntity
  8
0
100
AcDbLine
 10
-0.487585
 20
3.240024
 30
5.88
 11
-0.467483
 21
3.255092
 31
5.88
  0
LINE
  5
803
100
AcDbEntity
  8
0
100
AcDbLine
 10
-0.467483
 20
3.255092
 30
5.88
 11
-0.442356
 21
3.26514
 31
5.88
  0
LINE
  5
804
100
AcDbEntity
  8
0
100
AcDbLine
 10
-0.512713
 20
3.405783
 30
5.88
 11
-0.522764
 21
3.430898
 31
5.88
  0
LINE
  5
805
100
AcDbEntity
  8
0
100
AcDbLine
 10
-0.497636
 20
3.385691
 30
5.88
 11
-0.512713
 21
3.405783
 31
5.88
  0
LINE
  5
806
100
AcDbEntity
  8
0
100
AcDbLine
 10
-0.311691
 20
3.405783
 30
5.88
 11
-0.326768
 21
3.385691
 31
5.88
  0
LINE
  5
807
100
AcDbEntity
  8
0
100
AcDbLine
 10
-0.326768
 20
3.385691
 30
5.88
 11
-0.34687
 21
3.365598
 31
5.88
  0
LINE
  5
808
100
AcDbEntity
  8
0
100
AcDbLine
 10
-0.34687
 20
3.365598
 30
5.88
 11
-0.371997
 21
3.355553
 31
5.88
  0
LINE
  5
809
100
AcDbEntity
  8
0
100
AcDbLine
 10
-0.397126
 20
3.350529
 30
5.88
 11
-0.427279
 21
3.350529
 31
5.88
  0
LINE
  5
80A
100
AcDbEntity
  8
0
100
AcDbLine
 10
-0.371997
 20
3.355553
 30
5.88
 11
-0.397126
 21
3.350529
 31
5.88
  0
LINE
  5
80B
100
AcDbEntity
  8
0
100
AcDbLine
 10
-0.361946
 20
3.255092
 30
5.88
 11
-0.336819
 21
3.240024
 31
5.88
  0
LINE
  5
80C
100
AcDbEntity
  8
0
100
AcDbLine
 10
-0.412203
 20
3.270161
 30
5.88
 11
-0.387074
 21
3.26514
 31
5.88
  0
LINE
  5
80D
100
AcDbEntity
  8
0
100
AcDbLine
 10
-0.387074
 20
3.26514
 30
5.88
 11
-0.361946
 21
3.255092
 31
5.88
  0
LINE
  5
80E
100
AcDbEntity
  8
0
100
AcDbLine
 10
-0.100616
 20
3.214907
 30
5.88
 11
-0.12072
 21
3.235
 31
5.88
  0
LINE
  5
80F
100
AcDbEntity
  8
0
100
AcDbLine
 10
-0.26646
 20
3.280207
 30
5.88
 11
-0.26646
 21
3.034079
 31
5.88
  0
LINE
  5
810
100
AcDbEntity
  8
0
100
AcDbLine
 10
-0.296615
 20
3.174724
 30
5.88
 11
-0.296615
 21
3.144585
 31
5.88
  0
LINE
  5
811
100
AcDbEntity
  8
0
100
AcDbLine
 10
-0.296615
 20
3.144585
 30
5.88
 11
-0.30164
 21
3.11947
 31
5.88
  0
LINE
  5
812
100
AcDbEntity
  8
0
100
AcDbLine
 10
-0.075489
 20
3.204862
 30
5.88
 11
-0.100616
 21
3.214907
 31
5.88
  0
LINE
  5
813
100
AcDbEntity
  8
0
100
AcDbLine
 10
-0.115695
 20
3.089333
 30
5.88
 11
-0.090565
 21
3.104402
 31
5.88
  0
LINE
  5
814
100
AcDbEntity
  8
0
100
AcDbLine
 10
-0.090565
 20
3.104402
 30
5.88
 11
-0.065438
 21
3.114449
 31
5.88
  0
LINE
  5
815
100
AcDbEntity
  8
0
100
AcDbLine
 10
-0.145848
 20
3.049148
 30
5.88
 11
-0.130769
 21
3.06924
 31
5.88
  0
LINE
  5
816
100
AcDbEntity
  8
0
100
AcDbLine
 10
-0.130769
 20
3.06924
 30
5.88
 11
-0.115695
 21
3.089333
 31
5.88
  0
LINE
  5
817
100
AcDbEntity
  8
0
100
AcDbLine
 10
-0.115695
 20
3.405783
 30
5.88
 11
-0.090565
 21
3.420852
 31
5.88
  0
LINE
  5
818
100
AcDbEntity
  8
0
100
AcDbLine
 10
-0.090565
 20
3.420852
 30
5.88
 11
-0.065438
 21
3.430898
 31
5.88
  0
LINE
  5
819
100
AcDbEntity
  8
0
100
AcDbLine
 10
-0.145848
 20
3.360577
 30
5.88
 11
-0.130769
 21
3.385691
 31
5.88
  0
LINE
  5
81A
100
AcDbEntity
  8
0
100
AcDbLine
 10
-0.130769
 20
3.385691
 30
5.88
 11
-0.115695
 21
3.405783
 31
5.88
  0
LINE
  5
81B
100
AcDbEntity
  8
0
100
AcDbLine
 10
-0.140822
 20
3.255092
 30
5.88
 11
-0.150873
 21
3.280207
 31
5.88
  0
LINE
  5
81C
100
AcDbEntity
  8
0
100
AcDbLine
 10
-0.150873
 20
3.280207
 30
5.88
 11
-0.155899
 21
3.305323
 31
5.88
  0
LINE
  5
81D
100
AcDbEntity
  8
0
100
AcDbLine
 10
-0.155899
 20
3.305323
 30
5.88
 11
-0.150873
 21
3.335461
 31
5.88
  0
LINE
  5
81E
100
AcDbEntity
  8
0
100
AcDbLine
 10
-0.12072
 20
3.235
 30
5.88
 11
-0.140822
 21
3.255092
 31
5.88
  0
LINE
  5
81F
100
AcDbEntity
  8
0
100
AcDbLine
 10
-0.150873
 20
3.335461
 30
5.88
 11
-0.145848
 21
3.360577
 31
5.88
  0
LINE
  5
820
100
AcDbEntity
  8
0
100
AcDbLine
 10
-0.306666
 20
3.827716
 30
5.88
 11
-0.296615
 21
3.797579
 31
5.88
  0
LINE
  5
821
100
AcDbEntity
  8
0
100
AcDbLine
 10
-0.306666
 20
3.511268
 30
5.88
 11
-0.296615
 21
3.486151
 31
5.88
  0
LINE
  5
822
100
AcDbEntity
  8
0
100
AcDbLine
 10
-0.30164
 20
3.747348
 30
5.88
 11
-0.311691
 21
3.722234
 31
5.88
  0
LINE
  5
823
100
AcDbEntity
  8
0
100
AcDbLine
 10
-0.442356
 20
3.576565
 30
5.88
 11
-0.412203
 21
3.581588
 31
5.88
  0
LINE
  5
824
100
AcDbEntity
  8
0
100
AcDbLine
 10
-0.487585
 20
3.556472
 30
5.88
 11
-0.467483
 21
3.571543
 31
5.88
  0
LINE
  5
825
100
AcDbEntity
  8
0
100
AcDbLine
 10
-0.467483
 20
3.571543
 30
5.88
 11
-0.442356
 21
3.576565
 31
5.88
  0
LINE
  5
826
100
AcDbEntity
  8
0
100
AcDbLine
 10
-0.507687
 20
3.536382
 30
5.88
 11
-0.487585
 21
3.556472
 31
5.88
  0
LINE
  5
827
100
AcDbEntity
  8
0
100
AcDbLine
 10
-0.527791
 20
3.486151
 30
5.88
 11
-0.522764
 21
3.511268
 31
5.88
  0
LINE
  5
828
100
AcDbEntity
  8
0
100
AcDbLine
 10
-0.527791
 20
3.456014
 30
5.88
 11
-0.527791
 21
3.486151
 31
5.88
  0
LINE
  5
829
100
AcDbEntity
  8
0
100
AcDbLine
 10
-0.522764
 20
3.511268
 30
5.88
 11
-0.507687
 21
3.536382
 31
5.88
  0
LINE
  5
82A
100
AcDbEntity
  8
0
100
AcDbLine
 10
-0.361946
 20
3.571543
 30
5.88
 11
-0.336819
 21
3.556472
 31
5.88
  0
LINE
  5
82B
100
AcDbEntity
  8
0
100
AcDbLine
 10
-0.412203
 20
3.581588
 30
5.88
 11
-0.387074
 21
3.576565
 31
5.88
  0
LINE
  5
82C
100
AcDbEntity
  8
0
100
AcDbLine
 10
-0.387074
 20
3.576565
 30
5.88
 11
-0.361946
 21
3.571543
 31
5.88
  0
LINE
  5
82D
100
AcDbEntity
  8
0
100
AcDbLine
 10
-0.321742
 20
3.536382
 30
5.88
 11
-0.306666
 21
3.511268
 31
5.88
  0
LINE
  5
82E
100
AcDbEntity
  8
0
100
AcDbLine
 10
-0.336819
 20
3.556472
 30
5.88
 11
-0.321742
 21
3.536382
 31
5.88
  0
LINE
  5
82F
100
AcDbEntity
  8
0
100
AcDbLine
 10
-0.427279
 20
3.661957
 30
5.88
 11
-0.452407
 21
3.66698
 31
5.88
  0
LINE
  5
830
100
AcDbEntity
  8
0
100
AcDbLine
 10
-0.452407
 20
3.66698
 30
5.88
 11
-0.477534
 21
3.682049
 31
5.88
  0
LINE
  5
831
100
AcDbEntity
  8
0
100
AcDbLine
 10
-0.477534
 20
3.682049
 30
5.88
 11
-0.497636
 21
3.697118
 31
5.88
  0
LINE
  5
832
100
AcDbEntity
  8
0
100
AcDbLine
 10
-0.527791
 20
3.797579
 30
5.88
 11
-0.522764
 21
3.822693
 31
5.88
  0
LINE
  5
833
100
AcDbEntity
  8
0
100
AcDbLine
 10
-0.522764
 20
3.742325
 30
5.88
 11
-0.527791
 21
3.772462
 31
5.88
  0
LINE
  5
834
100
AcDbEntity
  8
0
100
AcDbLine
 10
-0.527791
 20
3.772462
 30
5.88
 11
-0.527791
 21
3.797579
 31
5.88
  0
LINE
  5
835
100
AcDbEntity
  8
0
100
AcDbLine
 10
-0.512713
 20
3.71721
 30
5.88
 11
-0.522764
 21
3.742325
 31
5.88
  0
LINE
  5
836
100
AcDbEntity
  8
0
100
AcDbLine
 10
-0.522764
 20
3.822693
 30
5.88
 11
-0.507687
 21
3.847809
 31
5.88
  0
LINE
  5
837
100
AcDbEntity
  8
0
100
AcDbLine
 10
-0.497636
 20
3.697118
 30
5.88
 11
-0.512713
 21
3.71721
 31
5.88
  0
LINE
  5
838
100
AcDbEntity
  8
0
100
AcDbLine
 10
-0.321742
 20
3.847809
 30
5.88
 11
-0.306666
 21
3.827716
 31
5.88
  0
LINE
  5
839
100
AcDbEntity
  8
0
100
AcDbLine
 10
-0.311691
 20
3.722234
 30
5.88
 11
-0.326768
 21
3.697118
 31
5.88
  0
LINE
  5
83A
100
AcDbEntity
  8
0
100
AcDbLine
 10
-0.326768
 20
3.697118
 30
5.88
 11
-0.34687
 21
3.682049
 31
5.88
  0
LINE
  5
83B
100
AcDbEntity
  8
0
100
AcDbLine
 10
-0.34687
 20
3.682049
 30
5.88
 11
-0.371997
 21
3.66698
 31
5.88
  0
LINE
  5
83C
100
AcDbEntity
  8
0
100
AcDbLine
 10
-0.397126
 20
3.661957
 30
5.88
 11
-0.427279
 21
3.661957
 31
5.88
  0
LINE
  5
83D
100
AcDbEntity
  8
0
100
AcDbLine
 10
-0.371997
 20
3.66698
 30
5.88
 11
-0.397126
 21
3.661957
 31
5.88
  0
LINE
  5
83E
100
AcDbEntity
  8
0
100
AcDbLine
 10
-0.150873
 20
3.646888
 30
5.88
 11
-0.145848
 21
3.672002
 31
5.88
  0
LINE
  5
83F
100
AcDbEntity
  8
0
100
AcDbLine
 10
-0.211179
 20
3.511268
 30
5.88
 11
-0.211179
 21
3.757395
 31
5.88
  0
LINE
  5
840
100
AcDbEntity
  8
0
100
AcDbLine
 10
-0.296615
 20
3.486151
 30
5.88
 11
-0.296615
 21
3.461035
 31
5.88
  0
LINE
  5
841
100
AcDbEntity
  8
0
100
AcDbLine
 10
-0.140822
 20
3.571543
 30
5.88
 11
-0.150873
 21
3.596657
 31
5.88
  0
LINE
  5
842
100
AcDbEntity
  8
0
100
AcDbLine
 10
-0.150873
 20
3.596657
 30
5.88
 11
-0.155899
 21
3.621773
 31
5.88
  0
LINE
  5
843
100
AcDbEntity
  8
0
100
AcDbLine
 10
-0.155899
 20
3.621773
 30
5.88
 11
-0.150873
 21
3.646888
 31
5.88
  0
LINE
  5
844
100
AcDbEntity
  8
0
100
AcDbLine
 10
-0.12072
 20
3.546427
 30
5.88
 11
-0.140822
 21
3.571543
 31
5.88
  0
LINE
  5
845
100
AcDbEntity
  8
0
100
AcDbLine
 10
-0.075489
 20
3.516289
 30
5.88
 11
-0.100616
 21
3.531358
 31
5.88
  0
LINE
  5
846
100
AcDbEntity
  8
0
100
AcDbLine
 10
-0.100616
 20
3.531358
 30
5.88
 11
-0.12072
 21
3.546427
 31
5.88
  0
LINE
  5
847
100
AcDbEntity
  8
0
100
AcDbLine
 10
-0.296615
 20
3.797579
 30
5.88
 11
-0.296615
 21
3.772462
 31
5.88
  0
LINE
  5
848
100
AcDbEntity
  8
0
100
AcDbLine
 10
-0.296615
 20
3.772462
 30
5.88
 11
-0.30164
 21
3.747348
 31
5.88
  0
LINE
  5
849
100
AcDbEntity
  8
0
100
AcDbLine
 10
-0.075489
 20
3.83274
 30
5.88
 11
-0.100616
 21
3.842785
 31
5.88
  0
LINE
  5
84A
100
AcDbEntity
  8
0
100
AcDbLine
 10
-0.115695
 20
3.71721
 30
5.88
 11
-0.090565
 21
3.732279
 31
5.88
  0
LINE
  5
84B
100
AcDbEntity
  8
0
100
AcDbLine
 10
-0.145848
 20
3.672002
 30
5.88
 11
-0.130769
 21
3.697118
 31
5.88
  0
LINE
  5
84C
100
AcDbEntity
  8
0
100
AcDbLine
 10
-0.130769
 20
3.697118
 30
5.88
 11
-0.115695
 21
3.71721
 31
5.88
  0
LINE
  5
84D
100
AcDbEntity
  8
0
100
AcDbLine
 10
-0.090565
 20
3.732279
 30
5.88
 11
-0.065438
 21
3.742325
 31
5.88
  0
LINE
  5
84E
100
AcDbEntity
  8
0
100
AcDbLine
 10
0.110457
 20
3.445966
 30
5.88
 11
0.110457
 21
3.199839
 31
5.88
  0
LINE
  5
84F
100
AcDbEntity
  8
0
100
AcDbLine
 10
0.050151
 20
3.235
 30
5.88
 11
0.025021
 21
3.219931
 31
5.88
  0
LINE
  5
850
100
AcDbEntity
  8
0
100
AcDbLine
 10
0.070253
 20
3.049148
 30
5.88
 11
0.075278
 21
3.024033
 31
5.88
  0
LINE
  5
851
100
AcDbEntity
  8
0
100
AcDbLine
 10
0.025021
 20
3.219931
 30
5.88
 11
0.004919
 21
3.204862
 31
5.88
  0
LINE
  5
852
100
AcDbEntity
  8
0
100
AcDbLine
 10
0.01497
 20
3.104402
 30
5.88
 11
0.035074
 21
3.089333
 31
5.88
  0
LINE
  5
853
100
AcDbEntity
  8
0
100
AcDbLine
 10
0.035074
 20
3.089333
 30
5.88
 11
0.055176
 21
3.074264
 31
5.88
  0
LINE
  5
854
100
AcDbEntity
  8
0
100
AcDbLine
 10
0.055176
 20
3.074264
 30
5.88
 11
0.070253
 21
3.049148
 31
5.88
  0
LINE
  5
855
100
AcDbEntity
  8
0
100
AcDbLine
 10
-0.025234
 20
3.199839
 30
5.88
 11
-0.050361
 21
3.199839
 31
5.88
  0
LINE
  5
856
100
AcDbEntity
  8
0
100
AcDbLine
 10
-0.04031
 20
3.11947
 30
5.88
 11
-0.010157
 21
3.114449
 31
5.88
  0
LINE
  5
857
100
AcDbEntity
  8
0
100
AcDbLine
 10
0.004919
 20
3.204862
 30
5.88
 11
-0.025234
 21
3.199839
 31
5.88
  0
LINE
  5
858
100
AcDbEntity
  8
0
100
AcDbLine
 10
-0.010157
 20
3.114449
 30
5.88
 11
0.01497
 21
3.104402
 31
5.88
  0
LINE
  5
859
100
AcDbEntity
  8
0
100
AcDbLine
 10
0.075278
 20
3.280207
 30
5.88
 11
0.065227
 21
3.255092
 31
5.88
  0
LINE
  5
85A
100
AcDbEntity
  8
0
100
AcDbLine
 10
0.070253
 20
3.360577
 30
5.88
 11
0.075278
 21
3.335461
 31
5.88
  0
LINE
  5
85B
100
AcDbEntity
  8
0
100
AcDbLine
 10
0.01497
 20
3.420852
 30
5.88
 11
0.035074
 21
3.405783
 31
5.88
  0
LINE
  5
85C
100
AcDbEntity
  8
0
100
AcDbLine
 10
0.035074
 20
3.405783
 30
5.88
 11
0.055176
 21
3.385691
 31
5.88
  0
LINE
  5
85D
100
AcDbEntity
  8
0
100
AcDbLine
 10
0.055176
 20
3.385691
 30
5.88
 11
0.070253
 21
3.360577
 31
5.88
  0
LINE
  5
85E
100
AcDbEntity
  8
0
100
AcDbLine
 10
0.065227
 20
3.255092
 30
5.88
 11
0.050151
 21
3.235
 31
5.88
  0
LINE
  5
85F
100
AcDbEntity
  8
0
100
AcDbLine
 10
-0.04031
 20
3.430898
 30
5.88
 11
-0.010157
 21
3.430898
 31
5.88
  0
LINE
  5
860
100
AcDbEntity
  8
0
100
AcDbLine
 10
-0.010157
 20
3.430898
 30
5.88
 11
0.01497
 21
3.420852
 31
5.88
  0
LINE
  5
861
100
AcDbEntity
  8
0
100
AcDbLine
 10
0.075278
 20
3.335461
 30
5.88
 11
0.080304
 21
3.310344
 31
5.88
  0
LINE
  5
862
100
AcDbEntity
  8
0
100
AcDbLine
 10
0.080304
 20
3.310344
 30
5.88
 11
0.075278
 21
3.280207
 31
5.88
  0
LINE
  5
863
100
AcDbEntity
  8
0
100
AcDbLine
 10
0.075278
 20
3.651911
 30
5.88
 11
0.080304
 21
3.621773
 31
5.88
  0
LINE
  5
864
100
AcDbEntity
  8
0
100
AcDbLine
 10
0.110457
 20
3.757395
 30
5.88
 11
0.110457
 21
3.511268
 31
5.88
  0
LINE
  5
865
100
AcDbEntity
  8
0
100
AcDbLine
 10
0.075278
 20
3.596657
 30
5.88
 11
0.065227
 21
3.571543
 31
5.88
  0
LINE
  5
866
100
AcDbEntity
  8
0
100
AcDbLine
 10
0.065227
 20
3.571543
 30
5.88
 11
0.050151
 21
3.546427
 31
5.88
  0
LINE
  5
867
100
AcDbEntity
  8
0
100
AcDbLine
 10
0.025021
 20
3.531358
 30
5.88
 11
0.004919
 21
3.521311
 31
5.88
  0
LINE
  5
868
100
AcDbEntity
  8
0
100
AcDbLine
 10
0.050151
 20
3.546427
 30
5.88
 11
0.025021
 21
3.531358
 31
5.88
  0
LINE
  5
869
100
AcDbEntity
  8
0
100
AcDbLine
 10
-0.025234
 20
3.511268
 30
5.88
 11
-0.050361
 21
3.511268
 31
5.88
  0
LINE
  5
86A
100
AcDbEntity
  8
0
100
AcDbLine
 10
0.004919
 20
3.521311
 30
5.88
 11
-0.025234
 21
3.511268
 31
5.88
  0
LINE
  5
86B
100
AcDbEntity
  8
0
100
AcDbLine
 10
0.080304
 20
3.621773
 30
5.88
 11
0.075278
 21
3.596657
 31
5.88
  0
LINE
  5
86C
100
AcDbEntity
  8
0
100
AcDbLine
 10
0.070253
 20
3.677025
 30
5.88
 11
0.075278
 21
3.651911
 31
5.88
  0
LINE
  5
86D
100
AcDbEntity
  8
0
100
AcDbLine
 10
0.025021
 20
3.842785
 30
5.88
 11
0.004919
 21
3.83274
 31
5.88
  0
LINE
  5
86E
100
AcDbEntity
  8
0
100
AcDbLine
 10
-0.025234
 20
3.827716
 30
5.88
 11
-0.050361
 21
3.827716
 31
5.88
  0
LINE
  5
86F
100
AcDbEntity
  8
0
100
AcDbLine
 10
-0.04031
 20
3.747348
 30
5.88
 11
-0.010157
 21
3.742325
 31
5.88
  0
LINE
  5
870
100
AcDbEntity
  8
0
100
AcDbLine
 10
0.004919
 20
3.83274
 30
5.88
 11
-0.025234
 21
3.827716
 31
5.88
  0
LINE
  5
871
100
AcDbEntity
  8
0
100
AcDbLine
 10
0.01497
 20
3.732279
 30
5.88
 11
0.035074
 21
3.71721
 31
5.88
  0
LINE
  5
872
100
AcDbEntity
  8
0
100
AcDbLine
 10
0.035074
 20
3.71721
 30
5.88
 11
0.055176
 21
3.697118
 31
5.88
  0
LINE
  5
873
100
AcDbEntity
  8
0
100
AcDbLine
 10
0.055176
 20
3.697118
 30
5.88
 11
0.070253
 21
3.677025
 31
5.88
  0
LINE
  5
874
100
AcDbEntity
  8
0
100
AcDbLine
 10
-0.010157
 20
3.742325
 30
5.88
 11
0.01497
 21
3.732279
 31
5.88
  0
LINE
  5
875
100
AcDbEntity
  8
0
100
AcDbLine
 10
-0.065438
 20
4.68163
 30
5.88
 11
-0.04031
 21
4.686653
 31
5.88
  0
LINE
  5
876
100
AcDbEntity
  8
0
100
AcDbLine
 10
-0.050361
 20
4.450571
 30
5.88
 11
-0.075489
 21
4.460618
 31
5.88
  0
LINE
  5
877
100
AcDbEntity
  8
0
100
AcDbLine
 10
-0.065438
 20
4.370202
 30
5.88
 11
-0.04031
 21
4.370202
 31
5.88
  0
LINE
  5
878
100
AcDbEntity
  8
0
100
AcDbLine
 10
-0.065438
 20
4.053752
 30
5.88
 11
-0.04031
 21
4.058775
 31
5.88
  0
LINE
  5
879
100
AcDbEntity
  8
0
100
AcDbLine
 10
-0.050361
 20
4.139143
 30
5.88
 11
-0.075489
 21
4.144167
 31
5.88
  0
LINE
  5
87A
100
AcDbEntity
  8
0
100
AcDbLine
 10
0.110457
 20
4.450571
 30
5.88
 11
-0.211179
 21
4.450571
 31
5.88
  0
LINE
  5
87B
100
AcDbEntity
  8
0
100
AcDbLine
 10
-0.211179
 20
4.385271
 30
5.88
 11
0.110457
 21
4.385271
 31
5.88
  0
LINE
  5
87C
100
AcDbEntity
  8
0
100
AcDbLine
 10
0.110457
 20
4.139143
 30
5.88
 11
-0.211179
 21
4.139143
 31
5.88
  0
LINE
  5
87D
100
AcDbEntity
  8
0
100
AcDbLine
 10
-0.110667
 20
4.345088
 30
5.88
 11
0.0401
 21
4.169281
 31
5.88
  0
LINE
  5
87E
100
AcDbEntity
  8
0
100
AcDbLine
 10
-0.211179
 20
4.073844
 30
5.88
 11
0.110457
 21
4.073844
 31
5.88
  0
LINE
  5
87F
100
AcDbEntity
  8
0
100
AcDbLine
 10
-0.110667
 20
4.661537
 30
5.88
 11
0.0401
 21
4.485732
 31
5.88
  0
LINE
  5
880
100
AcDbEntity
  8
0
100
AcDbLine
 10
-0.150873
 20
4.274765
 30
5.88
 11
-0.145848
 21
4.29988
 31
5.88
  0
LINE
  5
881
100
AcDbEntity
  8
0
100
AcDbLine
 10
-0.211179
 20
4.139143
 30
5.88
 11
-0.211179
 21
4.385271
 31
5.88
  0
LINE
  5
882
100
AcDbEntity
  8
0
100
AcDbLine
 10
-0.306666
 20
4.139143
 30
5.88
 11
-0.296615
 21
4.114029
 31
5.88
  0
LINE
  5
883
100
AcDbEntity
  8
0
100
AcDbLine
 10
-0.30164
 20
4.058775
 30
5.88
 11
-0.311691
 21
4.033659
 31
5.88
  0
LINE
  5
884
100
AcDbEntity
  8
0
100
AcDbLine
 10
-0.487585
 20
4.18435
 30
5.88
 11
-0.331793
 21
4.008545
 31
5.88
  0
LINE
  5
885
100
AcDbEntity
  8
0
100
AcDbLine
 10
-0.522764
 20
4.058775
 30
5.88
 11
-0.527791
 21
4.08389
 31
5.88
  0
LINE
  5
886
100
AcDbEntity
  8
0
100
AcDbLine
 10
-0.427279
 20
3.973384
 30
5.88
 11
-0.452407
 21
3.983431
 31
5.88
  0
LINE
  5
887
100
AcDbEntity
  8
0
100
AcDbLine
 10
-0.442356
 20
3.893016
 30
5.88
 11
-0.412203
 21
3.893016
 31
5.88
  0
LINE
  5
888
100
AcDbEntity
  8
0
100
AcDbLine
 10
-0.452407
 20
3.983431
 30
5.88
 11
-0.477534
 21
3.993476
 31
5.88
  0
LINE
  5
889
100
AcDbEntity
  8
0
100
AcDbLine
 10
-0.477534
 20
3.993476
 30
5.88
 11
-0.497636
 21
4.013567
 31
5.88
  0
LINE
  5
88A
100
AcDbEntity
  8
0
100
AcDbLine
 10
-0.487585
 20
3.867901
 30
5.88
 11
-0.467483
 21
3.882968
 31
5.88
  0
LINE
  5
88B
100
AcDbEntity
  8
0
100
AcDbLine
 10
-0.467483
 20
3.882968
 30
5.88
 11
-0.442356
 21
3.893016
 31
5.88
  0
LINE
  5
88C
100
AcDbEntity
  8
0
100
AcDbLine
 10
-0.512713
 20
4.033659
 30
5.88
 11
-0.522764
 21
4.058775
 31
5.88
  0
LINE
  5
88D
100
AcDbEntity
  8
0
100
AcDbLine
 10
-0.497636
 20
4.013567
 30
5.88
 11
-0.512713
 21
4.033659
 31
5.88
  0
LINE
  5
88E
100
AcDbEntity
  8
0
100
AcDbLine
 10
-0.311691
 20
4.033659
 30
5.88
 11
-0.326768
 21
4.013567
 31
5.88
  0
LINE
  5
88F
100
AcDbEntity
  8
0
100
AcDbLine
 10
-0.326768
 20
4.013567
 30
5.88
 11
-0.34687
 21
3.993476
 31
5.88
  0
LINE
  5
890
100
AcDbEntity
  8
0
100
AcDbLine
 10
-0.34687
 20
3.993476
 30
5.88
 11
-0.371997
 21
3.983431
 31
5.88
  0
LINE
  5
891
100
AcDbEntity
  8
0
100
AcDbLine
 10
-0.397126
 20
3.978407
 30
5.88
 11
-0.427279
 21
3.973384
 31
5.88
  0
LINE
  5
892
100
AcDbEntity
  8
0
100
AcDbLine
 10
-0.371997
 20
3.983431
 30
5.88
 11
-0.397126
 21
3.978407
 31
5.88
  0
LINE
  5
893
100
AcDbEntity
  8
0
100
AcDbLine
 10
-0.361946
 20
3.882968
 30
5.88
 11
-0.336819
 21
3.867901
 31
5.88
  0
LINE
  5
894
100
AcDbEntity
  8
0
100
AcDbLine
 10
-0.412203
 20
3.893016
 30
5.88
 11
-0.387074
 21
3.893016
 31
5.88
  0
LINE
  5
895
100
AcDbEntity
  8
0
100
AcDbLine
 10
-0.387074
 20
3.893016
 30
5.88
 11
-0.361946
 21
3.882968
 31
5.88
  0
LINE
  5
896
100
AcDbEntity
  8
0
100
AcDbLine
 10
-0.442356
 20
4.204443
 30
5.88
 11
-0.412203
 21
4.209466
 31
5.88
  0
LINE
  5
897
100
AcDbEntity
  8
0
100
AcDbLine
 10
-0.507687
 20
4.159236
 30
5.88
 11
-0.487585
 21
4.179328
 31
5.88
  0
LINE
  5
898
100
AcDbEntity
  8
0
100
AcDbLine
 10
-0.487585
 20
4.179328
 30
5.88
 11
-0.467483
 21
4.194397
 31
5.88
  0
LINE
  5
899
100
AcDbEntity
  8
0
100
AcDbLine
 10
-0.467483
 20
4.194397
 30
5.88
 11
-0.442356
 21
4.204443
 31
5.88
  0
LINE
  5
89A
100
AcDbEntity
  8
0
100
AcDbLine
 10
-0.527791
 20
4.114029
 30
5.88
 11
-0.522764
 21
4.139143
 31
5.88
  0
LINE
  5
89B
100
AcDbEntity
  8
0
100
AcDbLine
 10
-0.527791
 20
4.08389
 30
5.88
 11
-0.527791
 21
4.114029
 31
5.88
  0
LINE
  5
89C
100
AcDbEntity
  8
0
100
AcDbLine
 10
-0.522764
 20
4.139143
 30
5.88
 11
-0.507687
 21
4.159236
 31
5.88
  0
LINE
  5
89D
100
AcDbEntity
  8
0
100
AcDbLine
 10
-0.361946
 20
4.194397
 30
5.88
 11
-0.336819
 21
4.18435
 31
5.88
  0
LINE
  5
89E
100
AcDbEntity
  8
0
100
AcDbLine
 10
-0.336819
 20
4.18435
 30
5.88
 11
-0.321742
 21
4.164258
 31
5.88
  0
LINE
  5
89F
100
AcDbEntity
  8
0
100
AcDbLine
 10
-0.412203
 20
4.209466
 30
5.88
 11
-0.387074
 21
4.204443
 31
5.88
  0
LINE
  5
8A0
100
AcDbEntity
  8
0
100
AcDbLine
 10
-0.387074
 20
4.204443
 30
5.88
 11
-0.361946
 21
4.194397
 31
5.88
  0
LINE
  5
8A1
100
AcDbEntity
  8
0
100
AcDbLine
 10
-0.321742
 20
4.164258
 30
5.88
 11
-0.306666
 21
4.139143
 31
5.88
  0
LINE
  5
8A2
100
AcDbEntity
  8
0
100
AcDbLine
 10
-0.296615
 20
4.08389
 30
5.88
 11
-0.30164
 21
4.058775
 31
5.88
  0
LINE
  5
8A3
100
AcDbEntity
  8
0
100
AcDbLine
 10
-0.26646
 20
4.219512
 30
5.88
 11
-0.26646
 21
3.973384
 31
5.88
  0
LINE
  5
8A4
100
AcDbEntity
  8
0
100
AcDbLine
 10
-0.115695
 20
4.028638
 30
5.88
 11
-0.090565
 21
4.043706
 31
5.88
  0
LINE
  5
8A5
100
AcDbEntity
  8
0
100
AcDbLine
 10
-0.090565
 20
4.043706
 30
5.88
 11
-0.065438
 21
4.053752
 31
5.88
  0
LINE
  5
8A6
100
AcDbEntity
  8
0
100
AcDbLine
 10
-0.150873
 20
3.963338
 30
5.88
 11
-0.145848
 21
3.988453
 31
5.88
  0
LINE
  5
8A7
100
AcDbEntity
  8
0
100
AcDbLine
 10
-0.145848
 20
3.988453
 30
5.88
 11
-0.130769
 21
4.013567
 31
5.88
  0
LINE
  5
8A8
100
AcDbEntity
  8
0
100
AcDbLine
 10
-0.130769
 20
4.013567
 30
5.88
 11
-0.115695
 21
4.028638
 31
5.88
  0
LINE
  5
8A9
100
AcDbEntity
  8
0
100
AcDbLine
 10
-0.140822
 20
3.882968
 30
5.88
 11
-0.150873
 21
3.908084
 31
5.88
  0
LINE
  5
8AA
100
AcDbEntity
  8
0
100
AcDbLine
 10
-0.150873
 20
3.908084
 30
5.88
 11
-0.155899
 21
3.933201
 31
5.88
  0
LINE
  5
8AB
100
AcDbEntity
  8
0
100
AcDbLine
 10
-0.12072
 20
3.862878
 30
5.88
 11
-0.140822
 21
3.882968
 31
5.88
  0
LINE
  5
8AC
100
AcDbEntity
  8
0
100
AcDbLine
 10
-0.155899
 20
3.933201
 30
5.88
 11
-0.150873
 21
3.963338
 31
5.88
  0
LINE
  5
8AD
100
AcDbEntity
  8
0
100
AcDbLine
 10
-0.296615
 20
4.114029
 30
5.88
 11
-0.296615
 21
4.08389
 31
5.88
  0
LINE
  5
8AE
100
AcDbEntity
  8
0
100
AcDbLine
 10
-0.075489
 20
4.144167
 30
5.88
 11
-0.100616
 21
4.159236
 31
5.88
  0
LINE
  5
8AF
100
AcDbEntity
  8
0
100
AcDbLine
 10
-0.100616
 20
4.159236
 30
5.88
 11
-0.12072
 21
4.174305
 31
5.88
  0
LINE
  5
8B0
100
AcDbEntity
  8
0
100
AcDbLine
 10
-0.140822
 20
4.194397
 30
5.88
 11
-0.150873
 21
4.219512
 31
5.88
  0
LINE
  5
8B1
100
AcDbEntity
  8
0
100
AcDbLine
 10
-0.150873
 20
4.219512
 30
5.88
 11
-0.155899
 21
4.249651
 31
5.88
  0
LINE
  5
8B2
100
AcDbEntity
  8
0
100
AcDbLine
 10
-0.155899
 20
4.249651
 30
5.88
 11
-0.150873
 21
4.274765
 31
5.88
  0
LINE
  5
8B3
100
AcDbEntity
  8
0
100
AcDbLine
 10
-0.12072
 20
4.174305
 30
5.88
 11
-0.140822
 21
4.194397
 31
5.88
  0
LINE
  5
8B4
100
AcDbEntity
  8
0
100
AcDbLine
 10
-0.30164
 20
4.686653
 30
5.88
 11
-0.311691
 21
4.661537
 31
5.88
  0
LINE
  5
8B5
100
AcDbEntity
  8
0
100
AcDbLine
 10
-0.306666
 20
4.450571
 30
5.88
 11
-0.296615
 21
4.425456
 31
5.88
  0
LINE
  5
8B6
100
AcDbEntity
  8
0
100
AcDbLine
 10
-0.30164
 20
4.370202
 30
5.88
 11
-0.311691
 21
4.345088
 31
5.88
  0
LINE
  5
8B7
100
AcDbEntity
  8
0
100
AcDbLine
 10
-0.336819
 20
4.495779
 30
5.88
 11
-0.321742
 21
4.475687
 31
5.88
  0
LINE
  5
8B8
100
AcDbEntity
  8
0
100
AcDbLine
 10
-0.507687
 20
4.475687
 30
5.88
 11
-0.487585
 21
4.495779
 31
5.88
  0
LINE
  5
8B9
100
AcDbEntity
  8
0
100
AcDbLine
 10
-0.487585
 20
4.495779
 30
5.88
 11
-0.331793
 21
4.319972
 31
5.88
  0
LINE
  5
8BA
100
AcDbEntity
  8
0
100
AcDbLine
 10
-0.427279
 20
4.289834
 30
5.88
 11
-0.452407
 21
4.294858
 31
5.88
  0
LINE
  5
8BB
100
AcDbEntity
  8
0
100
AcDbLine
 10
-0.452407
 20
4.294858
 30
5.88
 11
-0.477534
 21
4.304903
 31
5.88
  0
LINE
  5
8BC
100
AcDbEntity
  8
0
100
AcDbLine
 10
-0.477534
 20
4.304903
 30
5.88
 11
-0.497636
 21
4.324996
 31
5.88
  0
LINE
  5
8BD
100
AcDbEntity
  8
0
100
AcDbLine
 10
-0.527791
 20
4.425456
 30
5.88
 11
-0.522764
 21
4.450571
 31
5.88
  0
LINE
  5
8BE
100
AcDbEntity
  8
0
100
AcDbLine
 10
-0.512713
 20
4.345088
 30
5.88
 11
-0.522764
 21
4.370202
 31
5.88
  0
LINE
  5
8BF
100
AcDbEntity
  8
0
100
AcDbLine
 10
-0.522764
 20
4.370202
 30
5.88
 11
-0.527791
 21
4.40034
 31
5.88
  0
LINE
  5
8C0
100
AcDbEntity
  8
0
100
AcDbLine
 10
-0.527791
 20
4.40034
 30
5.88
 11
-0.527791
 21
4.425456
 31
5.88
  0
LINE
  5
8C1
100
AcDbEntity
  8
0
100
AcDbLine
 10
-0.522764
 20
4.450571
 30
5.88
 11
-0.507687
 21
4.475687
 31
5.88
  0
LINE
  5
8C2
100
AcDbEntity
  8
0
100
AcDbLine
 10
-0.497636
 20
4.324996
 30
5.88
 11
-0.512713
 21
4.345088
 31
5.88
  0
LINE
  5
8C3
100
AcDbEntity
  8
0
100
AcDbLine
 10
-0.321742
 20
4.475687
 30
5.88
 11
-0.306666
 21
4.450571
 31
5.88
  0
LINE
  5
8C4
100
AcDbEntity
  8
0
100
AcDbLine
 10
-0.326768
 20
4.324996
 30
5.88
 11
-0.34687
 21
4.309927
 31
5.88
  0
LINE
  5
8C5
100
AcDbEntity
  8
0
100
AcDbLine
 10
-0.34687
 20
4.309927
 30
5.88
 11
-0.371997
 21
4.294858
 31
5.88
  0
LINE
  5
8C6
100
AcDbEntity
  8
0
100
AcDbLine
 10
-0.397126
 20
4.289834
 30
5.88
 11
-0.427279
 21
4.289834
 31
5.88
  0
LINE
  5
8C7
100
AcDbEntity
  8
0
100
AcDbLine
 10
-0.371997
 20
4.294858
 30
5.88
 11
-0.397126
 21
4.289834
 31
5.88
  0
LINE
  5
8C8
100
AcDbEntity
  8
0
100
AcDbLine
 10
-0.311691
 20
4.345088
 30
5.88
 11
-0.326768
 21
4.324996
 31
5.88
  0
LINE
  5
8C9
100
AcDbEntity
  8
0
100
AcDbLine
 10
-0.427279
 20
4.601261
 30
5.88
 11
-0.452407
 21
4.606285
 31
5.88
  0
LINE
  5
8CA
100
AcDbEntity
  8
0
100
AcDbLine
 10
-0.442356
 20
4.520893
 30
5.88
 11
-0.412203
 21
4.520893
 31
5.88
  0
LINE
  5
8CB
100
AcDbEntity
  8
0
100
AcDbLine
 10
-0.452407
 20
4.606285
 30
5.88
 11
-0.477534
 21
4.621354
 31
5.88
  0
LINE
  5
8CC
100
AcDbEntity
  8
0
100
AcDbLine
 10
-0.477534
 20
4.621354
 30
5.88
 11
-0.497636
 21
4.636423
 31
5.88
  0
LINE
  5
8CD
100
AcDbEntity
  8
0
100
AcDbLine
 10
-0.512713
 20
4.661537
 30
5.88
 11
-0.522764
 21
4.686653
 31
5.88
  0
LINE
  5
8CE
100
AcDbEntity
  8
0
100
AcDbLine
 10
-0.497636
 20
4.636423
 30
5.88
 11
-0.512713
 21
4.661537
 31
5.88
  0
LINE
  5
8CF
100
AcDbEntity
  8
0
100
AcDbLine
 10
-0.487585
 20
4.495779
 30
5.88
 11
-0.467483
 21
4.510846
 31
5.88
  0
LINE
  5
8D0
100
AcDbEntity
  8
0
100
AcDbLine
 10
-0.467483
 20
4.510846
 30
5.88
 11
-0.442356
 21
4.520893
 31
5.88
  0
LINE
  5
8D1
100
AcDbEntity
  8
0
100
AcDbLine
 10
-0.311691
 20
4.661537
 30
5.88
 11
-0.326768
 21
4.641445
 31
5.88
  0
LINE
  5
8D2
100
AcDbEntity
  8
0
100
AcDbLine
 10
-0.326768
 20
4.641445
 30
5.88
 11
-0.34687
 21
4.621354
 31
5.88
  0
LINE
  5
8D3
100
AcDbEntity
  8
0
100
AcDbLine
 10
-0.34687
 20
4.621354
 30
5.88
 11
-0.371997
 21
4.611309
 31
5.88
  0
LINE
  5
8D4
100
AcDbEntity
  8
0
100
AcDbLine
 10
-0.397126
 20
4.601261
 30
5.88
 11
-0.427279
 21
4.601261
 31
5.88
  0
LINE
  5
8D5
100
AcDbEntity
  8
0
100
AcDbLine
 10
-0.371997
 20
4.611309
 30
5.88
 11
-0.397126
 21
4.601261
 31
5.88
  0
LINE
  5
8D6
100
AcDbEntity
  8
0
100
AcDbLine
 10
-0.361946
 20
4.510846
 30
5.88
 11
-0.336819
 21
4.495779
 31
5.88
  0
LINE
  5
8D7
100
AcDbEntity
  8
0
100
AcDbLine
 10
-0.412203
 20
4.520893
 30
5.88
 11
-0.387074
 21
4.520893
 31
5.88
  0
LINE
  5
8D8
100
AcDbEntity
  8
0
100
AcDbLine
 10
-0.387074
 20
4.520893
 30
5.88
 11
-0.361946
 21
4.510846
 31
5.88
  0
LINE
  5
8D9
100
AcDbEntity
  8
0
100
AcDbLine
 10
-0.100616
 20
4.470663
 30
5.88
 11
-0.12072
 21
4.485732
 31
5.88
  0
LINE
  5
8DA
100
AcDbEntity
  8
0
100
AcDbLine
 10
-0.26646
 20
4.535962
 30
5.88
 11
-0.26646
 21
4.289834
 31
5.88
  0
LINE
  5
8DB
100
AcDbEntity
  8
0
100
AcDbLine
 10
-0.296615
 20
4.425456
 30
5.88
 11
-0.296615
 21
4.40034
 31
5.88
  0
LINE
  5
8DC
100
AcDbEntity
  8
0
100
AcDbLine
 10
-0.296615
 20
4.40034
 30
5.88
 11
-0.30164
 21
4.370202
 31
5.88
  0
LINE
  5
8DD
100
AcDbEntity
  8
0
100
AcDbLine
 10
-0.075489
 20
4.460618
 30
5.88
 11
-0.100616
 21
4.470663
 31
5.88
  0
LINE
  5
8DE
100
AcDbEntity
  8
0
100
AcDbLine
 10
-0.115695
 20
4.345088
 30
5.88
 11
-0.090565
 21
4.360157
 31
5.88
  0
LINE
  5
8DF
100
AcDbEntity
  8
0
100
AcDbLine
 10
-0.090565
 20
4.360157
 30
5.88
 11
-0.065438
 21
4.370202
 31
5.88
  0
LINE
  5
8E0
100
AcDbEntity
  8
0
100
AcDbLine
 10
-0.145848
 20
4.29988
 30
5.88
 11
-0.130769
 21
4.324996
 31
5.88
  0
LINE
  5
8E1
100
AcDbEntity
  8
0
100
AcDbLine
 10
-0.130769
 20
4.324996
 30
5.88
 11
-0.115695
 21
4.345088
 31
5.88
  0
LINE
  5
8E2
100
AcDbEntity
  8
0
100
AcDbLine
 10
-0.115695
 20
4.656513
 30
5.88
 11
-0.090565
 21
4.671584
 31
5.88
  0
LINE
  5
8E3
100
AcDbEntity
  8
0
100
AcDbLine
 10
-0.090565
 20
4.671584
 30
5.88
 11
-0.065438
 21
4.68163
 31
5.88
  0
LINE
  5
8E4
100
AcDbEntity
  8
0
100
AcDbLine
 10
-0.150873
 20
4.586193
 30
5.88
 11
-0.145848
 21
4.61633
 31
5.88
  0
LINE
  5
8E5
100
AcDbEntity
  8
0
100
AcDbLine
 10
-0.145848
 20
4.61633
 30
5.88
 11
-0.130769
 21
4.636423
 31
5.88
  0
LINE
  5
8E6
100
AcDbEntity
  8
0
100
AcDbLine
 10
-0.155899
 20
4.561076
 30
5.88
 11
-0.150873
 21
4.586193
 31
5.88
  0
LINE
  5
8E7
100
AcDbEntity
  8
0
100
AcDbLine
 10
-0.130769
 20
4.636423
 30
5.88
 11
-0.115695
 21
4.656513
 31
5.88
  0
LINE
  5
8E8
100
AcDbEntity
  8
0
100
AcDbLine
 10
-0.140822
 20
4.510846
 30
5.88
 11
-0.150873
 21
4.535962
 31
5.88
  0
LINE
  5
8E9
100
AcDbEntity
  8
0
100
AcDbLine
 10
-0.12072
 20
4.485732
 30
5.88
 11
-0.140822
 21
4.510846
 31
5.88
  0
LINE
  5
8EA
100
AcDbEntity
  8
0
100
AcDbLine
 10
-0.150873
 20
4.535962
 30
5.88
 11
-0.155899
 21
4.561076
 31
5.88
  0
LINE
  5
8EB
100
AcDbEntity
  8
0
100
AcDbLine
 10
0.070253
 20
4.29988
 30
5.88
 11
0.075278
 21
4.274765
 31
5.88
  0
LINE
  5
8EC
100
AcDbEntity
  8
0
100
AcDbLine
 10
0.110457
 20
4.385271
 30
5.88
 11
0.110457
 21
4.139143
 31
5.88
  0
LINE
  5
8ED
100
AcDbEntity
  8
0
100
AcDbLine
 10
0.070253
 20
3.988453
 30
5.88
 11
0.075278
 21
3.963338
 31
5.88
  0
LINE
  5
8EE
100
AcDbEntity
  8
0
100
AcDbLine
 10
0.075278
 20
3.908084
 30
5.88
 11
0.065227
 21
3.882968
 31
5.88
  0
LINE
  5
8EF
100
AcDbEntity
  8
0
100
AcDbLine
 10
0.01497
 20
4.048728
 30
5.88
 11
0.035074
 21
4.033659
 31
5.88
  0
LINE
  5
8F0
100
AcDbEntity
  8
0
100
AcDbLine
 10
0.035074
 20
4.033659
 30
5.88
 11
0.055176
 21
4.013567
 31
5.88
  0
LINE
  5
8F1
100
AcDbEntity
  8
0
100
AcDbLine
 10
0.055176
 20
4.013567
 30
5.88
 11
0.070253
 21
3.988453
 31
5.88
  0
LINE
  5
8F2
100
AcDbEntity
  8
0
100
AcDbLine
 10
0.065227
 20
3.882968
 30
5.88
 11
0.050151
 21
3.862878
 31
5.88
  0
LINE
  5
8F3
100
AcDbEntity
  8
0
100
AcDbLine
 10
-0.04031
 20
4.058775
 30
5.88
 11
-0.010157
 21
4.053752
 31
5.88
  0
LINE
  5
8F4
100
AcDbEntity
  8
0
100
AcDbLine
 10
-0.010157
 20
4.053752
 30
5.88
 11
0.01497
 21
4.048728
 31
5.88
  0
LINE
  5
8F5
100
AcDbEntity
  8
0
100
AcDbLine
 10
0.080304
 20
3.938222
 30
5.88
 11
0.075278
 21
3.908084
 31
5.88
  0
LINE
  5
8F6
100
AcDbEntity
  8
0
100
AcDbLine
 10
0.075278
 20
3.963338
 30
5.88
 11
0.080304
 21
3.938222
 31
5.88
  0
LINE
  5
8F7
100
AcDbEntity
  8
0
100
AcDbLine
 10
0.075278
 20
4.224535
 30
5.88
 11
0.065227
 21
4.199419
 31
5.88
  0
LINE
  5
8F8
100
AcDbEntity
  8
0
100
AcDbLine
 10
0.065227
 20
4.199419
 30
5.88
 11
0.050151
 21
4.174305
 31
5.88
  0
LINE
  5
8F9
100
AcDbEntity
  8
0
100
AcDbLine
 10
0.050151
 20
4.174305
 30
5.88
 11
0.025021
 21
4.159236
 31
5.88
  0
LINE
  5
8FA
100
AcDbEntity
  8
0
100
AcDbLine
 10
0.025021
 20
4.159236
 30
5.88
 11
0.004919
 21
4.144167
 31
5.88
  0
LINE
  5
8FB
100
AcDbEntity
  8
0
100
AcDbLine
 10
-0.025234
 20
4.139143
 30
5.88
 11
-0.050361
 21
4.139143
 31
5.88
  0
LINE
  5
8FC
100
AcDbEntity
  8
0
100
AcDbLine
 10
0.004919
 20
4.144167
 30
5.88
 11
-0.025234
 21
4.139143
 31
5.88
  0
LINE
  5
8FD
100
AcDbEntity
  8
0
100
AcDbLine
 10
0.075278
 20
4.274765
 30
5.88
 11
0.080304
 21
4.249651
 31
5.88
  0
LINE
  5
8FE
100
AcDbEntity
  8
0
100
AcDbLine
 10
0.080304
 20
4.249651
 30
5.88
 11
0.075278
 21
4.224535
 31
5.88
  0
LINE
  5
8FF
100
AcDbEntity
  8
0
100
AcDbLine
 10
0.050151
 20
4.490756
 30
5.88
 11
0.025021
 21
4.470663
 31
5.88
  0
LINE
  5
900
100
AcDbEntity
  8
0
100
AcDbLine
 10
0.025021
 20
4.470663
 30
5.88
 11
0.004919
 21
4.460618
 31
5.88
  0
LINE
  5
901
100
AcDbEntity
  8
0
100
AcDbLine
 10
0.01497
 20
4.360157
 30
5.88
 11
0.035074
 21
4.345088
 31
5.88
  0
LINE
  5
902
100
AcDbEntity
  8
0
100
AcDbLine
 10
0.055176
 20
4.324996
 30
5.88
 11
0.070253
 21
4.29988
 31
5.88
  0
LINE
  5
903
100
AcDbEntity
  8
0
100
AcDbLine
 10
0.035074
 20
4.345088
 30
5.88
 11
0.055176
 21
4.324996
 31
5.88
  0
LINE
  5
904
100
AcDbEntity
  8
0
100
AcDbLine
 10
-0.025234
 20
4.450571
 30
5.88
 11
-0.050361
 21
4.450571
 31
5.88
  0
LINE
  5
905
100
AcDbEntity
  8
0
100
AcDbLine
 10
-0.04031
 20
4.370202
 30
5.88
 11
-0.010157
 21
4.370202
 31
5.88
  0
LINE
  5
906
100
AcDbEntity
  8
0
100
AcDbLine
 10
0.004919
 20
4.460618
 30
5.88
 11
-0.025234
 21
4.450571
 31
5.88
  0
LINE
  5
907
100
AcDbEntity
  8
0
100
AcDbLine
 10
-0.010157
 20
4.370202
 30
5.88
 11
0.01497
 21
4.360157
 31
5.88
  0
LINE
  5
908
100
AcDbEntity
  8
0
100
AcDbLine
 10
0.070253
 20
4.61633
 30
5.88
 11
0.075278
 21
4.591216
 31
5.88
  0
LINE
  5
909
100
AcDbEntity
  8
0
100
AcDbLine
 10
0.075278
 20
4.535962
 30
5.88
 11
0.065227
 21
4.510846
 31
5.88
  0
LINE
  5
90A
100
AcDbEntity
  8
0
100
AcDbLine
 10
0.01497
 20
4.671584
 30
5.88
 11
0.035074
 21
4.656513
 31
5.88
  0
LINE
  5
90B
100
AcDbEntity
  8
0
100
AcDbLine
 10
0.035074
 20
4.656513
 30
5.88
 11
0.055176
 21
4.641445
 31
5.88
  0
LINE
  5
90C
100
AcDbEntity
  8
0
100
AcDbLine
 10
0.055176
 20
4.641445
 30
5.88
 11
0.070253
 21
4.61633
 31
5.88
  0
LINE
  5
90D
100
AcDbEntity
  8
0
100
AcDbLine
 10
-0.04031
 20
4.686653
 30
5.88
 11
-0.010157
 21
4.68163
 31
5.88
  0
LINE
  5
90E
100
AcDbEntity
  8
0
100
AcDbLine
 10
-0.010157
 20
4.68163
 30
5.88
 11
0.01497
 21
4.671584
 31
5.88
  0
LINE
  5
90F
100
AcDbEntity
  8
0
100
AcDbLine
 10
0.065227
 20
4.510846
 30
5.88
 11
0.050151
 21
4.490756
 31
5.88
  0
LINE
  5
910
100
AcDbEntity
  8
0
100
AcDbLine
 10
0.075278
 20
4.591216
 30
5.88
 11
0.080304
 21
4.561076
 31
5.88
  0
LINE
  5
911
100
AcDbEntity
  8
0
100
AcDbLine
 10
0.080304
 20
4.561076
 30
5.88
 11
0.075278
 21
4.535962
 31
5.88
  0
POLYLINE
  5
912
100
AcDbEntity
  8
0
100
AcDbPolygonMesh
 66
     1
 10
0.0
 20
0.0
 30
0.0
 70
    16
 71
     6
 72
     3
  0
VERTEX
  5
913
100
AcDbEntity
  8
0
100
AcDbVertex
100
AcDbPolygonMeshVertex
 10
0.0
 20
9.8
 30
4.755
 70
    64
  0
VERTEX
  5
914
100
AcDbEntity
  8
0
100
AcDbVertex
100
AcDbPolygonMeshVertex
 10
0.0
 20
9.8
 30
0.0
 70
    64
  0
VERTEX
  5
915
100
AcDbEntity
  8
0
100
AcDbVertex
100
AcDbPolygonMeshVertex
 10
0.0
 20
9.8
 30
0.0
 70
    64
  0
VERTEX
  5
916
100
AcDbEntity
  8
0
100
AcDbVertex
100
AcDbPolygonMeshVertex
 10
-0.068
 20
9.8
 30
4.755
 70
    64
  0
VERTEX
  5
917
100
AcDbEntity
  8
0
100
AcDbVertex
100
AcDbPolygonMeshVertex
 10
-0.068
 20
9.8
 30
0.0
 70
    64
  0
VERTEX
  5
918
100
AcDbEntity
  8
0
100
AcDbVertex
100
AcDbPolygonMeshVertex
 10
-0.068
 20
9.8
 30
0.0
 70
    64
  0
VERTEX
  5
919
100
AcDbEntity
  8
0
100
AcDbVertex
100
AcDbPolygonMeshVertex
 10
-0.068
 20
10.0
 30
4.755
 70
    64
  0
VERTEX
  5
91A
100
AcDbEntity
  8
0
100
AcDbVertex
100
AcDbPolygonMeshVertex
 10
-0.068
 20
10.0
 30
0.0
 70
    64
  0
VERTEX
  5
91B
100
AcDbEntity
  8
0
100
AcDbVertex
100
AcDbPolygonMeshVertex
 10
-0.068
 20
9.8
 30
0.0
 70
    64
  0
VERTEX
  5
91C
100
AcDbEntity
  8
0
100
AcDbVertex
100
AcDbPolygonMeshVertex
 10
0.0
 20
10.0
 30
4.755
 70
    64
  0
VERTEX
  5
91D
100
AcDbEntity
  8
0
100
AcDbVertex
100
AcDbPolygonMeshVertex
 10
0.0
 20
10.0
 30
0.0
 70
    64
  0
VERTEX
  5
91E
100
AcDbEntity
  8
0
100
AcDbVertex
100
AcDbPolygonMeshVertex
 10
0.0
 20
9.8
 30
0.0
 70
    64
  0
VERTEX
  5
91F
100
AcDbEntity
  8
0
100
AcDbVertex
100
AcDbPolygonMeshVertex
 10
0.0
 20
10.0
 30
4.755
 70
    64
  0
VERTEX
  5
920
100
AcDbEntity
  8
0
100
AcDbVertex
100
AcDbPolygonMeshVertex
 10
0.0
 20
10.0
 30
4.755
 70
    64
  0
VERTEX
  5
921
100
AcDbEntity
  8
0
100
AcDbVertex
100
AcDbPolygonMeshVertex
 10
0.0
 20
9.8
 30
4.755
 70
    64
  0
VERTEX
  5
922
100
AcDbEntity
  8
0
100
AcDbVertex
100
AcDbPolygonMeshVertex
 10
-0.068
 20
10.0
 30
4.755
 70
    64
  0
VERTEX
  5
923
100
AcDbEntity
  8
0
100
AcDbVertex
100
AcDbPolygonMeshVertex
 10
-0.068
 20
10.0
 30
4.755
 70
    64
  0
VERTEX
  5
924
100
AcDbEntity
  8
0
100
AcDbVertex
100
AcDbPolygonMeshVertex
 10
-0.068
 20
9.8
 30
4.755
 70
    64
  0
SEQEND
  5
925
100
AcDbEntity
  8
0
  0
TEXT
  5
926
100
AcDbEntity
  8
0
100
AcDbText
 39
0.001
 10
-0.807103
 20
8.024748
 30
5.879973
 40
0.05
  1
1
 72
     1
 11
-0.79877
 21
8.024748
 31
5.879973
100
AcDbText
  0
LINE
  5
927
100
AcDbEntity
  8
0
100
AcDbLine
 10
-0.752791
 20
8.625571
 30
5.88
 11
-0.752791
 21
7.64106
 31
5.88
  0
LINE
  5
928
100
AcDbEntity
  8
0
100
AcDbLine
 10
-0.919402
 20
7.64106
 30
5.88
 11
-0.919402
 21
8.625571
 31
5.88
  0
LINE
  5
929
100
AcDbEntity
  8
0
100
AcDbLine
 10
-0.090565
 20
8.625571
 30
5.88
 11
-0.090565
 21
7.64106
 31
5.88
  0
LINE
  5
92A
100
AcDbEntity
  8
0
100
AcDbLine
 10
-0.090565
 20
8.625608
 30
5.88
 11
-0.090565
 21
7.646048
 31
5.88
  0
LINE
  5
92B
100
AcDbEntity
  8
0
100
AcDbLine
 10
-0.588097
 20
6.731023
 30
5.88
 11
-0.26646
 21
6.731023
 31
5.88
  0
LINE
  5
92C
100
AcDbEntity
  8
0
100
AcDbLine
 10
-0.26646
 20
6.484895
 30
5.88
 11
-0.588097
 21
6.484895
 31
5.88
  0
LINE
  5
92D
100
AcDbEntity
  8
0
100
AcDbLine
 10
-0.588097
 20
6.414572
 30
5.88
 11
-0.26646
 21
6.414572
 31
5.88
  0
LINE
  5
92E
100
AcDbEntity
  8
0
100
AcDbLine
 10
-0.26646
 20
6.168444
 30
5.88
 11
-0.588097
 21
6.168444
 31
5.88
  0
LINE
  5
92F
100
AcDbEntity
  8
0
100
AcDbLine
 10
-0.588097
 20
6.103143
 30
5.88
 11
-0.26646
 21
6.103143
 31
5.88
  0
LINE
  5
930
100
AcDbEntity
  8
0
100
AcDbLine
 10
-0.26646
 20
5.857015
 30
5.88
 11
-0.588097
 21
5.857015
 31
5.88
  0
LINE
  5
931
100
AcDbEntity
  8
0
100
AcDbLine
 10
-0.588097
 20
5.786692
 30
5.88
 11
-0.26646
 21
5.786692
 31
5.88
  0
LINE
  5
932
100
AcDbEntity
  8
0
100
AcDbLine
 10
-0.26646
 20
5.540566
 30
5.88
 11
-0.588097
 21
5.540566
 31
5.88
  0
LINE
  5
933
100
AcDbEntity
  8
0
100
AcDbLine
 10
-0.588097
 20
5.475267
 30
5.88
 11
-0.26646
 21
5.475267
 31
5.88
  0
LINE
  5
934
100
AcDbEntity
  8
0
100
AcDbLine
 10
-0.26646
 20
5.229139
 30
5.88
 11
-0.588097
 21
5.229139
 31
5.88
  0
LINE
  5
935
100
AcDbEntity
  8
0
100
AcDbLine
 10
-0.588097
 20
5.16384
 30
5.88
 11
-0.26646
 21
5.16384
 31
5.88
  0
LINE
  5
936
100
AcDbEntity
  8
0
100
AcDbLine
 10
-0.26646
 20
4.917712
 30
5.88
 11
-0.588097
 21
4.917712
 31
5.88
  0
LINE
  5
937
100
AcDbEntity
  8
0
100
AcDbLine
 10
-0.588097
 20
4.847389
 30
5.88
 11
-0.26646
 21
4.847389
 31
5.88
  0
LINE
  5
938
100
AcDbEntity
  8
0
100
AcDbLine
 10
-0.874555
 20
7.143784
 30
5.88
 11
-0.26646
 21
7.143784
 31
5.88
  0
LINE
  5
939
100
AcDbEntity
  8
0
100
AcDbLine
 10
-0.26646
 20
7.214105
 30
5.88
 11
-0.95999
 21
7.214105
 31
5.88
  0
LINE
  5
93A
100
AcDbEntity
  8
0
100
AcDbLine
 10
-0.954963
 20
7.530556
 30
5.88
 11
0.202035
 21
7.530556
 31
5.88
  0
LINE
  5
93B
100
AcDbEntity
  8
0
100
AcDbLine
 10
-0.090565
 20
7.64106
 30
5.88
 11
-0.919402
 21
7.64106
 31
5.88
  0
LINE
  5
93C
100
AcDbEntity
  8
0
100
AcDbLine
 10
-0.588097
 20
6.168444
 30
5.88
 11
-0.588097
 21
6.414572
 31
5.88
  0
LINE
  5
93D
100
AcDbEntity
  8
0
100
AcDbLine
 10
-0.588097
 20
4.917712
 30
5.88
 11
-0.588097
 21
5.16384
 31
5.88
  0
LINE
  5
93E
100
AcDbEntity
  8
0
100
AcDbLine
 10
-0.588097
 20
5.229139
 30
5.88
 11
-0.588097
 21
5.475267
 31
5.88
  0
LINE
  5
93F
100
AcDbEntity
  8
0
100
AcDbLine
 10
-0.588097
 20
5.857015
 30
5.88
 11
-0.588097
 21
6.103143
 31
5.88
  0
LINE
  5
940
100
AcDbEntity
  8
0
100
AcDbLine
 10
-0.588097
 20
5.540566
 30
5.88
 11
-0.588097
 21
5.786692
 31
5.88
  0
LINE
  5
941
100
AcDbEntity
  8
0
100
AcDbLine
 10
-0.588097
 20
6.484895
 30
5.88
 11
-0.588097
 21
6.731023
 31
5.88
  0
LINE
  5
942
100
AcDbEntity
  8
0
100
AcDbLine
 10
-0.874555
 20
7.530556
 30
5.88
 11
-0.874555
 21
7.214105
 31
5.88
  0
TEXT
  5
943
100
AcDbEntity
  8
0
100
AcDbText
 39
0.001
 10
-0.815436
 20
7.949748
 30
5.879973
 40
0.05
  1
3
 72
     1
 11
-0.79877
 21
7.949748
 31
5.879973
100
AcDbText
  0
TEXT
  5
944
100
AcDbEntity
  8
0
100
AcDbText
 39
0.001
 10
-0.82377
 20
7.799748
 30
5.879973
 40
0.05
  1
V
 72
     1
 11
-0.79877
 21
7.799748
 31
5.879973
100
AcDbText
  0
TEXT
  5
945
100
AcDbEntity
  8
0
100
AcDbText
 39
0.001
 10
-0.815436
 20
7.874748
 30
5.879973
 40
0.05
  1
2
 72
     1
 11
-0.79877
 21
7.874748
 31
5.879973
100
AcDbText
  0
TEXT
  5
946
100
AcDbEntity
  8
0
100
AcDbText
 39
0.001
 10
-0.890436
 20
7.824748
 30
5.879973
 40
0.05
  1
U
 72
     1
 11
-0.87377
 21
7.824748
 31
5.879973
100
AcDbText
  0
TEXT
  5
947
100
AcDbEntity
  8
0
100
AcDbText
 39
0.001
 10
-0.890436
 20
7.749748
 30
5.879973
 40
0.05
  1
T
 72
     1
 11
-0.87377
 21
7.749748
 31
5.879973
100
AcDbText
  0
TEXT
  5
948
100
AcDbEntity
  8
0
100
AcDbText
 39
0.001
 10
-0.890436
 20
7.899748
 30
5.879973
 40
0.05
  1
P
 72
     1
 11
-0.87377
 21
7.899748
 31
5.879973
100
AcDbText
  0
TEXT
  5
949
100
AcDbEntity
  8
0
100
AcDbText
 39
0.001
 10
-0.890436
 20
7.974748
 30
5.879973
 40
0.05
  1
N
 72
     1
 11
-0.87377
 21
7.974748
 31
5.879973
100
AcDbText
  0
LINE
  5
94A
100
AcDbEntity
  8
0
100
AcDbLine
 10
0.050151
 20
6.369363
 30
5.88
 11
0.025021
 21
6.354295
 31
5.88
  0
LINE
  5
94B
100
AcDbEntity
  8
0
100
AcDbLine
 10
0.110457
 20
6.58033
 30
5.88
 11
0.110457
 21
6.334202
 31
5.88
  0
LINE
  5
94C
100
AcDbEntity
  8
0
100
AcDbLine
 10
-0.100616
 20
6.349271
 30
5.88
 11
-0.12072
 21
6.369363
 31
5.88
  0
LINE
  5
94D
100
AcDbEntity
  8
0
100
AcDbLine
 10
-0.336819
 20
6.374387
 30
5.88
 11
-0.321742
 21
6.354295
 31
5.88
  0
LINE
  5
94E
100
AcDbEntity
  8
0
100
AcDbLine
 10
-0.507687
 20
6.354295
 30
5.88
 11
-0.487585
 21
6.374387
 31
5.88
  0
LINE
  5
94F
100
AcDbEntity
  8
0
100
AcDbLine
 10
-0.26646
 20
6.414572
 30
5.88
 11
-0.26646
 21
6.168444
 31
5.88
  0
LINE
  5
950
100
AcDbEntity
  8
0
100
AcDbLine
 10
-0.487585
 20
6.374387
 30
5.88
 11
-0.331793
 21
6.198582
 31
5.88
  0
LINE
  5
951
100
AcDbEntity
  8
0
100
AcDbLine
 10
-0.211179
 20
6.334202
 30
5.88
 11
-0.211179
 21
6.58033
 31
5.88
  0
LINE
  5
952
100
AcDbEntity
  8
0
100
AcDbLine
 10
-0.110667
 20
6.540147
 30
5.88
 11
0.0401
 21
6.364342
 31
5.88
  0
LINE
  5
953
100
AcDbEntity
  8
0
100
AcDbLine
 10
0.075278
 20
5.530519
 30
5.88
 11
0.080304
 21
5.505405
 31
5.88
  0
LINE
  5
954
100
AcDbEntity
  8
0
100
AcDbLine
 10
0.110457
 20
5.641027
 30
5.88
 11
0.110457
 21
5.394897
 31
5.88
  0
LINE
  5
955
100
AcDbEntity
  8
0
100
AcDbLine
 10
-0.155899
 20
5.500381
 30
5.88
 11
-0.150873
 21
5.530519
 31
5.88
  0
LINE
  5
956
100
AcDbEntity
  8
0
100
AcDbLine
 10
-0.211179
 20
5.394897
 30
5.88
 11
-0.211179
 21
5.641027
 31
5.88
  0
LINE
  5
957
100
AcDbEntity
  8
0
100
AcDbLine
 10
-0.110667
 20
5.600842
 30
5.88
 11
0.0401
 21
5.425037
 31
5.88
  0
LINE
  5
958
100
AcDbEntity
  8
0
100
AcDbLine
 10
-0.050361
 20
5.394897
 30
5.88
 11
-0.075489
 21
5.399921
 31
5.88
  0
LINE
  5
959
100
AcDbEntity
  8
0
100
AcDbLine
 10
0.110457
 20
5.394897
 30
5.88
 11
-0.211179
 21
5.394897
 31
5.88
  0
LINE
  5
95A
100
AcDbEntity
  8
0
100
AcDbLine
 10
-0.065438
 20
5.309507
 30
5.88
 11
-0.04031
 21
5.314531
 31
5.88
  0
LINE
  5
95B
100
AcDbEntity
  8
0
100
AcDbLine
 10
-0.050361
 20
5.078448
 30
5.88
 11
-0.075489
 21
5.083472
 31
5.88
  0
LINE
  5
95C
100
AcDbEntity
  8
0
100
AcDbLine
 10
-0.065438
 20
4.99808
 30
5.88
 11
-0.04031
 21
4.99808
 31
5.88
  0
LINE
  5
95D
100
AcDbEntity
  8
0
100
AcDbLine
 10
-0.050361
 20
4.767021
 30
5.88
 11
-0.075489
 21
4.772043
 31
5.88
  0
LINE
  5
95E
100
AcDbEntity
  8
0
100
AcDbLine
 10
-0.211179
 20
5.324576
 30
5.88
 11
0.110457
 21
5.324576
 31
5.88
  0
LINE
  5
95F
100
AcDbEntity
  8
0
100
AcDbLine
 10
0.110457
 20
5.078448
 30
5.88
 11
-0.211179
 21
5.078448
 31
5.88
  0
LINE
  5
960
100
AcDbEntity
  8
0
100
AcDbLine
 10
-0.110667
 20
5.284391
 30
5.88
 11
0.0401
 21
5.108586
 31
5.88
  0
LINE
  5
961
100
AcDbEntity
  8
0
100
AcDbLine
 10
-0.211179
 20
5.013149
 30
5.88
 11
0.110457
 21
5.013149
 31
5.88
  0
LINE
  5
962
100
AcDbEntity
  8
0
100
AcDbLine
 10
0.110457
 20
4.767021
 30
5.88
 11
-0.211179
 21
4.767021
 31
5.88
  0
LINE
  5
963
100
AcDbEntity
  8
0
100
AcDbLine
 10
-0.110667
 20
4.972964
 30
5.88
 11
0.0401
 21
4.797159
 31
5.88
  0
LINE
  5
964
100
AcDbEntity
  8
0
100
AcDbLine
 10
-0.211179
 20
4.696698
 30
5.88
 11
0.110457
 21
4.696698
 31
5.88
  0
LINE
  5
965
100
AcDbEntity
  8
0
100
AcDbLine
 10
-0.100616
 20
5.098541
 30
5.88
 11
-0.12072
 21
5.11361
 31
5.88
  0
LINE
  5
966
100
AcDbEntity
  8
0
100
AcDbLine
 10
-0.211179
 20
5.078448
 30
5.88
 11
-0.211179
 21
5.324576
 31
5.88
  0
LINE
  5
967
100
AcDbEntity
  8
0
100
AcDbLine
 10
-0.336819
 20
5.123655
 30
5.88
 11
-0.321742
 21
5.103564
 31
5.88
  0
LINE
  5
968
100
AcDbEntity
  8
0
100
AcDbLine
 10
-0.507687
 20
5.103564
 30
5.88
 11
-0.487585
 21
5.123655
 31
5.88
  0
LINE
  5
969
100
AcDbEntity
  8
0
100
AcDbLine
 10
-0.487585
 20
5.123655
 30
5.88
 11
-0.331793
 21
4.94785
 31
5.88
  0
LINE
  5
96A
100
AcDbEntity
  8
0
100
AcDbLine
 10
-0.26646
 20
5.16384
 30
5.88
 11
-0.26646
 21
4.917712
 31
5.88
  0
LINE
  5
96B
100
AcDbEntity
  8
0
100
AcDbLine
 10
-0.306666
 20
5.078448
 30
5.88
 11
-0.296615
 21
5.053332
 31
5.88
  0
LINE
  5
96C
100
AcDbEntity
  8
0
100
AcDbLine
 10
-0.30164
 20
4.99808
 30
5.88
 11
-0.311691
 21
4.972964
 31
5.88
  0
LINE
  5
96D
100
AcDbEntity
  8
0
100
AcDbLine
 10
-0.306666
 20
4.767021
 30
5.88
 11
-0.296615
 21
4.741907
 31
5.88
  0
LINE
  5
96E
100
AcDbEntity
  8
0
100
AcDbLine
 10
-0.442356
 20
4.83232
 30
5.88
 11
-0.412203
 21
4.837344
 31
5.88
  0
LINE
  5
96F
100
AcDbEntity
  8
0
100
AcDbLine
 10
-0.507687
 20
4.787114
 30
5.88
 11
-0.487585
 21
4.807204
 31
5.88
  0
LINE
  5
970
100
AcDbEntity
  8
0
100
AcDbLine
 10
-0.487585
 20
4.807204
 30
5.88
 11
-0.467483
 21
4.822275
 31
5.88
  0
LINE
  5
971
100
AcDbEntity
  8
0
100
AcDbLine
 10
-0.467483
 20
4.822275
 30
5.88
 11
-0.442356
 21
4.83232
 31
5.88
  0
LINE
  5
972
100
AcDbEntity
  8
0
100
AcDbLine
 10
-0.527791
 20
4.711767
 30
5.88
 11
-0.527791
 21
4.736883
 31
5.88
  0
LINE
  5
973
100
AcDbEntity
  8
0
100
AcDbLine
 10
-0.527791
 20
4.736883
 30
5.88
 11
-0.522764
 21
4.761998
 31
5.88
  0
LINE
  5
974
100
AcDbEntity
  8
0
100
AcDbLine
 10
-0.522764
 20
4.761998
 30
5.88
 11
-0.507687
 21
4.787114
 31
5.88
  0
LINE
  5
975
100
AcDbEntity
  8
0
100
AcDbLine
 10
-0.361946
 20
4.822275
 30
5.88
 11
-0.336819
 21
4.807204
 31
5.88
  0
LINE
  5
976
100
AcDbEntity
  8
0
100
AcDbLine
 10
-0.336819
 20
4.807204
 30
5.88
 11
-0.321742
 21
4.787114
 31
5.88
  0
LINE
  5
977
100
AcDbEntity
  8
0
100
AcDbLine
 10
-0.321742
 20
4.787114
 30
5.88
 11
-0.306666
 21
4.767021
 31
5.88
  0
LINE
  5
978
100
AcDbEntity
  8
0
100
AcDbLine
 10
-0.412203
 20
4.837344
 30
5.88
 11
-0.387074
 21
4.83232
 31
5.88
  0
LINE
  5
979
100
AcDbEntity
  8
0
100
AcDbLine
 10
-0.387074
 20
4.83232
 30
5.88
 11
-0.361946
 21
4.822275
 31
5.88
  0
LINE
  5
97A
100
AcDbEntity
  8
0
100
AcDbLine
 10
-0.427279
 20
4.917712
 30
5.88
 11
-0.452407
 21
4.922734
 31
5.88
  0
LINE
  5
97B
100
AcDbEntity
  8
0
100
AcDbLine
 10
-0.452407
 20
4.922734
 30
5.88
 11
-0.477534
 21
4.932781
 31
5.88
  0
LINE
  5
97C
100
AcDbEntity
  8
0
100
AcDbLine
 10
-0.477534
 20
4.932781
 30
5.88
 11
-0.497636
 21
4.952874
 31
5.88
  0
LINE
  5
97D
100
AcDbEntity
  8
0
100
AcDbLine
 10
-0.527791
 20
5.053332
 30
5.88
 11
-0.522764
 21
5.078448
 31
5.88
  0
LINE
  5
97E
100
AcDbEntity
  8
0
100
AcDbLine
 10
-0.512713
 20
4.972964
 30
5.88
 11
-0.522764
 21
4.99808
 31
5.88
  0
LINE
  5
97F
100
AcDbEntity
  8
0
100
AcDbLine
 10
-0.522764
 20
4.99808
 30
5.88
 11
-0.527791
 21
5.023194
 31
5.88
  0
LINE
  5
980
100
AcDbEntity
  8
0
100
AcDbLine
 10
-0.527791
 20
5.023194
 30
5.88
 11
-0.527791
 21
5.053332
 31
5.88
  0
LINE
  5
981
100
AcDbEntity
  8
0
100
AcDbLine
 10
-0.522764
 20
5.078448
 30
5.88
 11
-0.507687
 21
5.103564
 31
5.88
  0
LINE
  5
982
100
AcDbEntity
  8
0
100
AcDbLine
 10
-0.497636
 20
4.952874
 30
5.88
 11
-0.512713
 21
4.972964
 31
5.88
  0
LINE
  5
983
100
AcDbEntity
  8
0
100
AcDbLine
 10
-0.321742
 20
5.103564
 30
5.88
 11
-0.306666
 21
5.078448
 31
5.88
  0
LINE
  5
984
100
AcDbEntity
  8
0
100
AcDbLine
 10
-0.311691
 20
4.972964
 30
5.88
 11
-0.326768
 21
4.952874
 31
5.88
  0
LINE
  5
985
100
AcDbEntity
  8
0
100
AcDbLine
 10
-0.34687
 20
4.932781
 30
5.88
 11
-0.371997
 21
4.922734
 31
5.88
  0
LINE
  5
986
100
AcDbEntity
  8
0
100
AcDbLine
 10
-0.397126
 20
4.917712
 30
5.88
 11
-0.427279
 21
4.917712
 31
5.88
  0
LINE
  5
987
100
AcDbEntity
  8
0
100
AcDbLine
 10
-0.371997
 20
4.922734
 30
5.88
 11
-0.397126
 21
4.917712
 31
5.88
  0
LINE
  5
988
100
AcDbEntity
  8
0
100
AcDbLine
 10
-0.326768
 20
4.952874
 30
5.88
 11
-0.34687
 21
4.932781
 31
5.88
  0
LINE
  5
989
100
AcDbEntity
  8
0
100
AcDbLine
 10
-0.150873
 20
4.902641
 30
5.88
 11
-0.145848
 21
4.927757
 31
5.88
  0
LINE
  5
98A
100
AcDbEntity
  8
0
100
AcDbLine
 10
-0.211179
 20
4.767021
 30
5.88
 11
-0.211179
 21
5.013149
 31
5.88
  0
LINE
  5
98B
100
AcDbEntity
  8
0
100
AcDbLine
 10
-0.296615
 20
4.741907
 30
5.88
 11
-0.296615
 21
4.711767
 31
5.88
  0
LINE
  5
98C
100
AcDbEntity
  8
0
100
AcDbLine
 10
-0.075489
 20
4.772043
 30
5.88
 11
-0.100616
 21
4.78209
 31
5.88
  0
LINE
  5
98D
100
AcDbEntity
  8
0
100
AcDbLine
 10
-0.100616
 20
4.78209
 30
5.88
 11
-0.12072
 21
4.802183
 31
5.88
  0
LINE
  5
98E
100
AcDbEntity
  8
0
100
AcDbLine
 10
-0.140822
 20
4.822275
 30
5.88
 11
-0.150873
 21
4.847389
 31
5.88
  0
LINE
  5
98F
100
AcDbEntity
  8
0
100
AcDbLine
 10
-0.150873
 20
4.847389
 30
5.88
 11
-0.155899
 21
4.872505
 31
5.88
  0
LINE
  5
990
100
AcDbEntity
  8
0
100
AcDbLine
 10
-0.155899
 20
4.872505
 30
5.88
 11
-0.150873
 21
4.902641
 31
5.88
  0
LINE
  5
991
100
AcDbEntity
  8
0
100
AcDbLine
 10
-0.12072
 20
4.802183
 30
5.88
 11
-0.140822
 21
4.822275
 31
5.88
  0
LINE
  5
992
100
AcDbEntity
  8
0
100
AcDbLine
 10
-0.296615
 20
5.053332
 30
5.88
 11
-0.296615
 21
5.028218
 31
5.88
  0
LINE
  5
993
100
AcDbEntity
  8
0
100
AcDbLine
 10
-0.296615
 20
5.028218
 30
5.88
 11
-0.30164
 21
4.99808
 31
5.88
  0
LINE
  5
994
100
AcDbEntity
  8
0
100
AcDbLine
 10
-0.075489
 20
5.083472
 30
5.88
 11
-0.100616
 21
5.098541
 31
5.88
  0
LINE
  5
995
100
AcDbEntity
  8
0
100
AcDbLine
 10
-0.115695
 20
4.972964
 30
5.88
 11
-0.090565
 21
4.988035
 31
5.88
  0
LINE
  5
996
100
AcDbEntity
  8
0
100
AcDbLine
 10
-0.090565
 20
4.988035
 30
5.88
 11
-0.065438
 21
4.99808
 31
5.88
  0
LINE
  5
997
100
AcDbEntity
  8
0
100
AcDbLine
 10
-0.130769
 20
4.952874
 30
5.88
 11
-0.115695
 21
4.972964
 31
5.88
  0
LINE
  5
998
100
AcDbEntity
  8
0
100
AcDbLine
 10
-0.145848
 20
4.927757
 30
5.88
 11
-0.130769
 21
4.952874
 31
5.88
  0
LINE
  5
999
100
AcDbEntity
  8
0
100
AcDbLine
 10
-0.306666
 20
5.394897
 30
5.88
 11
-0.296615
 21
5.364761
 31
5.88
  0
LINE
  5
99A
100
AcDbEntity
  8
0
100
AcDbLine
 10
-0.30164
 20
5.314531
 30
5.88
 11
-0.311691
 21
5.289415
 31
5.88
  0
LINE
  5
99B
100
AcDbEntity
  8
0
100
AcDbLine
 10
-0.487585
 20
5.435082
 30
5.88
 11
-0.331793
 21
5.259277
 31
5.88
  0
LINE
  5
99C
100
AcDbEntity
  8
0
100
AcDbLine
 10
-0.522764
 20
5.309507
 30
5.88
 11
-0.527791
 21
5.339645
 31
5.88
  0
LINE
  5
99D
100
AcDbEntity
  8
0
100
AcDbLine
 10
-0.427279
 20
5.229139
 30
5.88
 11
-0.452407
 21
5.234163
 31
5.88
  0
LINE
  5
99E
100
AcDbEntity
  8
0
100
AcDbLine
 10
-0.442356
 20
5.143748
 30
5.88
 11
-0.412203
 21
5.148769
 31
5.88
  0
LINE
  5
99F
100
AcDbEntity
  8
0
100
AcDbLine
 10
-0.452407
 20
5.234163
 30
5.88
 11
-0.477534
 21
5.249232
 31
5.88
  0
LINE
  5
9A0
100
AcDbEntity
  8
0
100
AcDbLine
 10
-0.477534
 20
5.249232
 30
5.88
 11
-0.497636
 21
5.264299
 31
5.88
  0
LINE
  5
9A1
100
AcDbEntity
  8
0
100
AcDbLine
 10
-0.467483
 20
5.138726
 30
5.88
 11
-0.442356
 21
5.143748
 31
5.88
  0
LINE
  5
9A2
100
AcDbEntity
  8
0
100
AcDbLine
 10
-0.487585
 20
5.123655
 30
5.88
 11
-0.467483
 21
5.138726
 31
5.88
  0
LINE
  5
9A3
100
AcDbEntity
  8
0
100
AcDbLine
 10
-0.512713
 20
5.284391
 30
5.88
 11
-0.522764
 21
5.309507
 31
5.88
  0
LINE
  5
9A4
100
AcDbEntity
  8
0
100
AcDbLine
 10
-0.497636
 20
5.264299
 30
5.88
 11
-0.512713
 21
5.284391
 31
5.88
  0
LINE
  5
9A5
100
AcDbEntity
  8
0
100
AcDbLine
 10
-0.311691
 20
5.289415
 30
5.88
 11
-0.326768
 21
5.264299
 31
5.88
  0
LINE
  5
9A6
100
AcDbEntity
  8
0
100
AcDbLine
 10
-0.326768
 20
5.264299
 30
5.88
 11
-0.34687
 21
5.249232
 31
5.88
  0
LINE
  5
9A7
100
AcDbEntity
  8
0
100
AcDbLine
 10
-0.34687
 20
5.249232
 30
5.88
 11
-0.371997
 21
5.234163
 31
5.88
  0
LINE
  5
9A8
100
AcDbEntity
  8
0
100
AcDbLine
 10
-0.397126
 20
5.229139
 30
5.88
 11
-0.427279
 21
5.229139
 31
5.88
  0
LINE
  5
9A9
100
AcDbEntity
  8
0
100
AcDbLine
 10
-0.412203
 20
5.148769
 30
5.88
 11
-0.387074
 21
5.143748
 31
5.88
  0
LINE
  5
9AA
100
AcDbEntity
  8
0
100
AcDbLine
 10
-0.371997
 20
5.234163
 30
5.88
 11
-0.397126
 21
5.229139
 31
5.88
  0
LINE
  5
9AB
100
AcDbEntity
  8
0
100
AcDbLine
 10
-0.387074
 20
5.143748
 30
5.88
 11
-0.361946
 21
5.138726
 31
5.88
  0
LINE
  5
9AC
100
AcDbEntity
  8
0
100
AcDbLine
 10
-0.361946
 20
5.138726
 30
5.88
 11
-0.336819
 21
5.123655
 31
5.88
  0
LINE
  5
9AD
100
AcDbEntity
  8
0
100
AcDbLine
 10
-0.442356
 20
5.460198
 30
5.88
 11
-0.412203
 21
5.460198
 31
5.88
  0
LINE
  5
9AE
100
AcDbEntity
  8
0
100
AcDbLine
 10
-0.507687
 20
5.41499
 30
5.88
 11
-0.487585
 21
5.435082
 31
5.88
  0
LINE
  5
9AF
100
AcDbEntity
  8
0
100
AcDbLine
 10
-0.487585
 20
5.435082
 30
5.88
 11
-0.467483
 21
5.450151
 31
5.88
  0
LINE
  5
9B0
100
AcDbEntity
  8
0
100
AcDbLine
 10
-0.467483
 20
5.450151
 30
5.88
 11
-0.442356
 21
5.460198
 31
5.88
  0
LINE
  5
9B1
100
AcDbEntity
  8
0
100
AcDbLine
 10
-0.527791
 20
5.364761
 30
5.88
 11
-0.522764
 21
5.389875
 31
5.88
  0
LINE
  5
9B2
100
AcDbEntity
  8
0
100
AcDbLine
 10
-0.527791
 20
5.339645
 30
5.88
 11
-0.527791
 21
5.364761
 31
5.88
  0
LINE
  5
9B3
100
AcDbEntity
  8
0
100
AcDbLine
 10
-0.522764
 20
5.389875
 30
5.88
 11
-0.507687
 21
5.41499
 31
5.88
  0
LINE
  5
9B4
100
AcDbEntity
  8
0
100
AcDbLine
 10
-0.361946
 20
5.450151
 30
5.88
 11
-0.336819
 21
5.435082
 31
5.88
  0
LINE
  5
9B5
100
AcDbEntity
  8
0
100
AcDbLine
 10
-0.336819
 20
5.435082
 30
5.88
 11
-0.321742
 21
5.41499
 31
5.88
  0
LINE
  5
9B6
100
AcDbEntity
  8
0
100
AcDbLine
 10
-0.321742
 20
5.41499
 30
5.88
 11
-0.306666
 21
5.394897
 31
5.88
  0
LINE
  5
9B7
100
AcDbEntity
  8
0
100
AcDbLine
 10
-0.412203
 20
5.460198
 30
5.88
 11
-0.387074
 21
5.460198
 31
5.88
  0
LINE
  5
9B8
100
AcDbEntity
  8
0
100
AcDbLine
 10
-0.387074
 20
5.460198
 30
5.88
 11
-0.361946
 21
5.450151
 31
5.88
  0
LINE
  5
9B9
100
AcDbEntity
  8
0
100
AcDbLine
 10
-0.26646
 20
5.475267
 30
5.88
 11
-0.26646
 21
5.229139
 31
5.88
  0
LINE
  5
9BA
100
AcDbEntity
  8
0
100
AcDbLine
 10
-0.296615
 20
5.339645
 30
5.88
 11
-0.30164
 21
5.314531
 31
5.88
  0
LINE
  5
9BB
100
AcDbEntity
  8
0
100
AcDbLine
 10
-0.115695
 20
5.284391
 30
5.88
 11
-0.090565
 21
5.29946
 31
5.88
  0
LINE
  5
9BC
100
AcDbEntity
  8
0
100
AcDbLine
 10
-0.090565
 20
5.29946
 30
5.88
 11
-0.065438
 21
5.309507
 31
5.88
  0
LINE
  5
9BD
100
AcDbEntity
  8
0
100
AcDbLine
 10
-0.150873
 20
5.21407
 30
5.88
 11
-0.145848
 21
5.239185
 31
5.88
  0
LINE
  5
9BE
100
AcDbEntity
  8
0
100
AcDbLine
 10
-0.145848
 20
5.239185
 30
5.88
 11
-0.130769
 21
5.264299
 31
5.88
  0
LINE
  5
9BF
100
AcDbEntity
  8
0
100
AcDbLine
 10
-0.140822
 20
5.138726
 30
5.88
 11
-0.150873
 21
5.16384
 31
5.88
  0
LINE
  5
9C0
100
AcDbEntity
  8
0
100
AcDbLine
 10
-0.150873
 20
5.16384
 30
5.88
 11
-0.155899
 21
5.188954
 31
5.88
  0
LINE
  5
9C1
100
AcDbEntity
  8
0
100
AcDbLine
 10
-0.155899
 20
5.188954
 30
5.88
 11
-0.150873
 21
5.21407
 31
5.88
  0
LINE
  5
9C2
100
AcDbEntity
  8
0
100
AcDbLine
 10
-0.130769
 20
5.264299
 30
5.88
 11
-0.115695
 21
5.284391
 31
5.88
  0
LINE
  5
9C3
100
AcDbEntity
  8
0
100
AcDbLine
 10
-0.12072
 20
5.11361
 30
5.88
 11
-0.140822
 21
5.138726
 31
5.88
  0
LINE
  5
9C4
100
AcDbEntity
  8
0
100
AcDbLine
 10
-0.296615
 20
5.364761
 30
5.88
 11
-0.296615
 21
5.339645
 31
5.88
  0
LINE
  5
9C5
100
AcDbEntity
  8
0
100
AcDbLine
 10
-0.075489
 20
5.399921
 30
5.88
 11
-0.100616
 21
5.409968
 31
5.88
  0
LINE
  5
9C6
100
AcDbEntity
  8
0
100
AcDbLine
 10
-0.100616
 20
5.409968
 30
5.88
 11
-0.12072
 21
5.430059
 31
5.88
  0
LINE
  5
9C7
100
AcDbEntity
  8
0
100
AcDbLine
 10
-0.140822
 20
5.450151
 30
5.88
 11
-0.150873
 21
5.475267
 31
5.88
  0
LINE
  5
9C8
100
AcDbEntity
  8
0
100
AcDbLine
 10
-0.150873
 20
5.475267
 30
5.88
 11
-0.155899
 21
5.500381
 31
5.88
  0
LINE
  5
9C9
100
AcDbEntity
  8
0
100
AcDbLine
 10
-0.12072
 20
5.430059
 30
5.88
 11
-0.140822
 21
5.450151
 31
5.88
  0
LINE
  5
9CA
100
AcDbEntity
  8
0
100
AcDbLine
 10
0.050151
 20
5.11361
 30
5.88
 11
0.025021
 21
5.098541
 31
5.88
  0
LINE
  5
9CB
100
AcDbEntity
  8
0
100
AcDbLine
 10
0.110457
 20
5.324576
 30
5.88
 11
0.110457
 21
5.078448
 31
5.88
  0
LINE
  5
9CC
100
AcDbEntity
  8
0
100
AcDbLine
 10
0.070253
 20
4.927757
 30
5.88
 11
0.075278
 21
4.902641
 31
5.88
  0
LINE
  5
9CD
100
AcDbEntity
  8
0
100
AcDbLine
 10
0.110457
 20
5.013149
 30
5.88
 11
0.110457
 21
4.767021
 31
5.88
  0
LINE
  5
9CE
100
AcDbEntity
  8
0
100
AcDbLine
 10
0.075278
 20
4.847389
 30
5.88
 11
0.065227
 21
4.822275
 31
5.88
  0
LINE
  5
9CF
100
AcDbEntity
  8
0
100
AcDbLine
 10
0.065227
 20
4.822275
 30
5.88
 11
0.050151
 21
4.802183
 31
5.88
  0
LINE
  5
9D0
100
AcDbEntity
  8
0
100
AcDbLine
 10
0.050151
 20
4.802183
 30
5.88
 11
0.025021
 21
4.787114
 31
5.88
  0
LINE
  5
9D1
100
AcDbEntity
  8
0
100
AcDbLine
 10
0.025021
 20
4.787114
 30
5.88
 11
0.004919
 21
4.772043
 31
5.88
  0
LINE
  5
9D2
100
AcDbEntity
  8
0
100
AcDbLine
 10
-0.025234
 20
4.767021
 30
5.88
 11
-0.050361
 21
4.767021
 31
5.88
  0
LINE
  5
9D3
100
AcDbEntity
  8
0
100
AcDbLine
 10
0.004919
 20
4.772043
 30
5.88
 11
-0.025234
 21
4.767021
 31
5.88
  0
LINE
  5
9D4
100
AcDbEntity
  8
0
100
AcDbLine
 10
0.075278
 20
4.902641
 30
5.88
 11
0.080304
 21
4.877527
 31
5.88
  0
LINE
  5
9D5
100
AcDbEntity
  8
0
100
AcDbLine
 10
0.080304
 20
4.877527
 30
5.88
 11
0.075278
 21
4.847389
 31
5.88
  0
LINE
  5
9D6
100
AcDbEntity
  8
0
100
AcDbLine
 10
0.025021
 20
5.098541
 30
5.88
 11
0.004919
 21
5.088494
 31
5.88
  0
LINE
  5
9D7
100
AcDbEntity
  8
0
100
AcDbLine
 10
0.01497
 20
4.988035
 30
5.88
 11
0.035074
 21
4.972964
 31
5.88
  0
LINE
  5
9D8
100
AcDbEntity
  8
0
100
AcDbLine
 10
0.035074
 20
4.972964
 30
5.88
 11
0.055176
 21
4.952874
 31
5.88
  0
LINE
  5
9D9
100
AcDbEntity
  8
0
100
AcDbLine
 10
0.055176
 20
4.952874
 30
5.88
 11
0.070253
 21
4.927757
 31
5.88
  0
LINE
  5
9DA
100
AcDbEntity
  8
0
100
AcDbLine
 10
-0.025234
 20
5.078448
 30
5.88
 11
-0.050361
 21
5.078448
 31
5.88
  0
LINE
  5
9DB
100
AcDbEntity
  8
0
100
AcDbLine
 10
-0.04031
 20
4.99808
 30
5.88
 11
-0.010157
 21
4.99808
 31
5.88
  0
LINE
  5
9DC
100
AcDbEntity
  8
0
100
AcDbLine
 10
0.004919
 20
5.088494
 30
5.88
 11
-0.025234
 21
5.078448
 31
5.88
  0
LINE
  5
9DD
100
AcDbEntity
  8
0
100
AcDbLine
 10
-0.010157
 20
4.99808
 30
5.88
 11
0.01497
 21
4.988035
 31
5.88
  0
LINE
  5
9DE
100
AcDbEntity
  8
0
100
AcDbLine
 10
0.070253
 20
5.244208
 30
5.88
 11
0.075278
 21
5.219092
 31
5.88
  0
LINE
  5
9DF
100
AcDbEntity
  8
0
100
AcDbLine
 10
0.075278
 20
5.16384
 30
5.88
 11
0.065227
 21
5.138726
 31
5.88
  0
LINE
  5
9E0
100
AcDbEntity
  8
0
100
AcDbLine
 10
0.01497
 20
5.29946
 30
5.88
 11
0.035074
 21
5.284391
 31
5.88
  0
LINE
  5
9E1
100
AcDbEntity
  8
0
100
AcDbLine
 10
0.035074
 20
5.284391
 30
5.88
 11
0.055176
 21
5.264299
 31
5.88
  0
LINE
  5
9E2
100
AcDbEntity
  8
0
100
AcDbLine
 10
0.055176
 20
5.264299
 30
5.88
 11
0.070253
 21
5.244208
 31
5.88
  0
LINE
  5
9E3
100
AcDbEntity
  8
0
100
AcDbLine
 10
0.065227
 20
5.138726
 30
5.88
 11
0.050151
 21
5.11361
 31
5.88
  0
LINE
  5
9E4
100
AcDbEntity
  8
0
100
AcDbLine
 10
-0.04031
 20
5.314531
 30
5.88
 11
-0.010157
 21
5.309507
 31
5.88
  0
LINE
  5
9E5
100
AcDbEntity
  8
0
100
AcDbLine
 10
-0.010157
 20
5.309507
 30
5.88
 11
0.01497
 21
5.29946
 31
5.88
  0
LINE
  5
9E6
100
AcDbEntity
  8
0
100
AcDbLine
 10
0.075278
 20
5.219092
 30
5.88
 11
0.080304
 21
5.188954
 31
5.88
  0
LINE
  5
9E7
100
AcDbEntity
  8
0
100
AcDbLine
 10
0.080304
 20
5.188954
 30
5.88
 11
0.075278
 21
5.16384
 31
5.88
  0
LINE
  5
9E8
100
AcDbEntity
  8
0
100
AcDbLine
 10
0.075278
 20
5.475267
 30
5.88
 11
0.065227
 21
5.450151
 31
5.88
  0
LINE
  5
9E9
100
AcDbEntity
  8
0
100
AcDbLine
 10
0.065227
 20
5.450151
 30
5.88
 11
0.050151
 21
5.430059
 31
5.88
  0
LINE
  5
9EA
100
AcDbEntity
  8
0
100
AcDbLine
 10
0.050151
 20
5.430059
 30
5.88
 11
0.025021
 21
5.409968
 31
5.88
  0
LINE
  5
9EB
100
AcDbEntity
  8
0
100
AcDbLine
 10
0.025021
 20
5.409968
 30
5.88
 11
0.004919
 21
5.399921
 31
5.88
  0
LINE
  5
9EC
100
AcDbEntity
  8
0
100
AcDbLine
 10
-0.025234
 20
5.394897
 30
5.88
 11
-0.050361
 21
5.394897
 31
5.88
  0
LINE
  5
9ED
100
AcDbEntity
  8
0
100
AcDbLine
 10
0.004919
 20
5.399921
 30
5.88
 11
-0.025234
 21
5.394897
 31
5.88
  0
LINE
  5
9EE
100
AcDbEntity
  8
0
100
AcDbLine
 10
0.080304
 20
5.505405
 30
5.88
 11
0.075278
 21
5.475267
 31
5.88
  0
LINE
  5
9EF
100
AcDbEntity
  8
0
100
AcDbLine
 10
-0.050361
 20
6.334202
 30
5.88
 11
-0.075489
 21
6.339226
 31
5.88
  0
LINE
  5
9F0
100
AcDbEntity
  8
0
100
AcDbLine
 10
-0.065438
 20
6.248812
 30
5.88
 11
-0.04031
 21
6.253836
 31
5.88
  0
LINE
  5
9F1
100
AcDbEntity
  8
0
100
AcDbLine
 10
0.110457
 20
6.334202
 30
5.88
 11
-0.211179
 21
6.334202
 31
5.88
  0
LINE
  5
9F2
100
AcDbEntity
  8
0
100
AcDbLine
 10
-0.211179
 20
6.263879
 30
5.88
 11
0.110457
 21
6.263879
 31
5.88
  0
LINE
  5
9F3
100
AcDbEntity
  8
0
100
AcDbLine
 10
-0.050361
 20
6.017751
 30
5.88
 11
-0.075489
 21
6.027799
 31
5.88
  0
LINE
  5
9F4
100
AcDbEntity
  8
0
100
AcDbLine
 10
-0.065438
 20
5.937385
 30
5.88
 11
-0.04031
 21
5.937385
 31
5.88
  0
LINE
  5
9F5
100
AcDbEntity
  8
0
100
AcDbLine
 10
-0.050361
 20
5.706326
 30
5.88
 11
-0.075489
 21
5.71135
 31
5.88
  0
LINE
  5
9F6
100
AcDbEntity
  8
0
100
AcDbLine
 10
-0.065438
 20
5.620934
 30
5.88
 11
-0.04031
 21
5.625958
 31
5.88
  0
LINE
  5
9F7
100
AcDbEntity
  8
0
100
AcDbLine
 10
0.110457
 20
6.017751
 30
5.88
 11
-0.211179
 21
6.017751
 31
5.88
  0
LINE
  5
9F8
100
AcDbEntity
  8
0
100
AcDbLine
 10
-0.211179
 20
5.952454
 30
5.88
 11
0.110457
 21
5.952454
 31
5.88
  0
LINE
  5
9F9
100
AcDbEntity
  8
0
100
AcDbLine
 10
0.110457
 20
5.706326
 30
5.88
 11
-0.211179
 21
5.706326
 31
5.88
  0
LINE
  5
9FA
100
AcDbEntity
  8
0
100
AcDbLine
 10
-0.110667
 20
5.912269
 30
5.88
 11
0.0401
 21
5.736464
 31
5.88
  0
LINE
  5
9FB
100
AcDbEntity
  8
0
100
AcDbLine
 10
-0.211179
 20
5.641027
 30
5.88
 11
0.110457
 21
5.641027
 31
5.88
  0
LINE
  5
9FC
100
AcDbEntity
  8
0
100
AcDbLine
 10
-0.110667
 20
6.22872
 30
5.88
 11
0.0401
 21
6.052913
 31
5.88
  0
LINE
  5
9FD
100
AcDbEntity
  8
0
100
AcDbLine
 10
-0.296615
 20
5.967523
 30
5.88
 11
-0.30164
 21
5.937385
 31
5.88
  0
LINE
  5
9FE
100
AcDbEntity
  8
0
100
AcDbLine
 10
-0.26646
 20
6.103143
 30
5.88
 11
-0.26646
 21
5.857015
 31
5.88
  0
LINE
  5
9FF
100
AcDbEntity
  8
0
100
AcDbLine
 10
-0.487585
 20
6.06296
 30
5.88
 11
-0.331793
 21
5.887155
 31
5.88
  0
LINE
  5
A00
100
AcDbEntity
  8
0
100
AcDbLine
 10
-0.211179
 20
5.706326
 30
5.88
 11
-0.211179
 21
5.952454
 31
5.88
  0
LINE
  5
A01
100
AcDbEntity
  8
0
100
AcDbLine
 10
-0.522764
 20
5.937385
 30
5.88
 11
-0.527791
 21
5.962499
 31
5.88
  0
LINE
  5
A02
100
AcDbEntity
  8
0
100
AcDbLine
 10
-0.30164
 20
5.937385
 30
5.88
 11
-0.311691
 21
5.912269
 31
5.88
  0
LINE
  5
A03
100
AcDbEntity
  8
0
100
AcDbLine
 10
-0.306666
 20
5.706326
 30
5.88
 11
-0.296615
 21
5.68121
 31
5.88
  0
LINE
  5
A04
100
AcDbEntity
  8
0
100
AcDbLine
 10
-0.30164
 20
5.625958
 30
5.88
 11
-0.311691
 21
5.600842
 31
5.88
  0
LINE
  5
A05
100
AcDbEntity
  8
0
100
AcDbLine
 10
-0.507687
 20
5.726419
 30
5.88
 11
-0.487585
 21
5.746511
 31
5.88
  0
LINE
  5
A06
100
AcDbEntity
  8
0
100
AcDbLine
 10
-0.336819
 20
5.751531
 30
5.88
 11
-0.321742
 21
5.731442
 31
5.88
  0
LINE
  5
A07
100
AcDbEntity
  8
0
100
AcDbLine
 10
-0.487585
 20
5.751531
 30
5.88
 11
-0.331793
 21
5.575726
 31
5.88
  0
LINE
  5
A08
100
AcDbEntity
  8
0
100
AcDbLine
 10
-0.427279
 20
5.540566
 30
5.88
 11
-0.452407
 21
5.550612
 31
5.88
  0
LINE
  5
A09
100
AcDbEntity
  8
0
100
AcDbLine
 10
-0.452407
 20
5.550612
 30
5.88
 11
-0.477534
 21
5.560659
 31
5.88
  0
LINE
  5
A0A
100
AcDbEntity
  8
0
100
AcDbLine
 10
-0.477534
 20
5.560659
 30
5.88
 11
-0.497636
 21
5.580749
 31
5.88
  0
LINE
  5
A0B
100
AcDbEntity
  8
0
100
AcDbLine
 10
-0.527791
 20
5.676188
 30
5.88
 11
-0.522764
 21
5.706326
 31
5.88
  0
LINE
  5
A0C
100
AcDbEntity
  8
0
100
AcDbLine
 10
-0.512713
 20
5.600842
 30
5.88
 11
-0.522764
 21
5.625958
 31
5.88
  0
LINE
  5
A0D
100
AcDbEntity
  8
0
100
AcDbLine
 10
-0.522764
 20
5.625958
 30
5.88
 11
-0.527791
 21
5.651072
 31
5.88
  0
LINE
  5
A0E
100
AcDbEntity
  8
0
100
AcDbLine
 10
-0.527791
 20
5.651072
 30
5.88
 11
-0.527791
 21
5.676188
 31
5.88
  0
LINE
  5
A0F
100
AcDbEntity
  8
0
100
AcDbLine
 10
-0.522764
 20
5.706326
 30
5.88
 11
-0.507687
 21
5.726419
 31
5.88
  0
LINE
  5
A10
100
AcDbEntity
  8
0
100
AcDbLine
 10
-0.497636
 20
5.580749
 30
5.88
 11
-0.512713
 21
5.600842
 31
5.88
  0
LINE
  5
A11
100
AcDbEntity
  8
0
100
AcDbLine
 10
-0.321742
 20
5.731442
 30
5.88
 11
-0.306666
 21
5.706326
 31
5.88
  0
LINE
  5
A12
100
AcDbEntity
  8
0
100
AcDbLine
 10
-0.311691
 20
5.600842
 30
5.88
 11
-0.326768
 21
5.580749
 31
5.88
  0
LINE
  5
A13
100
AcDbEntity
  8
0
100
AcDbLine
 10
-0.326768
 20
5.580749
 30
5.88
 11
-0.34687
 21
5.560659
 31
5.88
  0
LINE
  5
A14
100
AcDbEntity
  8
0
100
AcDbLine
 10
-0.34687
 20
5.560659
 30
5.88
 11
-0.371997
 21
5.550612
 31
5.88
  0
LINE
  5
A15
100
AcDbEntity
  8
0
100
AcDbLine
 10
-0.397126
 20
5.540566
 30
5.88
 11
-0.427279
 21
5.540566
 31
5.88
  0
LINE
  5
A16
100
AcDbEntity
  8
0
100
AcDbLine
 10
-0.371997
 20
5.550612
 30
5.88
 11
-0.397126
 21
5.540566
 31
5.88
  0
LINE
  5
A17
100
AcDbEntity
  8
0
100
AcDbLine
 10
-0.427279
 20
5.857015
 30
5.88
 11
-0.452407
 21
5.862039
 31
5.88
  0
LINE
  5
A18
100
AcDbEntity
  8
0
100
AcDbLine
 10
-0.442356
 20
5.771623
 30
5.88
 11
-0.412203
 21
5.776647
 31
5.88
  0
LINE
  5
A19
100
AcDbEntity
  8
0
100
AcDbLine
 10
-0.452407
 20
5.862039
 30
5.88
 11
-0.477534
 21
5.872086
 31
5.88
  0
LINE
  5
A1A
100
AcDbEntity
  8
0
100
AcDbLine
 10
-0.477534
 20
5.872086
 30
5.88
 11
-0.497636
 21
5.892177
 31
5.88
  0
LINE
  5
A1B
100
AcDbEntity
  8
0
100
AcDbLine
 10
-0.487585
 20
5.746511
 30
5.88
 11
-0.467483
 21
5.76158
 31
5.88
  0
LINE
  5
A1C
100
AcDbEntity
  8
0
100
AcDbLine
 10
-0.467483
 20
5.76158
 30
5.88
 11
-0.442356
 21
5.771623
 31
5.88
  0
LINE
  5
A1D
100
AcDbEntity
  8
0
100
AcDbLine
 10
-0.512713
 20
5.912269
 30
5.88
 11
-0.522764
 21
5.937385
 31
5.88
  0
LINE
  5
A1E
100
AcDbEntity
  8
0
100
AcDbLine
 10
-0.497636
 20
5.892177
 30
5.88
 11
-0.512713
 21
5.912269
 31
5.88
  0
LINE
  5
A1F
100
AcDbEntity
  8
0
100
AcDbLine
 10
-0.311691
 20
5.912269
 30
5.88
 11
-0.326768
 21
5.892177
 31
5.88
  0
LINE
  5
A20
100
AcDbEntity
  8
0
100
AcDbLine
 10
-0.326768
 20
5.892177
 30
5.88
 11
-0.34687
 21
5.877108
 31
5.88
  0
LINE
  5
A21
100
AcDbEntity
  8
0
100
AcDbLine
 10
-0.34687
 20
5.877108
 30
5.88
 11
-0.371997
 21
5.862039
 31
5.88
  0
LINE
  5
A22
100
AcDbEntity
  8
0
100
AcDbLine
 10
-0.361946
 20
5.76158
 30
5.88
 11
-0.336819
 21
5.751531
 31
5.88
  0
LINE
  5
A23
100
AcDbEntity
  8
0
100
AcDbLine
 10
-0.397126
 20
5.857015
 30
5.88
 11
-0.427279
 21
5.857015
 31
5.88
  0
LINE
  5
A24
100
AcDbEntity
  8
0
100
AcDbLine
 10
-0.412203
 20
5.776647
 30
5.88
 11
-0.387074
 21
5.771623
 31
5.88
  0
LINE
  5
A25
100
AcDbEntity
  8
0
100
AcDbLine
 10
-0.371997
 20
5.862039
 30
5.88
 11
-0.397126
 21
5.857015
 31
5.88
  0
LINE
  5
A26
100
AcDbEntity
  8
0
100
AcDbLine
 10
-0.387074
 20
5.771623
 30
5.88
 11
-0.361946
 21
5.76158
 31
5.88
  0
LINE
  5
A27
100
AcDbEntity
  8
0
100
AcDbLine
 10
-0.100616
 20
5.726419
 30
5.88
 11
-0.12072
 21
5.741488
 31
5.88
  0
LINE
  5
A28
100
AcDbEntity
  8
0
100
AcDbLine
 10
-0.26646
 20
5.786692
 30
5.88
 11
-0.26646
 21
5.540566
 31
5.88
  0
LINE
  5
A29
100
AcDbEntity
  8
0
100
AcDbLine
 10
-0.296615
 20
5.68121
 30
5.88
 11
-0.296615
 21
5.651072
 31
5.88
  0
LINE
  5
A2A
100
AcDbEntity
  8
0
100
AcDbLine
 10
-0.296615
 20
5.651072
 30
5.88
 11
-0.30164
 21
5.625958
 31
5.88
  0
LINE
  5
A2B
100
AcDbEntity
  8
0
100
AcDbLine
 10
-0.075489
 20
5.71135
 30
5.88
 11
-0.100616
 21
5.726419
 31
5.88
  0
LINE
  5
A2C
100
AcDbEntity
  8
0
100
AcDbLine
 10
-0.115695
 20
5.595818
 30
5.88
 11
-0.090565
 21
5.610887
 31
5.88
  0
LINE
  5
A2D
100
AcDbEntity
  8
0
100
AcDbLine
 10
-0.090565
 20
5.610887
 30
5.88
 11
-0.065438
 21
5.620934
 31
5.88
  0
LINE
  5
A2E
100
AcDbEntity
  8
0
100
AcDbLine
 10
-0.145848
 20
5.555635
 30
5.88
 11
-0.130769
 21
5.580749
 31
5.88
  0
LINE
  5
A2F
100
AcDbEntity
  8
0
100
AcDbLine
 10
-0.130769
 20
5.580749
 30
5.88
 11
-0.115695
 21
5.595818
 31
5.88
  0
LINE
  5
A30
100
AcDbEntity
  8
0
100
AcDbLine
 10
-0.150873
 20
5.530519
 30
5.88
 11
-0.145848
 21
5.555635
 31
5.88
  0
LINE
  5
A31
100
AcDbEntity
  8
0
100
AcDbLine
 10
-0.115695
 20
5.912269
 30
5.88
 11
-0.090565
 21
5.927338
 31
5.88
  0
LINE
  5
A32
100
AcDbEntity
  8
0
100
AcDbLine
 10
-0.150873
 20
5.841946
 30
5.88
 11
-0.145848
 21
5.867062
 31
5.88
  0
LINE
  5
A33
100
AcDbEntity
  8
0
100
AcDbLine
 10
-0.145848
 20
5.867062
 30
5.88
 11
-0.130769
 21
5.892177
 31
5.88
  0
LINE
  5
A34
100
AcDbEntity
  8
0
100
AcDbLine
 10
-0.140822
 20
5.76158
 30
5.88
 11
-0.150873
 21
5.786692
 31
5.88
  0
LINE
  5
A35
100
AcDbEntity
  8
0
100
AcDbLine
 10
-0.150873
 20
5.786692
 30
5.88
 11
-0.155899
 21
5.816832
 31
5.88
  0
LINE
  5
A36
100
AcDbEntity
  8
0
100
AcDbLine
 10
-0.155899
 20
5.816832
 30
5.88
 11
-0.150873
 21
5.841946
 31
5.88
  0
LINE
  5
A37
100
AcDbEntity
  8
0
100
AcDbLine
 10
-0.130769
 20
5.892177
 30
5.88
 11
-0.115695
 21
5.912269
 31
5.88
  0
LINE
  5
A38
100
AcDbEntity
  8
0
100
AcDbLine
 10
-0.12072
 20
5.741488
 30
5.88
 11
-0.140822
 21
5.76158
 31
5.88
  0
LINE
  5
A39
100
AcDbEntity
  8
0
100
AcDbLine
 10
-0.090565
 20
5.927338
 30
5.88
 11
-0.065438
 21
5.937385
 31
5.88
  0
LINE
  5
A3A
100
AcDbEntity
  8
0
100
AcDbLine
 10
-0.30164
 20
6.253836
 30
5.88
 11
-0.311691
 21
6.22872
 31
5.88
  0
LINE
  5
A3B
100
AcDbEntity
  8
0
100
AcDbLine
 10
-0.306666
 20
6.334202
 30
5.88
 11
-0.296615
 21
6.309088
 31
5.88
  0
LINE
  5
A3C
100
AcDbEntity
  8
0
100
AcDbLine
 10
-0.306666
 20
6.017751
 30
5.88
 11
-0.296615
 21
5.992639
 31
5.88
  0
LINE
  5
A3D
100
AcDbEntity
  8
0
100
AcDbLine
 10
-0.442356
 20
6.088074
 30
5.88
 11
-0.412203
 21
6.088074
 31
5.88
  0
LINE
  5
A3E
100
AcDbEntity
  8
0
100
AcDbLine
 10
-0.507687
 20
6.042867
 30
5.88
 11
-0.487585
 21
6.06296
 31
5.88
  0
LINE
  5
A3F
100
AcDbEntity
  8
0
100
AcDbLine
 10
-0.487585
 20
6.06296
 30
5.88
 11
-0.467483
 21
6.078029
 31
5.88
  0
LINE
  5
A40
100
AcDbEntity
  8
0
100
AcDbLine
 10
-0.467483
 20
6.078029
 30
5.88
 11
-0.442356
 21
6.088074
 31
5.88
  0
LINE
  5
A41
100
AcDbEntity
  8
0
100
AcDbLine
 10
-0.527791
 20
5.992639
 30
5.88
 11
-0.522764
 21
6.017751
 31
5.88
  0
LINE
  5
A42
100
AcDbEntity
  8
0
100
AcDbLine
 10
-0.527791
 20
5.962499
 30
5.88
 11
-0.527791
 21
5.992639
 31
5.88
  0
LINE
  5
A43
100
AcDbEntity
  8
0
100
AcDbLine
 10
-0.522764
 20
6.017751
 30
5.88
 11
-0.507687
 21
6.042867
 31
5.88
  0
LINE
  5
A44
100
AcDbEntity
  8
0
100
AcDbLine
 10
-0.361946
 20
6.078029
 30
5.88
 11
-0.336819
 21
6.06296
 31
5.88
  0
LINE
  5
A45
100
AcDbEntity
  8
0
100
AcDbLine
 10
-0.336819
 20
6.06296
 30
5.88
 11
-0.321742
 21
6.042867
 31
5.88
  0
LINE
  5
A46
100
AcDbEntity
  8
0
100
AcDbLine
 10
-0.321742
 20
6.042867
 30
5.88
 11
-0.306666
 21
6.017751
 31
5.88
  0
LINE
  5
A47
100
AcDbEntity
  8
0
100
AcDbLine
 10
-0.412203
 20
6.088074
 30
5.88
 11
-0.387074
 21
6.088074
 31
5.88
  0
LINE
  5
A48
100
AcDbEntity
  8
0
100
AcDbLine
 10
-0.387074
 20
6.088074
 30
5.88
 11
-0.361946
 21
6.078029
 31
5.88
  0
LINE
  5
A49
100
AcDbEntity
  8
0
100
AcDbLine
 10
-0.427279
 20
6.168444
 30
5.88
 11
-0.452407
 21
6.173466
 31
5.88
  0
LINE
  5
A4A
100
AcDbEntity
  8
0
100
AcDbLine
 10
-0.452407
 20
6.173466
 30
5.88
 11
-0.477534
 21
6.188537
 31
5.88
  0
LINE
  5
A4B
100
AcDbEntity
  8
0
100
AcDbLine
 10
-0.477534
 20
6.188537
 30
5.88
 11
-0.497636
 21
6.203606
 31
5.88
  0
LINE
  5
A4C
100
AcDbEntity
  8
0
100
AcDbLine
 10
-0.527791
 20
6.304064
 30
5.88
 11
-0.522764
 21
6.32918
 31
5.88
  0
LINE
  5
A4D
100
AcDbEntity
  8
0
100
AcDbLine
 10
-0.512713
 20
6.22872
 30
5.88
 11
-0.522764
 21
6.253836
 31
5.88
  0
LINE
  5
A4E
100
AcDbEntity
  8
0
100
AcDbLine
 10
-0.522764
 20
6.253836
 30
5.88
 11
-0.527791
 21
6.278948
 31
5.88
  0
LINE
  5
A4F
100
AcDbEntity
  8
0
100
AcDbLine
 10
-0.527791
 20
6.278948
 30
5.88
 11
-0.527791
 21
6.304064
 31
5.88
  0
LINE
  5
A50
100
AcDbEntity
  8
0
100
AcDbLine
 10
-0.522764
 20
6.32918
 30
5.88
 11
-0.507687
 21
6.354295
 31
5.88
  0
LINE
  5
A51
100
AcDbEntity
  8
0
100
AcDbLine
 10
-0.497636
 20
6.203606
 30
5.88
 11
-0.512713
 21
6.22872
 31
5.88
  0
LINE
  5
A52
100
AcDbEntity
  8
0
100
AcDbLine
 10
-0.321742
 20
6.354295
 30
5.88
 11
-0.306666
 21
6.334202
 31
5.88
  0
LINE
  5
A53
100
AcDbEntity
  8
0
100
AcDbLine
 10
-0.311691
 20
6.22872
 30
5.88
 11
-0.326768
 21
6.208627
 31
5.88
  0
LINE
  5
A54
100
AcDbEntity
  8
0
100
AcDbLine
 10
-0.326768
 20
6.208627
 30
5.88
 11
-0.34687
 21
6.188537
 31
5.88
  0
LINE
  5
A55
100
AcDbEntity
  8
0
100
AcDbLine
 10
-0.34687
 20
6.188537
 30
5.88
 11
-0.371997
 21
6.178489
 31
5.88
  0
LINE
  5
A56
100
AcDbEntity
  8
0
100
AcDbLine
 10
-0.397126
 20
6.168444
 30
5.88
 11
-0.427279
 21
6.168444
 31
5.88
  0
LINE
  5
A57
100
AcDbEntity
  8
0
100
AcDbLine
 10
-0.371997
 20
6.178489
 30
5.88
 11
-0.397126
 21
6.168444
 31
5.88
  0
LINE
  5
A58
100
AcDbEntity
  8
0
100
AcDbLine
 10
-0.150873
 20
6.153375
 30
5.88
 11
-0.145848
 21
6.183513
 31
5.88
  0
LINE
  5
A59
100
AcDbEntity
  8
0
100
AcDbLine
 10
-0.211179
 20
6.017751
 30
5.88
 11
-0.211179
 21
6.263879
 31
5.88
  0
LINE
  5
A5A
100
AcDbEntity
  8
0
100
AcDbLine
 10
-0.296615
 20
5.992639
 30
5.88
 11
-0.296615
 21
5.967523
 31
5.88
  0
LINE
  5
A5B
100
AcDbEntity
  8
0
100
AcDbLine
 10
-0.075489
 20
6.027799
 30
5.88
 11
-0.100616
 21
6.037844
 31
5.88
  0
LINE
  5
A5C
100
AcDbEntity
  8
0
100
AcDbLine
 10
-0.100616
 20
6.037844
 30
5.88
 11
-0.12072
 21
6.052913
 31
5.88
  0
LINE
  5
A5D
100
AcDbEntity
  8
0
100
AcDbLine
 10
-0.140822
 20
6.078029
 30
5.88
 11
-0.150873
 21
6.103143
 31
5.88
  0
LINE
  5
A5E
100
AcDbEntity
  8
0
100
AcDbLine
 10
-0.150873
 20
6.103143
 30
5.88
 11
-0.155899
 21
6.128259
 31
5.88
  0
LINE
  5
A5F
100
AcDbEntity
  8
0
100
AcDbLine
 10
-0.12072
 20
6.052913
 30
5.88
 11
-0.140822
 21
6.078029
 31
5.88
  0
LINE
  5
A60
100
AcDbEntity
  8
0
100
AcDbLine
 10
-0.155899
 20
6.128259
 30
5.88
 11
-0.150873
 21
6.153375
 31
5.88
  0
LINE
  5
A61
100
AcDbEntity
  8
0
100
AcDbLine
 10
-0.296615
 20
6.309088
 30
5.88
 11
-0.296615
 21
6.278948
 31
5.88
  0
LINE
  5
A62
100
AcDbEntity
  8
0
100
AcDbLine
 10
-0.296615
 20
6.278948
 30
5.88
 11
-0.30164
 21
6.253836
 31
5.88
  0
LINE
  5
A63
100
AcDbEntity
  8
0
100
AcDbLine
 10
-0.075489
 20
6.339226
 30
5.88
 11
-0.100616
 21
6.349271
 31
5.88
  0
LINE
  5
A64
100
AcDbEntity
  8
0
100
AcDbLine
 10
-0.115695
 20
6.223698
 30
5.88
 11
-0.090565
 21
6.238767
 31
5.88
  0
LINE
  5
A65
100
AcDbEntity
  8
0
100
AcDbLine
 10
-0.090565
 20
6.238767
 30
5.88
 11
-0.065438
 21
6.248812
 31
5.88
  0
LINE
  5
A66
100
AcDbEntity
  8
0
100
AcDbLine
 10
-0.145848
 20
6.183513
 30
5.88
 11
-0.130769
 21
6.203606
 31
5.88
  0
LINE
  5
A67
100
AcDbEntity
  8
0
100
AcDbLine
 10
-0.130769
 20
6.203606
 30
5.88
 11
-0.115695
 21
6.223698
 31
5.88
  0
LINE
  5
A68
100
AcDbEntity
  8
0
100
AcDbLine
 10
0.110457
 20
5.952454
 30
5.88
 11
0.110457
 21
5.706326
 31
5.88
  0
LINE
  5
A69
100
AcDbEntity
  8
0
100
AcDbLine
 10
0.050151
 20
5.741488
 30
5.88
 11
0.025021
 21
5.726419
 31
5.88
  0
LINE
  5
A6A
100
AcDbEntity
  8
0
100
AcDbLine
 10
0.070253
 20
5.555635
 30
5.88
 11
0.075278
 21
5.530519
 31
5.88
  0
LINE
  5
A6B
100
AcDbEntity
  8
0
100
AcDbLine
 10
0.025021
 20
5.726419
 30
5.88
 11
0.004919
 21
5.71135
 31
5.88
  0
LINE
  5
A6C
100
AcDbEntity
  8
0
100
AcDbLine
 10
0.01497
 20
5.615911
 30
5.88
 11
0.035074
 21
5.600842
 31
5.88
  0
LINE
  5
A6D
100
AcDbEntity
  8
0
100
AcDbLine
 10
0.035074
 20
5.600842
 30
5.88
 11
0.055176
 21
5.580749
 31
5.88
  0
LINE
  5
A6E
100
AcDbEntity
  8
0
100
AcDbLine
 10
0.055176
 20
5.580749
 30
5.88
 11
0.070253
 21
5.555635
 31
5.88
  0
LINE
  5
A6F
100
AcDbEntity
  8
0
100
AcDbLine
 10
-0.025234
 20
5.706326
 30
5.88
 11
-0.050361
 21
5.706326
 31
5.88
  0
LINE
  5
A70
100
AcDbEntity
  8
0
100
AcDbLine
 10
-0.04031
 20
5.625958
 30
5.88
 11
-0.010157
 21
5.620934
 31
5.88
  0
LINE
  5
A71
100
AcDbEntity
  8
0
100
AcDbLine
 10
0.004919
 20
5.71135
 30
5.88
 11
-0.025234
 21
5.706326
 31
5.88
  0
LINE
  5
A72
100
AcDbEntity
  8
0
100
AcDbLine
 10
-0.010157
 20
5.620934
 30
5.88
 11
0.01497
 21
5.615911
 31
5.88
  0
LINE
  5
A73
100
AcDbEntity
  8
0
100
AcDbLine
 10
0.070253
 20
5.867062
 30
5.88
 11
0.075278
 21
5.841946
 31
5.88
  0
LINE
  5
A74
100
AcDbEntity
  8
0
100
AcDbLine
 10
0.075278
 20
5.791716
 30
5.88
 11
0.065227
 21
5.766604
 31
5.88
  0
LINE
  5
A75
100
AcDbEntity
  8
0
100
AcDbLine
 10
0.01497
 20
5.927338
 30
5.88
 11
0.035074
 21
5.912269
 31
5.88
  0
LINE
  5
A76
100
AcDbEntity
  8
0
100
AcDbLine
 10
0.035074
 20
5.912269
 30
5.88
 11
0.055176
 21
5.892177
 31
5.88
  0
LINE
  5
A77
100
AcDbEntity
  8
0
100
AcDbLine
 10
0.055176
 20
5.892177
 30
5.88
 11
0.070253
 21
5.867062
 31
5.88
  0
LINE
  5
A78
100
AcDbEntity
  8
0
100
AcDbLine
 10
0.065227
 20
5.766604
 30
5.88
 11
0.050151
 21
5.741488
 31
5.88
  0
LINE
  5
A79
100
AcDbEntity
  8
0
100
AcDbLine
 10
-0.04031
 20
5.937385
 30
5.88
 11
-0.010157
 21
5.937385
 31
5.88
  0
LINE
  5
A7A
100
AcDbEntity
  8
0
100
AcDbLine
 10
-0.010157
 20
5.937385
 30
5.88
 11
0.01497
 21
5.927338
 31
5.88
  0
LINE
  5
A7B
100
AcDbEntity
  8
0
100
AcDbLine
 10
0.075278
 20
5.841946
 30
5.88
 11
0.080304
 21
5.816832
 31
5.88
  0
LINE
  5
A7C
100
AcDbEntity
  8
0
100
AcDbLine
 10
0.080304
 20
5.816832
 30
5.88
 11
0.075278
 21
5.791716
 31
5.88
  0
LINE
  5
A7D
100
AcDbEntity
  8
0
100
AcDbLine
 10
0.110457
 20
6.263879
 30
5.88
 11
0.110457
 21
6.017751
 31
5.88
  0
LINE
  5
A7E
100
AcDbEntity
  8
0
100
AcDbLine
 10
0.075278
 20
6.158397
 30
5.88
 11
0.080304
 21
6.128259
 31
5.88
  0
LINE
  5
A7F
100
AcDbEntity
  8
0
100
AcDbLine
 10
0.075278
 20
6.103143
 30
5.88
 11
0.065227
 21
6.078029
 31
5.88
  0
LINE
  5
A80
100
AcDbEntity
  8
0
100
AcDbLine
 10
0.065227
 20
6.078029
 30
5.88
 11
0.050151
 21
6.057936
 31
5.88
  0
LINE
  5
A81
100
AcDbEntity
  8
0
100
AcDbLine
 10
0.050151
 20
6.057936
 30
5.88
 11
0.025021
 21
6.037844
 31
5.88
  0
LINE
  5
A82
100
AcDbEntity
  8
0
100
AcDbLine
 10
0.025021
 20
6.037844
 30
5.88
 11
0.004919
 21
6.027799
 31
5.88
  0
LINE
  5
A83
100
AcDbEntity
  8
0
100
AcDbLine
 10
-0.025234
 20
6.017751
 30
5.88
 11
-0.050361
 21
6.017751
 31
5.88
  0
LINE
  5
A84
100
AcDbEntity
  8
0
100
AcDbLine
 10
0.004919
 20
6.027799
 30
5.88
 11
-0.025234
 21
6.017751
 31
5.88
  0
LINE
  5
A85
100
AcDbEntity
  8
0
100
AcDbLine
 10
0.080304
 20
6.128259
 30
5.88
 11
0.075278
 21
6.103143
 31
5.88
  0
LINE
  5
A86
100
AcDbEntity
  8
0
100
AcDbLine
 10
0.070253
 20
6.183513
 30
5.88
 11
0.075278
 21
6.158397
 31
5.88
  0
LINE
  5
A87
100
AcDbEntity
  8
0
100
AcDbLine
 10
0.025021
 20
6.354295
 30
5.88
 11
0.004919
 21
6.339226
 31
5.88
  0
LINE
  5
A88
100
AcDbEntity
  8
0
100
AcDbLine
 10
0.01497
 20
6.238767
 30
5.88
 11
0.035074
 21
6.223698
 31
5.88
  0
LINE
  5
A89
100
AcDbEntity
  8
0
100
AcDbLine
 10
0.035074
 20
6.223698
 30
5.88
 11
0.055176
 21
6.208627
 31
5.88
  0
LINE
  5
A8A
100
AcDbEntity
  8
0
100
AcDbLine
 10
0.055176
 20
6.208627
 30
5.88
 11
0.070253
 21
6.183513
 31
5.88
  0
LINE
  5
A8B
100
AcDbEntity
  8
0
100
AcDbLine
 10
-0.025234
 20
6.334202
 30
5.88
 11
-0.050361
 21
6.334202
 31
5.88
  0
LINE
  5
A8C
100
AcDbEntity
  8
0
100
AcDbLine
 10
-0.04031
 20
6.253836
 30
5.88
 11
-0.010157
 21
6.248812
 31
5.88
  0
LINE
  5
A8D
100
AcDbEntity
  8
0
100
AcDbLine
 10
0.004919
 20
6.339226
 30
5.88
 11
-0.025234
 21
6.334202
 31
5.88
  0
LINE
  5
A8E
100
AcDbEntity
  8
0
100
AcDbLine
 10
-0.010157
 20
6.248812
 30
5.88
 11
0.01497
 21
6.238767
 31
5.88
  0
LINE
  5
A8F
100
AcDbEntity
  8
0
100
AcDbLine
 10
-0.26646
 20
7.143784
 30
5.88
 11
-0.26646
 21
7.410005
 31
5.88
  0
LINE
  5
A90
100
AcDbEntity
  8
0
100
AcDbLine
 10
-0.065438
 20
6.876688
 30
5.88
 11
-0.04031
 21
6.881712
 31
5.88
  0
LINE
  5
A91
100
AcDbEntity
  8
0
100
AcDbLine
 10
-0.050361
 20
6.645631
 30
5.88
 11
-0.075489
 21
6.650653
 31
5.88
  0
LINE
  5
A92
100
AcDbEntity
  8
0
100
AcDbLine
 10
-0.065438
 20
6.565261
 30
5.88
 11
-0.04031
 21
6.565261
 31
5.88
  0
LINE
  5
A93
100
AcDbEntity
  8
0
100
AcDbLine
 10
-0.211179
 20
6.891759
 30
5.88
 11
0.110457
 21
6.891759
 31
5.88
  0
LINE
  5
A94
100
AcDbEntity
  8
0
100
AcDbLine
 10
0.110457
 20
6.645631
 30
5.88
 11
-0.211179
 21
6.645631
 31
5.88
  0
LINE
  5
A95
100
AcDbEntity
  8
0
100
AcDbLine
 10
-0.110667
 20
6.851574
 30
5.88
 11
0.0401
 21
6.675769
 31
5.88
  0
LINE
  5
A96
100
AcDbEntity
  8
0
100
AcDbLine
 10
-0.211179
 20
6.58033
 30
5.88
 11
0.110457
 21
6.58033
 31
5.88
  0
LINE
  5
A97
100
AcDbEntity
  8
0
100
AcDbLine
 10
-0.150873
 20
6.781251
 30
5.88
 11
-0.145848
 21
6.806365
 31
5.88
  0
LINE
  5
A98
100
AcDbEntity
  8
0
100
AcDbLine
 10
-0.211179
 20
6.645631
 30
5.88
 11
-0.211179
 21
6.891759
 31
5.88
  0
LINE
  5
A99
100
AcDbEntity
  8
0
100
AcDbLine
 10
-0.306666
 20
6.645631
 30
5.88
 11
-0.296615
 21
6.620515
 31
5.88
  0
LINE
  5
A9A
100
AcDbEntity
  8
0
100
AcDbLine
 10
-0.30164
 20
6.565261
 30
5.88
 11
-0.311691
 21
6.540147
 31
5.88
  0
LINE
  5
A9B
100
AcDbEntity
  8
0
100
AcDbLine
 10
-0.487585
 20
6.690838
 30
5.88
 11
-0.331793
 21
6.515031
 31
5.88
  0
LINE
  5
A9C
100
AcDbEntity
  8
0
100
AcDbLine
 10
-0.522764
 20
6.565261
 30
5.88
 11
-0.527791
 21
6.590377
 31
5.88
  0
LINE
  5
A9D
100
AcDbEntity
  8
0
100
AcDbLine
 10
-0.427279
 20
6.484895
 30
5.88
 11
-0.452407
 21
6.489915
 31
5.88
  0
LINE
  5
A9E
100
AcDbEntity
  8
0
100
AcDbLine
 10
-0.442356
 20
6.399503
 30
5.88
 11
-0.412203
 21
6.404525
 31
5.88
  0
LINE
  5
A9F
100
AcDbEntity
  8
0
100
AcDbLine
 10
-0.452407
 20
6.489915
 30
5.88
 11
-0.477534
 21
6.499964
 31
5.88
  0
LINE
  5
AA0
100
AcDbEntity
  8
0
100
AcDbLine
 10
-0.477534
 20
6.499964
 30
5.88
 11
-0.497636
 21
6.520056
 31
5.88
  0
LINE
  5
AA1
100
AcDbEntity
  8
0
100
AcDbLine
 10
-0.487585
 20
6.374387
 30
5.88
 11
-0.467483
 21
6.389456
 31
5.88
  0
LINE
  5
AA2
100
AcDbEntity
  8
0
100
AcDbLine
 10
-0.467483
 20
6.389456
 30
5.88
 11
-0.442356
 21
6.399503
 31
5.88
  0
LINE
  5
AA3
100
AcDbEntity
  8
0
100
AcDbLine
 10
-0.512713
 20
6.540147
 30
5.88
 11
-0.522764
 21
6.565261
 31
5.88
  0
LINE
  5
AA4
100
AcDbEntity
  8
0
100
AcDbLine
 10
-0.497636
 20
6.520056
 30
5.88
 11
-0.512713
 21
6.540147
 31
5.88
  0
LINE
  5
AA5
100
AcDbEntity
  8
0
100
AcDbLine
 10
-0.326768
 20
6.520056
 30
5.88
 11
-0.34687
 21
6.499964
 31
5.88
  0
LINE
  5
AA6
100
AcDbEntity
  8
0
100
AcDbLine
 10
-0.34687
 20
6.499964
 30
5.88
 11
-0.371997
 21
6.489915
 31
5.88
  0
LINE
  5
AA7
100
AcDbEntity
  8
0
100
AcDbLine
 10
-0.361946
 20
6.389456
 30
5.88
 11
-0.336819
 21
6.374387
 31
5.88
  0
LINE
  5
AA8
100
AcDbEntity
  8
0
100
AcDbLine
 10
-0.397126
 20
6.484895
 30
5.88
 11
-0.427279
 21
6.484895
 31
5.88
  0
LINE
  5
AA9
100
AcDbEntity
  8
0
100
AcDbLine
 10
-0.412203
 20
6.404525
 30
5.88
 11
-0.387074
 21
6.399503
 31
5.88
  0
LINE
  5
AAA
100
AcDbEntity
  8
0
100
AcDbLine
 10
-0.371997
 20
6.489915
 30
5.88
 11
-0.397126
 21
6.484895
 31
5.88
  0
LINE
  5
AAB
100
AcDbEntity
  8
0
100
AcDbLine
 10
-0.387074
 20
6.399503
 30
5.88
 11
-0.361946
 21
6.389456
 31
5.88
  0
LINE
  5
AAC
100
AcDbEntity
  8
0
100
AcDbLine
 10
-0.311691
 20
6.540147
 30
5.88
 11
-0.326768
 21
6.520056
 31
5.88
  0
LINE
  5
AAD
100
AcDbEntity
  8
0
100
AcDbLine
 10
-0.442356
 20
6.71093
 30
5.88
 11
-0.412203
 21
6.715954
 31
5.88
  0
LINE
  5
AAE
100
AcDbEntity
  8
0
100
AcDbLine
 10
-0.507687
 20
6.670745
 30
5.88
 11
-0.487585
 21
6.690838
 31
5.88
  0
LINE
  5
AAF
100
AcDbEntity
  8
0
100
AcDbLine
 10
-0.487585
 20
6.690838
 30
5.88
 11
-0.467483
 21
6.705907
 31
5.88
  0
LINE
  5
AB0
100
AcDbEntity
  8
0
100
AcDbLine
 10
-0.467483
 20
6.705907
 30
5.88
 11
-0.442356
 21
6.71093
 31
5.88
  0
LINE
  5
AB1
100
AcDbEntity
  8
0
100
AcDbLine
 10
-0.527791
 20
6.620515
 30
5.88
 11
-0.522764
 21
6.645631
 31
5.88
  0
LINE
  5
AB2
100
AcDbEntity
  8
0
100
AcDbLine
 10
-0.527791
 20
6.590377
 30
5.88
 11
-0.527791
 21
6.620515
 31
5.88
  0
LINE
  5
AB3
100
AcDbEntity
  8
0
100
AcDbLine
 10
-0.522764
 20
6.645631
 30
5.88
 11
-0.507687
 21
6.670745
 31
5.88
  0
LINE
  5
AB4
100
AcDbEntity
  8
0
100
AcDbLine
 10
-0.361946
 20
6.705907
 30
5.88
 11
-0.336819
 21
6.690838
 31
5.88
  0
LINE
  5
AB5
100
AcDbEntity
  8
0
100
AcDbLine
 10
-0.336819
 20
6.690838
 30
5.88
 11
-0.321742
 21
6.670745
 31
5.88
  0
LINE
  5
AB6
100
AcDbEntity
  8
0
100
AcDbLine
 10
-0.321742
 20
6.670745
 30
5.88
 11
-0.306666
 21
6.645631
 31
5.88
  0
LINE
  5
AB7
100
AcDbEntity
  8
0
100
AcDbLine
 10
-0.412203
 20
6.715954
 30
5.88
 11
-0.387074
 21
6.71093
 31
5.88
  0
LINE
  5
AB8
100
AcDbEntity
  8
0
100
AcDbLine
 10
-0.387074
 20
6.71093
 30
5.88
 11
-0.361946
 21
6.705907
 31
5.88
  0
LINE
  5
AB9
100
AcDbEntity
  8
0
100
AcDbLine
 10
-0.296615
 20
6.595399
 30
5.88
 11
-0.30164
 21
6.565261
 31
5.88
  0
LINE
  5
ABA
100
AcDbEntity
  8
0
100
AcDbLine
 10
-0.26646
 20
6.731023
 30
5.88
 11
-0.26646
 21
6.484895
 31
5.88
  0
LINE
  5
ABB
100
AcDbEntity
  8
0
100
AcDbLine
 10
-0.115695
 20
6.540147
 30
5.88
 11
-0.090565
 21
6.555216
 31
5.88
  0
LINE
  5
ABC
100
AcDbEntity
  8
0
100
AcDbLine
 10
-0.090565
 20
6.555216
 30
5.88
 11
-0.065438
 21
6.565261
 31
5.88
  0
LINE
  5
ABD
100
AcDbEntity
  8
0
100
AcDbLine
 10
-0.150873
 20
6.469826
 30
5.88
 11
-0.145848
 21
6.49494
 31
5.88
  0
LINE
  5
ABE
100
AcDbEntity
  8
0
100
AcDbLine
 10
-0.145848
 20
6.49494
 30
5.88
 11
-0.130769
 21
6.520056
 31
5.88
  0
LINE
  5
ABF
100
AcDbEntity
  8
0
100
AcDbLine
 10
-0.140822
 20
6.389456
 30
5.88
 11
-0.150873
 21
6.414572
 31
5.88
  0
LINE
  5
AC0
100
AcDbEntity
  8
0
100
AcDbLine
 10
-0.150873
 20
6.414572
 30
5.88
 11
-0.155899
 21
6.439686
 31
5.88
  0
LINE
  5
AC1
100
AcDbEntity
  8
0
100
AcDbLine
 10
-0.155899
 20
6.439686
 30
5.88
 11
-0.150873
 21
6.469826
 31
5.88
  0
LINE
  5
AC2
100
AcDbEntity
  8
0
100
AcDbLine
 10
-0.12072
 20
6.369363
 30
5.88
 11
-0.140822
 21
6.389456
 31
5.88
  0
LINE
  5
AC3
100
AcDbEntity
  8
0
100
AcDbLine
 10
-0.130769
 20
6.520056
 30
5.88
 11
-0.115695
 21
6.540147
 31
5.88
  0
LINE
  5
AC4
100
AcDbEntity
  8
0
100
AcDbLine
 10
-0.296615
 20
6.620515
 30
5.88
 11
-0.296615
 21
6.595399
 31
5.88
  0
LINE
  5
AC5
100
AcDbEntity
  8
0
100
AcDbLine
 10
-0.150873
 20
6.731023
 30
5.88
 11
-0.155899
 21
6.756135
 31
5.88
  0
LINE
  5
AC6
100
AcDbEntity
  8
0
100
AcDbLine
 10
-0.155899
 20
6.756135
 30
5.88
 11
-0.150873
 21
6.781251
 31
5.88
  0
LINE
  5
AC7
100
AcDbEntity
  8
0
100
AcDbLine
 10
-0.075489
 20
6.650653
 30
5.88
 11
-0.100616
 21
6.665722
 31
5.88
  0
LINE
  5
AC8
100
AcDbEntity
  8
0
100
AcDbLine
 10
-0.100616
 20
6.665722
 30
5.88
 11
-0.12072
 21
6.680792
 31
5.88
  0
LINE
  5
AC9
100
AcDbEntity
  8
0
100
AcDbLine
 10
-0.12072
 20
6.680792
 30
5.88
 11
-0.140822
 21
6.705907
 31
5.88
  0
LINE
  5
ACA
100
AcDbEntity
  8
0
100
AcDbLine
 10
-0.140822
 20
6.705907
 30
5.88
 11
-0.150873
 21
6.731023
 31
5.88
  0
LINE
  5
ACB
100
AcDbEntity
  8
0
100
AcDbLine
 10
-0.115695
 20
6.851574
 30
5.88
 11
-0.090565
 21
6.866643
 31
5.88
  0
LINE
  5
ACC
100
AcDbEntity
  8
0
100
AcDbLine
 10
-0.090565
 20
6.866643
 30
5.88
 11
-0.065438
 21
6.876688
 31
5.88
  0
LINE
  5
ACD
100
AcDbEntity
  8
0
100
AcDbLine
 10
-0.145848
 20
6.806365
 30
5.88
 11
-0.130769
 21
6.831481
 31
5.88
  0
LINE
  5
ACE
100
AcDbEntity
  8
0
100
AcDbLine
 10
-0.130769
 20
6.831481
 30
5.88
 11
-0.115695
 21
6.851574
 31
5.88
  0
LINE
  5
ACF
100
AcDbEntity
  8
0
100
AcDbLine
 10
0.075278
 20
6.786275
 30
5.88
 11
0.080304
 21
6.756135
 31
5.88
  0
LINE
  5
AD0
100
AcDbEntity
  8
0
100
AcDbLine
 10
0.110457
 20
6.891759
 30
5.88
 11
0.110457
 21
6.645631
 31
5.88
  0
LINE
  5
AD1
100
AcDbEntity
  8
0
100
AcDbLine
 10
0.070253
 20
6.49494
 30
5.88
 11
0.075278
 21
6.469826
 31
5.88
  0
LINE
  5
AD2
100
AcDbEntity
  8
0
100
AcDbLine
 10
0.075278
 20
6.414572
 30
5.88
 11
0.065227
 21
6.389456
 31
5.88
  0
LINE
  5
AD3
100
AcDbEntity
  8
0
100
AcDbLine
 10
0.01497
 20
6.555216
 30
5.88
 11
0.035074
 21
6.540147
 31
5.88
  0
LINE
  5
AD4
100
AcDbEntity
  8
0
100
AcDbLine
 10
0.055176
 20
6.520056
 30
5.88
 11
0.070253
 21
6.49494
 31
5.88
  0
LINE
  5
AD5
100
AcDbEntity
  8
0
100
AcDbLine
 10
0.065227
 20
6.389456
 30
5.88
 11
0.050151
 21
6.369363
 31
5.88
  0
LINE
  5
AD6
100
AcDbEntity
  8
0
100
AcDbLine
 10
0.035074
 20
6.540147
 30
5.88
 11
0.055176
 21
6.520056
 31
5.88
  0
LINE
  5
AD7
100
AcDbEntity
  8
0
100
AcDbLine
 10
-0.04031
 20
6.565261
 30
5.88
 11
-0.010157
 21
6.565261
 31
5.88
  0
LINE
  5
AD8
100
AcDbEntity
  8
0
100
AcDbLine
 10
-0.010157
 20
6.565261
 30
5.88
 11
0.01497
 21
6.555216
 31
5.88
  0
LINE
  5
AD9
100
AcDbEntity
  8
0
100
AcDbLine
 10
0.075278
 20
6.469826
 30
5.88
 11
0.080304
 21
6.44471
 31
5.88
  0
LINE
  5
ADA
100
AcDbEntity
  8
0
100
AcDbLine
 10
0.080304
 20
6.44471
 30
5.88
 11
0.075278
 21
6.414572
 31
5.88
  0
LINE
  5
ADB
100
AcDbEntity
  8
0
100
AcDbLine
 10
0.075278
 20
6.731023
 30
5.88
 11
0.065227
 21
6.705907
 31
5.88
  0
LINE
  5
ADC
100
AcDbEntity
  8
0
100
AcDbLine
 10
0.065227
 20
6.705907
 30
5.88
 11
0.050151
 21
6.680792
 31
5.88
  0
LINE
  5
ADD
100
AcDbEntity
  8
0
100
AcDbLine
 10
0.050151
 20
6.680792
 30
5.88
 11
0.025021
 21
6.665722
 31
5.88
  0
LINE
  5
ADE
100
AcDbEntity
  8
0
100
AcDbLine
 10
0.025021
 20
6.665722
 30
5.88
 11
0.004919
 21
6.655676
 31
5.88
  0
LINE
  5
ADF
100
AcDbEntity
  8
0
100
AcDbLine
 10
-0.025234
 20
6.645631
 30
5.88
 11
-0.050361
 21
6.645631
 31
5.88
  0
LINE
  5
AE0
100
AcDbEntity
  8
0
100
AcDbLine
 10
0.004919
 20
6.655676
 30
5.88
 11
-0.025234
 21
6.645631
 31
5.88
  0
LINE
  5
AE1
100
AcDbEntity
  8
0
100
AcDbLine
 10
0.080304
 20
6.756135
 30
5.88
 11
0.075278
 21
6.731023
 31
5.88
  0
LINE
  5
AE2
100
AcDbEntity
  8
0
100
AcDbLine
 10
0.070253
 20
6.811389
 30
5.88
 11
0.075278
 21
6.786275
 31
5.88
  0
LINE
  5
AE3
100
AcDbEntity
  8
0
100
AcDbLine
 10
0.01497
 20
6.866643
 30
5.88
 11
0.035074
 21
6.851574
 31
5.88
  0
LINE
  5
AE4
100
AcDbEntity
  8
0
100
AcDbLine
 10
0.035074
 20
6.851574
 30
5.88
 11
0.055176
 21
6.831481
 31
5.88
  0
LINE
  5
AE5
100
AcDbEntity
  8
0
100
AcDbLine
 10
0.055176
 20
6.831481
 30
5.88
 11
0.070253
 21
6.811389
 31
5.88
  0
LINE
  5
AE6
100
AcDbEntity
  8
0
100
AcDbLine
 10
-0.04031
 20
6.881712
 30
5.88
 11
-0.010157
 21
6.876688
 31
5.88
  0
LINE
  5
AE7
100
AcDbEntity
  8
0
100
AcDbLine
 10
-0.010157
 20
6.876688
 30
5.88
 11
0.01497
 21
6.866643
 31
5.88
  0
LINE
  5
AE8
100
AcDbEntity
  8
0
100
AcDbLine
 10
-0.26646
 20
7.324611
 30
5.88
 11
0.202
 21
7.324611
 31
5.88
  0
LINE
  5
AE9
100
AcDbEntity
  8
0
100
AcDbLine
 10
-0.26646
 20
7.410005
 30
5.88
 11
0.202
 21
7.410005
 31
5.88
  0
LINE
  5
AEA
100
AcDbEntity
  8
0
100
AcDbLine
 10
-0.919402
 20
8.625571
 30
5.88
 11
-0.090565
 21
8.625571
 31
5.88
  0
TEXT
  5
AEB
100
AcDbEntity
  8
0
100
AcDbText
 39
0.001
 10
-0.890436
 20
8.424748
 30
5.879973
 40
0.05
  1
A
 72
     1
 11
-0.87377
 21
8.424748
 31
5.879973
100
AcDbText
  0
TEXT
  5
AEC
100
AcDbEntity
  8
0
100
AcDbText
 39
0.001
 10
-0.815436
 20
8.199748
 30
5.879973
 40
0.05
  1
T
 72
     1
 11
-0.79877
 21
8.199748
 31
5.879973
100
AcDbText
  0
TEXT
  5
AED
100
AcDbEntity
  8
0
100
AcDbText
 39
0.001
 10
-0.815436
 20
8.124748
 30
5.879973
 40
0.05
  1
O
 72
     1
 11
-0.79877
 21
8.124748
 31
5.879973
100
AcDbText
  0
TEXT
  5
AEE
100
AcDbEntity
  8
0
100
AcDbText
 39
0.001
 10
-0.815436
 20
8.299748
 30
5.879973
 40
0.05
  1
5
 72
     1
 11
-0.79877
 21
8.299748
 31
5.879973
100
AcDbText
  0
TEXT
  5
AEF
100
AcDbEntity
  8
0
100
AcDbText
 39
0.001
 10
-0.815436
 20
8.374748
 30
5.879973
 40
0.05
  1
8
 72
     1
 11
-0.79877
 21
8.374748
 31
5.879973
100
AcDbText
  0
TEXT
  5
AF0
100
AcDbEntity
  8
0
100
AcDbText
 39
0.001
 10
-0.882103
 20
8.049748
 30
5.879973
 40
0.05
  1
I
 72
     1
 11
-0.87377
 21
8.049748
 31
5.879973
100
AcDbText
  0
TEXT
  5
AF1
100
AcDbEntity
  8
0
100
AcDbText
 39
0.001
 10
-0.890436
 20
8.349748
 30
5.879973
 40
0.05
  1
C
 72
     1
 11
-0.87377
 21
8.349748
 31
5.879973
100
AcDbText
  0
POLYLINE
  5
AF2
100
AcDbEntity
  8
0
100
AcDbPolygonMesh
 66
     1
 10
0.0
 20
0.0
 30
0.0
 70
    16
 71
     6
 72
     3
  0
VERTEX
  5
AF3
100
AcDbEntity
  8
0
100
AcDbVertex
100
AcDbPolygonMeshVertex
 10
0.197
 20
9.0811
 30
5.837
 70
    64
  0
VERTEX
  5
AF4
100
AcDbEntity
  8
0
100
AcDbVertex
100
AcDbPolygonMeshVertex
 10
0.197
 20
9.0811
 30
5.747
 70
    64
  0
VERTEX
  5
AF5
100
AcDbEntity
  8
0
100
AcDbVertex
100
AcDbPolygonMeshVertex
 10
0.197
 20
9.0811
 30
5.747
 70
    64
  0
VERTEX
  5
AF6
100
AcDbEntity
  8
0
100
AcDbVertex
100
AcDbPolygonMeshVertex
 10
-0.265
 20
9.0811
 30
5.837
 70
    64
  0
VERTEX
  5
AF7
100
AcDbEntity
  8
0
100
AcDbVertex
100
AcDbPolygonMeshVertex
 10
-0.265
 20
9.0811
 30
5.747
 70
    64
  0
VERTEX
  5
AF8
100
AcDbEntity
  8
0
100
AcDbVertex
100
AcDbPolygonMeshVertex
 10
-0.265
 20
9.0811
 30
5.747
 70
    64
  0
VERTEX
  5
AF9
100
AcDbEntity
  8
0
100
AcDbVertex
100
AcDbPolygonMeshVertex
 10
-0.265
 20
10.0432
 30
5.837
 70
    64
  0
VERTEX
  5
AFA
100
AcDbEntity
  8
0
100
AcDbVertex
100
AcDbPolygonMeshVertex
 10
-0.265
 20
10.0432
 30
5.747
 70
    64
  0
VERTEX
  5
AFB
100
AcDbEntity
  8
0
100
AcDbVertex
100
AcDbPolygonMeshVertex
 10
-0.265
 20
9.0811
 30
5.747
 70
    64
  0
VERTEX
  5
AFC
100
AcDbEntity
  8
0
100
AcDbVertex
100
AcDbPolygonMeshVertex
 10
0.197
 20
10.0432
 30
5.837
 70
    64
  0
VERTEX
  5
AFD
100
AcDbEntity
  8
0
100
AcDbVertex
100
AcDbPolygonMeshVertex
 10
0.197
 20
10.0432
 30
5.747
 70
    64
  0
VERTEX
  5
AFE
100
AcDbEntity
  8
0
100
AcDbVertex
100
AcDbPolygonMeshVertex
 10
0.197
 20
9.0811
 30
5.747
 70
    64
  0
VERTEX
  5
AFF
100
AcDbEntity
  8
0
100
AcDbVertex
100
AcDbPolygonMeshVertex
 10
0.197
 20
10.0432
 30
5.837
 70
    64
  0
VERTEX
  5
B00
100
AcDbEntity
  8
0
100
AcDbVertex
100
AcDbPolygonMeshVertex
 10
0.197
 20
10.0432
 30
5.837
 70
    64
  0
VERTEX
  5
B01
100
AcDbEntity
  8
0
100
AcDbVertex
100
AcDbPolygonMeshVertex
 10
0.197
 20
9.0811
 30
5.837
 70
    64
  0
VERTEX
  5
B02
100
AcDbEntity
  8
0
100
AcDbVertex
100
AcDbPolygonMeshVertex
 10
-0.265
 20
10.0432
 30
5.837
 70
    64
  0
VERTEX
  5
B03
100
AcDbEntity
  8
0
100
AcDbVertex
100
AcDbPolygonMeshVertex
 10
-0.265
 20
10.0432
 30
5.837
 70
    64
  0
VERTEX
  5
B04
100
AcDbEntity
  8
0
100
AcDbVertex
100
AcDbPolygonMeshVertex
 10
-0.265
 20
9.0811
 30
5.837
 70
    64
  0
SEQEND
  5
B05
100
AcDbEntity
  8
0
  0
POLYLINE
  5
B06
100
AcDbEntity
  8
0
100
AcDbPolygonMesh
 66
     1
 10
0.0
 20
0.0
 30
0.0
 70
    16
 71
     6
 72
     3
  0
VERTEX
  5
B07
100
AcDbEntity
  8
0
100
AcDbVertex
100
AcDbPolygonMeshVertex
 10
0.0
 20
8.912
 30
5.747
 70
    64
  0
VERTEX
  5
B08
100
AcDbEntity
  8
0
100
AcDbVertex
100
AcDbPolygonMeshVertex
 10
0.0
 20
8.912
 30
5.39
 70
    64
  0
VERTEX
  5
B09
100
AcDbEntity
  8
0
100
AcDbVertex
100
AcDbPolygonMeshVertex
 10
0.0
 20
8.912
 30
5.39
 70
    64
  0
VERTEX
  5
B0A
100
AcDbEntity
  8
0
100
AcDbVertex
100
AcDbPolygonMeshVertex
 10
-0.068
 20
8.912
 30
5.747
 70
    64
  0
VERTEX
  5
B0B
100
AcDbEntity
  8
0
100
AcDbVertex
100
AcDbPolygonMeshVertex
 10
-0.068
 20
8.912
 30
5.39
 70
    64
  0
VERTEX
  5
B0C
100
AcDbEntity
  8
0
100
AcDbVertex
100
AcDbPolygonMeshVertex
 10
-0.068
 20
8.912
 30
5.39
 70
    64
  0
VERTEX
  5
B0D
100
AcDbEntity
  8
0
100
AcDbVertex
100
AcDbPolygonMeshVertex
 10
-0.068
 20
9.6931
 30
5.747
 70
    64
  0
VERTEX
  5
B0E
100
AcDbEntity
  8
0
100
AcDbVertex
100
AcDbPolygonMeshVertex
 10
-0.068
 20
9.6931
 30
5.39
 70
    64
  0
VERTEX
  5
B0F
100
AcDbEntity
  8
0
100
AcDbVertex
100
AcDbPolygonMeshVertex
 10
-0.068
 20
8.912
 30
5.39
 70
    64
  0
VERTEX
  5
B10
100
AcDbEntity
  8
0
100
AcDbVertex
100
AcDbPolygonMeshVertex
 10
0.0
 20
9.6931
 30
5.747
 70
    64
  0
VERTEX
  5
B11
100
AcDbEntity
  8
0
100
AcDbVertex
100
AcDbPolygonMeshVertex
 10
0.0
 20
9.6931
 30
5.39
 70
    64
  0
VERTEX
  5
B12
100
AcDbEntity
  8
0
100
AcDbVertex
100
AcDbPolygonMeshVertex
 10
0.0
 20
8.912
 30
5.39
 70
    64
  0
VERTEX
  5
B13
100
AcDbEntity
  8
0
100
AcDbVertex
100
AcDbPolygonMeshVertex
 10
0.0
 20
9.6931
 30
5.747
 70
    64
  0
VERTEX
  5
B14
100
AcDbEntity
  8
0
100
AcDbVertex
100
AcDbPolygonMeshVertex
 10
0.0
 20
9.6931
 30
5.747
 70
    64
  0
VERTEX
  5
B15
100
AcDbEntity
  8
0
100
AcDbVertex
100
AcDbPolygonMeshVertex
 10
0.0
 20
8.912
 30
5.747
 70
    64
  0
VERTEX
  5
B16
100
AcDbEntity
  8
0
100
AcDbVertex
100
AcDbPolygonMeshVertex
 10
-0.068
 20
9.6931
 30
5.747
 70
    64
  0
VERTEX
  5
B17
100
AcDbEntity
  8
0
100
AcDbVertex
100
AcDbPolygonMeshVertex
 10
-0.068
 20
9.6931
 30
5.747
 70
    64
  0
VERTEX
  5
B18
100
AcDbEntity
  8
0
100
AcDbVertex
100
AcDbPolygonMeshVertex
 10
-0.068
 20
8.912
 30
5.747
 70
    64
  0
SEQEND
  5
B19
100
AcDbEntity
  8
0
  0
POLYLINE
  5
B1A
100
AcDbEntity
  8
0
100
AcDbPolygonMesh
 66
     1
 10
0.0
 20
0.0
 30
0.0
 70
    16
 71
     6
 72
     3
  0
VERTEX
  5
B1B
100
AcDbEntity
  8
0
100
AcDbVertex
100
AcDbPolygonMeshVertex
 10
0.068
 20
9.0811
 30
5.747
 70
    64
  0
VERTEX
  5
B1C
100
AcDbEntity
  8
0
100
AcDbVertex
100
AcDbPolygonMeshVertex
 10
0.068
 20
9.0811
 30
5.747
 70
    64
  0
VERTEX
  5
B1D
100
AcDbEntity
  8
0
100
AcDbVertex
100
AcDbPolygonMeshVertex
 10
0.068
 20
9.0811
 30
5.747
 70
    64
  0
VERTEX
  5
B1E
100
AcDbEntity
  8
0
100
AcDbVertex
100
AcDbPolygonMeshVertex
 10
0.068
 20
9.6931
 30
5.437
 70
    64
  0
VERTEX
  5
B1F
100
AcDbEntity
  8
0
100
AcDbVertex
100
AcDbPolygonMeshVertex
 10
0.068
 20
9.6931
 30
5.747
 70
    64
  0
VERTEX
  5
B20
100
AcDbEntity
  8
0
100
AcDbVertex
100
AcDbPolygonMeshVertex
 10
0.068
 20
9.6931
 30
5.747
 70
    64
  0
VERTEX
  5
B21
100
AcDbEntity
  8
0
100
AcDbVertex
100
AcDbPolygonMeshVertex
 10
0.0
 20
9.6931
 30
5.437
 70
    64
  0
VERTEX
  5
B22
100
AcDbEntity
  8
0
100
AcDbVertex
100
AcDbPolygonMeshVertex
 10
0.0
 20
9.6931
 30
5.747
 70
    64
  0
VERTEX
  5
B23
100
AcDbEntity
  8
0
100
AcDbVertex
100
AcDbPolygonMeshVertex
 10
0.068
 20
9.6931
 30
5.747
 70
    64
  0
VERTEX
  5
B24
100
AcDbEntity
  8
0
100
AcDbVertex
100
AcDbPolygonMeshVertex
 10
0.0
 20
9.0811
 30
5.747
 70
    64
  0
VERTEX
  5
B25
100
AcDbEntity
  8
0
100
AcDbVertex
100
AcDbPolygonMeshVertex
 10
0.0
 20
9.0811
 30
5.747
 70
    64
  0
VERTEX
  5
B26
100
AcDbEntity
  8
0
100
AcDbVertex
100
AcDbPolygonMeshVertex
 10
0.068
 20
9.0811
 30
5.747
 70
    64
  0
VERTEX
  5
B27
100
AcDbEntity
  8
0
100
AcDbVertex
100
AcDbPolygonMeshVertex
 10
0.0
 20
9.0811
 30
5.747
 70
    64
  0
VERTEX
  5
B28
100
AcDbEntity
  8
0
100
AcDbVertex
100
AcDbPolygonMeshVertex
 10
0.0
 20
9.0811
 30
5.747
 70
    64
  0
VERTEX
  5
B29
100
AcDbEntity
  8
0
100
AcDbVertex
100
AcDbPolygonMeshVertex
 10
0.068
 20
9.0811
 30
5.747
 70
    64
  0
VERTEX
  5
B2A
100
AcDbEntity
  8
0
100
AcDbVertex
100
AcDbPolygonMeshVertex
 10
0.0
 20
9.6931
 30
5.437
 70
    64
  0
VERTEX
  5
B2B
100
AcDbEntity
  8
0
100
AcDbVertex
100
AcDbPolygonMeshVertex
 10
0.0
 20
9.6931
 30
5.437
 70
    64
  0
VERTEX
  5
B2C
100
AcDbEntity
  8
0
100
AcDbVertex
100
AcDbPolygonMeshVertex
 10
0.068
 20
9.6931
 30
5.437
 70
    64
  0
SEQEND
  5
B2D
100
AcDbEntity
  8
0
  0
POLYLINE
  5
B2E
100
AcDbEntity
  8
0
100
AcDbPolygonMesh
 66
     1
 10
0.0
 20
0.0
 30
0.0
 70
    16
 71
     6
 72
     3
  0
VERTEX
  5
B2F
100
AcDbEntity
  8
0
100
AcDbVertex
100
AcDbPolygonMeshVertex
 10
-0.068
 20
9.0811
 30
5.747
 70
    64
  0
VERTEX
  5
B30
100
AcDbEntity
  8
0
100
AcDbVertex
100
AcDbPolygonMeshVertex
 10
-0.068
 20
9.0811
 30
5.747
 70
    64
  0
VERTEX
  5
B31
100
AcDbEntity
  8
0
100
AcDbVertex
100
AcDbPolygonMeshVertex
 10
-0.068
 20
9.0811
 30
5.747
 70
    64
  0
VERTEX
  5
B32
100
AcDbEntity
  8
0
100
AcDbVertex
100
AcDbPolygonMeshVertex
 10
-0.068
 20
9.6931
 30
5.437
 70
    64
  0
VERTEX
  5
B33
100
AcDbEntity
  8
0
100
AcDbVertex
100
AcDbPolygonMeshVertex
 10
-0.068
 20
9.6931
 30
5.747
 70
    64
  0
VERTEX
  5
B34
100
AcDbEntity
  8
0
100
AcDbVertex
100
AcDbPolygonMeshVertex
 10
-0.068
 20
9.6931
 30
5.747
 70
    64
  0
VERTEX
  5
B35
100
AcDbEntity
  8
0
100
AcDbVertex
100
AcDbPolygonMeshVertex
 10
-0.136
 20
9.6931
 30
5.437
 70
    64
  0
VERTEX
  5
B36
100
AcDbEntity
  8
0
100
AcDbVertex
100
AcDbPolygonMeshVertex
 10
-0.136
 20
9.6931
 30
5.747
 70
    64
  0
VERTEX
  5
B37
100
AcDbEntity
  8
0
100
AcDbVertex
100
AcDbPolygonMeshVertex
 10
-0.068
 20
9.6931
 30
5.747
 70
    64
  0
VERTEX
  5
B38
100
AcDbEntity
  8
0
100
AcDbVertex
100
AcDbPolygonMeshVertex
 10
-0.136
 20
9.0811
 30
5.747
 70
    64
  0
VERTEX
  5
B39
100
AcDbEntity
  8
0
100
AcDbVertex
100
AcDbPolygonMeshVertex
 10
-0.136
 20
9.0811
 30
5.747
 70
    64
  0
VERTEX
  5
B3A
100
AcDbEntity
  8
0
100
AcDbVertex
100
AcDbPolygonMeshVertex
 10
-0.068
 20
9.0811
 30
5.747
 70
    64
  0
VERTEX
  5
B3B
100
AcDbEntity
  8
0
100
AcDbVertex
100
AcDbPolygonMeshVertex
 10
-0.136
 20
9.0811
 30
5.747
 70
    64
  0
VERTEX
  5
B3C
100
AcDbEntity
  8
0
100
AcDbVertex
100
AcDbPolygonMeshVertex
 10
-0.136
 20
9.0811
 30
5.747
 70
    64
  0
VERTEX
  5
B3D
100
AcDbEntity
  8
0
100
AcDbVertex
100
AcDbPolygonMeshVertex
 10
-0.068
 20
9.0811
 30
5.747
 70
    64
  0
VERTEX
  5
B3E
100
AcDbEntity
  8
0
100
AcDbVertex
100
AcDbPolygonMeshVertex
 10
-0.136
 20
9.6931
 30
5.437
 70
    64
  0
VERTEX
  5
B3F
100
AcDbEntity
  8
0
100
AcDbVertex
100
AcDbPolygonMeshVertex
 10
-0.136
 20
9.6931
 30
5.437
 70
    64
  0
VERTEX
  5
B40
100
AcDbEntity
  8
0
100
AcDbVertex
100
AcDbPolygonMeshVertex
 10
-0.068
 20
9.6931
 30
5.437
 70
    64
  0
SEQEND
  5
B41
100
AcDbEntity
  8
0
  0
CIRCLE
  5
B42
100
AcDbEntity
  8
0
100
AcDbCircle
 10
9.586379
 20
5.592
 30
-0.136
 40
0.05206
210
1.0
220
0.0
230
0.0
  0
CIRCLE
  5
B43
100
AcDbEntity
  8
0
100
AcDbCircle
 10
9.586379
 20
5.592
 30
0.068
 40
0.05206
210
1.0
220
0.0
230
0.0
  0
LINE
  5
B44
100
AcDbEntity
  8
0
100
AcDbLine
 10
-0.954963
 20
-0.654587
 30
5.88
 11
-0.191077
 21
-0.654587
 31
5.88
  0
DIMENSION
  5
B45
100
AcDbEntity
  8
AREA1
100
AcDbDimension
  2
*D0
 10
1.040454
 20
10.0432
 30
0.0
 11
1.040454
 21
4.694307
 31
0.0
 70
    32
  3
ABECAD_3D
100
AcDbAlignedDimension
 13
-0.191077
 23
-0.654587
 33
5.88
 14
0.197
 24
10.0432
 34
5.747
 50
90.0
100
AcDbRotatedDimension
  0
DIMENSION
  5
B46
100
AcDbEntity
  8
AREA1
100
AcDbDimension
  2
*D1
 10
0.197
 20
10.725668
 30
0.0
 11
1.457
 21
10.725668
 31
0.0
 70
    32
  3
ABECAD_3D
100
AcDbAlignedDimension
 13
-0.958
 23
9.8
 33
0.0
 14
0.197
 24
10.0432
 34
5.747
100
AcDbRotatedDimension
  0
INSERT
  5
B47
100
AcDbEntity
  8
SCALE
100
AcDbBlockReference
  2
SCALE
 10
-0.933176
 20
-0.983722
 30
0.0
  0
ENDBLK
  5
B49
100
AcDbEntity
  8
0
100
AcDbBlockEnd
  0
BLOCK
  5
B61
100
AcDbEntity
  8
0
100
AcDbBlockBegin
  2
*D4
 70
     1
 10
0.0
 20
0.0
 30
0.0
  3
*D4
  1

  0
LINE
  5
B57
100
AcDbEntity
  8
AREA2
 62
     0
100
AcDbLine
 10
-1.0205
 20
5.88
 30
0.0
 11
-1.972799
 21
5.88
 31
0.0
1001
ACAD
1000
RTLwPs
1070
   158
  0
LINE
  5
B58
100
AcDbEntity
  8
AREA2
 62
     0
100
AcDbLine
 10
-1.0205
 20
0.0
 30
0.0
 11
-1.972799
 21
0.0
 31
0.0
1001
ACAD
1000
RTLwPs
1070
   158
  0
LINE
  5
B59
100
AcDbEntity
  8
AREA2
 62
     0
100
AcDbLine
 10
-1.793112
 20
5.700313
 30
0.0
 11
-1.793112
 21
3.72125
 31
0.0
1001
ACAD
1000
RTLwPs
1070
   158
  0
LINE
  5
B5A
100
AcDbEntity
  8
AREA2
 62
     0
100
AcDbLine
 10
-1.793112
 20
0.179688
 30
0.0
 11
-1.793112
 21
2.15875
 31
0.0
1001
ACAD
1000
RTLwPs
1070
   158
  0
SOLID
  5
B5B
100
AcDbEntity
  8
AREA2
 62
     0
100
AcDbTrace
 10
-1.823059
 20
5.700313
 30
0.0
 11
-1.763164
 21
5.700313
 31
0.0
 12
-1.793112
 22
5.88
 32
0.0
 13
-1.793112
 23
5.88
 33
0.0
  0
SOLID
  5
B5C
100
AcDbEntity
  8
AREA2
 62
     0
100
AcDbTrace
 10
-1.823059
 20
0.179688
 30
0.0
 11
-1.763164
 21
0.179688
 31
0.0
 12
-1.793112
 22
0.0
 32
0.0
 13
-1.793112
 23
0.0
 33
0.0
  0
MTEXT
  5
B5D
100
AcDbEntity
  8
AREA2
 62
     0
100
AcDbMText
 10
-1.793112
 20
2.94
 30
0.0
 40
0.125
 41
0.0
 71
     5
 72
     1
  1
\A1;5 7/8 [149.4]
 11
0.0
 21
1.0
 31
0.0
1001
ACAD
1000
MTEXTBEGIN
1070
    73
1070
     1
1070
    44
1040
1.0
1070
    74
1070
     0
1000
MTEXTEND
1000
MTEXTBEGIN
1070
    73
1070
     1
1070
    44
1040
1.0
1070
    74
1070
     0
1000
MTEXTEND
1000
MTEXTBEGIN
1070
    73
1070
     1
1070
    44
1040
1.0
1070
    74
1070
     0
1000
MTEXTEND
1000
MTEXTBEGIN
1070
    73
1070
     1
1070
    44
1040
1.0
1070
    74
1070
     0
1000
MTEXTEND
  0
POINT
  5
B5E
100
AcDbEntity
  8
DEFPOINTS
 62
     0
100
AcDbPoint
 10
-0.958
 20
5.88
 30
-0.2
  0
POINT
  5
B5F
100
AcDbEntity
  8
DEFPOINTS
 62
     0
100
AcDbPoint
 10
-0.958
 20
0.0
 30
-0.2
  0
POINT
  5
B60
100
AcDbEntity
  8
DEFPOINTS
 62
     0
100
AcDbPoint
 10
-1.793112
 20
0.0
 30
0.0
  0
ENDBLK
  5
B62
100
AcDbEntity
  8
0
100
AcDbBlockEnd
  0
ENDSEC
  0
SECTION
  2
ENTITIES
  0
INSERT
  5
B4A
100
AcDbEntity
  8
0
100
AcDbBlockReference
 66
     1
  2
ABIOE060
 10
0.0
 20
0.0
 30
0.0
  0
ATTRIB
  5
B4B
100
AcDbEntity
  8
ATTRIBUTES
100
AcDbText
 10
-0.814543
 20
1.491692
 30
0.0
 40
0.0675
  1
ALLEN-BRADLEY
100
AcDbAttribute
  2
AC_VND_LABEL
 70
     1
  0
ATTRIB
  5
B4C
100
AcDbEntity
  8
ATTRIBUTES
100
AcDbText
 10
-0.814543
 20
1.351067
 30
0.0
 40
0.0675
  1
1771-IAN
100
AcDbAttribute
  2
AC_PART_NO
 70
     1
  0
ATTRIB
  5
B4D
100
AcDbEntity
  8
ATTRIBUTES
100
AcDbText
 10
-0.814543
 20
1.210442
 30
0.0
 40
0.0675
  1
1771-IAN:120V AC INPUT MODULE, 16 INPUTS
100
AcDbAttribute
  2
AC_DESCRIPTION
 70
     1
  0
ATTRIB
  5
B4E
100
AcDbEntity
  8
ATTRIBUTES
100
AcDbText
 10
-0.814543
 20
1.069817
 30
0.0
 40
0.0675
  1

100
AcDbAttribute
  2
DEVICE_ID
 70
     1
  0
ATTRIB
  5
B4F
100
AcDbEntity
  8
ATTRIBUTES
100
AcDbText
 10
-0.814543
 20
0.929192
 30
0.0
 40
0.0675
  1

100
AcDbAttribute
  2
AC_CPART_NO
 70
     1
  0
ATTRIB
  5
B50
100
AcDbEntity
  8
ATTRIBUTES
100
AcDbText
 10
-0.814543
 20
0.788567
 30
0.0
 40
0.0675
  1

100
AcDbAttribute
  2
AC_NOTE
 70
     1
  0
ATTRIB
  5
B51
100
AcDbEntity
  8
ATTRIBUTES
100
AcDbText
 10
-0.814543
 20
0.647942
 30
0.0
 40
0.0675
  1

100
AcDbAttribute
  2
FASTENER
 70
     1
  0
ATTRIB
  5
B52
100
AcDbEntity
  8
ATTRIBUTES
100
AcDbText
 10
-0.814543
 20
0.507317
 30
0.0
 40
0.0675
  1
INCH
100
AcDbAttribute
  2
AC_SCALE_UNIT
 70
     1
  0
ATTRIB
  5
B53
100
AcDbEntity
  8
ATTRIBUTES
100
AcDbText
 10
-0.814543
 20
0.366692
 30
0.0
 40
0.0675
  1
0
100
AcDbAttribute
  2
AC_VIEW_CODE
 70
     1
  0
SEQEND
  5
B54
100
AcDbEntity
  8
0
  0
DIMENSION
  5
B55
100
AcDbEntity
  8
AREA2
100
AcDbDimension
  2
*D4
 10
-1.793112
 20
0.0
 30
0.0
 11
-1.793112
 21
2.94
 31
0.0
 70
    32
210
0.0
220
-1.0
230
0.0
  3
ABECAD_3V
100
AcDbAlignedDimension
 13
-0.958
 23
0.2
 33
5.88
 14
-0.958
 24
0.2
 34
0.0
 50
90.0
100
AcDbRotatedDimension
1001
ACAD
1000
DSTYLE
1002
{
1070
    40
1040
1.0
1002
}
  0
VIEWPORT
  5
2C
102
{ACAD_XDICTIONARY
360
C45
102
}
100
AcDbEntity
 67
     1
  8
0
100
AcDbViewport
 10
4.999849
 20
3.750155
 30
0.0
 40
13.933522
 41
7.595705
 68
     1
 69
     1
1001
ACAD
1000
MVIEW
1002
{
1070
    16
1010
0.0
1020
0.0
1030
0.0
1010
0.0
1020
0.0
1030
1.0
1040
0.0
1040
7.595705
1040
4.999849
1040
3.750155
1040
50.0
1040
0.0
1040
0.0
1070
     0
1070
   100
1070
     1
1070
     1
1070
     0
1070
     0
1070
     0
1070
     0
1040
0.0
1040
0.0
1040
0.0
1040
1.0
1040
1.0
1040
0.0
1040
0.0
1070
     0
1002
{
1002
}
1002
}
  0
VIEWPORT
  5
2D
102
{ACAD_XDICTIONARY
360
C47
102
}
100
AcDbEntity
 67
     1
  8
0
100
AcDbViewport
 10
2.5
 20
5.625
 30
0.0
 40
5.0
 41
3.75
 68
     4
 69
     2
1001
ACAD
1000
MVIEW
1002
{
1070
    16
1010
0.0
1020
0.0
1030
0.0
1010
0.0
1020
0.0
1030
1.0
1040
0.0
1040
13.314098
1040
0.2371
1040
4.540168
1040
50.0
1040
0.0
1040
0.0
1070
     0
1070
   100
1070
     1
1070
     0
1070
     0
1070
     0
1070
     0
1070
     0
1040
0.0
1040
0.0
1040
0.0
1040
1.0
1040
1.0
1040
0.0
1040
0.0
1070
     0
1002
{
1003
AREA2
1002
}
1002
}
  0
VIEWPORT
  5
2E
102
{ACAD_XDICTIONARY
360
C49
102
}
100
AcDbEntity
 67
     1
  8
0
100
AcDbViewport
 10
2.5
 20
1.875
 30
0.0
 40
5.0
 41
3.75
 68
     3
 69
     3
1001
ACAD
1000
MVIEW
1002
{
1070
    16
1010
0.0
1020
0.0
1030
0.0
1010
0.0
1020
-1.0
1030
0.0
1040
0.0
1040
14.737509
1040
0.2371
1040
2.940487
1040
50.0
1040
0.0
1040
0.0
1070
     0
1070
   100
1070
     1
1070
     0
1070
     0
1070
     0
1070
     0
1070
     0
1040
0.0
1040
0.0
1040
0.0
1040
1.0
1040
1.0
1040
0.0
1040
0.0
1070
     0
1002
{
1003
AREA1
1002
}
1002
}
  0
VIEWPORT
  5
2F
102
{ACAD_XDICTIONARY
360
C4B
102
}
100
AcDbEntity
 67
     1
  8
0
100
AcDbViewport
 10
7.5
 20
3.75
 30
0.0
 40
5.0
 41
7.5
 68
     2
 69
     4
1001
ACAD
1000
MVIEW
1002
{
1070
    16
1010
0.0
1020
0.0
1030
0.0
1010
-1.0
1020
-1.0
1030
1.0
1040
0.0
1040
15.490931
1040
-3.783644
1040
5.208735
1040
50.0
1040
0.0
1040
0.0
1070
     0
1070
   100
1070
     1
1070
     0
1070
     0
1070
     0
1070
     0
1070
     0
1040
0.0
1040
0.0
1040
0.0
1040
1.0
1040
1.0
1040
0.0
1040
0.0
1070
     0
1002
{
1003
AREA1
1003
AREA2
1002
}
1002
}
  0
TEXT
  5
42D
100
AcDbEntity
 67
     1
  8
0
100
AcDbText
 10
5.253785
 20
7.092701
 30
0.0
 40
0.2
  1
1771-IAN
100
AcDbText
  0
TEXT
  5
431
100
AcDbEntity
 67
     1
  8
0
100
AcDbText
 10
5.253785
 20
6.759368
 30
0.0
 40
0.2
  1
1771-IAN:120V AC INPUT
100
AcDbText
1001
ACAD
1000
R13OBJECT
1002
{
1005
42D
1002
}
  0
TEXT
  5
52E
100
AcDbEntity
 67
     1
  8
0
100
AcDbText
 10
5.240015
 20
6.436423
 30
0.0
 40
0.2
  1
MODULE, 16 INPUTS
100
AcDbText
  0
TEXT
  5
52F
100
AcDbEntity
 67
     1
  8
0
100
AcDbText
 10
5.240015
 20
6.10309
 30
0.0
 40
0.2
  1

100
AcDbText
  0
TEXT
  5
530
100
AcDbEntity
 67
     1
  8
0
100
AcDbText
 10
5.240015
 20
5.769757
 30
0.0
 40
0.2
  1

100
AcDbText
  0
ENDSEC
  0
SECTION
  2
OBJECTS
  0
DICTIONARY
  5
46D
100
AcDbDictionary
  3
ACAD_GROUP
350
46E
  3
ACAD_LAYOUT
350
49E
  3
ACAD_MLINESTYLE
350
47B
  3
ACAD_PLOTSETTINGS
350
49F
  3
ACAD_PLOTSTYLENAME
350
49C
  3
ACDBHEADERROUNDTRIPXREC
350
C24
  3
ACDBVARIABLEDICTIONARY
350
48D
  0
DICTIONARY
  5
C22
100
AcDbDictionary
280
     1
  3
ACAD_XREC_ROUNDTRIP
360
C23
  0
DICTIONARY
  5
C4F
100
AcDbDictionary
280
     1
  3
ACAD_XREC_ROUNDTRIP
360
C50
  0
DICTIONARY
  5
C51
100
AcDbDictionary
280
     1
  3
ACAD_XREC_ROUNDTRIP
360
C52
  0
DICTIONARY
  5
C53
100
AcDbDictionary
280
     1
  3
ACAD_XREC_ROUNDTRIP
360
C54
  0
DICTIONARY
  5
C57
100
AcDbDictionary
280
     1
  3
ACAD_XREC_ROUNDTRIP
360
C58
  0
DICTIONARY
  5
4D2
100
AcDbDictionary
280
     1
  3
ACAD_LAYOUTSELFREF
360
C4E
  0
DICTIONARY
  5
4D0
100
AcDbDictionary
280
     1
  3
ACAD_LAYOUTSELFREF
360
C4D
  0
DICTIONARY
  5
C1E
100
AcDbDictionary
280
     1
  3
ACAD_XREC_ROUNDTRIP
360
C1F
  0
DICTIONARY
  5
C20
100
AcDbDictionary
280
     1
  3
ACAD_XREC_ROUNDTRIP
360
C21
  0
DICTIONARY
  5
C45
100
AcDbDictionary
280
     1
  3
ACAD_XREC_ROUNDTRIP
360
C46
  0
DICTIONARY
  5
C47
100
AcDbDictionary
280
     1
  3
ACAD_XREC_ROUNDTRIP
360
C48
  0
DICTIONARY
  5
C49
100
AcDbDictionary
280
     1
  3
ACAD_XREC_ROUNDTRIP
360
C4A
  0
DICTIONARY
  5
C4B
100
AcDbDictionary
280
     1
  3
ACAD_XREC_ROUNDTRIP
360
C4C
  0
DICTIONARY
  5
46E
102
{ACAD_REACTORS
330
46D
102
}
100
AcDbDictionary
  0
DICTIONARY
  5
49E
102
{ACAD_XDICTIONARY
360
C55
102
}
102
{ACAD_REACTORS
330
46D
102
}
100
AcDbDictionary
  3
LAYOUT1
350
4A1
  3
MODEL
350
4A0
  0
DICTIONARY
  5
47B
102
{ACAD_REACTORS
330
46D
102
}
100
AcDbDictionary
  3
STANDARD
350
47C
  0
DICTIONARY
  5
49F
102
{ACAD_REACTORS
330
46D
102
}
100
AcDbDictionary
  0
ACAD_PROXY_OBJECT
  5
49C
102
{ACAD_REACTORS
330
46D
102
}
100
AcDbProxyObject
 90
      499
 91
      501
 93
       86
310
405010041939BDC9B585B0
350
49D
340
49D
 94
        0
  0
DICTIONARY
  5
C24
102
{ACAD_REACTORS
330
46D
102
}
100
AcDbDictionary
  3
CEPSNTYPE
350
C2E
  3
DIMSTYLEDATA
350
C32
  3
FINGERPRINTGUID
350
C2F
  3
HYPERLINKBASE
350
C27
  3
INSUNITS
350
C2D
  3
LAYOUTDICT
350
C29
  3
LWETCUNION
350
C2C
  3
PLOTSETDICT
350
C2A
  3
PLOTSTYLNAMDICT
350
C2B
  3
PSVPSCALE
350
C31
  3
PUCSBASE
350
C35
  3
PUCSORGBACK
350
C3B
  3
PUCSORGBOTTOM
350
C37
  3
PUCSORGFRONT
350
C3A
  3
PUCSORGLEFT
350
C38
  3
PUCSORGRIGHT
350
C39
  3
PUCSORGTOP
350
C36
  3
PUCSORTHOREF
350
C33
  3
PUCSORTHOVIEW
350
C34
  3
STYLESHEET
350
C28
  3
TSTACKALIGN
350
C25
  3
TSTACKSIZE
350
C26
  3
UCSBASE
350
C3E
  3
UCSORGBACK
350
C44
  3
UCSORGBOTTOM
350
C40
  3
UCSORGFRONT
350
C43
  3
UCSORGLEFT
350
C41
  3
UCSORGRIGHT
350
C42
  3
UCSORGTOP
350
C3F
  3
UCSORTHOREF
350
C3C
  3
UCSORTHOVIEW
350
C3D
  3
VERSIONGUID
350
C30
  0
DICTIONARY
  5
48D
102
{ACAD_REACTORS
330
46D
102
}
100
AcDbDictionary
  3
DIMADEC
350
48E
  0
XRECORD
  5
C23
102
{ACAD_REACTORS
330
C22
102
}
100
AcDbXrecord
102
EXTNAMES
  1
*ACTIVE
  2
*Active
102
UCS
 74
     0
 71
     1
 10
0.0
 20
0.0
 30
0.0
 10
1.0
 20
0.0
 30
0.0
 10
0.0
 20
1.0
 30
0.0
146
0.0
 79
     1
102
VIEW
281
     0
  0
XRECORD
  5
C50
102
{ACAD_REACTORS
330
C4F
102
}
100
AcDbXrecord
102
PLOTBIT
280
     0
  0
XRECORD
  5
C52
102
{ACAD_REACTORS
330
C51
102
}
100
AcDbXrecord
102
ACADR14ROUNDTRIP
1000
DSTYLE
1002
{
1070
   276
 70
     2
1070
   277
 70
     5
1070
   279
 70
     2
1002
}
  0
XRECORD
  5
C54
102
{ACAD_REACTORS
330
C53
102
}
100
AcDbXrecord
102
ACADR14ROUNDTRIP
1000
DSTYLE
1002
{
1070
   276
 70
     2
1070
   277
 70
     5
1070
   279
 70
     2
1002
}
  0
XRECORD
  5
C58
102
{ACAD_REACTORS
330
C57
102
}
100
AcDbXrecord
102
ACADR14ROUNDTRIP
1000
DSTYLE
1002
{
1070
   276
 70
     2
1070
   277
 70
     5
1002
}
  0
XRECORD
  5
C4E
102
{ACAD_REACTORS
330
4D2
102
}
100
AcDbXrecord
340
478
  0
XRECORD
  5
C4D
102
{ACAD_REACTORS
330
4D0
102
}
100
AcDbXrecord
340
475
  0
XRECORD
  5
C1F
102
{ACAD_REACTORS
330
C1E
102
}
100
AcDbXrecord
102
EXTNAMES
  1
SCALE
  2
scale
  0
XRECORD
  5
C21
102
{ACAD_REACTORS
330
C20
102
}
100
AcDbXrecord
102
EXTNAMES
  1
ABIOE060
  2
Abioe060
  0
XRECORD
  5
C46
102
{ACAD_REACTORS
330
C45
102
}
100
AcDbXrecord
102
UCS
 74
     0
 71
     1
 10
0.0
 20
0.0
 30
0.0
 10
1.0
 20
0.0
 30
0.0
 10
0.0
 20
1.0
 30
0.0
146
0.0
 79
     0
102
VIEW
281
     0
102
NEWVIEWCONTROL
280
     4
  0
XRECORD
  5
C48
102
{ACAD_REACTORS
330
C47
102
}
100
AcDbXrecord
102
UCS
 74
     0
 71
     1
 10
0.0
 20
0.0
 30
0.0
 10
1.0
 20
0.0
 30
0.0
 10
0.0
 20
1.0
 30
0.0
146
0.0
 79
     1
102
VIEW
281
     0
102
NEWVIEWCONTROL
280
     4
  0
XRECORD
  5
C4A
102
{ACAD_REACTORS
330
C49
102
}
100
AcDbXrecord
102
UCS
 74
     0
 71
     1
 10
0.0
 20
0.0
 30
0.0
 10
1.0
 20
0.0
 30
0.0
 10
0.0
 20
0.0
 30
1.0
146
0.0
 79
     3
102
VIEW
281
     0
102
NEWVIEWCONTROL
280
     4
  0
XRECORD
  5
C4C
102
{ACAD_REACTORS
330
C4B
102
}
100
AcDbXrecord
102
UCS
 74
     0
 71
     1
 10
0.0
 20
0.0
 30
0.0
 10
1.0
 20
0.0
 30
0.0
 10
0.0
 20
1.0
 30
0.0
146
0.0
 79
     0
102
VIEW
281
     0
102
NEWVIEWCONTROL
280
     4
  0
DICTIONARY
  5
C55
100
AcDbDictionary
280
     1
  3
ACAD_XREC_ROUNDTRIP
360
C56
  0
ACAD_PROXY_OBJECT
  5
4A1
102
{ACAD_REACTORS
330
49E
102
}
100
AcDbProxyObject
 90
      499
 91
      503
 93
     2044
310
91D4850204C617365724A65742035303030205365726965732050434C20362C008000000C0BB1B1440000000102F06C510000000000BC1B1440000000002E06C5100000000C0CCFC6A4000000018199D9C501064C6574746572A901406AA427D84144352EEE3F47D11959985D5B1D08148C4D081C195B88185CDCDA59DB9B5
310
95B9D1CCB98DD18A30EDE3B1BBFDBC0FC1D572C8D6D0C833F1A2B3054E9249F0FD074C61796F75743140501A97D7DB4AA43C31EFF91E46EBA53B71EFD1B32A15809809100B2537F8EAD447D02A6A6A00200C0093BD106FC0000F06EE366FABE0000032E846F6A2F44424FF2920002440160B7F435600079000000D00CEECC5
310
43D0
330
475
330
2C
340
0
340
0
 94
        0
  0
ACAD_PROXY_OBJECT
  5
4A0
102
{ACAD_REACTORS
330
49E
102
}
100
AcDbProxyObject
 90
      499
 91
      503
 93
      924
310
91D4850204C617365724A65742035303030205365726965732050434C20362C01AAAAAAAAA547D11959985D5B1D08148C4D081C195B88185CDCDA59DB9B595B9D1CCB98DD18A69054D6F64656C901A800000000000000000000000000000000000000000000A1000000000000008902A6A6AAAA0
330
478
330
0
340
0
340
0
 94
        0
  0
MLINESTYLE
  5
47C
102
{ACAD_REACTORS
330
47B
102
}
100
AcDbMlineStyle
  2
STANDARD
 70
     0
  3

 62
   256
 51
90.0
 52
90.0
 71
     2
 49
0.5
 62
   256
  6
BYLAYER
 49
-0.5
 62
   256
  6
BYLAYER
  0
ACAD_PROXY_OBJECT
  5
49D
102
{ACAD_REACTORS
330
49C
102
}
100
AcDbProxyObject
 90
      499
 91
      502
 93
        0
 94
        0
  0
XRECORD
  5
C2E
102
{ACAD_REACTORS
330
C24
102
}
100
AcDbXrecord
 90
        0
  0
XRECORD
  5
C32
102
{ACAD_REACTORS
330
C24
102
}
100
AcDbXrecord
1000
DSTYLE
1002
{
1070
   276
 70
     2
1070
   277
 70
     5
1070
   279
 70
     2
1002
}
  0
XRECORD
  5
C2F
102
{ACAD_REACTORS
330
C24
102
}
100
AcDbXrecord
  1
{6E0CF4B5-225E-11D4-A150-00A0CC3303EC}
  0
XRECORD
  5
C27
102
{ACAD_REACTORS
330
C24
102
}
100
AcDbXrecord
  1

  0
XRECORD
  5
C2D
102
{ACAD_REACTORS
330
C24
102
}
100
AcDbXrecord
 90
        0
  0
XRECORD
  5
C29
102
{ACAD_REACTORS
330
C24
102
}
100
AcDbXrecord
340
49E
  0
XRECORD
  5
C2C
102
{ACAD_REACTORS
330
C24
102
}
100
AcDbXrecord
 90
    14877
  0
XRECORD
  5
C2A
102
{ACAD_REACTORS
330
C24
102
}
100
AcDbXrecord
340
49F
  0
XRECORD
  5
C2B
102
{ACAD_REACTORS
330
C24
102
}
100
AcDbXrecord
340
49C
  0
XRECORD
  5
C31
102
{ACAD_REACTORS
330
C24
102
}
100
AcDbXrecord
 40
0.0
  0
XRECORD
  5
C35
102
{ACAD_REACTORS
330
C24
102
}
100
AcDbXrecord
340
0
  0
XRECORD
  5
C3B
102
{ACAD_REACTORS
330
C24
102
}
100
AcDbXrecord
 10
0.0
 20
0.0
 30
0.0
  0
XRECORD
  5
C37
102
{ACAD_REACTORS
330
C24
102
}
100
AcDbXrecord
 10
0.0
 20
0.0
 30
0.0
  0
XRECORD
  5
C3A
102
{ACAD_REACTORS
330
C24
102
}
100
AcDbXrecord
 10
0.0
 20
0.0
 30
0.0
  0
XRECORD
  5
C38
102
{ACAD_REACTORS
330
C24
102
}
100
AcDbXrecord
 10
0.0
 20
0.0
 30
0.0
  0
XRECORD
  5
C39
102
{ACAD_REACTORS
330
C24
102
}
100
AcDbXrecord
 10
0.0
 20
0.0
 30
0.0
  0
XRECORD
  5
C36
102
{ACAD_REACTORS
330
C24
102
}
100
AcDbXrecord
 10
0.0
 20
0.0
 30
0.0
  0
XRECORD
  5
C33
102
{ACAD_REACTORS
330
C24
102
}
100
AcDbXrecord
340
0
  0
XRECORD
  5
C34
102
{ACAD_REACTORS
330
C24
102
}
100
AcDbXrecord
 70
     0
  0
XRECORD
  5
C28
102
{ACAD_REACTORS
330
C24
102
}
100
AcDbXrecord
  1

  0
XRECORD
  5
C25
102
{ACAD_REACTORS
330
C24
102
}
100
AcDbXrecord
 90
        1
  0
XRECORD
  5
C26
102
{ACAD_REACTORS
330
C24
102
}
100
AcDbXrecord
 90
       70
  0
XRECORD
  5
C3E
102
{ACAD_REACTORS
330
C24
102
}
100
AcDbXrecord
340
0
  0
XRECORD
  5
C44
102
{ACAD_REACTORS
330
C24
102
}
100
AcDbXrecord
 10
0.0
 20
0.0
 30
0.0
  0
XRECORD
  5
C40
102
{ACAD_REACTORS
330
C24
102
}
100
AcDbXrecord
 10
0.0
 20
0.0
 30
0.0
  0
XRECORD
  5
C43
102
{ACAD_REACTORS
330
C24
102
}
100
AcDbXrecord
 10
0.0
 20
0.0
 30
0.0
  0
XRECORD
  5
C41
102
{ACAD_REACTORS
330
C24
102
}
100
AcDbXrecord
 10
0.0
 20
0.0
 30
0.0
  0
XRECORD
  5
C42
102
{ACAD_REACTORS
330
C24
102
}
100
AcDbXrecord
 10
0.0
 20
0.0
 30
0.0
  0
XRECORD
  5
C3F
102
{ACAD_REACTORS
330
C24
102
}
100
AcDbXrecord
 10
0.0
 20
0.0
 30
0.0
  0
XRECORD
  5
C3C
102
{ACAD_REACTORS
330
C24
102
}
100
AcDbXrecord
340
0
  0
XRECORD
  5
C3D
102
{ACAD_REACTORS
330
C24
102
}
100
AcDbXrecord
 70
     3
  0
XRECORD
  5
C30
102
{ACAD_REACTORS
330
C24
102
}
100
AcDbXrecord
  1
{2842B55D-46CC-42DA-9ECC-424E808D4D6C}
  0
DICTIONARYVAR
  5
48E
102
{ACAD_REACTORS
330
48D
102
}
100
DictionaryVariables
280
     0
  1
0
  0
XRECORD
  5
C56
102
{ACAD_REACTORS
330
C55
102
}
100
AcDbXrecord
102
EXTNAMES
  1
LAYOUT1
  2
Layout1
  1
MODEL
  2
Model
  0
ENDSEC
  0
EOF
