  0
SECTION
  2
HEADER
  9
$ACADVER
  1
AC1014
  9
$ACADMAINTVER
 70
     8
  9
$DWGCODEPAGE
  3
ANSI_1252
  9
$INSBASE
 10
0.0
 20
0.0
 30
0.0
  9
$EXTMIN
 10
-2.018922
 20
-1.58303
 30
0.0
  9
$EXTMAX
 10
2.635
 20
11.068456
 30
5.880973
  9
$LIMMIN
 10
0.0
 20
0.0
  9
$LIMMAX
 10
12.0
 20
9.0
  9
$ORTHOMODE
 70
     0
  9
$REGENMODE
 70
     1
  9
$FILLMODE
 70
     1
  9
$QTEXTMODE
 70
     0
  9
$MIRRTEXT
 70
     1
  9
$DRAGMODE
 70
     2
  9
$LTSCALE
 40
1.0
  9
$OSMODE
 70
    37
  9
$ATTMODE
 70
     0
  9
$TEXTSIZE
 40
0.2
  9
$TRACEWID
 40
0.05
  9
$TEXTSTYLE
  7
STANDARD
  9
$CLAYER
  8
0
  9
$CELTYPE
  6
BYLAYER
  9
$CECOLOR
 62
   256
  9
$CELTSCALE
 40
1.0
  9
$DELOBJ
 70
     1
  9
$DISPSILH
 70
     0
  9
$DIMSCALE
 40
0.0
  9
$DIMASZ
 40
0.179688
  9
$DIMEXO
 40
0.0625
  9
$DIMDLI
 40
0.375
  9
$DIMRND
 40
0.0
  9
$DIMDLE
 40
0.0
  9
$DIMEXE
 40
0.179688
  9
$DIMTP
 40
0.0
  9
$DIMTM
 40
0.0
  9
$DIMTXT
 40
0.125
  9
$DIMCEN
 40
0.089844
  9
$DIMTSZ
 40
0.0
  9
$DIMTOL
 70
     0
  9
$DIMLIM
 70
     0
  9
$DIMTIH
 70
     0
  9
$DIMTOH
 70
     0
  9
$DIMSE1
 70
     0
  9
$DIMSE2
 70
     0
  9
$DIMTAD
 70
     0
  9
$DIMZIN
 70
     4
  9
$DIMBLK
  1

  9
$DIMASO
 70
     1
  9
$DIMSHO
 70
     1
  9
$DIMPOST
  1

  9
$DIMAPOST
  1

  9
$DIMALT
 70
     1
  9
$DIMALTD
 70
     1
  9
$DIMALTF
 40
25.4
  9
$DIMLFAC
 40
1.0
  9
$DIMTOFL
 70
     0
  9
$DIMTVP
 40
0.0
  9
$DIMTIX
 70
     1
  9
$DIMSOXD
 70
     0
  9
$DIMSAH
 70
     0
  9
$DIMBLK1
  1

  9
$DIMBLK2
  1

  9
$DIMSTYLE
  2
ABECAD_3V
  9
$DIMCLRD
 70
     0
  9
$DIMCLRE
 70
     0
  9
$DIMCLRT
 70
     0
  9
$DIMTFAC
 40
1.5
  9
$DIMGAP
 40
0.09375
  9
$DIMJUST
 70
     0
  9
$DIMSD1
 70
     0
  9
$DIMSD2
 70
     0
  9
$DIMTOLJ
 70
     1
  9
$DIMTZIN
 70
     4
  9
$DIMALTZ
 70
     4
  9
$DIMALTTZ
 70
     4
  9
$DIMFIT
 70
     5
  9
$DIMUPT
 70
     0
  9
$DIMUNIT
 70
     7
  9
$DIMDEC
 70
     6
  9
$DIMTDEC
 70
     6
  9
$DIMALTU
 70
     2
  9
$DIMALTTD
 70
     1
  9
$DIMTXSTY
  7
STANDARD
  9
$DIMAUNIT
 70
     0
  9
$LUNITS
 70
     5
  9
$LUPREC
 70
     6
  9
$SKETCHINC
 40
0.1
  9
$FILLETRAD
 40
0.0
  9
$AUNITS
 70
     0
  9
$AUPREC
 70
     0
  9
$MENU
  1
acad
  9
$ELEVATION
 40
0.0
  9
$PELEVATION
 40
0.0
  9
$THICKNESS
 40
0.0
  9
$LIMCHECK
 70
     0
  9
$BLIPMODE
 70
     0
  9
$CHAMFERA
 40
0.0
  9
$CHAMFERB
 40
0.0
  9
$CHAMFERC
 40
0.0
  9
$CHAMFERD
 40
0.0
  9
$SKPOLY
 70
     0
  9
$TDCREATE
 40
2451670.441490278
  9
$TDUPDATE
 40
2452010.727351388
  9
$TDINDWG
 40
0.0065341435
  9
$TDUSRTIMER
 40
0.0065341435
  9
$USRTIMER
 70
     1
  9
$ANGBASE
 50
0.0
  9
$ANGDIR
 70
     0
  9
$PDMODE
 70
     2
  9
$PDSIZE
 40
0.0
  9
$PLINEWID
 40
0.0
  9
$COORDS
 70
     1
  9
$SPLFRAME
 70
     0
  9
$SPLINETYPE
 70
     6
  9
$SPLINESEGS
 70
     8
  9
$ATTDIA
 70
     0
  9
$ATTREQ
 70
     1
  9
$HANDLING
 70
     1
  9
$HANDSEED
  5
9CE
  9
$SURFTAB1
 70
     6
  9
$SURFTAB2
 70
     6
  9
$SURFTYPE
 70
     6
  9
$SURFU
 70
     6
  9
$SURFV
 70
     6
  9
$UCSNAME
  2

  9
$UCSORG
 10
0.0
 20
0.0
 30
0.0
  9
$UCSXDIR
 10
1.0
 20
0.0
 30
0.0
  9
$UCSYDIR
 10
0.0
 20
0.0
 30
1.0
  9
$PUCSNAME
  2

  9
$PUCSORG
 10
0.0
 20
0.0
 30
0.0
  9
$PUCSXDIR
 10
1.0
 20
0.0
 30
0.0
  9
$PUCSYDIR
 10
0.0
 20
1.0
 30
0.0
  9
$USERI1
 70
     0
  9
$USERI2
 70
     0
  9
$USERI3
 70
     0
  9
$USERI4
 70
     0
  9
$USERI5
 70
     0
  9
$USERR1
 40
0.0
  9
$USERR2
 40
0.0
  9
$USERR3
 40
0.0
  9
$USERR4
 40
0.0
  9
$USERR5
 40
0.0
  9
$WORLDVIEW
 70
     1
  9
$SHADEDGE
 70
     3
  9
$SHADEDIF
 70
    70
  9
$TILEMODE
 70
     0
  9
$MAXACTVP
 70
    16
  9
$PINSBASE
 10
0.0
 20
0.0
 30
0.0
  9
$PLIMCHECK
 70
     0
  9
$PEXTMIN
 10
0.0
 20
0.0
 30
0.0
  9
$PEXTMAX
 10
10.0
 20
7.5
 30
0.0
  9
$PLIMMIN
 10
-0.187029
 20
-0.186938
  9
$PLIMMAX
 10
10.187518
 20
7.829757
  9
$UNITMODE
 70
     0
  9
$VISRETAIN
 70
     0
  9
$PLINEGEN
 70
     0
  9
$PSLTSCALE
 70
     1
  9
$TREEDEPTH
 70
  3020
  9
$PICKSTYLE
 70
     1
  9
$CMLSTYLE
  2
STANDARD
  9
$CMLJUST
 70
     0
  9
$CMLSCALE
 40
1.0
  9
$PROXYGRAPHICS
 70
     1
  9
$MEASUREMENT
 70
     0
  0
ENDSEC
  0
SECTION
  2
CLASSES
  0
CLASS
  1
DICTIONARYVAR
  2
AcDbDictionaryVar
  3
"AutoCAD"
 90
        0
280
     0
281
     0
  0
CLASS
  1
ACDBDICTIONARYWDFLT
  2
AcDbDictionaryWithDefault
  3
AutoCAD 2000
 90
        0
280
     0
281
     0
  0
CLASS
  1
ACDBPLACEHOLDER
  2
AcDbPlaceHolder
  3
AutoCAD 2000
 90
        0
280
     0
281
     0
  0
CLASS
  1
LAYOUT
  2
AcDbLayout
  3
AutoCAD 2000
 90
        0
280
     0
281
     0
  0
CLASS
  1
LONG_TRANSACTION
  2
AcDbLongTransaction
  3
AutoCAD 2000
 90
        0
280
     0
281
     0
  0
CLASS
  1
LWPOLYLINE
  2
AcDbPolyline
  3
"AutoCAD"
 90
        0
280
     0
281
     1
  0
CLASS
  1
HATCH
  2
AcDbHatch
  3
"ACAD_SEDONA"
 90
        0
280
     0
281
     1
  0
CLASS
  1
XRECORD
  2
AcDbXrecord
  3
"<Built In>"
 90
        0
280
     0
281
     0
  0
CLASS
  1
LONG_TRANSACTION
  2
AcDbLongTransaction
  3
AutoCAD 2000
 90
        0
280
     0
281
     0
  0
CLASS
  1
LWPOLYLINE
  2
AcDbPolyline
  3
"AutoCAD"
 90
        0
280
     0
281
     1
  0
CLASS
  1
HATCH
  2
AcDbHatch
  3
"ACAD_SEDONA"
 90
        0
280
     0
281
     1
  0
CLASS
  1
XRECORD
  2
AcDbXrecord
  3
"<Built In>"
 90
        0
280
     0
281
     0
  0
CLASS
  1
LONG_TRANSACTION
  2
AcDbLongTransaction
  3
AutoCAD 2000
 90
        0
280
     0
281
     0
  0
CLASS
  1
LWPOLYLINE
  2
AcDbPolyline
  3
"AutoCAD"
 90
        0
280
     0
281
     1
  0
CLASS
  1
HATCH
  2
AcDbHatch
  3
"ACAD_SEDONA"
 90
        0
280
     0
281
     1
  0
CLASS
  1
XRECORD
  2
AcDbXrecord
  3
"<Built In>"
 90
        0
280
     0
281
     0
  0
CLASS
  1
LONG_TRANSACTION
  2
AcDbLongTransaction
  3
AutoCAD 2000
 90
        0
280
     0
281
     0
  0
CLASS
  1
LWPOLYLINE
  2
AcDbPolyline
  3
"AutoCAD"
 90
        0
280
     0
281
     1
  0
CLASS
  1
HATCH
  2
AcDbHatch
  3
"ACAD_SEDONA"
 90
        0
280
     0
281
     1
  0
CLASS
  1
XRECORD
  2
AcDbXrecord
  3
"<Built In>"
 90
        0
280
     0
281
     0
  0
CLASS
  1
LONG_TRANSACTION
  2
AcDbLongTransaction
  3
AutoCAD 2000
 90
        0
280
     0
281
     0
  0
CLASS
  1
LWPOLYLINE
  2
AcDbPolyline
  3
"AutoCAD"
 90
        0
280
     0
281
     1
  0
CLASS
  1
HATCH
  2
AcDbHatch
  3
"ACAD_SEDONA"
 90
        0
280
     0
281
     1
  0
CLASS
  1
XRECORD
  2
AcDbXrecord
  3
"<Built In>"
 90
        0
280
     0
281
     0
  0
CLASS
  1
LONG_TRANSACTION
  2
AcDbLongTransaction
  3
AutoCAD 2000
 90
        0
280
     0
281
     0
  0
CLASS
  1
LWPOLYLINE
  2
AcDbPolyline
  3
"AutoCAD"
 90
        0
280
     0
281
     1
  0
CLASS
  1
HATCH
  2
AcDbHatch
  3
"ACAD_SEDONA"
 90
        0
280
     0
281
     1
  0
CLASS
  1
XRECORD
  2
AcDbXrecord
  3
"<Built In>"
 90
        0
280
     0
281
     0
  0
ENDSEC
  0
SECTION
  2
TABLES
  0
TABLE
  2
VPORT
  5
469
100
AcDbSymbolTable
 70
     1
  0
VPORT
  5
8D5
102
{ACAD_XDICTIONARY
360
994
102
}
100
AcDbSymbolTableRecord
100
AcDbViewportTableRecord
  2
*ACTIVE
 70
     0
 10
0.0
 20
0.0
 11
1.0
 21
1.0
 12
0.308039
 22
4.742713
 13
0.0
 23
0.0
 14
1.0
 24
1.0
 15
0.0
 25
0.0
 16
0.0
 26
0.0
 36
1.0
 17
0.0
 27
0.0
 37
0.0
 40
12.915977
 41
2.531469
 42
50.0
 43
0.0
 44
0.0
 50
0.0
 51
0.0
 71
     0
 72
   100
 73
     1
 74
     1
 75
     0
 76
     0
 77
     0
 78
     0
  0
ENDTAB
  0
TABLE
  2
LTYPE
  5
466
100
AcDbSymbolTable
 70
     1
  0
LTYPE
  5
472
100
AcDbSymbolTableRecord
100
AcDbLinetypeTableRecord
  2
BYBLOCK
 70
     0
  3

 72
    65
 73
     0
 40
0.0
  0
LTYPE
  5
473
100
AcDbSymbolTableRecord
100
AcDbLinetypeTableRecord
  2
BYLAYER
 70
     0
  3

 72
    65
 73
     0
 40
0.0
  0
LTYPE
  5
474
100
AcDbSymbolTableRecord
100
AcDbLinetypeTableRecord
  2
CONTINUOUS
 70
     0
  3
Solid line
 72
    65
 73
     0
 40
0.0
  0
ENDTAB
  0
TABLE
  2
LAYER
  5
463
100
AcDbSymbolTable
 70
     8
  0
LAYER
  5
46F
100
AcDbSymbolTableRecord
100
AcDbLayerTableRecord
  2
0
 70
     0
 62
     7
  6
CONTINUOUS
  0
LAYER
  5
485
100
AcDbSymbolTableRecord
100
AcDbLayerTableRecord
  2
AREA1
 70
     0
 62
     7
  6
CONTINUOUS
  0
LAYER
  5
486
100
AcDbSymbolTableRecord
100
AcDbLayerTableRecord
  2
AREA2
 70
     0
 62
     7
  6
CONTINUOUS
  0
LAYER
  5
494
102
{ACAD_XDICTIONARY
360
9C1
102
}
100
AcDbSymbolTableRecord
100
AcDbLayerTableRecord
  2
DEFPOINTS
 70
     0
 62
    -7
  6
CONTINUOUS
  0
LAYER
  5
495
100
AcDbSymbolTableRecord
100
AcDbLayerTableRecord
  2
DIMS-MTG-HOLES
 70
     0
 62
    -1
  6
CONTINUOUS
  0
LAYER
  5
4E9
100
AcDbSymbolTableRecord
100
AcDbLayerTableRecord
  2
SCALE
 70
     0
 62
    -7
  6
CONTINUOUS
  0
LAYER
  5
4EA
100
AcDbSymbolTableRecord
100
AcDbLayerTableRecord
  2
SNAP_POINTS
 70
     0
 62
    -1
  6
CONTINUOUS
  0
LAYER
  5
56D
100
AcDbSymbolTableRecord
100
AcDbLayerTableRecord
  2
ATTRIBUTES
 70
     0
 62
    -7
  6
CONTINUOUS
  0
ENDTAB
  0
TABLE
  2
STYLE
  5
464
100
AcDbSymbolTable
 70
     1
  0
STYLE
  5
470
100
AcDbSymbolTableRecord
100
AcDbTextStyleTableRecord
  2
STANDARD
 70
     0
 40
0.0
 41
1.0
 50
0.0
 71
     0
 42
0.2
  3
txt
  4

  0
ENDTAB
  0
TABLE
  2
VIEW
  5
467
100
AcDbSymbolTable
 70
     0
  0
ENDTAB
  0
TABLE
  2
UCS
  5
468
100
AcDbSymbolTable
 70
     0
  0
ENDTAB
  0
TABLE
  2
APPID
  5
46A
100
AcDbSymbolTable
 70
     2
  0
APPID
  5
471
100
AcDbSymbolTableRecord
100
AcDbRegAppTableRecord
  2
ACAD
 70
     0
  0
APPID
  5
47E
100
AcDbSymbolTableRecord
100
AcDbRegAppTableRecord
  2
AVE_RENDER
 70
     0
  0
ENDTAB
  0
TABLE
  2
DIMSTYLE
  5
46B
100
AcDbSymbolTable
 70
     3
  0
DIMSTYLE
105
496
102
{ACAD_XDICTIONARY
360
9C3
102
}
100
AcDbSymbolTableRecord
100
AcDbDimStyleTableRecord
  2
ABECAD
 70
     0
  3

  4

  5

  6

  7

 40
0.0
 41
0.179688
 42
0.0625
 43
0.375
 44
0.179688
 45
0.0
 46
0.0
 47
0.0
 48
0.0
140
0.125
141
0.089844
142
0.0
143
25.4
144
1.0
145
0.0
146
1.5
147
0.09375
 71
     0
 72
     0
 73
     0
 74
     0
 75
     0
 76
     0
 77
     0
 78
     4
170
     1
171
     1
172
     0
173
     0
174
     1
175
     0
176
     0
177
     0
178
     0
270
     7
271
     6
272
     6
273
     2
274
     1
340
470
275
     0
280
     0
281
     0
282
     0
283
     1
284
     4
285
     4
286
     4
287
     5
288
     0
  0
DIMSTYLE
105
49A
102
{ACAD_XDICTIONARY
360
9C5
102
}
102
{ACAD_REACTORS
330
8C7
102
}
100
AcDbSymbolTableRecord
100
AcDbDimStyleTableRecord
  2
ABECAD_3V
 70
     0
  3

  4

  5

  6

  7

 40
0.0
 41
0.179688
 42
0.0625
 43
0.375
 44
0.179688
 45
0.0
 46
0.0
 47
0.0
 48
0.0
140
0.125
141
0.089844
142
0.0
143
25.4
144
1.0
145
0.0
146
1.5
147
0.09375
 71
     0
 72
     0
 73
     0
 74
     0
 75
     0
 76
     0
 77
     0
 78
     4
170
     1
171
     1
172
     0
173
     0
174
     1
175
     0
176
     0
177
     0
178
     0
270
     7
271
     6
272
     6
273
     2
274
     1
340
470
275
     0
280
     0
281
     0
282
     0
283
     1
284
     4
285
     4
286
     4
287
     5
288
     0
  0
DIMSTYLE
105
56E
102
{ACAD_XDICTIONARY
360
9C9
102
}
102
{ACAD_REACTORS
330
8B7
330
8B8
102
}
100
AcDbSymbolTableRecord
100
AcDbDimStyleTableRecord
  2
ABECAD_3D
 70
     0
  3

  4

  5

  6

  7

 40
1.0
 41
0.18
 42
0.0625
 43
0.375
 44
0.18
 45
0.0
 46
0.0
 47
0.0
 48
0.0
140
0.18
141
0.09
142
0.0
143
25.4
144
1.0
145
0.0
146
1.5
147
0.09
 71
     0
 72
     0
 73
     0
 74
     1
 75
     0
 76
     0
 77
     0
 78
     4
170
     1
171
     1
172
     0
173
     0
174
     0
175
     0
176
     0
177
     0
178
     0
270
     7
271
     6
272
     6
273
     2
274
     1
340
470
275
     0
280
     0
281
     0
282
     0
283
     1
284
     4
285
     4
286
     4
287
     3
288
     0
  0
ENDTAB
  0
TABLE
  2
BLOCK_RECORD
  5
462
100
AcDbSymbolTable
 70
     5
  0
BLOCK_RECORD
  5
478
102
{ACAD_XDICTIONARY
360
4D2
102
}
100
AcDbSymbolTableRecord
100
AcDbBlockTableRecord
  2
*MODEL_SPACE
  0
BLOCK_RECORD
  5
475
102
{ACAD_XDICTIONARY
360
4D0
102
}
100
AcDbSymbolTableRecord
100
AcDbBlockTableRecord
  2
*PAPER_SPACE
  0
BLOCK_RECORD
  5
545
100
AcDbSymbolTableRecord
100
AcDbBlockTableRecord
  2
*D0
  0
BLOCK_RECORD
  5
552
100
AcDbSymbolTableRecord
100
AcDbBlockTableRecord
  2
*D1
  0
BLOCK_RECORD
  5
55F
102
{ACAD_XDICTIONARY
360
990
102
}
100
AcDbSymbolTableRecord
100
AcDbBlockTableRecord
  2
SCALE
1001
ACAD
1000
DesignCenter Data
1002
{
1070
     1
1070
     1
1002
}
  0
BLOCK_RECORD
  5
56F
102
{ACAD_XDICTIONARY
360
992
102
}
100
AcDbSymbolTableRecord
100
AcDbBlockTableRecord
  2
ABIOE040
  0
BLOCK_RECORD
  5
8C8
100
AcDbSymbolTableRecord
100
AcDbBlockTableRecord
  2
*D4
  0
ENDTAB
  0
ENDSEC
  0
SECTION
  2
BLOCKS
  0
BLOCK
  5
48B
100
AcDbEntity
  8
0
100
AcDbBlockBegin
  2
*MODEL_SPACE
 70
     0
 10
0.0
 20
0.0
 30
0.0
  3
*MODEL_SPACE
  1

  0
ENDBLK
  5
48C
100
AcDbEntity
  8
0
100
AcDbBlockEnd
  0
BLOCK
  5
489
100
AcDbEntity
 67
     1
  8
0
100
AcDbBlockBegin
  2
*PAPER_SPACE
 70
     0
 10
0.0
 20
0.0
 30
0.0
  3
*PAPER_SPACE
  1

  0
ENDBLK
  5
48A
100
AcDbEntity
 67
     1
  8
0
100
AcDbBlockEnd
  0
BLOCK
  5
550
100
AcDbEntity
  8
0
100
AcDbBlockBegin
  2
*D0
 70
     1
 10
0.0
 20
0.0
 30
0.0
  3
*D0
  1

  0
LINE
  5
546
100
AcDbEntity
  8
AREA1
 62
     0
100
AcDbLine
 10
-0.163868
 20
-0.562545
 30
0.0
 11
1.470548
 21
-0.562545
 31
0.0
1001
ACAD
1000
RTLwPs
1070
   158
  0
LINE
  5
547
100
AcDbEntity
  8
AREA1
 62
     0
100
AcDbLine
 10
0.3275
 20
10.0432
 30
0.0
 11
1.470548
 21
10.0432
 31
0.0
1001
ACAD
1000
RTLwPs
1070
   158
  0
LINE
  5
548
100
AcDbEntity
  8
AREA1
 62
     0
100
AcDbLine
 10
1.290548
 20
-0.382545
 30
0.0
 11
1.290548
 21
3.405327
 31
0.0
1001
ACAD
1000
RTLwPs
1070
   158
  0
LINE
  5
549
100
AcDbEntity
  8
AREA1
 62
     0
100
AcDbLine
 10
1.290548
 20
9.8632
 30
0.0
 11
1.290548
 21
6.075327
 31
0.0
1001
ACAD
1000
RTLwPs
1070
   158
  0
SOLID
  5
54A
100
AcDbEntity
  8
AREA1
 62
     0
100
AcDbTrace
 10
1.260548
 20
-0.382545
 30
0.0
 11
1.320548
 21
-0.382545
 31
0.0
 12
1.290548
 22
-0.562545
 32
0.0
 13
1.290548
 23
-0.562545
 33
0.0
  0
SOLID
  5
54B
100
AcDbEntity
  8
AREA1
 62
     0
100
AcDbTrace
 10
1.260548
 20
9.8632
 30
0.0
 11
1.320548
 21
9.8632
 31
0.0
 12
1.290548
 22
10.0432
 32
0.0
 13
1.290548
 23
10.0432
 33
0.0
  0
MTEXT
  5
54C
100
AcDbEntity
  8
AREA1
 62
     0
100
AcDbMText
 10
1.290548
 20
4.740327
 30
0.0
 40
0.18
 41
0.0
 71
     5
 72
     1
  1
\A1;10 39/64 [269.4]
 11
0.0
 21
1.0
 31
0.0
1001
ACAD
1000
MTEXTBEGIN
1070
    73
1070
     1
1070
    44
1040
1.0
1070
    74
1070
     0
1000
MTEXTEND
1000
MTEXTBEGIN
1070
    73
1070
     1
1070
    44
1040
1.0
1070
    74
1070
     0
1000
MTEXTEND
1000
MTEXTBEGIN
1070
    73
1070
     1
1070
    44
1040
1.0
1070
    74
1070
     0
1000
MTEXTEND
1000
MTEXTBEGIN
1070
    73
1070
     1
1070
    44
1040
1.0
1070
    74
1070
     0
1000
MTEXTEND
1000
MTEXTBEGIN
1070
    73
1070
     1
1070
    44
1040
1.0
1070
    74
1070
     0
1000
MTEXTEND
1000
MTEXTBEGIN
1070
    73
1070
     1
1070
    44
1040
1.0
1070
    74
1070
     0
1000
MTEXTEND
1000
MTEXTBEGIN
1070
    73
1070
     1
1070
    44
1040
1.0
1070
    74
1070
     0
1000
MTEXTEND
  0
POINT
  5
54D
100
AcDbEntity
  8
DEFPOINTS
 62
     0
100
AcDbPoint
 10
-0.226368
 20
-0.562545
 30
5.88
  0
POINT
  5
54E
100
AcDbEntity
  8
DEFPOINTS
 62
     0
100
AcDbPoint
 10
0.265
 20
10.0432
 30
5.747
  0
POINT
  5
54F
100
AcDbEntity
  8
DEFPOINTS
 62
     0
100
AcDbPoint
 10
1.290548
 20
10.0432
 30
0.0
  0
ENDBLK
  5
551
100
AcDbEntity
  8
0
100
AcDbBlockEnd
  0
BLOCK
  5
55D
100
AcDbEntity
  8
0
100
AcDbBlockBegin
  2
*D1
 70
     1
 10
0.0
 20
0.0
 30
0.0
  3
*D1
  1

  0
LINE
  5
553
100
AcDbEntity
  8
AREA1
 62
     0
100
AcDbLine
 10
-1.025435
 20
0.37789
 30
0.0
 11
-1.025435
 21
11.068456
 31
0.0
1001
ACAD
1000
RTLwPs
1070
   158
  0
LINE
  5
554
100
AcDbEntity
  8
AREA1
 62
     0
100
AcDbLine
 10
0.265
 20
10.1057
 30
0.0
 11
0.265
 21
11.068456
 31
0.0
1001
ACAD
1000
RTLwPs
1070
   158
  0
LINE
  5
555
100
AcDbEntity
  8
AREA1
 62
     0
100
AcDbLine
 10
-0.845435
 20
10.888456
 30
0.0
 11
0.085
 21
10.888456
 31
0.0
1001
ACAD
1000
RTLwPs
1070
   158
  0
LINE
  5
556
100
AcDbEntity
  8
AREA1
 62
     0
100
AcDbLine
 10
0.265
 20
10.888456
 30
0.0
 11
0.445
 21
10.888456
 31
0.0
1001
ACAD
1000
RTLwPs
1070
   158
  0
SOLID
  5
557
100
AcDbEntity
  8
AREA1
 62
     0
100
AcDbTrace
 10
-0.845435
 20
10.918456
 30
0.0
 11
-0.845435
 21
10.858456
 31
0.0
 12
-1.025435
 22
10.888456
 32
0.0
 13
-1.025435
 23
10.888456
 33
0.0
  0
SOLID
  5
558
100
AcDbEntity
  8
AREA1
 62
     0
100
AcDbTrace
 10
0.085
 20
10.918456
 30
0.0
 11
0.085
 21
10.858456
 31
0.0
 12
0.265
 22
10.888456
 32
0.0
 13
0.265
 23
10.888456
 33
0.0
  0
MTEXT
  5
559
100
AcDbEntity
  8
AREA1
 62
     0
100
AcDbMText
 10
1.585
 20
10.888456
 30
0.0
 40
0.18
 41
0.0
 71
     5
 72
     1
  1
\A1;1 19/64 [32.8]
1001
ACAD
1000
MTEXTBEGIN
1070
    73
1070
     1
1070
    44
1040
1.0
1070
    74
1070
     0
1000
MTEXTEND
1000
MTEXTBEGIN
1070
    73
1070
     1
1070
    44
1040
1.0
1070
    74
1070
     0
1000
MTEXTEND
1000
MTEXTBEGIN
1070
    73
1070
     1
1070
    44
1040
1.0
1070
    74
1070
     0
1000
MTEXTEND
1000
MTEXTBEGIN
1070
    73
1070
     1
1070
    44
1040
1.0
1070
    74
1070
     0
1000
MTEXTEND
1000
MTEXTBEGIN
1070
    73
1070
     1
1070
    44
1040
1.0
1070
    74
1070
     0
1000
MTEXTEND
1000
MTEXTBEGIN
1070
    73
1070
     1
1070
    44
1040
1.0
1070
    74
1070
     0
1000
MTEXTEND
1000
MTEXTBEGIN
1070
    73
1070
     1
1070
    44
1040
1.0
1070
    74
1070
     0
1000
MTEXTEND
  0
POINT
  5
55A
100
AcDbEntity
  8
DEFPOINTS
 62
     0
100
AcDbPoint
 10
-1.025435
 20
0.31539
 30
5.88
  0
POINT
  5
55B
100
AcDbEntity
  8
DEFPOINTS
 62
     0
100
AcDbPoint
 10
0.265
 20
10.0432
 30
5.747
  0
POINT
  5
55C
100
AcDbEntity
  8
DEFPOINTS
 62
     0
100
AcDbPoint
 10
0.265
 20
10.888456
 30
0.0
  0
ENDBLK
  5
55E
100
AcDbEntity
  8
0
100
AcDbBlockEnd
  0
BLOCK
  5
56B
100
AcDbEntity
  8
0
100
AcDbBlockBegin
  2
SCALE
 70
     0
 10
0.0
 20
0.0
 30
0.0
  3
SCALE
  1

  0
LINE
  5
560
100
AcDbEntity
  8
SCALE
100
AcDbLine
 10
0.057999
 20
-0.380078
 30
0.0
 11
1.057999
 21
-0.380078
 31
0.0
  0
LWPOLYLINE
  5
561
100
AcDbEntity
  8
SCALE
100
AcDbPolyline
 90
        4
 70
     1
 43
0.0
 10
0.0
 20
0.0
 10
1.135629
 20
0.0
 10
1.135629
 20
-0.84161
 10
0.0
 20
-0.84161
  0
LINE
  5
562
100
AcDbEntity
  8
SCALE
100
AcDbLine
 10
0.057999
 20
-0.480078
 30
0.0
 11
0.057999
 21
-0.280078
 31
0.0
  0
TEXT
  5
563
100
AcDbEntity
  8
SCALE
100
AcDbText
 10
0.117421
 20
-0.634339
 30
0.0
 40
0.0625
  1
[10mm]
100
AcDbText
  0
LINE
  5
564
100
AcDbEntity
  8
SCALE
100
AcDbLine
 10
0.057999
 20
-0.680078
 30
0.0
 11
0.451699
 21
-0.680078
 31
0.0
  0
LINE
  5
565
100
AcDbEntity
  8
SCALE
100
AcDbLine
 10
0.057999
 20
-0.780078
 30
0.0
 11
0.057999
 21
-0.580078
 31
0.0
  0
LINE
  5
566
100
AcDbEntity
  8
SCALE
100
AcDbLine
 10
0.451699
 20
-0.780078
 30
0.0
 11
0.451699
 21
-0.580078
 31
0.0
  0
TEXT
  5
567
100
AcDbEntity
  8
SCALE
100
AcDbText
 10
0.059529
 20
-0.105201
 30
0.0
 40
0.0625
  1
SCALE:
100
AcDbText
  0
TEXT
  5
568
100
AcDbEntity
  8
SCALE
100
AcDbText
 10
0.421282
 20
-0.31103
 30
0.0
 40
0.0625
  1
1 Inch
100
AcDbText
  0
LINE
  5
569
100
AcDbEntity
  8
SCALE
100
AcDbLine
 10
1.057999
 20
-0.380078
 30
0.0
 11
1.057999
 21
-0.480078
 31
0.0
  0
LINE
  5
56A
100
AcDbEntity
  8
SCALE
100
AcDbLine
 10
1.057999
 20
-0.480078
 30
0.0
 11
1.057999
 21
-0.280078
 31
0.0
  0
ENDBLK
  5
56C
100
AcDbEntity
  8
0
100
AcDbBlockEnd
  0
BLOCK
  5
8BA
100
AcDbEntity
  8
0
100
AcDbBlockBegin
  2
ABIOE040
 70
     2
 10
0.0
 20
0.0
 30
0.0
  3
ABIOE040
  1

  0
ATTDEF
  5
570
100
AcDbEntity
  8
ATTRIBUTES
100
AcDbText
 10
-0.818969
 20
1.293469
 30
0.0
 40
0.06
  1
ALLEN-BRADLEY
100
AcDbAttributeDefinition
  3
MANUFACTURER NAME?
  2
AC_VND_LABEL
 70
     1
  0
ATTDEF
  5
571
100
AcDbEntity
  8
ATTRIBUTES
100
AcDbText
 10
-0.818969
 20
1.168469
 30
0.0
 40
0.06
  1
1771-IA/B,IA2
100
AcDbAttributeDefinition
  3
CATALOG NUMBER?
  2
AC_PART_NO
 70
     1
  0
ATTDEF
  5
572
100
AcDbEntity
  8
ATTRIBUTES
100
AcDbText
 10
-0.818969
 20
1.043469
 30
0.0
 40
0.06
  1
1771-IA/B,IA2:120V AC/DC INPUT MODULE, 8 INPUTS
100
AcDbAttributeDefinition
  3
PART DESCRIPTION?
  2
AC_DESCRIPTION
 70
     1
  0
ATTDEF
  5
573
100
AcDbEntity
  8
ATTRIBUTES
100
AcDbText
 10
-0.818969
 20
0.918469
 30
0.0
 40
0.06
  1

100
AcDbAttributeDefinition
  3
DEVICE ID?
  2
DEVICE_ID
 70
     1
  0
ATTDEF
  5
574
100
AcDbEntity
  8
ATTRIBUTES
100
AcDbText
 10
-0.818969
 20
0.793469
 30
0.0
 40
0.06
  1

100
AcDbAttributeDefinition
  3
CUSTOMER PART NUMBER?
  2
AC_CPART_NO
 70
     1
  0
ATTDEF
  5
575
100
AcDbEntity
  8
ATTRIBUTES
100
AcDbText
 10
-0.818969
 20
0.668469
 30
0.0
 40
0.06
  1

100
AcDbAttributeDefinition
  3
CUSTOMER NOTE?
  2
AC_NOTE
 70
     1
  0
ATTDEF
  5
576
100
AcDbEntity
  8
ATTRIBUTES
100
AcDbText
 10
-0.818969
 20
0.543469
 30
0.0
 40
0.06
  1

100
AcDbAttributeDefinition
  3
FASTENER DATA?
  2
FASTENER
 70
     1
  0
ATTDEF
  5
577
100
AcDbEntity
  8
ATTRIBUTES
100
AcDbText
 10
-0.818969
 20
0.418469
 30
0.0
 40
0.06
  1
INCH
100
AcDbAttributeDefinition
  3
UNIT OF SCALE?
  2
AC_SCALE_UNIT
 70
     1
  0
ATTDEF
  5
578
100
AcDbEntity
  8
ATTRIBUTES
100
AcDbText
 10
-0.818969
 20
0.293469
 30
0.0
 40
0.06
  1
0
100
AcDbAttributeDefinition
  3
VIEW CODE?
  2
AC_VIEW_CODE
 70
     1
  0
POLYLINE
  5
579
100
AcDbEntity
  8
0
100
AcDbPolygonMesh
 66
     1
 10
0.0
 20
0.0
 30
0.0
 70
    16
 71
     6
 72
     3
  0
VERTEX
  5
57A
100
AcDbEntity
  8
0
100
AcDbVertex
100
AcDbPolygonMeshVertex
 10
0.27
 20
0.2
 30
5.39
 70
    64
  0
VERTEX
  5
57B
100
AcDbEntity
  8
0
100
AcDbVertex
100
AcDbPolygonMeshVertex
 10
0.27
 20
0.2
 30
0.0
 70
    64
  0
VERTEX
  5
57C
100
AcDbEntity
  8
0
100
AcDbVertex
100
AcDbPolygonMeshVertex
 10
0.27
 20
0.2
 30
0.0
 70
    64
  0
VERTEX
  5
57D
100
AcDbEntity
  8
0
100
AcDbVertex
100
AcDbPolygonMeshVertex
 10
-0.89
 20
0.2
 30
5.39
 70
    64
  0
VERTEX
  5
57E
100
AcDbEntity
  8
0
100
AcDbVertex
100
AcDbPolygonMeshVertex
 10
-0.89
 20
0.2
 30
0.0
 70
    64
  0
VERTEX
  5
57F
100
AcDbEntity
  8
0
100
AcDbVertex
100
AcDbPolygonMeshVertex
 10
-0.89
 20
0.2
 30
0.0
 70
    64
  0
VERTEX
  5
580
100
AcDbEntity
  8
0
100
AcDbVertex
100
AcDbPolygonMeshVertex
 10
-0.89
 20
9.8
 30
5.39
 70
    64
  0
VERTEX
  5
581
100
AcDbEntity
  8
0
100
AcDbVertex
100
AcDbPolygonMeshVertex
 10
-0.89
 20
9.8
 30
0.0
 70
    64
  0
VERTEX
  5
582
100
AcDbEntity
  8
0
100
AcDbVertex
100
AcDbPolygonMeshVertex
 10
-0.89
 20
0.2
 30
0.0
 70
    64
  0
VERTEX
  5
583
100
AcDbEntity
  8
0
100
AcDbVertex
100
AcDbPolygonMeshVertex
 10
0.27
 20
9.8
 30
5.39
 70
    64
  0
VERTEX
  5
584
100
AcDbEntity
  8
0
100
AcDbVertex
100
AcDbPolygonMeshVertex
 10
0.27
 20
9.8
 30
0.0
 70
    64
  0
VERTEX
  5
585
100
AcDbEntity
  8
0
100
AcDbVertex
100
AcDbPolygonMeshVertex
 10
0.27
 20
0.2
 30
0.0
 70
    64
  0
VERTEX
  5
586
100
AcDbEntity
  8
0
100
AcDbVertex
100
AcDbPolygonMeshVertex
 10
0.27
 20
9.8
 30
5.39
 70
    64
  0
VERTEX
  5
587
100
AcDbEntity
  8
0
100
AcDbVertex
100
AcDbPolygonMeshVertex
 10
0.27
 20
9.8
 30
5.39
 70
    64
  0
VERTEX
  5
588
100
AcDbEntity
  8
0
100
AcDbVertex
100
AcDbPolygonMeshVertex
 10
0.27
 20
0.2
 30
5.39
 70
    64
  0
VERTEX
  5
589
100
AcDbEntity
  8
0
100
AcDbVertex
100
AcDbPolygonMeshVertex
 10
-0.89
 20
9.8
 30
5.39
 70
    64
  0
VERTEX
  5
58A
100
AcDbEntity
  8
0
100
AcDbVertex
100
AcDbPolygonMeshVertex
 10
-0.89
 20
9.8
 30
5.39
 70
    64
  0
VERTEX
  5
58B
100
AcDbEntity
  8
0
100
AcDbVertex
100
AcDbPolygonMeshVertex
 10
-0.89
 20
0.2
 30
5.39
 70
    64
  0
SEQEND
  5
58C
100
AcDbEntity
  8
0
  0
POLYLINE
  5
58D
100
AcDbEntity
  8
0
100
AcDbPolygonMesh
 66
     1
 10
0.0
 20
0.0
 30
0.0
 70
    16
 71
     6
 72
     3
  0
VERTEX
  5
58E
100
AcDbEntity
  8
0
100
AcDbVertex
100
AcDbPolygonMeshVertex
 10
0.27
 20
0.2
 30
5.88
 70
    64
  0
VERTEX
  5
58F
100
AcDbEntity
  8
0
100
AcDbVertex
100
AcDbPolygonMeshVertex
 10
0.27
 20
0.2
 30
5.39
 70
    64
  0
VERTEX
  5
590
100
AcDbEntity
  8
0
100
AcDbVertex
100
AcDbPolygonMeshVertex
 10
0.27
 20
0.2
 30
5.39
 70
    64
  0
VERTEX
  5
591
100
AcDbEntity
  8
0
100
AcDbVertex
100
AcDbPolygonMeshVertex
 10
-0.89
 20
0.2
 30
5.88
 70
    64
  0
VERTEX
  5
592
100
AcDbEntity
  8
0
100
AcDbVertex
100
AcDbPolygonMeshVertex
 10
-0.89
 20
0.2
 30
5.39
 70
    64
  0
VERTEX
  5
593
100
AcDbEntity
  8
0
100
AcDbVertex
100
AcDbPolygonMeshVertex
 10
-0.89
 20
0.2
 30
5.39
 70
    64
  0
VERTEX
  5
594
100
AcDbEntity
  8
0
100
AcDbVertex
100
AcDbPolygonMeshVertex
 10
-0.89
 20
8.162
 30
5.88
 70
    64
  0
VERTEX
  5
595
100
AcDbEntity
  8
0
100
AcDbVertex
100
AcDbPolygonMeshVertex
 10
-0.89
 20
8.162
 30
5.39
 70
    64
  0
VERTEX
  5
596
100
AcDbEntity
  8
0
100
AcDbVertex
100
AcDbPolygonMeshVertex
 10
-0.89
 20
0.2
 30
5.39
 70
    64
  0
VERTEX
  5
597
100
AcDbEntity
  8
0
100
AcDbVertex
100
AcDbPolygonMeshVertex
 10
0.27
 20
8.162
 30
5.88
 70
    64
  0
VERTEX
  5
598
100
AcDbEntity
  8
0
100
AcDbVertex
100
AcDbPolygonMeshVertex
 10
0.27
 20
8.162
 30
5.39
 70
    64
  0
VERTEX
  5
599
100
AcDbEntity
  8
0
100
AcDbVertex
100
AcDbPolygonMeshVertex
 10
0.27
 20
0.2
 30
5.39
 70
    64
  0
VERTEX
  5
59A
100
AcDbEntity
  8
0
100
AcDbVertex
100
AcDbPolygonMeshVertex
 10
0.27
 20
8.162
 30
5.88
 70
    64
  0
VERTEX
  5
59B
100
AcDbEntity
  8
0
100
AcDbVertex
100
AcDbPolygonMeshVertex
 10
0.27
 20
8.162
 30
5.88
 70
    64
  0
VERTEX
  5
59C
100
AcDbEntity
  8
0
100
AcDbVertex
100
AcDbPolygonMeshVertex
 10
0.27
 20
0.2
 30
5.88
 70
    64
  0
VERTEX
  5
59D
100
AcDbEntity
  8
0
100
AcDbVertex
100
AcDbPolygonMeshVertex
 10
-0.89
 20
8.162
 30
5.88
 70
    64
  0
VERTEX
  5
59E
100
AcDbEntity
  8
0
100
AcDbVertex
100
AcDbPolygonMeshVertex
 10
-0.89
 20
8.162
 30
5.88
 70
    64
  0
VERTEX
  5
59F
100
AcDbEntity
  8
0
100
AcDbVertex
100
AcDbPolygonMeshVertex
 10
-0.89
 20
0.2
 30
5.88
 70
    64
  0
SEQEND
  5
5A0
100
AcDbEntity
  8
0
  0
POLYLINE
  5
5A1
100
AcDbEntity
  8
0
100
AcDbPolygonMesh
 66
     1
 10
0.0
 20
0.0
 30
0.0
 70
    16
 71
     6
 72
     3
  0
VERTEX
  5
5A2
100
AcDbEntity
  8
0
100
AcDbVertex
100
AcDbPolygonMeshVertex
 10
0.068
 20
0.0
 30
4.755
 70
    64
  0
VERTEX
  5
5A3
100
AcDbEntity
  8
0
100
AcDbVertex
100
AcDbPolygonMeshVertex
 10
0.068
 20
0.0
 30
0.0
 70
    64
  0
VERTEX
  5
5A4
100
AcDbEntity
  8
0
100
AcDbVertex
100
AcDbPolygonMeshVertex
 10
0.068
 20
0.0
 30
0.0
 70
    64
  0
VERTEX
  5
5A5
100
AcDbEntity
  8
0
100
AcDbVertex
100
AcDbPolygonMeshVertex
 10
0.0
 20
0.0
 30
4.755
 70
    64
  0
VERTEX
  5
5A6
100
AcDbEntity
  8
0
100
AcDbVertex
100
AcDbPolygonMeshVertex
 10
0.0
 20
0.0
 30
0.0
 70
    64
  0
VERTEX
  5
5A7
100
AcDbEntity
  8
0
100
AcDbVertex
100
AcDbPolygonMeshVertex
 10
0.0
 20
0.0
 30
0.0
 70
    64
  0
VERTEX
  5
5A8
100
AcDbEntity
  8
0
100
AcDbVertex
100
AcDbPolygonMeshVertex
 10
0.0
 20
0.2
 30
4.755
 70
    64
  0
VERTEX
  5
5A9
100
AcDbEntity
  8
0
100
AcDbVertex
100
AcDbPolygonMeshVertex
 10
0.0
 20
0.2
 30
0.0
 70
    64
  0
VERTEX
  5
5AA
100
AcDbEntity
  8
0
100
AcDbVertex
100
AcDbPolygonMeshVertex
 10
0.0
 20
0.0
 30
0.0
 70
    64
  0
VERTEX
  5
5AB
100
AcDbEntity
  8
0
100
AcDbVertex
100
AcDbPolygonMeshVertex
 10
0.068
 20
0.2
 30
4.755
 70
    64
  0
VERTEX
  5
5AC
100
AcDbEntity
  8
0
100
AcDbVertex
100
AcDbPolygonMeshVertex
 10
0.068
 20
0.2
 30
0.0
 70
    64
  0
VERTEX
  5
5AD
100
AcDbEntity
  8
0
100
AcDbVertex
100
AcDbPolygonMeshVertex
 10
0.068
 20
0.0
 30
0.0
 70
    64
  0
VERTEX
  5
5AE
100
AcDbEntity
  8
0
100
AcDbVertex
100
AcDbPolygonMeshVertex
 10
0.068
 20
0.2
 30
4.755
 70
    64
  0
VERTEX
  5
5AF
100
AcDbEntity
  8
0
100
AcDbVertex
100
AcDbPolygonMeshVertex
 10
0.068
 20
0.2
 30
4.755
 70
    64
  0
VERTEX
  5
5B0
100
AcDbEntity
  8
0
100
AcDbVertex
100
AcDbPolygonMeshVertex
 10
0.068
 20
0.0
 30
4.755
 70
    64
  0
VERTEX
  5
5B1
100
AcDbEntity
  8
0
100
AcDbVertex
100
AcDbPolygonMeshVertex
 10
0.0
 20
0.2
 30
4.755
 70
    64
  0
VERTEX
  5
5B2
100
AcDbEntity
  8
0
100
AcDbVertex
100
AcDbPolygonMeshVertex
 10
0.0
 20
0.2
 30
4.755
 70
    64
  0
VERTEX
  5
5B3
100
AcDbEntity
  8
0
100
AcDbVertex
100
AcDbPolygonMeshVertex
 10
0.0
 20
0.0
 30
4.755
 70
    64
  0
SEQEND
  5
5B4
100
AcDbEntity
  8
0
  0
POINT
  5
5B5
100
AcDbEntity
  8
SNAP_POINTS
100
AcDbPoint
 10
0.034
 20
0.0
 30
0.0
  0
LINE
  5
5B6
100
AcDbEntity
  8
0
100
AcDbLine
 10
-0.593237
 20
0.425898
 30
5.88
 11
-0.593237
 21
3.911873
 31
5.88
  0
LINE
  5
5B7
100
AcDbEntity
  8
0
100
AcDbLine
 10
0.060088
 20
0.516311
 30
5.88
 11
0.060088
 21
3.911873
 31
5.88
  0
LINE
  5
5B8
100
AcDbEntity
  8
0
100
AcDbLine
 10
-0.402264
 20
1.475708
 30
5.88
 11
-0.402264
 21
1.229581
 31
5.88
  0
LINE
  5
5B9
100
AcDbEntity
  8
0
100
AcDbLine
 10
-0.311803
 20
1.435523
 30
5.88
 11
-0.150985
 21
1.269764
 31
5.88
  0
LINE
  5
5BA
100
AcDbEntity
  8
0
100
AcDbLine
 10
-0.161036
 20
1.440547
 30
5.88
 11
-0.140936
 21
1.420455
 31
5.88
  0
LINE
  5
5BB
100
AcDbEntity
  8
0
100
AcDbLine
 10
-0.331905
 20
1.415433
 30
5.88
 11
-0.311803
 21
1.435523
 31
5.88
  0
LINE
  5
5BC
100
AcDbEntity
  8
0
100
AcDbLine
 10
0.195778
 20
4.183115
 30
5.88
 11
0.195778
 21
0.425898
 31
5.88
  0
LINE
  5
5BD
100
AcDbEntity
  8
0
100
AcDbLine
 10
-0.7239
 20
4.213253
 30
5.88
 11
-0.7239
 21
0.486173
 31
5.88
  0
LINE
  5
5BE
100
AcDbEntity
  8
0
100
AcDbLine
 10
-0.593237
 20
0.425898
 30
5.88
 11
-0.94
 21
0.23
 31
5.88
  0
LINE
  5
5BF
100
AcDbEntity
  8
0
100
AcDbLine
 10
-0.864618
 20
-0.040151
 30
5.88
 11
-0.864618
 21
0.270183
 31
5.88
  0
LINE
  5
5C0
100
AcDbEntity
  8
0
100
AcDbLine
 10
-0.94
 20
-0.040151
 30
5.88
 11
-0.864618
 21
-0.040151
 31
5.88
  0
LINE
  5
5C1
100
AcDbEntity
  8
0
100
AcDbLine
 10
-0.718874
 20
0.491197
 30
5.88
 11
-1.025435
 21
0.31539
 31
5.88
  0
LINE
  5
5C2
100
AcDbEntity
  8
0
100
AcDbLine
 10
-0.402264
 20
0.782531
 30
5.88
 11
-0.402264
 21
0.425898
 31
5.88
  0
LINE
  5
5C3
100
AcDbEntity
  8
0
100
AcDbLine
 10
-0.311803
 20
0.742346
 30
5.88
 11
-0.150985
 21
0.571565
 31
5.88
  0
LINE
  5
5C4
100
AcDbEntity
  8
0
100
AcDbLine
 10
-0.331905
 20
0.591657
 30
5.88
 11
-0.346983
 21
0.616772
 31
5.88
  0
LINE
  5
5C5
100
AcDbEntity
  8
0
100
AcDbLine
 10
-0.120832
 20
0.621795
 30
5.88
 11
-0.130883
 21
0.596679
 31
5.88
  0
LINE
  5
5C6
100
AcDbEntity
  8
0
100
AcDbLine
 10
0.195778
 20
0.425898
 30
5.88
 11
-0.130883
 21
0.425898
 31
5.88
  0
LINE
  5
5C7
100
AcDbEntity
  8
0
100
AcDbLine
 10
-0.311803
 20
0.516311
 30
5.88
 11
0.195778
 21
0.516311
 31
5.88
  0
LINE
  5
5C8
100
AcDbEntity
  8
0
100
AcDbLine
 10
-0.407289
 20
0.235022
 30
5.88
 11
-0.407289
 21
-0.040151
 31
5.88
  0
LINE
  5
5C9
100
AcDbEntity
  8
0
100
AcDbLine
 10
-0.407289
 20
-0.040151
 30
5.88
 11
-0.311803
 21
-0.040151
 31
5.88
  0
LINE
  5
5CA
100
AcDbEntity
  8
0
100
AcDbLine
 10
-0.593237
 20
0.425898
 30
5.88
 11
-0.311803
 21
0.425898
 31
5.88
  0
LINE
  5
5CB
100
AcDbEntity
  8
0
100
AcDbLine
 10
-0.407289
 20
0.235022
 30
5.88
 11
-0.311803
 21
0.235022
 31
5.88
  0
LINE
  5
5CC
100
AcDbEntity
  8
0
100
AcDbLine
 10
-0.130883
 20
0.425898
 30
5.88
 11
-0.226368
 21
0.375667
 31
5.88
  0
LINE
  5
5CD
100
AcDbEntity
  8
0
100
AcDbLine
 10
-0.216318
 20
0.536404
 30
5.88
 11
-0.246471
 21
0.536404
 31
5.88
  0
LINE
  5
5CE
100
AcDbEntity
  8
0
100
AcDbLine
 10
-0.316828
 20
0.571565
 30
5.88
 11
-0.331905
 21
0.591657
 31
5.88
  0
LINE
  5
5CF
100
AcDbEntity
  8
0
100
AcDbLine
 10
-0.296726
 20
0.556496
 30
5.88
 11
-0.316828
 21
0.571565
 31
5.88
  0
LINE
  5
5D0
100
AcDbEntity
  8
0
100
AcDbLine
 10
-0.271599
 20
0.541427
 30
5.88
 11
-0.296726
 21
0.556496
 31
5.88
  0
LINE
  5
5D1
100
AcDbEntity
  8
0
100
AcDbLine
 10
-0.246471
 20
0.536404
 30
5.88
 11
-0.271599
 21
0.541427
 31
5.88
  0
LINE
  5
5D2
100
AcDbEntity
  8
0
100
AcDbLine
 10
-0.191191
 20
0.546449
 30
5.88
 11
-0.216318
 21
0.536404
 31
5.88
  0
LINE
  5
5D3
100
AcDbEntity
  8
0
100
AcDbLine
 10
-0.166063
 20
0.556496
 30
5.88
 11
-0.191191
 21
0.546449
 31
5.88
  0
LINE
  5
5D4
100
AcDbEntity
  8
0
100
AcDbLine
 10
-0.14596
 20
0.576589
 30
5.88
 11
-0.166063
 21
0.556496
 31
5.88
  0
LINE
  5
5D5
100
AcDbEntity
  8
0
100
AcDbLine
 10
-0.130883
 20
0.596679
 30
5.88
 11
-0.14596
 21
0.576589
 31
5.88
  0
LINE
  5
5D6
100
AcDbEntity
  8
0
100
AcDbLine
 10
-0.075603
 20
0.425898
 30
5.88
 11
-0.075603
 21
-0.015037
 31
5.88
  0
LINE
  5
5D7
100
AcDbEntity
  8
0
100
AcDbLine
 10
0.024909
 20
-0.015037
 30
5.88
 11
0.024909
 21
0.425898
 31
5.88
  0
LINE
  5
5D8
100
AcDbEntity
  8
0
100
AcDbLine
 10
0.266135
 20
0.194839
 30
5.88
 11
0.195778
 21
0.124516
 31
5.88
  0
LINE
  5
5D9
100
AcDbEntity
  8
0
100
AcDbLine
 10
0.195778
 20
0.124516
 30
5.88
 11
0.024909
 21
0.124516
 31
5.88
  0
LINE
  5
5DA
100
AcDbEntity
  8
0
100
AcDbLine
 10
-0.075603
 20
-0.015037
 30
5.88
 11
0.024909
 21
-0.015037
 31
5.88
  0
LINE
  5
5DB
100
AcDbEntity
  8
0
100
AcDbLine
 10
0.060088
 20
0.782531
 30
5.88
 11
-0.532929
 21
0.782531
 31
5.88
  0
LINE
  5
5DC
100
AcDbEntity
  8
0
100
AcDbLine
 10
-0.532929
 20
0.882992
 30
5.88
 11
0.060088
 21
0.882992
 31
5.88
  0
LINE
  5
5DD
100
AcDbEntity
  8
0
100
AcDbLine
 10
0.060088
 20
1.12912
 30
5.88
 11
-0.532929
 21
1.12912
 31
5.88
  0
LINE
  5
5DE
100
AcDbEntity
  8
0
100
AcDbLine
 10
-0.532929
 20
1.229581
 30
5.88
 11
0.060088
 21
1.229581
 31
5.88
  0
LINE
  5
5DF
100
AcDbEntity
  8
0
100
AcDbLine
 10
-0.402264
 20
1.12912
 30
5.88
 11
-0.402264
 21
0.882992
 31
5.88
  0
LINE
  5
5E0
100
AcDbEntity
  8
0
100
AcDbLine
 10
-0.311803
 20
1.088935
 30
5.88
 11
-0.150985
 21
0.918153
 31
5.88
  0
LINE
  5
5E1
100
AcDbEntity
  8
0
100
AcDbLine
 10
-0.120832
 20
1.023636
 30
5.88
 11
-0.115805
 21
0.998522
 31
5.88
  0
LINE
  5
5E2
100
AcDbEntity
  8
0
100
AcDbLine
 10
-0.352009
 20
0.993498
 30
5.88
 11
-0.352009
 21
1.018614
 31
5.88
  0
LINE
  5
5E3
100
AcDbEntity
  8
0
100
AcDbLine
 10
-0.532929
 20
0.782531
 30
5.88
 11
-0.532929
 21
0.882992
 31
5.88
  0
LINE
  5
5E4
100
AcDbEntity
  8
0
100
AcDbLine
 10
-0.23642
 20
0.772486
 30
5.88
 11
-0.211293
 21
0.767463
 31
5.88
  0
LINE
  5
5E5
100
AcDbEntity
  8
0
100
AcDbLine
 10
-0.346983
 20
0.616772
 30
5.88
 11
-0.352009
 21
0.641888
 31
5.88
  0
LINE
  5
5E6
100
AcDbEntity
  8
0
100
AcDbLine
 10
-0.261548
 20
0.767463
 30
5.88
 11
-0.23642
 21
0.772486
 31
5.88
  0
LINE
  5
5E7
100
AcDbEntity
  8
0
100
AcDbLine
 10
-0.286675
 20
0.757417
 30
5.88
 11
-0.261548
 21
0.767463
 31
5.88
  0
LINE
  5
5E8
100
AcDbEntity
  8
0
100
AcDbLine
 10
-0.311803
 20
0.742346
 30
5.88
 11
-0.286675
 21
0.757417
 31
5.88
  0
LINE
  5
5E9
100
AcDbEntity
  8
0
100
AcDbLine
 10
-0.331905
 20
0.722256
 30
5.88
 11
-0.311803
 21
0.742346
 31
5.88
  0
LINE
  5
5EA
100
AcDbEntity
  8
0
100
AcDbLine
 10
-0.341956
 20
0.69714
 30
5.88
 11
-0.331905
 21
0.722256
 31
5.88
  0
LINE
  5
5EB
100
AcDbEntity
  8
0
100
AcDbLine
 10
-0.352009
 20
0.672026
 30
5.88
 11
-0.341956
 21
0.69714
 31
5.88
  0
LINE
  5
5EC
100
AcDbEntity
  8
0
100
AcDbLine
 10
-0.352009
 20
0.641888
 30
5.88
 11
-0.352009
 21
0.672026
 31
5.88
  0
LINE
  5
5ED
100
AcDbEntity
  8
0
100
AcDbLine
 10
-0.115805
 20
0.646909
 30
5.88
 11
-0.120832
 21
0.621795
 31
5.88
  0
LINE
  5
5EE
100
AcDbEntity
  8
0
100
AcDbLine
 10
-0.120832
 20
0.677047
 30
5.88
 11
-0.115805
 21
0.646909
 31
5.88
  0
LINE
  5
5EF
100
AcDbEntity
  8
0
100
AcDbLine
 10
-0.125858
 20
0.702163
 30
5.88
 11
-0.120832
 21
0.677047
 31
5.88
  0
LINE
  5
5F0
100
AcDbEntity
  8
0
100
AcDbLine
 10
-0.140936
 20
0.727278
 30
5.88
 11
-0.125858
 21
0.702163
 31
5.88
  0
LINE
  5
5F1
100
AcDbEntity
  8
0
100
AcDbLine
 10
-0.161036
 20
0.742346
 30
5.88
 11
-0.140936
 21
0.727278
 31
5.88
  0
LINE
  5
5F2
100
AcDbEntity
  8
0
100
AcDbLine
 10
-0.186165
 20
0.757417
 30
5.88
 11
-0.161036
 21
0.742346
 31
5.88
  0
LINE
  5
5F3
100
AcDbEntity
  8
0
100
AcDbLine
 10
-0.211293
 20
0.767463
 30
5.88
 11
-0.186165
 21
0.757417
 31
5.88
  0
LINE
  5
5F4
100
AcDbEntity
  8
0
100
AcDbLine
 10
-0.216318
 20
0.882992
 30
5.88
 11
-0.246471
 21
0.882992
 31
5.88
  0
LINE
  5
5F5
100
AcDbEntity
  8
0
100
AcDbLine
 10
-0.346983
 20
0.96336
 30
5.88
 11
-0.352009
 21
0.993498
 31
5.88
  0
LINE
  5
5F6
100
AcDbEntity
  8
0
100
AcDbLine
 10
-0.331905
 20
0.938246
 30
5.88
 11
-0.346983
 21
0.96336
 31
5.88
  0
LINE
  5
5F7
100
AcDbEntity
  8
0
100
AcDbLine
 10
-0.316828
 20
0.918153
 30
5.88
 11
-0.331905
 21
0.938246
 31
5.88
  0
LINE
  5
5F8
100
AcDbEntity
  8
0
100
AcDbLine
 10
-0.296726
 20
0.903085
 30
5.88
 11
-0.316828
 21
0.918153
 31
5.88
  0
LINE
  5
5F9
100
AcDbEntity
  8
0
100
AcDbLine
 10
-0.271599
 20
0.893037
 30
5.88
 11
-0.296726
 21
0.903085
 31
5.88
  0
LINE
  5
5FA
100
AcDbEntity
  8
0
100
AcDbLine
 10
-0.246471
 20
0.882992
 30
5.88
 11
-0.271599
 21
0.893037
 31
5.88
  0
LINE
  5
5FB
100
AcDbEntity
  8
0
100
AcDbLine
 10
-0.191191
 20
0.893037
 30
5.88
 11
-0.216318
 21
0.882992
 31
5.88
  0
LINE
  5
5FC
100
AcDbEntity
  8
0
100
AcDbLine
 10
-0.166063
 20
0.903085
 30
5.88
 11
-0.191191
 21
0.893037
 31
5.88
  0
LINE
  5
5FD
100
AcDbEntity
  8
0
100
AcDbLine
 10
-0.14596
 20
0.923177
 30
5.88
 11
-0.166063
 21
0.903085
 31
5.88
  0
LINE
  5
5FE
100
AcDbEntity
  8
0
100
AcDbLine
 10
-0.130883
 20
0.943268
 30
5.88
 11
-0.14596
 21
0.923177
 31
5.88
  0
LINE
  5
5FF
100
AcDbEntity
  8
0
100
AcDbLine
 10
-0.120832
 20
0.968384
 30
5.88
 11
-0.130883
 21
0.943268
 31
5.88
  0
LINE
  5
600
100
AcDbEntity
  8
0
100
AcDbLine
 10
-0.115805
 20
0.998522
 30
5.88
 11
-0.120832
 21
0.968384
 31
5.88
  0
LINE
  5
601
100
AcDbEntity
  8
0
100
AcDbLine
 10
-0.532929
 20
1.12912
 30
5.88
 11
-0.532929
 21
1.229581
 31
5.88
  0
LINE
  5
602
100
AcDbEntity
  8
0
100
AcDbLine
 10
-0.23642
 20
1.119075
 30
5.88
 11
-0.211293
 21
1.114051
 31
5.88
  0
LINE
  5
603
100
AcDbEntity
  8
0
100
AcDbLine
 10
-0.261548
 20
1.114051
 30
5.88
 11
-0.23642
 21
1.119075
 31
5.88
  0
LINE
  5
604
100
AcDbEntity
  8
0
100
AcDbLine
 10
-0.286675
 20
1.104004
 30
5.88
 11
-0.261548
 21
1.114051
 31
5.88
  0
LINE
  5
605
100
AcDbEntity
  8
0
100
AcDbLine
 10
-0.311803
 20
1.088935
 30
5.88
 11
-0.286675
 21
1.104004
 31
5.88
  0
LINE
  5
606
100
AcDbEntity
  8
0
100
AcDbLine
 10
-0.331905
 20
1.068844
 30
5.88
 11
-0.311803
 21
1.088935
 31
5.88
  0
LINE
  5
607
100
AcDbEntity
  8
0
100
AcDbLine
 10
-0.341956
 20
1.043728
 30
5.88
 11
-0.331905
 21
1.068844
 31
5.88
  0
LINE
  5
608
100
AcDbEntity
  8
0
100
AcDbLine
 10
-0.352009
 20
1.018614
 30
5.88
 11
-0.341956
 21
1.043728
 31
5.88
  0
LINE
  5
609
100
AcDbEntity
  8
0
100
AcDbLine
 10
-0.125858
 20
1.048752
 30
5.88
 11
-0.120832
 21
1.023636
 31
5.88
  0
LINE
  5
60A
100
AcDbEntity
  8
0
100
AcDbLine
 10
-0.140936
 20
1.073866
 30
5.88
 11
-0.125858
 21
1.048752
 31
5.88
  0
LINE
  5
60B
100
AcDbEntity
  8
0
100
AcDbLine
 10
-0.161036
 20
1.093959
 30
5.88
 11
-0.140936
 21
1.073866
 31
5.88
  0
LINE
  5
60C
100
AcDbEntity
  8
0
100
AcDbLine
 10
-0.186165
 20
1.104004
 30
5.88
 11
-0.161036
 21
1.093959
 31
5.88
  0
LINE
  5
60D
100
AcDbEntity
  8
0
100
AcDbLine
 10
-0.211293
 20
1.114051
 30
5.88
 11
-0.186165
 21
1.104004
 31
5.88
  0
LINE
  5
60E
100
AcDbEntity
  8
0
100
AcDbLine
 10
-0.216318
 20
1.234604
 30
5.88
 11
-0.246471
 21
1.234604
 31
5.88
  0
LINE
  5
60F
100
AcDbEntity
  8
0
100
AcDbLine
 10
-0.346983
 20
1.314972
 30
5.88
 11
-0.352009
 21
1.340086
 31
5.88
  0
LINE
  5
610
100
AcDbEntity
  8
0
100
AcDbLine
 10
-0.331905
 20
1.289856
 30
5.88
 11
-0.346983
 21
1.314972
 31
5.88
  0
LINE
  5
611
100
AcDbEntity
  8
0
100
AcDbLine
 10
-0.316828
 20
1.264742
 30
5.88
 11
-0.331905
 21
1.289856
 31
5.88
  0
LINE
  5
612
100
AcDbEntity
  8
0
100
AcDbLine
 10
-0.296726
 20
1.249673
 30
5.88
 11
-0.316828
 21
1.264742
 31
5.88
  0
LINE
  5
613
100
AcDbEntity
  8
0
100
AcDbLine
 10
-0.271599
 20
1.239626
 30
5.88
 11
-0.296726
 21
1.249673
 31
5.88
  0
LINE
  5
614
100
AcDbEntity
  8
0
100
AcDbLine
 10
-0.246471
 20
1.234604
 30
5.88
 11
-0.271599
 21
1.239626
 31
5.88
  0
LINE
  5
615
100
AcDbEntity
  8
0
100
AcDbLine
 10
-0.341956
 20
1.390317
 30
5.88
 11
-0.331905
 21
1.415433
 31
5.88
  0
LINE
  5
616
100
AcDbEntity
  8
0
100
AcDbLine
 10
-0.352009
 20
1.365203
 30
5.88
 11
-0.341956
 21
1.390317
 31
5.88
  0
LINE
  5
617
100
AcDbEntity
  8
0
100
AcDbLine
 10
-0.352009
 20
1.340086
 30
5.88
 11
-0.352009
 21
1.365203
 31
5.88
  0
LINE
  5
618
100
AcDbEntity
  8
0
100
AcDbLine
 10
-0.191191
 20
1.239626
 30
5.88
 11
-0.216318
 21
1.234604
 31
5.88
  0
LINE
  5
619
100
AcDbEntity
  8
0
100
AcDbLine
 10
-0.166063
 20
1.254695
 30
5.88
 11
-0.191191
 21
1.239626
 31
5.88
  0
LINE
  5
61A
100
AcDbEntity
  8
0
100
AcDbLine
 10
-0.14596
 20
1.269764
 30
5.88
 11
-0.166063
 21
1.254695
 31
5.88
  0
LINE
  5
61B
100
AcDbEntity
  8
0
100
AcDbLine
 10
-0.130883
 20
1.29488
 30
5.88
 11
-0.14596
 21
1.269764
 31
5.88
  0
LINE
  5
61C
100
AcDbEntity
  8
0
100
AcDbLine
 10
-0.120832
 20
1.319994
 30
5.88
 11
-0.130883
 21
1.29488
 31
5.88
  0
LINE
  5
61D
100
AcDbEntity
  8
0
100
AcDbLine
 10
-0.115805
 20
1.34511
 30
5.88
 11
-0.120832
 21
1.319994
 31
5.88
  0
LINE
  5
61E
100
AcDbEntity
  8
0
100
AcDbLine
 10
-0.120832
 20
1.370224
 30
5.88
 11
-0.115805
 21
1.34511
 31
5.88
  0
LINE
  5
61F
100
AcDbEntity
  8
0
100
AcDbLine
 10
-0.125858
 20
1.39534
 30
5.88
 11
-0.120832
 21
1.370224
 31
5.88
  0
LINE
  5
620
100
AcDbEntity
  8
0
100
AcDbLine
 10
-0.140936
 20
1.420455
 30
5.88
 11
-0.125858
 21
1.39534
 31
5.88
  0
LINE
  5
621
100
AcDbEntity
  8
0
100
AcDbLine
 10
-0.06555
 20
0.882992
 30
5.88
 11
-0.06555
 21
0.782531
 31
5.88
  0
LINE
  5
622
100
AcDbEntity
  8
0
100
AcDbLine
 10
0.060088
 20
0.882992
 30
5.88
 11
0.060088
 21
0.782531
 31
5.88
  0
LINE
  5
623
100
AcDbEntity
  8
0
100
AcDbLine
 10
-0.06555
 20
1.229581
 30
5.88
 11
-0.06555
 21
1.12912
 31
5.88
  0
LINE
  5
624
100
AcDbEntity
  8
0
100
AcDbLine
 10
0.060088
 20
1.229581
 30
5.88
 11
0.060088
 21
1.12912
 31
5.88
  0
LINE
  5
625
100
AcDbEntity
  8
0
100
AcDbLine
 10
-0.769129
 20
4.495635
 30
5.88
 11
0.170651
 21
4.495635
 31
5.88
  0
LINE
  5
626
100
AcDbEntity
  8
0
100
AcDbLine
 10
-0.7239
 20
3.892873
 30
5.88
 11
0.195778
 21
3.892873
 31
5.88
  0
LINE
  5
627
100
AcDbEntity
  8
0
100
AcDbLine
 10
-0.643492
 20
4.10384
 30
5.88
 11
-0.492723
 21
4.10384
 31
5.88
  0
LINE
  5
628
100
AcDbEntity
  8
0
100
AcDbLine
 10
-0.643492
 20
4.259552
 30
5.88
 11
-0.492723
 21
4.259552
 31
5.88
  0
LINE
  5
629
100
AcDbEntity
  8
0
100
AcDbLine
 10
-0.658566
 20
4.098816
 30
5.88
 11
-0.643492
 21
4.10384
 31
5.88
  0
LINE
  5
62A
100
AcDbEntity
  8
0
100
AcDbLine
 10
-0.67867
 20
4.093793
 30
5.88
 11
-0.658566
 21
4.098816
 31
5.88
  0
LINE
  5
62B
100
AcDbEntity
  8
0
100
AcDbLine
 10
-0.698772
 20
4.078724
 30
5.88
 11
-0.67867
 21
4.093793
 31
5.88
  0
LINE
  5
62C
100
AcDbEntity
  8
0
100
AcDbLine
 10
-0.713849
 20
4.063655
 30
5.88
 11
-0.698772
 21
4.078724
 31
5.88
  0
LINE
  5
62D
100
AcDbEntity
  8
0
100
AcDbLine
 10
-0.7239
 20
4.043562
 30
5.88
 11
-0.713849
 21
4.063655
 31
5.88
  0
LINE
  5
62E
100
AcDbEntity
  8
0
100
AcDbLine
 10
-0.7239
 20
4.018448
 30
5.88
 11
-0.7239
 21
4.043562
 31
5.88
  0
LINE
  5
62F
100
AcDbEntity
  8
0
100
AcDbLine
 10
-0.658566
 20
4.254531
 30
5.88
 11
-0.643492
 21
4.259552
 31
5.88
  0
LINE
  5
630
100
AcDbEntity
  8
0
100
AcDbLine
 10
-0.67867
 20
4.249507
 30
5.88
 11
-0.658566
 21
4.254531
 31
5.88
  0
LINE
  5
631
100
AcDbEntity
  8
0
100
AcDbLine
 10
-0.698772
 20
4.234438
 30
5.88
 11
-0.67867
 21
4.249507
 31
5.88
  0
LINE
  5
632
100
AcDbEntity
  8
0
100
AcDbLine
 10
-0.713849
 20
4.219369
 30
5.88
 11
-0.698772
 21
4.234438
 31
5.88
  0
LINE
  5
633
100
AcDbEntity
  8
0
100
AcDbLine
 10
-0.7239
 20
4.199277
 30
5.88
 11
-0.713849
 21
4.219369
 31
5.88
  0
LINE
  5
634
100
AcDbEntity
  8
0
100
AcDbLine
 10
-0.7239
 20
4.174161
 30
5.88
 11
-0.7239
 21
4.199277
 31
5.88
  0
LINE
  5
635
100
AcDbEntity
  8
0
100
AcDbLine
 10
-0.869643
 20
4.560934
 30
5.88
 11
-0.874667
 21
4.586048
 31
5.88
  0
LINE
  5
636
100
AcDbEntity
  8
0
100
AcDbLine
 10
-0.874667
 20
4.586048
 30
5.88
 11
-0.879692
 21
4.606141
 31
5.88
  0
LINE
  5
637
100
AcDbEntity
  8
0
100
AcDbLine
 10
-0.834463
 20
4.520749
 30
5.88
 11
-0.854565
 21
4.535818
 31
5.88
  0
LINE
  5
638
100
AcDbEntity
  8
0
100
AcDbLine
 10
-0.814361
 20
4.50568
 30
5.88
 11
-0.834463
 21
4.520749
 31
5.88
  0
LINE
  5
639
100
AcDbEntity
  8
0
100
AcDbLine
 10
-0.789233
 20
4.500659
 30
5.88
 11
-0.814361
 21
4.50568
 31
5.88
  0
LINE
  5
63A
100
AcDbEntity
  8
0
100
AcDbLine
 10
-0.75908
 20
4.495635
 30
5.88
 11
-0.789233
 21
4.500659
 31
5.88
  0
LINE
  5
63B
100
AcDbEntity
  8
0
100
AcDbLine
 10
-0.854565
 20
4.535818
 30
5.88
 11
-0.869643
 21
4.560934
 31
5.88
  0
LINE
  5
63C
100
AcDbEntity
  8
0
100
AcDbLine
 10
-0.402264
 20
3.194673
 30
5.88
 11
-0.402264
 21
2.948545
 31
5.88
  0
LINE
  5
63D
100
AcDbEntity
  8
0
100
AcDbLine
 10
-0.311803
 20
3.159511
 30
5.88
 11
-0.150985
 21
2.98873
 31
5.88
  0
LINE
  5
63E
100
AcDbEntity
  8
0
100
AcDbLine
 10
-0.120832
 20
3.08919
 30
5.88
 11
-0.115805
 21
3.064074
 31
5.88
  0
LINE
  5
63F
100
AcDbEntity
  8
0
100
AcDbLine
 10
-0.352009
 20
3.059051
 30
5.88
 11
-0.352009
 21
3.084167
 31
5.88
  0
LINE
  5
640
100
AcDbEntity
  8
0
100
AcDbLine
 10
-0.06555
 20
2.255368
 30
5.88
 11
-0.06555
 21
2.149885
 31
5.88
  0
LINE
  5
641
100
AcDbEntity
  8
0
100
AcDbLine
 10
-0.532929
 20
2.149885
 30
5.88
 11
-0.532929
 21
2.255368
 31
5.88
  0
LINE
  5
642
100
AcDbEntity
  8
0
100
AcDbLine
 10
0.060088
 20
2.255368
 30
5.88
 11
0.060088
 21
2.149885
 31
5.88
  0
LINE
  5
643
100
AcDbEntity
  8
0
100
AcDbLine
 10
0.060088
 20
1.475708
 30
5.88
 11
-0.532929
 21
1.475708
 31
5.88
  0
LINE
  5
644
100
AcDbEntity
  8
0
100
AcDbLine
 10
-0.532929
 20
1.576169
 30
5.88
 11
0.060088
 21
1.576169
 31
5.88
  0
LINE
  5
645
100
AcDbEntity
  8
0
100
AcDbLine
 10
0.060088
 20
1.803297
 30
5.88
 11
-0.532929
 21
1.803297
 31
5.88
  0
LINE
  5
646
100
AcDbEntity
  8
0
100
AcDbLine
 10
-0.532929
 20
1.908779
 30
5.88
 11
0.060088
 21
1.908779
 31
5.88
  0
LINE
  5
647
100
AcDbEntity
  8
0
100
AcDbLine
 10
0.060088
 20
2.149885
 30
5.88
 11
-0.532929
 21
2.149885
 31
5.88
  0
LINE
  5
648
100
AcDbEntity
  8
0
100
AcDbLine
 10
-0.532929
 20
1.803297
 30
5.88
 11
-0.532929
 21
1.908779
 31
5.88
  0
LINE
  5
649
100
AcDbEntity
  8
0
100
AcDbLine
 10
-0.402264
 20
1.822297
 30
5.88
 11
-0.402264
 21
1.576169
 31
5.88
  0
LINE
  5
64A
100
AcDbEntity
  8
0
100
AcDbLine
 10
-0.532929
 20
1.475708
 30
5.88
 11
-0.532929
 21
1.576169
 31
5.88
  0
LINE
  5
64B
100
AcDbEntity
  8
0
100
AcDbLine
 10
-0.311803
 20
1.768136
 30
5.88
 11
-0.150985
 21
1.597352
 31
5.88
  0
LINE
  5
64C
100
AcDbEntity
  8
0
100
AcDbLine
 10
-0.331905
 20
1.617445
 30
5.88
 11
-0.346983
 21
1.642561
 31
5.88
  0
LINE
  5
64D
100
AcDbEntity
  8
0
100
AcDbLine
 10
-0.120832
 20
1.647582
 30
5.88
 11
-0.130883
 21
1.622468
 31
5.88
  0
LINE
  5
64E
100
AcDbEntity
  8
0
100
AcDbLine
 10
-0.23642
 20
1.465661
 30
5.88
 11
-0.211293
 21
1.46064
 31
5.88
  0
LINE
  5
64F
100
AcDbEntity
  8
0
100
AcDbLine
 10
-0.216318
 20
1.562191
 30
5.88
 11
-0.246471
 21
1.562191
 31
5.88
  0
LINE
  5
650
100
AcDbEntity
  8
0
100
AcDbLine
 10
-0.261548
 20
1.46064
 30
5.88
 11
-0.23642
 21
1.465661
 31
5.88
  0
LINE
  5
651
100
AcDbEntity
  8
0
100
AcDbLine
 10
-0.286675
 20
1.450592
 30
5.88
 11
-0.261548
 21
1.46064
 31
5.88
  0
LINE
  5
652
100
AcDbEntity
  8
0
100
AcDbLine
 10
-0.311803
 20
1.435523
 30
5.88
 11
-0.286675
 21
1.450592
 31
5.88
  0
LINE
  5
653
100
AcDbEntity
  8
0
100
AcDbLine
 10
-0.316828
 20
1.597352
 30
5.88
 11
-0.331905
 21
1.617445
 31
5.88
  0
LINE
  5
654
100
AcDbEntity
  8
0
100
AcDbLine
 10
-0.296726
 20
1.577262
 30
5.88
 11
-0.316828
 21
1.597352
 31
5.88
  0
LINE
  5
655
100
AcDbEntity
  8
0
100
AcDbLine
 10
-0.271599
 20
1.567214
 30
5.88
 11
-0.296726
 21
1.577262
 31
5.88
  0
LINE
  5
656
100
AcDbEntity
  8
0
100
AcDbLine
 10
-0.246471
 20
1.562191
 30
5.88
 11
-0.271599
 21
1.567214
 31
5.88
  0
LINE
  5
657
100
AcDbEntity
  8
0
100
AcDbLine
 10
-0.186165
 20
1.455616
 30
5.88
 11
-0.161036
 21
1.440547
 31
5.88
  0
LINE
  5
658
100
AcDbEntity
  8
0
100
AcDbLine
 10
-0.211293
 20
1.46064
 30
5.88
 11
-0.186165
 21
1.455616
 31
5.88
  0
LINE
  5
659
100
AcDbEntity
  8
0
100
AcDbLine
 10
-0.191191
 20
1.567214
 30
5.88
 11
-0.216318
 21
1.562191
 31
5.88
  0
LINE
  5
65A
100
AcDbEntity
  8
0
100
AcDbLine
 10
-0.166063
 20
1.582283
 30
5.88
 11
-0.191191
 21
1.567214
 31
5.88
  0
LINE
  5
65B
100
AcDbEntity
  8
0
100
AcDbLine
 10
-0.14596
 20
1.597352
 30
5.88
 11
-0.166063
 21
1.582283
 31
5.88
  0
LINE
  5
65C
100
AcDbEntity
  8
0
100
AcDbLine
 10
-0.130883
 20
1.622468
 30
5.88
 11
-0.14596
 21
1.597352
 31
5.88
  0
LINE
  5
65D
100
AcDbEntity
  8
0
100
AcDbLine
 10
-0.23642
 20
1.79325
 30
5.88
 11
-0.211293
 21
1.79325
 31
5.88
  0
LINE
  5
65E
100
AcDbEntity
  8
0
100
AcDbLine
 10
-0.346983
 20
1.642561
 30
5.88
 11
-0.352009
 21
1.667675
 31
5.88
  0
LINE
  5
65F
100
AcDbEntity
  8
0
100
AcDbLine
 10
-0.261548
 20
1.788228
 30
5.88
 11
-0.23642
 21
1.79325
 31
5.88
  0
LINE
  5
660
100
AcDbEntity
  8
0
100
AcDbLine
 10
-0.286675
 20
1.778181
 30
5.88
 11
-0.261548
 21
1.788228
 31
5.88
  0
LINE
  5
661
100
AcDbEntity
  8
0
100
AcDbLine
 10
-0.311803
 20
1.763112
 30
5.88
 11
-0.286675
 21
1.778181
 31
5.88
  0
LINE
  5
662
100
AcDbEntity
  8
0
100
AcDbLine
 10
-0.331905
 20
1.743019
 30
5.88
 11
-0.311803
 21
1.763112
 31
5.88
  0
LINE
  5
663
100
AcDbEntity
  8
0
100
AcDbLine
 10
-0.341956
 20
1.722929
 30
5.88
 11
-0.331905
 21
1.743019
 31
5.88
  0
LINE
  5
664
100
AcDbEntity
  8
0
100
AcDbLine
 10
-0.352009
 20
1.692789
 30
5.88
 11
-0.341956
 21
1.722929
 31
5.88
  0
LINE
  5
665
100
AcDbEntity
  8
0
100
AcDbLine
 10
-0.352009
 20
1.667675
 30
5.88
 11
-0.352009
 21
1.692789
 31
5.88
  0
LINE
  5
666
100
AcDbEntity
  8
0
100
AcDbLine
 10
-0.115805
 20
1.672699
 30
5.88
 11
-0.120832
 21
1.647582
 31
5.88
  0
LINE
  5
667
100
AcDbEntity
  8
0
100
AcDbLine
 10
-0.120832
 20
1.697813
 30
5.88
 11
-0.115805
 21
1.672699
 31
5.88
  0
LINE
  5
668
100
AcDbEntity
  8
0
100
AcDbLine
 10
-0.125858
 20
1.727951
 30
5.88
 11
-0.120832
 21
1.697813
 31
5.88
  0
LINE
  5
669
100
AcDbEntity
  8
0
100
AcDbLine
 10
-0.140936
 20
1.748043
 30
5.88
 11
-0.125858
 21
1.727951
 31
5.88
  0
LINE
  5
66A
100
AcDbEntity
  8
0
100
AcDbLine
 10
-0.161036
 20
1.768136
 30
5.88
 11
-0.140936
 21
1.748043
 31
5.88
  0
LINE
  5
66B
100
AcDbEntity
  8
0
100
AcDbLine
 10
-0.186165
 20
1.783204
 30
5.88
 11
-0.161036
 21
1.768136
 31
5.88
  0
LINE
  5
66C
100
AcDbEntity
  8
0
100
AcDbLine
 10
-0.211293
 20
1.79325
 30
5.88
 11
-0.186165
 21
1.783204
 31
5.88
  0
LINE
  5
66D
100
AcDbEntity
  8
0
100
AcDbLine
 10
-0.402264
 20
2.149885
 30
5.88
 11
-0.402264
 21
1.908779
 31
5.88
  0
LINE
  5
66E
100
AcDbEntity
  8
0
100
AcDbLine
 10
-0.311803
 20
2.114724
 30
5.88
 11
-0.150985
 21
1.943941
 31
5.88
  0
LINE
  5
66F
100
AcDbEntity
  8
0
100
AcDbLine
 10
-0.120832
 20
2.049425
 30
5.88
 11
-0.115805
 21
2.019287
 31
5.88
  0
LINE
  5
670
100
AcDbEntity
  8
0
100
AcDbLine
 10
-0.352009
 20
2.044401
 30
5.88
 11
-0.341956
 21
2.069517
 31
5.88
  0
LINE
  5
671
100
AcDbEntity
  8
0
100
AcDbLine
 10
-0.216318
 20
1.908779
 30
5.88
 11
-0.246471
 21
1.908779
 31
5.88
  0
LINE
  5
672
100
AcDbEntity
  8
0
100
AcDbLine
 10
-0.346983
 20
1.989147
 30
5.88
 11
-0.352009
 21
2.014263
 31
5.88
  0
LINE
  5
673
100
AcDbEntity
  8
0
100
AcDbLine
 10
-0.331905
 20
1.964033
 30
5.88
 11
-0.346983
 21
1.989147
 31
5.88
  0
LINE
  5
674
100
AcDbEntity
  8
0
100
AcDbLine
 10
-0.316828
 20
1.943941
 30
5.88
 11
-0.331905
 21
1.964033
 31
5.88
  0
LINE
  5
675
100
AcDbEntity
  8
0
100
AcDbLine
 10
-0.296726
 20
1.923848
 30
5.88
 11
-0.316828
 21
1.943941
 31
5.88
  0
LINE
  5
676
100
AcDbEntity
  8
0
100
AcDbLine
 10
-0.271599
 20
1.913803
 30
5.88
 11
-0.296726
 21
1.923848
 31
5.88
  0
LINE
  5
677
100
AcDbEntity
  8
0
100
AcDbLine
 10
-0.246471
 20
1.908779
 30
5.88
 11
-0.271599
 21
1.913803
 31
5.88
  0
LINE
  5
678
100
AcDbEntity
  8
0
100
AcDbLine
 10
-0.352009
 20
2.014263
 30
5.88
 11
-0.352009
 21
2.044401
 31
5.88
  0
LINE
  5
679
100
AcDbEntity
  8
0
100
AcDbLine
 10
-0.191191
 20
1.913803
 30
5.88
 11
-0.216318
 21
1.908779
 31
5.88
  0
LINE
  5
67A
100
AcDbEntity
  8
0
100
AcDbLine
 10
-0.166063
 20
1.928872
 30
5.88
 11
-0.191191
 21
1.913803
 31
5.88
  0
LINE
  5
67B
100
AcDbEntity
  8
0
100
AcDbLine
 10
-0.14596
 20
1.948964
 30
5.88
 11
-0.166063
 21
1.928872
 31
5.88
  0
LINE
  5
67C
100
AcDbEntity
  8
0
100
AcDbLine
 10
-0.130883
 20
1.969057
 30
5.88
 11
-0.14596
 21
1.948964
 31
5.88
  0
LINE
  5
67D
100
AcDbEntity
  8
0
100
AcDbLine
 10
-0.120832
 20
1.994171
 30
5.88
 11
-0.130883
 21
1.969057
 31
5.88
  0
LINE
  5
67E
100
AcDbEntity
  8
0
100
AcDbLine
 10
-0.115805
 20
2.019287
 30
5.88
 11
-0.120832
 21
1.994171
 31
5.88
  0
LINE
  5
67F
100
AcDbEntity
  8
0
100
AcDbLine
 10
-0.23642
 20
2.139838
 30
5.88
 11
-0.211293
 21
2.139838
 31
5.88
  0
LINE
  5
680
100
AcDbEntity
  8
0
100
AcDbLine
 10
-0.261548
 20
2.139838
 30
5.88
 11
-0.23642
 21
2.139838
 31
5.88
  0
LINE
  5
681
100
AcDbEntity
  8
0
100
AcDbLine
 10
-0.286675
 20
2.129793
 30
5.88
 11
-0.261548
 21
2.139838
 31
5.88
  0
LINE
  5
682
100
AcDbEntity
  8
0
100
AcDbLine
 10
-0.311803
 20
2.114724
 30
5.88
 11
-0.286675
 21
2.129793
 31
5.88
  0
LINE
  5
683
100
AcDbEntity
  8
0
100
AcDbLine
 10
-0.331905
 20
2.094632
 30
5.88
 11
-0.311803
 21
2.114724
 31
5.88
  0
LINE
  5
684
100
AcDbEntity
  8
0
100
AcDbLine
 10
-0.341956
 20
2.069517
 30
5.88
 11
-0.331905
 21
2.094632
 31
5.88
  0
LINE
  5
685
100
AcDbEntity
  8
0
100
AcDbLine
 10
-0.125858
 20
2.074539
 30
5.88
 11
-0.120832
 21
2.049425
 31
5.88
  0
LINE
  5
686
100
AcDbEntity
  8
0
100
AcDbLine
 10
-0.140936
 20
2.094632
 30
5.88
 11
-0.125858
 21
2.074539
 31
5.88
  0
LINE
  5
687
100
AcDbEntity
  8
0
100
AcDbLine
 10
-0.161036
 20
2.114724
 30
5.88
 11
-0.140936
 21
2.094632
 31
5.88
  0
LINE
  5
688
100
AcDbEntity
  8
0
100
AcDbLine
 10
-0.186165
 20
2.129793
 30
5.88
 11
-0.161036
 21
2.114724
 31
5.88
  0
LINE
  5
689
100
AcDbEntity
  8
0
100
AcDbLine
 10
-0.211293
 20
2.139838
 30
5.88
 11
-0.186165
 21
2.129793
 31
5.88
  0
LINE
  5
68A
100
AcDbEntity
  8
0
100
AcDbLine
 10
-0.06555
 20
1.908779
 30
5.88
 11
-0.06555
 21
1.803297
 31
5.88
  0
LINE
  5
68B
100
AcDbEntity
  8
0
100
AcDbLine
 10
0.060088
 20
1.908779
 30
5.88
 11
0.060088
 21
1.803297
 31
5.88
  0
LINE
  5
68C
100
AcDbEntity
  8
0
100
AcDbLine
 10
-0.06555
 20
1.576169
 30
5.88
 11
-0.06555
 21
1.475708
 31
5.88
  0
LINE
  5
68D
100
AcDbEntity
  8
0
100
AcDbLine
 10
0.060088
 20
1.576169
 30
5.88
 11
0.060088
 21
1.475708
 31
5.88
  0
LINE
  5
68E
100
AcDbEntity
  8
0
100
AcDbLine
 10
-0.532929
 20
2.255368
 30
5.88
 11
0.060088
 21
2.255368
 31
5.88
  0
LINE
  5
68F
100
AcDbEntity
  8
0
100
AcDbLine
 10
0.060088
 20
2.501496
 30
5.88
 11
-0.532929
 21
2.501496
 31
5.88
  0
LINE
  5
690
100
AcDbEntity
  8
0
100
AcDbLine
 10
-0.532929
 20
2.601956
 30
5.88
 11
0.060088
 21
2.601956
 31
5.88
  0
LINE
  5
691
100
AcDbEntity
  8
0
100
AcDbLine
 10
0.060088
 20
2.848084
 30
5.88
 11
-0.532929
 21
2.848084
 31
5.88
  0
LINE
  5
692
100
AcDbEntity
  8
0
100
AcDbLine
 10
-0.532929
 20
2.948545
 30
5.88
 11
0.060088
 21
2.948545
 31
5.88
  0
LINE
  5
693
100
AcDbEntity
  8
0
100
AcDbLine
 10
-0.402264
 20
2.848084
 30
5.88
 11
-0.402264
 21
2.601956
 31
5.88
  0
LINE
  5
694
100
AcDbEntity
  8
0
100
AcDbLine
 10
-0.311803
 20
2.807901
 30
5.88
 11
-0.150985
 21
2.637118
 31
5.88
  0
LINE
  5
695
100
AcDbEntity
  8
0
100
AcDbLine
 10
-0.331905
 20
2.662232
 30
5.88
 11
-0.346983
 21
2.682324
 31
5.88
  0
LINE
  5
696
100
AcDbEntity
  8
0
100
AcDbLine
 10
-0.120832
 20
2.687348
 30
5.88
 11
-0.130883
 21
2.662232
 31
5.88
  0
LINE
  5
697
100
AcDbEntity
  8
0
100
AcDbLine
 10
-0.402264
 20
2.501496
 30
5.88
 11
-0.402264
 21
2.255368
 31
5.88
  0
LINE
  5
698
100
AcDbEntity
  8
0
100
AcDbLine
 10
-0.532929
 20
2.501496
 30
5.88
 11
-0.532929
 21
2.601956
 31
5.88
  0
LINE
  5
699
100
AcDbEntity
  8
0
100
AcDbLine
 10
-0.186165
 20
2.476381
 30
5.88
 11
-0.161036
 21
2.461313
 31
5.88
  0
LINE
  5
69A
100
AcDbEntity
  8
0
100
AcDbLine
 10
-0.311803
 20
2.461313
 30
5.88
 11
-0.286675
 21
2.476381
 31
5.88
  0
LINE
  5
69B
100
AcDbEntity
  8
0
100
AcDbLine
 10
-0.311803
 20
2.461313
 30
5.88
 11
-0.150985
 21
2.290529
 31
5.88
  0
LINE
  5
69C
100
AcDbEntity
  8
0
100
AcDbLine
 10
-0.216318
 20
2.255368
 30
5.88
 11
-0.246471
 21
2.255368
 31
5.88
  0
LINE
  5
69D
100
AcDbEntity
  8
0
100
AcDbLine
 10
-0.346983
 20
2.335736
 30
5.88
 11
-0.352009
 21
2.365876
 31
5.88
  0
LINE
  5
69E
100
AcDbEntity
  8
0
100
AcDbLine
 10
-0.331905
 20
2.310622
 30
5.88
 11
-0.346983
 21
2.335736
 31
5.88
  0
LINE
  5
69F
100
AcDbEntity
  8
0
100
AcDbLine
 10
-0.316828
 20
2.290529
 30
5.88
 11
-0.331905
 21
2.310622
 31
5.88
  0
LINE
  5
6A0
100
AcDbEntity
  8
0
100
AcDbLine
 10
-0.296726
 20
2.27546
 30
5.88
 11
-0.316828
 21
2.290529
 31
5.88
  0
LINE
  5
6A1
100
AcDbEntity
  8
0
100
AcDbLine
 10
-0.271599
 20
2.260391
 30
5.88
 11
-0.296726
 21
2.27546
 31
5.88
  0
LINE
  5
6A2
100
AcDbEntity
  8
0
100
AcDbLine
 10
-0.246471
 20
2.255368
 30
5.88
 11
-0.271599
 21
2.260391
 31
5.88
  0
LINE
  5
6A3
100
AcDbEntity
  8
0
100
AcDbLine
 10
-0.331905
 20
2.44122
 30
5.88
 11
-0.311803
 21
2.461313
 31
5.88
  0
LINE
  5
6A4
100
AcDbEntity
  8
0
100
AcDbLine
 10
-0.341956
 20
2.416104
 30
5.88
 11
-0.331905
 21
2.44122
 31
5.88
  0
LINE
  5
6A5
100
AcDbEntity
  8
0
100
AcDbLine
 10
-0.352009
 20
2.39099
 30
5.88
 11
-0.341956
 21
2.416104
 31
5.88
  0
LINE
  5
6A6
100
AcDbEntity
  8
0
100
AcDbLine
 10
-0.352009
 20
2.365876
 30
5.88
 11
-0.352009
 21
2.39099
 31
5.88
  0
LINE
  5
6A7
100
AcDbEntity
  8
0
100
AcDbLine
 10
-0.191191
 20
2.265415
 30
5.88
 11
-0.216318
 21
2.255368
 31
5.88
  0
LINE
  5
6A8
100
AcDbEntity
  8
0
100
AcDbLine
 10
-0.166063
 20
2.27546
 30
5.88
 11
-0.191191
 21
2.265415
 31
5.88
  0
LINE
  5
6A9
100
AcDbEntity
  8
0
100
AcDbLine
 10
-0.14596
 20
2.295553
 30
5.88
 11
-0.166063
 21
2.27546
 31
5.88
  0
LINE
  5
6AA
100
AcDbEntity
  8
0
100
AcDbLine
 10
-0.130883
 20
2.315645
 30
5.88
 11
-0.14596
 21
2.295553
 31
5.88
  0
LINE
  5
6AB
100
AcDbEntity
  8
0
100
AcDbLine
 10
-0.120832
 20
2.340759
 30
5.88
 11
-0.130883
 21
2.315645
 31
5.88
  0
LINE
  5
6AC
100
AcDbEntity
  8
0
100
AcDbLine
 10
-0.115805
 20
2.370897
 30
5.88
 11
-0.120832
 21
2.340759
 31
5.88
  0
LINE
  5
6AD
100
AcDbEntity
  8
0
100
AcDbLine
 10
-0.120832
 20
2.396013
 30
5.88
 11
-0.115805
 21
2.370897
 31
5.88
  0
LINE
  5
6AE
100
AcDbEntity
  8
0
100
AcDbLine
 10
-0.125858
 20
2.421128
 30
5.88
 11
-0.120832
 21
2.396013
 31
5.88
  0
LINE
  5
6AF
100
AcDbEntity
  8
0
100
AcDbLine
 10
-0.140936
 20
2.446244
 30
5.88
 11
-0.125858
 21
2.421128
 31
5.88
  0
LINE
  5
6B0
100
AcDbEntity
  8
0
100
AcDbLine
 10
-0.161036
 20
2.461313
 30
5.88
 11
-0.140936
 21
2.446244
 31
5.88
  0
LINE
  5
6B1
100
AcDbEntity
  8
0
100
AcDbLine
 10
-0.23642
 20
2.49145
 30
5.88
 11
-0.211293
 21
2.486427
 31
5.88
  0
LINE
  5
6B2
100
AcDbEntity
  8
0
100
AcDbLine
 10
-0.216318
 20
2.60698
 30
5.88
 11
-0.246471
 21
2.601956
 31
5.88
  0
LINE
  5
6B3
100
AcDbEntity
  8
0
100
AcDbLine
 10
-0.261548
 20
2.486427
 30
5.88
 11
-0.23642
 21
2.49145
 31
5.88
  0
LINE
  5
6B4
100
AcDbEntity
  8
0
100
AcDbLine
 10
-0.286675
 20
2.476381
 30
5.88
 11
-0.261548
 21
2.486427
 31
5.88
  0
LINE
  5
6B5
100
AcDbEntity
  8
0
100
AcDbLine
 10
-0.316828
 20
2.637118
 30
5.88
 11
-0.331905
 21
2.662232
 31
5.88
  0
LINE
  5
6B6
100
AcDbEntity
  8
0
100
AcDbLine
 10
-0.296726
 20
2.622049
 30
5.88
 11
-0.316828
 21
2.637118
 31
5.88
  0
LINE
  5
6B7
100
AcDbEntity
  8
0
100
AcDbLine
 10
-0.271599
 20
2.612003
 30
5.88
 11
-0.296726
 21
2.622049
 31
5.88
  0
LINE
  5
6B8
100
AcDbEntity
  8
0
100
AcDbLine
 10
-0.246471
 20
2.601956
 30
5.88
 11
-0.271599
 21
2.612003
 31
5.88
  0
LINE
  5
6B9
100
AcDbEntity
  8
0
100
AcDbLine
 10
-0.211293
 20
2.486427
 30
5.88
 11
-0.186165
 21
2.476381
 31
5.88
  0
LINE
  5
6BA
100
AcDbEntity
  8
0
100
AcDbLine
 10
-0.191191
 20
2.612003
 30
5.88
 11
-0.216318
 21
2.60698
 31
5.88
  0
LINE
  5
6BB
100
AcDbEntity
  8
0
100
AcDbLine
 10
-0.166063
 20
2.622049
 30
5.88
 11
-0.191191
 21
2.612003
 31
5.88
  0
LINE
  5
6BC
100
AcDbEntity
  8
0
100
AcDbLine
 10
-0.14596
 20
2.642141
 30
5.88
 11
-0.166063
 21
2.622049
 31
5.88
  0
LINE
  5
6BD
100
AcDbEntity
  8
0
100
AcDbLine
 10
-0.130883
 20
2.662232
 30
5.88
 11
-0.14596
 21
2.642141
 31
5.88
  0
LINE
  5
6BE
100
AcDbEntity
  8
0
100
AcDbLine
 10
-0.532929
 20
2.848084
 30
5.88
 11
-0.532929
 21
2.948545
 31
5.88
  0
LINE
  5
6BF
100
AcDbEntity
  8
0
100
AcDbLine
 10
-0.23642
 20
2.838039
 30
5.88
 11
-0.211293
 21
2.833015
 31
5.88
  0
LINE
  5
6C0
100
AcDbEntity
  8
0
100
AcDbLine
 10
-0.346983
 20
2.682324
 30
5.88
 11
-0.352009
 21
2.712462
 31
5.88
  0
LINE
  5
6C1
100
AcDbEntity
  8
0
100
AcDbLine
 10
-0.261548
 20
2.833015
 30
5.88
 11
-0.23642
 21
2.838039
 31
5.88
  0
LINE
  5
6C2
100
AcDbEntity
  8
0
100
AcDbLine
 10
-0.286675
 20
2.82297
 30
5.88
 11
-0.261548
 21
2.833015
 31
5.88
  0
LINE
  5
6C3
100
AcDbEntity
  8
0
100
AcDbLine
 10
-0.311803
 20
2.807901
 30
5.88
 11
-0.286675
 21
2.82297
 31
5.88
  0
LINE
  5
6C4
100
AcDbEntity
  8
0
100
AcDbLine
 10
-0.331905
 20
2.787809
 30
5.88
 11
-0.311803
 21
2.807901
 31
5.88
  0
LINE
  5
6C5
100
AcDbEntity
  8
0
100
AcDbLine
 10
-0.341956
 20
2.762692
 30
5.88
 11
-0.331905
 21
2.787809
 31
5.88
  0
LINE
  5
6C6
100
AcDbEntity
  8
0
100
AcDbLine
 10
-0.352009
 20
2.737578
 30
5.88
 11
-0.341956
 21
2.762692
 31
5.88
  0
LINE
  5
6C7
100
AcDbEntity
  8
0
100
AcDbLine
 10
-0.352009
 20
2.712462
 30
5.88
 11
-0.352009
 21
2.737578
 31
5.88
  0
LINE
  5
6C8
100
AcDbEntity
  8
0
100
AcDbLine
 10
-0.115805
 20
2.717486
 30
5.88
 11
-0.120832
 21
2.687348
 31
5.88
  0
LINE
  5
6C9
100
AcDbEntity
  8
0
100
AcDbLine
 10
-0.120832
 20
2.742602
 30
5.88
 11
-0.115805
 21
2.717486
 31
5.88
  0
LINE
  5
6CA
100
AcDbEntity
  8
0
100
AcDbLine
 10
-0.125858
 20
2.767716
 30
5.88
 11
-0.120832
 21
2.742602
 31
5.88
  0
LINE
  5
6CB
100
AcDbEntity
  8
0
100
AcDbLine
 10
-0.140936
 20
2.792832
 30
5.88
 11
-0.125858
 21
2.767716
 31
5.88
  0
LINE
  5
6CC
100
AcDbEntity
  8
0
100
AcDbLine
 10
-0.161036
 20
2.812923
 30
5.88
 11
-0.140936
 21
2.792832
 31
5.88
  0
LINE
  5
6CD
100
AcDbEntity
  8
0
100
AcDbLine
 10
-0.186165
 20
2.827992
 30
5.88
 11
-0.161036
 21
2.812923
 31
5.88
  0
LINE
  5
6CE
100
AcDbEntity
  8
0
100
AcDbLine
 10
-0.211293
 20
2.833015
 30
5.88
 11
-0.186165
 21
2.827992
 31
5.88
  0
LINE
  5
6CF
100
AcDbEntity
  8
0
100
AcDbLine
 10
-0.216318
 20
2.953568
 30
5.88
 11
-0.246471
 21
2.953568
 31
5.88
  0
LINE
  5
6D0
100
AcDbEntity
  8
0
100
AcDbLine
 10
-0.346983
 20
3.033936
 30
5.88
 11
-0.352009
 21
3.059051
 31
5.88
  0
LINE
  5
6D1
100
AcDbEntity
  8
0
100
AcDbLine
 10
-0.331905
 20
3.00882
 30
5.88
 11
-0.346983
 21
3.033936
 31
5.88
  0
LINE
  5
6D2
100
AcDbEntity
  8
0
100
AcDbLine
 10
-0.316828
 20
2.983706
 30
5.88
 11
-0.331905
 21
3.00882
 31
5.88
  0
LINE
  5
6D3
100
AcDbEntity
  8
0
100
AcDbLine
 10
-0.296726
 20
2.968637
 30
5.88
 11
-0.316828
 21
2.983706
 31
5.88
  0
LINE
  5
6D4
100
AcDbEntity
  8
0
100
AcDbLine
 10
-0.271599
 20
2.95859
 30
5.88
 11
-0.296726
 21
2.968637
 31
5.88
  0
LINE
  5
6D5
100
AcDbEntity
  8
0
100
AcDbLine
 10
-0.246471
 20
2.953568
 30
5.88
 11
-0.271599
 21
2.95859
 31
5.88
  0
LINE
  5
6D6
100
AcDbEntity
  8
0
100
AcDbLine
 10
-0.191191
 20
2.95859
 30
5.88
 11
-0.216318
 21
2.953568
 31
5.88
  0
LINE
  5
6D7
100
AcDbEntity
  8
0
100
AcDbLine
 10
-0.166063
 20
2.973659
 30
5.88
 11
-0.191191
 21
2.95859
 31
5.88
  0
LINE
  5
6D8
100
AcDbEntity
  8
0
100
AcDbLine
 10
-0.14596
 20
2.98873
 30
5.88
 11
-0.166063
 21
2.973659
 31
5.88
  0
LINE
  5
6D9
100
AcDbEntity
  8
0
100
AcDbLine
 10
-0.130883
 20
3.013844
 30
5.88
 11
-0.14596
 21
2.98873
 31
5.88
  0
LINE
  5
6DA
100
AcDbEntity
  8
0
100
AcDbLine
 10
-0.120832
 20
3.038958
 30
5.88
 11
-0.130883
 21
3.013844
 31
5.88
  0
LINE
  5
6DB
100
AcDbEntity
  8
0
100
AcDbLine
 10
-0.115805
 20
3.064074
 30
5.88
 11
-0.120832
 21
3.038958
 31
5.88
  0
LINE
  5
6DC
100
AcDbEntity
  8
0
100
AcDbLine
 10
-0.06555
 20
2.601956
 30
5.88
 11
-0.06555
 21
2.501496
 31
5.88
  0
LINE
  5
6DD
100
AcDbEntity
  8
0
100
AcDbLine
 10
0.060088
 20
2.601956
 30
5.88
 11
0.060088
 21
2.501496
 31
5.88
  0
LINE
  5
6DE
100
AcDbEntity
  8
0
100
AcDbLine
 10
-0.06555
 20
2.948545
 30
5.88
 11
-0.06555
 21
2.848084
 31
5.88
  0
LINE
  5
6DF
100
AcDbEntity
  8
0
100
AcDbLine
 10
0.060088
 20
2.948545
 30
5.88
 11
0.060088
 21
2.848084
 31
5.88
  0
LINE
  5
6E0
100
AcDbEntity
  8
0
100
AcDbLine
 10
0.060088
 20
3.194673
 30
5.88
 11
-0.532929
 21
3.194673
 31
5.88
  0
LINE
  5
6E1
100
AcDbEntity
  8
0
100
AcDbLine
 10
-0.532929
 20
3.295133
 30
5.88
 11
0.060088
 21
3.295133
 31
5.88
  0
LINE
  5
6E2
100
AcDbEntity
  8
0
100
AcDbLine
 10
0.060088
 20
3.541261
 30
5.88
 11
-0.532929
 21
3.541261
 31
5.88
  0
LINE
  5
6E3
100
AcDbEntity
  8
0
100
AcDbLine
 10
-0.532929
 20
3.646745
 30
5.88
 11
0.060088
 21
3.646745
 31
5.88
  0
LINE
  5
6E4
100
AcDbEntity
  8
0
100
AcDbLine
 10
-0.402264
 20
3.541261
 30
5.88
 11
-0.402264
 21
3.295133
 31
5.88
  0
LINE
  5
6E5
100
AcDbEntity
  8
0
100
AcDbLine
 10
-0.311803
 20
3.5061
 30
5.88
 11
-0.150985
 21
3.335318
 31
5.88
  0
LINE
  5
6E6
100
AcDbEntity
  8
0
100
AcDbLine
 10
-0.161036
 20
3.5061
 30
5.88
 11
-0.140936
 21
3.486007
 31
5.88
  0
LINE
  5
6E7
100
AcDbEntity
  8
0
100
AcDbLine
 10
-0.331905
 20
3.480986
 30
5.88
 11
-0.311803
 21
3.501076
 31
5.88
  0
LINE
  5
6E8
100
AcDbEntity
  8
0
100
AcDbLine
 10
-0.532929
 20
3.194673
 30
5.88
 11
-0.532929
 21
3.295133
 31
5.88
  0
LINE
  5
6E9
100
AcDbEntity
  8
0
100
AcDbLine
 10
-0.23642
 20
3.184627
 30
5.88
 11
-0.211293
 21
3.184627
 31
5.88
  0
LINE
  5
6EA
100
AcDbEntity
  8
0
100
AcDbLine
 10
-0.261548
 20
3.179604
 30
5.88
 11
-0.23642
 21
3.184627
 31
5.88
  0
LINE
  5
6EB
100
AcDbEntity
  8
0
100
AcDbLine
 10
-0.286675
 20
3.169558
 30
5.88
 11
-0.261548
 21
3.179604
 31
5.88
  0
LINE
  5
6EC
100
AcDbEntity
  8
0
100
AcDbLine
 10
-0.311803
 20
3.15449
 30
5.88
 11
-0.286675
 21
3.169558
 31
5.88
  0
LINE
  5
6ED
100
AcDbEntity
  8
0
100
AcDbLine
 10
-0.331905
 20
3.134397
 30
5.88
 11
-0.311803
 21
3.15449
 31
5.88
  0
LINE
  5
6EE
100
AcDbEntity
  8
0
100
AcDbLine
 10
-0.341956
 20
3.114305
 30
5.88
 11
-0.331905
 21
3.134397
 31
5.88
  0
LINE
  5
6EF
100
AcDbEntity
  8
0
100
AcDbLine
 10
-0.352009
 20
3.084167
 30
5.88
 11
-0.341956
 21
3.114305
 31
5.88
  0
LINE
  5
6F0
100
AcDbEntity
  8
0
100
AcDbLine
 10
-0.125858
 20
3.114305
 30
5.88
 11
-0.120832
 21
3.08919
 31
5.88
  0
LINE
  5
6F1
100
AcDbEntity
  8
0
100
AcDbLine
 10
-0.140936
 20
3.139419
 30
5.88
 11
-0.125858
 21
3.114305
 31
5.88
  0
LINE
  5
6F2
100
AcDbEntity
  8
0
100
AcDbLine
 10
-0.161036
 20
3.159511
 30
5.88
 11
-0.140936
 21
3.139419
 31
5.88
  0
LINE
  5
6F3
100
AcDbEntity
  8
0
100
AcDbLine
 10
-0.186165
 20
3.17458
 30
5.88
 11
-0.161036
 21
3.159511
 31
5.88
  0
LINE
  5
6F4
100
AcDbEntity
  8
0
100
AcDbLine
 10
-0.211293
 20
3.184627
 30
5.88
 11
-0.186165
 21
3.17458
 31
5.88
  0
LINE
  5
6F5
100
AcDbEntity
  8
0
100
AcDbLine
 10
-0.216318
 20
3.300157
 30
5.88
 11
-0.246471
 21
3.300157
 31
5.88
  0
LINE
  5
6F6
100
AcDbEntity
  8
0
100
AcDbLine
 10
-0.346983
 20
3.380525
 30
5.88
 11
-0.352009
 21
3.405639
 31
5.88
  0
LINE
  5
6F7
100
AcDbEntity
  8
0
100
AcDbLine
 10
-0.331905
 20
3.355409
 30
5.88
 11
-0.346983
 21
3.380525
 31
5.88
  0
LINE
  5
6F8
100
AcDbEntity
  8
0
100
AcDbLine
 10
-0.316828
 20
3.335318
 30
5.88
 11
-0.331905
 21
3.355409
 31
5.88
  0
LINE
  5
6F9
100
AcDbEntity
  8
0
100
AcDbLine
 10
-0.296726
 20
3.315226
 30
5.88
 11
-0.316828
 21
3.335318
 31
5.88
  0
LINE
  5
6FA
100
AcDbEntity
  8
0
100
AcDbLine
 10
-0.271599
 20
3.305179
 30
5.88
 11
-0.296726
 21
3.315226
 31
5.88
  0
LINE
  5
6FB
100
AcDbEntity
  8
0
100
AcDbLine
 10
-0.246471
 20
3.300157
 30
5.88
 11
-0.271599
 21
3.305179
 31
5.88
  0
LINE
  5
6FC
100
AcDbEntity
  8
0
100
AcDbLine
 10
-0.341956
 20
3.460893
 30
5.88
 11
-0.331905
 21
3.480986
 31
5.88
  0
LINE
  5
6FD
100
AcDbEntity
  8
0
100
AcDbLine
 10
-0.352009
 20
3.435777
 30
5.88
 11
-0.341956
 21
3.460893
 31
5.88
  0
LINE
  5
6FE
100
AcDbEntity
  8
0
100
AcDbLine
 10
-0.352009
 20
3.405639
 30
5.88
 11
-0.352009
 21
3.435777
 31
5.88
  0
LINE
  5
6FF
100
AcDbEntity
  8
0
100
AcDbLine
 10
-0.191191
 20
3.305179
 30
5.88
 11
-0.216318
 21
3.300157
 31
5.88
  0
LINE
  5
700
100
AcDbEntity
  8
0
100
AcDbLine
 10
-0.166063
 20
3.320247
 30
5.88
 11
-0.191191
 21
3.305179
 31
5.88
  0
LINE
  5
701
100
AcDbEntity
  8
0
100
AcDbLine
 10
-0.14596
 20
3.335318
 30
5.88
 11
-0.166063
 21
3.320247
 31
5.88
  0
LINE
  5
702
100
AcDbEntity
  8
0
100
AcDbLine
 10
-0.130883
 20
3.360432
 30
5.88
 11
-0.14596
 21
3.335318
 31
5.88
  0
LINE
  5
703
100
AcDbEntity
  8
0
100
AcDbLine
 10
-0.120832
 20
3.385547
 30
5.88
 11
-0.130883
 21
3.360432
 31
5.88
  0
LINE
  5
704
100
AcDbEntity
  8
0
100
AcDbLine
 10
-0.115805
 20
3.410663
 30
5.88
 11
-0.120832
 21
3.385547
 31
5.88
  0
LINE
  5
705
100
AcDbEntity
  8
0
100
AcDbLine
 10
-0.120832
 20
3.440801
 30
5.88
 11
-0.115805
 21
3.410663
 31
5.88
  0
LINE
  5
706
100
AcDbEntity
  8
0
100
AcDbLine
 10
-0.125858
 20
3.465917
 30
5.88
 11
-0.120832
 21
3.440801
 31
5.88
  0
LINE
  5
707
100
AcDbEntity
  8
0
100
AcDbLine
 10
-0.140936
 20
3.486007
 30
5.88
 11
-0.125858
 21
3.465917
 31
5.88
  0
LINE
  5
708
100
AcDbEntity
  8
0
100
AcDbLine
 10
-0.402264
 20
3.88785
 30
5.88
 11
-0.402264
 21
3.646745
 31
5.88
  0
LINE
  5
709
100
AcDbEntity
  8
0
100
AcDbLine
 10
-0.532929
 20
3.541261
 30
5.88
 11
-0.532929
 21
3.646745
 31
5.88
  0
LINE
  5
70A
100
AcDbEntity
  8
0
100
AcDbLine
 10
-0.311803
 20
3.852688
 30
5.88
 11
-0.150985
 21
3.681905
 31
5.88
  0
LINE
  5
70B
100
AcDbEntity
  8
0
100
AcDbLine
 10
-0.331905
 20
3.701997
 30
5.88
 11
-0.346983
 21
3.727113
 31
5.88
  0
LINE
  5
70C
100
AcDbEntity
  8
0
100
AcDbLine
 10
-0.130883
 20
3.707021
 30
5.88
 11
-0.14596
 21
3.686928
 31
5.88
  0
LINE
  5
70D
100
AcDbEntity
  8
0
100
AcDbLine
 10
-0.23642
 20
3.531214
 30
5.88
 11
-0.211293
 21
3.531214
 31
5.88
  0
LINE
  5
70E
100
AcDbEntity
  8
0
100
AcDbLine
 10
-0.216318
 20
3.646745
 30
5.88
 11
-0.246471
 21
3.646745
 31
5.88
  0
LINE
  5
70F
100
AcDbEntity
  8
0
100
AcDbLine
 10
-0.261548
 20
3.526192
 30
5.88
 11
-0.23642
 21
3.531214
 31
5.88
  0
LINE
  5
710
100
AcDbEntity
  8
0
100
AcDbLine
 10
-0.286675
 20
3.521169
 30
5.88
 11
-0.261548
 21
3.526192
 31
5.88
  0
LINE
  5
711
100
AcDbEntity
  8
0
100
AcDbLine
 10
-0.311803
 20
3.501076
 30
5.88
 11
-0.286675
 21
3.521169
 31
5.88
  0
LINE
  5
712
100
AcDbEntity
  8
0
100
AcDbLine
 10
-0.316828
 20
3.681905
 30
5.88
 11
-0.331905
 21
3.701997
 31
5.88
  0
LINE
  5
713
100
AcDbEntity
  8
0
100
AcDbLine
 10
-0.296726
 20
3.666836
 30
5.88
 11
-0.316828
 21
3.681905
 31
5.88
  0
LINE
  5
714
100
AcDbEntity
  8
0
100
AcDbLine
 10
-0.271599
 20
3.651767
 30
5.88
 11
-0.296726
 21
3.666836
 31
5.88
  0
LINE
  5
715
100
AcDbEntity
  8
0
100
AcDbLine
 10
-0.246471
 20
3.646745
 30
5.88
 11
-0.271599
 21
3.651767
 31
5.88
  0
LINE
  5
716
100
AcDbEntity
  8
0
100
AcDbLine
 10
-0.186165
 20
3.521169
 30
5.88
 11
-0.161036
 21
3.5061
 31
5.88
  0
LINE
  5
717
100
AcDbEntity
  8
0
100
AcDbLine
 10
-0.211293
 20
3.531214
 30
5.88
 11
-0.186165
 21
3.521169
 31
5.88
  0
LINE
  5
718
100
AcDbEntity
  8
0
100
AcDbLine
 10
-0.191191
 20
3.656791
 30
5.88
 11
-0.216318
 21
3.646745
 31
5.88
  0
LINE
  5
719
100
AcDbEntity
  8
0
100
AcDbLine
 10
-0.166063
 20
3.666836
 30
5.88
 11
-0.191191
 21
3.656791
 31
5.88
  0
LINE
  5
71A
100
AcDbEntity
  8
0
100
AcDbLine
 10
-0.14596
 20
3.686928
 30
5.88
 11
-0.166063
 21
3.666836
 31
5.88
  0
LINE
  5
71B
100
AcDbEntity
  8
0
100
AcDbLine
 10
-0.23642
 20
3.877802
 30
5.88
 11
-0.211293
 21
3.877802
 31
5.88
  0
LINE
  5
71C
100
AcDbEntity
  8
0
100
AcDbLine
 10
-0.346983
 20
3.727113
 30
5.88
 11
-0.352009
 21
3.752228
 31
5.88
  0
LINE
  5
71D
100
AcDbEntity
  8
0
100
AcDbLine
 10
-0.261548
 20
3.877802
 30
5.88
 11
-0.23642
 21
3.877802
 31
5.88
  0
LINE
  5
71E
100
AcDbEntity
  8
0
100
AcDbLine
 10
-0.286675
 20
3.867757
 30
5.88
 11
-0.261548
 21
3.877802
 31
5.88
  0
LINE
  5
71F
100
AcDbEntity
  8
0
100
AcDbLine
 10
-0.311803
 20
3.852688
 30
5.88
 11
-0.286675
 21
3.867757
 31
5.88
  0
LINE
  5
720
100
AcDbEntity
  8
0
100
AcDbLine
 10
-0.331905
 20
3.832596
 30
5.88
 11
-0.311803
 21
3.852688
 31
5.88
  0
LINE
  5
721
100
AcDbEntity
  8
0
100
AcDbLine
 10
-0.341956
 20
3.807482
 30
5.88
 11
-0.331905
 21
3.832596
 31
5.88
  0
LINE
  5
722
100
AcDbEntity
  8
0
100
AcDbLine
 10
-0.352009
 20
3.782365
 30
5.88
 11
-0.341956
 21
3.807482
 31
5.88
  0
LINE
  5
723
100
AcDbEntity
  8
0
100
AcDbLine
 10
-0.352009
 20
3.752228
 30
5.88
 11
-0.352009
 21
3.782365
 31
5.88
  0
LINE
  5
724
100
AcDbEntity
  8
0
100
AcDbLine
 10
-0.120832
 20
3.732135
 30
5.88
 11
-0.130883
 21
3.707021
 31
5.88
  0
LINE
  5
725
100
AcDbEntity
  8
0
100
AcDbLine
 10
-0.115805
 20
3.757251
 30
5.88
 11
-0.120832
 21
3.732135
 31
5.88
  0
LINE
  5
726
100
AcDbEntity
  8
0
100
AcDbLine
 10
-0.120832
 20
3.787389
 30
5.88
 11
-0.115805
 21
3.757251
 31
5.88
  0
LINE
  5
727
100
AcDbEntity
  8
0
100
AcDbLine
 10
-0.125858
 20
3.812503
 30
5.88
 11
-0.120832
 21
3.787389
 31
5.88
  0
LINE
  5
728
100
AcDbEntity
  8
0
100
AcDbLine
 10
-0.140936
 20
3.832596
 30
5.88
 11
-0.125858
 21
3.812503
 31
5.88
  0
LINE
  5
729
100
AcDbEntity
  8
0
100
AcDbLine
 10
-0.161036
 20
3.852688
 30
5.88
 11
-0.140936
 21
3.832596
 31
5.88
  0
LINE
  5
72A
100
AcDbEntity
  8
0
100
AcDbLine
 10
-0.186165
 20
3.867757
 30
5.88
 11
-0.161036
 21
3.852688
 31
5.88
  0
LINE
  5
72B
100
AcDbEntity
  8
0
100
AcDbLine
 10
-0.211293
 20
3.877802
 30
5.88
 11
-0.186165
 21
3.867757
 31
5.88
  0
LINE
  5
72C
100
AcDbEntity
  8
0
100
AcDbLine
 10
-0.06555
 20
3.295133
 30
5.88
 11
-0.06555
 21
3.194673
 31
5.88
  0
LINE
  5
72D
100
AcDbEntity
  8
0
100
AcDbLine
 10
0.060088
 20
3.295133
 30
5.88
 11
0.060088
 21
3.194673
 31
5.88
  0
LINE
  5
72E
100
AcDbEntity
  8
0
100
AcDbLine
 10
-0.06555
 20
3.646745
 30
5.88
 11
-0.06555
 21
3.541261
 31
5.88
  0
LINE
  5
72F
100
AcDbEntity
  8
0
100
AcDbLine
 10
0.060088
 20
3.646745
 30
5.88
 11
0.060088
 21
3.541261
 31
5.88
  0
LINE
  5
730
100
AcDbEntity
  8
0
100
AcDbLine
 10
-0.492723
 20
4.33992
 30
5.88
 11
-0.035397
 21
4.33992
 31
5.88
  0
LINE
  5
731
100
AcDbEntity
  8
0
100
AcDbLine
 10
-0.040422
 20
4.144023
 30
5.88
 11
-0.492723
 21
4.144023
 31
5.88
  0
LINE
  5
732
100
AcDbEntity
  8
0
100
AcDbLine
 10
-0.492723
 20
4.199277
 30
5.88
 11
-0.035397
 21
4.199277
 31
5.88
  0
LINE
  5
733
100
AcDbEntity
  8
0
100
AcDbLine
 10
-0.492723
 20
4.033517
 30
5.88
 11
-0.035397
 21
4.033517
 31
5.88
  0
LINE
  5
734
100
AcDbEntity
  8
0
100
AcDbLine
 10
-0.492723
 20
4.495635
 30
5.88
 11
-0.492723
 21
4.033517
 31
5.88
  0
LINE
  5
735
100
AcDbEntity
  8
0
100
AcDbLine
 10
-0.407289
 20
4.33992
 30
5.88
 11
-0.407289
 21
4.495635
 31
5.88
  0
LINE
  5
736
100
AcDbEntity
  8
0
100
AcDbLine
 10
-0.150985
 20
4.495635
 30
5.88
 11
-0.150985
 21
4.33992
 31
5.88
  0
LINE
  5
737
100
AcDbEntity
  8
0
100
AcDbLine
 10
0.045013
 20
4.495635
 30
5.88
 11
0.045013
 21
4.259552
 31
5.88
  0
LINE
  5
738
100
AcDbEntity
  8
0
100
AcDbLine
 10
-0.035397
 20
4.495635
 30
5.88
 11
-0.035397
 21
4.033517
 31
5.88
  0
LINE
  5
739
100
AcDbEntity
  8
0
100
AcDbLine
 10
0.135472
 20
4.098816
 30
5.88
 11
0.1606
 21
4.088769
 31
5.88
  0
LINE
  5
73A
100
AcDbEntity
  8
0
100
AcDbLine
 10
0.135472
 20
4.254531
 30
5.88
 11
0.1606
 21
4.244483
 31
5.88
  0
LINE
  5
73B
100
AcDbEntity
  8
0
100
AcDbLine
 10
-0.035397
 20
4.10384
 30
5.88
 11
0.11537
 21
4.10384
 31
5.88
  0
LINE
  5
73C
100
AcDbEntity
  8
0
100
AcDbLine
 10
0.11537
 20
4.10384
 30
5.88
 11
0.135472
 21
4.098816
 31
5.88
  0
LINE
  5
73D
100
AcDbEntity
  8
0
100
AcDbLine
 10
-0.035397
 20
4.259552
 30
5.88
 11
0.11537
 21
4.259552
 31
5.88
  0
LINE
  5
73E
100
AcDbEntity
  8
0
100
AcDbLine
 10
0.11537
 20
4.259552
 30
5.88
 11
0.135472
 21
4.254531
 31
5.88
  0
LINE
  5
73F
100
AcDbEntity
  8
0
100
AcDbLine
 10
0.195778
 20
4.038541
 30
5.88
 11
0.195778
 21
4.018448
 31
5.88
  0
LINE
  5
740
100
AcDbEntity
  8
0
100
AcDbLine
 10
0.190753
 20
4.058631
 30
5.88
 11
0.195778
 21
4.038541
 31
5.88
  0
LINE
  5
741
100
AcDbEntity
  8
0
100
AcDbLine
 10
0.175678
 20
4.078724
 30
5.88
 11
0.190753
 21
4.058631
 31
5.88
  0
LINE
  5
742
100
AcDbEntity
  8
0
100
AcDbLine
 10
0.1606
 20
4.088769
 30
5.88
 11
0.175678
 21
4.078724
 31
5.88
  0
LINE
  5
743
100
AcDbEntity
  8
0
100
AcDbLine
 10
0.195778
 20
4.194253
 30
5.88
 11
0.195778
 21
4.174161
 31
5.88
  0
LINE
  5
744
100
AcDbEntity
  8
0
100
AcDbLine
 10
0.190753
 20
4.214346
 30
5.88
 11
0.195778
 21
4.194253
 31
5.88
  0
LINE
  5
745
100
AcDbEntity
  8
0
100
AcDbLine
 10
0.175678
 20
4.234438
 30
5.88
 11
0.190753
 21
4.214346
 31
5.88
  0
LINE
  5
746
100
AcDbEntity
  8
0
100
AcDbLine
 10
0.1606
 20
4.244483
 30
5.88
 11
0.175678
 21
4.234438
 31
5.88
  0
LINE
  5
747
100
AcDbEntity
  8
0
100
AcDbLine
 10
0.261112
 20
4.550887
 30
5.88
 11
0.246035
 21
4.530796
 31
5.88
  0
LINE
  5
748
100
AcDbEntity
  8
0
100
AcDbLine
 10
0.175678
 20
4.500659
 30
5.88
 11
0.1606
 21
4.500659
 31
5.88
  0
LINE
  5
749
100
AcDbEntity
  8
0
100
AcDbLine
 10
0.200806
 20
4.50568
 30
5.88
 11
0.175678
 21
4.500659
 31
5.88
  0
LINE
  5
74A
100
AcDbEntity
  8
0
100
AcDbLine
 10
0.225933
 20
4.515727
 30
5.88
 11
0.200806
 21
4.50568
 31
5.88
  0
LINE
  5
74B
100
AcDbEntity
  8
0
100
AcDbLine
 10
0.246035
 20
4.530796
 30
5.88
 11
0.225933
 21
4.515727
 31
5.88
  0
LINE
  5
74C
100
AcDbEntity
  8
0
100
AcDbLine
 10
0.271163
 20
4.576003
 30
5.88
 11
0.261112
 21
4.550887
 31
5.88
  0
LINE
  5
74D
100
AcDbEntity
  8
0
100
AcDbLine
 10
0.271163
 20
4.601117
 30
5.88
 11
0.271163
 21
4.576003
 31
5.88
  0
LINE
  5
74E
100
AcDbEntity
  8
0
100
AcDbLine
 10
0.271163
 20
4.626233
 30
5.88
 11
0.271163
 21
4.601117
 31
5.88
  0
POLYLINE
  5
74F
100
AcDbEntity
  8
0
100
AcDbPolygonMesh
 66
     1
 10
0.0
 20
0.0
 30
0.0
 70
    16
 71
     6
 72
     3
  0
VERTEX
  5
750
100
AcDbEntity
  8
0
100
AcDbVertex
100
AcDbPolygonMeshVertex
 10
0.068
 20
9.8
 30
4.755
 70
    64
  0
VERTEX
  5
751
100
AcDbEntity
  8
0
100
AcDbVertex
100
AcDbPolygonMeshVertex
 10
0.068
 20
9.8
 30
0.0
 70
    64
  0
VERTEX
  5
752
100
AcDbEntity
  8
0
100
AcDbVertex
100
AcDbPolygonMeshVertex
 10
0.068
 20
9.8
 30
0.0
 70
    64
  0
VERTEX
  5
753
100
AcDbEntity
  8
0
100
AcDbVertex
100
AcDbPolygonMeshVertex
 10
0.0
 20
9.8
 30
4.755
 70
    64
  0
VERTEX
  5
754
100
AcDbEntity
  8
0
100
AcDbVertex
100
AcDbPolygonMeshVertex
 10
0.0
 20
9.8
 30
0.0
 70
    64
  0
VERTEX
  5
755
100
AcDbEntity
  8
0
100
AcDbVertex
100
AcDbPolygonMeshVertex
 10
0.0
 20
9.8
 30
0.0
 70
    64
  0
VERTEX
  5
756
100
AcDbEntity
  8
0
100
AcDbVertex
100
AcDbPolygonMeshVertex
 10
0.0
 20
10.0
 30
4.755
 70
    64
  0
VERTEX
  5
757
100
AcDbEntity
  8
0
100
AcDbVertex
100
AcDbPolygonMeshVertex
 10
0.0
 20
10.0
 30
0.0
 70
    64
  0
VERTEX
  5
758
100
AcDbEntity
  8
0
100
AcDbVertex
100
AcDbPolygonMeshVertex
 10
0.0
 20
9.8
 30
0.0
 70
    64
  0
VERTEX
  5
759
100
AcDbEntity
  8
0
100
AcDbVertex
100
AcDbPolygonMeshVertex
 10
0.068
 20
10.0
 30
4.755
 70
    64
  0
VERTEX
  5
75A
100
AcDbEntity
  8
0
100
AcDbVertex
100
AcDbPolygonMeshVertex
 10
0.068
 20
10.0
 30
0.0
 70
    64
  0
VERTEX
  5
75B
100
AcDbEntity
  8
0
100
AcDbVertex
100
AcDbPolygonMeshVertex
 10
0.068
 20
9.8
 30
0.0
 70
    64
  0
VERTEX
  5
75C
100
AcDbEntity
  8
0
100
AcDbVertex
100
AcDbPolygonMeshVertex
 10
0.068
 20
10.0
 30
4.755
 70
    64
  0
VERTEX
  5
75D
100
AcDbEntity
  8
0
100
AcDbVertex
100
AcDbPolygonMeshVertex
 10
0.068
 20
10.0
 30
4.755
 70
    64
  0
VERTEX
  5
75E
100
AcDbEntity
  8
0
100
AcDbVertex
100
AcDbPolygonMeshVertex
 10
0.068
 20
9.8
 30
4.755
 70
    64
  0
VERTEX
  5
75F
100
AcDbEntity
  8
0
100
AcDbVertex
100
AcDbPolygonMeshVertex
 10
0.0
 20
10.0
 30
4.755
 70
    64
  0
VERTEX
  5
760
100
AcDbEntity
  8
0
100
AcDbVertex
100
AcDbPolygonMeshVertex
 10
0.0
 20
10.0
 30
4.755
 70
    64
  0
VERTEX
  5
761
100
AcDbEntity
  8
0
100
AcDbVertex
100
AcDbPolygonMeshVertex
 10
0.0
 20
9.8
 30
4.755
 70
    64
  0
SEQEND
  5
762
100
AcDbEntity
  8
0
  0
LINE
  5
763
100
AcDbEntity
  8
0
100
AcDbLine
 10
-0.693747
 20
7.699034
 30
5.88
 11
-0.693747
 21
8.119875
 31
5.88
  0
LINE
  5
764
100
AcDbEntity
  8
0
100
AcDbLine
 10
0.085215
 20
8.119875
 30
5.88
 11
0.085215
 21
7.699034
 31
5.88
  0
LINE
  5
765
100
AcDbEntity
  8
0
100
AcDbLine
 10
-0.367085
 20
4.906601
 30
5.88
 11
-0.784208
 21
4.906601
 31
5.88
  0
LINE
  5
766
100
AcDbEntity
  8
0
100
AcDbLine
 10
-0.784208
 20
7.648804
 30
5.88
 11
-0.367085
 21
7.648804
 31
5.88
  0
LINE
  5
767
100
AcDbEntity
  8
0
100
AcDbLine
 10
0.085215
 20
7.699034
 30
5.88
 11
-0.693747
 21
7.699034
 31
5.88
  0
LINE
  5
768
100
AcDbEntity
  8
0
100
AcDbLine
 10
-0.784208
 20
4.906601
 30
5.88
 11
-0.784208
 21
7.648804
 31
5.88
  0
LINE
  5
769
100
AcDbEntity
  8
0
100
AcDbLine
 10
-0.02032
 20
6.403597
 30
5.88
 11
-0.000218
 21
6.383505
 31
5.88
  0
LINE
  5
76A
100
AcDbEntity
  8
0
100
AcDbLine
 10
-0.186165
 20
6.373458
 30
5.88
 11
-0.171087
 21
6.398574
 31
5.88
  0
LINE
  5
76B
100
AcDbEntity
  8
0
100
AcDbLine
 10
-0.367085
 20
7.648804
 30
5.88
 11
-0.367085
 21
4.906601
 31
5.88
  0
LINE
  5
76C
100
AcDbEntity
  8
0
100
AcDbLine
 10
-0.120832
 20
5.22369
 30
5.88
 11
-0.095703
 21
5.228712
 31
5.88
  0
LINE
  5
76D
100
AcDbEntity
  8
0
100
AcDbLine
 10
-0.095703
 20
4.992629
 30
5.88
 11
-0.125858
 21
4.997653
 31
5.88
  0
LINE
  5
76E
100
AcDbEntity
  8
0
100
AcDbLine
 10
-0.095703
 20
5.292629
 30
5.88
 11
-0.125858
 21
5.297653
 31
5.88
  0
LINE
  5
76F
100
AcDbEntity
  8
0
100
AcDbLine
 10
-0.120832
 20
5.52369
 30
5.88
 11
-0.095703
 21
5.528712
 31
5.88
  0
LINE
  5
770
100
AcDbEntity
  8
0
100
AcDbLine
 10
-0.20124
 20
5.153367
 30
5.88
 11
-0.186165
 21
5.173458
 31
5.88
  0
LINE
  5
771
100
AcDbEntity
  8
0
100
AcDbLine
 10
-0.206266
 20
5.098113
 30
5.88
 11
-0.206266
 21
5.123227
 31
5.88
  0
LINE
  5
772
100
AcDbEntity
  8
0
100
AcDbLine
 10
-0.20124
 20
5.072999
 30
5.88
 11
-0.206266
 21
5.098113
 31
5.88
  0
LINE
  5
773
100
AcDbEntity
  8
0
100
AcDbLine
 10
-0.206266
 20
5.123227
 30
5.88
 11
-0.20124
 21
5.153367
 31
5.88
  0
LINE
  5
774
100
AcDbEntity
  8
0
100
AcDbLine
 10
-0.171087
 20
5.02779
 30
5.88
 11
-0.186165
 21
5.047883
 31
5.88
  0
LINE
  5
775
100
AcDbEntity
  8
0
100
AcDbLine
 10
-0.125858
 20
4.997653
 30
5.88
 11
-0.14596
 21
5.0077
 31
5.88
  0
LINE
  5
776
100
AcDbEntity
  8
0
100
AcDbLine
 10
-0.14596
 20
5.0077
 30
5.88
 11
-0.171087
 21
5.02779
 31
5.88
  0
LINE
  5
777
100
AcDbEntity
  8
0
100
AcDbLine
 10
-0.186165
 20
5.047883
 30
5.88
 11
-0.20124
 21
5.072999
 31
5.88
  0
LINE
  5
778
100
AcDbEntity
  8
0
100
AcDbLine
 10
-0.186165
 20
5.347883
 30
5.88
 11
-0.20124
 21
5.372999
 31
5.88
  0
LINE
  5
779
100
AcDbEntity
  8
0
100
AcDbLine
 10
-0.186165
 20
5.173458
 30
5.88
 11
-0.171087
 21
5.198574
 31
5.88
  0
LINE
  5
77A
100
AcDbEntity
  8
0
100
AcDbLine
 10
-0.171087
 20
5.198574
 30
5.88
 11
-0.14596
 21
5.213643
 31
5.88
  0
LINE
  5
77B
100
AcDbEntity
  8
0
100
AcDbLine
 10
-0.14596
 20
5.213643
 30
5.88
 11
-0.120832
 21
5.22369
 31
5.88
  0
LINE
  5
77C
100
AcDbEntity
  8
0
100
AcDbLine
 10
-0.14596
 20
5.3077
 30
5.88
 11
-0.171087
 21
5.32779
 31
5.88
  0
LINE
  5
77D
100
AcDbEntity
  8
0
100
AcDbLine
 10
-0.125858
 20
5.297653
 30
5.88
 11
-0.14596
 21
5.3077
 31
5.88
  0
LINE
  5
77E
100
AcDbEntity
  8
0
100
AcDbLine
 10
-0.171087
 20
5.32779
 30
5.88
 11
-0.186165
 21
5.347883
 31
5.88
  0
LINE
  5
77F
100
AcDbEntity
  8
0
100
AcDbLine
 10
-0.206266
 20
5.423227
 30
5.88
 11
-0.20124
 21
5.453367
 31
5.88
  0
LINE
  5
780
100
AcDbEntity
  8
0
100
AcDbLine
 10
-0.14596
 20
5.513643
 30
5.88
 11
-0.120832
 21
5.52369
 31
5.88
  0
LINE
  5
781
100
AcDbEntity
  8
0
100
AcDbLine
 10
-0.171087
 20
5.498574
 30
5.88
 11
-0.14596
 21
5.513643
 31
5.88
  0
LINE
  5
782
100
AcDbEntity
  8
0
100
AcDbLine
 10
-0.186165
 20
5.473458
 30
5.88
 11
-0.171087
 21
5.498574
 31
5.88
  0
LINE
  5
783
100
AcDbEntity
  8
0
100
AcDbLine
 10
-0.20124
 20
5.453367
 30
5.88
 11
-0.186165
 21
5.473458
 31
5.88
  0
LINE
  5
784
100
AcDbEntity
  8
0
100
AcDbLine
 10
-0.20124
 20
5.372999
 30
5.88
 11
-0.206266
 21
5.398113
 31
5.88
  0
LINE
  5
785
100
AcDbEntity
  8
0
100
AcDbLine
 10
-0.206266
 20
5.398113
 30
5.88
 11
-0.206266
 21
5.423227
 31
5.88
  0
LINE
  5
786
100
AcDbEntity
  8
0
100
AcDbLine
 10
0.014858
 20
5.163412
 30
5.88
 11
0.024909
 21
5.138298
 31
5.88
  0
LINE
  5
787
100
AcDbEntity
  8
0
100
AcDbLine
 10
0.024909
 20
5.083044
 30
5.88
 11
0.014858
 21
5.057928
 31
5.88
  0
LINE
  5
788
100
AcDbEntity
  8
0
100
AcDbLine
 10
0.014858
 20
5.057928
 30
5.88
 11
-0.000218
 21
5.032814
 31
5.88
  0
LINE
  5
789
100
AcDbEntity
  8
0
100
AcDbLine
 10
-0.000218
 20
5.032814
 30
5.88
 11
-0.02032
 21
5.017745
 31
5.88
  0
LINE
  5
78A
100
AcDbEntity
  8
0
100
AcDbLine
 10
-0.02032
 20
5.017745
 30
5.88
 11
-0.045448
 21
5.002676
 31
5.88
  0
LINE
  5
78B
100
AcDbEntity
  8
0
100
AcDbLine
 10
-0.045448
 20
5.002676
 30
5.88
 11
-0.070575
 21
4.992629
 31
5.88
  0
LINE
  5
78C
100
AcDbEntity
  8
0
100
AcDbLine
 10
-0.070575
 20
4.992629
 30
5.88
 11
-0.095703
 21
4.992629
 31
5.88
  0
LINE
  5
78D
100
AcDbEntity
  8
0
100
AcDbLine
 10
0.029935
 20
5.10816
 30
5.88
 11
0.024909
 21
5.083044
 31
5.88
  0
LINE
  5
78E
100
AcDbEntity
  8
0
100
AcDbLine
 10
0.024909
 20
5.138298
 30
5.88
 11
0.029935
 21
5.10816
 31
5.88
  0
LINE
  5
78F
100
AcDbEntity
  8
0
100
AcDbLine
 10
0.024909
 20
5.383044
 30
5.88
 11
0.014858
 21
5.357928
 31
5.88
  0
LINE
  5
790
100
AcDbEntity
  8
0
100
AcDbLine
 10
-0.095703
 20
5.228712
 30
5.88
 11
-0.070575
 21
5.22369
 31
5.88
  0
LINE
  5
791
100
AcDbEntity
  8
0
100
AcDbLine
 10
-0.070575
 20
5.22369
 30
5.88
 11
-0.040422
 21
5.218666
 31
5.88
  0
LINE
  5
792
100
AcDbEntity
  8
0
100
AcDbLine
 10
-0.040422
 20
5.218666
 30
5.88
 11
-0.02032
 21
5.203597
 31
5.88
  0
LINE
  5
793
100
AcDbEntity
  8
0
100
AcDbLine
 10
-0.02032
 20
5.203597
 30
5.88
 11
-0.000218
 21
5.183505
 31
5.88
  0
LINE
  5
794
100
AcDbEntity
  8
0
100
AcDbLine
 10
-0.000218
 20
5.183505
 30
5.88
 11
0.014858
 21
5.163412
 31
5.88
  0
LINE
  5
795
100
AcDbEntity
  8
0
100
AcDbLine
 10
-0.070575
 20
5.292629
 30
5.88
 11
-0.095703
 21
5.292629
 31
5.88
  0
LINE
  5
796
100
AcDbEntity
  8
0
100
AcDbLine
 10
-0.045448
 20
5.302676
 30
5.88
 11
-0.070575
 21
5.292629
 31
5.88
  0
LINE
  5
797
100
AcDbEntity
  8
0
100
AcDbLine
 10
-0.02032
 20
5.317745
 30
5.88
 11
-0.045448
 21
5.302676
 31
5.88
  0
LINE
  5
798
100
AcDbEntity
  8
0
100
AcDbLine
 10
-0.000218
 20
5.332814
 30
5.88
 11
-0.02032
 21
5.317745
 31
5.88
  0
LINE
  5
799
100
AcDbEntity
  8
0
100
AcDbLine
 10
0.014858
 20
5.357928
 30
5.88
 11
-0.000218
 21
5.332814
 31
5.88
  0
LINE
  5
79A
100
AcDbEntity
  8
0
100
AcDbLine
 10
0.014858
 20
5.463412
 30
5.88
 11
0.024909
 21
5.438298
 31
5.88
  0
LINE
  5
79B
100
AcDbEntity
  8
0
100
AcDbLine
 10
-0.000218
 20
5.483505
 30
5.88
 11
0.014858
 21
5.463412
 31
5.88
  0
LINE
  5
79C
100
AcDbEntity
  8
0
100
AcDbLine
 10
-0.02032
 20
5.503597
 30
5.88
 11
-0.000218
 21
5.483505
 31
5.88
  0
LINE
  5
79D
100
AcDbEntity
  8
0
100
AcDbLine
 10
-0.040422
 20
5.518666
 30
5.88
 11
-0.02032
 21
5.503597
 31
5.88
  0
LINE
  5
79E
100
AcDbEntity
  8
0
100
AcDbLine
 10
-0.070575
 20
5.52369
 30
5.88
 11
-0.040422
 21
5.518666
 31
5.88
  0
LINE
  5
79F
100
AcDbEntity
  8
0
100
AcDbLine
 10
-0.095703
 20
5.528712
 30
5.88
 11
-0.070575
 21
5.52369
 31
5.88
  0
LINE
  5
7A0
100
AcDbEntity
  8
0
100
AcDbLine
 10
0.024909
 20
5.438298
 30
5.88
 11
0.029935
 21
5.40816
 31
5.88
  0
LINE
  5
7A1
100
AcDbEntity
  8
0
100
AcDbLine
 10
0.029935
 20
5.40816
 30
5.88
 11
0.024909
 21
5.383044
 31
5.88
  0
LINE
  5
7A2
100
AcDbEntity
  8
0
100
AcDbLine
 10
-0.095703
 20
6.192629
 30
5.88
 11
-0.125858
 21
6.197653
 31
5.88
  0
LINE
  5
7A3
100
AcDbEntity
  8
0
100
AcDbLine
 10
-0.120832
 20
6.12369
 30
5.88
 11
-0.095703
 21
6.128712
 31
5.88
  0
LINE
  5
7A4
100
AcDbEntity
  8
0
100
AcDbLine
 10
-0.095703
 20
5.892629
 30
5.88
 11
-0.125858
 21
5.897653
 31
5.88
  0
LINE
  5
7A5
100
AcDbEntity
  8
0
100
AcDbLine
 10
-0.120832
 20
5.82369
 30
5.88
 11
-0.095703
 21
5.828712
 31
5.88
  0
LINE
  5
7A6
100
AcDbEntity
  8
0
100
AcDbLine
 10
-0.095703
 20
5.592629
 30
5.88
 11
-0.125858
 21
5.597653
 31
5.88
  0
LINE
  5
7A7
100
AcDbEntity
  8
0
100
AcDbLine
 10
-0.20124
 20
5.972999
 30
5.88
 11
-0.206266
 21
5.998113
 31
5.88
  0
LINE
  5
7A8
100
AcDbEntity
  8
0
100
AcDbLine
 10
-0.186165
 20
5.773458
 30
5.88
 11
-0.171087
 21
5.798574
 31
5.88
  0
LINE
  5
7A9
100
AcDbEntity
  8
0
100
AcDbLine
 10
-0.171087
 20
5.62779
 30
5.88
 11
-0.186165
 21
5.647883
 31
5.88
  0
LINE
  5
7AA
100
AcDbEntity
  8
0
100
AcDbLine
 10
-0.20124
 20
5.753367
 30
5.88
 11
-0.186165
 21
5.773458
 31
5.88
  0
LINE
  5
7AB
100
AcDbEntity
  8
0
100
AcDbLine
 10
-0.206266
 20
5.698113
 30
5.88
 11
-0.206266
 21
5.723227
 31
5.88
  0
LINE
  5
7AC
100
AcDbEntity
  8
0
100
AcDbLine
 10
-0.20124
 20
5.672999
 30
5.88
 11
-0.206266
 21
5.698113
 31
5.88
  0
LINE
  5
7AD
100
AcDbEntity
  8
0
100
AcDbLine
 10
-0.206266
 20
5.723227
 30
5.88
 11
-0.20124
 21
5.753367
 31
5.88
  0
LINE
  5
7AE
100
AcDbEntity
  8
0
100
AcDbLine
 10
-0.186165
 20
5.647883
 30
5.88
 11
-0.20124
 21
5.672999
 31
5.88
  0
LINE
  5
7AF
100
AcDbEntity
  8
0
100
AcDbLine
 10
-0.125858
 20
5.597653
 30
5.88
 11
-0.14596
 21
5.6077
 31
5.88
  0
LINE
  5
7B0
100
AcDbEntity
  8
0
100
AcDbLine
 10
-0.14596
 20
5.6077
 30
5.88
 11
-0.171087
 21
5.62779
 31
5.88
  0
LINE
  5
7B1
100
AcDbEntity
  8
0
100
AcDbLine
 10
-0.171087
 20
5.92779
 30
5.88
 11
-0.186165
 21
5.947883
 31
5.88
  0
LINE
  5
7B2
100
AcDbEntity
  8
0
100
AcDbLine
 10
-0.125858
 20
5.897653
 30
5.88
 11
-0.14596
 21
5.9077
 31
5.88
  0
LINE
  5
7B3
100
AcDbEntity
  8
0
100
AcDbLine
 10
-0.14596
 20
5.9077
 30
5.88
 11
-0.171087
 21
5.92779
 31
5.88
  0
LINE
  5
7B4
100
AcDbEntity
  8
0
100
AcDbLine
 10
-0.186165
 20
5.947883
 30
5.88
 11
-0.20124
 21
5.972999
 31
5.88
  0
LINE
  5
7B5
100
AcDbEntity
  8
0
100
AcDbLine
 10
-0.171087
 20
5.798574
 30
5.88
 11
-0.14596
 21
5.813643
 31
5.88
  0
LINE
  5
7B6
100
AcDbEntity
  8
0
100
AcDbLine
 10
-0.14596
 20
5.813643
 30
5.88
 11
-0.120832
 21
5.82369
 31
5.88
  0
LINE
  5
7B7
100
AcDbEntity
  8
0
100
AcDbLine
 10
-0.20124
 20
6.053367
 30
5.88
 11
-0.186165
 21
6.073458
 31
5.88
  0
LINE
  5
7B8
100
AcDbEntity
  8
0
100
AcDbLine
 10
-0.186165
 20
6.073458
 30
5.88
 11
-0.171087
 21
6.098574
 31
5.88
  0
LINE
  5
7B9
100
AcDbEntity
  8
0
100
AcDbLine
 10
-0.171087
 20
6.098574
 30
5.88
 11
-0.14596
 21
6.113643
 31
5.88
  0
LINE
  5
7BA
100
AcDbEntity
  8
0
100
AcDbLine
 10
-0.14596
 20
6.113643
 30
5.88
 11
-0.120832
 21
6.12369
 31
5.88
  0
LINE
  5
7BB
100
AcDbEntity
  8
0
100
AcDbLine
 10
-0.206266
 20
5.998113
 30
5.88
 11
-0.206266
 21
6.023227
 31
5.88
  0
LINE
  5
7BC
100
AcDbEntity
  8
0
100
AcDbLine
 10
-0.206266
 20
6.023227
 30
5.88
 11
-0.20124
 21
6.053367
 31
5.88
  0
LINE
  5
7BD
100
AcDbEntity
  8
0
100
AcDbLine
 10
-0.186165
 20
6.247883
 30
5.88
 11
-0.20124
 21
6.272999
 31
5.88
  0
LINE
  5
7BE
100
AcDbEntity
  8
0
100
AcDbLine
 10
-0.206266
 20
6.323227
 30
5.88
 11
-0.20124
 21
6.353367
 31
5.88
  0
LINE
  5
7BF
100
AcDbEntity
  8
0
100
AcDbLine
 10
-0.20124
 20
6.272999
 30
5.88
 11
-0.206266
 21
6.298113
 31
5.88
  0
LINE
  5
7C0
100
AcDbEntity
  8
0
100
AcDbLine
 10
-0.206266
 20
6.298113
 30
5.88
 11
-0.206266
 21
6.323227
 31
5.88
  0
LINE
  5
7C1
100
AcDbEntity
  8
0
100
AcDbLine
 10
-0.20124
 20
6.353367
 30
5.88
 11
-0.186165
 21
6.373458
 31
5.88
  0
LINE
  5
7C2
100
AcDbEntity
  8
0
100
AcDbLine
 10
-0.14596
 20
6.2077
 30
5.88
 11
-0.171087
 21
6.22779
 31
5.88
  0
LINE
  5
7C3
100
AcDbEntity
  8
0
100
AcDbLine
 10
-0.125858
 20
6.197653
 30
5.88
 11
-0.14596
 21
6.2077
 31
5.88
  0
LINE
  5
7C4
100
AcDbEntity
  8
0
100
AcDbLine
 10
-0.171087
 20
6.22779
 30
5.88
 11
-0.186165
 21
6.247883
 31
5.88
  0
LINE
  5
7C5
100
AcDbEntity
  8
0
100
AcDbLine
 10
0.029935
 20
6.00816
 30
5.88
 11
0.024909
 21
5.983044
 31
5.88
  0
LINE
  5
7C6
100
AcDbEntity
  8
0
100
AcDbLine
 10
-0.000218
 20
5.783505
 30
5.88
 11
0.014858
 21
5.763412
 31
5.88
  0
LINE
  5
7C7
100
AcDbEntity
  8
0
100
AcDbLine
 10
0.014858
 20
5.763412
 30
5.88
 11
0.024909
 21
5.738298
 31
5.88
  0
LINE
  5
7C8
100
AcDbEntity
  8
0
100
AcDbLine
 10
0.024909
 20
5.683044
 30
5.88
 11
0.014858
 21
5.657928
 31
5.88
  0
LINE
  5
7C9
100
AcDbEntity
  8
0
100
AcDbLine
 10
0.014858
 20
5.657928
 30
5.88
 11
-0.000218
 21
5.632814
 31
5.88
  0
LINE
  5
7CA
100
AcDbEntity
  8
0
100
AcDbLine
 10
-0.000218
 20
5.632814
 30
5.88
 11
-0.02032
 21
5.617745
 31
5.88
  0
LINE
  5
7CB
100
AcDbEntity
  8
0
100
AcDbLine
 10
-0.045448
 20
5.602676
 30
5.88
 11
-0.070575
 21
5.592629
 31
5.88
  0
LINE
  5
7CC
100
AcDbEntity
  8
0
100
AcDbLine
 10
-0.070575
 20
5.592629
 30
5.88
 11
-0.095703
 21
5.592629
 31
5.88
  0
LINE
  5
7CD
100
AcDbEntity
  8
0
100
AcDbLine
 10
-0.02032
 20
5.617745
 30
5.88
 11
-0.045448
 21
5.602676
 31
5.88
  0
LINE
  5
7CE
100
AcDbEntity
  8
0
100
AcDbLine
 10
0.029935
 20
5.70816
 30
5.88
 11
0.024909
 21
5.683044
 31
5.88
  0
LINE
  5
7CF
100
AcDbEntity
  8
0
100
AcDbLine
 10
0.024909
 20
5.738298
 30
5.88
 11
0.029935
 21
5.70816
 31
5.88
  0
LINE
  5
7D0
100
AcDbEntity
  8
0
100
AcDbLine
 10
0.024909
 20
5.983044
 30
5.88
 11
0.014858
 21
5.957928
 31
5.88
  0
LINE
  5
7D1
100
AcDbEntity
  8
0
100
AcDbLine
 10
0.014858
 20
5.957928
 30
5.88
 11
-0.000218
 21
5.932814
 31
5.88
  0
LINE
  5
7D2
100
AcDbEntity
  8
0
100
AcDbLine
 10
-0.000218
 20
5.932814
 30
5.88
 11
-0.02032
 21
5.917745
 31
5.88
  0
LINE
  5
7D3
100
AcDbEntity
  8
0
100
AcDbLine
 10
-0.02032
 20
5.917745
 30
5.88
 11
-0.045448
 21
5.902676
 31
5.88
  0
LINE
  5
7D4
100
AcDbEntity
  8
0
100
AcDbLine
 10
-0.045448
 20
5.902676
 30
5.88
 11
-0.070575
 21
5.892629
 31
5.88
  0
LINE
  5
7D5
100
AcDbEntity
  8
0
100
AcDbLine
 10
-0.070575
 20
5.892629
 30
5.88
 11
-0.095703
 21
5.892629
 31
5.88
  0
LINE
  5
7D6
100
AcDbEntity
  8
0
100
AcDbLine
 10
-0.095703
 20
5.828712
 30
5.88
 11
-0.070575
 21
5.82369
 31
5.88
  0
LINE
  5
7D7
100
AcDbEntity
  8
0
100
AcDbLine
 10
-0.040422
 20
5.818666
 30
5.88
 11
-0.02032
 21
5.803597
 31
5.88
  0
LINE
  5
7D8
100
AcDbEntity
  8
0
100
AcDbLine
 10
-0.02032
 20
5.803597
 30
5.88
 11
-0.000218
 21
5.783505
 31
5.88
  0
LINE
  5
7D9
100
AcDbEntity
  8
0
100
AcDbLine
 10
-0.070575
 20
5.82369
 30
5.88
 11
-0.040422
 21
5.818666
 31
5.88
  0
LINE
  5
7DA
100
AcDbEntity
  8
0
100
AcDbLine
 10
0.014858
 20
6.063412
 30
5.88
 11
0.024909
 21
6.038298
 31
5.88
  0
LINE
  5
7DB
100
AcDbEntity
  8
0
100
AcDbLine
 10
-0.095703
 20
6.128712
 30
5.88
 11
-0.070575
 21
6.12369
 31
5.88
  0
LINE
  5
7DC
100
AcDbEntity
  8
0
100
AcDbLine
 10
-0.070575
 20
6.12369
 30
5.88
 11
-0.040422
 21
6.118666
 31
5.88
  0
LINE
  5
7DD
100
AcDbEntity
  8
0
100
AcDbLine
 10
-0.040422
 20
6.118666
 30
5.88
 11
-0.02032
 21
6.103597
 31
5.88
  0
LINE
  5
7DE
100
AcDbEntity
  8
0
100
AcDbLine
 10
-0.02032
 20
6.103597
 30
5.88
 11
-0.000218
 21
6.083505
 31
5.88
  0
LINE
  5
7DF
100
AcDbEntity
  8
0
100
AcDbLine
 10
-0.000218
 20
6.083505
 30
5.88
 11
0.014858
 21
6.063412
 31
5.88
  0
LINE
  5
7E0
100
AcDbEntity
  8
0
100
AcDbLine
 10
0.024909
 20
6.038298
 30
5.88
 11
0.029935
 21
6.00816
 31
5.88
  0
LINE
  5
7E1
100
AcDbEntity
  8
0
100
AcDbLine
 10
0.024909
 20
6.283044
 30
5.88
 11
0.014858
 21
6.257928
 31
5.88
  0
LINE
  5
7E2
100
AcDbEntity
  8
0
100
AcDbLine
 10
0.014858
 20
6.363412
 30
5.88
 11
0.024909
 21
6.338298
 31
5.88
  0
LINE
  5
7E3
100
AcDbEntity
  8
0
100
AcDbLine
 10
-0.000218
 20
6.383505
 30
5.88
 11
0.014858
 21
6.363412
 31
5.88
  0
LINE
  5
7E4
100
AcDbEntity
  8
0
100
AcDbLine
 10
-0.070575
 20
6.192629
 30
5.88
 11
-0.095703
 21
6.192629
 31
5.88
  0
LINE
  5
7E5
100
AcDbEntity
  8
0
100
AcDbLine
 10
-0.045448
 20
6.202676
 30
5.88
 11
-0.070575
 21
6.192629
 31
5.88
  0
LINE
  5
7E6
100
AcDbEntity
  8
0
100
AcDbLine
 10
-0.02032
 20
6.217745
 30
5.88
 11
-0.045448
 21
6.202676
 31
5.88
  0
LINE
  5
7E7
100
AcDbEntity
  8
0
100
AcDbLine
 10
-0.000218
 20
6.232814
 30
5.88
 11
-0.02032
 21
6.217745
 31
5.88
  0
LINE
  5
7E8
100
AcDbEntity
  8
0
100
AcDbLine
 10
0.014858
 20
6.257928
 30
5.88
 11
-0.000218
 21
6.232814
 31
5.88
  0
LINE
  5
7E9
100
AcDbEntity
  8
0
100
AcDbLine
 10
0.024909
 20
6.338298
 30
5.88
 11
0.029935
 21
6.30816
 31
5.88
  0
LINE
  5
7EA
100
AcDbEntity
  8
0
100
AcDbLine
 10
0.029935
 20
6.30816
 30
5.88
 11
0.024909
 21
6.283044
 31
5.88
  0
LINE
  5
7EB
100
AcDbEntity
  8
0
100
AcDbLine
 10
0.024909
 20
7.238298
 30
5.88
 11
0.029935
 21
7.20816
 31
5.88
  0
LINE
  5
7EC
100
AcDbEntity
  8
0
100
AcDbLine
 10
-0.206266
 20
7.223227
 30
5.88
 11
-0.20124
 21
7.253367
 31
5.88
  0
LINE
  5
7ED
100
AcDbEntity
  8
0
100
AcDbLine
 10
-0.120832
 20
6.42369
 30
5.88
 11
-0.095703
 21
6.428712
 31
5.88
  0
LINE
  5
7EE
100
AcDbEntity
  8
0
100
AcDbLine
 10
-0.095703
 20
6.792629
 30
5.88
 11
-0.125858
 21
6.797653
 31
5.88
  0
LINE
  5
7EF
100
AcDbEntity
  8
0
100
AcDbLine
 10
-0.120832
 20
7.02369
 30
5.88
 11
-0.095703
 21
7.028712
 31
5.88
  0
LINE
  5
7F0
100
AcDbEntity
  8
0
100
AcDbLine
 10
-0.120832
 20
6.72369
 30
5.88
 11
-0.095703
 21
6.728712
 31
5.88
  0
LINE
  5
7F1
100
AcDbEntity
  8
0
100
AcDbLine
 10
-0.095703
 20
6.492629
 30
5.88
 11
-0.125858
 21
6.497653
 31
5.88
  0
LINE
  5
7F2
100
AcDbEntity
  8
0
100
AcDbLine
 10
-0.095703
 20
7.092629
 30
5.88
 11
-0.125858
 21
7.097653
 31
5.88
  0
LINE
  5
7F3
100
AcDbEntity
  8
0
100
AcDbLine
 10
-0.14596
 20
6.8077
 30
5.88
 11
-0.171087
 21
6.82779
 31
5.88
  0
LINE
  5
7F4
100
AcDbEntity
  8
0
100
AcDbLine
 10
-0.206266
 20
6.598113
 30
5.88
 11
-0.206266
 21
6.623227
 31
5.88
  0
LINE
  5
7F5
100
AcDbEntity
  8
0
100
AcDbLine
 10
-0.14596
 20
6.413643
 30
5.88
 11
-0.120832
 21
6.42369
 31
5.88
  0
LINE
  5
7F6
100
AcDbEntity
  8
0
100
AcDbLine
 10
-0.171087
 20
6.398574
 30
5.88
 11
-0.14596
 21
6.413643
 31
5.88
  0
LINE
  5
7F7
100
AcDbEntity
  8
0
100
AcDbLine
 10
-0.171087
 20
6.52779
 30
5.88
 11
-0.186165
 21
6.547883
 31
5.88
  0
LINE
  5
7F8
100
AcDbEntity
  8
0
100
AcDbLine
 10
-0.125858
 20
6.497653
 30
5.88
 11
-0.14596
 21
6.5077
 31
5.88
  0
LINE
  5
7F9
100
AcDbEntity
  8
0
100
AcDbLine
 10
-0.14596
 20
6.5077
 30
5.88
 11
-0.171087
 21
6.52779
 31
5.88
  0
LINE
  5
7FA
100
AcDbEntity
  8
0
100
AcDbLine
 10
-0.20124
 20
6.572999
 30
5.88
 11
-0.206266
 21
6.598113
 31
5.88
  0
LINE
  5
7FB
100
AcDbEntity
  8
0
100
AcDbLine
 10
-0.186165
 20
6.547883
 30
5.88
 11
-0.20124
 21
6.572999
 31
5.88
  0
LINE
  5
7FC
100
AcDbEntity
  8
0
100
AcDbLine
 10
-0.125858
 20
6.797653
 30
5.88
 11
-0.14596
 21
6.8077
 31
5.88
  0
LINE
  5
7FD
100
AcDbEntity
  8
0
100
AcDbLine
 10
-0.20124
 20
6.653367
 30
5.88
 11
-0.186165
 21
6.673458
 31
5.88
  0
LINE
  5
7FE
100
AcDbEntity
  8
0
100
AcDbLine
 10
-0.186165
 20
6.673458
 30
5.88
 11
-0.171087
 21
6.698574
 31
5.88
  0
LINE
  5
7FF
100
AcDbEntity
  8
0
100
AcDbLine
 10
-0.171087
 20
6.698574
 30
5.88
 11
-0.14596
 21
6.713643
 31
5.88
  0
LINE
  5
800
100
AcDbEntity
  8
0
100
AcDbLine
 10
-0.14596
 20
6.713643
 30
5.88
 11
-0.120832
 21
6.72369
 31
5.88
  0
LINE
  5
801
100
AcDbEntity
  8
0
100
AcDbLine
 10
-0.206266
 20
6.623227
 30
5.88
 11
-0.20124
 21
6.653367
 31
5.88
  0
LINE
  5
802
100
AcDbEntity
  8
0
100
AcDbLine
 10
-0.14596
 20
7.013643
 30
5.88
 11
-0.120832
 21
7.02369
 31
5.88
  0
LINE
  5
803
100
AcDbEntity
  8
0
100
AcDbLine
 10
-0.186165
 20
6.847883
 30
5.88
 11
-0.20124
 21
6.872999
 31
5.88
  0
LINE
  5
804
100
AcDbEntity
  8
0
100
AcDbLine
 10
-0.206266
 20
6.923227
 30
5.88
 11
-0.20124
 21
6.953367
 31
5.88
  0
LINE
  5
805
100
AcDbEntity
  8
0
100
AcDbLine
 10
-0.20124
 20
6.872999
 30
5.88
 11
-0.206266
 21
6.898113
 31
5.88
  0
LINE
  5
806
100
AcDbEntity
  8
0
100
AcDbLine
 10
-0.206266
 20
6.898113
 30
5.88
 11
-0.206266
 21
6.923227
 31
5.88
  0
LINE
  5
807
100
AcDbEntity
  8
0
100
AcDbLine
 10
-0.171087
 20
6.998574
 30
5.88
 11
-0.14596
 21
7.013643
 31
5.88
  0
LINE
  5
808
100
AcDbEntity
  8
0
100
AcDbLine
 10
-0.186165
 20
6.973458
 30
5.88
 11
-0.171087
 21
6.998574
 31
5.88
  0
LINE
  5
809
100
AcDbEntity
  8
0
100
AcDbLine
 10
-0.20124
 20
6.953367
 30
5.88
 11
-0.186165
 21
6.973458
 31
5.88
  0
LINE
  5
80A
100
AcDbEntity
  8
0
100
AcDbLine
 10
-0.171087
 20
6.82779
 30
5.88
 11
-0.186165
 21
6.847883
 31
5.88
  0
LINE
  5
80B
100
AcDbEntity
  8
0
100
AcDbLine
 10
-0.186165
 20
7.147883
 30
5.88
 11
-0.20124
 21
7.172999
 31
5.88
  0
LINE
  5
80C
100
AcDbEntity
  8
0
100
AcDbLine
 10
-0.20124
 20
7.172999
 30
5.88
 11
-0.206266
 21
7.198113
 31
5.88
  0
LINE
  5
80D
100
AcDbEntity
  8
0
100
AcDbLine
 10
-0.206266
 20
7.198113
 30
5.88
 11
-0.206266
 21
7.223227
 31
5.88
  0
LINE
  5
80E
100
AcDbEntity
  8
0
100
AcDbLine
 10
-0.14596
 20
7.1077
 30
5.88
 11
-0.171087
 21
7.12779
 31
5.88
  0
LINE
  5
80F
100
AcDbEntity
  8
0
100
AcDbLine
 10
-0.125858
 20
7.097653
 30
5.88
 11
-0.14596
 21
7.1077
 31
5.88
  0
LINE
  5
810
100
AcDbEntity
  8
0
100
AcDbLine
 10
-0.171087
 20
7.12779
 30
5.88
 11
-0.186165
 21
7.147883
 31
5.88
  0
LINE
  5
811
100
AcDbEntity
  8
0
100
AcDbLine
 10
-0.02032
 20
6.817745
 30
5.88
 11
-0.045448
 21
6.802676
 31
5.88
  0
LINE
  5
812
100
AcDbEntity
  8
0
100
AcDbLine
 10
0.029935
 20
6.60816
 30
5.88
 11
0.024909
 21
6.583044
 31
5.88
  0
LINE
  5
813
100
AcDbEntity
  8
0
100
AcDbLine
 10
0.024909
 20
6.583044
 30
5.88
 11
0.014858
 21
6.557928
 31
5.88
  0
LINE
  5
814
100
AcDbEntity
  8
0
100
AcDbLine
 10
-0.040422
 20
6.418666
 30
5.88
 11
-0.02032
 21
6.403597
 31
5.88
  0
LINE
  5
815
100
AcDbEntity
  8
0
100
AcDbLine
 10
-0.070575
 20
6.42369
 30
5.88
 11
-0.040422
 21
6.418666
 31
5.88
  0
LINE
  5
816
100
AcDbEntity
  8
0
100
AcDbLine
 10
-0.095703
 20
6.428712
 30
5.88
 11
-0.070575
 21
6.42369
 31
5.88
  0
LINE
  5
817
100
AcDbEntity
  8
0
100
AcDbLine
 10
0.014858
 20
6.557928
 30
5.88
 11
-0.000218
 21
6.532814
 31
5.88
  0
LINE
  5
818
100
AcDbEntity
  8
0
100
AcDbLine
 10
-0.000218
 20
6.532814
 30
5.88
 11
-0.02032
 21
6.517745
 31
5.88
  0
LINE
  5
819
100
AcDbEntity
  8
0
100
AcDbLine
 10
-0.02032
 20
6.517745
 30
5.88
 11
-0.045448
 21
6.502676
 31
5.88
  0
LINE
  5
81A
100
AcDbEntity
  8
0
100
AcDbLine
 10
-0.045448
 20
6.502676
 30
5.88
 11
-0.070575
 21
6.492629
 31
5.88
  0
LINE
  5
81B
100
AcDbEntity
  8
0
100
AcDbLine
 10
-0.070575
 20
6.492629
 30
5.88
 11
-0.095703
 21
6.492629
 31
5.88
  0
LINE
  5
81C
100
AcDbEntity
  8
0
100
AcDbLine
 10
0.014858
 20
6.663412
 30
5.88
 11
0.024909
 21
6.638298
 31
5.88
  0
LINE
  5
81D
100
AcDbEntity
  8
0
100
AcDbLine
 10
-0.070575
 20
6.792629
 30
5.88
 11
-0.095703
 21
6.792629
 31
5.88
  0
LINE
  5
81E
100
AcDbEntity
  8
0
100
AcDbLine
 10
-0.045448
 20
6.802676
 30
5.88
 11
-0.070575
 21
6.792629
 31
5.88
  0
LINE
  5
81F
100
AcDbEntity
  8
0
100
AcDbLine
 10
-0.095703
 20
6.728712
 30
5.88
 11
-0.070575
 21
6.72369
 31
5.88
  0
LINE
  5
820
100
AcDbEntity
  8
0
100
AcDbLine
 10
-0.070575
 20
6.72369
 30
5.88
 11
-0.040422
 21
6.718666
 31
5.88
  0
LINE
  5
821
100
AcDbEntity
  8
0
100
AcDbLine
 10
-0.040422
 20
6.718666
 30
5.88
 11
-0.02032
 21
6.703597
 31
5.88
  0
LINE
  5
822
100
AcDbEntity
  8
0
100
AcDbLine
 10
-0.02032
 20
6.703597
 30
5.88
 11
-0.000218
 21
6.683505
 31
5.88
  0
LINE
  5
823
100
AcDbEntity
  8
0
100
AcDbLine
 10
-0.000218
 20
6.683505
 30
5.88
 11
0.014858
 21
6.663412
 31
5.88
  0
LINE
  5
824
100
AcDbEntity
  8
0
100
AcDbLine
 10
0.024909
 20
6.638298
 30
5.88
 11
0.029935
 21
6.60816
 31
5.88
  0
LINE
  5
825
100
AcDbEntity
  8
0
100
AcDbLine
 10
-0.070575
 20
7.02369
 30
5.88
 11
-0.040422
 21
7.018666
 31
5.88
  0
LINE
  5
826
100
AcDbEntity
  8
0
100
AcDbLine
 10
0.024909
 20
6.883044
 30
5.88
 11
0.014858
 21
6.857928
 31
5.88
  0
LINE
  5
827
100
AcDbEntity
  8
0
100
AcDbLine
 10
0.014858
 20
6.963412
 30
5.88
 11
0.024909
 21
6.938298
 31
5.88
  0
LINE
  5
828
100
AcDbEntity
  8
0
100
AcDbLine
 10
-0.000218
 20
6.983505
 30
5.88
 11
0.014858
 21
6.963412
 31
5.88
  0
LINE
  5
829
100
AcDbEntity
  8
0
100
AcDbLine
 10
-0.02032
 20
7.003597
 30
5.88
 11
-0.000218
 21
6.983505
 31
5.88
  0
LINE
  5
82A
100
AcDbEntity
  8
0
100
AcDbLine
 10
-0.040422
 20
7.018666
 30
5.88
 11
-0.02032
 21
7.003597
 31
5.88
  0
LINE
  5
82B
100
AcDbEntity
  8
0
100
AcDbLine
 10
-0.000218
 20
6.832814
 30
5.88
 11
-0.02032
 21
6.817745
 31
5.88
  0
LINE
  5
82C
100
AcDbEntity
  8
0
100
AcDbLine
 10
0.014858
 20
6.857928
 30
5.88
 11
-0.000218
 21
6.832814
 31
5.88
  0
LINE
  5
82D
100
AcDbEntity
  8
0
100
AcDbLine
 10
0.024909
 20
6.938298
 30
5.88
 11
0.029935
 21
6.90816
 31
5.88
  0
LINE
  5
82E
100
AcDbEntity
  8
0
100
AcDbLine
 10
0.029935
 20
6.90816
 30
5.88
 11
0.024909
 21
6.883044
 31
5.88
  0
LINE
  5
82F
100
AcDbEntity
  8
0
100
AcDbLine
 10
0.024909
 20
7.183044
 30
5.88
 11
0.014858
 21
7.157928
 31
5.88
  0
LINE
  5
830
100
AcDbEntity
  8
0
100
AcDbLine
 10
-0.095703
 20
7.028712
 30
5.88
 11
-0.070575
 21
7.02369
 31
5.88
  0
LINE
  5
831
100
AcDbEntity
  8
0
100
AcDbLine
 10
-0.070575
 20
7.092629
 30
5.88
 11
-0.095703
 21
7.092629
 31
5.88
  0
LINE
  5
832
100
AcDbEntity
  8
0
100
AcDbLine
 10
-0.045448
 20
7.102676
 30
5.88
 11
-0.070575
 21
7.092629
 31
5.88
  0
LINE
  5
833
100
AcDbEntity
  8
0
100
AcDbLine
 10
-0.02032
 20
7.117745
 30
5.88
 11
-0.045448
 21
7.102676
 31
5.88
  0
LINE
  5
834
100
AcDbEntity
  8
0
100
AcDbLine
 10
-0.000218
 20
7.132814
 30
5.88
 11
-0.02032
 21
7.117745
 31
5.88
  0
LINE
  5
835
100
AcDbEntity
  8
0
100
AcDbLine
 10
0.014858
 20
7.157928
 30
5.88
 11
-0.000218
 21
7.132814
 31
5.88
  0
LINE
  5
836
100
AcDbEntity
  8
0
100
AcDbLine
 10
0.029935
 20
7.20816
 30
5.88
 11
0.024909
 21
7.183044
 31
5.88
  0
LINE
  5
837
100
AcDbEntity
  8
0
100
AcDbLine
 10
-0.120832
 20
7.32369
 30
5.88
 11
-0.095703
 21
7.328712
 31
5.88
  0
TEXT
  5
838
100
AcDbEntity
  8
0
100
AcDbText
 39
0.001
 10
-0.466967
 20
7.944051
 30
5.879973
 40
0.05
  1
AC  INPUT
 72
     1
 11
-0.258634
 21
7.944051
 31
5.879973
100
AcDbText
  0
LINE
  5
839
100
AcDbEntity
  8
0
100
AcDbLine
 10
-0.095703
 20
7.392629
 30
5.88
 11
-0.125858
 21
7.397653
 31
5.88
  0
LINE
  5
83A
100
AcDbEntity
  8
0
100
AcDbLine
 10
-0.120832
 20
7.62369
 30
5.88
 11
-0.095703
 21
7.628712
 31
5.88
  0
LINE
  5
83B
100
AcDbEntity
  8
0
100
AcDbLine
 10
-0.171087
 20
7.42779
 30
5.88
 11
-0.186165
 21
7.447883
 31
5.88
  0
LINE
  5
83C
100
AcDbEntity
  8
0
100
AcDbLine
 10
-0.14596
 20
7.313643
 30
5.88
 11
-0.120832
 21
7.32369
 31
5.88
  0
LINE
  5
83D
100
AcDbEntity
  8
0
100
AcDbLine
 10
-0.171087
 20
7.298574
 30
5.88
 11
-0.14596
 21
7.313643
 31
5.88
  0
LINE
  5
83E
100
AcDbEntity
  8
0
100
AcDbLine
 10
-0.186165
 20
7.273458
 30
5.88
 11
-0.171087
 21
7.298574
 31
5.88
  0
LINE
  5
83F
100
AcDbEntity
  8
0
100
AcDbLine
 10
-0.20124
 20
7.253367
 30
5.88
 11
-0.186165
 21
7.273458
 31
5.88
  0
LINE
  5
840
100
AcDbEntity
  8
0
100
AcDbLine
 10
-0.14596
 20
7.4077
 30
5.88
 11
-0.171087
 21
7.42779
 31
5.88
  0
LINE
  5
841
100
AcDbEntity
  8
0
100
AcDbLine
 10
-0.125858
 20
7.397653
 30
5.88
 11
-0.14596
 21
7.4077
 31
5.88
  0
LINE
  5
842
100
AcDbEntity
  8
0
100
AcDbLine
 10
-0.20124
 20
7.472999
 30
5.88
 11
-0.206266
 21
7.498113
 31
5.88
  0
LINE
  5
843
100
AcDbEntity
  8
0
100
AcDbLine
 10
-0.186165
 20
7.447883
 30
5.88
 11
-0.20124
 21
7.472999
 31
5.88
  0
LINE
  5
844
100
AcDbEntity
  8
0
100
AcDbLine
 10
-0.14596
 20
7.613643
 30
5.88
 11
-0.120832
 21
7.62369
 31
5.88
  0
LINE
  5
845
100
AcDbEntity
  8
0
100
AcDbLine
 10
-0.171087
 20
7.598574
 30
5.88
 11
-0.14596
 21
7.613643
 31
5.88
  0
LINE
  5
846
100
AcDbEntity
  8
0
100
AcDbLine
 10
-0.186165
 20
7.573458
 30
5.88
 11
-0.171087
 21
7.598574
 31
5.88
  0
LINE
  5
847
100
AcDbEntity
  8
0
100
AcDbLine
 10
-0.20124
 20
7.553367
 30
5.88
 11
-0.186165
 21
7.573458
 31
5.88
  0
LINE
  5
848
100
AcDbEntity
  8
0
100
AcDbLine
 10
-0.206266
 20
7.523227
 30
5.88
 11
-0.20124
 21
7.553367
 31
5.88
  0
LINE
  5
849
100
AcDbEntity
  8
0
100
AcDbLine
 10
-0.206266
 20
7.498113
 30
5.88
 11
-0.206266
 21
7.523227
 31
5.88
  0
TEXT
  5
84A
100
AcDbEntity
  8
0
100
AcDbText
 39
0.001
 10
-0.346134
 20
7.825051
 30
5.879973
 40
0.05
  1
120V
 72
     1
 11
-0.258634
 21
7.825051
 31
5.879973
100
AcDbText
  0
LINE
  5
84B
100
AcDbEntity
  8
0
100
AcDbLine
 10
0.014858
 20
7.457928
 30
5.88
 11
-0.000218
 21
7.432814
 31
5.88
  0
LINE
  5
84C
100
AcDbEntity
  8
0
100
AcDbLine
 10
0.014858
 20
7.263412
 30
5.88
 11
0.024909
 21
7.238298
 31
5.88
  0
LINE
  5
84D
100
AcDbEntity
  8
0
100
AcDbLine
 10
-0.000218
 20
7.283505
 30
5.88
 11
0.014858
 21
7.263412
 31
5.88
  0
LINE
  5
84E
100
AcDbEntity
  8
0
100
AcDbLine
 10
-0.02032
 20
7.303597
 30
5.88
 11
-0.000218
 21
7.283505
 31
5.88
  0
LINE
  5
84F
100
AcDbEntity
  8
0
100
AcDbLine
 10
-0.040422
 20
7.318666
 30
5.88
 11
-0.02032
 21
7.303597
 31
5.88
  0
LINE
  5
850
100
AcDbEntity
  8
0
100
AcDbLine
 10
-0.070575
 20
7.32369
 30
5.88
 11
-0.040422
 21
7.318666
 31
5.88
  0
LINE
  5
851
100
AcDbEntity
  8
0
100
AcDbLine
 10
-0.095703
 20
7.328712
 30
5.88
 11
-0.070575
 21
7.32369
 31
5.88
  0
LINE
  5
852
100
AcDbEntity
  8
0
100
AcDbLine
 10
-0.070575
 20
7.392629
 30
5.88
 11
-0.095703
 21
7.392629
 31
5.88
  0
LINE
  5
853
100
AcDbEntity
  8
0
100
AcDbLine
 10
-0.045448
 20
7.402676
 30
5.88
 11
-0.070575
 21
7.392629
 31
5.88
  0
LINE
  5
854
100
AcDbEntity
  8
0
100
AcDbLine
 10
-0.02032
 20
7.417745
 30
5.88
 11
-0.045448
 21
7.402676
 31
5.88
  0
LINE
  5
855
100
AcDbEntity
  8
0
100
AcDbLine
 10
-0.000218
 20
7.432814
 30
5.88
 11
-0.02032
 21
7.417745
 31
5.88
  0
LINE
  5
856
100
AcDbEntity
  8
0
100
AcDbLine
 10
0.024909
 20
7.483044
 30
5.88
 11
0.014858
 21
7.457928
 31
5.88
  0
LINE
  5
857
100
AcDbEntity
  8
0
100
AcDbLine
 10
0.014858
 20
7.563412
 30
5.88
 11
0.024909
 21
7.538298
 31
5.88
  0
LINE
  5
858
100
AcDbEntity
  8
0
100
AcDbLine
 10
-0.000218
 20
7.583505
 30
5.88
 11
0.014858
 21
7.563412
 31
5.88
  0
LINE
  5
859
100
AcDbEntity
  8
0
100
AcDbLine
 10
-0.02032
 20
7.603597
 30
5.88
 11
-0.000218
 21
7.583505
 31
5.88
  0
LINE
  5
85A
100
AcDbEntity
  8
0
100
AcDbLine
 10
-0.040422
 20
7.618666
 30
5.88
 11
-0.02032
 21
7.603597
 31
5.88
  0
LINE
  5
85B
100
AcDbEntity
  8
0
100
AcDbLine
 10
-0.070575
 20
7.62369
 30
5.88
 11
-0.040422
 21
7.618666
 31
5.88
  0
LINE
  5
85C
100
AcDbEntity
  8
0
100
AcDbLine
 10
-0.095703
 20
7.628712
 30
5.88
 11
-0.070575
 21
7.62369
 31
5.88
  0
LINE
  5
85D
100
AcDbEntity
  8
0
100
AcDbLine
 10
0.029935
 20
7.50816
 30
5.88
 11
0.024909
 21
7.483044
 31
5.88
  0
LINE
  5
85E
100
AcDbEntity
  8
0
100
AcDbLine
 10
0.024909
 20
7.538298
 30
5.88
 11
0.029935
 21
7.50816
 31
5.88
  0
LINE
  5
85F
100
AcDbEntity
  8
0
100
AcDbLine
 10
-0.693747
 20
8.119875
 30
5.88
 11
0.085215
 21
8.119875
 31
5.88
  0
POLYLINE
  5
860
100
AcDbEntity
  8
0
100
AcDbPolygonMesh
 66
     1
 10
0.0
 20
0.0
 30
0.0
 70
    16
 71
     6
 72
     3
  0
VERTEX
  5
861
100
AcDbEntity
  8
0
100
AcDbVertex
100
AcDbPolygonMeshVertex
 10
0.265
 20
8.5811
 30
5.837
 70
    64
  0
VERTEX
  5
862
100
AcDbEntity
  8
0
100
AcDbVertex
100
AcDbPolygonMeshVertex
 10
0.265
 20
8.5811
 30
5.747
 70
    64
  0
VERTEX
  5
863
100
AcDbEntity
  8
0
100
AcDbVertex
100
AcDbPolygonMeshVertex
 10
0.265
 20
8.5811
 30
5.747
 70
    64
  0
VERTEX
  5
864
100
AcDbEntity
  8
0
100
AcDbVertex
100
AcDbPolygonMeshVertex
 10
-0.197
 20
8.5811
 30
5.837
 70
    64
  0
VERTEX
  5
865
100
AcDbEntity
  8
0
100
AcDbVertex
100
AcDbPolygonMeshVertex
 10
-0.197
 20
8.5811
 30
5.747
 70
    64
  0
VERTEX
  5
866
100
AcDbEntity
  8
0
100
AcDbVertex
100
AcDbPolygonMeshVertex
 10
-0.197
 20
8.5811
 30
5.747
 70
    64
  0
VERTEX
  5
867
100
AcDbEntity
  8
0
100
AcDbVertex
100
AcDbPolygonMeshVertex
 10
-0.197
 20
10.0432
 30
5.837
 70
    64
  0
VERTEX
  5
868
100
AcDbEntity
  8
0
100
AcDbVertex
100
AcDbPolygonMeshVertex
 10
-0.197
 20
10.0432
 30
5.747
 70
    64
  0
VERTEX
  5
869
100
AcDbEntity
  8
0
100
AcDbVertex
100
AcDbPolygonMeshVertex
 10
-0.197
 20
8.5811
 30
5.747
 70
    64
  0
VERTEX
  5
86A
100
AcDbEntity
  8
0
100
AcDbVertex
100
AcDbPolygonMeshVertex
 10
0.265
 20
10.0432
 30
5.837
 70
    64
  0
VERTEX
  5
86B
100
AcDbEntity
  8
0
100
AcDbVertex
100
AcDbPolygonMeshVertex
 10
0.265
 20
10.0432
 30
5.747
 70
    64
  0
VERTEX
  5
86C
100
AcDbEntity
  8
0
100
AcDbVertex
100
AcDbPolygonMeshVertex
 10
0.265
 20
8.5811
 30
5.747
 70
    64
  0
VERTEX
  5
86D
100
AcDbEntity
  8
0
100
AcDbVertex
100
AcDbPolygonMeshVertex
 10
0.265
 20
10.0432
 30
5.837
 70
    64
  0
VERTEX
  5
86E
100
AcDbEntity
  8
0
100
AcDbVertex
100
AcDbPolygonMeshVertex
 10
0.265
 20
10.0432
 30
5.837
 70
    64
  0
VERTEX
  5
86F
100
AcDbEntity
  8
0
100
AcDbVertex
100
AcDbPolygonMeshVertex
 10
0.265
 20
8.5811
 30
5.837
 70
    64
  0
VERTEX
  5
870
100
AcDbEntity
  8
0
100
AcDbVertex
100
AcDbPolygonMeshVertex
 10
-0.197
 20
10.0432
 30
5.837
 70
    64
  0
VERTEX
  5
871
100
AcDbEntity
  8
0
100
AcDbVertex
100
AcDbPolygonMeshVertex
 10
-0.197
 20
10.0432
 30
5.837
 70
    64
  0
VERTEX
  5
872
100
AcDbEntity
  8
0
100
AcDbVertex
100
AcDbPolygonMeshVertex
 10
-0.197
 20
8.5811
 30
5.837
 70
    64
  0
SEQEND
  5
873
100
AcDbEntity
  8
0
  0
POLYLINE
  5
874
100
AcDbEntity
  8
0
100
AcDbPolygonMesh
 66
     1
 10
0.0
 20
0.0
 30
0.0
 70
    16
 71
     6
 72
     3
  0
VERTEX
  5
875
100
AcDbEntity
  8
0
100
AcDbVertex
100
AcDbPolygonMeshVertex
 10
0.068
 20
8.162
 30
5.747
 70
    64
  0
VERTEX
  5
876
100
AcDbEntity
  8
0
100
AcDbVertex
100
AcDbPolygonMeshVertex
 10
0.068
 20
8.162
 30
5.39
 70
    64
  0
VERTEX
  5
877
100
AcDbEntity
  8
0
100
AcDbVertex
100
AcDbPolygonMeshVertex
 10
0.068
 20
8.162
 30
5.39
 70
    64
  0
VERTEX
  5
878
100
AcDbEntity
  8
0
100
AcDbVertex
100
AcDbPolygonMeshVertex
 10
0.0
 20
8.162
 30
5.747
 70
    64
  0
VERTEX
  5
879
100
AcDbEntity
  8
0
100
AcDbVertex
100
AcDbPolygonMeshVertex
 10
0.0
 20
8.162
 30
5.39
 70
    64
  0
VERTEX
  5
87A
100
AcDbEntity
  8
0
100
AcDbVertex
100
AcDbPolygonMeshVertex
 10
0.0
 20
8.162
 30
5.39
 70
    64
  0
VERTEX
  5
87B
100
AcDbEntity
  8
0
100
AcDbVertex
100
AcDbPolygonMeshVertex
 10
0.0
 20
9.6931
 30
5.747
 70
    64
  0
VERTEX
  5
87C
100
AcDbEntity
  8
0
100
AcDbVertex
100
AcDbPolygonMeshVertex
 10
0.0
 20
9.6931
 30
5.39
 70
    64
  0
VERTEX
  5
87D
100
AcDbEntity
  8
0
100
AcDbVertex
100
AcDbPolygonMeshVertex
 10
0.0
 20
8.162
 30
5.39
 70
    64
  0
VERTEX
  5
87E
100
AcDbEntity
  8
0
100
AcDbVertex
100
AcDbPolygonMeshVertex
 10
0.068
 20
9.6931
 30
5.747
 70
    64
  0
VERTEX
  5
87F
100
AcDbEntity
  8
0
100
AcDbVertex
100
AcDbPolygonMeshVertex
 10
0.068
 20
9.6931
 30
5.39
 70
    64
  0
VERTEX
  5
880
100
AcDbEntity
  8
0
100
AcDbVertex
100
AcDbPolygonMeshVertex
 10
0.068
 20
8.162
 30
5.39
 70
    64
  0
VERTEX
  5
881
100
AcDbEntity
  8
0
100
AcDbVertex
100
AcDbPolygonMeshVertex
 10
0.068
 20
9.6931
 30
5.747
 70
    64
  0
VERTEX
  5
882
100
AcDbEntity
  8
0
100
AcDbVertex
100
AcDbPolygonMeshVertex
 10
0.068
 20
9.6931
 30
5.747
 70
    64
  0
VERTEX
  5
883
100
AcDbEntity
  8
0
100
AcDbVertex
100
AcDbPolygonMeshVertex
 10
0.068
 20
8.162
 30
5.747
 70
    64
  0
VERTEX
  5
884
100
AcDbEntity
  8
0
100
AcDbVertex
100
AcDbPolygonMeshVertex
 10
0.0
 20
9.6931
 30
5.747
 70
    64
  0
VERTEX
  5
885
100
AcDbEntity
  8
0
100
AcDbVertex
100
AcDbPolygonMeshVertex
 10
0.0
 20
9.6931
 30
5.747
 70
    64
  0
VERTEX
  5
886
100
AcDbEntity
  8
0
100
AcDbVertex
100
AcDbPolygonMeshVertex
 10
0.0
 20
8.162
 30
5.747
 70
    64
  0
SEQEND
  5
887
100
AcDbEntity
  8
0
  0
POLYLINE
  5
888
100
AcDbEntity
  8
0
100
AcDbPolygonMesh
 66
     1
 10
0.0
 20
0.0
 30
0.0
 70
    16
 71
     6
 72
     3
  0
VERTEX
  5
889
100
AcDbEntity
  8
0
100
AcDbVertex
100
AcDbPolygonMeshVertex
 10
0.136
 20
8.5811
 30
5.747
 70
    64
  0
VERTEX
  5
88A
100
AcDbEntity
  8
0
100
AcDbVertex
100
AcDbPolygonMeshVertex
 10
0.136
 20
8.5811
 30
5.747
 70
    64
  0
VERTEX
  5
88B
100
AcDbEntity
  8
0
100
AcDbVertex
100
AcDbPolygonMeshVertex
 10
0.136
 20
8.5811
 30
5.747
 70
    64
  0
VERTEX
  5
88C
100
AcDbEntity
  8
0
100
AcDbVertex
100
AcDbPolygonMeshVertex
 10
0.136
 20
9.6931
 30
5.437
 70
    64
  0
VERTEX
  5
88D
100
AcDbEntity
  8
0
100
AcDbVertex
100
AcDbPolygonMeshVertex
 10
0.136
 20
9.6931
 30
5.747
 70
    64
  0
VERTEX
  5
88E
100
AcDbEntity
  8
0
100
AcDbVertex
100
AcDbPolygonMeshVertex
 10
0.136
 20
9.6931
 30
5.747
 70
    64
  0
VERTEX
  5
88F
100
AcDbEntity
  8
0
100
AcDbVertex
100
AcDbPolygonMeshVertex
 10
0.068
 20
9.6931
 30
5.437
 70
    64
  0
VERTEX
  5
890
100
AcDbEntity
  8
0
100
AcDbVertex
100
AcDbPolygonMeshVertex
 10
0.068
 20
9.6931
 30
5.747
 70
    64
  0
VERTEX
  5
891
100
AcDbEntity
  8
0
100
AcDbVertex
100
AcDbPolygonMeshVertex
 10
0.136
 20
9.6931
 30
5.747
 70
    64
  0
VERTEX
  5
892
100
AcDbEntity
  8
0
100
AcDbVertex
100
AcDbPolygonMeshVertex
 10
0.068
 20
8.5811
 30
5.747
 70
    64
  0
VERTEX
  5
893
100
AcDbEntity
  8
0
100
AcDbVertex
100
AcDbPolygonMeshVertex
 10
0.068
 20
8.5811
 30
5.747
 70
    64
  0
VERTEX
  5
894
100
AcDbEntity
  8
0
100
AcDbVertex
100
AcDbPolygonMeshVertex
 10
0.136
 20
8.5811
 30
5.747
 70
    64
  0
VERTEX
  5
895
100
AcDbEntity
  8
0
100
AcDbVertex
100
AcDbPolygonMeshVertex
 10
0.068
 20
8.5811
 30
5.747
 70
    64
  0
VERTEX
  5
896
100
AcDbEntity
  8
0
100
AcDbVertex
100
AcDbPolygonMeshVertex
 10
0.068
 20
8.5811
 30
5.747
 70
    64
  0
VERTEX
  5
897
100
AcDbEntity
  8
0
100
AcDbVertex
100
AcDbPolygonMeshVertex
 10
0.136
 20
8.5811
 30
5.747
 70
    64
  0
VERTEX
  5
898
100
AcDbEntity
  8
0
100
AcDbVertex
100
AcDbPolygonMeshVertex
 10
0.068
 20
9.6931
 30
5.437
 70
    64
  0
VERTEX
  5
899
100
AcDbEntity
  8
0
100
AcDbVertex
100
AcDbPolygonMeshVertex
 10
0.068
 20
9.6931
 30
5.437
 70
    64
  0
VERTEX
  5
89A
100
AcDbEntity
  8
0
100
AcDbVertex
100
AcDbPolygonMeshVertex
 10
0.136
 20
9.6931
 30
5.437
 70
    64
  0
SEQEND
  5
89B
100
AcDbEntity
  8
0
  0
POLYLINE
  5
89C
100
AcDbEntity
  8
0
100
AcDbPolygonMesh
 66
     1
 10
0.0
 20
0.0
 30
0.0
 70
    16
 71
     6
 72
     3
  0
VERTEX
  5
89D
100
AcDbEntity
  8
0
100
AcDbVertex
100
AcDbPolygonMeshVertex
 10
0.0
 20
8.5811
 30
5.747
 70
    64
  0
VERTEX
  5
89E
100
AcDbEntity
  8
0
100
AcDbVertex
100
AcDbPolygonMeshVertex
 10
0.0
 20
8.5811
 30
5.747
 70
    64
  0
VERTEX
  5
89F
100
AcDbEntity
  8
0
100
AcDbVertex
100
AcDbPolygonMeshVertex
 10
0.0
 20
8.5811
 30
5.747
 70
    64
  0
VERTEX
  5
8A0
100
AcDbEntity
  8
0
100
AcDbVertex
100
AcDbPolygonMeshVertex
 10
0.0
 20
9.6931
 30
5.437
 70
    64
  0
VERTEX
  5
8A1
100
AcDbEntity
  8
0
100
AcDbVertex
100
AcDbPolygonMeshVertex
 10
0.0
 20
9.6931
 30
5.747
 70
    64
  0
VERTEX
  5
8A2
100
AcDbEntity
  8
0
100
AcDbVertex
100
AcDbPolygonMeshVertex
 10
0.0
 20
9.6931
 30
5.747
 70
    64
  0
VERTEX
  5
8A3
100
AcDbEntity
  8
0
100
AcDbVertex
100
AcDbPolygonMeshVertex
 10
-0.068
 20
9.6931
 30
5.437
 70
    64
  0
VERTEX
  5
8A4
100
AcDbEntity
  8
0
100
AcDbVertex
100
AcDbPolygonMeshVertex
 10
-0.068
 20
9.6931
 30
5.747
 70
    64
  0
VERTEX
  5
8A5
100
AcDbEntity
  8
0
100
AcDbVertex
100
AcDbPolygonMeshVertex
 10
0.0
 20
9.6931
 30
5.747
 70
    64
  0
VERTEX
  5
8A6
100
AcDbEntity
  8
0
100
AcDbVertex
100
AcDbPolygonMeshVertex
 10
-0.068
 20
8.5811
 30
5.747
 70
    64
  0
VERTEX
  5
8A7
100
AcDbEntity
  8
0
100
AcDbVertex
100
AcDbPolygonMeshVertex
 10
-0.068
 20
8.5811
 30
5.747
 70
    64
  0
VERTEX
  5
8A8
100
AcDbEntity
  8
0
100
AcDbVertex
100
AcDbPolygonMeshVertex
 10
0.0
 20
8.5811
 30
5.747
 70
    64
  0
VERTEX
  5
8A9
100
AcDbEntity
  8
0
100
AcDbVertex
100
AcDbPolygonMeshVertex
 10
-0.068
 20
8.5811
 30
5.747
 70
    64
  0
VERTEX
  5
8AA
100
AcDbEntity
  8
0
100
AcDbVertex
100
AcDbPolygonMeshVertex
 10
-0.068
 20
8.5811
 30
5.747
 70
    64
  0
VERTEX
  5
8AB
100
AcDbEntity
  8
0
100
AcDbVertex
100
AcDbPolygonMeshVertex
 10
0.0
 20
8.5811
 30
5.747
 70
    64
  0
VERTEX
  5
8AC
100
AcDbEntity
  8
0
100
AcDbVertex
100
AcDbPolygonMeshVertex
 10
-0.068
 20
9.6931
 30
5.437
 70
    64
  0
VERTEX
  5
8AD
100
AcDbEntity
  8
0
100
AcDbVertex
100
AcDbPolygonMeshVertex
 10
-0.068
 20
9.6931
 30
5.437
 70
    64
  0
VERTEX
  5
8AE
100
AcDbEntity
  8
0
100
AcDbVertex
100
AcDbPolygonMeshVertex
 10
0.0
 20
9.6931
 30
5.437
 70
    64
  0
SEQEND
  5
8AF
100
AcDbEntity
  8
0
  0
CIRCLE
  5
8B0
100
AcDbEntity
  8
0
100
AcDbCircle
 10
9.586379
 20
5.592
 30
0.136
 40
0.05206
210
1.0
220
0.0
230
0.0
  0
CIRCLE
  5
8B1
100
AcDbEntity
  8
0
100
AcDbCircle
 10
9.586379
 20
5.592
 30
-0.068
 40
0.05206
210
1.0
220
0.0
230
0.0
  0
LINE
  5
8B2
100
AcDbEntity
  8
0
100
AcDbLine
 10
-1.020408
 20
-0.562545
 30
5.88
 11
-0.226368
 21
-0.562545
 31
5.88
  0
LINE
  5
8B3
100
AcDbEntity
  8
0
100
AcDbLine
 10
-0.94
 20
-0.562545
 30
5.88
 11
-0.94
 21
0.235022
 31
5.88
  0
LINE
  5
8B4
100
AcDbEntity
  8
0
100
AcDbLine
 10
-1.025435
 20
0.31539
 30
5.88
 11
-1.025435
 21
-0.562545
 31
5.88
  0
LINE
  5
8B5
100
AcDbEntity
  8
0
100
AcDbLine
 10
-0.311803
 20
0.516311
 30
5.88
 11
-0.311803
 21
-0.562545
 31
5.88
  0
LINE
  5
8B6
100
AcDbEntity
  8
0
100
AcDbLine
 10
-0.226368
 20
0.375667
 30
5.88
 11
-0.226368
 21
-0.562545
 31
5.88
  0
DIMENSION
  5
8B7
100
AcDbEntity
  8
AREA1
100
AcDbDimension
  2
*D0
 10
1.290548
 20
10.0432
 30
0.0
 11
1.290548
 21
4.740327
 31
0.0
 70
    32
  3
ABECAD_3D
100
AcDbAlignedDimension
 13
-0.226368
 23
-0.562545
 33
5.88
 14
0.265
 24
10.0432
 34
5.747
 50
90.0
100
AcDbRotatedDimension
  0
DIMENSION
  5
8B8
100
AcDbEntity
  8
AREA1
100
AcDbDimension
  2
*D1
 10
0.265
 20
10.888456
 30
0.0
 11
1.585
 21
10.888456
 31
0.0
 70
    32
  3
ABECAD_3D
100
AcDbAlignedDimension
 13
-1.025435
 23
0.31539
 33
5.88
 14
0.265
 24
10.0432
 34
5.747
100
AcDbRotatedDimension
  0
INSERT
  5
8B9
100
AcDbEntity
  8
SCALE
100
AcDbBlockReference
  2
SCALE
 10
-1.072526
 20
-0.741421
 30
0.0
  0
ENDBLK
  5
8BB
100
AcDbEntity
  8
0
100
AcDbBlockEnd
  0
BLOCK
  5
8D3
100
AcDbEntity
  8
0
100
AcDbBlockBegin
  2
*D4
 70
     1
 10
0.0
 20
0.0
 30
0.0
  3
*D4
  1

  0
LINE
  5
8C9
100
AcDbEntity
  8
AREA2
 62
     0
100
AcDbLine
 10
-0.9525
 20
5.88
 30
0.0
 11
-2.018922
 21
5.88
 31
0.0
1001
ACAD
1000
RTLwPs
1070
   158
  0
LINE
  5
8CA
100
AcDbEntity
  8
AREA2
 62
     0
100
AcDbLine
 10
-0.9525
 20
0.0
 30
0.0
 11
-2.018922
 21
0.0
 31
0.0
1001
ACAD
1000
RTLwPs
1070
   158
  0
LINE
  5
8CB
100
AcDbEntity
  8
AREA2
 62
     0
100
AcDbLine
 10
-1.839235
 20
5.700313
 30
0.0
 11
-1.839235
 21
3.72125
 31
0.0
1001
ACAD
1000
RTLwPs
1070
   158
  0
LINE
  5
8CC
100
AcDbEntity
  8
AREA2
 62
     0
100
AcDbLine
 10
-1.839235
 20
0.179688
 30
0.0
 11
-1.839235
 21
2.15875
 31
0.0
1001
ACAD
1000
RTLwPs
1070
   158
  0
SOLID
  5
8CD
100
AcDbEntity
  8
AREA2
 62
     0
100
AcDbTrace
 10
-1.869183
 20
5.700313
 30
0.0
 11
-1.809287
 21
5.700313
 31
0.0
 12
-1.839235
 22
5.88
 32
0.0
 13
-1.839235
 23
5.88
 33
0.0
  0
SOLID
  5
8CE
100
AcDbEntity
  8
AREA2
 62
     0
100
AcDbTrace
 10
-1.869183
 20
0.179688
 30
0.0
 11
-1.809287
 21
0.179688
 31
0.0
 12
-1.839235
 22
0.0
 32
0.0
 13
-1.839235
 23
0.0
 33
0.0
  0
MTEXT
  5
8CF
100
AcDbEntity
  8
AREA2
 62
     0
100
AcDbMText
 10
-1.839235
 20
2.94
 30
0.0
 40
0.125
 41
0.0
 71
     5
 72
     1
  1
\A1;5 7/8 [149.4]
 11
0.0
 21
1.0
 31
0.0
1001
ACAD
1000
MTEXTBEGIN
1070
    73
1070
     1
1070
    44
1040
1.0
1070
    74
1070
     0
1000
MTEXTEND
1000
MTEXTBEGIN
1070
    73
1070
     1
1070
    44
1040
1.0
1070
    74
1070
     0
1000
MTEXTEND
1000
MTEXTBEGIN
1070
    73
1070
     1
1070
    44
1040
1.0
1070
    74
1070
     0
1000
MTEXTEND
1000
MTEXTBEGIN
1070
    73
1070
     1
1070
    44
1040
1.0
1070
    74
1070
     0
1000
MTEXTEND
  0
POINT
  5
8D0
100
AcDbEntity
  8
DEFPOINTS
 62
     0
100
AcDbPoint
 10
-0.89
 20
5.88
 30
-0.2
  0
POINT
  5
8D1
100
AcDbEntity
  8
DEFPOINTS
 62
     0
100
AcDbPoint
 10
-0.89
 20
0.0
 30
-0.2
  0
POINT
  5
8D2
100
AcDbEntity
  8
DEFPOINTS
 62
     0
100
AcDbPoint
 10
-1.839235
 20
0.0
 30
0.0
  0
ENDBLK
  5
8D4
100
AcDbEntity
  8
0
100
AcDbBlockEnd
  0
ENDSEC
  0
SECTION
  2
ENTITIES
  0
INSERT
  5
8BC
100
AcDbEntity
  8
0
100
AcDbBlockReference
 66
     1
  2
ABIOE040
 10
0.0
 20
0.0
 30
0.0
  0
ATTRIB
  5
8BD
100
AcDbEntity
  8
ATTRIBUTES
100
AcDbText
 10
-0.818969
 20
1.293469
 30
0.0
 40
0.06
  1
ALLEN-BRADLEY
100
AcDbAttribute
  2
AC_VND_LABEL
 70
     1
  0
ATTRIB
  5
8BE
100
AcDbEntity
  8
ATTRIBUTES
100
AcDbText
 10
-0.818969
 20
1.168469
 30
0.0
 40
0.06
  1
1771-IA/B,IA2
100
AcDbAttribute
  2
AC_PART_NO
 70
     1
  0
ATTRIB
  5
8BF
100
AcDbEntity
  8
ATTRIBUTES
100
AcDbText
 10
-0.818969
 20
1.043469
 30
0.0
 40
0.06
  1
1771-IA/B,IA2:120V AC/DC INPUT MODULE, 8 INPUTS
100
AcDbAttribute
  2
AC_DESCRIPTION
 70
     1
  0
ATTRIB
  5
8C0
100
AcDbEntity
  8
ATTRIBUTES
100
AcDbText
 10
-0.818969
 20
0.918469
 30
0.0
 40
0.06
  1

100
AcDbAttribute
  2
DEVICE_ID
 70
     1
  0
ATTRIB
  5
8C1
100
AcDbEntity
  8
ATTRIBUTES
100
AcDbText
 10
-0.818969
 20
0.793469
 30
0.0
 40
0.06
  1

100
AcDbAttribute
  2
AC_CPART_NO
 70
     1
  0
ATTRIB
  5
8C2
100
AcDbEntity
  8
ATTRIBUTES
100
AcDbText
 10
-0.818969
 20
0.668469
 30
0.0
 40
0.06
  1

100
AcDbAttribute
  2
AC_NOTE
 70
     1
  0
ATTRIB
  5
8C3
100
AcDbEntity
  8
ATTRIBUTES
100
AcDbText
 10
-0.818969
 20
0.543469
 30
0.0
 40
0.06
  1

100
AcDbAttribute
  2
FASTENER
 70
     1
  0
ATTRIB
  5
8C4
100
AcDbEntity
  8
ATTRIBUTES
100
AcDbText
 10
-0.818969
 20
0.418469
 30
0.0
 40
0.06
  1
INCH
100
AcDbAttribute
  2
AC_SCALE_UNIT
 70
     1
  0
ATTRIB
  5
8C5
100
AcDbEntity
  8
ATTRIBUTES
100
AcDbText
 10
-0.818969
 20
0.293469
 30
0.0
 40
0.06
  1
0
100
AcDbAttribute
  2
AC_VIEW_CODE
 70
     1
  0
SEQEND
  5
8C6
100
AcDbEntity
  8
0
  0
DIMENSION
  5
8C7
100
AcDbEntity
  8
AREA2
100
AcDbDimension
  2
*D4
 10
-1.839235
 20
0.0
 30
0.0
 11
-1.839235
 21
2.94
 31
0.0
 70
    32
210
0.0
220
-1.0
230
0.0
  3
ABECAD_3V
100
AcDbAlignedDimension
 13
-0.89
 23
0.2
 33
5.88
 14
-0.89
 24
0.2
 34
0.0
 50
90.0
100
AcDbRotatedDimension
1001
ACAD
1000
DSTYLE
1002
{
1070
    40
1040
1.0
1002
}
  0
VIEWPORT
  5
2C
102
{ACAD_XDICTIONARY
360
9B7
102
}
100
AcDbEntity
 67
     1
  8
0
100
AcDbViewport
 10
4.999849
 20
3.750155
 30
0.0
 40
14.605422
 41
7.605506
 68
     1
 69
     1
1001
ACAD
1000
MVIEW
1002
{
1070
    16
1010
0.0
1020
0.0
1030
0.0
1010
0.0
1020
0.0
1030
1.0
1040
0.0
1040
7.605506
1040
4.999849
1040
3.750155
1040
50.0
1040
0.0
1040
0.0
1070
     0
1070
   100
1070
     1
1070
     1
1070
     0
1070
     0
1070
     0
1070
     0
1040
0.0
1040
0.0
1040
0.0
1040
1.0
1040
1.0
1040
0.0
1040
0.0
1070
     0
1002
{
1002
}
1002
}
  0
VIEWPORT
  5
2D
102
{ACAD_XDICTIONARY
360
9B9
102
}
100
AcDbEntity
 67
     1
  8
0
100
AcDbViewport
 10
2.5
 20
5.625
 30
0.0
 40
5.0
 41
3.75
 68
     4
 69
     2
1001
ACAD
1000
MVIEW
1002
{
1070
    16
1010
0.0
1020
0.0
1030
0.0
1010
0.0
1020
0.0
1030
1.0
1040
0.0
1040
13.230943
1040
0.308039
1040
4.742713
1040
50.0
1040
0.0
1040
0.0
1070
     0
1070
   100
1070
     1
1070
     0
1070
     0
1070
     0
1070
     0
1070
     0
1040
0.0
1040
0.0
1040
0.0
1040
1.0
1040
1.0
1040
0.0
1040
0.0
1070
     0
1002
{
1003
AREA2
1002
}
1002
}
  0
VIEWPORT
  5
2E
102
{ACAD_XDICTIONARY
360
9BB
102
}
100
AcDbEntity
 67
     1
  8
0
100
AcDbViewport
 10
2.5
 20
1.875
 30
0.0
 40
5.0
 41
3.75
 68
     3
 69
     3
1001
ACAD
1000
MVIEW
1002
{
1070
    16
1010
0.0
1020
0.0
1030
0.0
1010
0.0
1020
-1.0
1030
0.0
1040
0.0
1040
11.327711
1040
0.308039
1040
2.940487
1040
50.0
1040
0.0
1040
0.0
1070
     0
1070
   100
1070
     1
1070
     0
1070
     0
1070
     0
1070
     0
1070
     0
1040
0.0
1040
0.0
1040
0.0
1040
1.0
1040
1.0
1040
0.0
1040
0.0
1070
     0
1002
{
1003
AREA1
1002
}
1002
}
  0
VIEWPORT
  5
2F
102
{ACAD_XDICTIONARY
360
9BD
102
}
100
AcDbEntity
 67
     1
  8
0
100
AcDbViewport
 10
7.5
 20
3.75
 30
0.0
 40
5.0
 41
7.5
 68
     2
 69
     4
1001
ACAD
1000
MVIEW
1002
{
1070
    16
1010
0.0
1020
0.0
1030
0.0
1010
-1.0
1020
-1.0
1030
1.0
1040
0.0
1040
16.054693
1040
-3.663116
1040
6.678002
1040
50.0
1040
0.0
1040
0.0
1070
     0
1070
   100
1070
     1
1070
     0
1070
     0
1070
     0
1070
     0
1070
     0
1040
0.0
1040
0.0
1040
0.0
1040
1.0
1040
1.0
1040
0.0
1040
0.0
1070
     0
1002
{
1003
AREA1
1003
AREA2
1002
}
1002
}
  0
TEXT
  5
42D
100
AcDbEntity
 67
     1
  8
0
100
AcDbText
 10
5.253785
 20
7.092701
 30
0.0
 40
0.2
  1
1771-IA/B,IA2
100
AcDbText
  0
TEXT
  5
431
100
AcDbEntity
 67
     1
  8
0
100
AcDbText
 10
5.253785
 20
6.759368
 30
0.0
 40
0.2
  1
1771-IA/B,IA2:120V AC/DC
100
AcDbText
1001
ACAD
1000
R13OBJECT
1002
{
1005
42D
1002
}
  0
TEXT
  5
52E
100
AcDbEntity
 67
     1
  8
0
100
AcDbText
 10
5.240015
 20
6.436423
 30
0.0
 40
0.2
  1
INPUT MODULE, 8 INPUTS
100
AcDbText
  0
TEXT
  5
52F
100
AcDbEntity
 67
     1
  8
0
100
AcDbText
 10
5.240015
 20
6.10309
 30
0.0
 40
0.2
  1

100
AcDbText
  0
TEXT
  5
530
100
AcDbEntity
 67
     1
  8
0
100
AcDbText
 10
5.240015
 20
5.769757
 30
0.0
 40
0.2
  1

100
AcDbText
  0
ENDSEC
  0
SECTION
  2
OBJECTS
  0
DICTIONARY
  5
46D
100
AcDbDictionary
  3
ACAD_GROUP
350
46E
  3
ACAD_LAYOUT
350
49E
  3
ACAD_MLINESTYLE
350
47B
  3
ACAD_PLOTSETTINGS
350
49F
  3
ACAD_PLOTSTYLENAME
350
49C
  3
ACDBHEADERROUNDTRIPXREC
350
996
  3
ACDBVARIABLEDICTIONARY
350
48D
  0
DICTIONARY
  5
994
100
AcDbDictionary
280
     1
  3
ACAD_XREC_ROUNDTRIP
360
995
  0
DICTIONARY
  5
9C1
100
AcDbDictionary
280
     1
  3
ACAD_XREC_ROUNDTRIP
360
9C2
  0
DICTIONARY
  5
9C3
100
AcDbDictionary
280
     1
  3
ACAD_XREC_ROUNDTRIP
360
9C4
  0
DICTIONARY
  5
9C5
100
AcDbDictionary
280
     1
  3
ACAD_XREC_ROUNDTRIP
360
9C6
  0
DICTIONARY
  5
9C9
100
AcDbDictionary
280
     1
  3
ACAD_XREC_ROUNDTRIP
360
9CA
  0
DICTIONARY
  5
4D2
100
AcDbDictionary
280
     1
  3
ACAD_LAYOUTSELFREF
360
9C0
  0
DICTIONARY
  5
4D0
100
AcDbDictionary
280
     1
  3
ACAD_LAYOUTSELFREF
360
9BF
  0
DICTIONARY
  5
990
100
AcDbDictionary
280
     1
  3
ACAD_XREC_ROUNDTRIP
360
991
  0
DICTIONARY
  5
992
100
AcDbDictionary
280
     1
  3
ACAD_XREC_ROUNDTRIP
360
993
  0
DICTIONARY
  5
9B7
100
AcDbDictionary
280
     1
  3
ACAD_XREC_ROUNDTRIP
360
9B8
  0
DICTIONARY
  5
9B9
100
AcDbDictionary
280
     1
  3
ACAD_XREC_ROUNDTRIP
360
9BA
  0
DICTIONARY
  5
9BB
100
AcDbDictionary
280
     1
  3
ACAD_XREC_ROUNDTRIP
360
9BC
  0
DICTIONARY
  5
9BD
100
AcDbDictionary
280
     1
  3
ACAD_XREC_ROUNDTRIP
360
9BE
  0
DICTIONARY
  5
46E
102
{ACAD_REACTORS
330
46D
102
}
100
AcDbDictionary
  0
DICTIONARY
  5
49E
102
{ACAD_XDICTIONARY
360
9C7
102
}
102
{ACAD_REACTORS
330
46D
102
}
100
AcDbDictionary
  3
LAYOUT1
350
4A1
  3
MODEL
350
4A0
  0
DICTIONARY
  5
47B
102
{ACAD_REACTORS
330
46D
102
}
100
AcDbDictionary
  3
STANDARD
350
47C
  0
DICTIONARY
  5
49F
102
{ACAD_REACTORS
330
46D
102
}
100
AcDbDictionary
  0
ACAD_PROXY_OBJECT
  5
49C
102
{ACAD_REACTORS
330
46D
102
}
100
AcDbProxyObject
 90
      499
 91
      501
 93
       86
310
405010041939BDC9B585B0
350
49D
340
49D
 94
        0
  0
DICTIONARY
  5
996
102
{ACAD_REACTORS
330
46D
102
}
100
AcDbDictionary
  3
CEPSNTYPE
350
9A0
  3
DIMSTYLEDATA
350
9A4
  3
FINGERPRINTGUID
350
9A1
  3
HYPERLINKBASE
350
999
  3
INSUNITS
350
99F
  3
LAYOUTDICT
350
99B
  3
LWETCUNION
350
99E
  3
PLOTSETDICT
350
99C
  3
PLOTSTYLNAMDICT
350
99D
  3
PSVPSCALE
350
9A3
  3
PUCSBASE
350
9A7
  3
PUCSORGBACK
350
9AD
  3
PUCSORGBOTTOM
350
9A9
  3
PUCSORGFRONT
350
9AC
  3
PUCSORGLEFT
350
9AA
  3
PUCSORGRIGHT
350
9AB
  3
PUCSORGTOP
350
9A8
  3
PUCSORTHOREF
350
9A5
  3
PUCSORTHOVIEW
350
9A6
  3
STYLESHEET
350
99A
  3
TSTACKALIGN
350
997
  3
TSTACKSIZE
350
998
  3
UCSBASE
350
9B0
  3
UCSORGBACK
350
9B6
  3
UCSORGBOTTOM
350
9B2
  3
UCSORGFRONT
350
9B5
  3
UCSORGLEFT
350
9B3
  3
UCSORGRIGHT
350
9B4
  3
UCSORGTOP
350
9B1
  3
UCSORTHOREF
350
9AE
  3
UCSORTHOVIEW
350
9AF
  3
VERSIONGUID
350
9A2
  0
DICTIONARY
  5
48D
102
{ACAD_REACTORS
330
46D
102
}
100
AcDbDictionary
  3
DIMADEC
350
48E
  0
XRECORD
  5
995
102
{ACAD_REACTORS
330
994
102
}
100
AcDbXrecord
102
EXTNAMES
  1
*ACTIVE
  2
*Active
102
UCS
 74
     0
 71
     1
 10
0.0
 20
0.0
 30
0.0
 10
1.0
 20
0.0
 30
0.0
 10
0.0
 20
1.0
 30
0.0
146
0.0
 79
     1
102
VIEW
281
     0
  0
XRECORD
  5
9C2
102
{ACAD_REACTORS
330
9C1
102
}
100
AcDbXrecord
102
PLOTBIT
280
     0
  0
XRECORD
  5
9C4
102
{ACAD_REACTORS
330
9C3
102
}
100
AcDbXrecord
102
ACADR14ROUNDTRIP
1000
DSTYLE
1002
{
1070
   276
 70
     2
1070
   277
 70
     5
1070
   279
 70
     2
1002
}
  0
XRECORD
  5
9C6
102
{ACAD_REACTORS
330
9C5
102
}
100
AcDbXrecord
102
ACADR14ROUNDTRIP
1000
DSTYLE
1002
{
1070
   276
 70
     2
1070
   277
 70
     5
1070
   279
 70
     2
1002
}
  0
XRECORD
  5
9CA
102
{ACAD_REACTORS
330
9C9
102
}
100
AcDbXrecord
102
ACADR14ROUNDTRIP
1000
DSTYLE
1002
{
1070
   276
 70
     2
1070
   277
 70
     5
1002
}
  0
XRECORD
  5
9C0
102
{ACAD_REACTORS
330
4D2
102
}
100
AcDbXrecord
340
478
  0
XRECORD
  5
9BF
102
{ACAD_REACTORS
330
4D0
102
}
100
AcDbXrecord
340
475
  0
XRECORD
  5
991
102
{ACAD_REACTORS
330
990
102
}
100
AcDbXrecord
102
EXTNAMES
  1
SCALE
  2
scale
  0
XRECORD
  5
993
102
{ACAD_REACTORS
330
992
102
}
100
AcDbXrecord
102
EXTNAMES
  1
ABIOE040
  2
Abioe040
  0
XRECORD
  5
9B8
102
{ACAD_REACTORS
330
9B7
102
}
100
AcDbXrecord
102
UCS
 74
     0
 71
     1
 10
0.0
 20
0.0
 30
0.0
 10
1.0
 20
0.0
 30
0.0
 10
0.0
 20
1.0
 30
0.0
146
0.0
 79
     0
102
VIEW
281
     0
102
NEWVIEWCONTROL
280
     4
  0
XRECORD
  5
9BA
102
{ACAD_REACTORS
330
9B9
102
}
100
AcDbXrecord
102
UCS
 74
     0
 71
     1
 10
0.0
 20
0.0
 30
0.0
 10
1.0
 20
0.0
 30
0.0
 10
0.0
 20
1.0
 30
0.0
146
0.0
 79
     1
102
VIEW
281
     0
102
NEWVIEWCONTROL
280
     4
  0
XRECORD
  5
9BC
102
{ACAD_REACTORS
330
9BB
102
}
100
AcDbXrecord
102
UCS
 74
     0
 71
     1
 10
0.0
 20
0.0
 30
0.0
 10
1.0
 20
0.0
 30
0.0
 10
0.0
 20
0.0
 30
1.0
146
0.0
 79
     3
102
VIEW
281
     0
102
NEWVIEWCONTROL
280
     4
  0
XRECORD
  5
9BE
102
{ACAD_REACTORS
330
9BD
102
}
100
AcDbXrecord
102
UCS
 74
     0
 71
     1
 10
0.0
 20
0.0
 30
0.0
 10
1.0
 20
0.0
 30
0.0
 10
0.0
 20
1.0
 30
0.0
146
0.0
 79
     0
102
VIEW
281
     0
102
NEWVIEWCONTROL
280
     4
  0
DICTIONARY
  5
9C7
100
AcDbDictionary
280
     1
  3
ACAD_XREC_ROUNDTRIP
360
9C8
  0
ACAD_PROXY_OBJECT
  5
4A1
102
{ACAD_REACTORS
330
49E
102
}
100
AcDbProxyObject
 90
      499
 91
      503
 93
     2044
310
91D4850204C617365724A65742035303030205365726965732050434C20362C008000000C0BB1B1440000000102F06C510000000000BC1B1440000000002E06C5100000000C0CCFC6A4000000018199D9C501064C6574746572A901406AA427D84144352EEE3F47D11959985D5B1D08148C4D081C195B88185CDCDA59DB9B5
310
95B9D1CCB98DD18A30EDE3B1BBFDBC0FC1D572C8D6D0C833F1A2B3054E9249F0FD074C61796F75743140501A97D7DB4AA43C31EFF91E46EBA53B71EFD1B32A15809809100B2537F8EAD447D02A6A6A00200C0093BD106FC0000F06EE366FABE0000032E846F6A2F44424FF2920002440160B7F435600079000000D00CEECC5
310
43D0
330
475
330
2C
340
0
340
0
 94
        0
  0
ACAD_PROXY_OBJECT
  5
4A0
102
{ACAD_REACTORS
330
49E
102
}
100
AcDbProxyObject
 90
      499
 91
      503
 93
      924
310
91D4850204C617365724A65742035303030205365726965732050434C20362C01AAAAAAAAA547D11959985D5B1D08148C4D081C195B88185CDCDA59DB9B595B9D1CCB98DD18A69054D6F64656C901A800000000000000000000000000000000000000000000A1000000000000008902A6A6AAAA0
330
478
330
0
340
0
340
0
 94
        0
  0
MLINESTYLE
  5
47C
102
{ACAD_REACTORS
330
47B
102
}
100
AcDbMlineStyle
  2
STANDARD
 70
     0
  3

 62
   256
 51
90.0
 52
90.0
 71
     2
 49
0.5
 62
   256
  6
BYLAYER
 49
-0.5
 62
   256
  6
BYLAYER
  0
ACAD_PROXY_OBJECT
  5
49D
102
{ACAD_REACTORS
330
49C
102
}
100
AcDbProxyObject
 90
      499
 91
      502
 93
        0
 94
        0
  0
XRECORD
  5
9A0
102
{ACAD_REACTORS
330
996
102
}
100
AcDbXrecord
 90
        0
  0
XRECORD
  5
9A4
102
{ACAD_REACTORS
330
996
102
}
100
AcDbXrecord
1000
DSTYLE
1002
{
1070
   276
 70
     2
1070
   277
 70
     5
1070
   279
 70
     2
1002
}
  0
XRECORD
  5
9A1
102
{ACAD_REACTORS
330
996
102
}
100
AcDbXrecord
  1
{6E0CF4B5-225E-11D4-A150-00A0CC3303EC}
  0
XRECORD
  5
999
102
{ACAD_REACTORS
330
996
102
}
100
AcDbXrecord
  1

  0
XRECORD
  5
99F
102
{ACAD_REACTORS
330
996
102
}
100
AcDbXrecord
 90
        0
  0
XRECORD
  5
99B
102
{ACAD_REACTORS
330
996
102
}
100
AcDbXrecord
340
49E
  0
XRECORD
  5
99E
102
{ACAD_REACTORS
330
996
102
}
100
AcDbXrecord
 90
    14877
  0
XRECORD
  5
99C
102
{ACAD_REACTORS
330
996
102
}
100
AcDbXrecord
340
49F
  0
XRECORD
  5
99D
102
{ACAD_REACTORS
330
996
102
}
100
AcDbXrecord
340
49C
  0
XRECORD
  5
9A3
102
{ACAD_REACTORS
330
996
102
}
100
AcDbXrecord
 40
0.0
  0
XRECORD
  5
9A7
102
{ACAD_REACTORS
330
996
102
}
100
AcDbXrecord
340
0
  0
XRECORD
  5
9AD
102
{ACAD_REACTORS
330
996
102
}
100
AcDbXrecord
 10
0.0
 20
0.0
 30
0.0
  0
XRECORD
  5
9A9
102
{ACAD_REACTORS
330
996
102
}
100
AcDbXrecord
 10
0.0
 20
0.0
 30
0.0
  0
XRECORD
  5
9AC
102
{ACAD_REACTORS
330
996
102
}
100
AcDbXrecord
 10
0.0
 20
0.0
 30
0.0
  0
XRECORD
  5
9AA
102
{ACAD_REACTORS
330
996
102
}
100
AcDbXrecord
 10
0.0
 20
0.0
 30
0.0
  0
XRECORD
  5
9AB
102
{ACAD_REACTORS
330
996
102
}
100
AcDbXrecord
 10
0.0
 20
0.0
 30
0.0
  0
XRECORD
  5
9A8
102
{ACAD_REACTORS
330
996
102
}
100
AcDbXrecord
 10
0.0
 20
0.0
 30
0.0
  0
XRECORD
  5
9A5
102
{ACAD_REACTORS
330
996
102
}
100
AcDbXrecord
340
0
  0
XRECORD
  5
9A6
102
{ACAD_REACTORS
330
996
102
}
100
AcDbXrecord
 70
     0
  0
XRECORD
  5
99A
102
{ACAD_REACTORS
330
996
102
}
100
AcDbXrecord
  1

  0
XRECORD
  5
997
102
{ACAD_REACTORS
330
996
102
}
100
AcDbXrecord
 90
        1
  0
XRECORD
  5
998
102
{ACAD_REACTORS
330
996
102
}
100
AcDbXrecord
 90
       70
  0
XRECORD
  5
9B0
102
{ACAD_REACTORS
330
996
102
}
100
AcDbXrecord
340
0
  0
XRECORD
  5
9B6
102
{ACAD_REACTORS
330
996
102
}
100
AcDbXrecord
 10
0.0
 20
0.0
 30
0.0
  0
XRECORD
  5
9B2
102
{ACAD_REACTORS
330
996
102
}
100
AcDbXrecord
 10
0.0
 20
0.0
 30
0.0
  0
XRECORD
  5
9B5
102
{ACAD_REACTORS
330
996
102
}
100
AcDbXrecord
 10
0.0
 20
0.0
 30
0.0
  0
XRECORD
  5
9B3
102
{ACAD_REACTORS
330
996
102
}
100
AcDbXrecord
 10
0.0
 20
0.0
 30
0.0
  0
XRECORD
  5
9B4
102
{ACAD_REACTORS
330
996
102
}
100
AcDbXrecord
 10
0.0
 20
0.0
 30
0.0
  0
XRECORD
  5
9B1
102
{ACAD_REACTORS
330
996
102
}
100
AcDbXrecord
 10
0.0
 20
0.0
 30
0.0
  0
XRECORD
  5
9AE
102
{ACAD_REACTORS
330
996
102
}
100
AcDbXrecord
340
0
  0
XRECORD
  5
9AF
102
{ACAD_REACTORS
330
996
102
}
100
AcDbXrecord
 70
     3
  0
XRECORD
  5
9A2
102
{ACAD_REACTORS
330
996
102
}
100
AcDbXrecord
  1
{29A158F4-0138-4E49-8740-2E19FDA7A49E}
  0
DICTIONARYVAR
  5
48E
102
{ACAD_REACTORS
330
48D
102
}
100
DictionaryVariables
280
     0
  1
0
  0
XRECORD
  5
9C8
102
{ACAD_REACTORS
330
9C7
102
}
100
AcDbXrecord
102
EXTNAMES
  1
LAYOUT1
  2
Layout1
  1
MODEL
  2
Model
  0
ENDSEC
  0
EOF
