  0
SECTION
  2
HEADER
  9
$ACADVER
  1
AC1014
  9
$ACADMAINTVER
 70
     8
  9
$DWGCODEPAGE
  3
ANSI_1252
  9
$INSBASE
 10
0.0
 20
0.0
 30
0.0
  9
$EXTMIN
 10
-1.072526
 20
-1.58303
 30
0.0
  9
$EXTMAX
 10
2.635
 20
11.068456
 30
5.880973
  9
$LIMMIN
 10
0.0
 20
0.0
  9
$LIMMAX
 10
12.0
 20
9.0
  9
$ORTHOMODE
 70
     0
  9
$REGENMODE
 70
     1
  9
$FILLMODE
 70
     1
  9
$QTEXTMODE
 70
     0
  9
$MIRRTEXT
 70
     1
  9
$DRAGMODE
 70
     2
  9
$LTSCALE
 40
1.0
  9
$OSMODE
 70
    37
  9
$ATTMODE
 70
     1
  9
$TEXTSIZE
 40
0.12
  9
$TRACEWID
 40
0.05
  9
$TEXTSTYLE
  7
STANDARD
  9
$CLAYER
  8
0
  9
$CELTYPE
  6
BYLAYER
  9
$CECOLOR
 62
   256
  9
$CELTSCALE
 40
1.0
  9
$DELOBJ
 70
     1
  9
$DISPSILH
 70
     0
  9
$DIMSCALE
 40
1.0
  9
$DIMASZ
 40
0.18
  9
$DIMEXO
 40
0.0625
  9
$DIMDLI
 40
0.375
  9
$DIMRND
 40
0.0
  9
$DIMDLE
 40
0.0
  9
$DIMEXE
 40
0.18
  9
$DIMTP
 40
0.0
  9
$DIMTM
 40
0.0
  9
$DIMTXT
 40
0.18
  9
$DIMCEN
 40
0.09
  9
$DIMTSZ
 40
0.0
  9
$DIMTOL
 70
     0
  9
$DIMLIM
 70
     0
  9
$DIMTIH
 70
     0
  9
$DIMTOH
 70
     1
  9
$DIMSE1
 70
     0
  9
$DIMSE2
 70
     0
  9
$DIMTAD
 70
     0
  9
$DIMZIN
 70
     4
  9
$DIMBLK
  1

  9
$DIMASO
 70
     1
  9
$DIMSHO
 70
     1
  9
$DIMPOST
  1

  9
$DIMAPOST
  1

  9
$DIMALT
 70
     1
  9
$DIMALTD
 70
     1
  9
$DIMALTF
 40
25.4
  9
$DIMLFAC
 40
1.0
  9
$DIMTOFL
 70
     0
  9
$DIMTVP
 40
0.0
  9
$DIMTIX
 70
     0
  9
$DIMSOXD
 70
     0
  9
$DIMSAH
 70
     0
  9
$DIMBLK1
  1

  9
$DIMBLK2
  1

  9
$DIMSTYLE
  2
ABECAD_3D
  9
$DIMCLRD
 70
     0
  9
$DIMCLRE
 70
     0
  9
$DIMCLRT
 70
     0
  9
$DIMTFAC
 40
1.5
  9
$DIMGAP
 40
0.09
  9
$DIMJUST
 70
     0
  9
$DIMSD1
 70
     0
  9
$DIMSD2
 70
     0
  9
$DIMTOLJ
 70
     1
  9
$DIMTZIN
 70
     4
  9
$DIMALTZ
 70
     4
  9
$DIMALTTZ
 70
     4
  9
$DIMFIT
 70
     3
  9
$DIMUPT
 70
     0
  9
$DIMUNIT
 70
     7
  9
$DIMDEC
 70
     6
  9
$DIMTDEC
 70
     6
  9
$DIMALTU
 70
     2
  9
$DIMALTTD
 70
     1
  9
$DIMTXSTY
  7
STANDARD
  9
$DIMAUNIT
 70
     0
  9
$LUNITS
 70
     2
  9
$LUPREC
 70
     4
  9
$SKETCHINC
 40
0.1
  9
$FILLETRAD
 40
0.0
  9
$AUNITS
 70
     0
  9
$AUPREC
 70
     0
  9
$MENU
  1
ACAD
  9
$ELEVATION
 40
0.0
  9
$PELEVATION
 40
0.0
  9
$THICKNESS
 40
0.0
  9
$LIMCHECK
 70
     0
  9
$BLIPMODE
 70
     0
  9
$CHAMFERA
 40
0.0
  9
$CHAMFERB
 40
0.0
  9
$CHAMFERC
 40
0.0
  9
$CHAMFERD
 40
0.0
  9
$SKPOLY
 70
     0
  9
$TDCREATE
 40
2451670.444776967
  9
$TDUPDATE
 40
2452010.488485879
  9
$TDINDWG
 40
0.0064211806
  9
$TDUSRTIMER
 40
0.0064211806
  9
$USRTIMER
 70
     1
  9
$ANGBASE
 50
0.0
  9
$ANGDIR
 70
     0
  9
$PDMODE
 70
     3
  9
$PDSIZE
 40
0.09
  9
$PLINEWID
 40
0.0
  9
$COORDS
 70
     1
  9
$SPLFRAME
 70
     1
  9
$SPLINETYPE
 70
     6
  9
$SPLINESEGS
 70
     8
  9
$ATTDIA
 70
     0
  9
$ATTREQ
 70
     1
  9
$HANDLING
 70
     1
  9
$HANDSEED
  5
46117
  9
$SURFTAB1
 70
     6
  9
$SURFTAB2
 70
     6
  9
$SURFTYPE
 70
     6
  9
$SURFU
 70
     6
  9
$SURFV
 70
     6
  9
$UCSNAME
  2

  9
$UCSORG
 10
0.0
 20
0.0
 30
0.0
  9
$UCSXDIR
 10
1.0
 20
0.0
 30
0.0
  9
$UCSYDIR
 10
0.0
 20
1.0
 30
0.0
  9
$PUCSNAME
  2

  9
$PUCSORG
 10
0.0
 20
0.0
 30
0.0
  9
$PUCSXDIR
 10
1.0
 20
0.0
 30
0.0
  9
$PUCSYDIR
 10
0.0
 20
1.0
 30
0.0
  9
$USERI1
 70
     0
  9
$USERI2
 70
     0
  9
$USERI3
 70
     0
  9
$USERI4
 70
     0
  9
$USERI5
 70
     0
  9
$USERR1
 40
0.0
  9
$USERR2
 40
0.0
  9
$USERR3
 40
0.0
  9
$USERR4
 40
0.0
  9
$USERR5
 40
0.0
  9
$WORLDVIEW
 70
     1
  9
$SHADEDGE
 70
     3
  9
$SHADEDIF
 70
    70
  9
$TILEMODE
 70
     1
  9
$MAXACTVP
 70
    16
  9
$PINSBASE
 10
0.0
 20
0.0
 30
0.0
  9
$PLIMCHECK
 70
     0
  9
$PEXTMIN
 10
1.000000E+20
 20
1.000000E+20
 30
1.000000E+20
  9
$PEXTMAX
 10
-1.000000E+20
 20
-1.000000E+20
 30
-1.000000E+20
  9
$PLIMMIN
 10
0.0
 20
0.0
  9
$PLIMMAX
 10
12.0
 20
9.0
  9
$UNITMODE
 70
     0
  9
$VISRETAIN
 70
     0
  9
$PLINEGEN
 70
     0
  9
$PSLTSCALE
 70
     1
  9
$TREEDEPTH
 70
  3020
  9
$PICKSTYLE
 70
     1
  9
$CMLSTYLE
  2
STANDARD
  9
$CMLJUST
 70
     0
  9
$CMLSCALE
 40
1.0
  9
$PROXYGRAPHICS
 70
     1
  9
$MEASUREMENT
 70
     0
  0
ENDSEC
  0
SECTION
  2
CLASSES
  0
CLASS
  1
DICTIONARYVAR
  2
AcDbDictionaryVar
  3
"AutoCAD"
 90
        0
280
     0
281
     0
  0
CLASS
  1
ACDBDICTIONARYWDFLT
  2
AcDbDictionaryWithDefault
  3
AutoCAD 2000
 90
        0
280
     0
281
     0
  0
CLASS
  1
ACDBPLACEHOLDER
  2
AcDbPlaceHolder
  3
AutoCAD 2000
 90
        0
280
     0
281
     0
  0
CLASS
  1
LAYOUT
  2
AcDbLayout
  3
AutoCAD 2000
 90
        0
280
     0
281
     0
  0
CLASS
  1
LONG_TRANSACTION
  2
AcDbLongTransaction
  3
AutoCAD 2000
 90
        0
280
     0
281
     0
  0
CLASS
  1
LWPOLYLINE
  2
AcDbPolyline
  3
"AutoCAD"
 90
        0
280
     0
281
     1
  0
CLASS
  1
HATCH
  2
AcDbHatch
  3
"ACAD_SEDONA"
 90
        0
280
     0
281
     1
  0
CLASS
  1
XRECORD
  2
AcDbXrecord
  3
"<Built In>"
 90
        0
280
     0
281
     0
  0
CLASS
  1
LONG_TRANSACTION
  2
AcDbLongTransaction
  3
AutoCAD 2000
 90
        0
280
     0
281
     0
  0
CLASS
  1
LWPOLYLINE
  2
AcDbPolyline
  3
"AutoCAD"
 90
        0
280
     0
281
     1
  0
CLASS
  1
HATCH
  2
AcDbHatch
  3
"ACAD_SEDONA"
 90
        0
280
     0
281
     1
  0
CLASS
  1
XRECORD
  2
AcDbXrecord
  3
"<Built In>"
 90
        0
280
     0
281
     0
  0
CLASS
  1
LONG_TRANSACTION
  2
AcDbLongTransaction
  3
AutoCAD 2000
 90
        0
280
     0
281
     0
  0
CLASS
  1
LWPOLYLINE
  2
AcDbPolyline
  3
"AutoCAD"
 90
        0
280
     0
281
     1
  0
CLASS
  1
HATCH
  2
AcDbHatch
  3
"ACAD_SEDONA"
 90
        0
280
     0
281
     1
  0
CLASS
  1
XRECORD
  2
AcDbXrecord
  3
"<Built In>"
 90
        0
280
     0
281
     0
  0
CLASS
  1
LONG_TRANSACTION
  2
AcDbLongTransaction
  3
AutoCAD 2000
 90
        0
280
     0
281
     0
  0
CLASS
  1
LWPOLYLINE
  2
AcDbPolyline
  3
"AutoCAD"
 90
        0
280
     0
281
     1
  0
CLASS
  1
HATCH
  2
AcDbHatch
  3
"ACAD_SEDONA"
 90
        0
280
     0
281
     1
  0
CLASS
  1
XRECORD
  2
AcDbXrecord
  3
"<Built In>"
 90
        0
280
     0
281
     0
  0
CLASS
  1
LONG_TRANSACTION
  2
AcDbLongTransaction
  3
AutoCAD 2000
 90
        0
280
     0
281
     0
  0
CLASS
  1
LWPOLYLINE
  2
AcDbPolyline
  3
"AutoCAD"
 90
        0
280
     0
281
     1
  0
CLASS
  1
HATCH
  2
AcDbHatch
  3
"ACAD_SEDONA"
 90
        0
280
     0
281
     1
  0
CLASS
  1
XRECORD
  2
AcDbXrecord
  3
"<Built In>"
 90
        0
280
     0
281
     0
  0
CLASS
  1
LONG_TRANSACTION
  2
AcDbLongTransaction
  3
AutoCAD 2000
 90
        0
280
     0
281
     0
  0
CLASS
  1
LWPOLYLINE
  2
AcDbPolyline
  3
"AutoCAD"
 90
        0
280
     0
281
     1
  0
CLASS
  1
HATCH
  2
AcDbHatch
  3
"ACAD_SEDONA"
 90
        0
280
     0
281
     1
  0
CLASS
  1
XRECORD
  2
AcDbXrecord
  3
"<Built In>"
 90
        0
280
     0
281
     0
  0
ENDSEC
  0
SECTION
  2
TABLES
  0
TABLE
  2
VPORT
  5
458C7
100
AcDbSymbolTable
 70
     1
  0
VPORT
  5
460E2
102
{ACAD_XDICTIONARY
360
460E7
102
}
100
AcDbSymbolTableRecord
100
AcDbViewportTableRecord
  2
*ACTIVE
 70
     0
 10
0.0
 20
0.0
 11
1.0
 21
1.0
 12
0.781157
 22
4.742713
 13
0.0
 23
0.0
 14
0.25
 24
0.25
 15
0.25
 25
0.25
 16
0.0
 26
0.0
 36
1.0
 17
0.0
 27
0.0
 37
0.0
 40
12.864901
 41
1.960674
 42
50.0
 43
0.0
 44
0.0
 50
0.0
 51
0.0
 71
     0
 72
 20000
 73
     1
 74
     1
 75
     0
 76
     0
 77
     0
 78
     0
  0
ENDTAB
  0
TABLE
  2
LTYPE
  5
458C4
100
AcDbSymbolTable
 70
     1
  0
LTYPE
  5
458D0
100
AcDbSymbolTableRecord
100
AcDbLinetypeTableRecord
  2
BYBLOCK
 70
     0
  3

 72
    65
 73
     0
 40
0.0
  0
LTYPE
  5
458D1
100
AcDbSymbolTableRecord
100
AcDbLinetypeTableRecord
  2
BYLAYER
 70
     0
  3

 72
    65
 73
     0
 40
0.0
  0
LTYPE
  5
458D2
100
AcDbSymbolTableRecord
100
AcDbLinetypeTableRecord
  2
CONTINUOUS
 70
     0
  3
Solid line
 72
    65
 73
     0
 40
0.0
  0
ENDTAB
  0
TABLE
  2
LAYER
  5
458C1
100
AcDbSymbolTable
 70
     7
  0
LAYER
  5
458CD
100
AcDbSymbolTableRecord
100
AcDbLayerTableRecord
  2
0
 70
     0
 62
     7
  6
CONTINUOUS
  0
LAYER
  5
458EA
100
AcDbSymbolTableRecord
100
AcDbLayerTableRecord
  2
DIMS-MTG-HOLES
 70
     0
 62
     1
  6
CONTINUOUS
  0
LAYER
  5
458EB
100
AcDbSymbolTableRecord
100
AcDbLayerTableRecord
  2
ATTRIBUTES
 70
     0
 62
     7
  6
CONTINUOUS
  0
LAYER
  5
4593B
102
{ACAD_XDICTIONARY
360
46112
102
}
100
AcDbSymbolTableRecord
100
AcDbLayerTableRecord
  2
AREA1
 70
     0
 62
    -7
  6
CONTINUOUS
  0
LAYER
  5
45940
102
{ACAD_XDICTIONARY
360
460E5
102
}
100
AcDbSymbolTableRecord
100
AcDbLayerTableRecord
  2
DEFPOINTS
 70
     0
 62
    -7
  6
CONTINUOUS
  0
LAYER
  5
4603B
100
AcDbSymbolTableRecord
100
AcDbLayerTableRecord
  2
SCALE
 70
     0
 62
    -7
  6
CONTINUOUS
  0
LAYER
  5
46077
100
AcDbSymbolTableRecord
100
AcDbLayerTableRecord
  2
SNAP_POINTS
 70
     0
 62
    -1
  6
CONTINUOUS
  0
ENDTAB
  0
TABLE
  2
STYLE
  5
458C2
100
AcDbSymbolTable
 70
     1
  0
STYLE
  5
458CE
100
AcDbSymbolTableRecord
100
AcDbTextStyleTableRecord
  2
STANDARD
 70
     0
 40
0.0
 41
1.0
 50
0.0
 71
     0
 42
0.12
  3
txt
  4

  0
ENDTAB
  0
TABLE
  2
VIEW
  5
458C5
100
AcDbSymbolTable
 70
     0
  0
ENDTAB
  0
TABLE
  2
UCS
  5
458C6
100
AcDbSymbolTable
 70
     0
  0
ENDTAB
  0
TABLE
  2
APPID
  5
458C8
100
AcDbSymbolTable
 70
     1
  0
APPID
  5
458CF
100
AcDbSymbolTableRecord
100
AcDbRegAppTableRecord
  2
ACAD
 70
     0
  0
ENDTAB
  0
TABLE
  2
DIMSTYLE
  5
458C9
100
AcDbSymbolTable
 70
     2
  0
DIMSTYLE
105
458F1
102
{ACAD_XDICTIONARY
360
4610C
102
}
100
AcDbSymbolTableRecord
100
AcDbDimStyleTableRecord
  2
ABECAD
 70
     0
  3

  4

  5

  6

  7

 40
1.0
 41
0.18
 42
0.0625
 43
0.375
 44
0.18
 45
0.0
 46
0.0
 47
0.0
 48
0.0
140
0.18
141
0.09
142
0.0
143
25.4
144
1.0
145
0.0
146
1.5
147
0.09
 71
     0
 72
     0
 73
     0
 74
     1
 75
     0
 76
     0
 77
     0
 78
     4
170
     1
171
     1
172
     0
173
     0
174
     0
175
     0
176
     0
177
     0
178
     0
270
     7
271
     6
272
     6
273
     2
274
     1
340
458CE
275
     0
280
     0
281
     0
282
     0
283
     1
284
     4
285
     4
286
     4
287
     3
288
     0
  0
DIMSTYLE
105
458F6
102
{ACAD_XDICTIONARY
360
4610E
102
}
102
{ACAD_REACTORS
330
45FDC
330
45FEA
102
}
100
AcDbSymbolTableRecord
100
AcDbDimStyleTableRecord
  2
ABECAD_3D
 70
     0
  3

  4

  5

  6

  7

 40
1.0
 41
0.18
 42
0.0625
 43
0.375
 44
0.18
 45
0.0
 46
0.0
 47
0.0
 48
0.0
140
0.18
141
0.09
142
0.0
143
25.4
144
1.0
145
0.0
146
1.5
147
0.09
 71
     0
 72
     0
 73
     0
 74
     1
 75
     0
 76
     0
 77
     0
 78
     4
170
     1
171
     1
172
     0
173
     0
174
     0
175
     0
176
     0
177
     0
178
     0
270
     7
271
     6
272
     6
273
     2
274
     1
340
458CE
275
     0
280
     0
281
     0
282
     0
283
     1
284
     4
285
     4
286
     4
287
     3
288
     0
  0
ENDTAB
  0
TABLE
  2
BLOCK_RECORD
  5
458C0
100
AcDbSymbolTable
 70
     3
  0
BLOCK_RECORD
  5
458D6
102
{ACAD_XDICTIONARY
360
4592C
102
}
100
AcDbSymbolTableRecord
100
AcDbBlockTableRecord
  2
*MODEL_SPACE
  0
BLOCK_RECORD
  5
458D3
102
{ACAD_XDICTIONARY
360
4592A
102
}
100
AcDbSymbolTableRecord
100
AcDbBlockTableRecord
  2
*PAPER_SPACE
  0
BLOCK_RECORD
  5
45FDD
100
AcDbSymbolTableRecord
100
AcDbBlockTableRecord
  2
*D0
  0
BLOCK_RECORD
  5
45FEB
100
AcDbSymbolTableRecord
100
AcDbBlockTableRecord
  2
*D1
  0
BLOCK_RECORD
  5
4602D
102
{ACAD_XDICTIONARY
360
460E3
102
}
100
AcDbSymbolTableRecord
100
AcDbBlockTableRecord
  2
SCALE
1001
ACAD
1000
DesignCenter Data
1002
{
1070
     1
1070
     1
1002
}
  0
ENDTAB
  0
ENDSEC
  0
SECTION
  2
BLOCKS
  0
BLOCK
  5
458DF
100
AcDbEntity
  8
0
100
AcDbBlockBegin
  2
*MODEL_SPACE
 70
     0
 10
0.0
 20
0.0
 30
0.0
  3
*MODEL_SPACE
  1

  0
ENDBLK
  5
458E0
100
AcDbEntity
  8
0
100
AcDbBlockEnd
  0
BLOCK
  5
458DD
100
AcDbEntity
 67
     1
  8
0
100
AcDbBlockBegin
  2
*PAPER_SPACE
 70
     0
 10
0.0
 20
0.0
 30
0.0
  3
*PAPER_SPACE
  1

  0
ENDBLK
  5
458DE
100
AcDbEntity
 67
     1
  8
0
100
AcDbBlockEnd
  0
BLOCK
  5
45FE8
100
AcDbEntity
  8
0
100
AcDbBlockBegin
  2
*D0
 70
     1
 10
0.0
 20
0.0
 30
0.0
  3
*D0
  1

  0
LINE
  5
45FDE
100
AcDbEntity
  8
AREA1
 62
     0
100
AcDbLine
 10
-0.163868
 20
-0.562545
 30
0.0
 11
1.470548
 21
-0.562545
 31
0.0
1001
ACAD
1000
RTLwPs
1070
   158
  0
LINE
  5
45FDF
100
AcDbEntity
  8
AREA1
 62
     0
100
AcDbLine
 10
0.3275
 20
10.0432
 30
0.0
 11
1.470548
 21
10.0432
 31
0.0
1001
ACAD
1000
RTLwPs
1070
   158
  0
LINE
  5
45FE0
100
AcDbEntity
  8
AREA1
 62
     0
100
AcDbLine
 10
1.290548
 20
-0.382545
 30
0.0
 11
1.290548
 21
3.405327
 31
0.0
1001
ACAD
1000
RTLwPs
1070
   158
  0
LINE
  5
45FE1
100
AcDbEntity
  8
AREA1
 62
     0
100
AcDbLine
 10
1.290548
 20
9.8632
 30
0.0
 11
1.290548
 21
6.075327
 31
0.0
1001
ACAD
1000
RTLwPs
1070
   158
  0
SOLID
  5
45FE2
100
AcDbEntity
  8
AREA1
 62
     0
100
AcDbTrace
 10
1.260548
 20
-0.382545
 30
0.0
 11
1.320548
 21
-0.382545
 31
0.0
 12
1.290548
 22
-0.562545
 32
0.0
 13
1.290548
 23
-0.562545
 33
0.0
  0
SOLID
  5
45FE3
100
AcDbEntity
  8
AREA1
 62
     0
100
AcDbTrace
 10
1.260548
 20
9.8632
 30
0.0
 11
1.320548
 21
9.8632
 31
0.0
 12
1.290548
 22
10.0432
 32
0.0
 13
1.290548
 23
10.0432
 33
0.0
  0
MTEXT
  5
45FE4
100
AcDbEntity
  8
AREA1
 62
     0
100
AcDbMText
 10
1.290548
 20
4.740327
 30
0.0
 40
0.18
 41
0.0
 71
     5
 72
     1
  1
\A1;10 39/64 [269.4]
 11
0.0
 21
1.0
 31
0.0
1001
ACAD
1000
MTEXTBEGIN
1070
    73
1070
     1
1070
    44
1040
1.0
1070
    74
1070
     0
1000
MTEXTEND
1000
MTEXTBEGIN
1070
    73
1070
     1
1070
    44
1040
1.0
1070
    74
1070
     0
1000
MTEXTEND
1000
MTEXTBEGIN
1070
    73
1070
     1
1070
    44
1040
1.0
1070
    74
1070
     0
1000
MTEXTEND
1000
MTEXTBEGIN
1070
    73
1070
     1
1070
    44
1040
1.0
1070
    74
1070
     0
1000
MTEXTEND
1000
MTEXTBEGIN
1070
    73
1070
     1
1070
    44
1040
1.0
1070
    74
1070
     0
1000
MTEXTEND
  0
POINT
  5
45FE5
100
AcDbEntity
  8
DEFPOINTS
 62
     0
100
AcDbPoint
 10
-0.226368
 20
-0.562545
 30
5.88
  0
POINT
  5
45FE6
100
AcDbEntity
  8
DEFPOINTS
 62
     0
100
AcDbPoint
 10
0.265
 20
10.0432
 30
5.747
  0
POINT
  5
45FE7
100
AcDbEntity
  8
DEFPOINTS
 62
     0
100
AcDbPoint
 10
1.290548
 20
10.0432
 30
0.0
  0
ENDBLK
  5
45FE9
100
AcDbEntity
  8
0
100
AcDbBlockEnd
  0
BLOCK
  5
45FF6
100
AcDbEntity
  8
0
100
AcDbBlockBegin
  2
*D1
 70
     1
 10
0.0
 20
0.0
 30
0.0
  3
*D1
  1

  0
LINE
  5
45FEC
100
AcDbEntity
  8
AREA1
 62
     0
100
AcDbLine
 10
-1.025435
 20
0.37789
 30
0.0
 11
-1.025435
 21
11.068456
 31
0.0
1001
ACAD
1000
RTLwPs
1070
   158
  0
LINE
  5
45FED
100
AcDbEntity
  8
AREA1
 62
     0
100
AcDbLine
 10
0.265
 20
10.1057
 30
0.0
 11
0.265
 21
11.068456
 31
0.0
1001
ACAD
1000
RTLwPs
1070
   158
  0
LINE
  5
45FEE
100
AcDbEntity
  8
AREA1
 62
     0
100
AcDbLine
 10
-0.845435
 20
10.888456
 30
0.0
 11
0.085
 21
10.888456
 31
0.0
1001
ACAD
1000
RTLwPs
1070
   158
  0
LINE
  5
45FEF
100
AcDbEntity
  8
AREA1
 62
     0
100
AcDbLine
 10
0.265
 20
10.888456
 30
0.0
 11
0.445
 21
10.888456
 31
0.0
1001
ACAD
1000
RTLwPs
1070
   158
  0
SOLID
  5
45FF0
100
AcDbEntity
  8
AREA1
 62
     0
100
AcDbTrace
 10
-0.845435
 20
10.918456
 30
0.0
 11
-0.845435
 21
10.858456
 31
0.0
 12
-1.025435
 22
10.888456
 32
0.0
 13
-1.025435
 23
10.888456
 33
0.0
  0
SOLID
  5
45FF1
100
AcDbEntity
  8
AREA1
 62
     0
100
AcDbTrace
 10
0.085
 20
10.918456
 30
0.0
 11
0.085
 21
10.858456
 31
0.0
 12
0.265
 22
10.888456
 32
0.0
 13
0.265
 23
10.888456
 33
0.0
  0
MTEXT
  5
45FF2
100
AcDbEntity
  8
AREA1
 62
     0
100
AcDbMText
 10
1.585
 20
10.888456
 30
0.0
 40
0.18
 41
0.0
 71
     5
 72
     1
  1
\A1;1 19/64 [32.8]
1001
ACAD
1000
MTEXTBEGIN
1070
    73
1070
     1
1070
    44
1040
1.0
1070
    74
1070
     0
1000
MTEXTEND
1000
MTEXTBEGIN
1070
    73
1070
     1
1070
    44
1040
1.0
1070
    74
1070
     0
1000
MTEXTEND
1000
MTEXTBEGIN
1070
    73
1070
     1
1070
    44
1040
1.0
1070
    74
1070
     0
1000
MTEXTEND
1000
MTEXTBEGIN
1070
    73
1070
     1
1070
    44
1040
1.0
1070
    74
1070
     0
1000
MTEXTEND
1000
MTEXTBEGIN
1070
    73
1070
     1
1070
    44
1040
1.0
1070
    74
1070
     0
1000
MTEXTEND
  0
POINT
  5
45FF3
100
AcDbEntity
  8
DEFPOINTS
 62
     0
100
AcDbPoint
 10
-1.025435
 20
0.31539
 30
5.88
  0
POINT
  5
45FF4
100
AcDbEntity
  8
DEFPOINTS
 62
     0
100
AcDbPoint
 10
0.265
 20
10.0432
 30
5.747
  0
POINT
  5
45FF5
100
AcDbEntity
  8
DEFPOINTS
 62
     0
100
AcDbPoint
 10
0.265
 20
10.888456
 30
0.0
  0
ENDBLK
  5
45FF7
100
AcDbEntity
  8
0
100
AcDbBlockEnd
  0
BLOCK
  5
46039
100
AcDbEntity
  8
0
100
AcDbBlockBegin
  2
SCALE
 70
     0
 10
0.0
 20
0.0
 30
0.0
  3
SCALE
  1

  0
LINE
  5
4602E
100
AcDbEntity
  8
SCALE
100
AcDbLine
 10
0.057999
 20
-0.380078
 30
0.0
 11
1.057999
 21
-0.380078
 31
0.0
  0
LWPOLYLINE
  5
4602F
100
AcDbEntity
  8
SCALE
100
AcDbPolyline
 90
        4
 70
     1
 43
0.0
 10
0.0
 20
0.0
 10
1.135629
 20
0.0
 10
1.135629
 20
-0.84161
 10
0.0
 20
-0.84161
  0
LINE
  5
46030
100
AcDbEntity
  8
SCALE
100
AcDbLine
 10
0.057999
 20
-0.480078
 30
0.0
 11
0.057999
 21
-0.280078
 31
0.0
  0
TEXT
  5
46031
100
AcDbEntity
  8
SCALE
100
AcDbText
 10
0.117421
 20
-0.634339
 30
0.0
 40
0.0625
  1
[10mm]
100
AcDbText
  0
LINE
  5
46032
100
AcDbEntity
  8
SCALE
100
AcDbLine
 10
0.057999
 20
-0.680078
 30
0.0
 11
0.451699
 21
-0.680078
 31
0.0
  0
LINE
  5
46033
100
AcDbEntity
  8
SCALE
100
AcDbLine
 10
0.057999
 20
-0.780078
 30
0.0
 11
0.057999
 21
-0.580078
 31
0.0
  0
LINE
  5
46034
100
AcDbEntity
  8
SCALE
100
AcDbLine
 10
0.451699
 20
-0.780078
 30
0.0
 11
0.451699
 21
-0.580078
 31
0.0
  0
TEXT
  5
46035
100
AcDbEntity
  8
SCALE
100
AcDbText
 10
0.059529
 20
-0.105201
 30
0.0
 40
0.0625
  1
SCALE:
100
AcDbText
  0
TEXT
  5
46036
100
AcDbEntity
  8
SCALE
100
AcDbText
 10
0.421282
 20
-0.31103
 30
0.0
 40
0.0625
  1
1 Inch
100
AcDbText
  0
LINE
  5
46037
100
AcDbEntity
  8
SCALE
100
AcDbLine
 10
1.057999
 20
-0.380078
 30
0.0
 11
1.057999
 21
-0.480078
 31
0.0
  0
LINE
  5
46038
100
AcDbEntity
  8
SCALE
100
AcDbLine
 10
1.057999
 20
-0.480078
 30
0.0
 11
1.057999
 21
-0.280078
 31
0.0
  0
ENDBLK
  5
4603A
100
AcDbEntity
  8
0
100
AcDbBlockEnd
  0
ENDSEC
  0
SECTION
  2
ENTITIES
  0
ATTDEF
  5
1
100
AcDbEntity
  8
ATTRIBUTES
100
AcDbText
 10
-0.818969
 20
1.293469
 30
0.0
 40
0.06
  1
ALLEN-BRADLEY
100
AcDbAttributeDefinition
  3
MANUFACTURER NAME?
  2
AC_VND_LABEL
 70
     1
  0
ATTDEF
  5
2
100
AcDbEntity
  8
ATTRIBUTES
100
AcDbText
 10
-0.818969
 20
1.168469
 30
0.0
 40
0.06
  1
1771-IA/B,IA2
100
AcDbAttributeDefinition
  3
CATALOG NUMBER?
  2
AC_PART_NO
 70
     1
  0
ATTDEF
  5
3
100
AcDbEntity
  8
ATTRIBUTES
100
AcDbText
 10
-0.818969
 20
1.043469
 30
0.0
 40
0.06
  1
1771-IA/B,IA2:120V AC/DC INPUT MODULE, 8 INPUTS
100
AcDbAttributeDefinition
  3
PART DESCRIPTION?
  2
AC_DESCRIPTION
 70
     1
  0
ATTDEF
  5
4
100
AcDbEntity
  8
ATTRIBUTES
100
AcDbText
 10
-0.818969
 20
0.918469
 30
0.0
 40
0.06
  1

100
AcDbAttributeDefinition
  3
DEVICE ID?
  2
DEVICE_ID
 70
     1
  0
ATTDEF
  5
5
100
AcDbEntity
  8
ATTRIBUTES
100
AcDbText
 10
-0.818969
 20
0.793469
 30
0.0
 40
0.06
  1

100
AcDbAttributeDefinition
  3
CUSTOMER PART NUMBER?
  2
AC_CPART_NO
 70
     1
  0
ATTDEF
  5
6
100
AcDbEntity
  8
ATTRIBUTES
100
AcDbText
 10
-0.818969
 20
0.668469
 30
0.0
 40
0.06
  1

100
AcDbAttributeDefinition
  3
CUSTOMER NOTE?
  2
AC_NOTE
 70
     1
  0
ATTDEF
  5
7
100
AcDbEntity
  8
ATTRIBUTES
100
AcDbText
 10
-0.818969
 20
0.543469
 30
0.0
 40
0.06
  1

100
AcDbAttributeDefinition
  3
FASTENER DATA?
  2
FASTENER
 70
     1
  0
ATTDEF
  5
8
100
AcDbEntity
  8
ATTRIBUTES
100
AcDbText
 10
-0.818969
 20
0.418469
 30
0.0
 40
0.06
  1
INCH
100
AcDbAttributeDefinition
  3
UNIT OF SCALE?
  2
AC_SCALE_UNIT
 70
     1
  0
ATTDEF
  5
9
100
AcDbEntity
  8
ATTRIBUTES
100
AcDbText
 10
-0.818969
 20
0.293469
 30
0.0
 40
0.06
  1
0
100
AcDbAttributeDefinition
  3
VIEW CODE?
  2
AC_VIEW_CODE
 70
     1
  0
POLYLINE
  5
45C9D
100
AcDbEntity
  8
0
100
AcDbPolygonMesh
 66
     1
 10
0.0
 20
0.0
 30
0.0
 70
    16
 71
     6
 72
     3
  0
VERTEX
  5
45C9E
100
AcDbEntity
  8
0
100
AcDbVertex
100
AcDbPolygonMeshVertex
 10
0.27
 20
0.2
 30
5.39
 70
    64
  0
VERTEX
  5
45C9F
100
AcDbEntity
  8
0
100
AcDbVertex
100
AcDbPolygonMeshVertex
 10
0.27
 20
0.2
 30
0.0
 70
    64
  0
VERTEX
  5
45CA0
100
AcDbEntity
  8
0
100
AcDbVertex
100
AcDbPolygonMeshVertex
 10
0.27
 20
0.2
 30
0.0
 70
    64
  0
VERTEX
  5
45CA1
100
AcDbEntity
  8
0
100
AcDbVertex
100
AcDbPolygonMeshVertex
 10
-0.89
 20
0.2
 30
5.39
 70
    64
  0
VERTEX
  5
45CA2
100
AcDbEntity
  8
0
100
AcDbVertex
100
AcDbPolygonMeshVertex
 10
-0.89
 20
0.2
 30
0.0
 70
    64
  0
VERTEX
  5
45CA3
100
AcDbEntity
  8
0
100
AcDbVertex
100
AcDbPolygonMeshVertex
 10
-0.89
 20
0.2
 30
0.0
 70
    64
  0
VERTEX
  5
45CA4
100
AcDbEntity
  8
0
100
AcDbVertex
100
AcDbPolygonMeshVertex
 10
-0.89
 20
9.8
 30
5.39
 70
    64
  0
VERTEX
  5
45CA5
100
AcDbEntity
  8
0
100
AcDbVertex
100
AcDbPolygonMeshVertex
 10
-0.89
 20
9.8
 30
0.0
 70
    64
  0
VERTEX
  5
45CA6
100
AcDbEntity
  8
0
100
AcDbVertex
100
AcDbPolygonMeshVertex
 10
-0.89
 20
0.2
 30
0.0
 70
    64
  0
VERTEX
  5
45CA7
100
AcDbEntity
  8
0
100
AcDbVertex
100
AcDbPolygonMeshVertex
 10
0.27
 20
9.8
 30
5.39
 70
    64
  0
VERTEX
  5
45CA8
100
AcDbEntity
  8
0
100
AcDbVertex
100
AcDbPolygonMeshVertex
 10
0.27
 20
9.8
 30
0.0
 70
    64
  0
VERTEX
  5
45CA9
100
AcDbEntity
  8
0
100
AcDbVertex
100
AcDbPolygonMeshVertex
 10
0.27
 20
0.2
 30
0.0
 70
    64
  0
VERTEX
  5
45CAA
100
AcDbEntity
  8
0
100
AcDbVertex
100
AcDbPolygonMeshVertex
 10
0.27
 20
9.8
 30
5.39
 70
    64
  0
VERTEX
  5
45CAB
100
AcDbEntity
  8
0
100
AcDbVertex
100
AcDbPolygonMeshVertex
 10
0.27
 20
9.8
 30
5.39
 70
    64
  0
VERTEX
  5
45CAC
100
AcDbEntity
  8
0
100
AcDbVertex
100
AcDbPolygonMeshVertex
 10
0.27
 20
0.2
 30
5.39
 70
    64
  0
VERTEX
  5
45CAD
100
AcDbEntity
  8
0
100
AcDbVertex
100
AcDbPolygonMeshVertex
 10
-0.89
 20
9.8
 30
5.39
 70
    64
  0
VERTEX
  5
45CAE
100
AcDbEntity
  8
0
100
AcDbVertex
100
AcDbPolygonMeshVertex
 10
-0.89
 20
9.8
 30
5.39
 70
    64
  0
VERTEX
  5
45CAF
100
AcDbEntity
  8
0
100
AcDbVertex
100
AcDbPolygonMeshVertex
 10
-0.89
 20
0.2
 30
5.39
 70
    64
  0
SEQEND
  5
45CB0
100
AcDbEntity
  8
0
  0
POLYLINE
  5
45CB1
100
AcDbEntity
  8
0
100
AcDbPolygonMesh
 66
     1
 10
0.0
 20
0.0
 30
0.0
 70
    16
 71
     6
 72
     3
  0
VERTEX
  5
45CB2
100
AcDbEntity
  8
0
100
AcDbVertex
100
AcDbPolygonMeshVertex
 10
0.27
 20
0.2
 30
5.88
 70
    64
  0
VERTEX
  5
45CB3
100
AcDbEntity
  8
0
100
AcDbVertex
100
AcDbPolygonMeshVertex
 10
0.27
 20
0.2
 30
5.39
 70
    64
  0
VERTEX
  5
45CB4
100
AcDbEntity
  8
0
100
AcDbVertex
100
AcDbPolygonMeshVertex
 10
0.27
 20
0.2
 30
5.39
 70
    64
  0
VERTEX
  5
45CB5
100
AcDbEntity
  8
0
100
AcDbVertex
100
AcDbPolygonMeshVertex
 10
-0.89
 20
0.2
 30
5.88
 70
    64
  0
VERTEX
  5
45CB6
100
AcDbEntity
  8
0
100
AcDbVertex
100
AcDbPolygonMeshVertex
 10
-0.89
 20
0.2
 30
5.39
 70
    64
  0
VERTEX
  5
45CB7
100
AcDbEntity
  8
0
100
AcDbVertex
100
AcDbPolygonMeshVertex
 10
-0.89
 20
0.2
 30
5.39
 70
    64
  0
VERTEX
  5
45CB8
100
AcDbEntity
  8
0
100
AcDbVertex
100
AcDbPolygonMeshVertex
 10
-0.89
 20
8.162
 30
5.88
 70
    64
  0
VERTEX
  5
45CB9
100
AcDbEntity
  8
0
100
AcDbVertex
100
AcDbPolygonMeshVertex
 10
-0.89
 20
8.162
 30
5.39
 70
    64
  0
VERTEX
  5
45CBA
100
AcDbEntity
  8
0
100
AcDbVertex
100
AcDbPolygonMeshVertex
 10
-0.89
 20
0.2
 30
5.39
 70
    64
  0
VERTEX
  5
45CBB
100
AcDbEntity
  8
0
100
AcDbVertex
100
AcDbPolygonMeshVertex
 10
0.27
 20
8.162
 30
5.88
 70
    64
  0
VERTEX
  5
45CBC
100
AcDbEntity
  8
0
100
AcDbVertex
100
AcDbPolygonMeshVertex
 10
0.27
 20
8.162
 30
5.39
 70
    64
  0
VERTEX
  5
45CBD
100
AcDbEntity
  8
0
100
AcDbVertex
100
AcDbPolygonMeshVertex
 10
0.27
 20
0.2
 30
5.39
 70
    64
  0
VERTEX
  5
45CBE
100
AcDbEntity
  8
0
100
AcDbVertex
100
AcDbPolygonMeshVertex
 10
0.27
 20
8.162
 30
5.88
 70
    64
  0
VERTEX
  5
45CBF
100
AcDbEntity
  8
0
100
AcDbVertex
100
AcDbPolygonMeshVertex
 10
0.27
 20
8.162
 30
5.88
 70
    64
  0
VERTEX
  5
45CC0
100
AcDbEntity
  8
0
100
AcDbVertex
100
AcDbPolygonMeshVertex
 10
0.27
 20
0.2
 30
5.88
 70
    64
  0
VERTEX
  5
45CC1
100
AcDbEntity
  8
0
100
AcDbVertex
100
AcDbPolygonMeshVertex
 10
-0.89
 20
8.162
 30
5.88
 70
    64
  0
VERTEX
  5
45CC2
100
AcDbEntity
  8
0
100
AcDbVertex
100
AcDbPolygonMeshVertex
 10
-0.89
 20
8.162
 30
5.88
 70
    64
  0
VERTEX
  5
45CC3
100
AcDbEntity
  8
0
100
AcDbVertex
100
AcDbPolygonMeshVertex
 10
-0.89
 20
0.2
 30
5.88
 70
    64
  0
SEQEND
  5
45CC4
100
AcDbEntity
  8
0
  0
POLYLINE
  5
45CC5
100
AcDbEntity
  8
0
100
AcDbPolygonMesh
 66
     1
 10
0.0
 20
0.0
 30
0.0
 70
    16
 71
     6
 72
     3
  0
VERTEX
  5
45CC6
100
AcDbEntity
  8
0
100
AcDbVertex
100
AcDbPolygonMeshVertex
 10
0.068
 20
0.0
 30
4.755
 70
    64
  0
VERTEX
  5
45CC7
100
AcDbEntity
  8
0
100
AcDbVertex
100
AcDbPolygonMeshVertex
 10
0.068
 20
0.0
 30
0.0
 70
    64
  0
VERTEX
  5
45CC8
100
AcDbEntity
  8
0
100
AcDbVertex
100
AcDbPolygonMeshVertex
 10
0.068
 20
0.0
 30
0.0
 70
    64
  0
VERTEX
  5
45CC9
100
AcDbEntity
  8
0
100
AcDbVertex
100
AcDbPolygonMeshVertex
 10
0.0
 20
0.0
 30
4.755
 70
    64
  0
VERTEX
  5
45CCA
100
AcDbEntity
  8
0
100
AcDbVertex
100
AcDbPolygonMeshVertex
 10
0.0
 20
0.0
 30
0.0
 70
    64
  0
VERTEX
  5
45CCB
100
AcDbEntity
  8
0
100
AcDbVertex
100
AcDbPolygonMeshVertex
 10
0.0
 20
0.0
 30
0.0
 70
    64
  0
VERTEX
  5
45CCC
100
AcDbEntity
  8
0
100
AcDbVertex
100
AcDbPolygonMeshVertex
 10
0.0
 20
0.2
 30
4.755
 70
    64
  0
VERTEX
  5
45CCD
100
AcDbEntity
  8
0
100
AcDbVertex
100
AcDbPolygonMeshVertex
 10
0.0
 20
0.2
 30
0.0
 70
    64
  0
VERTEX
  5
45CCE
100
AcDbEntity
  8
0
100
AcDbVertex
100
AcDbPolygonMeshVertex
 10
0.0
 20
0.0
 30
0.0
 70
    64
  0
VERTEX
  5
45CCF
100
AcDbEntity
  8
0
100
AcDbVertex
100
AcDbPolygonMeshVertex
 10
0.068
 20
0.2
 30
4.755
 70
    64
  0
VERTEX
  5
45CD0
100
AcDbEntity
  8
0
100
AcDbVertex
100
AcDbPolygonMeshVertex
 10
0.068
 20
0.2
 30
0.0
 70
    64
  0
VERTEX
  5
45CD1
100
AcDbEntity
  8
0
100
AcDbVertex
100
AcDbPolygonMeshVertex
 10
0.068
 20
0.0
 30
0.0
 70
    64
  0
VERTEX
  5
45CD2
100
AcDbEntity
  8
0
100
AcDbVertex
100
AcDbPolygonMeshVertex
 10
0.068
 20
0.2
 30
4.755
 70
    64
  0
VERTEX
  5
45CD3
100
AcDbEntity
  8
0
100
AcDbVertex
100
AcDbPolygonMeshVertex
 10
0.068
 20
0.2
 30
4.755
 70
    64
  0
VERTEX
  5
45CD4
100
AcDbEntity
  8
0
100
AcDbVertex
100
AcDbPolygonMeshVertex
 10
0.068
 20
0.0
 30
4.755
 70
    64
  0
VERTEX
  5
45CD5
100
AcDbEntity
  8
0
100
AcDbVertex
100
AcDbPolygonMeshVertex
 10
0.0
 20
0.2
 30
4.755
 70
    64
  0
VERTEX
  5
45CD6
100
AcDbEntity
  8
0
100
AcDbVertex
100
AcDbPolygonMeshVertex
 10
0.0
 20
0.2
 30
4.755
 70
    64
  0
VERTEX
  5
45CD7
100
AcDbEntity
  8
0
100
AcDbVertex
100
AcDbPolygonMeshVertex
 10
0.0
 20
0.0
 30
4.755
 70
    64
  0
SEQEND
  5
45CD8
100
AcDbEntity
  8
0
  0
POINT
  5
45CD9
100
AcDbEntity
  8
SNAP_POINTS
100
AcDbPoint
 10
0.034
 20
0.0
 30
0.0
  0
LINE
  5
45CDA
100
AcDbEntity
  8
0
100
AcDbLine
 10
-0.593237
 20
0.425898
 30
5.88
 11
-0.593237
 21
3.911873
 31
5.88
  0
LINE
  5
45CDB
100
AcDbEntity
  8
0
100
AcDbLine
 10
0.060088
 20
0.516311
 30
5.88
 11
0.060088
 21
3.911873
 31
5.88
  0
LINE
  5
45CDC
100
AcDbEntity
  8
0
100
AcDbLine
 10
-0.402264
 20
1.475708
 30
5.88
 11
-0.402264
 21
1.229581
 31
5.88
  0
LINE
  5
45CDD
100
AcDbEntity
  8
0
100
AcDbLine
 10
-0.311803
 20
1.435523
 30
5.88
 11
-0.150985
 21
1.269764
 31
5.88
  0
LINE
  5
45CDE
100
AcDbEntity
  8
0
100
AcDbLine
 10
-0.161036
 20
1.440547
 30
5.88
 11
-0.140936
 21
1.420455
 31
5.88
  0
LINE
  5
45CDF
100
AcDbEntity
  8
0
100
AcDbLine
 10
-0.331905
 20
1.415433
 30
5.88
 11
-0.311803
 21
1.435523
 31
5.88
  0
LINE
  5
45CE0
100
AcDbEntity
  8
0
100
AcDbLine
 10
0.195778
 20
4.183115
 30
5.88
 11
0.195778
 21
0.425898
 31
5.88
  0
LINE
  5
45CE1
100
AcDbEntity
  8
0
100
AcDbLine
 10
-0.7239
 20
4.213253
 30
5.88
 11
-0.7239
 21
0.486173
 31
5.88
  0
LINE
  5
45CE2
100
AcDbEntity
  8
0
100
AcDbLine
 10
-0.593237
 20
0.425898
 30
5.88
 11
-0.94
 21
0.23
 31
5.88
  0
LINE
  5
45CE3
100
AcDbEntity
  8
0
100
AcDbLine
 10
-0.864618
 20
-0.040151
 30
5.88
 11
-0.864618
 21
0.270183
 31
5.88
  0
LINE
  5
45CE4
100
AcDbEntity
  8
0
100
AcDbLine
 10
-0.94
 20
-0.040151
 30
5.88
 11
-0.864618
 21
-0.040151
 31
5.88
  0
LINE
  5
45CE5
100
AcDbEntity
  8
0
100
AcDbLine
 10
-0.718874
 20
0.491197
 30
5.88
 11
-1.025435
 21
0.31539
 31
5.88
  0
LINE
  5
45CE6
100
AcDbEntity
  8
0
100
AcDbLine
 10
-0.402264
 20
0.782531
 30
5.88
 11
-0.402264
 21
0.425898
 31
5.88
  0
LINE
  5
45CE7
100
AcDbEntity
  8
0
100
AcDbLine
 10
-0.311803
 20
0.742346
 30
5.88
 11
-0.150985
 21
0.571565
 31
5.88
  0
LINE
  5
45CE8
100
AcDbEntity
  8
0
100
AcDbLine
 10
-0.331905
 20
0.591657
 30
5.88
 11
-0.346983
 21
0.616772
 31
5.88
  0
LINE
  5
45CE9
100
AcDbEntity
  8
0
100
AcDbLine
 10
-0.120832
 20
0.621795
 30
5.88
 11
-0.130883
 21
0.596679
 31
5.88
  0
LINE
  5
45CEA
100
AcDbEntity
  8
0
100
AcDbLine
 10
0.195778
 20
0.425898
 30
5.88
 11
-0.130883
 21
0.425898
 31
5.88
  0
LINE
  5
45CEB
100
AcDbEntity
  8
0
100
AcDbLine
 10
-0.311803
 20
0.516311
 30
5.88
 11
0.195778
 21
0.516311
 31
5.88
  0
LINE
  5
45CEC
100
AcDbEntity
  8
0
100
AcDbLine
 10
-0.407289
 20
0.235022
 30
5.88
 11
-0.407289
 21
-0.040151
 31
5.88
  0
LINE
  5
45CED
100
AcDbEntity
  8
0
100
AcDbLine
 10
-0.407289
 20
-0.040151
 30
5.88
 11
-0.311803
 21
-0.040151
 31
5.88
  0
LINE
  5
45CEE
100
AcDbEntity
  8
0
100
AcDbLine
 10
-0.593237
 20
0.425898
 30
5.88
 11
-0.311803
 21
0.425898
 31
5.88
  0
LINE
  5
45CEF
100
AcDbEntity
  8
0
100
AcDbLine
 10
-0.407289
 20
0.235022
 30
5.88
 11
-0.311803
 21
0.235022
 31
5.88
  0
LINE
  5
45CF0
100
AcDbEntity
  8
0
100
AcDbLine
 10
-0.130883
 20
0.425898
 30
5.88
 11
-0.226368
 21
0.375667
 31
5.88
  0
LINE
  5
45CF1
100
AcDbEntity
  8
0
100
AcDbLine
 10
-0.216318
 20
0.536404
 30
5.88
 11
-0.246471
 21
0.536404
 31
5.88
  0
LINE
  5
45CF2
100
AcDbEntity
  8
0
100
AcDbLine
 10
-0.316828
 20
0.571565
 30
5.88
 11
-0.331905
 21
0.591657
 31
5.88
  0
LINE
  5
45CF3
100
AcDbEntity
  8
0
100
AcDbLine
 10
-0.296726
 20
0.556496
 30
5.88
 11
-0.316828
 21
0.571565
 31
5.88
  0
LINE
  5
45CF4
100
AcDbEntity
  8
0
100
AcDbLine
 10
-0.271599
 20
0.541427
 30
5.88
 11
-0.296726
 21
0.556496
 31
5.88
  0
LINE
  5
45CF5
100
AcDbEntity
  8
0
100
AcDbLine
 10
-0.246471
 20
0.536404
 30
5.88
 11
-0.271599
 21
0.541427
 31
5.88
  0
LINE
  5
45CF6
100
AcDbEntity
  8
0
100
AcDbLine
 10
-0.191191
 20
0.546449
 30
5.88
 11
-0.216318
 21
0.536404
 31
5.88
  0
LINE
  5
45CF7
100
AcDbEntity
  8
0
100
AcDbLine
 10
-0.166063
 20
0.556496
 30
5.88
 11
-0.191191
 21
0.546449
 31
5.88
  0
LINE
  5
45CF8
100
AcDbEntity
  8
0
100
AcDbLine
 10
-0.14596
 20
0.576589
 30
5.88
 11
-0.166063
 21
0.556496
 31
5.88
  0
LINE
  5
45CF9
100
AcDbEntity
  8
0
100
AcDbLine
 10
-0.130883
 20
0.596679
 30
5.88
 11
-0.14596
 21
0.576589
 31
5.88
  0
LINE
  5
45CFA
100
AcDbEntity
  8
0
100
AcDbLine
 10
-0.075603
 20
0.425898
 30
5.88
 11
-0.075603
 21
-0.015037
 31
5.88
  0
LINE
  5
45CFB
100
AcDbEntity
  8
0
100
AcDbLine
 10
0.024909
 20
-0.015037
 30
5.88
 11
0.024909
 21
0.425898
 31
5.88
  0
LINE
  5
45CFC
100
AcDbEntity
  8
0
100
AcDbLine
 10
0.266135
 20
0.194839
 30
5.88
 11
0.195778
 21
0.124516
 31
5.88
  0
LINE
  5
45CFD
100
AcDbEntity
  8
0
100
AcDbLine
 10
0.195778
 20
0.124516
 30
5.88
 11
0.024909
 21
0.124516
 31
5.88
  0
LINE
  5
45CFE
100
AcDbEntity
  8
0
100
AcDbLine
 10
-0.075603
 20
-0.015037
 30
5.88
 11
0.024909
 21
-0.015037
 31
5.88
  0
LINE
  5
45CFF
100
AcDbEntity
  8
0
100
AcDbLine
 10
0.060088
 20
0.782531
 30
5.88
 11
-0.532929
 21
0.782531
 31
5.88
  0
LINE
  5
45D00
100
AcDbEntity
  8
0
100
AcDbLine
 10
-0.532929
 20
0.882992
 30
5.88
 11
0.060088
 21
0.882992
 31
5.88
  0
LINE
  5
45D01
100
AcDbEntity
  8
0
100
AcDbLine
 10
0.060088
 20
1.12912
 30
5.88
 11
-0.532929
 21
1.12912
 31
5.88
  0
LINE
  5
45D02
100
AcDbEntity
  8
0
100
AcDbLine
 10
-0.532929
 20
1.229581
 30
5.88
 11
0.060088
 21
1.229581
 31
5.88
  0
LINE
  5
45D03
100
AcDbEntity
  8
0
100
AcDbLine
 10
-0.402264
 20
1.12912
 30
5.88
 11
-0.402264
 21
0.882992
 31
5.88
  0
LINE
  5
45D04
100
AcDbEntity
  8
0
100
AcDbLine
 10
-0.311803
 20
1.088935
 30
5.88
 11
-0.150985
 21
0.918153
 31
5.88
  0
LINE
  5
45D05
100
AcDbEntity
  8
0
100
AcDbLine
 10
-0.120832
 20
1.023636
 30
5.88
 11
-0.115805
 21
0.998522
 31
5.88
  0
LINE
  5
45D06
100
AcDbEntity
  8
0
100
AcDbLine
 10
-0.352009
 20
0.993498
 30
5.88
 11
-0.352009
 21
1.018614
 31
5.88
  0
LINE
  5
45D07
100
AcDbEntity
  8
0
100
AcDbLine
 10
-0.532929
 20
0.782531
 30
5.88
 11
-0.532929
 21
0.882992
 31
5.88
  0
LINE
  5
45D08
100
AcDbEntity
  8
0
100
AcDbLine
 10
-0.23642
 20
0.772486
 30
5.88
 11
-0.211293
 21
0.767463
 31
5.88
  0
LINE
  5
45D09
100
AcDbEntity
  8
0
100
AcDbLine
 10
-0.346983
 20
0.616772
 30
5.88
 11
-0.352009
 21
0.641888
 31
5.88
  0
LINE
  5
45D0A
100
AcDbEntity
  8
0
100
AcDbLine
 10
-0.261548
 20
0.767463
 30
5.88
 11
-0.23642
 21
0.772486
 31
5.88
  0
LINE
  5
45D0B
100
AcDbEntity
  8
0
100
AcDbLine
 10
-0.286675
 20
0.757417
 30
5.88
 11
-0.261548
 21
0.767463
 31
5.88
  0
LINE
  5
45D0C
100
AcDbEntity
  8
0
100
AcDbLine
 10
-0.311803
 20
0.742346
 30
5.88
 11
-0.286675
 21
0.757417
 31
5.88
  0
LINE
  5
45D0D
100
AcDbEntity
  8
0
100
AcDbLine
 10
-0.331905
 20
0.722256
 30
5.88
 11
-0.311803
 21
0.742346
 31
5.88
  0
LINE
  5
45D0E
100
AcDbEntity
  8
0
100
AcDbLine
 10
-0.341956
 20
0.69714
 30
5.88
 11
-0.331905
 21
0.722256
 31
5.88
  0
LINE
  5
45D0F
100
AcDbEntity
  8
0
100
AcDbLine
 10
-0.352009
 20
0.672026
 30
5.88
 11
-0.341956
 21
0.69714
 31
5.88
  0
LINE
  5
45D10
100
AcDbEntity
  8
0
100
AcDbLine
 10
-0.352009
 20
0.641888
 30
5.88
 11
-0.352009
 21
0.672026
 31
5.88
  0
LINE
  5
45D11
100
AcDbEntity
  8
0
100
AcDbLine
 10
-0.115805
 20
0.646909
 30
5.88
 11
-0.120832
 21
0.621795
 31
5.88
  0
LINE
  5
45D12
100
AcDbEntity
  8
0
100
AcDbLine
 10
-0.120832
 20
0.677047
 30
5.88
 11
-0.115805
 21
0.646909
 31
5.88
  0
LINE
  5
45D13
100
AcDbEntity
  8
0
100
AcDbLine
 10
-0.125858
 20
0.702163
 30
5.88
 11
-0.120832
 21
0.677047
 31
5.88
  0
LINE
  5
45D14
100
AcDbEntity
  8
0
100
AcDbLine
 10
-0.140936
 20
0.727278
 30
5.88
 11
-0.125858
 21
0.702163
 31
5.88
  0
LINE
  5
45D15
100
AcDbEntity
  8
0
100
AcDbLine
 10
-0.161036
 20
0.742346
 30
5.88
 11
-0.140936
 21
0.727278
 31
5.88
  0
LINE
  5
45D16
100
AcDbEntity
  8
0
100
AcDbLine
 10
-0.186165
 20
0.757417
 30
5.88
 11
-0.161036
 21
0.742346
 31
5.88
  0
LINE
  5
45D17
100
AcDbEntity
  8
0
100
AcDbLine
 10
-0.211293
 20
0.767463
 30
5.88
 11
-0.186165
 21
0.757417
 31
5.88
  0
LINE
  5
45D18
100
AcDbEntity
  8
0
100
AcDbLine
 10
-0.216318
 20
0.882992
 30
5.88
 11
-0.246471
 21
0.882992
 31
5.88
  0
LINE
  5
45D19
100
AcDbEntity
  8
0
100
AcDbLine
 10
-0.346983
 20
0.96336
 30
5.88
 11
-0.352009
 21
0.993498
 31
5.88
  0
LINE
  5
45D1A
100
AcDbEntity
  8
0
100
AcDbLine
 10
-0.331905
 20
0.938246
 30
5.88
 11
-0.346983
 21
0.96336
 31
5.88
  0
LINE
  5
45D1B
100
AcDbEntity
  8
0
100
AcDbLine
 10
-0.316828
 20
0.918153
 30
5.88
 11
-0.331905
 21
0.938246
 31
5.88
  0
LINE
  5
45D1C
100
AcDbEntity
  8
0
100
AcDbLine
 10
-0.296726
 20
0.903085
 30
5.88
 11
-0.316828
 21
0.918153
 31
5.88
  0
LINE
  5
45D1D
100
AcDbEntity
  8
0
100
AcDbLine
 10
-0.271599
 20
0.893037
 30
5.88
 11
-0.296726
 21
0.903085
 31
5.88
  0
LINE
  5
45D1E
100
AcDbEntity
  8
0
100
AcDbLine
 10
-0.246471
 20
0.882992
 30
5.88
 11
-0.271599
 21
0.893037
 31
5.88
  0
LINE
  5
45D1F
100
AcDbEntity
  8
0
100
AcDbLine
 10
-0.191191
 20
0.893037
 30
5.88
 11
-0.216318
 21
0.882992
 31
5.88
  0
LINE
  5
45D20
100
AcDbEntity
  8
0
100
AcDbLine
 10
-0.166063
 20
0.903085
 30
5.88
 11
-0.191191
 21
0.893037
 31
5.88
  0
LINE
  5
45D21
100
AcDbEntity
  8
0
100
AcDbLine
 10
-0.14596
 20
0.923177
 30
5.88
 11
-0.166063
 21
0.903085
 31
5.88
  0
LINE
  5
45D22
100
AcDbEntity
  8
0
100
AcDbLine
 10
-0.130883
 20
0.943268
 30
5.88
 11
-0.14596
 21
0.923177
 31
5.88
  0
LINE
  5
45D23
100
AcDbEntity
  8
0
100
AcDbLine
 10
-0.120832
 20
0.968384
 30
5.88
 11
-0.130883
 21
0.943268
 31
5.88
  0
LINE
  5
45D24
100
AcDbEntity
  8
0
100
AcDbLine
 10
-0.115805
 20
0.998522
 30
5.88
 11
-0.120832
 21
0.968384
 31
5.88
  0
LINE
  5
45D25
100
AcDbEntity
  8
0
100
AcDbLine
 10
-0.532929
 20
1.12912
 30
5.88
 11
-0.532929
 21
1.229581
 31
5.88
  0
LINE
  5
45D26
100
AcDbEntity
  8
0
100
AcDbLine
 10
-0.23642
 20
1.119075
 30
5.88
 11
-0.211293
 21
1.114051
 31
5.88
  0
LINE
  5
45D27
100
AcDbEntity
  8
0
100
AcDbLine
 10
-0.261548
 20
1.114051
 30
5.88
 11
-0.23642
 21
1.119075
 31
5.88
  0
LINE
  5
45D28
100
AcDbEntity
  8
0
100
AcDbLine
 10
-0.286675
 20
1.104004
 30
5.88
 11
-0.261548
 21
1.114051
 31
5.88
  0
LINE
  5
45D29
100
AcDbEntity
  8
0
100
AcDbLine
 10
-0.311803
 20
1.088935
 30
5.88
 11
-0.286675
 21
1.104004
 31
5.88
  0
LINE
  5
45D2A
100
AcDbEntity
  8
0
100
AcDbLine
 10
-0.331905
 20
1.068844
 30
5.88
 11
-0.311803
 21
1.088935
 31
5.88
  0
LINE
  5
45D2B
100
AcDbEntity
  8
0
100
AcDbLine
 10
-0.341956
 20
1.043728
 30
5.88
 11
-0.331905
 21
1.068844
 31
5.88
  0
LINE
  5
45D2C
100
AcDbEntity
  8
0
100
AcDbLine
 10
-0.352009
 20
1.018614
 30
5.88
 11
-0.341956
 21
1.043728
 31
5.88
  0
LINE
  5
45D2D
100
AcDbEntity
  8
0
100
AcDbLine
 10
-0.125858
 20
1.048752
 30
5.88
 11
-0.120832
 21
1.023636
 31
5.88
  0
LINE
  5
45D2E
100
AcDbEntity
  8
0
100
AcDbLine
 10
-0.140936
 20
1.073866
 30
5.88
 11
-0.125858
 21
1.048752
 31
5.88
  0
LINE
  5
45D2F
100
AcDbEntity
  8
0
100
AcDbLine
 10
-0.161036
 20
1.093959
 30
5.88
 11
-0.140936
 21
1.073866
 31
5.88
  0
LINE
  5
45D30
100
AcDbEntity
  8
0
100
AcDbLine
 10
-0.186165
 20
1.104004
 30
5.88
 11
-0.161036
 21
1.093959
 31
5.88
  0
LINE
  5
45D31
100
AcDbEntity
  8
0
100
AcDbLine
 10
-0.211293
 20
1.114051
 30
5.88
 11
-0.186165
 21
1.104004
 31
5.88
  0
LINE
  5
45D32
100
AcDbEntity
  8
0
100
AcDbLine
 10
-0.216318
 20
1.234604
 30
5.88
 11
-0.246471
 21
1.234604
 31
5.88
  0
LINE
  5
45D33
100
AcDbEntity
  8
0
100
AcDbLine
 10
-0.346983
 20
1.314972
 30
5.88
 11
-0.352009
 21
1.340086
 31
5.88
  0
LINE
  5
45D34
100
AcDbEntity
  8
0
100
AcDbLine
 10
-0.331905
 20
1.289856
 30
5.88
 11
-0.346983
 21
1.314972
 31
5.88
  0
LINE
  5
45D35
100
AcDbEntity
  8
0
100
AcDbLine
 10
-0.316828
 20
1.264742
 30
5.88
 11
-0.331905
 21
1.289856
 31
5.88
  0
LINE
  5
45D36
100
AcDbEntity
  8
0
100
AcDbLine
 10
-0.296726
 20
1.249673
 30
5.88
 11
-0.316828
 21
1.264742
 31
5.88
  0
LINE
  5
45D37
100
AcDbEntity
  8
0
100
AcDbLine
 10
-0.271599
 20
1.239626
 30
5.88
 11
-0.296726
 21
1.249673
 31
5.88
  0
LINE
  5
45D38
100
AcDbEntity
  8
0
100
AcDbLine
 10
-0.246471
 20
1.234604
 30
5.88
 11
-0.271599
 21
1.239626
 31
5.88
  0
LINE
  5
45D39
100
AcDbEntity
  8
0
100
AcDbLine
 10
-0.341956
 20
1.390317
 30
5.88
 11
-0.331905
 21
1.415433
 31
5.88
  0
LINE
  5
45D3A
100
AcDbEntity
  8
0
100
AcDbLine
 10
-0.352009
 20
1.365203
 30
5.88
 11
-0.341956
 21
1.390317
 31
5.88
  0
LINE
  5
45D3B
100
AcDbEntity
  8
0
100
AcDbLine
 10
-0.352009
 20
1.340086
 30
5.88
 11
-0.352009
 21
1.365203
 31
5.88
  0
LINE
  5
45D3C
100
AcDbEntity
  8
0
100
AcDbLine
 10
-0.191191
 20
1.239626
 30
5.88
 11
-0.216318
 21
1.234604
 31
5.88
  0
LINE
  5
45D3D
100
AcDbEntity
  8
0
100
AcDbLine
 10
-0.166063
 20
1.254695
 30
5.88
 11
-0.191191
 21
1.239626
 31
5.88
  0
LINE
  5
45D3E
100
AcDbEntity
  8
0
100
AcDbLine
 10
-0.14596
 20
1.269764
 30
5.88
 11
-0.166063
 21
1.254695
 31
5.88
  0
LINE
  5
45D3F
100
AcDbEntity
  8
0
100
AcDbLine
 10
-0.130883
 20
1.29488
 30
5.88
 11
-0.14596
 21
1.269764
 31
5.88
  0
LINE
  5
45D40
100
AcDbEntity
  8
0
100
AcDbLine
 10
-0.120832
 20
1.319994
 30
5.88
 11
-0.130883
 21
1.29488
 31
5.88
  0
LINE
  5
45D41
100
AcDbEntity
  8
0
100
AcDbLine
 10
-0.115805
 20
1.34511
 30
5.88
 11
-0.120832
 21
1.319994
 31
5.88
  0
LINE
  5
45D42
100
AcDbEntity
  8
0
100
AcDbLine
 10
-0.120832
 20
1.370224
 30
5.88
 11
-0.115805
 21
1.34511
 31
5.88
  0
LINE
  5
45D43
100
AcDbEntity
  8
0
100
AcDbLine
 10
-0.125858
 20
1.39534
 30
5.88
 11
-0.120832
 21
1.370224
 31
5.88
  0
LINE
  5
45D44
100
AcDbEntity
  8
0
100
AcDbLine
 10
-0.140936
 20
1.420455
 30
5.88
 11
-0.125858
 21
1.39534
 31
5.88
  0
LINE
  5
45D45
100
AcDbEntity
  8
0
100
AcDbLine
 10
-0.06555
 20
0.882992
 30
5.88
 11
-0.06555
 21
0.782531
 31
5.88
  0
LINE
  5
45D46
100
AcDbEntity
  8
0
100
AcDbLine
 10
0.060088
 20
0.882992
 30
5.88
 11
0.060088
 21
0.782531
 31
5.88
  0
LINE
  5
45D47
100
AcDbEntity
  8
0
100
AcDbLine
 10
-0.06555
 20
1.229581
 30
5.88
 11
-0.06555
 21
1.12912
 31
5.88
  0
LINE
  5
45D48
100
AcDbEntity
  8
0
100
AcDbLine
 10
0.060088
 20
1.229581
 30
5.88
 11
0.060088
 21
1.12912
 31
5.88
  0
LINE
  5
45D49
100
AcDbEntity
  8
0
100
AcDbLine
 10
-0.769129
 20
4.495635
 30
5.88
 11
0.170651
 21
4.495635
 31
5.88
  0
LINE
  5
45D4A
100
AcDbEntity
  8
0
100
AcDbLine
 10
-0.7239
 20
3.892873
 30
5.88
 11
0.195778
 21
3.892873
 31
5.88
  0
LINE
  5
45D4B
100
AcDbEntity
  8
0
100
AcDbLine
 10
-0.643492
 20
4.10384
 30
5.88
 11
-0.492723
 21
4.10384
 31
5.88
  0
LINE
  5
45D4C
100
AcDbEntity
  8
0
100
AcDbLine
 10
-0.643492
 20
4.259552
 30
5.88
 11
-0.492723
 21
4.259552
 31
5.88
  0
LINE
  5
45D4D
100
AcDbEntity
  8
0
100
AcDbLine
 10
-0.658566
 20
4.098816
 30
5.88
 11
-0.643492
 21
4.10384
 31
5.88
  0
LINE
  5
45D4E
100
AcDbEntity
  8
0
100
AcDbLine
 10
-0.67867
 20
4.093793
 30
5.88
 11
-0.658566
 21
4.098816
 31
5.88
  0
LINE
  5
45D4F
100
AcDbEntity
  8
0
100
AcDbLine
 10
-0.698772
 20
4.078724
 30
5.88
 11
-0.67867
 21
4.093793
 31
5.88
  0
LINE
  5
45D50
100
AcDbEntity
  8
0
100
AcDbLine
 10
-0.713849
 20
4.063655
 30
5.88
 11
-0.698772
 21
4.078724
 31
5.88
  0
LINE
  5
45D51
100
AcDbEntity
  8
0
100
AcDbLine
 10
-0.7239
 20
4.043562
 30
5.88
 11
-0.713849
 21
4.063655
 31
5.88
  0
LINE
  5
45D52
100
AcDbEntity
  8
0
100
AcDbLine
 10
-0.7239
 20
4.018448
 30
5.88
 11
-0.7239
 21
4.043562
 31
5.88
  0
LINE
  5
45D53
100
AcDbEntity
  8
0
100
AcDbLine
 10
-0.658566
 20
4.254531
 30
5.88
 11
-0.643492
 21
4.259552
 31
5.88
  0
LINE
  5
45D54
100
AcDbEntity
  8
0
100
AcDbLine
 10
-0.67867
 20
4.249507
 30
5.88
 11
-0.658566
 21
4.254531
 31
5.88
  0
LINE
  5
45D55
100
AcDbEntity
  8
0
100
AcDbLine
 10
-0.698772
 20
4.234438
 30
5.88
 11
-0.67867
 21
4.249507
 31
5.88
  0
LINE
  5
45D56
100
AcDbEntity
  8
0
100
AcDbLine
 10
-0.713849
 20
4.219369
 30
5.88
 11
-0.698772
 21
4.234438
 31
5.88
  0
LINE
  5
45D57
100
AcDbEntity
  8
0
100
AcDbLine
 10
-0.7239
 20
4.199277
 30
5.88
 11
-0.713849
 21
4.219369
 31
5.88
  0
LINE
  5
45D58
100
AcDbEntity
  8
0
100
AcDbLine
 10
-0.7239
 20
4.174161
 30
5.88
 11
-0.7239
 21
4.199277
 31
5.88
  0
LINE
  5
45D59
100
AcDbEntity
  8
0
100
AcDbLine
 10
-0.869643
 20
4.560934
 30
5.88
 11
-0.874667
 21
4.586048
 31
5.88
  0
LINE
  5
45D5A
100
AcDbEntity
  8
0
100
AcDbLine
 10
-0.874667
 20
4.586048
 30
5.88
 11
-0.879692
 21
4.606141
 31
5.88
  0
LINE
  5
45D5B
100
AcDbEntity
  8
0
100
AcDbLine
 10
-0.834463
 20
4.520749
 30
5.88
 11
-0.854565
 21
4.535818
 31
5.88
  0
LINE
  5
45D5C
100
AcDbEntity
  8
0
100
AcDbLine
 10
-0.814361
 20
4.50568
 30
5.88
 11
-0.834463
 21
4.520749
 31
5.88
  0
LINE
  5
45D5D
100
AcDbEntity
  8
0
100
AcDbLine
 10
-0.789233
 20
4.500659
 30
5.88
 11
-0.814361
 21
4.50568
 31
5.88
  0
LINE
  5
45D5E
100
AcDbEntity
  8
0
100
AcDbLine
 10
-0.75908
 20
4.495635
 30
5.88
 11
-0.789233
 21
4.500659
 31
5.88
  0
LINE
  5
45D5F
100
AcDbEntity
  8
0
100
AcDbLine
 10
-0.854565
 20
4.535818
 30
5.88
 11
-0.869643
 21
4.560934
 31
5.88
  0
LINE
  5
45D60
100
AcDbEntity
  8
0
100
AcDbLine
 10
-0.402264
 20
3.194673
 30
5.88
 11
-0.402264
 21
2.948545
 31
5.88
  0
LINE
  5
45D61
100
AcDbEntity
  8
0
100
AcDbLine
 10
-0.311803
 20
3.159511
 30
5.88
 11
-0.150985
 21
2.98873
 31
5.88
  0
LINE
  5
45D62
100
AcDbEntity
  8
0
100
AcDbLine
 10
-0.120832
 20
3.08919
 30
5.88
 11
-0.115805
 21
3.064074
 31
5.88
  0
LINE
  5
45D63
100
AcDbEntity
  8
0
100
AcDbLine
 10
-0.352009
 20
3.059051
 30
5.88
 11
-0.352009
 21
3.084167
 31
5.88
  0
LINE
  5
45D64
100
AcDbEntity
  8
0
100
AcDbLine
 10
-0.06555
 20
2.255368
 30
5.88
 11
-0.06555
 21
2.149885
 31
5.88
  0
LINE
  5
45D65
100
AcDbEntity
  8
0
100
AcDbLine
 10
-0.532929
 20
2.149885
 30
5.88
 11
-0.532929
 21
2.255368
 31
5.88
  0
LINE
  5
45D66
100
AcDbEntity
  8
0
100
AcDbLine
 10
0.060088
 20
2.255368
 30
5.88
 11
0.060088
 21
2.149885
 31
5.88
  0
LINE
  5
45D67
100
AcDbEntity
  8
0
100
AcDbLine
 10
0.060088
 20
1.475708
 30
5.88
 11
-0.532929
 21
1.475708
 31
5.88
  0
LINE
  5
45D68
100
AcDbEntity
  8
0
100
AcDbLine
 10
-0.532929
 20
1.576169
 30
5.88
 11
0.060088
 21
1.576169
 31
5.88
  0
LINE
  5
45D69
100
AcDbEntity
  8
0
100
AcDbLine
 10
0.060088
 20
1.803297
 30
5.88
 11
-0.532929
 21
1.803297
 31
5.88
  0
LINE
  5
45D6A
100
AcDbEntity
  8
0
100
AcDbLine
 10
-0.532929
 20
1.908779
 30
5.88
 11
0.060088
 21
1.908779
 31
5.88
  0
LINE
  5
45D6B
100
AcDbEntity
  8
0
100
AcDbLine
 10
0.060088
 20
2.149885
 30
5.88
 11
-0.532929
 21
2.149885
 31
5.88
  0
LINE
  5
45D6C
100
AcDbEntity
  8
0
100
AcDbLine
 10
-0.532929
 20
1.803297
 30
5.88
 11
-0.532929
 21
1.908779
 31
5.88
  0
LINE
  5
45D6D
100
AcDbEntity
  8
0
100
AcDbLine
 10
-0.402264
 20
1.822297
 30
5.88
 11
-0.402264
 21
1.576169
 31
5.88
  0
LINE
  5
45D6E
100
AcDbEntity
  8
0
100
AcDbLine
 10
-0.532929
 20
1.475708
 30
5.88
 11
-0.532929
 21
1.576169
 31
5.88
  0
LINE
  5
45D6F
100
AcDbEntity
  8
0
100
AcDbLine
 10
-0.311803
 20
1.768136
 30
5.88
 11
-0.150985
 21
1.597352
 31
5.88
  0
LINE
  5
45D70
100
AcDbEntity
  8
0
100
AcDbLine
 10
-0.331905
 20
1.617445
 30
5.88
 11
-0.346983
 21
1.642561
 31
5.88
  0
LINE
  5
45D71
100
AcDbEntity
  8
0
100
AcDbLine
 10
-0.120832
 20
1.647582
 30
5.88
 11
-0.130883
 21
1.622468
 31
5.88
  0
LINE
  5
45D72
100
AcDbEntity
  8
0
100
AcDbLine
 10
-0.23642
 20
1.465661
 30
5.88
 11
-0.211293
 21
1.46064
 31
5.88
  0
LINE
  5
45D73
100
AcDbEntity
  8
0
100
AcDbLine
 10
-0.216318
 20
1.562191
 30
5.88
 11
-0.246471
 21
1.562191
 31
5.88
  0
LINE
  5
45D74
100
AcDbEntity
  8
0
100
AcDbLine
 10
-0.261548
 20
1.46064
 30
5.88
 11
-0.23642
 21
1.465661
 31
5.88
  0
LINE
  5
45D75
100
AcDbEntity
  8
0
100
AcDbLine
 10
-0.286675
 20
1.450592
 30
5.88
 11
-0.261548
 21
1.46064
 31
5.88
  0
LINE
  5
45D76
100
AcDbEntity
  8
0
100
AcDbLine
 10
-0.311803
 20
1.435523
 30
5.88
 11
-0.286675
 21
1.450592
 31
5.88
  0
LINE
  5
45D77
100
AcDbEntity
  8
0
100
AcDbLine
 10
-0.316828
 20
1.597352
 30
5.88
 11
-0.331905
 21
1.617445
 31
5.88
  0
LINE
  5
45D78
100
AcDbEntity
  8
0
100
AcDbLine
 10
-0.296726
 20
1.577262
 30
5.88
 11
-0.316828
 21
1.597352
 31
5.88
  0
LINE
  5
45D79
100
AcDbEntity
  8
0
100
AcDbLine
 10
-0.271599
 20
1.567214
 30
5.88
 11
-0.296726
 21
1.577262
 31
5.88
  0
LINE
  5
45D7A
100
AcDbEntity
  8
0
100
AcDbLine
 10
-0.246471
 20
1.562191
 30
5.88
 11
-0.271599
 21
1.567214
 31
5.88
  0
LINE
  5
45D7B
100
AcDbEntity
  8
0
100
AcDbLine
 10
-0.186165
 20
1.455616
 30
5.88
 11
-0.161036
 21
1.440547
 31
5.88
  0
LINE
  5
45D7C
100
AcDbEntity
  8
0
100
AcDbLine
 10
-0.211293
 20
1.46064
 30
5.88
 11
-0.186165
 21
1.455616
 31
5.88
  0
LINE
  5
45D7D
100
AcDbEntity
  8
0
100
AcDbLine
 10
-0.191191
 20
1.567214
 30
5.88
 11
-0.216318
 21
1.562191
 31
5.88
  0
LINE
  5
45D7E
100
AcDbEntity
  8
0
100
AcDbLine
 10
-0.166063
 20
1.582283
 30
5.88
 11
-0.191191
 21
1.567214
 31
5.88
  0
LINE
  5
45D7F
100
AcDbEntity
  8
0
100
AcDbLine
 10
-0.14596
 20
1.597352
 30
5.88
 11
-0.166063
 21
1.582283
 31
5.88
  0
LINE
  5
45D80
100
AcDbEntity
  8
0
100
AcDbLine
 10
-0.130883
 20
1.622468
 30
5.88
 11
-0.14596
 21
1.597352
 31
5.88
  0
LINE
  5
45D81
100
AcDbEntity
  8
0
100
AcDbLine
 10
-0.23642
 20
1.79325
 30
5.88
 11
-0.211293
 21
1.79325
 31
5.88
  0
LINE
  5
45D82
100
AcDbEntity
  8
0
100
AcDbLine
 10
-0.346983
 20
1.642561
 30
5.88
 11
-0.352009
 21
1.667675
 31
5.88
  0
LINE
  5
45D83
100
AcDbEntity
  8
0
100
AcDbLine
 10
-0.261548
 20
1.788228
 30
5.88
 11
-0.23642
 21
1.79325
 31
5.88
  0
LINE
  5
45D84
100
AcDbEntity
  8
0
100
AcDbLine
 10
-0.286675
 20
1.778181
 30
5.88
 11
-0.261548
 21
1.788228
 31
5.88
  0
LINE
  5
45D85
100
AcDbEntity
  8
0
100
AcDbLine
 10
-0.311803
 20
1.763112
 30
5.88
 11
-0.286675
 21
1.778181
 31
5.88
  0
LINE
  5
45D86
100
AcDbEntity
  8
0
100
AcDbLine
 10
-0.331905
 20
1.743019
 30
5.88
 11
-0.311803
 21
1.763112
 31
5.88
  0
LINE
  5
45D87
100
AcDbEntity
  8
0
100
AcDbLine
 10
-0.341956
 20
1.722929
 30
5.88
 11
-0.331905
 21
1.743019
 31
5.88
  0
LINE
  5
45D88
100
AcDbEntity
  8
0
100
AcDbLine
 10
-0.352009
 20
1.692789
 30
5.88
 11
-0.341956
 21
1.722929
 31
5.88
  0
LINE
  5
45D89
100
AcDbEntity
  8
0
100
AcDbLine
 10
-0.352009
 20
1.667675
 30
5.88
 11
-0.352009
 21
1.692789
 31
5.88
  0
LINE
  5
45D8A
100
AcDbEntity
  8
0
100
AcDbLine
 10
-0.115805
 20
1.672699
 30
5.88
 11
-0.120832
 21
1.647582
 31
5.88
  0
LINE
  5
45D8B
100
AcDbEntity
  8
0
100
AcDbLine
 10
-0.120832
 20
1.697813
 30
5.88
 11
-0.115805
 21
1.672699
 31
5.88
  0
LINE
  5
45D8C
100
AcDbEntity
  8
0
100
AcDbLine
 10
-0.125858
 20
1.727951
 30
5.88
 11
-0.120832
 21
1.697813
 31
5.88
  0
LINE
  5
45D8D
100
AcDbEntity
  8
0
100
AcDbLine
 10
-0.140936
 20
1.748043
 30
5.88
 11
-0.125858
 21
1.727951
 31
5.88
  0
LINE
  5
45D8E
100
AcDbEntity
  8
0
100
AcDbLine
 10
-0.161036
 20
1.768136
 30
5.88
 11
-0.140936
 21
1.748043
 31
5.88
  0
LINE
  5
45D8F
100
AcDbEntity
  8
0
100
AcDbLine
 10
-0.186165
 20
1.783204
 30
5.88
 11
-0.161036
 21
1.768136
 31
5.88
  0
LINE
  5
45D90
100
AcDbEntity
  8
0
100
AcDbLine
 10
-0.211293
 20
1.79325
 30
5.88
 11
-0.186165
 21
1.783204
 31
5.88
  0
LINE
  5
45D91
100
AcDbEntity
  8
0
100
AcDbLine
 10
-0.402264
 20
2.149885
 30
5.88
 11
-0.402264
 21
1.908779
 31
5.88
  0
LINE
  5
45D92
100
AcDbEntity
  8
0
100
AcDbLine
 10
-0.311803
 20
2.114724
 30
5.88
 11
-0.150985
 21
1.943941
 31
5.88
  0
LINE
  5
45D93
100
AcDbEntity
  8
0
100
AcDbLine
 10
-0.120832
 20
2.049425
 30
5.88
 11
-0.115805
 21
2.019287
 31
5.88
  0
LINE
  5
45D94
100
AcDbEntity
  8
0
100
AcDbLine
 10
-0.352009
 20
2.044401
 30
5.88
 11
-0.341956
 21
2.069517
 31
5.88
  0
LINE
  5
45D95
100
AcDbEntity
  8
0
100
AcDbLine
 10
-0.216318
 20
1.908779
 30
5.88
 11
-0.246471
 21
1.908779
 31
5.88
  0
LINE
  5
45D96
100
AcDbEntity
  8
0
100
AcDbLine
 10
-0.346983
 20
1.989147
 30
5.88
 11
-0.352009
 21
2.014263
 31
5.88
  0
LINE
  5
45D97
100
AcDbEntity
  8
0
100
AcDbLine
 10
-0.331905
 20
1.964033
 30
5.88
 11
-0.346983
 21
1.989147
 31
5.88
  0
LINE
  5
45D98
100
AcDbEntity
  8
0
100
AcDbLine
 10
-0.316828
 20
1.943941
 30
5.88
 11
-0.331905
 21
1.964033
 31
5.88
  0
LINE
  5
45D99
100
AcDbEntity
  8
0
100
AcDbLine
 10
-0.296726
 20
1.923848
 30
5.88
 11
-0.316828
 21
1.943941
 31
5.88
  0
LINE
  5
45D9A
100
AcDbEntity
  8
0
100
AcDbLine
 10
-0.271599
 20
1.913803
 30
5.88
 11
-0.296726
 21
1.923848
 31
5.88
  0
LINE
  5
45D9B
100
AcDbEntity
  8
0
100
AcDbLine
 10
-0.246471
 20
1.908779
 30
5.88
 11
-0.271599
 21
1.913803
 31
5.88
  0
LINE
  5
45D9C
100
AcDbEntity
  8
0
100
AcDbLine
 10
-0.352009
 20
2.014263
 30
5.88
 11
-0.352009
 21
2.044401
 31
5.88
  0
LINE
  5
45D9D
100
AcDbEntity
  8
0
100
AcDbLine
 10
-0.191191
 20
1.913803
 30
5.88
 11
-0.216318
 21
1.908779
 31
5.88
  0
LINE
  5
45D9E
100
AcDbEntity
  8
0
100
AcDbLine
 10
-0.166063
 20
1.928872
 30
5.88
 11
-0.191191
 21
1.913803
 31
5.88
  0
LINE
  5
45D9F
100
AcDbEntity
  8
0
100
AcDbLine
 10
-0.14596
 20
1.948964
 30
5.88
 11
-0.166063
 21
1.928872
 31
5.88
  0
LINE
  5
45DA0
100
AcDbEntity
  8
0
100
AcDbLine
 10
-0.130883
 20
1.969057
 30
5.88
 11
-0.14596
 21
1.948964
 31
5.88
  0
LINE
  5
45DA1
100
AcDbEntity
  8
0
100
AcDbLine
 10
-0.120832
 20
1.994171
 30
5.88
 11
-0.130883
 21
1.969057
 31
5.88
  0
LINE
  5
45DA2
100
AcDbEntity
  8
0
100
AcDbLine
 10
-0.115805
 20
2.019287
 30
5.88
 11
-0.120832
 21
1.994171
 31
5.88
  0
LINE
  5
45DA3
100
AcDbEntity
  8
0
100
AcDbLine
 10
-0.23642
 20
2.139838
 30
5.88
 11
-0.211293
 21
2.139838
 31
5.88
  0
LINE
  5
45DA4
100
AcDbEntity
  8
0
100
AcDbLine
 10
-0.261548
 20
2.139838
 30
5.88
 11
-0.23642
 21
2.139838
 31
5.88
  0
LINE
  5
45DA5
100
AcDbEntity
  8
0
100
AcDbLine
 10
-0.286675
 20
2.129793
 30
5.88
 11
-0.261548
 21
2.139838
 31
5.88
  0
LINE
  5
45DA6
100
AcDbEntity
  8
0
100
AcDbLine
 10
-0.311803
 20
2.114724
 30
5.88
 11
-0.286675
 21
2.129793
 31
5.88
  0
LINE
  5
45DA7
100
AcDbEntity
  8
0
100
AcDbLine
 10
-0.331905
 20
2.094632
 30
5.88
 11
-0.311803
 21
2.114724
 31
5.88
  0
LINE
  5
45DA8
100
AcDbEntity
  8
0
100
AcDbLine
 10
-0.341956
 20
2.069517
 30
5.88
 11
-0.331905
 21
2.094632
 31
5.88
  0
LINE
  5
45DA9
100
AcDbEntity
  8
0
100
AcDbLine
 10
-0.125858
 20
2.074539
 30
5.88
 11
-0.120832
 21
2.049425
 31
5.88
  0
LINE
  5
45DAA
100
AcDbEntity
  8
0
100
AcDbLine
 10
-0.140936
 20
2.094632
 30
5.88
 11
-0.125858
 21
2.074539
 31
5.88
  0
LINE
  5
45DAB
100
AcDbEntity
  8
0
100
AcDbLine
 10
-0.161036
 20
2.114724
 30
5.88
 11
-0.140936
 21
2.094632
 31
5.88
  0
LINE
  5
45DAC
100
AcDbEntity
  8
0
100
AcDbLine
 10
-0.186165
 20
2.129793
 30
5.88
 11
-0.161036
 21
2.114724
 31
5.88
  0
LINE
  5
45DAD
100
AcDbEntity
  8
0
100
AcDbLine
 10
-0.211293
 20
2.139838
 30
5.88
 11
-0.186165
 21
2.129793
 31
5.88
  0
LINE
  5
45DAE
100
AcDbEntity
  8
0
100
AcDbLine
 10
-0.06555
 20
1.908779
 30
5.88
 11
-0.06555
 21
1.803297
 31
5.88
  0
LINE
  5
45DAF
100
AcDbEntity
  8
0
100
AcDbLine
 10
0.060088
 20
1.908779
 30
5.88
 11
0.060088
 21
1.803297
 31
5.88
  0
LINE
  5
45DB0
100
AcDbEntity
  8
0
100
AcDbLine
 10
-0.06555
 20
1.576169
 30
5.88
 11
-0.06555
 21
1.475708
 31
5.88
  0
LINE
  5
45DB1
100
AcDbEntity
  8
0
100
AcDbLine
 10
0.060088
 20
1.576169
 30
5.88
 11
0.060088
 21
1.475708
 31
5.88
  0
LINE
  5
45DB2
100
AcDbEntity
  8
0
100
AcDbLine
 10
-0.532929
 20
2.255368
 30
5.88
 11
0.060088
 21
2.255368
 31
5.88
  0
LINE
  5
45DB3
100
AcDbEntity
  8
0
100
AcDbLine
 10
0.060088
 20
2.501496
 30
5.88
 11
-0.532929
 21
2.501496
 31
5.88
  0
LINE
  5
45DB4
100
AcDbEntity
  8
0
100
AcDbLine
 10
-0.532929
 20
2.601956
 30
5.88
 11
0.060088
 21
2.601956
 31
5.88
  0
LINE
  5
45DB5
100
AcDbEntity
  8
0
100
AcDbLine
 10
0.060088
 20
2.848084
 30
5.88
 11
-0.532929
 21
2.848084
 31
5.88
  0
LINE
  5
45DB6
100
AcDbEntity
  8
0
100
AcDbLine
 10
-0.532929
 20
2.948545
 30
5.88
 11
0.060088
 21
2.948545
 31
5.88
  0
LINE
  5
45DB7
100
AcDbEntity
  8
0
100
AcDbLine
 10
-0.402264
 20
2.848084
 30
5.88
 11
-0.402264
 21
2.601956
 31
5.88
  0
LINE
  5
45DB8
100
AcDbEntity
  8
0
100
AcDbLine
 10
-0.311803
 20
2.807901
 30
5.88
 11
-0.150985
 21
2.637118
 31
5.88
  0
LINE
  5
45DB9
100
AcDbEntity
  8
0
100
AcDbLine
 10
-0.331905
 20
2.662232
 30
5.88
 11
-0.346983
 21
2.682324
 31
5.88
  0
LINE
  5
45DBA
100
AcDbEntity
  8
0
100
AcDbLine
 10
-0.120832
 20
2.687348
 30
5.88
 11
-0.130883
 21
2.662232
 31
5.88
  0
LINE
  5
45DBB
100
AcDbEntity
  8
0
100
AcDbLine
 10
-0.402264
 20
2.501496
 30
5.88
 11
-0.402264
 21
2.255368
 31
5.88
  0
LINE
  5
45DBC
100
AcDbEntity
  8
0
100
AcDbLine
 10
-0.532929
 20
2.501496
 30
5.88
 11
-0.532929
 21
2.601956
 31
5.88
  0
LINE
  5
45DBD
100
AcDbEntity
  8
0
100
AcDbLine
 10
-0.186165
 20
2.476381
 30
5.88
 11
-0.161036
 21
2.461313
 31
5.88
  0
LINE
  5
45DBE
100
AcDbEntity
  8
0
100
AcDbLine
 10
-0.311803
 20
2.461313
 30
5.88
 11
-0.286675
 21
2.476381
 31
5.88
  0
LINE
  5
45DBF
100
AcDbEntity
  8
0
100
AcDbLine
 10
-0.311803
 20
2.461313
 30
5.88
 11
-0.150985
 21
2.290529
 31
5.88
  0
LINE
  5
45DC0
100
AcDbEntity
  8
0
100
AcDbLine
 10
-0.216318
 20
2.255368
 30
5.88
 11
-0.246471
 21
2.255368
 31
5.88
  0
LINE
  5
45DC1
100
AcDbEntity
  8
0
100
AcDbLine
 10
-0.346983
 20
2.335736
 30
5.88
 11
-0.352009
 21
2.365876
 31
5.88
  0
LINE
  5
45DC2
100
AcDbEntity
  8
0
100
AcDbLine
 10
-0.331905
 20
2.310622
 30
5.88
 11
-0.346983
 21
2.335736
 31
5.88
  0
LINE
  5
45DC3
100
AcDbEntity
  8
0
100
AcDbLine
 10
-0.316828
 20
2.290529
 30
5.88
 11
-0.331905
 21
2.310622
 31
5.88
  0
LINE
  5
45DC4
100
AcDbEntity
  8
0
100
AcDbLine
 10
-0.296726
 20
2.27546
 30
5.88
 11
-0.316828
 21
2.290529
 31
5.88
  0
LINE
  5
45DC5
100
AcDbEntity
  8
0
100
AcDbLine
 10
-0.271599
 20
2.260391
 30
5.88
 11
-0.296726
 21
2.27546
 31
5.88
  0
LINE
  5
45DC6
100
AcDbEntity
  8
0
100
AcDbLine
 10
-0.246471
 20
2.255368
 30
5.88
 11
-0.271599
 21
2.260391
 31
5.88
  0
LINE
  5
45DC7
100
AcDbEntity
  8
0
100
AcDbLine
 10
-0.331905
 20
2.44122
 30
5.88
 11
-0.311803
 21
2.461313
 31
5.88
  0
LINE
  5
45DC8
100
AcDbEntity
  8
0
100
AcDbLine
 10
-0.341956
 20
2.416104
 30
5.88
 11
-0.331905
 21
2.44122
 31
5.88
  0
LINE
  5
45DC9
100
AcDbEntity
  8
0
100
AcDbLine
 10
-0.352009
 20
2.39099
 30
5.88
 11
-0.341956
 21
2.416104
 31
5.88
  0
LINE
  5
45DCA
100
AcDbEntity
  8
0
100
AcDbLine
 10
-0.352009
 20
2.365876
 30
5.88
 11
-0.352009
 21
2.39099
 31
5.88
  0
LINE
  5
45DCB
100
AcDbEntity
  8
0
100
AcDbLine
 10
-0.191191
 20
2.265415
 30
5.88
 11
-0.216318
 21
2.255368
 31
5.88
  0
LINE
  5
45DCC
100
AcDbEntity
  8
0
100
AcDbLine
 10
-0.166063
 20
2.27546
 30
5.88
 11
-0.191191
 21
2.265415
 31
5.88
  0
LINE
  5
45DCD
100
AcDbEntity
  8
0
100
AcDbLine
 10
-0.14596
 20
2.295553
 30
5.88
 11
-0.166063
 21
2.27546
 31
5.88
  0
LINE
  5
45DCE
100
AcDbEntity
  8
0
100
AcDbLine
 10
-0.130883
 20
2.315645
 30
5.88
 11
-0.14596
 21
2.295553
 31
5.88
  0
LINE
  5
45DCF
100
AcDbEntity
  8
0
100
AcDbLine
 10
-0.120832
 20
2.340759
 30
5.88
 11
-0.130883
 21
2.315645
 31
5.88
  0
LINE
  5
45DD0
100
AcDbEntity
  8
0
100
AcDbLine
 10
-0.115805
 20
2.370897
 30
5.88
 11
-0.120832
 21
2.340759
 31
5.88
  0
LINE
  5
45DD1
100
AcDbEntity
  8
0
100
AcDbLine
 10
-0.120832
 20
2.396013
 30
5.88
 11
-0.115805
 21
2.370897
 31
5.88
  0
LINE
  5
45DD2
100
AcDbEntity
  8
0
100
AcDbLine
 10
-0.125858
 20
2.421128
 30
5.88
 11
-0.120832
 21
2.396013
 31
5.88
  0
LINE
  5
45DD3
100
AcDbEntity
  8
0
100
AcDbLine
 10
-0.140936
 20
2.446244
 30
5.88
 11
-0.125858
 21
2.421128
 31
5.88
  0
LINE
  5
45DD4
100
AcDbEntity
  8
0
100
AcDbLine
 10
-0.161036
 20
2.461313
 30
5.88
 11
-0.140936
 21
2.446244
 31
5.88
  0
LINE
  5
45DD5
100
AcDbEntity
  8
0
100
AcDbLine
 10
-0.23642
 20
2.49145
 30
5.88
 11
-0.211293
 21
2.486427
 31
5.88
  0
LINE
  5
45DD6
100
AcDbEntity
  8
0
100
AcDbLine
 10
-0.216318
 20
2.60698
 30
5.88
 11
-0.246471
 21
2.601956
 31
5.88
  0
LINE
  5
45DD7
100
AcDbEntity
  8
0
100
AcDbLine
 10
-0.261548
 20
2.486427
 30
5.88
 11
-0.23642
 21
2.49145
 31
5.88
  0
LINE
  5
45DD8
100
AcDbEntity
  8
0
100
AcDbLine
 10
-0.286675
 20
2.476381
 30
5.88
 11
-0.261548
 21
2.486427
 31
5.88
  0
LINE
  5
45DD9
100
AcDbEntity
  8
0
100
AcDbLine
 10
-0.316828
 20
2.637118
 30
5.88
 11
-0.331905
 21
2.662232
 31
5.88
  0
LINE
  5
45DDA
100
AcDbEntity
  8
0
100
AcDbLine
 10
-0.296726
 20
2.622049
 30
5.88
 11
-0.316828
 21
2.637118
 31
5.88
  0
LINE
  5
45DDB
100
AcDbEntity
  8
0
100
AcDbLine
 10
-0.271599
 20
2.612003
 30
5.88
 11
-0.296726
 21
2.622049
 31
5.88
  0
LINE
  5
45DDC
100
AcDbEntity
  8
0
100
AcDbLine
 10
-0.246471
 20
2.601956
 30
5.88
 11
-0.271599
 21
2.612003
 31
5.88
  0
LINE
  5
45DDD
100
AcDbEntity
  8
0
100
AcDbLine
 10
-0.211293
 20
2.486427
 30
5.88
 11
-0.186165
 21
2.476381
 31
5.88
  0
LINE
  5
45DDE
100
AcDbEntity
  8
0
100
AcDbLine
 10
-0.191191
 20
2.612003
 30
5.88
 11
-0.216318
 21
2.60698
 31
5.88
  0
LINE
  5
45DDF
100
AcDbEntity
  8
0
100
AcDbLine
 10
-0.166063
 20
2.622049
 30
5.88
 11
-0.191191
 21
2.612003
 31
5.88
  0
LINE
  5
45DE0
100
AcDbEntity
  8
0
100
AcDbLine
 10
-0.14596
 20
2.642141
 30
5.88
 11
-0.166063
 21
2.622049
 31
5.88
  0
LINE
  5
45DE1
100
AcDbEntity
  8
0
100
AcDbLine
 10
-0.130883
 20
2.662232
 30
5.88
 11
-0.14596
 21
2.642141
 31
5.88
  0
LINE
  5
45DE2
100
AcDbEntity
  8
0
100
AcDbLine
 10
-0.532929
 20
2.848084
 30
5.88
 11
-0.532929
 21
2.948545
 31
5.88
  0
LINE
  5
45DE3
100
AcDbEntity
  8
0
100
AcDbLine
 10
-0.23642
 20
2.838039
 30
5.88
 11
-0.211293
 21
2.833015
 31
5.88
  0
LINE
  5
45DE4
100
AcDbEntity
  8
0
100
AcDbLine
 10
-0.346983
 20
2.682324
 30
5.88
 11
-0.352009
 21
2.712462
 31
5.88
  0
LINE
  5
45DE5
100
AcDbEntity
  8
0
100
AcDbLine
 10
-0.261548
 20
2.833015
 30
5.88
 11
-0.23642
 21
2.838039
 31
5.88
  0
LINE
  5
45DE6
100
AcDbEntity
  8
0
100
AcDbLine
 10
-0.286675
 20
2.82297
 30
5.88
 11
-0.261548
 21
2.833015
 31
5.88
  0
LINE
  5
45DE7
100
AcDbEntity
  8
0
100
AcDbLine
 10
-0.311803
 20
2.807901
 30
5.88
 11
-0.286675
 21
2.82297
 31
5.88
  0
LINE
  5
45DE8
100
AcDbEntity
  8
0
100
AcDbLine
 10
-0.331905
 20
2.787809
 30
5.88
 11
-0.311803
 21
2.807901
 31
5.88
  0
LINE
  5
45DE9
100
AcDbEntity
  8
0
100
AcDbLine
 10
-0.341956
 20
2.762692
 30
5.88
 11
-0.331905
 21
2.787809
 31
5.88
  0
LINE
  5
45DEA
100
AcDbEntity
  8
0
100
AcDbLine
 10
-0.352009
 20
2.737578
 30
5.88
 11
-0.341956
 21
2.762692
 31
5.88
  0
LINE
  5
45DEB
100
AcDbEntity
  8
0
100
AcDbLine
 10
-0.352009
 20
2.712462
 30
5.88
 11
-0.352009
 21
2.737578
 31
5.88
  0
LINE
  5
45DEC
100
AcDbEntity
  8
0
100
AcDbLine
 10
-0.115805
 20
2.717486
 30
5.88
 11
-0.120832
 21
2.687348
 31
5.88
  0
LINE
  5
45DED
100
AcDbEntity
  8
0
100
AcDbLine
 10
-0.120832
 20
2.742602
 30
5.88
 11
-0.115805
 21
2.717486
 31
5.88
  0
LINE
  5
45DEE
100
AcDbEntity
  8
0
100
AcDbLine
 10
-0.125858
 20
2.767716
 30
5.88
 11
-0.120832
 21
2.742602
 31
5.88
  0
LINE
  5
45DEF
100
AcDbEntity
  8
0
100
AcDbLine
 10
-0.140936
 20
2.792832
 30
5.88
 11
-0.125858
 21
2.767716
 31
5.88
  0
LINE
  5
45DF0
100
AcDbEntity
  8
0
100
AcDbLine
 10
-0.161036
 20
2.812923
 30
5.88
 11
-0.140936
 21
2.792832
 31
5.88
  0
LINE
  5
45DF1
100
AcDbEntity
  8
0
100
AcDbLine
 10
-0.186165
 20
2.827992
 30
5.88
 11
-0.161036
 21
2.812923
 31
5.88
  0
LINE
  5
45DF2
100
AcDbEntity
  8
0
100
AcDbLine
 10
-0.211293
 20
2.833015
 30
5.88
 11
-0.186165
 21
2.827992
 31
5.88
  0
LINE
  5
45DF3
100
AcDbEntity
  8
0
100
AcDbLine
 10
-0.216318
 20
2.953568
 30
5.88
 11
-0.246471
 21
2.953568
 31
5.88
  0
LINE
  5
45DF4
100
AcDbEntity
  8
0
100
AcDbLine
 10
-0.346983
 20
3.033936
 30
5.88
 11
-0.352009
 21
3.059051
 31
5.88
  0
LINE
  5
45DF5
100
AcDbEntity
  8
0
100
AcDbLine
 10
-0.331905
 20
3.00882
 30
5.88
 11
-0.346983
 21
3.033936
 31
5.88
  0
LINE
  5
45DF6
100
AcDbEntity
  8
0
100
AcDbLine
 10
-0.316828
 20
2.983706
 30
5.88
 11
-0.331905
 21
3.00882
 31
5.88
  0
LINE
  5
45DF7
100
AcDbEntity
  8
0
100
AcDbLine
 10
-0.296726
 20
2.968637
 30
5.88
 11
-0.316828
 21
2.983706
 31
5.88
  0
LINE
  5
45DF8
100
AcDbEntity
  8
0
100
AcDbLine
 10
-0.271599
 20
2.95859
 30
5.88
 11
-0.296726
 21
2.968637
 31
5.88
  0
LINE
  5
45DF9
100
AcDbEntity
  8
0
100
AcDbLine
 10
-0.246471
 20
2.953568
 30
5.88
 11
-0.271599
 21
2.95859
 31
5.88
  0
LINE
  5
45DFA
100
AcDbEntity
  8
0
100
AcDbLine
 10
-0.191191
 20
2.95859
 30
5.88
 11
-0.216318
 21
2.953568
 31
5.88
  0
LINE
  5
45DFB
100
AcDbEntity
  8
0
100
AcDbLine
 10
-0.166063
 20
2.973659
 30
5.88
 11
-0.191191
 21
2.95859
 31
5.88
  0
LINE
  5
45DFC
100
AcDbEntity
  8
0
100
AcDbLine
 10
-0.14596
 20
2.98873
 30
5.88
 11
-0.166063
 21
2.973659
 31
5.88
  0
LINE
  5
45DFD
100
AcDbEntity
  8
0
100
AcDbLine
 10
-0.130883
 20
3.013844
 30
5.88
 11
-0.14596
 21
2.98873
 31
5.88
  0
LINE
  5
45DFE
100
AcDbEntity
  8
0
100
AcDbLine
 10
-0.120832
 20
3.038958
 30
5.88
 11
-0.130883
 21
3.013844
 31
5.88
  0
LINE
  5
45DFF
100
AcDbEntity
  8
0
100
AcDbLine
 10
-0.115805
 20
3.064074
 30
5.88
 11
-0.120832
 21
3.038958
 31
5.88
  0
LINE
  5
45E00
100
AcDbEntity
  8
0
100
AcDbLine
 10
-0.06555
 20
2.601956
 30
5.88
 11
-0.06555
 21
2.501496
 31
5.88
  0
LINE
  5
45E01
100
AcDbEntity
  8
0
100
AcDbLine
 10
0.060088
 20
2.601956
 30
5.88
 11
0.060088
 21
2.501496
 31
5.88
  0
LINE
  5
45E02
100
AcDbEntity
  8
0
100
AcDbLine
 10
-0.06555
 20
2.948545
 30
5.88
 11
-0.06555
 21
2.848084
 31
5.88
  0
LINE
  5
45E03
100
AcDbEntity
  8
0
100
AcDbLine
 10
0.060088
 20
2.948545
 30
5.88
 11
0.060088
 21
2.848084
 31
5.88
  0
LINE
  5
45E04
100
AcDbEntity
  8
0
100
AcDbLine
 10
0.060088
 20
3.194673
 30
5.88
 11
-0.532929
 21
3.194673
 31
5.88
  0
LINE
  5
45E05
100
AcDbEntity
  8
0
100
AcDbLine
 10
-0.532929
 20
3.295133
 30
5.88
 11
0.060088
 21
3.295133
 31
5.88
  0
LINE
  5
45E06
100
AcDbEntity
  8
0
100
AcDbLine
 10
0.060088
 20
3.541261
 30
5.88
 11
-0.532929
 21
3.541261
 31
5.88
  0
LINE
  5
45E07
100
AcDbEntity
  8
0
100
AcDbLine
 10
-0.532929
 20
3.646745
 30
5.88
 11
0.060088
 21
3.646745
 31
5.88
  0
LINE
  5
45E08
100
AcDbEntity
  8
0
100
AcDbLine
 10
-0.402264
 20
3.541261
 30
5.88
 11
-0.402264
 21
3.295133
 31
5.88
  0
LINE
  5
45E09
100
AcDbEntity
  8
0
100
AcDbLine
 10
-0.311803
 20
3.5061
 30
5.88
 11
-0.150985
 21
3.335318
 31
5.88
  0
LINE
  5
45E0A
100
AcDbEntity
  8
0
100
AcDbLine
 10
-0.161036
 20
3.5061
 30
5.88
 11
-0.140936
 21
3.486007
 31
5.88
  0
LINE
  5
45E0B
100
AcDbEntity
  8
0
100
AcDbLine
 10
-0.331905
 20
3.480986
 30
5.88
 11
-0.311803
 21
3.501076
 31
5.88
  0
LINE
  5
45E0C
100
AcDbEntity
  8
0
100
AcDbLine
 10
-0.532929
 20
3.194673
 30
5.88
 11
-0.532929
 21
3.295133
 31
5.88
  0
LINE
  5
45E0D
100
AcDbEntity
  8
0
100
AcDbLine
 10
-0.23642
 20
3.184627
 30
5.88
 11
-0.211293
 21
3.184627
 31
5.88
  0
LINE
  5
45E0E
100
AcDbEntity
  8
0
100
AcDbLine
 10
-0.261548
 20
3.179604
 30
5.88
 11
-0.23642
 21
3.184627
 31
5.88
  0
LINE
  5
45E0F
100
AcDbEntity
  8
0
100
AcDbLine
 10
-0.286675
 20
3.169558
 30
5.88
 11
-0.261548
 21
3.179604
 31
5.88
  0
LINE
  5
45E10
100
AcDbEntity
  8
0
100
AcDbLine
 10
-0.311803
 20
3.15449
 30
5.88
 11
-0.286675
 21
3.169558
 31
5.88
  0
LINE
  5
45E11
100
AcDbEntity
  8
0
100
AcDbLine
 10
-0.331905
 20
3.134397
 30
5.88
 11
-0.311803
 21
3.15449
 31
5.88
  0
LINE
  5
45E12
100
AcDbEntity
  8
0
100
AcDbLine
 10
-0.341956
 20
3.114305
 30
5.88
 11
-0.331905
 21
3.134397
 31
5.88
  0
LINE
  5
45E13
100
AcDbEntity
  8
0
100
AcDbLine
 10
-0.352009
 20
3.084167
 30
5.88
 11
-0.341956
 21
3.114305
 31
5.88
  0
LINE
  5
45E14
100
AcDbEntity
  8
0
100
AcDbLine
 10
-0.125858
 20
3.114305
 30
5.88
 11
-0.120832
 21
3.08919
 31
5.88
  0
LINE
  5
45E15
100
AcDbEntity
  8
0
100
AcDbLine
 10
-0.140936
 20
3.139419
 30
5.88
 11
-0.125858
 21
3.114305
 31
5.88
  0
LINE
  5
45E16
100
AcDbEntity
  8
0
100
AcDbLine
 10
-0.161036
 20
3.159511
 30
5.88
 11
-0.140936
 21
3.139419
 31
5.88
  0
LINE
  5
45E17
100
AcDbEntity
  8
0
100
AcDbLine
 10
-0.186165
 20
3.17458
 30
5.88
 11
-0.161036
 21
3.159511
 31
5.88
  0
LINE
  5
45E18
100
AcDbEntity
  8
0
100
AcDbLine
 10
-0.211293
 20
3.184627
 30
5.88
 11
-0.186165
 21
3.17458
 31
5.88
  0
LINE
  5
45E19
100
AcDbEntity
  8
0
100
AcDbLine
 10
-0.216318
 20
3.300157
 30
5.88
 11
-0.246471
 21
3.300157
 31
5.88
  0
LINE
  5
45E1A
100
AcDbEntity
  8
0
100
AcDbLine
 10
-0.346983
 20
3.380525
 30
5.88
 11
-0.352009
 21
3.405639
 31
5.88
  0
LINE
  5
45E1B
100
AcDbEntity
  8
0
100
AcDbLine
 10
-0.331905
 20
3.355409
 30
5.88
 11
-0.346983
 21
3.380525
 31
5.88
  0
LINE
  5
45E1C
100
AcDbEntity
  8
0
100
AcDbLine
 10
-0.316828
 20
3.335318
 30
5.88
 11
-0.331905
 21
3.355409
 31
5.88
  0
LINE
  5
45E1D
100
AcDbEntity
  8
0
100
AcDbLine
 10
-0.296726
 20
3.315226
 30
5.88
 11
-0.316828
 21
3.335318
 31
5.88
  0
LINE
  5
45E1E
100
AcDbEntity
  8
0
100
AcDbLine
 10
-0.271599
 20
3.305179
 30
5.88
 11
-0.296726
 21
3.315226
 31
5.88
  0
LINE
  5
45E1F
100
AcDbEntity
  8
0
100
AcDbLine
 10
-0.246471
 20
3.300157
 30
5.88
 11
-0.271599
 21
3.305179
 31
5.88
  0
LINE
  5
45E20
100
AcDbEntity
  8
0
100
AcDbLine
 10
-0.341956
 20
3.460893
 30
5.88
 11
-0.331905
 21
3.480986
 31
5.88
  0
LINE
  5
45E21
100
AcDbEntity
  8
0
100
AcDbLine
 10
-0.352009
 20
3.435777
 30
5.88
 11
-0.341956
 21
3.460893
 31
5.88
  0
LINE
  5
45E22
100
AcDbEntity
  8
0
100
AcDbLine
 10
-0.352009
 20
3.405639
 30
5.88
 11
-0.352009
 21
3.435777
 31
5.88
  0
LINE
  5
45E23
100
AcDbEntity
  8
0
100
AcDbLine
 10
-0.191191
 20
3.305179
 30
5.88
 11
-0.216318
 21
3.300157
 31
5.88
  0
LINE
  5
45E24
100
AcDbEntity
  8
0
100
AcDbLine
 10
-0.166063
 20
3.320247
 30
5.88
 11
-0.191191
 21
3.305179
 31
5.88
  0
LINE
  5
45E25
100
AcDbEntity
  8
0
100
AcDbLine
 10
-0.14596
 20
3.335318
 30
5.88
 11
-0.166063
 21
3.320247
 31
5.88
  0
LINE
  5
45E26
100
AcDbEntity
  8
0
100
AcDbLine
 10
-0.130883
 20
3.360432
 30
5.88
 11
-0.14596
 21
3.335318
 31
5.88
  0
LINE
  5
45E27
100
AcDbEntity
  8
0
100
AcDbLine
 10
-0.120832
 20
3.385547
 30
5.88
 11
-0.130883
 21
3.360432
 31
5.88
  0
LINE
  5
45E28
100
AcDbEntity
  8
0
100
AcDbLine
 10
-0.115805
 20
3.410663
 30
5.88
 11
-0.120832
 21
3.385547
 31
5.88
  0
LINE
  5
45E29
100
AcDbEntity
  8
0
100
AcDbLine
 10
-0.120832
 20
3.440801
 30
5.88
 11
-0.115805
 21
3.410663
 31
5.88
  0
LINE
  5
45E2A
100
AcDbEntity
  8
0
100
AcDbLine
 10
-0.125858
 20
3.465917
 30
5.88
 11
-0.120832
 21
3.440801
 31
5.88
  0
LINE
  5
45E2B
100
AcDbEntity
  8
0
100
AcDbLine
 10
-0.140936
 20
3.486007
 30
5.88
 11
-0.125858
 21
3.465917
 31
5.88
  0
LINE
  5
45E2C
100
AcDbEntity
  8
0
100
AcDbLine
 10
-0.402264
 20
3.88785
 30
5.88
 11
-0.402264
 21
3.646745
 31
5.88
  0
LINE
  5
45E2D
100
AcDbEntity
  8
0
100
AcDbLine
 10
-0.532929
 20
3.541261
 30
5.88
 11
-0.532929
 21
3.646745
 31
5.88
  0
LINE
  5
45E2E
100
AcDbEntity
  8
0
100
AcDbLine
 10
-0.311803
 20
3.852688
 30
5.88
 11
-0.150985
 21
3.681905
 31
5.88
  0
LINE
  5
45E2F
100
AcDbEntity
  8
0
100
AcDbLine
 10
-0.331905
 20
3.701997
 30
5.88
 11
-0.346983
 21
3.727113
 31
5.88
  0
LINE
  5
45E30
100
AcDbEntity
  8
0
100
AcDbLine
 10
-0.130883
 20
3.707021
 30
5.88
 11
-0.14596
 21
3.686928
 31
5.88
  0
LINE
  5
45E31
100
AcDbEntity
  8
0
100
AcDbLine
 10
-0.23642
 20
3.531214
 30
5.88
 11
-0.211293
 21
3.531214
 31
5.88
  0
LINE
  5
45E32
100
AcDbEntity
  8
0
100
AcDbLine
 10
-0.216318
 20
3.646745
 30
5.88
 11
-0.246471
 21
3.646745
 31
5.88
  0
LINE
  5
45E33
100
AcDbEntity
  8
0
100
AcDbLine
 10
-0.261548
 20
3.526192
 30
5.88
 11
-0.23642
 21
3.531214
 31
5.88
  0
LINE
  5
45E34
100
AcDbEntity
  8
0
100
AcDbLine
 10
-0.286675
 20
3.521169
 30
5.88
 11
-0.261548
 21
3.526192
 31
5.88
  0
LINE
  5
45E35
100
AcDbEntity
  8
0
100
AcDbLine
 10
-0.311803
 20
3.501076
 30
5.88
 11
-0.286675
 21
3.521169
 31
5.88
  0
LINE
  5
45E36
100
AcDbEntity
  8
0
100
AcDbLine
 10
-0.316828
 20
3.681905
 30
5.88
 11
-0.331905
 21
3.701997
 31
5.88
  0
LINE
  5
45E37
100
AcDbEntity
  8
0
100
AcDbLine
 10
-0.296726
 20
3.666836
 30
5.88
 11
-0.316828
 21
3.681905
 31
5.88
  0
LINE
  5
45E38
100
AcDbEntity
  8
0
100
AcDbLine
 10
-0.271599
 20
3.651767
 30
5.88
 11
-0.296726
 21
3.666836
 31
5.88
  0
LINE
  5
45E39
100
AcDbEntity
  8
0
100
AcDbLine
 10
-0.246471
 20
3.646745
 30
5.88
 11
-0.271599
 21
3.651767
 31
5.88
  0
LINE
  5
45E3A
100
AcDbEntity
  8
0
100
AcDbLine
 10
-0.186165
 20
3.521169
 30
5.88
 11
-0.161036
 21
3.5061
 31
5.88
  0
LINE
  5
45E3B
100
AcDbEntity
  8
0
100
AcDbLine
 10
-0.211293
 20
3.531214
 30
5.88
 11
-0.186165
 21
3.521169
 31
5.88
  0
LINE
  5
45E3C
100
AcDbEntity
  8
0
100
AcDbLine
 10
-0.191191
 20
3.656791
 30
5.88
 11
-0.216318
 21
3.646745
 31
5.88
  0
LINE
  5
45E3D
100
AcDbEntity
  8
0
100
AcDbLine
 10
-0.166063
 20
3.666836
 30
5.88
 11
-0.191191
 21
3.656791
 31
5.88
  0
LINE
  5
45E3E
100
AcDbEntity
  8
0
100
AcDbLine
 10
-0.14596
 20
3.686928
 30
5.88
 11
-0.166063
 21
3.666836
 31
5.88
  0
LINE
  5
45E3F
100
AcDbEntity
  8
0
100
AcDbLine
 10
-0.23642
 20
3.877802
 30
5.88
 11
-0.211293
 21
3.877802
 31
5.88
  0
LINE
  5
45E40
100
AcDbEntity
  8
0
100
AcDbLine
 10
-0.346983
 20
3.727113
 30
5.88
 11
-0.352009
 21
3.752228
 31
5.88
  0
LINE
  5
45E41
100
AcDbEntity
  8
0
100
AcDbLine
 10
-0.261548
 20
3.877802
 30
5.88
 11
-0.23642
 21
3.877802
 31
5.88
  0
LINE
  5
45E42
100
AcDbEntity
  8
0
100
AcDbLine
 10
-0.286675
 20
3.867757
 30
5.88
 11
-0.261548
 21
3.877802
 31
5.88
  0
LINE
  5
45E43
100
AcDbEntity
  8
0
100
AcDbLine
 10
-0.311803
 20
3.852688
 30
5.88
 11
-0.286675
 21
3.867757
 31
5.88
  0
LINE
  5
45E44
100
AcDbEntity
  8
0
100
AcDbLine
 10
-0.331905
 20
3.832596
 30
5.88
 11
-0.311803
 21
3.852688
 31
5.88
  0
LINE
  5
45E45
100
AcDbEntity
  8
0
100
AcDbLine
 10
-0.341956
 20
3.807482
 30
5.88
 11
-0.331905
 21
3.832596
 31
5.88
  0
LINE
  5
45E46
100
AcDbEntity
  8
0
100
AcDbLine
 10
-0.352009
 20
3.782365
 30
5.88
 11
-0.341956
 21
3.807482
 31
5.88
  0
LINE
  5
45E47
100
AcDbEntity
  8
0
100
AcDbLine
 10
-0.352009
 20
3.752228
 30
5.88
 11
-0.352009
 21
3.782365
 31
5.88
  0
LINE
  5
45E48
100
AcDbEntity
  8
0
100
AcDbLine
 10
-0.120832
 20
3.732135
 30
5.88
 11
-0.130883
 21
3.707021
 31
5.88
  0
LINE
  5
45E49
100
AcDbEntity
  8
0
100
AcDbLine
 10
-0.115805
 20
3.757251
 30
5.88
 11
-0.120832
 21
3.732135
 31
5.88
  0
LINE
  5
45E4A
100
AcDbEntity
  8
0
100
AcDbLine
 10
-0.120832
 20
3.787389
 30
5.88
 11
-0.115805
 21
3.757251
 31
5.88
  0
LINE
  5
45E4B
100
AcDbEntity
  8
0
100
AcDbLine
 10
-0.125858
 20
3.812503
 30
5.88
 11
-0.120832
 21
3.787389
 31
5.88
  0
LINE
  5
45E4C
100
AcDbEntity
  8
0
100
AcDbLine
 10
-0.140936
 20
3.832596
 30
5.88
 11
-0.125858
 21
3.812503
 31
5.88
  0
LINE
  5
45E4D
100
AcDbEntity
  8
0
100
AcDbLine
 10
-0.161036
 20
3.852688
 30
5.88
 11
-0.140936
 21
3.832596
 31
5.88
  0
LINE
  5
45E4E
100
AcDbEntity
  8
0
100
AcDbLine
 10
-0.186165
 20
3.867757
 30
5.88
 11
-0.161036
 21
3.852688
 31
5.88
  0
LINE
  5
45E4F
100
AcDbEntity
  8
0
100
AcDbLine
 10
-0.211293
 20
3.877802
 30
5.88
 11
-0.186165
 21
3.867757
 31
5.88
  0
LINE
  5
45E50
100
AcDbEntity
  8
0
100
AcDbLine
 10
-0.06555
 20
3.295133
 30
5.88
 11
-0.06555
 21
3.194673
 31
5.88
  0
LINE
  5
45E51
100
AcDbEntity
  8
0
100
AcDbLine
 10
0.060088
 20
3.295133
 30
5.88
 11
0.060088
 21
3.194673
 31
5.88
  0
LINE
  5
45E52
100
AcDbEntity
  8
0
100
AcDbLine
 10
-0.06555
 20
3.646745
 30
5.88
 11
-0.06555
 21
3.541261
 31
5.88
  0
LINE
  5
45E53
100
AcDbEntity
  8
0
100
AcDbLine
 10
0.060088
 20
3.646745
 30
5.88
 11
0.060088
 21
3.541261
 31
5.88
  0
LINE
  5
45E54
100
AcDbEntity
  8
0
100
AcDbLine
 10
-0.492723
 20
4.33992
 30
5.88
 11
-0.035397
 21
4.33992
 31
5.88
  0
LINE
  5
45E55
100
AcDbEntity
  8
0
100
AcDbLine
 10
-0.040422
 20
4.144023
 30
5.88
 11
-0.492723
 21
4.144023
 31
5.88
  0
LINE
  5
45E56
100
AcDbEntity
  8
0
100
AcDbLine
 10
-0.492723
 20
4.199277
 30
5.88
 11
-0.035397
 21
4.199277
 31
5.88
  0
LINE
  5
45E57
100
AcDbEntity
  8
0
100
AcDbLine
 10
-0.492723
 20
4.033517
 30
5.88
 11
-0.035397
 21
4.033517
 31
5.88
  0
LINE
  5
45E58
100
AcDbEntity
  8
0
100
AcDbLine
 10
-0.492723
 20
4.495635
 30
5.88
 11
-0.492723
 21
4.033517
 31
5.88
  0
LINE
  5
45E59
100
AcDbEntity
  8
0
100
AcDbLine
 10
-0.407289
 20
4.33992
 30
5.88
 11
-0.407289
 21
4.495635
 31
5.88
  0
LINE
  5
45E5A
100
AcDbEntity
  8
0
100
AcDbLine
 10
-0.150985
 20
4.495635
 30
5.88
 11
-0.150985
 21
4.33992
 31
5.88
  0
LINE
  5
45E5B
100
AcDbEntity
  8
0
100
AcDbLine
 10
0.045013
 20
4.495635
 30
5.88
 11
0.045013
 21
4.259552
 31
5.88
  0
LINE
  5
45E5C
100
AcDbEntity
  8
0
100
AcDbLine
 10
-0.035397
 20
4.495635
 30
5.88
 11
-0.035397
 21
4.033517
 31
5.88
  0
LINE
  5
45E5D
100
AcDbEntity
  8
0
100
AcDbLine
 10
0.135472
 20
4.098816
 30
5.88
 11
0.1606
 21
4.088769
 31
5.88
  0
LINE
  5
45E5E
100
AcDbEntity
  8
0
100
AcDbLine
 10
0.135472
 20
4.254531
 30
5.88
 11
0.1606
 21
4.244483
 31
5.88
  0
LINE
  5
45E5F
100
AcDbEntity
  8
0
100
AcDbLine
 10
-0.035397
 20
4.10384
 30
5.88
 11
0.11537
 21
4.10384
 31
5.88
  0
LINE
  5
45E60
100
AcDbEntity
  8
0
100
AcDbLine
 10
0.11537
 20
4.10384
 30
5.88
 11
0.135472
 21
4.098816
 31
5.88
  0
LINE
  5
45E61
100
AcDbEntity
  8
0
100
AcDbLine
 10
-0.035397
 20
4.259552
 30
5.88
 11
0.11537
 21
4.259552
 31
5.88
  0
LINE
  5
45E62
100
AcDbEntity
  8
0
100
AcDbLine
 10
0.11537
 20
4.259552
 30
5.88
 11
0.135472
 21
4.254531
 31
5.88
  0
LINE
  5
45E63
100
AcDbEntity
  8
0
100
AcDbLine
 10
0.195778
 20
4.038541
 30
5.88
 11
0.195778
 21
4.018448
 31
5.88
  0
LINE
  5
45E64
100
AcDbEntity
  8
0
100
AcDbLine
 10
0.190753
 20
4.058631
 30
5.88
 11
0.195778
 21
4.038541
 31
5.88
  0
LINE
  5
45E65
100
AcDbEntity
  8
0
100
AcDbLine
 10
0.175678
 20
4.078724
 30
5.88
 11
0.190753
 21
4.058631
 31
5.88
  0
LINE
  5
45E66
100
AcDbEntity
  8
0
100
AcDbLine
 10
0.1606
 20
4.088769
 30
5.88
 11
0.175678
 21
4.078724
 31
5.88
  0
LINE
  5
45E67
100
AcDbEntity
  8
0
100
AcDbLine
 10
0.195778
 20
4.194253
 30
5.88
 11
0.195778
 21
4.174161
 31
5.88
  0
LINE
  5
45E68
100
AcDbEntity
  8
0
100
AcDbLine
 10
0.190753
 20
4.214346
 30
5.88
 11
0.195778
 21
4.194253
 31
5.88
  0
LINE
  5
45E69
100
AcDbEntity
  8
0
100
AcDbLine
 10
0.175678
 20
4.234438
 30
5.88
 11
0.190753
 21
4.214346
 31
5.88
  0
LINE
  5
45E6A
100
AcDbEntity
  8
0
100
AcDbLine
 10
0.1606
 20
4.244483
 30
5.88
 11
0.175678
 21
4.234438
 31
5.88
  0
LINE
  5
45E6B
100
AcDbEntity
  8
0
100
AcDbLine
 10
0.261112
 20
4.550887
 30
5.88
 11
0.246035
 21
4.530796
 31
5.88
  0
LINE
  5
45E6C
100
AcDbEntity
  8
0
100
AcDbLine
 10
0.175678
 20
4.500659
 30
5.88
 11
0.1606
 21
4.500659
 31
5.88
  0
LINE
  5
45E6D
100
AcDbEntity
  8
0
100
AcDbLine
 10
0.200806
 20
4.50568
 30
5.88
 11
0.175678
 21
4.500659
 31
5.88
  0
LINE
  5
45E6E
100
AcDbEntity
  8
0
100
AcDbLine
 10
0.225933
 20
4.515727
 30
5.88
 11
0.200806
 21
4.50568
 31
5.88
  0
LINE
  5
45E6F
100
AcDbEntity
  8
0
100
AcDbLine
 10
0.246035
 20
4.530796
 30
5.88
 11
0.225933
 21
4.515727
 31
5.88
  0
LINE
  5
45E70
100
AcDbEntity
  8
0
100
AcDbLine
 10
0.271163
 20
4.576003
 30
5.88
 11
0.261112
 21
4.550887
 31
5.88
  0
LINE
  5
45E71
100
AcDbEntity
  8
0
100
AcDbLine
 10
0.271163
 20
4.601117
 30
5.88
 11
0.271163
 21
4.576003
 31
5.88
  0
LINE
  5
45E72
100
AcDbEntity
  8
0
100
AcDbLine
 10
0.271163
 20
4.626233
 30
5.88
 11
0.271163
 21
4.601117
 31
5.88
  0
POLYLINE
  5
45E73
100
AcDbEntity
  8
0
100
AcDbPolygonMesh
 66
     1
 10
0.0
 20
0.0
 30
0.0
 70
    16
 71
     6
 72
     3
  0
VERTEX
  5
45E74
100
AcDbEntity
  8
0
100
AcDbVertex
100
AcDbPolygonMeshVertex
 10
0.068
 20
9.8
 30
4.755
 70
    64
  0
VERTEX
  5
45E75
100
AcDbEntity
  8
0
100
AcDbVertex
100
AcDbPolygonMeshVertex
 10
0.068
 20
9.8
 30
0.0
 70
    64
  0
VERTEX
  5
45E76
100
AcDbEntity
  8
0
100
AcDbVertex
100
AcDbPolygonMeshVertex
 10
0.068
 20
9.8
 30
0.0
 70
    64
  0
VERTEX
  5
45E77
100
AcDbEntity
  8
0
100
AcDbVertex
100
AcDbPolygonMeshVertex
 10
0.0
 20
9.8
 30
4.755
 70
    64
  0
VERTEX
  5
45E78
100
AcDbEntity
  8
0
100
AcDbVertex
100
AcDbPolygonMeshVertex
 10
0.0
 20
9.8
 30
0.0
 70
    64
  0
VERTEX
  5
45E79
100
AcDbEntity
  8
0
100
AcDbVertex
100
AcDbPolygonMeshVertex
 10
0.0
 20
9.8
 30
0.0
 70
    64
  0
VERTEX
  5
45E7A
100
AcDbEntity
  8
0
100
AcDbVertex
100
AcDbPolygonMeshVertex
 10
0.0
 20
10.0
 30
4.755
 70
    64
  0
VERTEX
  5
45E7B
100
AcDbEntity
  8
0
100
AcDbVertex
100
AcDbPolygonMeshVertex
 10
0.0
 20
10.0
 30
0.0
 70
    64
  0
VERTEX
  5
45E7C
100
AcDbEntity
  8
0
100
AcDbVertex
100
AcDbPolygonMeshVertex
 10
0.0
 20
9.8
 30
0.0
 70
    64
  0
VERTEX
  5
45E7D
100
AcDbEntity
  8
0
100
AcDbVertex
100
AcDbPolygonMeshVertex
 10
0.068
 20
10.0
 30
4.755
 70
    64
  0
VERTEX
  5
45E7E
100
AcDbEntity
  8
0
100
AcDbVertex
100
AcDbPolygonMeshVertex
 10
0.068
 20
10.0
 30
0.0
 70
    64
  0
VERTEX
  5
45E7F
100
AcDbEntity
  8
0
100
AcDbVertex
100
AcDbPolygonMeshVertex
 10
0.068
 20
9.8
 30
0.0
 70
    64
  0
VERTEX
  5
45E80
100
AcDbEntity
  8
0
100
AcDbVertex
100
AcDbPolygonMeshVertex
 10
0.068
 20
10.0
 30
4.755
 70
    64
  0
VERTEX
  5
45E81
100
AcDbEntity
  8
0
100
AcDbVertex
100
AcDbPolygonMeshVertex
 10
0.068
 20
10.0
 30
4.755
 70
    64
  0
VERTEX
  5
45E82
100
AcDbEntity
  8
0
100
AcDbVertex
100
AcDbPolygonMeshVertex
 10
0.068
 20
9.8
 30
4.755
 70
    64
  0
VERTEX
  5
45E83
100
AcDbEntity
  8
0
100
AcDbVertex
100
AcDbPolygonMeshVertex
 10
0.0
 20
10.0
 30
4.755
 70
    64
  0
VERTEX
  5
45E84
100
AcDbEntity
  8
0
100
AcDbVertex
100
AcDbPolygonMeshVertex
 10
0.0
 20
10.0
 30
4.755
 70
    64
  0
VERTEX
  5
45E85
100
AcDbEntity
  8
0
100
AcDbVertex
100
AcDbPolygonMeshVertex
 10
0.0
 20
9.8
 30
4.755
 70
    64
  0
SEQEND
  5
45E86
100
AcDbEntity
  8
0
  0
LINE
  5
45E87
100
AcDbEntity
  8
0
100
AcDbLine
 10
-0.693747
 20
7.699034
 30
5.88
 11
-0.693747
 21
8.119875
 31
5.88
  0
LINE
  5
45E88
100
AcDbEntity
  8
0
100
AcDbLine
 10
0.085215
 20
8.119875
 30
5.88
 11
0.085215
 21
7.699034
 31
5.88
  0
LINE
  5
45E89
100
AcDbEntity
  8
0
100
AcDbLine
 10
-0.367085
 20
4.906601
 30
5.88
 11
-0.784208
 21
4.906601
 31
5.88
  0
LINE
  5
45E8A
100
AcDbEntity
  8
0
100
AcDbLine
 10
-0.784208
 20
7.648804
 30
5.88
 11
-0.367085
 21
7.648804
 31
5.88
  0
LINE
  5
45E8B
100
AcDbEntity
  8
0
100
AcDbLine
 10
0.085215
 20
7.699034
 30
5.88
 11
-0.693747
 21
7.699034
 31
5.88
  0
LINE
  5
45E8C
100
AcDbEntity
  8
0
100
AcDbLine
 10
-0.784208
 20
4.906601
 30
5.88
 11
-0.784208
 21
7.648804
 31
5.88
  0
LINE
  5
45E8D
100
AcDbEntity
  8
0
100
AcDbLine
 10
-0.02032
 20
6.403597
 30
5.88
 11
-0.000218
 21
6.383505
 31
5.88
  0
LINE
  5
45E8E
100
AcDbEntity
  8
0
100
AcDbLine
 10
-0.186165
 20
6.373458
 30
5.88
 11
-0.171087
 21
6.398574
 31
5.88
  0
LINE
  5
45E8F
100
AcDbEntity
  8
0
100
AcDbLine
 10
-0.367085
 20
7.648804
 30
5.88
 11
-0.367085
 21
4.906601
 31
5.88
  0
LINE
  5
45E90
100
AcDbEntity
  8
0
100
AcDbLine
 10
-0.120832
 20
5.22369
 30
5.88
 11
-0.095703
 21
5.228712
 31
5.88
  0
LINE
  5
45E91
100
AcDbEntity
  8
0
100
AcDbLine
 10
-0.095703
 20
4.992629
 30
5.88
 11
-0.125858
 21
4.997653
 31
5.88
  0
LINE
  5
45E92
100
AcDbEntity
  8
0
100
AcDbLine
 10
-0.095703
 20
5.292629
 30
5.88
 11
-0.125858
 21
5.297653
 31
5.88
  0
LINE
  5
45E93
100
AcDbEntity
  8
0
100
AcDbLine
 10
-0.120832
 20
5.52369
 30
5.88
 11
-0.095703
 21
5.528712
 31
5.88
  0
LINE
  5
45E94
100
AcDbEntity
  8
0
100
AcDbLine
 10
-0.20124
 20
5.153367
 30
5.88
 11
-0.186165
 21
5.173458
 31
5.88
  0
LINE
  5
45E95
100
AcDbEntity
  8
0
100
AcDbLine
 10
-0.206266
 20
5.098113
 30
5.88
 11
-0.206266
 21
5.123227
 31
5.88
  0
LINE
  5
45E96
100
AcDbEntity
  8
0
100
AcDbLine
 10
-0.20124
 20
5.072999
 30
5.88
 11
-0.206266
 21
5.098113
 31
5.88
  0
LINE
  5
45E97
100
AcDbEntity
  8
0
100
AcDbLine
 10
-0.206266
 20
5.123227
 30
5.88
 11
-0.20124
 21
5.153367
 31
5.88
  0
LINE
  5
45E98
100
AcDbEntity
  8
0
100
AcDbLine
 10
-0.171087
 20
5.02779
 30
5.88
 11
-0.186165
 21
5.047883
 31
5.88
  0
LINE
  5
45E99
100
AcDbEntity
  8
0
100
AcDbLine
 10
-0.125858
 20
4.997653
 30
5.88
 11
-0.14596
 21
5.0077
 31
5.88
  0
LINE
  5
45E9A
100
AcDbEntity
  8
0
100
AcDbLine
 10
-0.14596
 20
5.0077
 30
5.88
 11
-0.171087
 21
5.02779
 31
5.88
  0
LINE
  5
45E9B
100
AcDbEntity
  8
0
100
AcDbLine
 10
-0.186165
 20
5.047883
 30
5.88
 11
-0.20124
 21
5.072999
 31
5.88
  0
LINE
  5
45E9C
100
AcDbEntity
  8
0
100
AcDbLine
 10
-0.186165
 20
5.347883
 30
5.88
 11
-0.20124
 21
5.372999
 31
5.88
  0
LINE
  5
45E9D
100
AcDbEntity
  8
0
100
AcDbLine
 10
-0.186165
 20
5.173458
 30
5.88
 11
-0.171087
 21
5.198574
 31
5.88
  0
LINE
  5
45E9E
100
AcDbEntity
  8
0
100
AcDbLine
 10
-0.171087
 20
5.198574
 30
5.88
 11
-0.14596
 21
5.213643
 31
5.88
  0
LINE
  5
45E9F
100
AcDbEntity
  8
0
100
AcDbLine
 10
-0.14596
 20
5.213643
 30
5.88
 11
-0.120832
 21
5.22369
 31
5.88
  0
LINE
  5
45EA0
100
AcDbEntity
  8
0
100
AcDbLine
 10
-0.14596
 20
5.3077
 30
5.88
 11
-0.171087
 21
5.32779
 31
5.88
  0
LINE
  5
45EA1
100
AcDbEntity
  8
0
100
AcDbLine
 10
-0.125858
 20
5.297653
 30
5.88
 11
-0.14596
 21
5.3077
 31
5.88
  0
LINE
  5
45EA2
100
AcDbEntity
  8
0
100
AcDbLine
 10
-0.171087
 20
5.32779
 30
5.88
 11
-0.186165
 21
5.347883
 31
5.88
  0
LINE
  5
45EA3
100
AcDbEntity
  8
0
100
AcDbLine
 10
-0.206266
 20
5.423227
 30
5.88
 11
-0.20124
 21
5.453367
 31
5.88
  0
LINE
  5
45EA4
100
AcDbEntity
  8
0
100
AcDbLine
 10
-0.14596
 20
5.513643
 30
5.88
 11
-0.120832
 21
5.52369
 31
5.88
  0
LINE
  5
45EA5
100
AcDbEntity
  8
0
100
AcDbLine
 10
-0.171087
 20
5.498574
 30
5.88
 11
-0.14596
 21
5.513643
 31
5.88
  0
LINE
  5
45EA6
100
AcDbEntity
  8
0
100
AcDbLine
 10
-0.186165
 20
5.473458
 30
5.88
 11
-0.171087
 21
5.498574
 31
5.88
  0
LINE
  5
45EA7
100
AcDbEntity
  8
0
100
AcDbLine
 10
-0.20124
 20
5.453367
 30
5.88
 11
-0.186165
 21
5.473458
 31
5.88
  0
LINE
  5
45EA8
100
AcDbEntity
  8
0
100
AcDbLine
 10
-0.20124
 20
5.372999
 30
5.88
 11
-0.206266
 21
5.398113
 31
5.88
  0
LINE
  5
45EA9
100
AcDbEntity
  8
0
100
AcDbLine
 10
-0.206266
 20
5.398113
 30
5.88
 11
-0.206266
 21
5.423227
 31
5.88
  0
LINE
  5
45EAA
100
AcDbEntity
  8
0
100
AcDbLine
 10
0.014858
 20
5.163412
 30
5.88
 11
0.024909
 21
5.138298
 31
5.88
  0
LINE
  5
45EAB
100
AcDbEntity
  8
0
100
AcDbLine
 10
0.024909
 20
5.083044
 30
5.88
 11
0.014858
 21
5.057928
 31
5.88
  0
LINE
  5
45EAC
100
AcDbEntity
  8
0
100
AcDbLine
 10
0.014858
 20
5.057928
 30
5.88
 11
-0.000218
 21
5.032814
 31
5.88
  0
LINE
  5
45EAD
100
AcDbEntity
  8
0
100
AcDbLine
 10
-0.000218
 20
5.032814
 30
5.88
 11
-0.02032
 21
5.017745
 31
5.88
  0
LINE
  5
45EAE
100
AcDbEntity
  8
0
100
AcDbLine
 10
-0.02032
 20
5.017745
 30
5.88
 11
-0.045448
 21
5.002676
 31
5.88
  0
LINE
  5
45EAF
100
AcDbEntity
  8
0
100
AcDbLine
 10
-0.045448
 20
5.002676
 30
5.88
 11
-0.070575
 21
4.992629
 31
5.88
  0
LINE
  5
45EB0
100
AcDbEntity
  8
0
100
AcDbLine
 10
-0.070575
 20
4.992629
 30
5.88
 11
-0.095703
 21
4.992629
 31
5.88
  0
LINE
  5
45EB1
100
AcDbEntity
  8
0
100
AcDbLine
 10
0.029935
 20
5.10816
 30
5.88
 11
0.024909
 21
5.083044
 31
5.88
  0
LINE
  5
45EB2
100
AcDbEntity
  8
0
100
AcDbLine
 10
0.024909
 20
5.138298
 30
5.88
 11
0.029935
 21
5.10816
 31
5.88
  0
LINE
  5
45EB3
100
AcDbEntity
  8
0
100
AcDbLine
 10
0.024909
 20
5.383044
 30
5.88
 11
0.014858
 21
5.357928
 31
5.88
  0
LINE
  5
45EB4
100
AcDbEntity
  8
0
100
AcDbLine
 10
-0.095703
 20
5.228712
 30
5.88
 11
-0.070575
 21
5.22369
 31
5.88
  0
LINE
  5
45EB5
100
AcDbEntity
  8
0
100
AcDbLine
 10
-0.070575
 20
5.22369
 30
5.88
 11
-0.040422
 21
5.218666
 31
5.88
  0
LINE
  5
45EB6
100
AcDbEntity
  8
0
100
AcDbLine
 10
-0.040422
 20
5.218666
 30
5.88
 11
-0.02032
 21
5.203597
 31
5.88
  0
LINE
  5
45EB7
100
AcDbEntity
  8
0
100
AcDbLine
 10
-0.02032
 20
5.203597
 30
5.88
 11
-0.000218
 21
5.183505
 31
5.88
  0
LINE
  5
45EB8
100
AcDbEntity
  8
0
100
AcDbLine
 10
-0.000218
 20
5.183505
 30
5.88
 11
0.014858
 21
5.163412
 31
5.88
  0
LINE
  5
45EB9
100
AcDbEntity
  8
0
100
AcDbLine
 10
-0.070575
 20
5.292629
 30
5.88
 11
-0.095703
 21
5.292629
 31
5.88
  0
LINE
  5
45EBA
100
AcDbEntity
  8
0
100
AcDbLine
 10
-0.045448
 20
5.302676
 30
5.88
 11
-0.070575
 21
5.292629
 31
5.88
  0
LINE
  5
45EBB
100
AcDbEntity
  8
0
100
AcDbLine
 10
-0.02032
 20
5.317745
 30
5.88
 11
-0.045448
 21
5.302676
 31
5.88
  0
LINE
  5
45EBC
100
AcDbEntity
  8
0
100
AcDbLine
 10
-0.000218
 20
5.332814
 30
5.88
 11
-0.02032
 21
5.317745
 31
5.88
  0
LINE
  5
45EBD
100
AcDbEntity
  8
0
100
AcDbLine
 10
0.014858
 20
5.357928
 30
5.88
 11
-0.000218
 21
5.332814
 31
5.88
  0
LINE
  5
45EBE
100
AcDbEntity
  8
0
100
AcDbLine
 10
0.014858
 20
5.463412
 30
5.88
 11
0.024909
 21
5.438298
 31
5.88
  0
LINE
  5
45EBF
100
AcDbEntity
  8
0
100
AcDbLine
 10
-0.000218
 20
5.483505
 30
5.88
 11
0.014858
 21
5.463412
 31
5.88
  0
LINE
  5
45EC0
100
AcDbEntity
  8
0
100
AcDbLine
 10
-0.02032
 20
5.503597
 30
5.88
 11
-0.000218
 21
5.483505
 31
5.88
  0
LINE
  5
45EC1
100
AcDbEntity
  8
0
100
AcDbLine
 10
-0.040422
 20
5.518666
 30
5.88
 11
-0.02032
 21
5.503597
 31
5.88
  0
LINE
  5
45EC2
100
AcDbEntity
  8
0
100
AcDbLine
 10
-0.070575
 20
5.52369
 30
5.88
 11
-0.040422
 21
5.518666
 31
5.88
  0
LINE
  5
45EC3
100
AcDbEntity
  8
0
100
AcDbLine
 10
-0.095703
 20
5.528712
 30
5.88
 11
-0.070575
 21
5.52369
 31
5.88
  0
LINE
  5
45EC4
100
AcDbEntity
  8
0
100
AcDbLine
 10
0.024909
 20
5.438298
 30
5.88
 11
0.029935
 21
5.40816
 31
5.88
  0
LINE
  5
45EC5
100
AcDbEntity
  8
0
100
AcDbLine
 10
0.029935
 20
5.40816
 30
5.88
 11
0.024909
 21
5.383044
 31
5.88
  0
LINE
  5
45EC6
100
AcDbEntity
  8
0
100
AcDbLine
 10
-0.095703
 20
6.192629
 30
5.88
 11
-0.125858
 21
6.197653
 31
5.88
  0
LINE
  5
45EC7
100
AcDbEntity
  8
0
100
AcDbLine
 10
-0.120832
 20
6.12369
 30
5.88
 11
-0.095703
 21
6.128712
 31
5.88
  0
LINE
  5
45EC8
100
AcDbEntity
  8
0
100
AcDbLine
 10
-0.095703
 20
5.892629
 30
5.88
 11
-0.125858
 21
5.897653
 31
5.88
  0
LINE
  5
45EC9
100
AcDbEntity
  8
0
100
AcDbLine
 10
-0.120832
 20
5.82369
 30
5.88
 11
-0.095703
 21
5.828712
 31
5.88
  0
LINE
  5
45ECA
100
AcDbEntity
  8
0
100
AcDbLine
 10
-0.095703
 20
5.592629
 30
5.88
 11
-0.125858
 21
5.597653
 31
5.88
  0
LINE
  5
45ECB
100
AcDbEntity
  8
0
100
AcDbLine
 10
-0.20124
 20
5.972999
 30
5.88
 11
-0.206266
 21
5.998113
 31
5.88
  0
LINE
  5
45ECC
100
AcDbEntity
  8
0
100
AcDbLine
 10
-0.186165
 20
5.773458
 30
5.88
 11
-0.171087
 21
5.798574
 31
5.88
  0
LINE
  5
45ECD
100
AcDbEntity
  8
0
100
AcDbLine
 10
-0.171087
 20
5.62779
 30
5.88
 11
-0.186165
 21
5.647883
 31
5.88
  0
LINE
  5
45ECE
100
AcDbEntity
  8
0
100
AcDbLine
 10
-0.20124
 20
5.753367
 30
5.88
 11
-0.186165
 21
5.773458
 31
5.88
  0
LINE
  5
45ECF
100
AcDbEntity
  8
0
100
AcDbLine
 10
-0.206266
 20
5.698113
 30
5.88
 11
-0.206266
 21
5.723227
 31
5.88
  0
LINE
  5
45ED0
100
AcDbEntity
  8
0
100
AcDbLine
 10
-0.20124
 20
5.672999
 30
5.88
 11
-0.206266
 21
5.698113
 31
5.88
  0
LINE
  5
45ED1
100
AcDbEntity
  8
0
100
AcDbLine
 10
-0.206266
 20
5.723227
 30
5.88
 11
-0.20124
 21
5.753367
 31
5.88
  0
LINE
  5
45ED2
100
AcDbEntity
  8
0
100
AcDbLine
 10
-0.186165
 20
5.647883
 30
5.88
 11
-0.20124
 21
5.672999
 31
5.88
  0
LINE
  5
45ED3
100
AcDbEntity
  8
0
100
AcDbLine
 10
-0.125858
 20
5.597653
 30
5.88
 11
-0.14596
 21
5.6077
 31
5.88
  0
LINE
  5
45ED4
100
AcDbEntity
  8
0
100
AcDbLine
 10
-0.14596
 20
5.6077
 30
5.88
 11
-0.171087
 21
5.62779
 31
5.88
  0
LINE
  5
45ED5
100
AcDbEntity
  8
0
100
AcDbLine
 10
-0.171087
 20
5.92779
 30
5.88
 11
-0.186165
 21
5.947883
 31
5.88
  0
LINE
  5
45ED6
100
AcDbEntity
  8
0
100
AcDbLine
 10
-0.125858
 20
5.897653
 30
5.88
 11
-0.14596
 21
5.9077
 31
5.88
  0
LINE
  5
45ED7
100
AcDbEntity
  8
0
100
AcDbLine
 10
-0.14596
 20
5.9077
 30
5.88
 11
-0.171087
 21
5.92779
 31
5.88
  0
LINE
  5
45ED8
100
AcDbEntity
  8
0
100
AcDbLine
 10
-0.186165
 20
5.947883
 30
5.88
 11
-0.20124
 21
5.972999
 31
5.88
  0
LINE
  5
45ED9
100
AcDbEntity
  8
0
100
AcDbLine
 10
-0.171087
 20
5.798574
 30
5.88
 11
-0.14596
 21
5.813643
 31
5.88
  0
LINE
  5
45EDA
100
AcDbEntity
  8
0
100
AcDbLine
 10
-0.14596
 20
5.813643
 30
5.88
 11
-0.120832
 21
5.82369
 31
5.88
  0
LINE
  5
45EDB
100
AcDbEntity
  8
0
100
AcDbLine
 10
-0.20124
 20
6.053367
 30
5.88
 11
-0.186165
 21
6.073458
 31
5.88
  0
LINE
  5
45EDC
100
AcDbEntity
  8
0
100
AcDbLine
 10
-0.186165
 20
6.073458
 30
5.88
 11
-0.171087
 21
6.098574
 31
5.88
  0
LINE
  5
45EDD
100
AcDbEntity
  8
0
100
AcDbLine
 10
-0.171087
 20
6.098574
 30
5.88
 11
-0.14596
 21
6.113643
 31
5.88
  0
LINE
  5
45EDE
100
AcDbEntity
  8
0
100
AcDbLine
 10
-0.14596
 20
6.113643
 30
5.88
 11
-0.120832
 21
6.12369
 31
5.88
  0
LINE
  5
45EDF
100
AcDbEntity
  8
0
100
AcDbLine
 10
-0.206266
 20
5.998113
 30
5.88
 11
-0.206266
 21
6.023227
 31
5.88
  0
LINE
  5
45EE0
100
AcDbEntity
  8
0
100
AcDbLine
 10
-0.206266
 20
6.023227
 30
5.88
 11
-0.20124
 21
6.053367
 31
5.88
  0
LINE
  5
45EE1
100
AcDbEntity
  8
0
100
AcDbLine
 10
-0.186165
 20
6.247883
 30
5.88
 11
-0.20124
 21
6.272999
 31
5.88
  0
LINE
  5
45EE2
100
AcDbEntity
  8
0
100
AcDbLine
 10
-0.206266
 20
6.323227
 30
5.88
 11
-0.20124
 21
6.353367
 31
5.88
  0
LINE
  5
45EE3
100
AcDbEntity
  8
0
100
AcDbLine
 10
-0.20124
 20
6.272999
 30
5.88
 11
-0.206266
 21
6.298113
 31
5.88
  0
LINE
  5
45EE4
100
AcDbEntity
  8
0
100
AcDbLine
 10
-0.206266
 20
6.298113
 30
5.88
 11
-0.206266
 21
6.323227
 31
5.88
  0
LINE
  5
45EE5
100
AcDbEntity
  8
0
100
AcDbLine
 10
-0.20124
 20
6.353367
 30
5.88
 11
-0.186165
 21
6.373458
 31
5.88
  0
LINE
  5
45EE6
100
AcDbEntity
  8
0
100
AcDbLine
 10
-0.14596
 20
6.2077
 30
5.88
 11
-0.171087
 21
6.22779
 31
5.88
  0
LINE
  5
45EE7
100
AcDbEntity
  8
0
100
AcDbLine
 10
-0.125858
 20
6.197653
 30
5.88
 11
-0.14596
 21
6.2077
 31
5.88
  0
LINE
  5
45EE8
100
AcDbEntity
  8
0
100
AcDbLine
 10
-0.171087
 20
6.22779
 30
5.88
 11
-0.186165
 21
6.247883
 31
5.88
  0
LINE
  5
45EE9
100
AcDbEntity
  8
0
100
AcDbLine
 10
0.029935
 20
6.00816
 30
5.88
 11
0.024909
 21
5.983044
 31
5.88
  0
LINE
  5
45EEA
100
AcDbEntity
  8
0
100
AcDbLine
 10
-0.000218
 20
5.783505
 30
5.88
 11
0.014858
 21
5.763412
 31
5.88
  0
LINE
  5
45EEB
100
AcDbEntity
  8
0
100
AcDbLine
 10
0.014858
 20
5.763412
 30
5.88
 11
0.024909
 21
5.738298
 31
5.88
  0
LINE
  5
45EEC
100
AcDbEntity
  8
0
100
AcDbLine
 10
0.024909
 20
5.683044
 30
5.88
 11
0.014858
 21
5.657928
 31
5.88
  0
LINE
  5
45EED
100
AcDbEntity
  8
0
100
AcDbLine
 10
0.014858
 20
5.657928
 30
5.88
 11
-0.000218
 21
5.632814
 31
5.88
  0
LINE
  5
45EEE
100
AcDbEntity
  8
0
100
AcDbLine
 10
-0.000218
 20
5.632814
 30
5.88
 11
-0.02032
 21
5.617745
 31
5.88
  0
LINE
  5
45EEF
100
AcDbEntity
  8
0
100
AcDbLine
 10
-0.045448
 20
5.602676
 30
5.88
 11
-0.070575
 21
5.592629
 31
5.88
  0
LINE
  5
45EF0
100
AcDbEntity
  8
0
100
AcDbLine
 10
-0.070575
 20
5.592629
 30
5.88
 11
-0.095703
 21
5.592629
 31
5.88
  0
LINE
  5
45EF1
100
AcDbEntity
  8
0
100
AcDbLine
 10
-0.02032
 20
5.617745
 30
5.88
 11
-0.045448
 21
5.602676
 31
5.88
  0
LINE
  5
45EF2
100
AcDbEntity
  8
0
100
AcDbLine
 10
0.029935
 20
5.70816
 30
5.88
 11
0.024909
 21
5.683044
 31
5.88
  0
LINE
  5
45EF3
100
AcDbEntity
  8
0
100
AcDbLine
 10
0.024909
 20
5.738298
 30
5.88
 11
0.029935
 21
5.70816
 31
5.88
  0
LINE
  5
45EF4
100
AcDbEntity
  8
0
100
AcDbLine
 10
0.024909
 20
5.983044
 30
5.88
 11
0.014858
 21
5.957928
 31
5.88
  0
LINE
  5
45EF5
100
AcDbEntity
  8
0
100
AcDbLine
 10
0.014858
 20
5.957928
 30
5.88
 11
-0.000218
 21
5.932814
 31
5.88
  0
LINE
  5
45EF6
100
AcDbEntity
  8
0
100
AcDbLine
 10
-0.000218
 20
5.932814
 30
5.88
 11
-0.02032
 21
5.917745
 31
5.88
  0
LINE
  5
45EF7
100
AcDbEntity
  8
0
100
AcDbLine
 10
-0.02032
 20
5.917745
 30
5.88
 11
-0.045448
 21
5.902676
 31
5.88
  0
LINE
  5
45EF8
100
AcDbEntity
  8
0
100
AcDbLine
 10
-0.045448
 20
5.902676
 30
5.88
 11
-0.070575
 21
5.892629
 31
5.88
  0
LINE
  5
45EF9
100
AcDbEntity
  8
0
100
AcDbLine
 10
-0.070575
 20
5.892629
 30
5.88
 11
-0.095703
 21
5.892629
 31
5.88
  0
LINE
  5
45EFA
100
AcDbEntity
  8
0
100
AcDbLine
 10
-0.095703
 20
5.828712
 30
5.88
 11
-0.070575
 21
5.82369
 31
5.88
  0
LINE
  5
45EFB
100
AcDbEntity
  8
0
100
AcDbLine
 10
-0.040422
 20
5.818666
 30
5.88
 11
-0.02032
 21
5.803597
 31
5.88
  0
LINE
  5
45EFC
100
AcDbEntity
  8
0
100
AcDbLine
 10
-0.02032
 20
5.803597
 30
5.88
 11
-0.000218
 21
5.783505
 31
5.88
  0
LINE
  5
45EFD
100
AcDbEntity
  8
0
100
AcDbLine
 10
-0.070575
 20
5.82369
 30
5.88
 11
-0.040422
 21
5.818666
 31
5.88
  0
LINE
  5
45EFE
100
AcDbEntity
  8
0
100
AcDbLine
 10
0.014858
 20
6.063412
 30
5.88
 11
0.024909
 21
6.038298
 31
5.88
  0
LINE
  5
45EFF
100
AcDbEntity
  8
0
100
AcDbLine
 10
-0.095703
 20
6.128712
 30
5.88
 11
-0.070575
 21
6.12369
 31
5.88
  0
LINE
  5
45F00
100
AcDbEntity
  8
0
100
AcDbLine
 10
-0.070575
 20
6.12369
 30
5.88
 11
-0.040422
 21
6.118666
 31
5.88
  0
LINE
  5
45F01
100
AcDbEntity
  8
0
100
AcDbLine
 10
-0.040422
 20
6.118666
 30
5.88
 11
-0.02032
 21
6.103597
 31
5.88
  0
LINE
  5
45F02
100
AcDbEntity
  8
0
100
AcDbLine
 10
-0.02032
 20
6.103597
 30
5.88
 11
-0.000218
 21
6.083505
 31
5.88
  0
LINE
  5
45F03
100
AcDbEntity
  8
0
100
AcDbLine
 10
-0.000218
 20
6.083505
 30
5.88
 11
0.014858
 21
6.063412
 31
5.88
  0
LINE
  5
45F04
100
AcDbEntity
  8
0
100
AcDbLine
 10
0.024909
 20
6.038298
 30
5.88
 11
0.029935
 21
6.00816
 31
5.88
  0
LINE
  5
45F05
100
AcDbEntity
  8
0
100
AcDbLine
 10
0.024909
 20
6.283044
 30
5.88
 11
0.014858
 21
6.257928
 31
5.88
  0
LINE
  5
45F06
100
AcDbEntity
  8
0
100
AcDbLine
 10
0.014858
 20
6.363412
 30
5.88
 11
0.024909
 21
6.338298
 31
5.88
  0
LINE
  5
45F07
100
AcDbEntity
  8
0
100
AcDbLine
 10
-0.000218
 20
6.383505
 30
5.88
 11
0.014858
 21
6.363412
 31
5.88
  0
LINE
  5
45F08
100
AcDbEntity
  8
0
100
AcDbLine
 10
-0.070575
 20
6.192629
 30
5.88
 11
-0.095703
 21
6.192629
 31
5.88
  0
LINE
  5
45F09
100
AcDbEntity
  8
0
100
AcDbLine
 10
-0.045448
 20
6.202676
 30
5.88
 11
-0.070575
 21
6.192629
 31
5.88
  0
LINE
  5
45F0A
100
AcDbEntity
  8
0
100
AcDbLine
 10
-0.02032
 20
6.217745
 30
5.88
 11
-0.045448
 21
6.202676
 31
5.88
  0
LINE
  5
45F0B
100
AcDbEntity
  8
0
100
AcDbLine
 10
-0.000218
 20
6.232814
 30
5.88
 11
-0.02032
 21
6.217745
 31
5.88
  0
LINE
  5
45F0C
100
AcDbEntity
  8
0
100
AcDbLine
 10
0.014858
 20
6.257928
 30
5.88
 11
-0.000218
 21
6.232814
 31
5.88
  0
LINE
  5
45F0D
100
AcDbEntity
  8
0
100
AcDbLine
 10
0.024909
 20
6.338298
 30
5.88
 11
0.029935
 21
6.30816
 31
5.88
  0
LINE
  5
45F0E
100
AcDbEntity
  8
0
100
AcDbLine
 10
0.029935
 20
6.30816
 30
5.88
 11
0.024909
 21
6.283044
 31
5.88
  0
LINE
  5
45F0F
100
AcDbEntity
  8
0
100
AcDbLine
 10
0.024909
 20
7.238298
 30
5.88
 11
0.029935
 21
7.20816
 31
5.88
  0
LINE
  5
45F10
100
AcDbEntity
  8
0
100
AcDbLine
 10
-0.206266
 20
7.223227
 30
5.88
 11
-0.20124
 21
7.253367
 31
5.88
  0
LINE
  5
45F11
100
AcDbEntity
  8
0
100
AcDbLine
 10
-0.120832
 20
6.42369
 30
5.88
 11
-0.095703
 21
6.428712
 31
5.88
  0
LINE
  5
45F12
100
AcDbEntity
  8
0
100
AcDbLine
 10
-0.095703
 20
6.792629
 30
5.88
 11
-0.125858
 21
6.797653
 31
5.88
  0
LINE
  5
45F13
100
AcDbEntity
  8
0
100
AcDbLine
 10
-0.120832
 20
7.02369
 30
5.88
 11
-0.095703
 21
7.028712
 31
5.88
  0
LINE
  5
45F14
100
AcDbEntity
  8
0
100
AcDbLine
 10
-0.120832
 20
6.72369
 30
5.88
 11
-0.095703
 21
6.728712
 31
5.88
  0
LINE
  5
45F15
100
AcDbEntity
  8
0
100
AcDbLine
 10
-0.095703
 20
6.492629
 30
5.88
 11
-0.125858
 21
6.497653
 31
5.88
  0
LINE
  5
45F16
100
AcDbEntity
  8
0
100
AcDbLine
 10
-0.095703
 20
7.092629
 30
5.88
 11
-0.125858
 21
7.097653
 31
5.88
  0
LINE
  5
45F17
100
AcDbEntity
  8
0
100
AcDbLine
 10
-0.14596
 20
6.8077
 30
5.88
 11
-0.171087
 21
6.82779
 31
5.88
  0
LINE
  5
45F18
100
AcDbEntity
  8
0
100
AcDbLine
 10
-0.206266
 20
6.598113
 30
5.88
 11
-0.206266
 21
6.623227
 31
5.88
  0
LINE
  5
45F19
100
AcDbEntity
  8
0
100
AcDbLine
 10
-0.14596
 20
6.413643
 30
5.88
 11
-0.120832
 21
6.42369
 31
5.88
  0
LINE
  5
45F1A
100
AcDbEntity
  8
0
100
AcDbLine
 10
-0.171087
 20
6.398574
 30
5.88
 11
-0.14596
 21
6.413643
 31
5.88
  0
LINE
  5
45F1B
100
AcDbEntity
  8
0
100
AcDbLine
 10
-0.171087
 20
6.52779
 30
5.88
 11
-0.186165
 21
6.547883
 31
5.88
  0
LINE
  5
45F1C
100
AcDbEntity
  8
0
100
AcDbLine
 10
-0.125858
 20
6.497653
 30
5.88
 11
-0.14596
 21
6.5077
 31
5.88
  0
LINE
  5
45F1D
100
AcDbEntity
  8
0
100
AcDbLine
 10
-0.14596
 20
6.5077
 30
5.88
 11
-0.171087
 21
6.52779
 31
5.88
  0
LINE
  5
45F1E
100
AcDbEntity
  8
0
100
AcDbLine
 10
-0.20124
 20
6.572999
 30
5.88
 11
-0.206266
 21
6.598113
 31
5.88
  0
LINE
  5
45F1F
100
AcDbEntity
  8
0
100
AcDbLine
 10
-0.186165
 20
6.547883
 30
5.88
 11
-0.20124
 21
6.572999
 31
5.88
  0
LINE
  5
45F20
100
AcDbEntity
  8
0
100
AcDbLine
 10
-0.125858
 20
6.797653
 30
5.88
 11
-0.14596
 21
6.8077
 31
5.88
  0
LINE
  5
45F21
100
AcDbEntity
  8
0
100
AcDbLine
 10
-0.20124
 20
6.653367
 30
5.88
 11
-0.186165
 21
6.673458
 31
5.88
  0
LINE
  5
45F22
100
AcDbEntity
  8
0
100
AcDbLine
 10
-0.186165
 20
6.673458
 30
5.88
 11
-0.171087
 21
6.698574
 31
5.88
  0
LINE
  5
45F23
100
AcDbEntity
  8
0
100
AcDbLine
 10
-0.171087
 20
6.698574
 30
5.88
 11
-0.14596
 21
6.713643
 31
5.88
  0
LINE
  5
45F24
100
AcDbEntity
  8
0
100
AcDbLine
 10
-0.14596
 20
6.713643
 30
5.88
 11
-0.120832
 21
6.72369
 31
5.88
  0
LINE
  5
45F25
100
AcDbEntity
  8
0
100
AcDbLine
 10
-0.206266
 20
6.623227
 30
5.88
 11
-0.20124
 21
6.653367
 31
5.88
  0
LINE
  5
45F26
100
AcDbEntity
  8
0
100
AcDbLine
 10
-0.14596
 20
7.013643
 30
5.88
 11
-0.120832
 21
7.02369
 31
5.88
  0
LINE
  5
45F27
100
AcDbEntity
  8
0
100
AcDbLine
 10
-0.186165
 20
6.847883
 30
5.88
 11
-0.20124
 21
6.872999
 31
5.88
  0
LINE
  5
45F28
100
AcDbEntity
  8
0
100
AcDbLine
 10
-0.206266
 20
6.923227
 30
5.88
 11
-0.20124
 21
6.953367
 31
5.88
  0
LINE
  5
45F29
100
AcDbEntity
  8
0
100
AcDbLine
 10
-0.20124
 20
6.872999
 30
5.88
 11
-0.206266
 21
6.898113
 31
5.88
  0
LINE
  5
45F2A
100
AcDbEntity
  8
0
100
AcDbLine
 10
-0.206266
 20
6.898113
 30
5.88
 11
-0.206266
 21
6.923227
 31
5.88
  0
LINE
  5
45F2B
100
AcDbEntity
  8
0
100
AcDbLine
 10
-0.171087
 20
6.998574
 30
5.88
 11
-0.14596
 21
7.013643
 31
5.88
  0
LINE
  5
45F2C
100
AcDbEntity
  8
0
100
AcDbLine
 10
-0.186165
 20
6.973458
 30
5.88
 11
-0.171087
 21
6.998574
 31
5.88
  0
LINE
  5
45F2D
100
AcDbEntity
  8
0
100
AcDbLine
 10
-0.20124
 20
6.953367
 30
5.88
 11
-0.186165
 21
6.973458
 31
5.88
  0
LINE
  5
45F2E
100
AcDbEntity
  8
0
100
AcDbLine
 10
-0.171087
 20
6.82779
 30
5.88
 11
-0.186165
 21
6.847883
 31
5.88
  0
LINE
  5
45F2F
100
AcDbEntity
  8
0
100
AcDbLine
 10
-0.186165
 20
7.147883
 30
5.88
 11
-0.20124
 21
7.172999
 31
5.88
  0
LINE
  5
45F30
100
AcDbEntity
  8
0
100
AcDbLine
 10
-0.20124
 20
7.172999
 30
5.88
 11
-0.206266
 21
7.198113
 31
5.88
  0
LINE
  5
45F31
100
AcDbEntity
  8
0
100
AcDbLine
 10
-0.206266
 20
7.198113
 30
5.88
 11
-0.206266
 21
7.223227
 31
5.88
  0
LINE
  5
45F32
100
AcDbEntity
  8
0
100
AcDbLine
 10
-0.14596
 20
7.1077
 30
5.88
 11
-0.171087
 21
7.12779
 31
5.88
  0
LINE
  5
45F33
100
AcDbEntity
  8
0
100
AcDbLine
 10
-0.125858
 20
7.097653
 30
5.88
 11
-0.14596
 21
7.1077
 31
5.88
  0
LINE
  5
45F34
100
AcDbEntity
  8
0
100
AcDbLine
 10
-0.171087
 20
7.12779
 30
5.88
 11
-0.186165
 21
7.147883
 31
5.88
  0
LINE
  5
45F35
100
AcDbEntity
  8
0
100
AcDbLine
 10
-0.02032
 20
6.817745
 30
5.88
 11
-0.045448
 21
6.802676
 31
5.88
  0
LINE
  5
45F36
100
AcDbEntity
  8
0
100
AcDbLine
 10
0.029935
 20
6.60816
 30
5.88
 11
0.024909
 21
6.583044
 31
5.88
  0
LINE
  5
45F37
100
AcDbEntity
  8
0
100
AcDbLine
 10
0.024909
 20
6.583044
 30
5.88
 11
0.014858
 21
6.557928
 31
5.88
  0
LINE
  5
45F38
100
AcDbEntity
  8
0
100
AcDbLine
 10
-0.040422
 20
6.418666
 30
5.88
 11
-0.02032
 21
6.403597
 31
5.88
  0
LINE
  5
45F39
100
AcDbEntity
  8
0
100
AcDbLine
 10
-0.070575
 20
6.42369
 30
5.88
 11
-0.040422
 21
6.418666
 31
5.88
  0
LINE
  5
45F3A
100
AcDbEntity
  8
0
100
AcDbLine
 10
-0.095703
 20
6.428712
 30
5.88
 11
-0.070575
 21
6.42369
 31
5.88
  0
LINE
  5
45F3B
100
AcDbEntity
  8
0
100
AcDbLine
 10
0.014858
 20
6.557928
 30
5.88
 11
-0.000218
 21
6.532814
 31
5.88
  0
LINE
  5
45F3C
100
AcDbEntity
  8
0
100
AcDbLine
 10
-0.000218
 20
6.532814
 30
5.88
 11
-0.02032
 21
6.517745
 31
5.88
  0
LINE
  5
45F3D
100
AcDbEntity
  8
0
100
AcDbLine
 10
-0.02032
 20
6.517745
 30
5.88
 11
-0.045448
 21
6.502676
 31
5.88
  0
LINE
  5
45F3E
100
AcDbEntity
  8
0
100
AcDbLine
 10
-0.045448
 20
6.502676
 30
5.88
 11
-0.070575
 21
6.492629
 31
5.88
  0
LINE
  5
45F3F
100
AcDbEntity
  8
0
100
AcDbLine
 10
-0.070575
 20
6.492629
 30
5.88
 11
-0.095703
 21
6.492629
 31
5.88
  0
LINE
  5
45F40
100
AcDbEntity
  8
0
100
AcDbLine
 10
0.014858
 20
6.663412
 30
5.88
 11
0.024909
 21
6.638298
 31
5.88
  0
LINE
  5
45F41
100
AcDbEntity
  8
0
100
AcDbLine
 10
-0.070575
 20
6.792629
 30
5.88
 11
-0.095703
 21
6.792629
 31
5.88
  0
LINE
  5
45F42
100
AcDbEntity
  8
0
100
AcDbLine
 10
-0.045448
 20
6.802676
 30
5.88
 11
-0.070575
 21
6.792629
 31
5.88
  0
LINE
  5
45F43
100
AcDbEntity
  8
0
100
AcDbLine
 10
-0.095703
 20
6.728712
 30
5.88
 11
-0.070575
 21
6.72369
 31
5.88
  0
LINE
  5
45F44
100
AcDbEntity
  8
0
100
AcDbLine
 10
-0.070575
 20
6.72369
 30
5.88
 11
-0.040422
 21
6.718666
 31
5.88
  0
LINE
  5
45F45
100
AcDbEntity
  8
0
100
AcDbLine
 10
-0.040422
 20
6.718666
 30
5.88
 11
-0.02032
 21
6.703597
 31
5.88
  0
LINE
  5
45F46
100
AcDbEntity
  8
0
100
AcDbLine
 10
-0.02032
 20
6.703597
 30
5.88
 11
-0.000218
 21
6.683505
 31
5.88
  0
LINE
  5
45F47
100
AcDbEntity
  8
0
100
AcDbLine
 10
-0.000218
 20
6.683505
 30
5.88
 11
0.014858
 21
6.663412
 31
5.88
  0
LINE
  5
45F48
100
AcDbEntity
  8
0
100
AcDbLine
 10
0.024909
 20
6.638298
 30
5.88
 11
0.029935
 21
6.60816
 31
5.88
  0
LINE
  5
45F49
100
AcDbEntity
  8
0
100
AcDbLine
 10
-0.070575
 20
7.02369
 30
5.88
 11
-0.040422
 21
7.018666
 31
5.88
  0
LINE
  5
45F4A
100
AcDbEntity
  8
0
100
AcDbLine
 10
0.024909
 20
6.883044
 30
5.88
 11
0.014858
 21
6.857928
 31
5.88
  0
LINE
  5
45F4B
100
AcDbEntity
  8
0
100
AcDbLine
 10
0.014858
 20
6.963412
 30
5.88
 11
0.024909
 21
6.938298
 31
5.88
  0
LINE
  5
45F4C
100
AcDbEntity
  8
0
100
AcDbLine
 10
-0.000218
 20
6.983505
 30
5.88
 11
0.014858
 21
6.963412
 31
5.88
  0
LINE
  5
45F4D
100
AcDbEntity
  8
0
100
AcDbLine
 10
-0.02032
 20
7.003597
 30
5.88
 11
-0.000218
 21
6.983505
 31
5.88
  0
LINE
  5
45F4E
100
AcDbEntity
  8
0
100
AcDbLine
 10
-0.040422
 20
7.018666
 30
5.88
 11
-0.02032
 21
7.003597
 31
5.88
  0
LINE
  5
45F4F
100
AcDbEntity
  8
0
100
AcDbLine
 10
-0.000218
 20
6.832814
 30
5.88
 11
-0.02032
 21
6.817745
 31
5.88
  0
LINE
  5
45F50
100
AcDbEntity
  8
0
100
AcDbLine
 10
0.014858
 20
6.857928
 30
5.88
 11
-0.000218
 21
6.832814
 31
5.88
  0
LINE
  5
45F51
100
AcDbEntity
  8
0
100
AcDbLine
 10
0.024909
 20
6.938298
 30
5.88
 11
0.029935
 21
6.90816
 31
5.88
  0
LINE
  5
45F52
100
AcDbEntity
  8
0
100
AcDbLine
 10
0.029935
 20
6.90816
 30
5.88
 11
0.024909
 21
6.883044
 31
5.88
  0
LINE
  5
45F53
100
AcDbEntity
  8
0
100
AcDbLine
 10
0.024909
 20
7.183044
 30
5.88
 11
0.014858
 21
7.157928
 31
5.88
  0
LINE
  5
45F54
100
AcDbEntity
  8
0
100
AcDbLine
 10
-0.095703
 20
7.028712
 30
5.88
 11
-0.070575
 21
7.02369
 31
5.88
  0
LINE
  5
45F55
100
AcDbEntity
  8
0
100
AcDbLine
 10
-0.070575
 20
7.092629
 30
5.88
 11
-0.095703
 21
7.092629
 31
5.88
  0
LINE
  5
45F56
100
AcDbEntity
  8
0
100
AcDbLine
 10
-0.045448
 20
7.102676
 30
5.88
 11
-0.070575
 21
7.092629
 31
5.88
  0
LINE
  5
45F57
100
AcDbEntity
  8
0
100
AcDbLine
 10
-0.02032
 20
7.117745
 30
5.88
 11
-0.045448
 21
7.102676
 31
5.88
  0
LINE
  5
45F58
100
AcDbEntity
  8
0
100
AcDbLine
 10
-0.000218
 20
7.132814
 30
5.88
 11
-0.02032
 21
7.117745
 31
5.88
  0
LINE
  5
45F59
100
AcDbEntity
  8
0
100
AcDbLine
 10
0.014858
 20
7.157928
 30
5.88
 11
-0.000218
 21
7.132814
 31
5.88
  0
LINE
  5
45F5A
100
AcDbEntity
  8
0
100
AcDbLine
 10
0.029935
 20
7.20816
 30
5.88
 11
0.024909
 21
7.183044
 31
5.88
  0
LINE
  5
45F5B
100
AcDbEntity
  8
0
100
AcDbLine
 10
-0.120832
 20
7.32369
 30
5.88
 11
-0.095703
 21
7.328712
 31
5.88
  0
TEXT
  5
45F5C
100
AcDbEntity
  8
0
100
AcDbText
 39
0.001
 10
-0.466967
 20
7.944051
 30
5.879973
 40
0.05
  1
AC  INPUT
 72
     1
 11
-0.258634
 21
7.944051
 31
5.879973
100
AcDbText
  0
LINE
  5
45F5D
100
AcDbEntity
  8
0
100
AcDbLine
 10
-0.095703
 20
7.392629
 30
5.88
 11
-0.125858
 21
7.397653
 31
5.88
  0
LINE
  5
45F5E
100
AcDbEntity
  8
0
100
AcDbLine
 10
-0.120832
 20
7.62369
 30
5.88
 11
-0.095703
 21
7.628712
 31
5.88
  0
LINE
  5
45F5F
100
AcDbEntity
  8
0
100
AcDbLine
 10
-0.171087
 20
7.42779
 30
5.88
 11
-0.186165
 21
7.447883
 31
5.88
  0
LINE
  5
45F60
100
AcDbEntity
  8
0
100
AcDbLine
 10
-0.14596
 20
7.313643
 30
5.88
 11
-0.120832
 21
7.32369
 31
5.88
  0
LINE
  5
45F61
100
AcDbEntity
  8
0
100
AcDbLine
 10
-0.171087
 20
7.298574
 30
5.88
 11
-0.14596
 21
7.313643
 31
5.88
  0
LINE
  5
45F62
100
AcDbEntity
  8
0
100
AcDbLine
 10
-0.186165
 20
7.273458
 30
5.88
 11
-0.171087
 21
7.298574
 31
5.88
  0
LINE
  5
45F63
100
AcDbEntity
  8
0
100
AcDbLine
 10
-0.20124
 20
7.253367
 30
5.88
 11
-0.186165
 21
7.273458
 31
5.88
  0
LINE
  5
45F64
100
AcDbEntity
  8
0
100
AcDbLine
 10
-0.14596
 20
7.4077
 30
5.88
 11
-0.171087
 21
7.42779
 31
5.88
  0
LINE
  5
45F65
100
AcDbEntity
  8
0
100
AcDbLine
 10
-0.125858
 20
7.397653
 30
5.88
 11
-0.14596
 21
7.4077
 31
5.88
  0
LINE
  5
45F66
100
AcDbEntity
  8
0
100
AcDbLine
 10
-0.20124
 20
7.472999
 30
5.88
 11
-0.206266
 21
7.498113
 31
5.88
  0
LINE
  5
45F67
100
AcDbEntity
  8
0
100
AcDbLine
 10
-0.186165
 20
7.447883
 30
5.88
 11
-0.20124
 21
7.472999
 31
5.88
  0
LINE
  5
45F68
100
AcDbEntity
  8
0
100
AcDbLine
 10
-0.14596
 20
7.613643
 30
5.88
 11
-0.120832
 21
7.62369
 31
5.88
  0
LINE
  5
45F69
100
AcDbEntity
  8
0
100
AcDbLine
 10
-0.171087
 20
7.598574
 30
5.88
 11
-0.14596
 21
7.613643
 31
5.88
  0
LINE
  5
45F6A
100
AcDbEntity
  8
0
100
AcDbLine
 10
-0.186165
 20
7.573458
 30
5.88
 11
-0.171087
 21
7.598574
 31
5.88
  0
LINE
  5
45F6B
100
AcDbEntity
  8
0
100
AcDbLine
 10
-0.20124
 20
7.553367
 30
5.88
 11
-0.186165
 21
7.573458
 31
5.88
  0
LINE
  5
45F6C
100
AcDbEntity
  8
0
100
AcDbLine
 10
-0.206266
 20
7.523227
 30
5.88
 11
-0.20124
 21
7.553367
 31
5.88
  0
LINE
  5
45F6D
100
AcDbEntity
  8
0
100
AcDbLine
 10
-0.206266
 20
7.498113
 30
5.88
 11
-0.206266
 21
7.523227
 31
5.88
  0
TEXT
  5
45F6E
100
AcDbEntity
  8
0
100
AcDbText
 39
0.001
 10
-0.346134
 20
7.825051
 30
5.879973
 40
0.05
  1
120V
 72
     1
 11
-0.258634
 21
7.825051
 31
5.879973
100
AcDbText
  0
LINE
  5
45F6F
100
AcDbEntity
  8
0
100
AcDbLine
 10
0.014858
 20
7.457928
 30
5.88
 11
-0.000218
 21
7.432814
 31
5.88
  0
LINE
  5
45F70
100
AcDbEntity
  8
0
100
AcDbLine
 10
0.014858
 20
7.263412
 30
5.88
 11
0.024909
 21
7.238298
 31
5.88
  0
LINE
  5
45F71
100
AcDbEntity
  8
0
100
AcDbLine
 10
-0.000218
 20
7.283505
 30
5.88
 11
0.014858
 21
7.263412
 31
5.88
  0
LINE
  5
45F72
100
AcDbEntity
  8
0
100
AcDbLine
 10
-0.02032
 20
7.303597
 30
5.88
 11
-0.000218
 21
7.283505
 31
5.88
  0
LINE
  5
45F73
100
AcDbEntity
  8
0
100
AcDbLine
 10
-0.040422
 20
7.318666
 30
5.88
 11
-0.02032
 21
7.303597
 31
5.88
  0
LINE
  5
45F74
100
AcDbEntity
  8
0
100
AcDbLine
 10
-0.070575
 20
7.32369
 30
5.88
 11
-0.040422
 21
7.318666
 31
5.88
  0
LINE
  5
45F75
100
AcDbEntity
  8
0
100
AcDbLine
 10
-0.095703
 20
7.328712
 30
5.88
 11
-0.070575
 21
7.32369
 31
5.88
  0
LINE
  5
45F76
100
AcDbEntity
  8
0
100
AcDbLine
 10
-0.070575
 20
7.392629
 30
5.88
 11
-0.095703
 21
7.392629
 31
5.88
  0
LINE
  5
45F77
100
AcDbEntity
  8
0
100
AcDbLine
 10
-0.045448
 20
7.402676
 30
5.88
 11
-0.070575
 21
7.392629
 31
5.88
  0
LINE
  5
45F78
100
AcDbEntity
  8
0
100
AcDbLine
 10
-0.02032
 20
7.417745
 30
5.88
 11
-0.045448
 21
7.402676
 31
5.88
  0
LINE
  5
45F79
100
AcDbEntity
  8
0
100
AcDbLine
 10
-0.000218
 20
7.432814
 30
5.88
 11
-0.02032
 21
7.417745
 31
5.88
  0
LINE
  5
45F7A
100
AcDbEntity
  8
0
100
AcDbLine
 10
0.024909
 20
7.483044
 30
5.88
 11
0.014858
 21
7.457928
 31
5.88
  0
LINE
  5
45F7B
100
AcDbEntity
  8
0
100
AcDbLine
 10
0.014858
 20
7.563412
 30
5.88
 11
0.024909
 21
7.538298
 31
5.88
  0
LINE
  5
45F7C
100
AcDbEntity
  8
0
100
AcDbLine
 10
-0.000218
 20
7.583505
 30
5.88
 11
0.014858
 21
7.563412
 31
5.88
  0
LINE
  5
45F7D
100
AcDbEntity
  8
0
100
AcDbLine
 10
-0.02032
 20
7.603597
 30
5.88
 11
-0.000218
 21
7.583505
 31
5.88
  0
LINE
  5
45F7E
100
AcDbEntity
  8
0
100
AcDbLine
 10
-0.040422
 20
7.618666
 30
5.88
 11
-0.02032
 21
7.603597
 31
5.88
  0
LINE
  5
45F7F
100
AcDbEntity
  8
0
100
AcDbLine
 10
-0.070575
 20
7.62369
 30
5.88
 11
-0.040422
 21
7.618666
 31
5.88
  0
LINE
  5
45F80
100
AcDbEntity
  8
0
100
AcDbLine
 10
-0.095703
 20
7.628712
 30
5.88
 11
-0.070575
 21
7.62369
 31
5.88
  0
LINE
  5
45F81
100
AcDbEntity
  8
0
100
AcDbLine
 10
0.029935
 20
7.50816
 30
5.88
 11
0.024909
 21
7.483044
 31
5.88
  0
LINE
  5
45F82
100
AcDbEntity
  8
0
100
AcDbLine
 10
0.024909
 20
7.538298
 30
5.88
 11
0.029935
 21
7.50816
 31
5.88
  0
LINE
  5
45F83
100
AcDbEntity
  8
0
100
AcDbLine
 10
-0.693747
 20
8.119875
 30
5.88
 11
0.085215
 21
8.119875
 31
5.88
  0
POLYLINE
  5
45F84
100
AcDbEntity
  8
0
100
AcDbPolygonMesh
 66
     1
 10
0.0
 20
0.0
 30
0.0
 70
    16
 71
     6
 72
     3
  0
VERTEX
  5
45F85
100
AcDbEntity
  8
0
100
AcDbVertex
100
AcDbPolygonMeshVertex
 10
0.265
 20
8.5811
 30
5.837
 70
    64
  0
VERTEX
  5
45F86
100
AcDbEntity
  8
0
100
AcDbVertex
100
AcDbPolygonMeshVertex
 10
0.265
 20
8.5811
 30
5.747
 70
    64
  0
VERTEX
  5
45F87
100
AcDbEntity
  8
0
100
AcDbVertex
100
AcDbPolygonMeshVertex
 10
0.265
 20
8.5811
 30
5.747
 70
    64
  0
VERTEX
  5
45F88
100
AcDbEntity
  8
0
100
AcDbVertex
100
AcDbPolygonMeshVertex
 10
-0.197
 20
8.5811
 30
5.837
 70
    64
  0
VERTEX
  5
45F89
100
AcDbEntity
  8
0
100
AcDbVertex
100
AcDbPolygonMeshVertex
 10
-0.197
 20
8.5811
 30
5.747
 70
    64
  0
VERTEX
  5
45F8A
100
AcDbEntity
  8
0
100
AcDbVertex
100
AcDbPolygonMeshVertex
 10
-0.197
 20
8.5811
 30
5.747
 70
    64
  0
VERTEX
  5
45F8B
100
AcDbEntity
  8
0
100
AcDbVertex
100
AcDbPolygonMeshVertex
 10
-0.197
 20
10.0432
 30
5.837
 70
    64
  0
VERTEX
  5
45F8C
100
AcDbEntity
  8
0
100
AcDbVertex
100
AcDbPolygonMeshVertex
 10
-0.197
 20
10.0432
 30
5.747
 70
    64
  0
VERTEX
  5
45F8D
100
AcDbEntity
  8
0
100
AcDbVertex
100
AcDbPolygonMeshVertex
 10
-0.197
 20
8.5811
 30
5.747
 70
    64
  0
VERTEX
  5
45F8E
100
AcDbEntity
  8
0
100
AcDbVertex
100
AcDbPolygonMeshVertex
 10
0.265
 20
10.0432
 30
5.837
 70
    64
  0
VERTEX
  5
45F8F
100
AcDbEntity
  8
0
100
AcDbVertex
100
AcDbPolygonMeshVertex
 10
0.265
 20
10.0432
 30
5.747
 70
    64
  0
VERTEX
  5
45F90
100
AcDbEntity
  8
0
100
AcDbVertex
100
AcDbPolygonMeshVertex
 10
0.265
 20
8.5811
 30
5.747
 70
    64
  0
VERTEX
  5
45F91
100
AcDbEntity
  8
0
100
AcDbVertex
100
AcDbPolygonMeshVertex
 10
0.265
 20
10.0432
 30
5.837
 70
    64
  0
VERTEX
  5
45F92
100
AcDbEntity
  8
0
100
AcDbVertex
100
AcDbPolygonMeshVertex
 10
0.265
 20
10.0432
 30
5.837
 70
    64
  0
VERTEX
  5
45F93
100
AcDbEntity
  8
0
100
AcDbVertex
100
AcDbPolygonMeshVertex
 10
0.265
 20
8.5811
 30
5.837
 70
    64
  0
VERTEX
  5
45F94
100
AcDbEntity
  8
0
100
AcDbVertex
100
AcDbPolygonMeshVertex
 10
-0.197
 20
10.0432
 30
5.837
 70
    64
  0
VERTEX
  5
45F95
100
AcDbEntity
  8
0
100
AcDbVertex
100
AcDbPolygonMeshVertex
 10
-0.197
 20
10.0432
 30
5.837
 70
    64
  0
VERTEX
  5
45F96
100
AcDbEntity
  8
0
100
AcDbVertex
100
AcDbPolygonMeshVertex
 10
-0.197
 20
8.5811
 30
5.837
 70
    64
  0
SEQEND
  5
45F97
100
AcDbEntity
  8
0
  0
POLYLINE
  5
45F98
100
AcDbEntity
  8
0
100
AcDbPolygonMesh
 66
     1
 10
0.0
 20
0.0
 30
0.0
 70
    16
 71
     6
 72
     3
  0
VERTEX
  5
45F99
100
AcDbEntity
  8
0
100
AcDbVertex
100
AcDbPolygonMeshVertex
 10
0.068
 20
8.162
 30
5.747
 70
    64
  0
VERTEX
  5
45F9A
100
AcDbEntity
  8
0
100
AcDbVertex
100
AcDbPolygonMeshVertex
 10
0.068
 20
8.162
 30
5.39
 70
    64
  0
VERTEX
  5
45F9B
100
AcDbEntity
  8
0
100
AcDbVertex
100
AcDbPolygonMeshVertex
 10
0.068
 20
8.162
 30
5.39
 70
    64
  0
VERTEX
  5
45F9C
100
AcDbEntity
  8
0
100
AcDbVertex
100
AcDbPolygonMeshVertex
 10
0.0
 20
8.162
 30
5.747
 70
    64
  0
VERTEX
  5
45F9D
100
AcDbEntity
  8
0
100
AcDbVertex
100
AcDbPolygonMeshVertex
 10
0.0
 20
8.162
 30
5.39
 70
    64
  0
VERTEX
  5
45F9E
100
AcDbEntity
  8
0
100
AcDbVertex
100
AcDbPolygonMeshVertex
 10
0.0
 20
8.162
 30
5.39
 70
    64
  0
VERTEX
  5
45F9F
100
AcDbEntity
  8
0
100
AcDbVertex
100
AcDbPolygonMeshVertex
 10
0.0
 20
9.6931
 30
5.747
 70
    64
  0
VERTEX
  5
45FA0
100
AcDbEntity
  8
0
100
AcDbVertex
100
AcDbPolygonMeshVertex
 10
0.0
 20
9.6931
 30
5.39
 70
    64
  0
VERTEX
  5
45FA1
100
AcDbEntity
  8
0
100
AcDbVertex
100
AcDbPolygonMeshVertex
 10
0.0
 20
8.162
 30
5.39
 70
    64
  0
VERTEX
  5
45FA2
100
AcDbEntity
  8
0
100
AcDbVertex
100
AcDbPolygonMeshVertex
 10
0.068
 20
9.6931
 30
5.747
 70
    64
  0
VERTEX
  5
45FA3
100
AcDbEntity
  8
0
100
AcDbVertex
100
AcDbPolygonMeshVertex
 10
0.068
 20
9.6931
 30
5.39
 70
    64
  0
VERTEX
  5
45FA4
100
AcDbEntity
  8
0
100
AcDbVertex
100
AcDbPolygonMeshVertex
 10
0.068
 20
8.162
 30
5.39
 70
    64
  0
VERTEX
  5
45FA5
100
AcDbEntity
  8
0
100
AcDbVertex
100
AcDbPolygonMeshVertex
 10
0.068
 20
9.6931
 30
5.747
 70
    64
  0
VERTEX
  5
45FA6
100
AcDbEntity
  8
0
100
AcDbVertex
100
AcDbPolygonMeshVertex
 10
0.068
 20
9.6931
 30
5.747
 70
    64
  0
VERTEX
  5
45FA7
100
AcDbEntity
  8
0
100
AcDbVertex
100
AcDbPolygonMeshVertex
 10
0.068
 20
8.162
 30
5.747
 70
    64
  0
VERTEX
  5
45FA8
100
AcDbEntity
  8
0
100
AcDbVertex
100
AcDbPolygonMeshVertex
 10
0.0
 20
9.6931
 30
5.747
 70
    64
  0
VERTEX
  5
45FA9
100
AcDbEntity
  8
0
100
AcDbVertex
100
AcDbPolygonMeshVertex
 10
0.0
 20
9.6931
 30
5.747
 70
    64
  0
VERTEX
  5
45FAA
100
AcDbEntity
  8
0
100
AcDbVertex
100
AcDbPolygonMeshVertex
 10
0.0
 20
8.162
 30
5.747
 70
    64
  0
SEQEND
  5
45FAB
100
AcDbEntity
  8
0
  0
POLYLINE
  5
45FAC
100
AcDbEntity
  8
0
100
AcDbPolygonMesh
 66
     1
 10
0.0
 20
0.0
 30
0.0
 70
    16
 71
     6
 72
     3
  0
VERTEX
  5
45FAD
100
AcDbEntity
  8
0
100
AcDbVertex
100
AcDbPolygonMeshVertex
 10
0.136
 20
8.5811
 30
5.747
 70
    64
  0
VERTEX
  5
45FAE
100
AcDbEntity
  8
0
100
AcDbVertex
100
AcDbPolygonMeshVertex
 10
0.136
 20
8.5811
 30
5.747
 70
    64
  0
VERTEX
  5
45FAF
100
AcDbEntity
  8
0
100
AcDbVertex
100
AcDbPolygonMeshVertex
 10
0.136
 20
8.5811
 30
5.747
 70
    64
  0
VERTEX
  5
45FB0
100
AcDbEntity
  8
0
100
AcDbVertex
100
AcDbPolygonMeshVertex
 10
0.136
 20
9.6931
 30
5.437
 70
    64
  0
VERTEX
  5
45FB1
100
AcDbEntity
  8
0
100
AcDbVertex
100
AcDbPolygonMeshVertex
 10
0.136
 20
9.6931
 30
5.747
 70
    64
  0
VERTEX
  5
45FB2
100
AcDbEntity
  8
0
100
AcDbVertex
100
AcDbPolygonMeshVertex
 10
0.136
 20
9.6931
 30
5.747
 70
    64
  0
VERTEX
  5
45FB3
100
AcDbEntity
  8
0
100
AcDbVertex
100
AcDbPolygonMeshVertex
 10
0.068
 20
9.6931
 30
5.437
 70
    64
  0
VERTEX
  5
45FB4
100
AcDbEntity
  8
0
100
AcDbVertex
100
AcDbPolygonMeshVertex
 10
0.068
 20
9.6931
 30
5.747
 70
    64
  0
VERTEX
  5
45FB5
100
AcDbEntity
  8
0
100
AcDbVertex
100
AcDbPolygonMeshVertex
 10
0.136
 20
9.6931
 30
5.747
 70
    64
  0
VERTEX
  5
45FB6
100
AcDbEntity
  8
0
100
AcDbVertex
100
AcDbPolygonMeshVertex
 10
0.068
 20
8.5811
 30
5.747
 70
    64
  0
VERTEX
  5
45FB7
100
AcDbEntity
  8
0
100
AcDbVertex
100
AcDbPolygonMeshVertex
 10
0.068
 20
8.5811
 30
5.747
 70
    64
  0
VERTEX
  5
45FB8
100
AcDbEntity
  8
0
100
AcDbVertex
100
AcDbPolygonMeshVertex
 10
0.136
 20
8.5811
 30
5.747
 70
    64
  0
VERTEX
  5
45FB9
100
AcDbEntity
  8
0
100
AcDbVertex
100
AcDbPolygonMeshVertex
 10
0.068
 20
8.5811
 30
5.747
 70
    64
  0
VERTEX
  5
45FBA
100
AcDbEntity
  8
0
100
AcDbVertex
100
AcDbPolygonMeshVertex
 10
0.068
 20
8.5811
 30
5.747
 70
    64
  0
VERTEX
  5
45FBB
100
AcDbEntity
  8
0
100
AcDbVertex
100
AcDbPolygonMeshVertex
 10
0.136
 20
8.5811
 30
5.747
 70
    64
  0
VERTEX
  5
45FBC
100
AcDbEntity
  8
0
100
AcDbVertex
100
AcDbPolygonMeshVertex
 10
0.068
 20
9.6931
 30
5.437
 70
    64
  0
VERTEX
  5
45FBD
100
AcDbEntity
  8
0
100
AcDbVertex
100
AcDbPolygonMeshVertex
 10
0.068
 20
9.6931
 30
5.437
 70
    64
  0
VERTEX
  5
45FBE
100
AcDbEntity
  8
0
100
AcDbVertex
100
AcDbPolygonMeshVertex
 10
0.136
 20
9.6931
 30
5.437
 70
    64
  0
SEQEND
  5
45FBF
100
AcDbEntity
  8
0
  0
POLYLINE
  5
45FC0
100
AcDbEntity
  8
0
100
AcDbPolygonMesh
 66
     1
 10
0.0
 20
0.0
 30
0.0
 70
    16
 71
     6
 72
     3
  0
VERTEX
  5
45FC1
100
AcDbEntity
  8
0
100
AcDbVertex
100
AcDbPolygonMeshVertex
 10
0.0
 20
8.5811
 30
5.747
 70
    64
  0
VERTEX
  5
45FC2
100
AcDbEntity
  8
0
100
AcDbVertex
100
AcDbPolygonMeshVertex
 10
0.0
 20
8.5811
 30
5.747
 70
    64
  0
VERTEX
  5
45FC3
100
AcDbEntity
  8
0
100
AcDbVertex
100
AcDbPolygonMeshVertex
 10
0.0
 20
8.5811
 30
5.747
 70
    64
  0
VERTEX
  5
45FC4
100
AcDbEntity
  8
0
100
AcDbVertex
100
AcDbPolygonMeshVertex
 10
0.0
 20
9.6931
 30
5.437
 70
    64
  0
VERTEX
  5
45FC5
100
AcDbEntity
  8
0
100
AcDbVertex
100
AcDbPolygonMeshVertex
 10
0.0
 20
9.6931
 30
5.747
 70
    64
  0
VERTEX
  5
45FC6
100
AcDbEntity
  8
0
100
AcDbVertex
100
AcDbPolygonMeshVertex
 10
0.0
 20
9.6931
 30
5.747
 70
    64
  0
VERTEX
  5
45FC7
100
AcDbEntity
  8
0
100
AcDbVertex
100
AcDbPolygonMeshVertex
 10
-0.068
 20
9.6931
 30
5.437
 70
    64
  0
VERTEX
  5
45FC8
100
AcDbEntity
  8
0
100
AcDbVertex
100
AcDbPolygonMeshVertex
 10
-0.068
 20
9.6931
 30
5.747
 70
    64
  0
VERTEX
  5
45FC9
100
AcDbEntity
  8
0
100
AcDbVertex
100
AcDbPolygonMeshVertex
 10
0.0
 20
9.6931
 30
5.747
 70
    64
  0
VERTEX
  5
45FCA
100
AcDbEntity
  8
0
100
AcDbVertex
100
AcDbPolygonMeshVertex
 10
-0.068
 20
8.5811
 30
5.747
 70
    64
  0
VERTEX
  5
45FCB
100
AcDbEntity
  8
0
100
AcDbVertex
100
AcDbPolygonMeshVertex
 10
-0.068
 20
8.5811
 30
5.747
 70
    64
  0
VERTEX
  5
45FCC
100
AcDbEntity
  8
0
100
AcDbVertex
100
AcDbPolygonMeshVertex
 10
0.0
 20
8.5811
 30
5.747
 70
    64
  0
VERTEX
  5
45FCD
100
AcDbEntity
  8
0
100
AcDbVertex
100
AcDbPolygonMeshVertex
 10
-0.068
 20
8.5811
 30
5.747
 70
    64
  0
VERTEX
  5
45FCE
100
AcDbEntity
  8
0
100
AcDbVertex
100
AcDbPolygonMeshVertex
 10
-0.068
 20
8.5811
 30
5.747
 70
    64
  0
VERTEX
  5
45FCF
100
AcDbEntity
  8
0
100
AcDbVertex
100
AcDbPolygonMeshVertex
 10
0.0
 20
8.5811
 30
5.747
 70
    64
  0
VERTEX
  5
45FD0
100
AcDbEntity
  8
0
100
AcDbVertex
100
AcDbPolygonMeshVertex
 10
-0.068
 20
9.6931
 30
5.437
 70
    64
  0
VERTEX
  5
45FD1
100
AcDbEntity
  8
0
100
AcDbVertex
100
AcDbPolygonMeshVertex
 10
-0.068
 20
9.6931
 30
5.437
 70
    64
  0
VERTEX
  5
45FD2
100
AcDbEntity
  8
0
100
AcDbVertex
100
AcDbPolygonMeshVertex
 10
0.0
 20
9.6931
 30
5.437
 70
    64
  0
SEQEND
  5
45FD3
100
AcDbEntity
  8
0
  0
CIRCLE
  5
45FD4
100
AcDbEntity
  8
0
100
AcDbCircle
 10
9.586379
 20
5.592
 30
0.136
 40
0.05206
210
1.0
220
0.0
230
0.0
  0
CIRCLE
  5
45FD5
100
AcDbEntity
  8
0
100
AcDbCircle
 10
9.586379
 20
5.592
 30
-0.068
 40
0.05206
210
1.0
220
0.0
230
0.0
  0
LINE
  5
45FD6
100
AcDbEntity
  8
0
100
AcDbLine
 10
-1.020408
 20
-0.562545
 30
5.88
 11
-0.226368
 21
-0.562545
 31
5.88
  0
LINE
  5
45FD7
100
AcDbEntity
  8
0
100
AcDbLine
 10
-0.94
 20
-0.562545
 30
5.88
 11
-0.94
 21
0.235022
 31
5.88
  0
LINE
  5
45FD8
100
AcDbEntity
  8
0
100
AcDbLine
 10
-1.025435
 20
0.31539
 30
5.88
 11
-1.025435
 21
-0.562545
 31
5.88
  0
LINE
  5
45FD9
100
AcDbEntity
  8
0
100
AcDbLine
 10
-0.311803
 20
0.516311
 30
5.88
 11
-0.311803
 21
-0.562545
 31
5.88
  0
LINE
  5
45FDA
100
AcDbEntity
  8
0
100
AcDbLine
 10
-0.226368
 20
0.375667
 30
5.88
 11
-0.226368
 21
-0.562545
 31
5.88
  0
DIMENSION
  5
45FDC
100
AcDbEntity
  8
AREA1
100
AcDbDimension
  2
*D0
 10
1.290548
 20
10.0432
 30
0.0
 11
1.290548
 21
4.740327
 31
0.0
 70
    32
  3
ABECAD_3D
100
AcDbAlignedDimension
 13
-0.226368
 23
-0.562545
 33
5.88
 14
0.265
 24
10.0432
 34
5.747
 50
90.0
100
AcDbRotatedDimension
  0
DIMENSION
  5
45FEA
100
AcDbEntity
  8
AREA1
100
AcDbDimension
  2
*D1
 10
0.265
 20
10.888456
 30
0.0
 11
1.585
 21
10.888456
 31
0.0
 70
    32
  3
ABECAD_3D
100
AcDbAlignedDimension
 13
-1.025435
 23
0.31539
 33
5.88
 14
0.265
 24
10.0432
 34
5.747
100
AcDbRotatedDimension
  0
INSERT
  5
46041
100
AcDbEntity
  8
SCALE
100
AcDbBlockReference
  2
SCALE
 10
-1.072526
 20
-0.741421
 30
0.0
  0
ENDSEC
  0
SECTION
  2
OBJECTS
  0
DICTIONARY
  5
458CB
100
AcDbDictionary
  3
ACAD_GROUP
350
458CC
  3
ACAD_LAYOUT
350
458FB
  3
ACAD_MLINESTYLE
350
458D9
  3
ACAD_PLOTSETTINGS
350
458FC
  3
ACAD_PLOTSTYLENAME
350
458F9
  3
ACDBHEADERROUNDTRIPXREC
350
460E9
  3
ACDBVARIABLEDICTIONARY
350
458E1
  3
DWGPROPS
350
45901
  0
DICTIONARY
  5
460E7
100
AcDbDictionary
280
     1
  3
ACAD_XREC_ROUNDTRIP
360
460E8
  0
DICTIONARY
  5
46112
100
AcDbDictionary
280
     1
  3
ACAD_XREC_ROUNDTRIP
360
46113
  0
DICTIONARY
  5
460E5
100
AcDbDictionary
280
     1
  3
ACAD_XREC_ROUNDTRIP
360
460E6
  0
DICTIONARY
  5
4610C
100
AcDbDictionary
280
     1
  3
ACAD_XREC_ROUNDTRIP
360
4610D
  0
DICTIONARY
  5
4610E
100
AcDbDictionary
280
     1
  3
ACAD_XREC_ROUNDTRIP
360
4610F
  0
DICTIONARY
  5
4592C
100
AcDbDictionary
280
     1
  3
ACAD_LAYOUTSELFREF
360
4610B
  0
DICTIONARY
  5
4592A
100
AcDbDictionary
280
     1
  3
ACAD_LAYOUTSELFREF
360
4610A
  0
DICTIONARY
  5
460E3
100
AcDbDictionary
280
     1
  3
ACAD_XREC_ROUNDTRIP
360
460E4
  0
DICTIONARY
  5
458CC
102
{ACAD_REACTORS
330
458CB
102
}
100
AcDbDictionary
  0
DICTIONARY
  5
458FB
102
{ACAD_XDICTIONARY
360
46110
102
}
102
{ACAD_REACTORS
330
458CB
102
}
100
AcDbDictionary
  3
LAYOUT1
350
458FE
  3
MODEL
350
458FD
  0
DICTIONARY
  5
458D9
102
{ACAD_REACTORS
330
458CB
102
}
100
AcDbDictionary
  3
STANDARD
350
458DA
  0
DICTIONARY
  5
458FC
102
{ACAD_REACTORS
330
458CB
102
}
100
AcDbDictionary
  0
ACAD_PROXY_OBJECT
  5
458F9
102
{ACAD_REACTORS
330
458CB
102
}
100
AcDbProxyObject
 90
      499
 91
      501
 93
       86
310
405010041939BDC9B585B0
350
458FA
340
458FA
 94
        0
  0
DICTIONARY
  5
460E9
102
{ACAD_REACTORS
330
458CB
102
}
100
AcDbDictionary
  3
CEPSNTYPE
350
460F3
  3
DIMSTYLEDATA
350
460F7
  3
FINGERPRINTGUID
350
460F4
  3
HYPERLINKBASE
350
460EC
  3
INSUNITS
350
460F2
  3
LAYOUTDICT
350
460EE
  3
LWETCUNION
350
460F1
  3
PLOTSETDICT
350
460EF
  3
PLOTSTYLNAMDICT
350
460F0
  3
PSVPSCALE
350
460F6
  3
PUCSBASE
350
460FA
  3
PUCSORGBACK
350
46100
  3
PUCSORGBOTTOM
350
460FC
  3
PUCSORGFRONT
350
460FF
  3
PUCSORGLEFT
350
460FD
  3
PUCSORGRIGHT
350
460FE
  3
PUCSORGTOP
350
460FB
  3
PUCSORTHOREF
350
460F8
  3
PUCSORTHOVIEW
350
460F9
  3
STYLESHEET
350
460ED
  3
TSTACKALIGN
350
460EA
  3
TSTACKSIZE
350
460EB
  3
UCSBASE
350
46103
  3
UCSORGBACK
350
46109
  3
UCSORGBOTTOM
350
46105
  3
UCSORGFRONT
350
46108
  3
UCSORGLEFT
350
46106
  3
UCSORGRIGHT
350
46107
  3
UCSORGTOP
350
46104
  3
UCSORTHOREF
350
46101
  3
UCSORTHOVIEW
350
46102
  3
VERSIONGUID
350
460F5
  0
DICTIONARY
  5
458E1
102
{ACAD_REACTORS
330
458CB
102
}
100
AcDbDictionary
  3
DIMADEC
350
458E2
  0
XRECORD
  5
45901
102
{ACAD_REACTORS
330
458CB
102
}
100
AcDbXrecord
  1
DWGPROPS COOKIE
  2

  3

  4

  6

  7

  8
colin
  9

300
=
301
=
302
=
303
=
304
=
305
=
306
=
307
=
308
=
309
=
 40
0.000599
 41
2451670.444777
 42
2451670.445376
  1

 90
        0
  0
XRECORD
  5
460E8
102
{ACAD_REACTORS
330
460E7
102
}
100
AcDbXrecord
102
EXTNAMES
  1
*ACTIVE
  2
*Active
102
UCS
 74
     0
 71
     1
 10
0.0
 20
0.0
 30
0.0
 10
1.0
 20
0.0
 30
0.0
 10
0.0
 20
1.0
 30
0.0
146
0.0
 79
     1
102
VIEW
281
     0
  0
XRECORD
  5
46113
102
{ACAD_REACTORS
330
46112
102
}
100
AcDbXrecord
102
PLOTBIT
280
     0
  0
XRECORD
  5
460E6
102
{ACAD_REACTORS
330
460E5
102
}
100
AcDbXrecord
102
EXTNAMES
  1
DEFPOINTS
  2
Defpoints
102
PLOTBIT
280
     0
  0
XRECORD
  5
4610D
102
{ACAD_REACTORS
330
4610C
102
}
100
AcDbXrecord
102
ACADR14ROUNDTRIP
1000
DSTYLE
1002
{
1070
   276
 70
     2
1070
   277
 70
     5
1002
}
  0
XRECORD
  5
4610F
102
{ACAD_REACTORS
330
4610E
102
}
100
AcDbXrecord
102
ACADR14ROUNDTRIP
1000
DSTYLE
1002
{
1070
   276
 70
     2
1070
   277
 70
     5
1002
}
  0
XRECORD
  5
4610B
102
{ACAD_REACTORS
330
4592C
102
}
100
AcDbXrecord
340
458D6
  0
XRECORD
  5
4610A
102
{ACAD_REACTORS
330
4592A
102
}
100
AcDbXrecord
340
458D3
  0
XRECORD
  5
460E4
102
{ACAD_REACTORS
330
460E3
102
}
100
AcDbXrecord
102
EXTNAMES
  1
SCALE
  2
scale
  0
DICTIONARY
  5
46110
100
AcDbDictionary
280
     1
  3
ACAD_XREC_ROUNDTRIP
360
46111
  0
ACAD_PROXY_OBJECT
  5
458FE
102
{ACAD_REACTORS
330
458FB
102
}
100
AcDbProxyObject
 90
      499
 91
      503
 93
     1348
310
91D4850204C617365724A65742035303030205365726965732050434C20362C00AAAAAA416AA547D11959985D5B1D08148C4D081C195B88185CDCDA59DB9B595B9D1CCB98DD1891069074C61796F75743140501A800000000000000000000000000000000000000000000A1000000000000008902A6A6A10232D5E076BC551
310
0408CB5781DAF154410232D5E076BC5510408CB5781DAF15C410232D5E076BC5710408CB5781DAF15C40
330
458D3
330
0
340
0
340
0
 94
        0
  0
ACAD_PROXY_OBJECT
  5
458FD
102
{ACAD_REACTORS
330
458FB
102
}
100
AcDbProxyObject
 90
      499
 91
      503
 93
      924
310
91D4850204C617365724A65742035303030205365726965732050434C20362C01AAAAAAAAA547D11959985D5B1D08148C4D081C195B88185CDCDA59DB9B595B9D1CCB98DD18A69054D6F64656C901A800000000000000000000000000000000000000000000A1000000000000008902A6A6AAAA0
330
458D6
330
0
340
0
340
0
 94
        0
  0
MLINESTYLE
  5
458DA
102
{ACAD_REACTORS
330
458D9
102
}
100
AcDbMlineStyle
  2
STANDARD
 70
     0
  3

 62
   256
 51
90.0
 52
90.0
 71
     2
 49
0.5
 62
   256
  6
BYLAYER
 49
-0.5
 62
   256
  6
BYLAYER
  0
ACAD_PROXY_OBJECT
  5
458FA
102
{ACAD_REACTORS
330
458F9
102
}
100
AcDbProxyObject
 90
      499
 91
      502
 93
        0
 94
        0
  0
XRECORD
  5
460F3
102
{ACAD_REACTORS
330
460E9
102
}
100
AcDbXrecord
 90
        0
  0
XRECORD
  5
460F7
102
{ACAD_REACTORS
330
460E9
102
}
100
AcDbXrecord
1000
DSTYLE
1002
{
1070
   276
 70
     2
1070
   277
 70
     5
1002
}
  0
XRECORD
  5
460F4
102
{ACAD_REACTORS
330
460E9
102
}
100
AcDbXrecord
  1
{6E0CF4B8-225E-11D4-A150-00A0CC3303EC}
  0
XRECORD
  5
460EC
102
{ACAD_REACTORS
330
460E9
102
}
100
AcDbXrecord
  1

  0
XRECORD
  5
460F2
102
{ACAD_REACTORS
330
460E9
102
}
100
AcDbXrecord
 90
        0
  0
XRECORD
  5
460EE
102
{ACAD_REACTORS
330
460E9
102
}
100
AcDbXrecord
340
458FB
  0
XRECORD
  5
460F1
102
{ACAD_REACTORS
330
460E9
102
}
100
AcDbXrecord
 90
    14877
  0
XRECORD
  5
460EF
102
{ACAD_REACTORS
330
460E9
102
}
100
AcDbXrecord
340
458FC
  0
XRECORD
  5
460F0
102
{ACAD_REACTORS
330
460E9
102
}
100
AcDbXrecord
340
458F9
  0
XRECORD
  5
460F6
102
{ACAD_REACTORS
330
460E9
102
}
100
AcDbXrecord
 40
0.0
  0
XRECORD
  5
460FA
102
{ACAD_REACTORS
330
460E9
102
}
100
AcDbXrecord
340
0
  0
XRECORD
  5
46100
102
{ACAD_REACTORS
330
460E9
102
}
100
AcDbXrecord
 10
0.0
 20
0.0
 30
0.0
  0
XRECORD
  5
460FC
102
{ACAD_REACTORS
330
460E9
102
}
100
AcDbXrecord
 10
0.0
 20
0.0
 30
0.0
  0
XRECORD
  5
460FF
102
{ACAD_REACTORS
330
460E9
102
}
100
AcDbXrecord
 10
0.0
 20
0.0
 30
0.0
  0
XRECORD
  5
460FD
102
{ACAD_REACTORS
330
460E9
102
}
100
AcDbXrecord
 10
0.0
 20
0.0
 30
0.0
  0
XRECORD
  5
460FE
102
{ACAD_REACTORS
330
460E9
102
}
100
AcDbXrecord
 10
0.0
 20
0.0
 30
0.0
  0
XRECORD
  5
460FB
102
{ACAD_REACTORS
330
460E9
102
}
100
AcDbXrecord
 10
0.0
 20
0.0
 30
0.0
  0
XRECORD
  5
460F8
102
{ACAD_REACTORS
330
460E9
102
}
100
AcDbXrecord
340
0
  0
XRECORD
  5
460F9
102
{ACAD_REACTORS
330
460E9
102
}
100
AcDbXrecord
 70
     0
  0
XRECORD
  5
460ED
102
{ACAD_REACTORS
330
460E9
102
}
100
AcDbXrecord
  1

  0
XRECORD
  5
460EA
102
{ACAD_REACTORS
330
460E9
102
}
100
AcDbXrecord
 90
        1
  0
XRECORD
  5
460EB
102
{ACAD_REACTORS
330
460E9
102
}
100
AcDbXrecord
 90
       70
  0
XRECORD
  5
46103
102
{ACAD_REACTORS
330
460E9
102
}
100
AcDbXrecord
340
0
  0
XRECORD
  5
46109
102
{ACAD_REACTORS
330
460E9
102
}
100
AcDbXrecord
 10
0.0
 20
0.0
 30
0.0
  0
XRECORD
  5
46105
102
{ACAD_REACTORS
330
460E9
102
}
100
AcDbXrecord
 10
0.0
 20
0.0
 30
0.0
  0
XRECORD
  5
46108
102
{ACAD_REACTORS
330
460E9
102
}
100
AcDbXrecord
 10
0.0
 20
0.0
 30
0.0
  0
XRECORD
  5
46106
102
{ACAD_REACTORS
330
460E9
102
}
100
AcDbXrecord
 10
0.0
 20
0.0
 30
0.0
  0
XRECORD
  5
46107
102
{ACAD_REACTORS
330
460E9
102
}
100
AcDbXrecord
 10
0.0
 20
0.0
 30
0.0
  0
XRECORD
  5
46104
102
{ACAD_REACTORS
330
460E9
102
}
100
AcDbXrecord
 10
0.0
 20
0.0
 30
0.0
  0
XRECORD
  5
46101
102
{ACAD_REACTORS
330
460E9
102
}
100
AcDbXrecord
340
0
  0
XRECORD
  5
46102
102
{ACAD_REACTORS
330
460E9
102
}
100
AcDbXrecord
 70
     1
  0
XRECORD
  5
460F5
102
{ACAD_REACTORS
330
460E9
102
}
100
AcDbXrecord
  1
{2139106D-5CD3-4854-B266-BDCB5362D0F1}
  0
DICTIONARYVAR
  5
458E2
102
{ACAD_REACTORS
330
458E1
102
}
100
DictionaryVariables
280
     0
  1
0
  0
XRECORD
  5
46111
102
{ACAD_REACTORS
330
46110
102
}
100
AcDbXrecord
102
EXTNAMES
  1
LAYOUT1
  2
Layout1
  1
MODEL
  2
Model
  0
ENDSEC
  0
EOF
