  0
SECTION
  2
HEADER
  9
$ACADVER
  1
AC1014
  9
$ACADMAINTVER
 70
     8
  9
$DWGCODEPAGE
  3
ANSI_1252
  9
$INSBASE
 10
0.0
 20
0.0
 30
0.0
  9
$EXTMIN
 10
-1.087
 20
-1.379553
 30
0.0
  9
$EXTMAX
 10
2.706
 20
6.323011
 30
5.125
  9
$LIMMIN
 10
0.0
 20
0.0
  9
$LIMMAX
 10
12.0
 20
9.0
  9
$ORTHOMODE
 70
     0
  9
$REGENMODE
 70
     1
  9
$FILLMODE
 70
     1
  9
$QTEXTMODE
 70
     0
  9
$MIRRTEXT
 70
     1
  9
$DRAGMODE
 70
     2
  9
$LTSCALE
 40
1.0
  9
$OSMODE
 70
    37
  9
$ATTMODE
 70
     1
  9
$TEXTSIZE
 40
0.12
  9
$TRACEWID
 40
0.05
  9
$TEXTSTYLE
  7
STANDARD
  9
$CLAYER
  8
0
  9
$CELTYPE
  6
BYLAYER
  9
$CECOLOR
 62
   256
  9
$CELTSCALE
 40
1.0
  9
$DELOBJ
 70
     1
  9
$DISPSILH
 70
     0
  9
$DIMSCALE
 40
1.0
  9
$DIMASZ
 40
0.18
  9
$DIMEXO
 40
0.0625
  9
$DIMDLI
 40
0.375
  9
$DIMRND
 40
0.0
  9
$DIMDLE
 40
0.0
  9
$DIMEXE
 40
0.18
  9
$DIMTP
 40
0.0
  9
$DIMTM
 40
0.0
  9
$DIMTXT
 40
0.18
  9
$DIMCEN
 40
0.09
  9
$DIMTSZ
 40
0.0
  9
$DIMTOL
 70
     0
  9
$DIMLIM
 70
     0
  9
$DIMTIH
 70
     0
  9
$DIMTOH
 70
     1
  9
$DIMSE1
 70
     0
  9
$DIMSE2
 70
     0
  9
$DIMTAD
 70
     0
  9
$DIMZIN
 70
     4
  9
$DIMBLK
  1

  9
$DIMASO
 70
     1
  9
$DIMSHO
 70
     1
  9
$DIMPOST
  1

  9
$DIMAPOST
  1

  9
$DIMALT
 70
     1
  9
$DIMALTD
 70
     1
  9
$DIMALTF
 40
25.4
  9
$DIMLFAC
 40
1.0
  9
$DIMTOFL
 70
     0
  9
$DIMTVP
 40
0.0
  9
$DIMTIX
 70
     0
  9
$DIMSOXD
 70
     0
  9
$DIMSAH
 70
     0
  9
$DIMBLK1
  1

  9
$DIMBLK2
  1

  9
$DIMSTYLE
  2
ABECAD_3D
  9
$DIMCLRD
 70
     0
  9
$DIMCLRE
 70
     0
  9
$DIMCLRT
 70
     0
  9
$DIMTFAC
 40
1.5
  9
$DIMGAP
 40
0.09
  9
$DIMJUST
 70
     0
  9
$DIMSD1
 70
     0
  9
$DIMSD2
 70
     0
  9
$DIMTOLJ
 70
     1
  9
$DIMTZIN
 70
     4
  9
$DIMALTZ
 70
     4
  9
$DIMALTTZ
 70
     4
  9
$DIMFIT
 70
     3
  9
$DIMUPT
 70
     0
  9
$DIMUNIT
 70
     7
  9
$DIMDEC
 70
     6
  9
$DIMTDEC
 70
     6
  9
$DIMALTU
 70
     2
  9
$DIMALTTD
 70
     1
  9
$DIMTXSTY
  7
STANDARD
  9
$DIMAUNIT
 70
     0
  9
$LUNITS
 70
     2
  9
$LUPREC
 70
     4
  9
$SKETCHINC
 40
0.1
  9
$FILLETRAD
 40
0.0
  9
$AUNITS
 70
     0
  9
$AUPREC
 70
     0
  9
$MENU
  1
ACAD
  9
$ELEVATION
 40
0.0
  9
$PELEVATION
 40
0.0
  9
$THICKNESS
 40
0.0
  9
$LIMCHECK
 70
     0
  9
$BLIPMODE
 70
     0
  9
$CHAMFERA
 40
0.0
  9
$CHAMFERB
 40
0.0
  9
$CHAMFERC
 40
0.0
  9
$CHAMFERD
 40
0.0
  9
$SKPOLY
 70
     0
  9
$TDCREATE
 40
2451670.444776967
  9
$TDUPDATE
 40
2452010.488443287
  9
$TDINDWG
 40
0.0062152778
  9
$TDUSRTIMER
 40
0.0062152778
  9
$USRTIMER
 70
     1
  9
$ANGBASE
 50
0.0
  9
$ANGDIR
 70
     0
  9
$PDMODE
 70
     3
  9
$PDSIZE
 40
0.09
  9
$PLINEWID
 40
0.0
  9
$COORDS
 70
     1
  9
$SPLFRAME
 70
     1
  9
$SPLINETYPE
 70
     6
  9
$SPLINESEGS
 70
     8
  9
$ATTDIA
 70
     0
  9
$ATTREQ
 70
     1
  9
$HANDLING
 70
     1
  9
$HANDSEED
  5
45BB3
  9
$SURFTAB1
 70
     6
  9
$SURFTAB2
 70
     6
  9
$SURFTYPE
 70
     6
  9
$SURFU
 70
     6
  9
$SURFV
 70
     6
  9
$UCSNAME
  2

  9
$UCSORG
 10
0.0
 20
0.0
 30
0.0
  9
$UCSXDIR
 10
1.0
 20
0.0
 30
0.0
  9
$UCSYDIR
 10
0.0
 20
1.0
 30
0.0
  9
$PUCSNAME
  2

  9
$PUCSORG
 10
0.0
 20
0.0
 30
0.0
  9
$PUCSXDIR
 10
1.0
 20
0.0
 30
0.0
  9
$PUCSYDIR
 10
0.0
 20
1.0
 30
0.0
  9
$USERI1
 70
     0
  9
$USERI2
 70
     0
  9
$USERI3
 70
     0
  9
$USERI4
 70
     0
  9
$USERI5
 70
     0
  9
$USERR1
 40
0.0
  9
$USERR2
 40
0.0
  9
$USERR3
 40
0.0
  9
$USERR4
 40
0.0
  9
$USERR5
 40
0.0
  9
$WORLDVIEW
 70
     1
  9
$SHADEDGE
 70
     3
  9
$SHADEDIF
 70
    70
  9
$TILEMODE
 70
     1
  9
$MAXACTVP
 70
    16
  9
$PINSBASE
 10
0.0
 20
0.0
 30
0.0
  9
$PLIMCHECK
 70
     0
  9
$PEXTMIN
 10
1.000000E+20
 20
1.000000E+20
 30
1.000000E+20
  9
$PEXTMAX
 10
-1.000000E+20
 20
-1.000000E+20
 30
-1.000000E+20
  9
$PLIMMIN
 10
0.0
 20
0.0
  9
$PLIMMAX
 10
12.0
 20
9.0
  9
$UNITMODE
 70
     0
  9
$VISRETAIN
 70
     0
  9
$PLINEGEN
 70
     0
  9
$PSLTSCALE
 70
     1
  9
$TREEDEPTH
 70
  3020
  9
$PICKSTYLE
 70
     1
  9
$CMLSTYLE
  2
STANDARD
  9
$CMLJUST
 70
     0
  9
$CMLSCALE
 40
1.0
  9
$PROXYGRAPHICS
 70
     1
  9
$MEASUREMENT
 70
     0
  0
ENDSEC
  0
SECTION
  2
CLASSES
  0
CLASS
  1
DICTIONARYVAR
  2
AcDbDictionaryVar
  3
"AutoCAD"
 90
        0
280
     0
281
     0
  0
CLASS
  1
ACDBDICTIONARYWDFLT
  2
AcDbDictionaryWithDefault
  3
AutoCAD 2000
 90
        0
280
     0
281
     0
  0
CLASS
  1
ACDBPLACEHOLDER
  2
AcDbPlaceHolder
  3
AutoCAD 2000
 90
        0
280
     0
281
     0
  0
CLASS
  1
LAYOUT
  2
AcDbLayout
  3
AutoCAD 2000
 90
        0
280
     0
281
     0
  0
CLASS
  1
LONG_TRANSACTION
  2
AcDbLongTransaction
  3
AutoCAD 2000
 90
        0
280
     0
281
     0
  0
CLASS
  1
LWPOLYLINE
  2
AcDbPolyline
  3
"AutoCAD"
 90
        0
280
     0
281
     1
  0
CLASS
  1
HATCH
  2
AcDbHatch
  3
"ACAD_SEDONA"
 90
        0
280
     0
281
     1
  0
CLASS
  1
XRECORD
  2
AcDbXrecord
  3
"<Built In>"
 90
        0
280
     0
281
     0
  0
CLASS
  1
LONG_TRANSACTION
  2
AcDbLongTransaction
  3
AutoCAD 2000
 90
        0
280
     0
281
     0
  0
CLASS
  1
LWPOLYLINE
  2
AcDbPolyline
  3
"AutoCAD"
 90
        0
280
     0
281
     1
  0
CLASS
  1
HATCH
  2
AcDbHatch
  3
"ACAD_SEDONA"
 90
        0
280
     0
281
     1
  0
CLASS
  1
XRECORD
  2
AcDbXrecord
  3
"<Built In>"
 90
        0
280
     0
281
     0
  0
CLASS
  1
LONG_TRANSACTION
  2
AcDbLongTransaction
  3
AutoCAD 2000
 90
        0
280
     0
281
     0
  0
CLASS
  1
LWPOLYLINE
  2
AcDbPolyline
  3
"AutoCAD"
 90
        0
280
     0
281
     1
  0
CLASS
  1
HATCH
  2
AcDbHatch
  3
"ACAD_SEDONA"
 90
        0
280
     0
281
     1
  0
CLASS
  1
XRECORD
  2
AcDbXrecord
  3
"<Built In>"
 90
        0
280
     0
281
     0
  0
CLASS
  1
LONG_TRANSACTION
  2
AcDbLongTransaction
  3
AutoCAD 2000
 90
        0
280
     0
281
     0
  0
CLASS
  1
LWPOLYLINE
  2
AcDbPolyline
  3
"AutoCAD"
 90
        0
280
     0
281
     1
  0
CLASS
  1
HATCH
  2
AcDbHatch
  3
"ACAD_SEDONA"
 90
        0
280
     0
281
     1
  0
CLASS
  1
XRECORD
  2
AcDbXrecord
  3
"<Built In>"
 90
        0
280
     0
281
     0
  0
CLASS
  1
LONG_TRANSACTION
  2
AcDbLongTransaction
  3
AutoCAD 2000
 90
        0
280
     0
281
     0
  0
CLASS
  1
LWPOLYLINE
  2
AcDbPolyline
  3
"AutoCAD"
 90
        0
280
     0
281
     1
  0
CLASS
  1
HATCH
  2
AcDbHatch
  3
"ACAD_SEDONA"
 90
        0
280
     0
281
     1
  0
CLASS
  1
XRECORD
  2
AcDbXrecord
  3
"<Built In>"
 90
        0
280
     0
281
     0
  0
CLASS
  1
LONG_TRANSACTION
  2
AcDbLongTransaction
  3
AutoCAD 2000
 90
        0
280
     0
281
     0
  0
CLASS
  1
LWPOLYLINE
  2
AcDbPolyline
  3
"AutoCAD"
 90
        0
280
     0
281
     1
  0
CLASS
  1
HATCH
  2
AcDbHatch
  3
"ACAD_SEDONA"
 90
        0
280
     0
281
     1
  0
CLASS
  1
XRECORD
  2
AcDbXrecord
  3
"<Built In>"
 90
        0
280
     0
281
     0
  0
ENDSEC
  0
SECTION
  2
TABLES
  0
TABLE
  2
VPORT
  5
458C7
100
AcDbSymbolTable
 70
     1
  0
VPORT
  5
45B7E
102
{ACAD_XDICTIONARY
360
45B83
102
}
100
AcDbSymbolTableRecord
100
AcDbViewportTableRecord
  2
*ACTIVE
 70
     0
 10
0.0
 20
0.0
 11
1.0
 21
1.0
 12
0.809672
 22
2.471918
 13
0.0
 23
0.0
 14
0.25
 24
0.25
 15
0.25
 25
0.25
 16
0.0
 26
0.0
 36
1.0
 17
0.0
 27
0.0
 37
0.0
 40
7.833046
 41
1.960674
 42
50.0
 43
0.0
 44
0.0
 50
0.0
 51
0.0
 71
     0
 72
 20000
 73
     1
 74
     1
 75
     0
 76
     0
 77
     0
 78
     0
  0
ENDTAB
  0
TABLE
  2
LTYPE
  5
458C4
100
AcDbSymbolTable
 70
     1
  0
LTYPE
  5
458D0
100
AcDbSymbolTableRecord
100
AcDbLinetypeTableRecord
  2
BYBLOCK
 70
     0
  3

 72
    65
 73
     0
 40
0.0
  0
LTYPE
  5
458D1
100
AcDbSymbolTableRecord
100
AcDbLinetypeTableRecord
  2
BYLAYER
 70
     0
  3

 72
    65
 73
     0
 40
0.0
  0
LTYPE
  5
458D2
100
AcDbSymbolTableRecord
100
AcDbLinetypeTableRecord
  2
CONTINUOUS
 70
     0
  3
Solid line
 72
    65
 73
     0
 40
0.0
  0
ENDTAB
  0
TABLE
  2
LAYER
  5
458C1
100
AcDbSymbolTable
 70
     7
  0
LAYER
  5
458CD
100
AcDbSymbolTableRecord
100
AcDbLayerTableRecord
  2
0
 70
     0
 62
     7
  6
CONTINUOUS
  0
LAYER
  5
458EA
100
AcDbSymbolTableRecord
100
AcDbLayerTableRecord
  2
DIMS-MTG-HOLES
 70
     0
 62
     1
  6
CONTINUOUS
  0
LAYER
  5
458EB
100
AcDbSymbolTableRecord
100
AcDbLayerTableRecord
  2
ATTRIBUTES
 70
     0
 62
     7
  6
CONTINUOUS
  0
LAYER
  5
4593B
102
{ACAD_XDICTIONARY
360
45BAE
102
}
100
AcDbSymbolTableRecord
100
AcDbLayerTableRecord
  2
AREA1
 70
     0
 62
    -7
  6
CONTINUOUS
  0
LAYER
  5
45940
102
{ACAD_XDICTIONARY
360
45B81
102
}
100
AcDbSymbolTableRecord
100
AcDbLayerTableRecord
  2
DEFPOINTS
 70
     0
 62
    -7
  6
CONTINUOUS
  0
LAYER
  5
45AD7
100
AcDbSymbolTableRecord
100
AcDbLayerTableRecord
  2
SCALE
 70
     0
 62
    -7
  6
CONTINUOUS
  0
LAYER
  5
45B13
100
AcDbSymbolTableRecord
100
AcDbLayerTableRecord
  2
SNAP_POINTS
 70
     0
 62
    -1
  6
CONTINUOUS
  0
ENDTAB
  0
TABLE
  2
STYLE
  5
458C2
100
AcDbSymbolTable
 70
     1
  0
STYLE
  5
458CE
100
AcDbSymbolTableRecord
100
AcDbTextStyleTableRecord
  2
STANDARD
 70
     0
 40
0.0
 41
1.0
 50
0.0
 71
     0
 42
0.12
  3
txt
  4

  0
ENDTAB
  0
TABLE
  2
VIEW
  5
458C5
100
AcDbSymbolTable
 70
     0
  0
ENDTAB
  0
TABLE
  2
UCS
  5
458C6
100
AcDbSymbolTable
 70
     0
  0
ENDTAB
  0
TABLE
  2
APPID
  5
458C8
100
AcDbSymbolTable
 70
     1
  0
APPID
  5
458CF
100
AcDbSymbolTableRecord
100
AcDbRegAppTableRecord
  2
ACAD
 70
     0
  0
ENDTAB
  0
TABLE
  2
DIMSTYLE
  5
458C9
100
AcDbSymbolTable
 70
     2
  0
DIMSTYLE
105
458F1
102
{ACAD_XDICTIONARY
360
45BA8
102
}
100
AcDbSymbolTableRecord
100
AcDbDimStyleTableRecord
  2
ABECAD
 70
     0
  3

  4

  5

  6

  7

 40
1.0
 41
0.18
 42
0.0625
 43
0.375
 44
0.18
 45
0.0
 46
0.0
 47
0.0
 48
0.0
140
0.18
141
0.09
142
0.0
143
25.4
144
1.0
145
0.0
146
1.5
147
0.09
 71
     0
 72
     0
 73
     0
 74
     1
 75
     0
 76
     0
 77
     0
 78
     4
170
     1
171
     1
172
     0
173
     0
174
     0
175
     0
176
     0
177
     0
178
     0
270
     7
271
     6
272
     6
273
     2
274
     1
340
458CE
275
     0
280
     0
281
     0
282
     0
283
     1
284
     4
285
     4
286
     4
287
     3
288
     0
  0
DIMSTYLE
105
458F6
102
{ACAD_XDICTIONARY
360
45BAA
102
}
102
{ACAD_REACTORS
330
45A78
330
45A86
102
}
100
AcDbSymbolTableRecord
100
AcDbDimStyleTableRecord
  2
ABECAD_3D
 70
     0
  3

  4

  5

  6

  7

 40
1.0
 41
0.18
 42
0.0625
 43
0.375
 44
0.18
 45
0.0
 46
0.0
 47
0.0
 48
0.0
140
0.18
141
0.09
142
0.0
143
25.4
144
1.0
145
0.0
146
1.5
147
0.09
 71
     0
 72
     0
 73
     0
 74
     1
 75
     0
 76
     0
 77
     0
 78
     4
170
     1
171
     1
172
     0
173
     0
174
     0
175
     0
176
     0
177
     0
178
     0
270
     7
271
     6
272
     6
273
     2
274
     1
340
458CE
275
     0
280
     0
281
     0
282
     0
283
     1
284
     4
285
     4
286
     4
287
     3
288
     0
  0
ENDTAB
  0
TABLE
  2
BLOCK_RECORD
  5
458C0
100
AcDbSymbolTable
 70
     3
  0
BLOCK_RECORD
  5
458D6
102
{ACAD_XDICTIONARY
360
4592C
102
}
100
AcDbSymbolTableRecord
100
AcDbBlockTableRecord
  2
*MODEL_SPACE
  0
BLOCK_RECORD
  5
458D3
102
{ACAD_XDICTIONARY
360
4592A
102
}
100
AcDbSymbolTableRecord
100
AcDbBlockTableRecord
  2
*PAPER_SPACE
  0
BLOCK_RECORD
  5
45A79
100
AcDbSymbolTableRecord
100
AcDbBlockTableRecord
  2
*D0
  0
BLOCK_RECORD
  5
45A87
100
AcDbSymbolTableRecord
100
AcDbBlockTableRecord
  2
*D1
  0
BLOCK_RECORD
  5
45AC9
102
{ACAD_XDICTIONARY
360
45B7F
102
}
100
AcDbSymbolTableRecord
100
AcDbBlockTableRecord
  2
SCALE
1001
ACAD
1000
DesignCenter Data
1002
{
1070
     1
1070
     1
1002
}
  0
ENDTAB
  0
ENDSEC
  0
SECTION
  2
BLOCKS
  0
BLOCK
  5
458DF
100
AcDbEntity
  8
0
100
AcDbBlockBegin
  2
*MODEL_SPACE
 70
     0
 10
0.0
 20
0.0
 30
0.0
  3
*MODEL_SPACE
  1

  0
ENDBLK
  5
458E0
100
AcDbEntity
  8
0
100
AcDbBlockEnd
  0
BLOCK
  5
458DD
100
AcDbEntity
 67
     1
  8
0
100
AcDbBlockBegin
  2
*PAPER_SPACE
 70
     0
 10
0.0
 20
0.0
 30
0.0
  3
*PAPER_SPACE
  1

  0
ENDBLK
  5
458DE
100
AcDbEntity
 67
     1
  8
0
100
AcDbBlockEnd
  0
BLOCK
  5
45A84
100
AcDbEntity
  8
0
100
AcDbBlockBegin
  2
*D0
 70
     1
 10
0.0
 20
0.0
 30
0.0
  3
*D0
  1

  0
LINE
  5
45A7A
100
AcDbEntity
  8
AREA1
 62
     0
100
AcDbLine
 10
0.3385
 20
-0.305
 30
0.0
 11
1.282102
 21
-0.305
 31
0.0
1001
ACAD
1000
RTLwPs
1070
   158
  0
LINE
  5
45A7B
100
AcDbEntity
  8
AREA1
 62
     0
100
AcDbLine
 10
0.3385
 20
5.385
 30
0.0
 11
1.282102
 21
5.385
 31
0.0
1001
ACAD
1000
RTLwPs
1070
   158
  0
LINE
  5
45A7C
100
AcDbEntity
  8
AREA1
 62
     0
100
AcDbLine
 10
1.102102
 20
-0.125
 30
0.0
 11
1.102102
 21
1.37
 31
0.0
1001
ACAD
1000
RTLwPs
1070
   158
  0
LINE
  5
45A7D
100
AcDbEntity
  8
AREA1
 62
     0
100
AcDbLine
 10
1.102102
 20
5.205
 30
0.0
 11
1.102102
 21
3.71
 31
0.0
1001
ACAD
1000
RTLwPs
1070
   158
  0
SOLID
  5
45A7E
100
AcDbEntity
  8
AREA1
 62
     0
100
AcDbTrace
 10
1.072102
 20
-0.125
 30
0.0
 11
1.132102
 21
-0.125
 31
0.0
 12
1.102102
 22
-0.305
 32
0.0
 13
1.102102
 23
-0.305
 33
0.0
  0
SOLID
  5
45A7F
100
AcDbEntity
  8
AREA1
 62
     0
100
AcDbTrace
 10
1.072102
 20
5.205
 30
0.0
 11
1.132102
 21
5.205
 31
0.0
 12
1.102102
 22
5.385
 32
0.0
 13
1.102102
 23
5.385
 33
0.0
  0
MTEXT
  5
45A80
100
AcDbEntity
  8
AREA1
 62
     0
100
AcDbMText
 10
1.102102
 20
2.54
 30
0.0
 40
0.18
 41
0.0
 71
     5
 72
     1
  1
\A1;5 11/16 [144.5]
 11
0.0
 21
1.0
 31
0.0
1001
ACAD
1000
MTEXTBEGIN
1070
    73
1070
     1
1070
    44
1040
1.0
1070
    74
1070
     0
1000
MTEXTEND
1000
MTEXTBEGIN
1070
    73
1070
     1
1070
    44
1040
1.0
1070
    74
1070
     0
1000
MTEXTEND
1000
MTEXTBEGIN
1070
    73
1070
     1
1070
    44
1040
1.0
1070
    74
1070
     0
1000
MTEXTEND
1000
MTEXTBEGIN
1070
    73
1070
     1
1070
    44
1040
1.0
1070
    74
1070
     0
1000
MTEXTEND
1000
MTEXTBEGIN
1070
    73
1070
     1
1070
    44
1040
1.0
1070
    74
1070
     0
1000
MTEXTEND
  0
POINT
  5
45A81
100
AcDbEntity
  8
DEFPOINTS
 62
     0
100
AcDbPoint
 10
0.276
 20
-0.305
 30
3.133
  0
POINT
  5
45A82
100
AcDbEntity
  8
DEFPOINTS
 62
     0
100
AcDbPoint
 10
0.276
 20
5.385
 30
3.133
  0
POINT
  5
45A83
100
AcDbEntity
  8
DEFPOINTS
 62
     0
100
AcDbPoint
 10
1.102102
 20
5.385
 30
0.0
  0
ENDBLK
  5
45A85
100
AcDbEntity
  8
0
100
AcDbBlockEnd
  0
BLOCK
  5
45A92
100
AcDbEntity
  8
0
100
AcDbBlockBegin
  2
*D1
 70
     1
 10
0.0
 20
0.0
 30
0.0
  3
*D1
  1

  0
LINE
  5
45A88
100
AcDbEntity
  8
AREA1
 62
     0
100
AcDbLine
 10
-1.087
 20
5.4475
 30
0.0
 11
-1.087
 21
6.323011
 31
0.0
1001
ACAD
1000
RTLwPs
1070
   158
  0
LINE
  5
45A89
100
AcDbEntity
  8
AREA1
 62
     0
100
AcDbLine
 10
0.276
 20
5.4475
 30
0.0
 11
0.276
 21
6.323011
 31
0.0
1001
ACAD
1000
RTLwPs
1070
   158
  0
LINE
  5
45A8A
100
AcDbEntity
  8
AREA1
 62
     0
100
AcDbLine
 10
-0.907
 20
6.143011
 30
0.0
 11
0.096
 21
6.143011
 31
0.0
1001
ACAD
1000
RTLwPs
1070
   158
  0
LINE
  5
45A8B
100
AcDbEntity
  8
AREA1
 62
     0
100
AcDbLine
 10
0.276
 20
6.143011
 30
0.0
 11
0.456
 21
6.143011
 31
0.0
1001
ACAD
1000
RTLwPs
1070
   158
  0
SOLID
  5
45A8C
100
AcDbEntity
  8
AREA1
 62
     0
100
AcDbTrace
 10
-0.907
 20
6.173011
 30
0.0
 11
-0.907
 21
6.113011
 31
0.0
 12
-1.087
 22
6.143011
 32
0.0
 13
-1.087
 23
6.143011
 33
0.0
  0
SOLID
  5
45A8D
100
AcDbEntity
  8
AREA1
 62
     0
100
AcDbTrace
 10
0.096
 20
6.173011
 30
0.0
 11
0.096
 21
6.113011
 31
0.0
 12
0.276
 22
6.143011
 32
0.0
 13
0.276
 23
6.143011
 33
0.0
  0
MTEXT
  5
45A8E
100
AcDbEntity
  8
AREA1
 62
     0
100
AcDbMText
 10
1.626
 20
6.143011
 30
0.0
 40
0.18
 41
0.0
 71
     5
 72
     1
  1
\A1;1 23/64 [34.6]
1001
ACAD
1000
MTEXTBEGIN
1070
    73
1070
     1
1070
    44
1040
1.0
1070
    74
1070
     0
1000
MTEXTEND
1000
MTEXTBEGIN
1070
    73
1070
     1
1070
    44
1040
1.0
1070
    74
1070
     0
1000
MTEXTEND
1000
MTEXTBEGIN
1070
    73
1070
     1
1070
    44
1040
1.0
1070
    74
1070
     0
1000
MTEXTEND
1000
MTEXTBEGIN
1070
    73
1070
     1
1070
    44
1040
1.0
1070
    74
1070
     0
1000
MTEXTEND
1000
MTEXTBEGIN
1070
    73
1070
     1
1070
    44
1040
1.0
1070
    74
1070
     0
1000
MTEXTEND
  0
POINT
  5
45A8F
100
AcDbEntity
  8
DEFPOINTS
 62
     0
100
AcDbPoint
 10
-1.087
 20
5.385
 30
3.133
  0
POINT
  5
45A90
100
AcDbEntity
  8
DEFPOINTS
 62
     0
100
AcDbPoint
 10
0.276
 20
5.385
 30
3.133
  0
POINT
  5
45A91
100
AcDbEntity
  8
DEFPOINTS
 62
     0
100
AcDbPoint
 10
0.276
 20
6.143011
 30
0.0
  0
ENDBLK
  5
45A93
100
AcDbEntity
  8
0
100
AcDbBlockEnd
  0
BLOCK
  5
45AD5
100
AcDbEntity
  8
0
100
AcDbBlockBegin
  2
SCALE
 70
     0
 10
0.0
 20
0.0
 30
0.0
  3
SCALE
  1

  0
LINE
  5
45ACA
100
AcDbEntity
  8
SCALE
100
AcDbLine
 10
0.057999
 20
-0.380078
 30
0.0
 11
1.057999
 21
-0.380078
 31
0.0
  0
LWPOLYLINE
  5
45ACB
100
AcDbEntity
  8
SCALE
100
AcDbPolyline
 90
        4
 70
     1
 43
0.0
 10
0.0
 20
0.0
 10
1.135629
 20
0.0
 10
1.135629
 20
-0.84161
 10
0.0
 20
-0.84161
  0
LINE
  5
45ACC
100
AcDbEntity
  8
SCALE
100
AcDbLine
 10
0.057999
 20
-0.480078
 30
0.0
 11
0.057999
 21
-0.280078
 31
0.0
  0
TEXT
  5
45ACD
100
AcDbEntity
  8
SCALE
100
AcDbText
 10
0.117421
 20
-0.634339
 30
0.0
 40
0.0625
  1
[10mm]
100
AcDbText
  0
LINE
  5
45ACE
100
AcDbEntity
  8
SCALE
100
AcDbLine
 10
0.057999
 20
-0.680078
 30
0.0
 11
0.451699
 21
-0.680078
 31
0.0
  0
LINE
  5
45ACF
100
AcDbEntity
  8
SCALE
100
AcDbLine
 10
0.057999
 20
-0.780078
 30
0.0
 11
0.057999
 21
-0.580078
 31
0.0
  0
LINE
  5
45AD0
100
AcDbEntity
  8
SCALE
100
AcDbLine
 10
0.451699
 20
-0.780078
 30
0.0
 11
0.451699
 21
-0.580078
 31
0.0
  0
TEXT
  5
45AD1
100
AcDbEntity
  8
SCALE
100
AcDbText
 10
0.059529
 20
-0.105201
 30
0.0
 40
0.0625
  1
SCALE:
100
AcDbText
  0
TEXT
  5
45AD2
100
AcDbEntity
  8
SCALE
100
AcDbText
 10
0.421282
 20
-0.31103
 30
0.0
 40
0.0625
  1
1 Inch
100
AcDbText
  0
LINE
  5
45AD3
100
AcDbEntity
  8
SCALE
100
AcDbLine
 10
1.057999
 20
-0.380078
 30
0.0
 11
1.057999
 21
-0.480078
 31
0.0
  0
LINE
  5
45AD4
100
AcDbEntity
  8
SCALE
100
AcDbLine
 10
1.057999
 20
-0.480078
 30
0.0
 11
1.057999
 21
-0.280078
 31
0.0
  0
ENDBLK
  5
45AD6
100
AcDbEntity
  8
0
100
AcDbBlockEnd
  0
ENDSEC
  0
SECTION
  2
ENTITIES
  0
ATTDEF
  5
1
100
AcDbEntity
  8
ATTRIBUTES
100
AcDbText
 10
-1.006293
 20
1.419507
 30
0.0
 40
0.0942
  1
ALLEN-BRADLEY
100
AcDbAttributeDefinition
  3
MANUFACTURER NAME?
  2
AC_VND_LABEL
 70
     1
  0
ATTDEF
  5
2
100
AcDbEntity
  8
ATTRIBUTES
100
AcDbText
 10
-1.006293
 20
1.223257
 30
0.0
 40
0.0942
  1
1746-N2
100
AcDbAttributeDefinition
  3
CATALOG NUMBER?
  2
AC_PART_NO
 70
     1
  0
ATTDEF
  5
3
100
AcDbEntity
  8
ATTRIBUTES
100
AcDbText
 10
-1.006293
 20
1.027007
 30
0.0
 40
0.0942
  1
1746-N2:SLC CHASSIS SLOT FILLER
100
AcDbAttributeDefinition
  3
PART DESCRIPTION?
  2
AC_DESCRIPTION
 70
     1
  0
ATTDEF
  5
4
100
AcDbEntity
  8
ATTRIBUTES
100
AcDbText
 10
-1.006293
 20
0.830757
 30
0.0
 40
0.0942
  1

100
AcDbAttributeDefinition
  3
DEVICE ID?
  2
DEVICE_ID
 70
     1
  0
ATTDEF
  5
5
100
AcDbEntity
  8
ATTRIBUTES
100
AcDbText
 10
-1.006293
 20
0.634507
 30
0.0
 40
0.0942
  1

100
AcDbAttributeDefinition
  3
CUSTOMER PART NUMBER?
  2
AC_CPART_NO
 70
     1
  0
ATTDEF
  5
6
100
AcDbEntity
  8
ATTRIBUTES
100
AcDbText
 10
-1.006293
 20
0.438257
 30
0.0
 40
0.0942
  1

100
AcDbAttributeDefinition
  3
CUSTOMER NOTE?
  2
AC_NOTE
 70
     1
  0
ATTDEF
  5
7
100
AcDbEntity
  8
ATTRIBUTES
100
AcDbText
 10
-1.006293
 20
0.242007
 30
0.0
 40
0.0942
  1

100
AcDbAttributeDefinition
  3
FASTENER DATA?
  2
FASTENER
 70
     1
  0
ATTDEF
  5
8
100
AcDbEntity
  8
ATTRIBUTES
100
AcDbText
 10
-1.006293
 20
0.045757
 30
0.0
 40
0.0942
  1
INCH
100
AcDbAttributeDefinition
  3
UNIT OF SCALE?
  2
AC_SCALE_UNIT
 70
     1
  0
ATTDEF
  5
9
100
AcDbEntity
  8
ATTRIBUTES
100
AcDbText
 10
-1.006293
 20
-0.150493
 30
0.0
 40
0.0942
  1
0
100
AcDbAttributeDefinition
  3
VIEW CODE?
  2
AC_VIEW_CODE
 70
     1
  0
POLYLINE
  5
459EB
100
AcDbEntity
  8
0
100
AcDbPolygonMesh
 66
     1
 10
0.0
 20
0.0
 30
0.0
 70
    16
 71
     6
 72
     3
  0
VERTEX
  5
459EC
100
AcDbEntity
  8
0
100
AcDbVertex
100
AcDbPolygonMeshVertex
 10
0.068
 20
0.0
 30
3.133
 70
    64
  0
VERTEX
  5
459ED
100
AcDbEntity
  8
0
100
AcDbVertex
100
AcDbPolygonMeshVertex
 10
0.068
 20
0.0
 30
0.0
 70
    64
  0
VERTEX
  5
459EE
100
AcDbEntity
  8
0
100
AcDbVertex
100
AcDbPolygonMeshVertex
 10
0.068
 20
0.0
 30
0.0
 70
    64
  0
VERTEX
  5
459EF
100
AcDbEntity
  8
0
100
AcDbVertex
100
AcDbPolygonMeshVertex
 10
0.0
 20
0.0
 30
3.133
 70
    64
  0
VERTEX
  5
459F0
100
AcDbEntity
  8
0
100
AcDbVertex
100
AcDbPolygonMeshVertex
 10
0.0
 20
0.0
 30
0.0
 70
    64
  0
VERTEX
  5
459F1
100
AcDbEntity
  8
0
100
AcDbVertex
100
AcDbPolygonMeshVertex
 10
0.0
 20
0.0
 30
0.0
 70
    64
  0
VERTEX
  5
459F2
100
AcDbEntity
  8
0
100
AcDbVertex
100
AcDbPolygonMeshVertex
 10
0.0
 20
5.21595
 30
3.133
 70
    64
  0
VERTEX
  5
459F3
100
AcDbEntity
  8
0
100
AcDbVertex
100
AcDbPolygonMeshVertex
 10
0.0
 20
5.21595
 30
0.0
 70
    64
  0
VERTEX
  5
459F4
100
AcDbEntity
  8
0
100
AcDbVertex
100
AcDbPolygonMeshVertex
 10
0.0
 20
0.0
 30
0.0
 70
    64
  0
VERTEX
  5
459F5
100
AcDbEntity
  8
0
100
AcDbVertex
100
AcDbPolygonMeshVertex
 10
0.068
 20
5.21595
 30
3.133
 70
    64
  0
VERTEX
  5
459F6
100
AcDbEntity
  8
0
100
AcDbVertex
100
AcDbPolygonMeshVertex
 10
0.068
 20
5.21595
 30
0.0
 70
    64
  0
VERTEX
  5
459F7
100
AcDbEntity
  8
0
100
AcDbVertex
100
AcDbPolygonMeshVertex
 10
0.068
 20
0.0
 30
0.0
 70
    64
  0
VERTEX
  5
459F8
100
AcDbEntity
  8
0
100
AcDbVertex
100
AcDbPolygonMeshVertex
 10
0.068
 20
5.21595
 30
3.133
 70
    64
  0
VERTEX
  5
459F9
100
AcDbEntity
  8
0
100
AcDbVertex
100
AcDbPolygonMeshVertex
 10
0.068
 20
5.21595
 30
3.133
 70
    64
  0
VERTEX
  5
459FA
100
AcDbEntity
  8
0
100
AcDbVertex
100
AcDbPolygonMeshVertex
 10
0.068
 20
0.0
 30
3.133
 70
    64
  0
VERTEX
  5
459FB
100
AcDbEntity
  8
0
100
AcDbVertex
100
AcDbPolygonMeshVertex
 10
0.0
 20
5.21595
 30
3.133
 70
    64
  0
VERTEX
  5
459FC
100
AcDbEntity
  8
0
100
AcDbVertex
100
AcDbPolygonMeshVertex
 10
0.0
 20
5.21595
 30
3.133
 70
    64
  0
VERTEX
  5
459FD
100
AcDbEntity
  8
0
100
AcDbVertex
100
AcDbPolygonMeshVertex
 10
0.0
 20
0.0
 30
3.133
 70
    64
  0
SEQEND
  5
459FE
100
AcDbEntity
  8
0
  0
LINE
  5
459FF
100
AcDbEntity
  8
0
100
AcDbLine
 10
-1.087
 20
-0.214
 30
4.889972
 11
-1.087
 21
3.954
 31
4.889972
210
0.0
220
-1.0
230
0.0
  0
POLYLINE
  5
45A00
100
AcDbEntity
  8
0
100
AcDbPolygonMesh
 66
     1
 10
0.0
 20
0.0
 30
0.0
 70
    16
 71
     6
 72
     3
  0
VERTEX
  5
45A01
100
AcDbEntity
  8
0
100
AcDbVertex
100
AcDbPolygonMeshVertex
 10
0.276
 20
-0.214
 30
5.125
 70
    64
  0
VERTEX
  5
45A02
100
AcDbEntity
  8
0
100
AcDbVertex
100
AcDbPolygonMeshVertex
 10
0.276
 20
-0.214
 30
3.133
 70
    64
  0
VERTEX
  5
45A03
100
AcDbEntity
  8
0
100
AcDbVertex
100
AcDbPolygonMeshVertex
 10
0.276
 20
-0.214
 30
3.133
 70
    64
  0
VERTEX
  5
45A04
100
AcDbEntity
  8
0
100
AcDbVertex
100
AcDbPolygonMeshVertex
 10
-1.087
 20
-0.214
 30
5.125
 70
    64
  0
VERTEX
  5
45A05
100
AcDbEntity
  8
0
100
AcDbVertex
100
AcDbPolygonMeshVertex
 10
-1.087
 20
-0.214
 30
3.133
 70
    64
  0
VERTEX
  5
45A06
100
AcDbEntity
  8
0
100
AcDbVertex
100
AcDbPolygonMeshVertex
 10
-1.087
 20
-0.214
 30
3.133
 70
    64
  0
VERTEX
  5
45A07
100
AcDbEntity
  8
0
100
AcDbVertex
100
AcDbPolygonMeshVertex
 10
-1.087
 20
5.385
 30
5.125
 70
    64
  0
VERTEX
  5
45A08
100
AcDbEntity
  8
0
100
AcDbVertex
100
AcDbPolygonMeshVertex
 10
-1.087
 20
5.385
 30
3.133
 70
    64
  0
VERTEX
  5
45A09
100
AcDbEntity
  8
0
100
AcDbVertex
100
AcDbPolygonMeshVertex
 10
-1.087
 20
-0.214
 30
3.133
 70
    64
  0
VERTEX
  5
45A0A
100
AcDbEntity
  8
0
100
AcDbVertex
100
AcDbPolygonMeshVertex
 10
0.276
 20
5.385
 30
5.125
 70
    64
  0
VERTEX
  5
45A0B
100
AcDbEntity
  8
0
100
AcDbVertex
100
AcDbPolygonMeshVertex
 10
0.276
 20
5.385
 30
3.133
 70
    64
  0
VERTEX
  5
45A0C
100
AcDbEntity
  8
0
100
AcDbVertex
100
AcDbPolygonMeshVertex
 10
0.276
 20
-0.214
 30
3.133
 70
    64
  0
VERTEX
  5
45A0D
100
AcDbEntity
  8
0
100
AcDbVertex
100
AcDbPolygonMeshVertex
 10
0.276
 20
5.385
 30
5.125
 70
    64
  0
VERTEX
  5
45A0E
100
AcDbEntity
  8
0
100
AcDbVertex
100
AcDbPolygonMeshVertex
 10
0.276
 20
5.385
 30
5.125
 70
    64
  0
VERTEX
  5
45A0F
100
AcDbEntity
  8
0
100
AcDbVertex
100
AcDbPolygonMeshVertex
 10
0.276
 20
-0.214
 30
5.125
 70
    64
  0
VERTEX
  5
45A10
100
AcDbEntity
  8
0
100
AcDbVertex
100
AcDbPolygonMeshVertex
 10
-1.087
 20
5.385
 30
5.125
 70
    64
  0
VERTEX
  5
45A11
100
AcDbEntity
  8
0
100
AcDbVertex
100
AcDbPolygonMeshVertex
 10
-1.087
 20
5.385
 30
5.125
 70
    64
  0
VERTEX
  5
45A12
100
AcDbEntity
  8
0
100
AcDbVertex
100
AcDbPolygonMeshVertex
 10
-1.087
 20
-0.214
 30
5.125
 70
    64
  0
SEQEND
  5
45A13
100
AcDbEntity
  8
0
  0
POINT
  5
45A14
100
AcDbEntity
  8
SNAP_POINTS
100
AcDbPoint
 10
0.034
 20
0.0
 30
0.0
  0
LINE
  5
45A15
100
AcDbEntity
  8
0
100
AcDbLine
 10
0.276
 20
0.134
 30
5.125
 11
-1.087
 21
0.134
 31
5.125
  0
LINE
  5
45A16
100
AcDbEntity
  8
0
100
AcDbLine
 10
0.276
 20
0.454
 30
5.125
 11
-1.087
 21
0.454
 31
5.125
  0
LINE
  5
45A17
100
AcDbEntity
  8
0
100
AcDbLine
 10
0.276
 20
0.774
 30
5.125
 11
-1.087
 21
0.774
 31
5.125
  0
LINE
  5
45A18
100
AcDbEntity
  8
0
100
AcDbLine
 10
0.276
 20
1.394
 30
5.125
 11
-1.087
 21
1.394
 31
5.125
  0
LINE
  5
45A19
100
AcDbEntity
  8
0
100
AcDbLine
 10
0.276
 20
1.714
 30
5.125
 11
-1.087
 21
1.714
 31
5.125
  0
LINE
  5
45A1A
100
AcDbEntity
  8
0
100
AcDbLine
 10
0.276
 20
2.034
 30
5.125
 11
-1.087
 21
2.034
 31
5.125
  0
LINE
  5
45A1B
100
AcDbEntity
  8
0
100
AcDbLine
 10
0.137792
 20
-0.214
 30
4.889972
 11
-1.087
 21
-0.214
 31
4.889972
210
0.0
220
-1.0
230
0.0
  0
LINE
  5
45A1C
100
AcDbEntity
  8
0
100
AcDbLine
 10
0.276
 20
1.044
 30
5.125
 11
-1.087
 21
1.044
 31
5.125
  0
LINE
  5
45A1D
100
AcDbEntity
  8
0
100
AcDbLine
 10
0.276
 20
1.124
 30
5.125
 11
-1.087
 21
1.124
 31
5.125
  0
LINE
  5
45A1E
100
AcDbEntity
  8
0
100
AcDbLine
 10
-0.086
 20
-0.305
 30
3.183
 11
-0.725
 21
-0.305
 31
3.183
210
0.0
220
-1.0
230
0.0
  0
LINE
  5
45A1F
100
AcDbEntity
  8
0
100
AcDbLine
 10
-0.086
 20
-0.305
 30
3.233
 11
-0.725
 21
-0.305
 31
3.233
210
0.0
220
-1.0
230
0.0
  0
LINE
  5
45A20
100
AcDbEntity
  8
0
100
AcDbLine
 10
-0.086
 20
-0.305
 30
3.283
 11
-0.725
 21
-0.305
 31
3.283
210
0.0
220
-1.0
230
0.0
  0
LINE
  5
45A21
100
AcDbEntity
  8
0
100
AcDbLine
 10
-0.086
 20
-0.305
 30
3.333
 11
-0.725
 21
-0.305
 31
3.333
210
0.0
220
-1.0
230
0.0
  0
LINE
  5
45A22
100
AcDbEntity
  8
0
100
AcDbLine
 10
-0.086
 20
-0.305
 30
3.383
 11
-0.725
 21
-0.305
 31
3.383
210
0.0
220
-1.0
230
0.0
  0
LINE
  5
45A23
100
AcDbEntity
  8
0
100
AcDbLine
 10
-0.086
 20
-0.305
 30
3.433
 11
-0.725
 21
-0.305
 31
3.433
210
0.0
220
-1.0
230
0.0
  0
LINE
  5
45A24
100
AcDbEntity
  8
0
100
AcDbLine
 10
-0.086
 20
-0.305
 30
3.483
 11
-0.725
 21
-0.305
 31
3.483
210
0.0
220
-1.0
230
0.0
  0
LINE
  5
45A25
100
AcDbEntity
  8
0
100
AcDbLine
 10
-0.086
 20
-0.305
 30
3.533
 11
-0.725
 21
-0.305
 31
3.533
210
0.0
220
-1.0
230
0.0
  0
LINE
  5
45A26
100
AcDbEntity
  8
0
100
AcDbLine
 10
-0.086
 20
-0.305
 30
3.633
 11
-0.725
 21
-0.305
 31
3.633
210
0.0
220
-1.0
230
0.0
  0
LINE
  5
45A27
100
AcDbEntity
  8
0
100
AcDbLine
 10
-0.086
 20
-0.305
 30
3.583
 11
-0.725
 21
-0.305
 31
3.583
210
0.0
220
-1.0
230
0.0
  0
LINE
  5
45A28
100
AcDbEntity
  8
0
100
AcDbLine
 10
-0.086
 20
-0.305
 30
3.633
 11
-0.725
 21
-0.305
 31
3.633
210
0.0
220
-1.0
230
0.0
  0
LINE
  5
45A29
100
AcDbEntity
  8
0
100
AcDbLine
 10
-0.099397
 20
-0.305
 30
3.683
 11
-0.711603
 21
-0.305
 31
3.683
210
0.0
220
-1.0
230
0.0
  0
LINE
  5
45A2A
100
AcDbEntity
  8
0
100
AcDbLine
 10
-0.186
 20
-0.305
 30
3.733
 11
-0.625
 21
-0.305
 31
3.733
210
0.0
220
-1.0
230
0.0
  0
POLYLINE
  5
45A2B
100
AcDbEntity
  8
0
100
AcDbPolygonMesh
 66
     1
 10
0.0
 20
0.0
 30
0.0
 70
    16
 71
     6
 72
     3
  0
VERTEX
  5
45A2C
100
AcDbEntity
  8
0
100
AcDbVertex
100
AcDbPolygonMeshVertex
 10
0.276
 20
-0.305
 30
4.033
 70
    64
  0
VERTEX
  5
45A2D
100
AcDbEntity
  8
0
100
AcDbVertex
100
AcDbPolygonMeshVertex
 10
0.276
 20
-0.305
 30
3.133
 70
    64
  0
VERTEX
  5
45A2E
100
AcDbEntity
  8
0
100
AcDbVertex
100
AcDbPolygonMeshVertex
 10
0.276
 20
-0.305
 30
3.133
 70
    64
  0
VERTEX
  5
45A2F
100
AcDbEntity
  8
0
100
AcDbVertex
100
AcDbPolygonMeshVertex
 10
-1.087
 20
-0.305
 30
4.033
 70
    64
  0
VERTEX
  5
45A30
100
AcDbEntity
  8
0
100
AcDbVertex
100
AcDbPolygonMeshVertex
 10
-1.087
 20
-0.305
 30
3.133
 70
    64
  0
VERTEX
  5
45A31
100
AcDbEntity
  8
0
100
AcDbVertex
100
AcDbPolygonMeshVertex
 10
-1.087
 20
-0.305
 30
3.133
 70
    64
  0
VERTEX
  5
45A32
100
AcDbEntity
  8
0
100
AcDbVertex
100
AcDbPolygonMeshVertex
 10
-1.087
 20
-0.214
 30
4.033
 70
    64
  0
VERTEX
  5
45A33
100
AcDbEntity
  8
0
100
AcDbVertex
100
AcDbPolygonMeshVertex
 10
-1.087
 20
-0.214
 30
3.133
 70
    64
  0
VERTEX
  5
45A34
100
AcDbEntity
  8
0
100
AcDbVertex
100
AcDbPolygonMeshVertex
 10
-1.087
 20
-0.305
 30
3.133
 70
    64
  0
VERTEX
  5
45A35
100
AcDbEntity
  8
0
100
AcDbVertex
100
AcDbPolygonMeshVertex
 10
0.276
 20
-0.214
 30
4.033
 70
    64
  0
VERTEX
  5
45A36
100
AcDbEntity
  8
0
100
AcDbVertex
100
AcDbPolygonMeshVertex
 10
0.276
 20
-0.214
 30
3.133
 70
    64
  0
VERTEX
  5
45A37
100
AcDbEntity
  8
0
100
AcDbVertex
100
AcDbPolygonMeshVertex
 10
0.276
 20
-0.305
 30
3.133
 70
    64
  0
VERTEX
  5
45A38
100
AcDbEntity
  8
0
100
AcDbVertex
100
AcDbPolygonMeshVertex
 10
0.276
 20
-0.214
 30
4.033
 70
    64
  0
VERTEX
  5
45A39
100
AcDbEntity
  8
0
100
AcDbVertex
100
AcDbPolygonMeshVertex
 10
0.276
 20
-0.214
 30
4.033
 70
    64
  0
VERTEX
  5
45A3A
100
AcDbEntity
  8
0
100
AcDbVertex
100
AcDbPolygonMeshVertex
 10
0.276
 20
-0.305
 30
4.033
 70
    64
  0
VERTEX
  5
45A3B
100
AcDbEntity
  8
0
100
AcDbVertex
100
AcDbPolygonMeshVertex
 10
-1.087
 20
-0.214
 30
4.033
 70
    64
  0
VERTEX
  5
45A3C
100
AcDbEntity
  8
0
100
AcDbVertex
100
AcDbPolygonMeshVertex
 10
-1.087
 20
-0.214
 30
4.033
 70
    64
  0
VERTEX
  5
45A3D
100
AcDbEntity
  8
0
100
AcDbVertex
100
AcDbPolygonMeshVertex
 10
-1.087
 20
-0.305
 30
4.033
 70
    64
  0
SEQEND
  5
45A3E
100
AcDbEntity
  8
0
  0
LINE
  5
45A3F
100
AcDbEntity
  8
0
100
AcDbLine
 10
-0.725
 20
-0.305
 30
3.633
 11
-0.725
 21
-0.305
 31
3.133
210
0.0
220
-1.0
230
0.0
  0
ARC
  5
45A40
100
AcDbEntity
  8
0
100
AcDbCircle
 10
-0.625
 20
3.633
 30
0.305
 40
0.1
210
0.0
220
-1.0
230
0.0
100
AcDbArc
 50
90.0
 51
180.0
  0
LINE
  5
45A41
100
AcDbEntity
  8
0
100
AcDbLine
 10
-0.086
 20
-0.305
 30
3.133
 11
-0.086
 21
-0.305
 31
3.633
210
0.0
220
-1.0
230
0.0
  0
ARC
  5
45A42
100
AcDbEntity
  8
0
100
AcDbCircle
 10
-0.186
 20
3.633
 30
0.305
 40
0.1
210
0.0
220
-1.0
230
0.0
100
AcDbArc
 50
0.0
 51
90.0
  0
LINE
  5
45A43
100
AcDbEntity
  8
0
100
AcDbLine
 10
0.137792
 20
-0.214
 30
5.125
 11
0.137792
 21
-0.214
 31
4.889972
210
0.0
220
-1.0
230
0.0
  0
LINE
  5
45A44
100
AcDbEntity
  8
0
100
AcDbLine
 10
0.137792
 20
-0.123
 30
5.125
 11
0.137792
 21
-0.214
 31
5.125
  0
CIRCLE
  5
45A45
100
AcDbEntity
  8
0
100
AcDbCircle
 10
0.206287
 20
5.02554
 30
0.214
 40
0.044406
210
0.0
220
-1.0
230
0.0
  0
LINE
  5
45A46
100
AcDbEntity
  8
0
100
AcDbLine
 10
0.137792
 20
-0.123
 30
5.125
 11
0.276
 21
-0.123
 31
5.125
  0
LINE
  5
45A47
100
AcDbEntity
  8
0
100
AcDbLine
 10
0.276
 20
2.354
 30
5.125
 11
-1.087
 21
2.354
 31
5.125
  0
LINE
  5
45A48
100
AcDbEntity
  8
0
100
AcDbLine
 10
0.276
 20
2.674
 30
5.125
 11
-1.087
 21
2.674
 31
5.125
  0
LINE
  5
45A49
100
AcDbEntity
  8
0
100
AcDbLine
 10
0.276
 20
2.994
 30
5.125
 11
-1.087
 21
2.994
 31
5.125
  0
LINE
  5
45A4A
100
AcDbEntity
  8
0
100
AcDbLine
 10
0.276
 20
3.314
 30
5.125
 11
-1.087
 21
3.314
 31
5.125
  0
LINE
  5
45A4B
100
AcDbEntity
  8
0
100
AcDbLine
 10
0.276
 20
3.634
 30
5.125
 11
-1.087
 21
3.634
 31
5.125
  0
LINE
  5
45A4C
100
AcDbEntity
  8
0
100
AcDbLine
 10
0.276
 20
5.188199
 30
5.125
 11
-1.087
 21
5.188199
 31
5.125
  0
LINE
  5
45A4D
100
AcDbEntity
  8
0
100
AcDbLine
 10
0.276
 20
5.108199
 30
5.125
 11
-1.087
 21
5.108199
 31
5.125
  0
LINE
  5
45A4E
100
AcDbEntity
  8
0
100
AcDbLine
 10
0.276
 20
3.954
 30
5.125
 11
-1.087
 21
3.954
 31
5.125
  0
LINE
  5
45A4F
100
AcDbEntity
  8
0
100
AcDbLine
 10
0.276
 20
4.034
 30
5.125
 11
-1.087
 21
4.034
 31
5.125
  0
LINE
  5
45A50
100
AcDbEntity
  8
0
100
AcDbLine
 10
-0.186
 20
5.385
 30
3.733
 11
-0.625
 21
5.385
 31
3.733
210
0.0
220
1.0
230
0.0
  0
LINE
  5
45A51
100
AcDbEntity
  8
0
100
AcDbLine
 10
-0.099397
 20
5.385
 30
3.683
 11
-0.711603
 21
5.385
 31
3.683
210
0.0
220
1.0
230
0.0
  0
LINE
  5
45A52
100
AcDbEntity
  8
0
100
AcDbLine
 10
-0.086
 20
5.385
 30
3.633
 11
-0.725
 21
5.385
 31
3.633
210
0.0
220
1.0
230
0.0
  0
LINE
  5
45A53
100
AcDbEntity
  8
0
100
AcDbLine
 10
-0.086
 20
5.385
 30
3.583
 11
-0.725
 21
5.385
 31
3.583
210
0.0
220
1.0
230
0.0
  0
LINE
  5
45A54
100
AcDbEntity
  8
0
100
AcDbLine
 10
-0.086
 20
5.385
 30
3.633
 11
-0.725
 21
5.385
 31
3.633
210
0.0
220
1.0
230
0.0
  0
LINE
  5
45A55
100
AcDbEntity
  8
0
100
AcDbLine
 10
-0.086
 20
5.385
 30
3.533
 11
-0.725
 21
5.385
 31
3.533
210
0.0
220
1.0
230
0.0
  0
LINE
  5
45A56
100
AcDbEntity
  8
0
100
AcDbLine
 10
-0.086
 20
5.385
 30
3.483
 11
-0.725
 21
5.385
 31
3.483
210
0.0
220
1.0
230
0.0
  0
LINE
  5
45A57
100
AcDbEntity
  8
0
100
AcDbLine
 10
-0.086
 20
5.385
 30
3.433
 11
-0.725
 21
5.385
 31
3.433
210
0.0
220
1.0
230
0.0
  0
LINE
  5
45A58
100
AcDbEntity
  8
0
100
AcDbLine
 10
-0.086
 20
5.385
 30
3.383
 11
-0.725
 21
5.385
 31
3.383
210
0.0
220
1.0
230
0.0
  0
LINE
  5
45A59
100
AcDbEntity
  8
0
100
AcDbLine
 10
-0.086
 20
5.385
 30
3.333
 11
-0.725
 21
5.385
 31
3.333
210
0.0
220
1.0
230
0.0
  0
LINE
  5
45A5A
100
AcDbEntity
  8
0
100
AcDbLine
 10
-0.086
 20
5.385
 30
3.283
 11
-0.725
 21
5.385
 31
3.283
210
0.0
220
1.0
230
0.0
  0
LINE
  5
45A5B
100
AcDbEntity
  8
0
100
AcDbLine
 10
-0.086
 20
5.385
 30
3.233
 11
-0.725
 21
5.385
 31
3.233
210
0.0
220
1.0
230
0.0
  0
LINE
  5
45A5C
100
AcDbEntity
  8
0
100
AcDbLine
 10
-0.086
 20
5.385
 30
3.183
 11
-0.725
 21
5.385
 31
3.183
210
0.0
220
1.0
230
0.0
  0
POLYLINE
  5
45A5D
100
AcDbEntity
  8
0
100
AcDbPolygonMesh
 66
     1
 10
0.0
 20
0.0
 30
0.0
 70
    16
 71
     6
 72
     3
  0
VERTEX
  5
45A5E
100
AcDbEntity
  8
0
100
AcDbVertex
100
AcDbPolygonMeshVertex
 10
0.276
 20
5.385
 30
4.033
 70
    64
  0
VERTEX
  5
45A5F
100
AcDbEntity
  8
0
100
AcDbVertex
100
AcDbPolygonMeshVertex
 10
0.276
 20
5.385
 30
3.133
 70
    64
  0
VERTEX
  5
45A60
100
AcDbEntity
  8
0
100
AcDbVertex
100
AcDbPolygonMeshVertex
 10
0.276
 20
5.385
 30
3.133
 70
    64
  0
VERTEX
  5
45A61
100
AcDbEntity
  8
0
100
AcDbVertex
100
AcDbPolygonMeshVertex
 10
-1.087
 20
5.385
 30
4.033
 70
    64
  0
VERTEX
  5
45A62
100
AcDbEntity
  8
0
100
AcDbVertex
100
AcDbPolygonMeshVertex
 10
-1.087
 20
5.385
 30
3.133
 70
    64
  0
VERTEX
  5
45A63
100
AcDbEntity
  8
0
100
AcDbVertex
100
AcDbPolygonMeshVertex
 10
-1.087
 20
5.385
 30
3.133
 70
    64
  0
VERTEX
  5
45A64
100
AcDbEntity
  8
0
100
AcDbVertex
100
AcDbPolygonMeshVertex
 10
-1.087
 20
5.294
 30
4.033
 70
    64
  0
VERTEX
  5
45A65
100
AcDbEntity
  8
0
100
AcDbVertex
100
AcDbPolygonMeshVertex
 10
-1.087
 20
5.294
 30
3.133
 70
    64
  0
VERTEX
  5
45A66
100
AcDbEntity
  8
0
100
AcDbVertex
100
AcDbPolygonMeshVertex
 10
-1.087
 20
5.385
 30
3.133
 70
    64
  0
VERTEX
  5
45A67
100
AcDbEntity
  8
0
100
AcDbVertex
100
AcDbPolygonMeshVertex
 10
0.276
 20
5.294
 30
4.033
 70
    64
  0
VERTEX
  5
45A68
100
AcDbEntity
  8
0
100
AcDbVertex
100
AcDbPolygonMeshVertex
 10
0.276
 20
5.294
 30
3.133
 70
    64
  0
VERTEX
  5
45A69
100
AcDbEntity
  8
0
100
AcDbVertex
100
AcDbPolygonMeshVertex
 10
0.276
 20
5.385
 30
3.133
 70
    64
  0
VERTEX
  5
45A6A
100
AcDbEntity
  8
0
100
AcDbVertex
100
AcDbPolygonMeshVertex
 10
0.276
 20
5.294
 30
4.033
 70
    64
  0
VERTEX
  5
45A6B
100
AcDbEntity
  8
0
100
AcDbVertex
100
AcDbPolygonMeshVertex
 10
0.276
 20
5.294
 30
4.033
 70
    64
  0
VERTEX
  5
45A6C
100
AcDbEntity
  8
0
100
AcDbVertex
100
AcDbPolygonMeshVertex
 10
0.276
 20
5.385
 30
4.033
 70
    64
  0
VERTEX
  5
45A6D
100
AcDbEntity
  8
0
100
AcDbVertex
100
AcDbPolygonMeshVertex
 10
-1.087
 20
5.294
 30
4.033
 70
    64
  0
VERTEX
  5
45A6E
100
AcDbEntity
  8
0
100
AcDbVertex
100
AcDbPolygonMeshVertex
 10
-1.087
 20
5.294
 30
4.033
 70
    64
  0
VERTEX
  5
45A6F
100
AcDbEntity
  8
0
100
AcDbVertex
100
AcDbPolygonMeshVertex
 10
-1.087
 20
5.385
 30
4.033
 70
    64
  0
SEQEND
  5
45A70
100
AcDbEntity
  8
0
  0
LINE
  5
45A71
100
AcDbEntity
  8
0
100
AcDbLine
 10
-1.087
 20
3.954
 30
5.125
 11
-1.087
 21
3.954
 31
4.889972
210
0.0
220
-1.0
230
0.0
  0
LINE
  5
45A72
100
AcDbEntity
  8
0
100
AcDbLine
 10
-0.725
 20
5.385
 30
3.633
 11
-0.725
 21
5.385
 31
3.133
210
0.0
220
1.0
230
0.0
  0
ARC
  5
45A73
100
AcDbEntity
  8
0
100
AcDbCircle
 10
0.625
 20
3.633
 30
5.385
 40
0.1
210
0.0
220
1.0
230
0.0
100
AcDbArc
 50
0.0
 51
90.0
  0
LINE
  5
45A74
100
AcDbEntity
  8
0
100
AcDbLine
 10
0.137792
 20
4.034
 30
5.125
 11
0.137792
 21
3.954
 31
5.125
  0
LINE
  5
45A75
100
AcDbEntity
  8
0
100
AcDbLine
 10
-0.086
 20
5.385
 30
3.133
 11
-0.086
 21
5.385
 31
3.633
210
0.0
220
1.0
230
0.0
  0
ARC
  5
45A76
100
AcDbEntity
  8
0
100
AcDbCircle
 10
0.186
 20
3.633
 30
5.385
 40
0.1
210
0.0
220
1.0
230
0.0
100
AcDbArc
 50
90.0
 51
180.0
  0
DIMENSION
  5
45A78
100
AcDbEntity
  8
AREA1
100
AcDbDimension
  2
*D0
 10
1.102102
 20
5.385
 30
0.0
 11
1.102102
 21
2.54
 31
0.0
 70
    32
  3
ABECAD_3D
100
AcDbAlignedDimension
 13
0.276
 23
-0.305
 33
3.133
 14
0.276
 24
5.385
 34
3.133
 50
90.0
100
AcDbRotatedDimension
  0
DIMENSION
  5
45A86
100
AcDbEntity
  8
AREA1
100
AcDbDimension
  2
*D1
 10
0.276
 20
6.143011
 30
0.0
 11
1.626
 21
6.143011
 31
0.0
 70
    32
  3
ABECAD_3D
100
AcDbAlignedDimension
 13
-1.087
 23
5.385
 33
3.133
 14
0.276
 24
5.385
 34
3.133
100
AcDbRotatedDimension
  0
INSERT
  5
45ADD
100
AcDbEntity
  8
SCALE
100
AcDbBlockReference
  2
SCALE
 10
-1.047702
 20
-0.537943
 30
0.0
  0
ENDSEC
  0
SECTION
  2
OBJECTS
  0
DICTIONARY
  5
458CB
100
AcDbDictionary
  3
ACAD_GROUP
350
458CC
  3
ACAD_LAYOUT
350
458FB
  3
ACAD_MLINESTYLE
350
458D9
  3
ACAD_PLOTSETTINGS
350
458FC
  3
ACAD_PLOTSTYLENAME
350
458F9
  3
ACDBHEADERROUNDTRIPXREC
350
45B85
  3
ACDBVARIABLEDICTIONARY
350
458E1
  3
DWGPROPS
350
45901
  0
DICTIONARY
  5
45B83
100
AcDbDictionary
280
     1
  3
ACAD_XREC_ROUNDTRIP
360
45B84
  0
DICTIONARY
  5
45BAE
100
AcDbDictionary
280
     1
  3
ACAD_XREC_ROUNDTRIP
360
45BAF
  0
DICTIONARY
  5
45B81
100
AcDbDictionary
280
     1
  3
ACAD_XREC_ROUNDTRIP
360
45B82
  0
DICTIONARY
  5
45BA8
100
AcDbDictionary
280
     1
  3
ACAD_XREC_ROUNDTRIP
360
45BA9
  0
DICTIONARY
  5
45BAA
100
AcDbDictionary
280
     1
  3
ACAD_XREC_ROUNDTRIP
360
45BAB
  0
DICTIONARY
  5
4592C
100
AcDbDictionary
280
     1
  3
ACAD_LAYOUTSELFREF
360
45BA7
  0
DICTIONARY
  5
4592A
100
AcDbDictionary
280
     1
  3
ACAD_LAYOUTSELFREF
360
45BA6
  0
DICTIONARY
  5
45B7F
100
AcDbDictionary
280
     1
  3
ACAD_XREC_ROUNDTRIP
360
45B80
  0
DICTIONARY
  5
458CC
102
{ACAD_REACTORS
330
458CB
102
}
100
AcDbDictionary
  0
DICTIONARY
  5
458FB
102
{ACAD_XDICTIONARY
360
45BAC
102
}
102
{ACAD_REACTORS
330
458CB
102
}
100
AcDbDictionary
  3
LAYOUT1
350
458FE
  3
MODEL
350
458FD
  0
DICTIONARY
  5
458D9
102
{ACAD_REACTORS
330
458CB
102
}
100
AcDbDictionary
  3
STANDARD
350
458DA
  0
DICTIONARY
  5
458FC
102
{ACAD_REACTORS
330
458CB
102
}
100
AcDbDictionary
  0
ACAD_PROXY_OBJECT
  5
458F9
102
{ACAD_REACTORS
330
458CB
102
}
100
AcDbProxyObject
 90
      499
 91
      501
 93
       86
310
405010041939BDC9B585B1
350
458FA
340
458FA
 94
        0
  0
DICTIONARY
  5
45B85
102
{ACAD_REACTORS
330
458CB
102
}
100
AcDbDictionary
  3
CEPSNTYPE
350
45B8F
  3
DIMSTYLEDATA
350
45B93
  3
FINGERPRINTGUID
350
45B90
  3
HYPERLINKBASE
350
45B88
  3
INSUNITS
350
45B8E
  3
LAYOUTDICT
350
45B8A
  3
LWETCUNION
350
45B8D
  3
PLOTSETDICT
350
45B8B
  3
PLOTSTYLNAMDICT
350
45B8C
  3
PSVPSCALE
350
45B92
  3
PUCSBASE
350
45B96
  3
PUCSORGBACK
350
45B9C
  3
PUCSORGBOTTOM
350
45B98
  3
PUCSORGFRONT
350
45B9B
  3
PUCSORGLEFT
350
45B99
  3
PUCSORGRIGHT
350
45B9A
  3
PUCSORGTOP
350
45B97
  3
PUCSORTHOREF
350
45B94
  3
PUCSORTHOVIEW
350
45B95
  3
STYLESHEET
350
45B89
  3
TSTACKALIGN
350
45B86
  3
TSTACKSIZE
350
45B87
  3
UCSBASE
350
45B9F
  3
UCSORGBACK
350
45BA5
  3
UCSORGBOTTOM
350
45BA1
  3
UCSORGFRONT
350
45BA4
  3
UCSORGLEFT
350
45BA2
  3
UCSORGRIGHT
350
45BA3
  3
UCSORGTOP
350
45BA0
  3
UCSORTHOREF
350
45B9D
  3
UCSORTHOVIEW
350
45B9E
  3
VERSIONGUID
350
45B91
  0
DICTIONARY
  5
458E1
102
{ACAD_REACTORS
330
458CB
102
}
100
AcDbDictionary
  3
DIMADEC
350
458E2
  0
XRECORD
  5
45901
102
{ACAD_REACTORS
330
458CB
102
}
100
AcDbXrecord
  1
DWGPROPS COOKIE
  2

  3

  4

  6

  7

  8
colin
  9

300
=
301
=
302
=
303
=
304
=
305
=
306
=
307
=
308
=
309
=
 40
0.000599
 41
2451670.444777
 42
2451670.445376
  1

 90
        0
  0
XRECORD
  5
45B84
102
{ACAD_REACTORS
330
45B83
102
}
100
AcDbXrecord
102
EXTNAMES
  1
*ACTIVE
  2
*Active
102
UCS
 74
     0
 71
     1
 10
0.0
 20
0.0
 30
0.0
 10
1.0
 20
0.0
 30
0.0
 10
0.0
 20
1.0
 30
0.0
146
0.0
 79
     1
102
VIEW
281
     0
  0
XRECORD
  5
45BAF
102
{ACAD_REACTORS
330
45BAE
102
}
100
AcDbXrecord
102
PLOTBIT
280
     0
  0
XRECORD
  5
45B82
102
{ACAD_REACTORS
330
45B81
102
}
100
AcDbXrecord
102
EXTNAMES
  1
DEFPOINTS
  2
Defpoints
102
PLOTBIT
280
     0
  0
XRECORD
  5
45BA9
102
{ACAD_REACTORS
330
45BA8
102
}
100
AcDbXrecord
102
ACADR14ROUNDTRIP
1000
DSTYLE
1002
{
1070
   276
 70
     2
1070
   277
 70
     5
1002
}
  0
XRECORD
  5
45BAB
102
{ACAD_REACTORS
330
45BAA
102
}
100
AcDbXrecord
102
ACADR14ROUNDTRIP
1000
DSTYLE
1002
{
1070
   276
 70
     2
1070
   277
 70
     5
1002
}
  0
XRECORD
  5
45BA7
102
{ACAD_REACTORS
330
4592C
102
}
100
AcDbXrecord
340
458D6
  0
XRECORD
  5
45BA6
102
{ACAD_REACTORS
330
4592A
102
}
100
AcDbXrecord
340
458D3
  0
XRECORD
  5
45B80
102
{ACAD_REACTORS
330
45B7F
102
}
100
AcDbXrecord
102
EXTNAMES
  1
SCALE
  2
scale
  0
DICTIONARY
  5
45BAC
100
AcDbDictionary
280
     1
  3
ACAD_XREC_ROUNDTRIP
360
45BAD
  0
ACAD_PROXY_OBJECT
  5
458FE
102
{ACAD_REACTORS
330
458FB
102
}
100
AcDbProxyObject
 90
      499
 91
      503
 93
     1348
310
91D4850204C617365724A65742035303030205365726965732050434C20362C00AAAAAA416AA547D11959985D5B1D08148C4D081C195B88185CDCDA59DB9B595B9D1CCB98DD1891069074C61796F75743140501A800000000000000000000000000000000000000000000A1000000000000008902A6A6A10232D5E076BC551
310
0408CB5781DAF154410232D5E076BC5510408CB5781DAF15C410232D5E076BC5710408CB5781DAF15C40
330
458D3
330
0
340
0
340
0
 94
        0
  0
ACAD_PROXY_OBJECT
  5
458FD
102
{ACAD_REACTORS
330
458FB
102
}
100
AcDbProxyObject
 90
      499
 91
      503
 93
      924
310
91D4850204C617365724A65742035303030205365726965732050434C20362C01AAAAAAAAA547D11959985D5B1D08148C4D081C195B88185CDCDA59DB9B595B9D1CCB98DD18A69054D6F64656C901A800000000000000000000000000000000000000000000A1000000000000008902A6A6AAAA2
330
458D6
330
0
340
0
340
0
 94
        0
  0
MLINESTYLE
  5
458DA
102
{ACAD_REACTORS
330
458D9
102
}
100
AcDbMlineStyle
  2
STANDARD
 70
     0
  3

 62
   256
 51
90.0
 52
90.0
 71
     2
 49
0.5
 62
   256
  6
BYLAYER
 49
-0.5
 62
   256
  6
BYLAYER
  0
ACAD_PROXY_OBJECT
  5
458FA
102
{ACAD_REACTORS
330
458F9
102
}
100
AcDbProxyObject
 90
      499
 91
      502
 93
        0
 94
        0
  0
XRECORD
  5
45B8F
102
{ACAD_REACTORS
330
45B85
102
}
100
AcDbXrecord
 90
        0
  0
XRECORD
  5
45B93
102
{ACAD_REACTORS
330
45B85
102
}
100
AcDbXrecord
1000
DSTYLE
1002
{
1070
   276
 70
     2
1070
   277
 70
     5
1002
}
  0
XRECORD
  5
45B90
102
{ACAD_REACTORS
330
45B85
102
}
100
AcDbXrecord
  1
{6E0CF4B8-225E-11D4-A150-00A0CC3303EC}
  0
XRECORD
  5
45B88
102
{ACAD_REACTORS
330
45B85
102
}
100
AcDbXrecord
  1

  0
XRECORD
  5
45B8E
102
{ACAD_REACTORS
330
45B85
102
}
100
AcDbXrecord
 90
        0
  0
XRECORD
  5
45B8A
102
{ACAD_REACTORS
330
45B85
102
}
100
AcDbXrecord
340
458FB
  0
XRECORD
  5
45B8D
102
{ACAD_REACTORS
330
45B85
102
}
100
AcDbXrecord
 90
    14877
  0
XRECORD
  5
45B8B
102
{ACAD_REACTORS
330
45B85
102
}
100
AcDbXrecord
340
458FC
  0
XRECORD
  5
45B8C
102
{ACAD_REACTORS
330
45B85
102
}
100
AcDbXrecord
340
458F9
  0
XRECORD
  5
45B92
102
{ACAD_REACTORS
330
45B85
102
}
100
AcDbXrecord
 40
0.0
  0
XRECORD
  5
45B96
102
{ACAD_REACTORS
330
45B85
102
}
100
AcDbXrecord
340
0
  0
XRECORD
  5
45B9C
102
{ACAD_REACTORS
330
45B85
102
}
100
AcDbXrecord
 10
0.0
 20
0.0
 30
0.0
  0
XRECORD
  5
45B98
102
{ACAD_REACTORS
330
45B85
102
}
100
AcDbXrecord
 10
0.0
 20
0.0
 30
0.0
  0
XRECORD
  5
45B9B
102
{ACAD_REACTORS
330
45B85
102
}
100
AcDbXrecord
 10
0.0
 20
0.0
 30
0.0
  0
XRECORD
  5
45B99
102
{ACAD_REACTORS
330
45B85
102
}
100
AcDbXrecord
 10
0.0
 20
0.0
 30
0.0
  0
XRECORD
  5
45B9A
102
{ACAD_REACTORS
330
45B85
102
}
100
AcDbXrecord
 10
0.0
 20
0.0
 30
0.0
  0
XRECORD
  5
45B97
102
{ACAD_REACTORS
330
45B85
102
}
100
AcDbXrecord
 10
0.0
 20
0.0
 30
0.0
  0
XRECORD
  5
45B94
102
{ACAD_REACTORS
330
45B85
102
}
100
AcDbXrecord
340
0
  0
XRECORD
  5
45B95
102
{ACAD_REACTORS
330
45B85
102
}
100
AcDbXrecord
 70
     0
  0
XRECORD
  5
45B89
102
{ACAD_REACTORS
330
45B85
102
}
100
AcDbXrecord
  1

  0
XRECORD
  5
45B86
102
{ACAD_REACTORS
330
45B85
102
}
100
AcDbXrecord
 90
        1
  0
XRECORD
  5
45B87
102
{ACAD_REACTORS
330
45B85
102
}
100
AcDbXrecord
 90
       70
  0
XRECORD
  5
45B9F
102
{ACAD_REACTORS
330
45B85
102
}
100
AcDbXrecord
340
0
  0
XRECORD
  5
45BA5
102
{ACAD_REACTORS
330
45B85
102
}
100
AcDbXrecord
 10
0.0
 20
0.0
 30
0.0
  0
XRECORD
  5
45BA1
102
{ACAD_REACTORS
330
45B85
102
}
100
AcDbXrecord
 10
0.0
 20
0.0
 30
0.0
  0
XRECORD
  5
45BA4
102
{ACAD_REACTORS
330
45B85
102
}
100
AcDbXrecord
 10
0.0
 20
0.0
 30
0.0
  0
XRECORD
  5
45BA2
102
{ACAD_REACTORS
330
45B85
102
}
100
AcDbXrecord
 10
0.0
 20
0.0
 30
0.0
  0
XRECORD
  5
45BA3
102
{ACAD_REACTORS
330
45B85
102
}
100
AcDbXrecord
 10
0.0
 20
0.0
 30
0.0
  0
XRECORD
  5
45BA0
102
{ACAD_REACTORS
330
45B85
102
}
100
AcDbXrecord
 10
0.0
 20
0.0
 30
0.0
  0
XRECORD
  5
45B9D
102
{ACAD_REACTORS
330
45B85
102
}
100
AcDbXrecord
340
0
  0
XRECORD
  5
45B9E
102
{ACAD_REACTORS
330
45B85
102
}
100
AcDbXrecord
 70
     1
  0
XRECORD
  5
45B91
102
{ACAD_REACTORS
330
45B85
102
}
100
AcDbXrecord
  1
{E20FE459-AD9D-4BB1-B372-007FDDA56168}
  0
DICTIONARYVAR
  5
458E2
102
{ACAD_REACTORS
330
458E1
102
}
100
DictionaryVariables
280
     0
  1
0
  0
XRECORD
  5
45BAD
102
{ACAD_REACTORS
330
45BAC
102
}
100
AcDbXrecord
102
EXTNAMES
  1
LAYOUT1
  2
Layout1
  1
MODEL
  2
Model
  0
ENDSEC
  0
EOF
