  0
SECTION
  2
HEADER
  9
$ACADVER
  1
AC1015
  9
$ACADMAINTVER
 70
     6
  9
$DWGCODEPAGE
  3
ANSI_1252
  9
$INSBASE
 10
0.0
 20
0.0
 30
0.0
  9
$EXTMIN
 10
710.4547652717737
 20
181.6992076809265
 30
3.646124999999996
  9
$EXTMAX
 10
1011.947441906582
 20
531.1976111121041
 30
3.660550014273368
  9
$LIMMIN
 10
0.0
 20
0.0
  9
$LIMMAX
 10
12.0
 20
9.0
  9
$ORTHOMODE
 70
     0
  9
$REGENMODE
 70
     1
  9
$FILLMODE
 70
     1
  9
$QTEXTMODE
 70
     0
  9
$MIRRTEXT
 70
     1
  9
$LTSCALE
 40
1.0
  9
$ATTMODE
 70
     1
  9
$TEXTSIZE
 40
0.12
  9
$TRACEWID
 40
0.05
  9
$TEXTSTYLE
  7
STANDARD
  9
$CLAYER
  8
AREA1
  9
$CELTYPE
  6
BYLAYER
  9
$CECOLOR
 62
   256
  9
$CELTSCALE
 40
1.0
  9
$DISPSILH
 70
     0
  9
$DIMSCALE
 40
1.0
  9
$DIMASZ
 40
4.572
  9
$DIMEXO
 40
1.587499999999999
  9
$DIMDLI
 40
9.525
  9
$DIMRND
 40
0.0
  9
$DIMDLE
 40
0.0
  9
$DIMEXE
 40
4.572
  9
$DIMTP
 40
0.0
  9
$DIMTM
 40
0.0
  9
$DIMTXT
 40
4.572
  9
$DIMCEN
 40
2.286
  9
$DIMTSZ
 40
0.0
  9
$DIMTOL
 70
     0
  9
$DIMLIM
 70
     0
  9
$DIMTIH
 70
     0
  9
$DIMTOH
 70
     1
  9
$DIMSE1
 70
     0
  9
$DIMSE2
 70
     0
  9
$DIMTAD
 70
     0
  9
$DIMZIN
 70
     4
  9
$DIMBLK
  1

  9
$DIMASO
 70
     1
  9
$DIMSHO
 70
     1
  9
$DIMPOST
  1

  9
$DIMAPOST
  1

  9
$DIMALT
 70
     1
  9
$DIMALTD
 70
     6
  9
$DIMALTF
 40
0.03937
  9
$DIMLFAC
 40
1.0
  9
$DIMTOFL
 70
     0
  9
$DIMTVP
 40
0.0
  9
$DIMTIX
 70
     0
  9
$DIMSOXD
 70
     0
  9
$DIMSAH
 70
     0
  9
$DIMBLK1
  1

  9
$DIMBLK2
  1

  9
$DIMSTYLE
  2
ABECAD_3D
  9
$DIMCLRD
 70
     0
  9
$DIMCLRE
 70
     0
  9
$DIMCLRT
 70
     0
  9
$DIMTFAC
 40
1.5
  9
$DIMGAP
 40
2.286
  9
$DIMJUST
 70
     0
  9
$DIMSD1
 70
     0
  9
$DIMSD2
 70
     0
  9
$DIMTOLJ
 70
     1
  9
$DIMTZIN
 70
     4
  9
$DIMALTZ
 70
     4
  9
$DIMALTTZ
 70
     4
  9
$DIMUPT
 70
     1
  9
$DIMDEC
 70
     2
  9
$DIMTDEC
 70
     2
  9
$DIMALTU
 70
     7
  9
$DIMALTTD
 70
     6
  9
$DIMTXSTY
  7
STANDARD
  9
$DIMAUNIT
 70
     0
  9
$DIMADEC
 70
     0
  9
$DIMALTRND
 40
0.0
  9
$DIMAZIN
 70
     0
  9
$DIMDSEP
 70
    46
  9
$DIMATFIT
 70
     2
  9
$DIMFRAC
 70
     2
  9
$DIMLDRBLK
  1

  9
$DIMLUNIT
 70
     2
  9
$DIMLWD
 70
    -2
  9
$DIMLWE
 70
    -2
  9
$DIMTMOVE
 70
     2
  9
$LUNITS
 70
     2
  9
$LUPREC
 70
     4
  9
$SKETCHINC
 40
0.1
  9
$FILLETRAD
 40
0.0
  9
$AUNITS
 70
     0
  9
$AUPREC
 70
     0
  9
$MENU
  1
ACAD
  9
$ELEVATION
 40
0.0
  9
$PELEVATION
 40
0.0
  9
$THICKNESS
 40
0.0
  9
$LIMCHECK
 70
     0
  9
$CHAMFERA
 40
0.0
  9
$CHAMFERB
 40
0.0
  9
$CHAMFERC
 40
0.0
  9
$CHAMFERD
 40
0.0
  9
$SKPOLY
 70
     0
  9
$TDCREATE
 40
2453042.595653843
  9
$TDUCREATE
 40
2453042.803987176
  9
$TDUPDATE
 40
2453597.756067986
  9
$TDUUPDATE
 40
2453597.964401319
  9
$TDINDWG
 40
0.1956939468
  9
$TDUSRTIMER
 40
0.1956939468
  9
$USRTIMER
 70
     1
  9
$ANGBASE
 50
0.0
  9
$ANGDIR
 70
     0
  9
$PDMODE
 70
     3
  9
$PDSIZE
 40
2.5
  9
$PLINEWID
 40
0.0
  9
$SPLFRAME
 70
     1
  9
$SPLINETYPE
 70
     6
  9
$SPLINESEGS
 70
     8
  9
$HANDSEED
  5
57A7A
  9
$SURFTAB1
 70
     6
  9
$SURFTAB2
 70
     6
  9
$SURFTYPE
 70
     6
  9
$SURFU
 70
     6
  9
$SURFV
 70
     6
  9
$UCSBASE
  2

  9
$UCSNAME
  2

  9
$UCSORG
 10
266.8673580196576
 20
8.203180508612135
 30
3.646124999999996
  9
$UCSXDIR
 10
1.0
 20
0.0
 30
0.0
  9
$UCSYDIR
 10
0.0
 20
1.0
 30
0.0
  9
$UCSORTHOREF
  2

  9
$UCSORTHOVIEW
 70
     1
  9
$UCSORGTOP
 10
266.8673580196576
 20
8.203180508612135
 30
3.646124999999996
  9
$UCSORGBOTTOM
 10
0.0
 20
0.0
 30
0.0
  9
$UCSORGLEFT
 10
0.0
 20
0.0
 30
0.0
  9
$UCSORGRIGHT
 10
44.57293710473379
 20
-10.57239502465733
 30
3.810000000000003
  9
$UCSORGFRONT
 10
0.0
 20
0.0
 30
0.0
  9
$UCSORGBACK
 10
0.0
 20
0.0
 30
0.0
  9
$PUCSBASE
  2

  9
$PUCSNAME
  2

  9
$PUCSORG
 10
0.0
 20
0.0
 30
0.0
  9
$PUCSXDIR
 10
1.0
 20
0.0
 30
0.0
  9
$PUCSYDIR
 10
0.0
 20
1.0
 30
0.0
  9
$PUCSORTHOREF
  2

  9
$PUCSORTHOVIEW
 70
     0
  9
$PUCSORGTOP
 10
0.0
 20
0.0
 30
0.0
  9
$PUCSORGBOTTOM
 10
0.0
 20
0.0
 30
0.0
  9
$PUCSORGLEFT
 10
0.0
 20
0.0
 30
0.0
  9
$PUCSORGRIGHT
 10
0.0
 20
0.0
 30
0.0
  9
$PUCSORGFRONT
 10
0.0
 20
0.0
 30
0.0
  9
$PUCSORGBACK
 10
0.0
 20
0.0
 30
0.0
  9
$USERI1
 70
     0
  9
$USERI2
 70
     0
  9
$USERI3
 70
     0
  9
$USERI4
 70
     0
  9
$USERI5
 70
     0
  9
$USERR1
 40
0.0
  9
$USERR2
 40
0.0
  9
$USERR3
 40
0.0
  9
$USERR4
 40
0.0
  9
$USERR5
 40
0.0
  9
$WORLDVIEW
 70
     1
  9
$SHADEDGE
 70
     3
  9
$SHADEDIF
 70
    70
  9
$TILEMODE
 70
     0
  9
$MAXACTVP
 70
    16
  9
$PINSBASE
 10
0.0
 20
0.0
 30
0.0
  9
$PLIMCHECK
 70
     0
  9
$PEXTMIN
 10
25.88717061955833
 20
19.5
 30
0.0
  9
$PEXTMAX
 10
231.3
 20
192.0586136734827
 30
0.0
  9
$PLIMMIN
 10
8.931840085394117
 20
13.38571885179438
  9
$PLIMMAX
 10
248.0681737907302
 20
198.1728846186557
  9
$UNITMODE
 70
     0
  9
$VISRETAIN
 70
     0
  9
$PLINEGEN
 70
     0
  9
$PSLTSCALE
 70
     1
  9
$TREEDEPTH
 70
  3020
  9
$CMLSTYLE
  2
STANDARD
  9
$CMLJUST
 70
     0
  9
$CMLSCALE
 40
1.0
  9
$PROXYGRAPHICS
 70
     1
  9
$MEASUREMENT
 70
     1
  9
$CELWEIGHT
370
    -1
  9
$ENDCAPS
280
     0
  9
$JOINSTYLE
280
     0
  9
$LWDISPLAY
290
     0
  9
$INSUNITS
 70
     0
  9
$HYPERLINKBASE
  1

  9
$STYLESHEET
  1

  9
$XEDIT
290
     1
  9
$CEPSNTYPE
380
     0
  9
$PSTYLEMODE
290
     1
  9
$FINGERPRINTGUID
  2
{6E0CF4B8-225E-11D4-A150-00A0CC3303EC}
  9
$VERSIONGUID
  2
{914068E6-1626-4D40-97D7-D14C055B56F7}
  9
$EXTNAMES
290
     1
  9
$PSVPSCALE
 40
0.0
  9
$OLESTARTUP
290
     0
  0
ENDSEC
  0
SECTION
  2
CLASSES
  0
CLASS
  1
DICTIONARYVAR
  2
AcDbDictionaryVar
  3
AutoCAD 2000
 90
        0
280
     0
281
     0
  0
CLASS
  1
ACDBDICTIONARYWDFLT
  2
AcDbDictionaryWithDefault
  3
AutoCAD 2000
 90
        0
280
     0
281
     0
  0
CLASS
  1
ACDBPLACEHOLDER
  2
AcDbPlaceHolder
  3
AutoCAD 2000
 90
        0
280
     0
281
     0
  0
CLASS
  1
LAYOUT
  2
AcDbLayout
  3
AutoCAD 2000
 90
        0
280
     0
281
     0
  0
CLASS
  1
LONG_TRANSACTION
  2
AcDbLongTransaction
  3
AutoCAD 2000
 90
    32768
280
     0
281
     0
  0
CLASS
  1
LWPOLYLINE
  2
AcDbPolyline
  3
AutoCAD 2000
 90
    32768
280
     0
281
     1
  0
CLASS
  1
HATCH
  2
AcDbHatch
  3
AutoCAD 2000
 90
    32768
280
     0
281
     1
  0
CLASS
  1
XRECORD
  2
AcDbXrecord
  3
AutoCAD 2000
 90
    32768
280
     0
281
     0
  0
CLASS
  1
LONG_TRANSACTION
  2
AcDbLongTransaction
  3
AutoCAD 2000
 90
    32768
280
     0
281
     0
  0
CLASS
  1
LWPOLYLINE
  2
AcDbPolyline
  3
AutoCAD 2000
 90
    32768
280
     0
281
     1
  0
CLASS
  1
HATCH
  2
AcDbHatch
  3
AutoCAD 2000
 90
    32768
280
     0
281
     1
  0
CLASS
  1
XRECORD
  2
AcDbXrecord
  3
AutoCAD 2000
 90
    32768
280
     0
281
     0
  0
CLASS
  1
TABLESTYLE
  2
AcDbTableStyle
  3
ObjectDBX Classes
 90
     2047
280
     0
281
     0
  0
CLASS
  1
SORTENTSTABLE
  2
AcDbSortentsTable
  3
AutoCAD 2000
 90
    32768
280
     0
281
     0
  0
ENDSEC
  0
SECTION
  2
TABLES
  0
TABLE
  2
VPORT
  5
458C7
330
0
100
AcDbSymbolTable
 70
     1
  0
VPORT
  5
57A61
330
458C7
100
AcDbSymbolTableRecord
100
AcDbViewportTableRecord
  2
*Active
 70
     0
 10
0.0
 20
0.0
 11
1.0
 21
1.0
 12
588.3762645922108
 22
348.1420601722947
 13
0.0
 23
0.0
 14
0.25
 24
0.25
 15
0.25
 25
0.25
 16
0.0
 26
0.0
 36
1.0
 17
272.824838996967
 27
8.306349224220612
 37
23.31369335295995
 40
353.9695983578023
 41
2.029914529914529
 42
50.0
 43
0.0
 44
0.0
 50
0.0
 51
0.0
 71
     0
 72
 20000
 73
     1
 74
     1
 75
     0
 76
     0
 77
     0
 78
     0
281
     0
 65
     1
110
266.8673580196576
120
8.203180508612135
130
3.646124999999996
111
1.0
121
0.0
131
0.0
112
0.0
122
1.0
132
0.0
 79
     1
146
0.0
  0
ENDTAB
  0
TABLE
  2
LTYPE
  5
458C4
330
0
100
AcDbSymbolTable
 70
     3
  0
LTYPE
  5
458D0
330
458C4
100
AcDbSymbolTableRecord
100
AcDbLinetypeTableRecord
  2
BYBLOCK
 70
     0
  3

 72
    65
 73
     0
 40
0.0
  0
LTYPE
  5
458D1
330
458C4
100
AcDbSymbolTableRecord
100
AcDbLinetypeTableRecord
  2
BYLAYER
 70
     0
  3

 72
    65
 73
     0
 40
0.0
  0
LTYPE
  5
458D2
330
458C4
100
AcDbSymbolTableRecord
100
AcDbLinetypeTableRecord
  2
CONTINUOUS
 70
     0
  3
Solid line
 72
    65
 73
     0
 40
0.0
  0
LTYPE
  5
4D249
330
458C4
100
AcDbSymbolTableRecord
100
AcDbLinetypeTableRecord
  2
PHANTOM
 70
     0
  3
______  __  __  ______  __  __  ______  __  __ 
 72
    65
 73
     6
 40
2.5
 49
1.25
 74
     0
 49
-0.25
 74
     0
 49
0.25
 74
     0
 49
-0.25
 74
     0
 49
0.25
 74
     0
 49
-0.25
 74
     0
  0
LTYPE
  5
4DE42
330
458C4
100
AcDbSymbolTableRecord
100
AcDbLinetypeTableRecord
  2
CENTER
 70
     0
  3
____ _ ____ _ ____ _ ____ _ ____ _ ____ _ ____
 72
    65
 73
     4
 40
2.0
 49
1.25
 74
     0
 49
-0.25
 74
     0
 49
0.25
 74
     0
 49
-0.25
 74
     0
  0
ENDTAB
  0
TABLE
  2
LAYER
  5
458C1
102
{ACAD_XDICTIONARY
360
480DB
102
}
330
0
100
AcDbSymbolTable
 70
     8
  0
LAYER
  5
458CD
330
458C1
100
AcDbSymbolTableRecord
100
AcDbLayerTableRecord
  2
0
 70
     0
 62
     7
  6
CONTINUOUS
370
    -3
390
458FA
  0
LAYER
  5
458EB
330
458C1
100
AcDbSymbolTableRecord
100
AcDbLayerTableRecord
  2
ATTRIBUTES
 70
     0
 62
    -7
  6
CONTINUOUS
370
    -3
390
458FA
  0
LAYER
  5
4593F
330
458C1
100
AcDbSymbolTableRecord
100
AcDbLayerTableRecord
  2
AREA1
 70
     0
 62
     7
  6
CONTINUOUS
370
    -3
390
458FA
  0
LAYER
  5
45946
330
458C1
100
AcDbSymbolTableRecord
100
AcDbLayerTableRecord
  2
Defpoints
 70
     0
 62
     7
  6
CONTINUOUS
290
     0
370
    -3
390
458FA
  0
LAYER
  5
45972
330
458C1
100
AcDbSymbolTableRecord
100
AcDbLayerTableRecord
  2
SCALE
 70
     0
 62
    -7
  6
CONTINUOUS
370
    -3
390
458FA
  0
LAYER
  5
46E1B
330
458C1
100
AcDbSymbolTableRecord
100
AcDbLayerTableRecord
  2
OBJECT
 70
     0
 62
     7
  6
CONTINUOUS
370
    -3
390
458FA
  0
LAYER
  5
4DE44
330
458C1
100
AcDbSymbolTableRecord
100
AcDbLayerTableRecord
  2
DIMS
 70
     0
 62
     1
  6
CONTINUOUS
370
    -3
390
458FA
  0
LAYER
  5
56706
330
458C1
100
AcDbSymbolTableRecord
100
AcDbLayerTableRecord
  2
TESTPROBE
 70
     0
 62
     7
  6
CONTINUOUS
370
    -3
390
458FA
  0
ENDTAB
  0
TABLE
  2
STYLE
  5
458C2
330
0
100
AcDbSymbolTable
 70
     3
  0
STYLE
  5
458CE
330
458C2
100
AcDbSymbolTableRecord
100
AcDbTextStyleTableRecord
  2
STANDARD
 70
     0
 40
0.0
 41
1.0
 50
0.0
 71
     0
 42
0.12
  3
txt
  4

  0
STYLE
  5
46E1C
330
458C2
100
AcDbSymbolTableRecord
100
AcDbTextStyleTableRecord
  2
ROMANS
 70
     0
 40
0.0
 41
1.0
 50
0.0
 71
     0
 42
0.125
  3
romans
  4

  0
STYLE
  5
5401D
330
458C2
100
AcDbSymbolTableRecord
100
AcDbTextStyleTableRecord
  2
ROMANC
 70
     0
 40
0.0
 41
1.0
 50
0.0
 71
     0
 42
0.2
  3
romanc
  4

  0
ENDTAB
  0
TABLE
  2
VIEW
  5
458C5
330
0
100
AcDbSymbolTable
 70
     0
  0
ENDTAB
  0
TABLE
  2
UCS
  5
458C6
330
0
100
AcDbSymbolTable
 70
     0
  0
ENDTAB
  0
TABLE
  2
APPID
  5
458C8
330
0
100
AcDbSymbolTable
 70
     7
  0
APPID
  5
458CF
330
458C8
100
AcDbSymbolTableRecord
100
AcDbRegAppTableRecord
  2
ACAD
 70
     0
  0
APPID
  5
480E0
330
458C8
100
AcDbSymbolTableRecord
100
AcDbRegAppTableRecord
  2
ACAD_PSEXT
 70
     0
  0
APPID
  5
4DE46
330
458C8
100
AcDbSymbolTableRecord
100
AcDbRegAppTableRecord
  2
GENIUS_GENODEF_13
 70
     0
  0
APPID
  5
4DE47
330
458C8
100
AcDbSymbolTableRecord
100
AcDbRegAppTableRecord
  2
GENIUS_GENOBJ-N-CEN_13
 70
     0
  0
APPID
  5
4DE48
330
458C8
100
AcDbSymbolTableRecord
100
AcDbRegAppTableRecord
  2
GENIUS_GENOBJ-N-FIL_13
 70
     0
  0
APPID
  5
4DE49
330
458C8
100
AcDbSymbolTableRecord
100
AcDbRegAppTableRecord
  2
GENIUS_GENREC_13
 70
     0
  0
APPID
  5
4DE4A
330
458C8
100
AcDbSymbolTableRecord
100
AcDbRegAppTableRecord
  2
GENIUS_GENOBJ-N-REC_13
 70
     0
  0
ENDTAB
  0
TABLE
  2
DIMSTYLE
  5
458C9
330
0
100
AcDbSymbolTable
 70
     2
100
AcDbDimStyleTable
 71
     1
340
458F6
  0
DIMSTYLE
105
458F6
102
{ACAD_REACTORS
330
57954
330
57962
330
57971
330
5797F
330
5798D
330
5799B
330
579A9
330
579B6
330
579C4
330
57A1A
102
}
330
458C9
100
AcDbSymbolTableRecord
100
AcDbDimStyleTableRecord
  2
ABECAD_3D
 70
     0
 41
4.572
 42
1.587499999999999
 43
9.525
 44
4.572
 73
     0
 78
     4
140
4.572
141
2.286
143
0.03937
146
1.5
147
2.286
170
     1
171
     6
271
     2
272
     2
273
     7
274
     6
276
     2
279
     2
284
     4
285
     4
286
     4
288
     1
289
     2
340
458CE
  0
DIMSTYLE
105
459E0
330
458C9
100
AcDbSymbolTableRecord
100
AcDbDimStyleTableRecord
  2
Standard
 70
     0
340
458CE
  0
ENDTAB
  0
TABLE
  2
BLOCK_RECORD
  5
458C0
330
0
100
AcDbSymbolTable
 70
    14
  0
BLOCK_RECORD
  5
458D6
102
{ACAD_XDICTIONARY
360
45930
102
}
330
458C0
100
AcDbSymbolTableRecord
100
AcDbBlockTableRecord
  2
*MODEL_SPACE
340
458FD
  0
BLOCK_RECORD
  5
458D3
102
{ACAD_XDICTIONARY
360
4592E
102
}
330
458C0
100
AcDbSymbolTableRecord
100
AcDbBlockTableRecord
  2
*PAPER_SPACE
340
458FE
  0
BLOCK_RECORD
  5
566F2
330
458C0
100
AcDbSymbolTableRecord
100
AcDbBlockTableRecord
  2
PHILL
340
0
102
{BLKREFS
331
57666
331
57668
331
57589
331
5758A
331
5758B
331
5758C
102
}
  0
BLOCK_RECORD
  5
57955
330
458C0
100
AcDbSymbolTableRecord
100
AcDbBlockTableRecord
  2
*D4
340
0
  0
BLOCK_RECORD
  5
57963
330
458C0
100
AcDbSymbolTableRecord
100
AcDbBlockTableRecord
  2
*D5
340
0
  0
BLOCK_RECORD
  5
57972
330
458C0
100
AcDbSymbolTableRecord
100
AcDbBlockTableRecord
  2
*D6
340
0
  0
BLOCK_RECORD
  5
57980
330
458C0
100
AcDbSymbolTableRecord
100
AcDbBlockTableRecord
  2
*D7
340
0
  0
BLOCK_RECORD
  5
5798E
330
458C0
100
AcDbSymbolTableRecord
100
AcDbBlockTableRecord
  2
*D8
340
0
  0
BLOCK_RECORD
  5
5799C
330
458C0
100
AcDbSymbolTableRecord
100
AcDbBlockTableRecord
  2
*D9
340
0
  0
BLOCK_RECORD
  5
579AA
330
458C0
100
AcDbSymbolTableRecord
100
AcDbBlockTableRecord
  2
*D10
340
0
  0
BLOCK_RECORD
  5
579B7
330
458C0
100
AcDbSymbolTableRecord
100
AcDbBlockTableRecord
  2
*D11
340
0
  0
BLOCK_RECORD
  5
579C5
330
458C0
100
AcDbSymbolTableRecord
100
AcDbBlockTableRecord
  2
*D12
340
0
  0
BLOCK_RECORD
  5
57A1B
330
458C0
100
AcDbSymbolTableRecord
100
AcDbBlockTableRecord
  2
*D13
340
0
  0
ENDTAB
  0
ENDSEC
  0
SECTION
  2
BLOCKS
  0
BLOCK
  5
458DF
330
458D6
100
AcDbEntity
  8
0
100
AcDbBlockBegin
  2
*MODEL_SPACE
 70
     0
 10
0.0
 20
0.0
 30
0.0
  3
*MODEL_SPACE
  1

  0
ENDBLK
  5
458E0
330
458D6
100
AcDbEntity
  8
0
100
AcDbBlockEnd
  0
BLOCK
  5
458DD
330
458D3
100
AcDbEntity
 67
     1
  8
0
100
AcDbBlockBegin
  2
*PAPER_SPACE
 70
     0
 10
0.0
 20
0.0
 30
0.0
  3
*PAPER_SPACE
  1

  0
ENDBLK
  5
458DE
330
458D3
100
AcDbEntity
 67
     1
  8
0
100
AcDbBlockEnd
  0
BLOCK
  5
566F3
330
566F2
100
AcDbEntity
  8
0
100
AcDbBlockBegin
  2
PHILL
 70
     0
 10
0.0
 20
0.0
 30
0.0
  3
PHILL
  1

  0
ARC
  5
566F4
330
566F2
100
AcDbEntity
  8
TESTPROBE
100
AcDbCircle
 10
-0.0266161468127884
 20
0.0266161468127901
 30
0.0
 40
0.0147336302462335
100
AcDbArc
 50
270.0
 51
0.0
  0
ARC
  5
566F5
330
566F2
100
AcDbEntity
  8
TESTPROBE
100
AcDbCircle
 10
-0.0266161468127884
 20
-0.0266161468127866
 30
0.0
 40
0.0147336302462335
100
AcDbArc
 50
0.0
 51
90.0
  0
LINE
  5
566F6
330
566F2
100
AcDbEntity
  8
TESTPROBE
100
AcDbLine
 10
-0.0930173079744847
 20
0.0118825165665566
 30
0.0
 11
-0.0930173079744847
 21
-0.0118825165665531
 31
0.0
  0
LINE
  5
566F7
330
566F2
100
AcDbEntity
  8
TESTPROBE
100
AcDbLine
 10
-0.0266161468127884
 20
-0.0118825165665531
 30
0.0
 11
-0.0930173079744847
 21
-0.0118825165665531
 31
0.0
  0
LINE
  5
566F8
330
566F2
100
AcDbEntity
  8
TESTPROBE
100
AcDbLine
 10
-0.0266161468127884
 20
0.0118825165665566
 30
0.0
 11
-0.0930173079744847
 21
0.0118825165665566
 31
0.0
  0
LINE
  5
566F9
330
566F2
100
AcDbEntity
  8
TESTPROBE
100
AcDbLine
 10
-0.0118825165665531
 20
0.0930173079744883
 30
0.0
 11
0.0118825165665566
 21
0.0930173079744883
 31
0.0
  0
ARC
  5
566FA
330
566F2
100
AcDbEntity
  8
TESTPROBE
100
AcDbCircle
 10
0.0266161468127884
 20
-0.0266161468127866
 30
0.0
 40
0.0147336302462335
100
AcDbArc
 50
90.0
 51
180.0000000000012
  0
ARC
  5
566FB
330
566F2
100
AcDbEntity
  8
TESTPROBE
100
AcDbCircle
 10
0.0266161468127901
 20
0.0266161468127901
 30
0.0
 40
0.0147336302462335
100
AcDbArc
 50
179.9999999999987
 51
270.0
  0
LINE
  5
566FC
330
566F2
100
AcDbEntity
  8
TESTPROBE
100
AcDbLine
 10
0.0118825165665548
 20
-0.0266161468127866
 30
0.0
 11
0.0118825165665566
 21
-0.0930173079744865
 31
0.0
  0
LINE
  5
566FD
330
566F2
100
AcDbEntity
  8
TESTPROBE
100
AcDbLine
 10
-0.0118825165665548
 20
-0.0266161468127866
 30
0.0
 11
-0.0118825165665531
 21
-0.0930173079744865
 31
0.0
  0
LINE
  5
566FE
330
566F2
100
AcDbEntity
  8
TESTPROBE
100
AcDbLine
 10
0.0930173079744901
 20
-0.0118825165665531
 30
0.0
 11
0.0266161468127884
 21
-0.0118825165665531
 31
0.0
  0
LINE
  5
566FF
330
566F2
100
AcDbEntity
  8
TESTPROBE
100
AcDbLine
 10
0.0930173079744901
 20
0.0118825165665566
 30
0.0
 11
0.0266161468127901
 21
0.0118825165665566
 31
0.0
  0
LINE
  5
56700
330
566F2
100
AcDbEntity
  8
TESTPROBE
100
AcDbLine
 10
0.0118825165665566
 20
0.0930173079744883
 30
0.0
 11
0.0118825165665566
 21
0.0266161468127901
 31
0.0
  0
LINE
  5
56701
330
566F2
100
AcDbEntity
  8
TESTPROBE
100
AcDbLine
 10
-0.0118825165665531
 20
0.0930173079744883
 30
0.0
 11
-0.0118825165665548
 21
0.0266161468127901
 31
0.0
  0
LINE
  5
56702
330
566F2
100
AcDbEntity
  8
TESTPROBE
100
AcDbLine
 10
0.0118825165665566
 20
-0.0930173079744865
 30
0.0
 11
-0.0118825165665531
 21
-0.0930173079744865
 31
0.0
  0
LINE
  5
56703
330
566F2
100
AcDbEntity
  8
TESTPROBE
100
AcDbLine
 10
0.0930173079744901
 20
0.0118825165665566
 30
0.0
 11
0.0930173079744901
 21
-0.0118825165665531
 31
0.0
  0
ENDBLK
  5
56704
330
566F2
100
AcDbEntity
  8
0
100
AcDbBlockEnd
  0
BLOCK
  5
57960
330
57955
100
AcDbEntity
  8
0
100
AcDbBlockBegin
  2
*D4
 70
     1
 10
0.0
 20
0.0
 30
0.0
  3
*D4
  1

  0
LINE
  5
57956
330
57955
100
AcDbEntity
  8
AREA1
 62
     0
370
    -2
100
AcDbLine
 10
839.5761429363087
 20
476.003879008247
 30
0.0
 11
839.5761429363087
 21
499.6064240574221
 31
0.0
  0
LINE
  5
57957
330
57955
100
AcDbEntity
  8
AREA1
 62
     0
370
    -2
100
AcDbLine
 10
906.3781429363087
 20
476.003879008247
 30
0.0
 11
906.3781429363087
 21
499.6064240574221
 31
0.0
  0
LINE
  5
57958
330
57955
100
AcDbEntity
  8
AREA1
 62
     0
370
    -2
100
AcDbLine
 10
835.0041429363088
 20
495.0344240574221
 30
0.0
 11
830.4321429363087
 21
495.0344240574221
 31
0.0
  0
LINE
  5
57959
330
57955
100
AcDbEntity
  8
AREA1
 62
     0
370
    -2
100
AcDbLine
 10
910.9501429363087
 20
495.0344240574221
 30
0.0
 11
915.5221429363086
 21
495.0344240574221
 31
0.0
  0
MTEXT
  5
5795A
330
57955
100
AcDbEntity
  8
AREA1
 62
     0
100
AcDbMText
 10
875.1596527373347
 20
495.0344240574221
 30
0.0
 40
4.572
 41
0.0
 71
     5
 72
     1
  1
\A1;66.80 [2 5/8]
 73
     1
 44
1.0
1001
ACAD
1000
MTEXTBEGIN
1070
    73
1070
     1
1070
    44
1040
1.0
1070
    74
1070
     0
1000
MTEXTEND
  0
SOLID
  5
5795B
330
57955
100
AcDbEntity
  8
AREA1
 62
     0
100
AcDbTrace
 10
835.0041429363088
 20
495.7964240574221
 30
0.0
 11
835.0041429363088
 21
494.2724240574221
 31
0.0
 12
839.5761429363087
 22
495.0344240574221
 32
0.0
 13
839.5761429363087
 23
495.0344240574221
 33
0.0
  0
SOLID
  5
5795C
330
57955
100
AcDbEntity
  8
AREA1
 62
     0
100
AcDbTrace
 10
910.9501429363087
 20
495.7964240574221
 30
0.0
 11
910.9501429363087
 21
494.2724240574221
 31
0.0
 12
906.3781429363087
 22
495.0344240574221
 32
0.0
 13
906.3781429363087
 23
495.0344240574221
 33
0.0
  0
POINT
  5
5795D
330
57955
100
AcDbEntity
  8
Defpoints
 62
     0
100
AcDbPoint
 10
839.5761429363087
 20
474.416379008247
 30
0.0
  0
POINT
  5
5795E
330
57955
100
AcDbEntity
  8
Defpoints
 62
     0
100
AcDbPoint
 10
906.3781429363087
 20
474.416379008247
 30
0.0
  0
POINT
  5
5795F
330
57955
100
AcDbEntity
  8
Defpoints
 62
     0
100
AcDbPoint
 10
906.3781429363087
 20
495.0344240574221
 30
0.0
  0
ENDBLK
  5
57961
330
57955
100
AcDbEntity
  8
0
100
AcDbBlockEnd
  0
BLOCK
  5
5796E
330
57963
100
AcDbEntity
  8
0
100
AcDbBlockBegin
  2
*D5
 70
     1
 10
0.0
 20
0.0
 30
0.0
  3
*D5
  1

  0
LINE
  5
57964
330
57963
100
AcDbEntity
  8
AREA1
 62
     0
370
    -2
100
AcDbLine
 10
830.3051429363085
 20
476.003879008247
 30
0.0
 11
830.3051429363085
 21
515.1984382876098
 31
0.0
  0
LINE
  5
57965
330
57963
100
AcDbEntity
  8
AREA1
 62
     0
370
    -2
100
AcDbLine
 10
915.6491429363088
 20
476.003879008247
 30
0.0
 11
915.6491429363088
 21
515.1984382876098
 31
0.0
  0
LINE
  5
57966
330
57963
100
AcDbEntity
  8
AREA1
 62
     0
370
    -2
100
AcDbLine
 10
834.8771429363086
 20
510.6264382876098
 30
0.0
 11
840.5064306645396
 21
510.6264382876098
 31
0.0
  0
LINE
  5
57967
330
57963
100
AcDbEntity
  8
AREA1
 62
     0
370
    -2
100
AcDbLine
 10
911.0771429363088
 20
510.6264382876098
 30
0.0
 11
906.0384306645396
 21
510.6264382876098
 31
0.0
  0
MTEXT
  5
57968
330
57963
100
AcDbEntity
  8
AREA1
 62
     0
100
AcDbMText
 10
873.2724306645396
 20
510.6264382876098
 30
0.0
 40
4.572
 41
0.0
 71
     5
 72
     1
  1
\A1;85.34 [3 23/64]
 73
     1
 44
1.0
1001
ACAD
1000
MTEXTBEGIN
1070
    73
1070
     1
1070
    44
1040
1.0
1070
    74
1070
     0
1000
MTEXTEND
  0
SOLID
  5
57969
330
57963
100
AcDbEntity
  8
AREA1
 62
     0
100
AcDbTrace
 10
834.8771429363086
 20
511.3884382876098
 30
0.0
 11
834.8771429363086
 21
509.8644382876099
 31
0.0
 12
830.3051429363085
 22
510.6264382876098
 32
0.0
 13
830.3051429363085
 23
510.6264382876098
 33
0.0
  0
SOLID
  5
5796A
330
57963
100
AcDbEntity
  8
AREA1
 62
     0
100
AcDbTrace
 10
911.0771429363088
 20
511.3884382876098
 30
0.0
 11
911.0771429363088
 21
509.8644382876099
 31
0.0
 12
915.6491429363088
 22
510.6264382876098
 32
0.0
 13
915.6491429363088
 23
510.6264382876098
 33
0.0
  0
POINT
  5
5796B
330
57963
100
AcDbEntity
  8
Defpoints
 62
     0
100
AcDbPoint
 10
830.3051429363085
 20
474.416379008247
 30
0.0
  0
POINT
  5
5796C
330
57963
100
AcDbEntity
  8
Defpoints
 62
     0
100
AcDbPoint
 10
915.6491429363088
 20
474.416379008247
 30
0.0
  0
POINT
  5
5796D
330
57963
100
AcDbEntity
  8
Defpoints
 62
     0
100
AcDbPoint
 10
915.6491429363088
 20
510.6264382876098
 30
0.0
  0
ENDBLK
  5
5796F
330
57963
100
AcDbEntity
  8
0
100
AcDbBlockEnd
  0
BLOCK
  5
5797D
330
57972
100
AcDbEntity
  8
0
100
AcDbBlockBegin
  2
*D6
 70
     1
 10
0.0
 20
0.0
 30
0.0
  3
*D6
  1

  0
LINE
  5
57973
330
57972
100
AcDbEntity
  8
AREA1
 62
     0
370
    -2
100
AcDbLine
 10
823.9551429363084
 20
476.003879008247
 30
0.0
 11
823.9551429363084
 21
531.1976111121041
 31
0.0
  0
LINE
  5
57974
330
57972
100
AcDbEntity
  8
AREA1
 62
     0
370
    -2
100
AcDbLine
 10
921.9991429363087
 20
476.003879008247
 30
0.0
 11
921.9991429363087
 21
531.1976111121041
 31
0.0
  0
LINE
  5
57975
330
57972
100
AcDbEntity
  8
AREA1
 62
     0
370
    -2
100
AcDbLine
 10
828.5271429363085
 20
526.6256111121041
 30
0.0
 11
842.0883554641125
 21
526.6256111121041
 31
0.0
  0
LINE
  5
57976
330
57972
100
AcDbEntity
  8
AREA1
 62
     0
370
    -2
100
AcDbLine
 10
917.4271429363088
 20
526.6256111121041
 30
0.0
 11
906.8583554641124
 21
526.6256111121041
 31
0.0
  0
MTEXT
  5
57977
330
57972
100
AcDbEntity
  8
AREA1
 62
     0
100
AcDbMText
 10
874.4733554641126
 20
526.6256111121041
 30
0.0
 40
4.572
 41
0.0
 71
     5
 72
     1
  1
\A1;98.04 [3 55/64]
 73
     1
 44
1.0
1001
ACAD
1000
MTEXTBEGIN
1070
    73
1070
     1
1070
    44
1040
1.0
1070
    74
1070
     0
1000
MTEXTEND
  0
SOLID
  5
57978
330
57972
100
AcDbEntity
  8
AREA1
 62
     0
100
AcDbTrace
 10
828.5271429363085
 20
527.387611112104
 30
0.0
 11
828.5271429363085
 21
525.8636111121042
 31
0.0
 12
823.9551429363084
 22
526.6256111121041
 32
0.0
 13
823.9551429363084
 23
526.6256111121041
 33
0.0
  0
SOLID
  5
57979
330
57972
100
AcDbEntity
  8
AREA1
 62
     0
100
AcDbTrace
 10
917.4271429363088
 20
527.387611112104
 30
0.0
 11
917.4271429363088
 21
525.8636111121042
 31
0.0
 12
921.9991429363087
 22
526.6256111121041
 32
0.0
 13
921.9991429363087
 23
526.6256111121041
 33
0.0
  0
POINT
  5
5797A
330
57972
100
AcDbEntity
  8
Defpoints
 62
     0
100
AcDbPoint
 10
823.9551429363084
 20
474.416379008247
 30
0.0
  0
POINT
  5
5797B
330
57972
100
AcDbEntity
  8
Defpoints
 62
     0
100
AcDbPoint
 10
921.9991429363087
 20
474.416379008247
 30
0.0
  0
POINT
  5
5797C
330
57972
100
AcDbEntity
  8
Defpoints
 62
     0
100
AcDbPoint
 10
921.9991429363087
 20
526.6256111121041
 30
0.0
  0
ENDBLK
  5
5797E
330
57972
100
AcDbEntity
  8
0
100
AcDbBlockEnd
  0
BLOCK
  5
5798B
330
57980
100
AcDbEntity
  8
0
100
AcDbBlockBegin
  2
*D7
 70
     1
 10
0.0
 20
0.0
 30
0.0
  3
*D7
  1

  0
LINE
  5
57981
330
57980
100
AcDbEntity
  8
AREA1
 62
     0
370
    -2
100
AcDbLine
 10
917.2366429363089
 20
480.7663790082471
 30
0.0
 11
1011.947441906582
 21
480.7663790082471
 31
0.0
  0
LINE
  5
57982
330
57980
100
AcDbEntity
  8
AREA1
 62
     0
370
    -2
100
AcDbLine
 10
917.2366429363089
 20
271.4703790082468
 30
0.0
 11
1011.947441906582
 21
271.4703790082468
 31
0.0
  0
LINE
  5
57983
330
57980
100
AcDbEntity
  8
AREA1
 62
     0
370
    -2
100
AcDbLine
 10
1007.375441906582
 20
476.1943790082471
 30
0.0
 11
1007.375441906582
 21
411.9607535078991
 31
0.0
  0
LINE
  5
57984
330
57980
100
AcDbEntity
  8
AREA1
 62
     0
370
    -2
100
AcDbLine
 10
1007.375441906582
 20
276.0423790082468
 30
0.0
 11
1007.375441906582
 21
344.9047535078991
 31
0.0
  0
MTEXT
  5
57985
330
57980
100
AcDbEntity
  8
AREA1
 62
     0
100
AcDbMText
 10
1007.375441906582
 20
378.4327535078992
 30
0.0
 40
4.572
 41
0.0
 71
     5
 72
     1
  1
\A1;209.30 [8 15/64]
 11
0.0000000000000001
 21
1.0
 31
0.0
 73
     1
 44
1.0
1001
ACAD
1000
MTEXTBEGIN
1070
    73
1070
     1
1070
    44
1040
1.0
1070
    74
1070
     0
1000
MTEXTEND
  0
SOLID
  5
57986
330
57980
100
AcDbEntity
  8
AREA1
 62
     0
100
AcDbTrace
 10
1006.613441906582
 20
476.1943790082471
 30
0.0
 11
1008.137441906582
 21
476.1943790082471
 31
0.0
 12
1007.375441906582
 22
480.7663790082471
 32
0.0
 13
1007.375441906582
 23
480.7663790082471
 33
0.0
  0
SOLID
  5
57987
330
57980
100
AcDbEntity
  8
AREA1
 62
     0
100
AcDbTrace
 10
1006.613441906582
 20
276.0423790082468
 30
0.0
 11
1008.137441906582
 21
276.0423790082468
 31
0.0
 12
1007.375441906582
 22
271.4703790082468
 32
0.0
 13
1007.375441906582
 23
271.4703790082468
 33
0.0
  0
POINT
  5
57988
330
57980
100
AcDbEntity
  8
Defpoints
 62
     0
100
AcDbPoint
 10
915.6491429363088
 20
480.7663790082471
 30
0.0
  0
POINT
  5
57989
330
57980
100
AcDbEntity
  8
Defpoints
 62
     0
100
AcDbPoint
 10
915.6491429363088
 20
271.4703790082468
 30
0.0
  0
POINT
  5
5798A
330
57980
100
AcDbEntity
  8
Defpoints
 62
     0
100
AcDbPoint
 10
1007.375441906582
 20
271.4703790082468
 30
0.0
  0
ENDBLK
  5
5798C
330
57980
100
AcDbEntity
  8
0
100
AcDbBlockEnd
  0
BLOCK
  5
57999
330
5798E
100
AcDbEntity
  8
0
100
AcDbBlockBegin
  2
*D8
 70
     1
 10
0.0
 20
0.0
 30
0.0
  3
*D8
  1

  0
LINE
  5
5798F
330
5798E
100
AcDbEntity
  8
AREA1
 62
     0
370
    -2
100
AcDbLine
 10
917.2366429363089
 20
474.416379008247
 30
0.0
 11
963.2962181628771
 21
474.416379008247
 31
0.0
  0
LINE
  5
57990
330
5798E
100
AcDbEntity
  8
AREA1
 62
     0
370
    -2
100
AcDbLine
 10
917.223942936309
 20
376.1183790082469
 30
0.0
 11
963.2962181628771
 21
376.1183790082469
 31
0.0
  0
LINE
  5
57991
330
5798E
100
AcDbEntity
  8
AREA1
 62
     0
370
    -2
100
AcDbLine
 10
958.7242181628772
 20
469.844379008247
 30
0.0
 11
958.7242181628772
 21
451.9072552010932
 31
0.0
  0
LINE
  5
57992
330
5798E
100
AcDbEntity
  8
AREA1
 62
     0
370
    -2
100
AcDbLine
 10
958.7242181628772
 20
380.6903790082469
 30
0.0
 11
958.7242181628772
 21
396.2812552010932
 31
0.0
  0
MTEXT
  5
57993
330
5798E
100
AcDbEntity
  8
AREA1
 62
     0
100
AcDbMText
 10
958.7242181628772
 20
424.0942552010934
 30
0.0
 40
4.572
 41
0.0
 71
     5
 72
     1
  1
\A1;98.30 [3 7/8]
 11
0.0000000000000001
 21
1.0
 31
0.0
 73
     1
 44
1.0
1001
ACAD
1000
MTEXTBEGIN
1070
    73
1070
     1
1070
    44
1040
1.0
1070
    74
1070
     0
1000
MTEXTEND
  0
SOLID
  5
57994
330
5798E
100
AcDbEntity
  8
AREA1
 62
     0
100
AcDbTrace
 10
957.9622181628772
 20
469.844379008247
 30
0.0
 11
959.4862181628771
 21
469.844379008247
 31
0.0
 12
958.7242181628772
 22
474.416379008247
 32
0.0
 13
958.7242181628772
 23
474.416379008247
 33
0.0
  0
SOLID
  5
57995
330
5798E
100
AcDbEntity
  8
AREA1
 62
     0
100
AcDbTrace
 10
957.9622181628772
 20
380.6903790082469
 30
0.0
 11
959.4862181628771
 21
380.6903790082469
 31
0.0
 12
958.7242181628772
 22
376.1183790082469
 32
0.0
 13
958.7242181628772
 23
376.1183790082469
 33
0.0
  0
POINT
  5
57996
330
5798E
100
AcDbEntity
  8
Defpoints
 62
     0
100
AcDbPoint
 10
915.6491429363088
 20
474.416379008247
 30
0.0
  0
POINT
  5
57997
330
5798E
100
AcDbEntity
  8
Defpoints
 62
     0
100
AcDbPoint
 10
915.636442936309
 20
376.1183790082469
 30
0.0
  0
POINT
  5
57998
330
5798E
100
AcDbEntity
  8
Defpoints
 62
     0
100
AcDbPoint
 10
958.7242181628772
 20
376.1183790082469
 30
0.0
  0
ENDBLK
  5
5799A
330
5798E
100
AcDbEntity
  8
0
100
AcDbBlockEnd
  0
BLOCK
  5
579A7
330
5799C
100
AcDbEntity
  8
0
100
AcDbBlockBegin
  2
*D9
 70
     1
 10
0.0
 20
0.0
 30
0.0
  3
*D9
  1

  0
LINE
  5
5799D
330
5799C
100
AcDbEntity
  8
AREA1
 62
     0
370
    -2
100
AcDbLine
 10
917.2366429363089
 20
474.416379008247
 30
0.0
 11
984.7278437276644
 21
474.416379008247
 31
0.0
  0
LINE
  5
5799E
330
5799C
100
AcDbEntity
  8
AREA1
 62
     0
370
    -2
100
AcDbLine
 10
917.2366429363089
 20
277.8203790082468
 30
0.0
 11
984.7278437276644
 21
277.8203790082468
 31
0.0
  0
LINE
  5
5799F
330
5799C
100
AcDbEntity
  8
AREA1
 62
     0
370
    -2
100
AcDbLine
 10
980.1558437276645
 20
469.844379008247
 30
0.0
 11
980.1558437276645
 21
411.7607055461594
 31
0.0
  0
LINE
  5
579A0
330
5799C
100
AcDbEntity
  8
AREA1
 62
     0
370
    -2
100
AcDbLine
 10
980.1558437276645
 20
282.3923790082468
 30
0.0
 11
980.1558437276645
 21
343.9427055461595
 31
0.0
  0
MTEXT
  5
579A1
330
5799C
100
AcDbEntity
  8
AREA1
 62
     0
100
AcDbMText
 10
980.1558437276645
 20
377.8517055461596
 30
0.0
 40
4.572
 41
0.0
 71
     5
 72
     1
  1
\A1;196.60 [7 47/64]
 11
0.0000000000000001
 21
1.0
 31
0.0
 73
     1
 44
1.0
1001
ACAD
1000
MTEXTBEGIN
1070
    73
1070
     1
1070
    44
1040
1.0
1070
    74
1070
     0
1000
MTEXTEND
  0
SOLID
  5
579A2
330
5799C
100
AcDbEntity
  8
AREA1
 62
     0
100
AcDbTrace
 10
979.3938437276645
 20
469.844379008247
 30
0.0
 11
980.9178437276644
 21
469.844379008247
 31
0.0
 12
980.1558437276645
 22
474.416379008247
 32
0.0
 13
980.1558437276645
 23
474.416379008247
 33
0.0
  0
SOLID
  5
579A3
330
5799C
100
AcDbEntity
  8
AREA1
 62
     0
100
AcDbTrace
 10
979.3938437276645
 20
282.3923790082468
 30
0.0
 11
980.9178437276644
 21
282.3923790082468
 31
0.0
 12
980.1558437276645
 22
277.8203790082468
 32
0.0
 13
980.1558437276645
 23
277.8203790082468
 33
0.0
  0
POINT
  5
579A4
330
5799C
100
AcDbEntity
  8
Defpoints
 62
     0
100
AcDbPoint
 10
915.6491429363088
 20
474.416379008247
 30
0.0
  0
POINT
  5
579A5
330
5799C
100
AcDbEntity
  8
Defpoints
 62
     0
100
AcDbPoint
 10
915.6491429363088
 20
277.8203790082468
 30
0.0
  0
POINT
  5
579A6
330
5799C
100
AcDbEntity
  8
Defpoints
 62
     0
100
AcDbPoint
 10
980.1558437276645
 20
277.8203790082468
 30
0.0
  0
ENDBLK
  5
579A8
330
5799C
100
AcDbEntity
  8
0
100
AcDbBlockEnd
  0
BLOCK
  5
579B4
330
579AA
100
AcDbEntity
  8
0
100
AcDbBlockBegin
  2
*D10
 70
     1
 10
0.0
 20
0.0
 30
0.0
  3
*D10
  1

  0
LINE
  5
579FF
330
579AA
100
AcDbEntity
  8
AREA1
 62
     0
370
    -2
100
AcDbLine
 10
828.7176429363086
 20
480.7663790082471
 30
0.0
 11
786.2549515707729
 21
480.7663790082471
 31
0.0
  0
LINE
  5
57A00
330
579AA
100
AcDbEntity
  8
AREA1
 62
     0
370
    -2
100
AcDbLine
 10
802.1873429363092
 20
432.6095931610232
 30
0.0
 11
786.2549515707729
 21
432.6095931610232
 31
0.0
  0
LINE
  5
57A01
330
579AA
100
AcDbEntity
  8
AREA1
 62
     0
370
    -2
100
AcDbLine
 10
790.8269515707729
 20
476.1943790082471
 30
0.0
 11
790.8269515707729
 21
437.1815931610232
 31
0.0
  0
MTEXT
  5
57A02
330
579AA
100
AcDbEntity
  8
AREA1
 62
     0
100
AcDbMText
 10
783.1345387166402
 20
465.0289729716952
 30
0.0
 40
4.572
 41
0.0
 71
     5
 72
     1
  1
\A1;48.16 [1 57/64]
 11
0.0000000000000001
 21
1.0
 31
0.0
 73
     1
 44
1.0
1001
ACAD
1000
MTEXTBEGIN
1070
    73
1070
     1
1070
    44
1040
1.0
1070
    74
1070
     0
1000
MTEXTEND
  0
SOLID
  5
57A03
330
579AA
100
AcDbEntity
  8
AREA1
 62
     0
100
AcDbTrace
 10
790.064951570773
 20
476.1943790082471
 30
0.0
 11
791.5889515707728
 21
476.1943790082471
 31
0.0
 12
790.8269515707729
 22
480.7663790082471
 32
0.0
 13
790.8269515707729
 23
480.7663790082471
 33
0.0
  0
SOLID
  5
57A04
330
579AA
100
AcDbEntity
  8
AREA1
 62
     0
100
AcDbTrace
 10
790.064951570773
 20
437.1815931610232
 30
0.0
 11
791.5889515707728
 21
437.1815931610232
 31
0.0
 12
790.8269515707729
 22
432.6095931610232
 32
0.0
 13
790.8269515707729
 23
432.6095931610232
 33
0.0
  0
POINT
  5
57A05
330
579AA
100
AcDbEntity
  8
Defpoints
 62
     0
100
AcDbPoint
 10
830.3051429363085
 20
480.7663790082471
 30
0.0
  0
POINT
  5
57A06
330
579AA
100
AcDbEntity
  8
Defpoints
 62
     0
100
AcDbPoint
 10
803.7748429363091
 20
432.6095931610232
 30
0.0
  0
POINT
  5
57A07
330
579AA
100
AcDbEntity
  8
Defpoints
 62
     0
100
AcDbPoint
 10
790.8269515707729
 20
432.6095931610232
 30
0.0
  0
ENDBLK
  5
579B5
330
579AA
100
AcDbEntity
  8
0
100
AcDbBlockEnd
  0
BLOCK
  5
579C2
330
579B7
100
AcDbEntity
  8
0
100
AcDbBlockBegin
  2
*D11
 70
     1
 10
0.0
 20
0.0
 30
0.0
  3
*D11
  1

  0
LINE
  5
57A08
330
579B7
100
AcDbEntity
  8
AREA1
 62
     0
370
    -2
100
AcDbLine
 10
802.1873429363092
 20
432.6095931610232
 30
0.0
 11
786.2549515707729
 21
432.6095931610232
 31
0.0
  0
LINE
  5
57A09
330
579B7
100
AcDbEntity
  8
AREA1
 62
     0
370
    -2
100
AcDbLine
 10
802.1873429363092
 20
357.0938192252674
 30
0.0
 11
786.2549515707729
 21
357.0938192252674
 31
0.0
  0
LINE
  5
57A0A
330
579B7
100
AcDbEntity
  8
AREA1
 62
     0
370
    -2
100
AcDbLine
 10
790.8269515707729
 20
428.0375931610231
 30
0.0
 11
790.8269515707729
 21
361.6658192252673
 31
0.0
  0
MTEXT
  5
57A0B
330
579B7
100
AcDbEntity
  8
AREA1
 62
     0
100
AcDbMText
 10
782.1088849774776
 20
395.3417636832022
 30
0.0
 40
4.572
 41
0.0
 71
     5
 72
     1
  1
\A1;75.52 [2 31/32]
 11
0.0000000000000001
 21
1.0
 31
0.0
 73
     1
 44
1.0
1001
ACAD
1000
MTEXTBEGIN
1070
    73
1070
     1
1070
    44
1040
1.0
1070
    74
1070
     0
1000
MTEXTEND
  0
SOLID
  5
57A0C
330
579B7
100
AcDbEntity
  8
AREA1
 62
     0
100
AcDbTrace
 10
790.064951570773
 20
428.0375931610231
 30
0.0
 11
791.5889515707728
 21
428.0375931610231
 31
0.0
 12
790.8269515707729
 22
432.6095931610232
 32
0.0
 13
790.8269515707729
 23
432.6095931610232
 33
0.0
  0
SOLID
  5
57A0D
330
579B7
100
AcDbEntity
  8
AREA1
 62
     0
100
AcDbTrace
 10
790.064951570773
 20
361.6658192252673
 30
0.0
 11
791.5889515707728
 21
361.6658192252673
 31
0.0
 12
790.8269515707729
 22
357.0938192252674
 32
0.0
 13
790.8269515707729
 23
357.0938192252674
 33
0.0
  0
POINT
  5
57A0E
330
579B7
100
AcDbEntity
  8
Defpoints
 62
     0
100
AcDbPoint
 10
803.7748429363091
 20
432.6095931610232
 30
0.0
  0
POINT
  5
57A0F
330
579B7
100
AcDbEntity
  8
Defpoints
 62
     0
100
AcDbPoint
 10
803.7748429363091
 20
357.0938192252674
 30
0.0
  0
POINT
  5
57A10
330
579B7
100
AcDbEntity
  8
Defpoints
 62
     0
100
AcDbPoint
 10
790.8269515707729
 20
357.0938192252674
 30
0.0
  0
ENDBLK
  5
579C3
330
579B7
100
AcDbEntity
  8
0
100
AcDbBlockEnd
  0
BLOCK
  5
579CF
330
579C5
100
AcDbEntity
  8
0
100
AcDbBlockBegin
  2
*D12
 70
     1
 10
0.0
 20
0.0
 30
0.0
  3
*D12
  1

  0
LINE
  5
57A11
330
579C5
100
AcDbEntity
  8
AREA1
 62
     0
370
    -2
100
AcDbLine
 10
802.1873429363092
 20
357.0938192252674
 30
0.0
 11
785.7421238093357
 21
357.0938192252674
 31
0.0
  0
LINE
  5
57A12
330
579C5
100
AcDbEntity
  8
AREA1
 62
     0
370
    -2
100
AcDbLine
 10
802.1873429363092
 20
298.8528964878488
 30
0.0
 11
785.7421238093357
 21
298.8528964878488
 31
0.0
  0
LINE
  5
57A13
330
579C5
100
AcDbEntity
  8
AREA1
 62
     0
370
    -2
100
AcDbLine
 10
790.3141238093358
 20
352.5218192252673
 30
0.0
 11
790.3141238093358
 21
303.4248964878488
 31
0.0
  0
MTEXT
  5
57A14
330
579C5
100
AcDbEntity
  8
AREA1
 62
     0
100
AcDbMText
 10
782.1088849774776
 20
323.6049309747485
 30
0.0
 40
4.572
 41
0.0
 71
     5
 72
     1
  1
\A1;58.24 [2 19/64]
 11
0.0000000000000001
 21
1.0
 31
0.0
 73
     1
 44
1.0
1001
ACAD
1000
MTEXTBEGIN
1070
    73
1070
     1
1070
    44
1040
1.0
1070
    74
1070
     0
1000
MTEXTEND
  0
SOLID
  5
57A15
330
579C5
100
AcDbEntity
  8
AREA1
 62
     0
100
AcDbTrace
 10
789.5521238093358
 20
352.5218192252673
 30
0.0
 11
791.0761238093357
 21
352.5218192252673
 31
0.0
 12
790.3141238093358
 22
357.0938192252674
 32
0.0
 13
790.3141238093358
 23
357.0938192252674
 33
0.0
  0
SOLID
  5
57A16
330
579C5
100
AcDbEntity
  8
AREA1
 62
     0
100
AcDbTrace
 10
789.5521238093358
 20
303.4248964878488
 30
0.0
 11
791.0761238093357
 21
303.4248964878488
 31
0.0
 12
790.3141238093358
 22
298.8528964878488
 32
0.0
 13
790.3141238093358
 23
298.8528964878488
 33
0.0
  0
POINT
  5
57A17
330
579C5
100
AcDbEntity
  8
Defpoints
 62
     0
100
AcDbPoint
 10
803.7748429363091
 20
357.0938192252674
 30
0.0
  0
POINT
  5
57A18
330
579C5
100
AcDbEntity
  8
Defpoints
 62
     0
100
AcDbPoint
 10
803.7748429363091
 20
298.8528964878488
 30
0.0
  0
POINT
  5
57A19
330
579C5
100
AcDbEntity
  8
Defpoints
 62
     0
100
AcDbPoint
 10
790.3141238093358
 20
298.8528964878488
 30
0.0
  0
ENDBLK
  5
579D0
330
579C5
100
AcDbEntity
  8
0
100
AcDbBlockEnd
  0
BLOCK
  5
57A26
330
57A1B
100
AcDbEntity
  8
0
100
AcDbBlockBegin
  2
*D13
 70
     1
 10
0.0
 20
0.0
 30
0.0
  3
*D13
  1

  0
LINE
  5
57A28
330
57A1B
100
AcDbEntity
  8
AREA1
 62
     0
370
    -2
100
AcDbLine
 10
922.3166429363072
 20
237.5613790082474
 30
0.0
 11
970.7923621047019
 21
237.5613790082473
 31
0.0
  0
LINE
  5
57A29
330
57A1B
100
AcDbEntity
  8
AREA1
 62
     0
370
    -2
100
AcDbLine
 10
922.3166429363072
 20
182.6973790082467
 30
0.0
 11
970.7923621047019
 21
182.6973790082467
 31
0.0
  0
LINE
  5
57A2A
330
57A1B
100
AcDbEntity
  8
AREA1
 62
     0
370
    -2
100
AcDbLine
 10
966.2203621047019
 20
232.9893790082473
 30
0.0
 11
966.2203621047019
 21
187.2693790082467
 31
0.0
  0
MTEXT
  5
57A2B
330
57A1B
100
AcDbEntity
  8
AREA1
 62
     0
100
AcDbMText
 10
974.8797374544674
 20
209.8932076809266
 30
0.0
 40
4.572
 41
0.0
 71
     5
 72
     1
  1
\A1;54.86 [2 5/32]
 11
0.0000000000000001
 21
1.0
 31
0.0
 73
     1
 44
1.0
1001
ACAD
1000
MTEXTBEGIN
1070
    73
1070
     1
1070
    44
1040
1.0
1070
    74
1070
     0
1000
MTEXTEND
  0
SOLID
  5
57A2C
330
57A1B
100
AcDbEntity
  8
AREA1
 62
     0
100
AcDbTrace
 10
965.458362104702
 20
232.9893790082473
 30
0.0
 11
966.9823621047019
 21
232.9893790082473
 31
0.0
 12
966.2203621047019
 22
237.5613790082473
 32
0.0
 13
966.2203621047019
 23
237.5613790082473
 33
0.0
  0
SOLID
  5
57A2D
330
57A1B
100
AcDbEntity
  8
AREA1
 62
     0
100
AcDbTrace
 10
965.458362104702
 20
187.2693790082467
 30
0.0
 11
966.9823621047019
 21
187.2693790082467
 31
0.0
 12
966.2203621047019
 22
182.6973790082467
 32
0.0
 13
966.2203621047019
 23
182.6973790082467
 33
0.0
  0
POINT
  5
57A2E
330
57A1B
100
AcDbEntity
  8
Defpoints
 62
     0
100
AcDbPoint
 10
920.7291429363072
 20
237.5613790082474
 30
0.0
  0
POINT
  5
57A2F
330
57A1B
100
AcDbEntity
  8
Defpoints
 62
     0
100
AcDbPoint
 10
920.7291429363072
 20
182.6973790082467
 30
0.0
  0
POINT
  5
57A30
330
57A1B
100
AcDbEntity
  8
Defpoints
 62
     0
100
AcDbPoint
 10
966.2203621047019
 20
182.6973790082467
 30
0.0
  0
ENDBLK
  5
57A27
330
57A1B
100
AcDbEntity
  8
0
100
AcDbBlockEnd
  0
ENDSEC
  0
SECTION
  2
ENTITIES
  0
ATTDEF
  5
4DDB8
330
458D6
100
AcDbEntity
  8
ATTRIBUTES
100
AcDbText
 10
712.854973044747
 20
447.4401784667817
 30
3.660550014273368
 40
0.575719985847253
  1
ALLEN-BRADLEY
100
AcDbAttributeDefinition
  3
MANUFACTURER NAME?
  2
AC_VND_LABEL
 70
     1
  0
ATTDEF
  5
4DDB9
330
458D6
100
AcDbEntity
  8
ATTRIBUTES
100
AcDbText
 10
712.854973044747
 20
446.2407618296
 30
3.660550014273368
 40
0.575719985847253
  1
1485P-P4T5-T5C
100
AcDbAttributeDefinition
  3
CATALOG NUMBER?
  2
AC_PART_NO
 70
     1
  0
ATTDEF
  5
4DDBA
330
458D6
100
AcDbEntity
  8
ATTRIBUTES
100
AcDbText
 10
712.854973044747
 20
445.0413451924183
 30
3.660550014273368
 40
0.575719985847253
  1
6-Port DeviceBox, Thin Cable
100
AcDbAttributeDefinition
  3
PART DESCRIPTION?
  2
AC_DESCRIPTION
 70
     1
  0
ATTDEF
  5
4DDBB
330
458D6
100
AcDbEntity
  8
ATTRIBUTES
100
AcDbText
 10
712.854973044747
 20
443.8419285552365
 30
3.660550014273368
 40
0.575719985847253
  1

100
AcDbAttributeDefinition
  3
DEVICE ID?
  2
DEVICE_ID
 70
     1
  0
ATTDEF
  5
4DDBC
330
458D6
100
AcDbEntity
  8
ATTRIBUTES
100
AcDbText
 10
712.854973044747
 20
442.6425119180549
 30
3.660550014273368
 40
0.575719985847253
  1

100
AcDbAttributeDefinition
  3
CUSTOMER PART NUMBER?
  2
AC_CPART_NO
 70
     1
  0
ATTDEF
  5
4DDBD
330
458D6
100
AcDbEntity
  8
ATTRIBUTES
100
AcDbText
 10
712.854973044747
 20
441.4430952808725
 30
3.660550014273368
 40
0.575719985847253
  1

100
AcDbAttributeDefinition
  3
CUSTOMER NOTE?
  2
AC_NOTE
 70
     1
  0
ATTDEF
  5
4DDBE
330
458D6
100
AcDbEntity
  8
ATTRIBUTES
100
AcDbText
 10
712.854973044747
 20
440.2436786436908
 30
3.660550014273368
 40
0.575719985847253
  1

100
AcDbAttributeDefinition
  3
FASTENER DATA?
  2
FASTENER
 70
     1
  0
ATTDEF
  5
4DDBF
330
458D6
100
AcDbEntity
  8
ATTRIBUTES
100
AcDbText
 10
712.854973044747
 20
439.0442620065091
 30
3.660550014273368
 40
0.575719985847253
  1
INCH
100
AcDbAttributeDefinition
  3
UNIT OF SCALE?
  2
AC_SCALE_UNIT
 70
     1
  0
ATTDEF
  5
4DDC0
330
458D6
100
AcDbEntity
  8
ATTRIBUTES
100
AcDbText
 10
712.854973044747
 20
437.8448453693279
 30
3.660550014273368
 40
0.575719985847253
  1
0
100
AcDbAttributeDefinition
  3
VIEW CODE?
  2
AC_VIEW_CODE
 70
     1
  0
MTEXT
  5
4E0D0
330
458D6
100
AcDbEntity
  8
DIMS
100
AcDbMText
 10
263.4509981022159
 20
543.6346761443502
 30
3.646124999999996
 40
0.125
 41
0.0
 71
     1
 72
     1
  1

  7
ROMANS
 73
     1
 44
1.0
1001
ACAD
1000
MTEXTBEGIN
1070
    73
1070
     1
1070
    44
1040
1.0
1070
    74
1070
     0
1000
MTEXTEND
  0
MTEXT
  5
4E0E6
330
458D6
100
AcDbEntity
  8
DIMS
100
AcDbMText
 10
262.8011374184602
 20
540.1940165057656
 30
3.646124999999996
 40
0.125
 41
0.0
 71
     1
 72
     1
  1

  7
ROMANS
 73
     1
 44
1.0
1001
ACAD
1000
MTEXTBEGIN
1070
    73
1070
     1
1070
    44
1040
1.0
1070
    74
1070
     0
1000
MTEXTEND
  0
LINE
  5
574B1
330
458D6
100
AcDbEntity
  8
0
 62
     0
100
AcDbLine
 10
823.9551429363086
 20
277.8203790082468
 30
3.646124999999996
 11
823.9551429363086
 21
474.416379008247
 31
3.646124999999996
  0
LINE
  5
574B2
330
458D6
100
AcDbEntity
  8
0
 62
     0
100
AcDbLine
 10
921.9991429363089
 20
277.8203790082468
 30
3.646124999999996
 11
921.9991429363089
 21
474.416379008247
 31
3.646124999999996
  0
LINE
  5
574B3
330
458D6
100
AcDbEntity
  8
0
 62
     0
100
AcDbLine
 10
915.6491429363088
 20
271.4703790082468
 30
3.646124999999996
 11
830.3051429363085
 21
271.4703790082468
 31
3.646124999999996
  0
ARC
  5
574B4
330
458D6
100
AcDbEntity
  8
0
 62
     0
100
AcDbCircle
 10
830.3051429363085
 20
277.8203790082468
 30
3.646124999999996
 40
6.349999999999999
100
AcDbArc
 50
180.0
 51
270.0
  0
ARC
  5
574B5
330
458D6
100
AcDbEntity
  8
0
 62
     0
100
AcDbCircle
 10
915.6491429363088
 20
277.8203790082468
 30
3.646124999999996
 40
6.349999999999999
100
AcDbArc
 50
270.0
 51
0.0
  0
LINE
  5
574B6
330
458D6
100
AcDbEntity
  8
0
 62
     0
100
AcDbLine
 10
915.6491429363088
 20
480.7663790082471
 30
3.646124999999996
 11
830.3051429363085
 21
480.7663790082471
 31
3.646124999999996
  0
ARC
  5
574B7
330
458D6
100
AcDbEntity
  8
0
 62
     0
100
AcDbCircle
 10
830.3051429363085
 20
474.416379008247
 30
3.646124999999996
 40
6.349999999999999
100
AcDbArc
 50
90.0
 51
180.0
  0
ARC
  5
574B8
330
458D6
100
AcDbEntity
  8
0
 62
     0
100
AcDbCircle
 10
915.6491429363088
 20
474.416379008247
 30
3.646124999999996
 40
6.349999999999999
100
AcDbArc
 50
0.0
 51
90.0
  0
ARC
  5
574B9
330
458D6
100
AcDbEntity
  8
0
 62
     0
100
AcDbCircle
 10
938.8774429363083
 20
350.8708192252672
 30
3.646124999999996
 40
3.302
100
AcDbArc
 50
270.0
 51
0.0
  0
ARC
  5
574BA
330
458D6
100
AcDbEntity
  8
0
 62
     0
100
AcDbCircle
 10
936.1260053189324
 20
348.8149228525892
 30
3.646124999999996
 40
2.751438028232276
100
AcDbArc
 50
309.1046213224502
 51
50.89537867754973
  0
LINE
  5
574BB
330
458D6
100
AcDbEntity
  8
0
 62
     0
100
AcDbLine
 10
929.9874429363077
 20
367.5078192252665
 30
3.646124999999996
 11
929.9874429363077
 21
346.6798192252667
 31
3.646124999999996
  0
LINE
  5
574BC
330
458D6
100
AcDbEntity
  8
0
 62
     0
100
AcDbLine
 10
925.5424429363088
 20
367.5078192252665
 30
3.646124999999996
 11
925.5424429363088
 21
346.6798192252667
 31
3.646124999999996
  0
LINE
  5
574BD
330
458D6
100
AcDbEntity
  8
0
 62
     0
100
AcDbLine
 10
921.9991429363089
 20
346.6798192252667
 30
3.646124999999996
 11
925.5424429363088
 21
346.6798192252667
 31
3.646124999999996
  0
LINE
  5
574BE
330
458D6
100
AcDbEntity
  8
0
 62
     0
100
AcDbLine
 10
929.9874429363077
 20
346.6798192252667
 30
3.646124999999996
 11
937.8614429363093
 21
346.6798192252667
 31
3.646124999999996
  0
LINE
  5
574BF
330
458D6
100
AcDbEntity
  8
0
 62
     0
100
AcDbLine
 10
938.8774429363083
 20
347.5688192252674
 30
3.646124999999996
 11
938.5790925520304
 21
347.5688192252674
 31
3.646124999999996
  0
ARC
  5
574C0
330
458D6
100
AcDbEntity
  8
0
 62
     0
100
AcDbCircle
 10
938.8774429363083
 20
363.3168192252675
 30
3.646124999999996
 40
3.302
100
AcDbArc
 50
0.0
 51
90.0
  0
ARC
  5
574C1
330
458D6
100
AcDbEntity
  8
0
 62
     0
100
AcDbCircle
 10
936.1260053189324
 20
365.3727155979456
 30
3.646124999999996
 40
2.751438028232276
100
AcDbArc
 50
309.1046213224502
 51
50.89537867754973
  0
LINE
  5
574C2
330
458D6
100
AcDbEntity
  8
0
 62
     0
100
AcDbLine
 10
927.0664429363074
 20
363.1898192252676
 30
3.646124999999996
 11
927.574442936307
 21
363.1898192252676
 31
3.646124999999996
  0
LINE
  5
574C3
330
458D6
100
AcDbEntity
  8
0
 62
     0
100
AcDbLine
 10
927.0664429363074
 20
350.9978192252672
 30
3.646124999999996
 11
927.574442936307
 21
350.9978192252672
 31
3.646124999999996
  0
LINE
  5
574C4
330
458D6
100
AcDbEntity
  8
0
 62
     0
100
AcDbLine
 10
926.0504429363084
 20
364.0788192252668
 30
3.646124999999996
 11
926.0504429363084
 21
350.1088192252665
 31
3.646124999999996
  0
LINE
  5
574C5
330
458D6
100
AcDbEntity
  8
0
 62
     0
100
AcDbLine
 10
926.558442936308
 20
364.0788192252668
 30
3.646124999999996
 11
926.558442936308
 21
350.1088192252665
 31
3.646124999999996
  0
LINE
  5
574C6
330
458D6
100
AcDbEntity
  8
0
 62
     0
100
AcDbLine
 10
927.0664429363074
 20
363.1898192252676
 30
3.646124999999996
 11
927.0664429363074
 21
350.9978192252672
 31
3.646124999999996
  0
LINE
  5
574C7
330
458D6
100
AcDbEntity
  8
0
 62
     0
100
AcDbLine
 10
926.0504429363084
 20
350.1088192252665
 30
3.646124999999996
 11
926.558442936308
 21
350.1088192252665
 31
3.646124999999996
  0
LINE
  5
574C8
330
458D6
100
AcDbEntity
  8
0
 62
     0
100
AcDbLine
 10
926.558442936308
 20
350.1088192252665
 30
3.646124999999996
 11
927.0664429363074
 21
350.9978192252672
 31
3.646124999999996
  0
LINE
  5
574C9
330
458D6
100
AcDbEntity
  8
0
 62
     0
100
AcDbLine
 10
925.5424429363088
 20
350.9978192252672
 30
3.646124999999996
 11
926.0504429363084
 21
350.1088192252665
 31
3.646124999999996
  0
LINE
  5
574CA
330
458D6
100
AcDbEntity
  8
0
 62
     0
100
AcDbLine
 10
925.5424429363088
 20
350.9500264799102
 30
3.646124999999996
 11
921.9991429363089
 21
350.9500264799102
 31
3.646124999999996
  0
LINE
  5
574CB
330
458D6
100
AcDbEntity
  8
0
 62
     0
100
AcDbLine
 10
925.5424429363088
 20
352.8836207738878
 30
3.646124999999996
 11
921.9991429363089
 21
352.8836207738878
 31
3.646124999999996
  0
LINE
  5
574CC
330
458D6
100
AcDbEntity
  8
0
 62
     0
100
AcDbLine
 10
925.5424429363088
 20
363.1898192252676
 30
3.646124999999996
 11
926.0504429363084
 21
364.0788192252668
 31
3.646124999999996
  0
LINE
  5
574CD
330
458D6
100
AcDbEntity
  8
0
 62
     0
100
AcDbLine
 10
926.558442936308
 20
364.0788192252668
 30
3.646124999999996
 11
927.0664429363074
 21
363.1898192252676
 31
3.646124999999996
  0
LINE
  5
574CE
330
458D6
100
AcDbEntity
  8
0
 62
     0
100
AcDbLine
 10
926.0504429363084
 20
364.0788192252668
 30
3.646124999999996
 11
926.558442936308
 21
364.0788192252668
 31
3.646124999999996
  0
LINE
  5
574CF
330
458D6
100
AcDbEntity
  8
0
 62
     0
100
AcDbLine
 10
925.5424429363088
 20
363.2376119706246
 30
3.646124999999996
 11
921.9991429363089
 21
363.2376119706246
 31
3.646124999999996
  0
LINE
  5
574D0
330
458D6
100
AcDbEntity
  8
0
 62
     0
100
AcDbLine
 10
925.5424429363088
 20
361.304017676647
 30
3.646124999999996
 11
921.9991429363089
 21
361.304017676647
 31
3.646124999999996
  0
LINE
  5
574D1
330
458D6
100
AcDbEntity
  8
0
 62
     0
100
AcDbLine
 10
927.574442936307
 20
363.1898192252676
 30
3.646124999999996
 11
927.574442936307
 21
350.9978192252672
 31
3.646124999999996
  0
LINE
  5
574D2
330
458D6
100
AcDbEntity
  8
0
 62
     0
100
AcDbLine
 10
928.0824429363095
 20
364.0788192252668
 30
3.646124999999996
 11
928.0824429363095
 21
350.1088192252665
 31
3.646124999999996
  0
LINE
  5
574D3
330
458D6
100
AcDbEntity
  8
0
 62
     0
100
AcDbLine
 10
928.5904429363089
 20
364.0788192252668
 30
3.646124999999996
 11
928.5904429363089
 21
350.1088192252665
 31
3.646124999999996
  0
LINE
  5
574D4
330
458D6
100
AcDbEntity
  8
0
 62
     0
100
AcDbLine
 10
929.0984429363085
 20
363.1898192252676
 30
3.646124999999996
 11
929.0984429363085
 21
350.9978192252672
 31
3.646124999999996
  0
LINE
  5
574D5
330
458D6
100
AcDbEntity
  8
0
 62
     0
100
AcDbLine
 10
929.6064429363079
 20
363.1898192252676
 30
3.646124999999996
 11
929.6064429363079
 21
350.9978192252672
 31
3.646124999999996
  0
LINE
  5
574D6
330
458D6
100
AcDbEntity
  8
0
 62
     0
100
AcDbLine
 10
938.8774429363083
 20
365.3742192252189
 30
3.646124999999996
 11
938.8774429363083
 21
348.8134192251816
 31
3.646124999999996
  0
ARC
  5
574D7
330
458D6
100
AcDbEntity
  8
0
 62
     0
100
AcDbCircle
 10
929.6461304363104
 20
357.0938192252674
 30
3.646124999999996
 40
9.231312499998928
100
AcDbArc
 50
332.8656845153003
 51
27.1343154846996
  0
LINE
  5
574D8
330
458D6
100
AcDbEntity
  8
0
 62
     0
100
AcDbLine
 10
937.8614429363093
 20
350.9500264799102
 30
3.646124999999996
 11
929.9874429363077
 21
350.9500264799102
 31
3.646124999999996
  0
LINE
  5
574D9
330
458D6
100
AcDbEntity
  8
0
 62
     0
100
AcDbLine
 10
937.8614429363093
 20
352.8836207738878
 30
3.646124999999996
 11
929.9874429363077
 21
352.8836207738878
 31
3.646124999999996
  0
LINE
  5
574DA
330
458D6
100
AcDbEntity
  8
0
 62
     0
100
AcDbLine
 10
929.6064429363079
 20
350.9978192252672
 30
3.646124999999996
 11
929.9874429363077
 21
350.331069225267
 31
3.646124999999996
  0
LINE
  5
574DB
330
458D6
100
AcDbEntity
  8
0
 62
     0
100
AcDbLine
 10
929.0984429363085
 20
350.9978192252672
 30
3.646124999999996
 11
929.6064429363079
 21
350.9978192252672
 31
3.646124999999996
  0
LINE
  5
574DC
330
458D6
100
AcDbEntity
  8
0
 62
     0
100
AcDbLine
 10
928.0824429363095
 20
350.1088192252665
 30
3.646124999999996
 11
928.5904429363089
 21
350.1088192252665
 31
3.646124999999996
  0
LINE
  5
574DD
330
458D6
100
AcDbEntity
  8
0
 62
     0
100
AcDbLine
 10
928.5904429363089
 20
350.1088192252665
 30
3.646124999999996
 11
929.0984429363085
 21
350.9978192252672
 31
3.646124999999996
  0
LINE
  5
574DE
330
458D6
100
AcDbEntity
  8
0
 62
     0
100
AcDbLine
 10
927.574442936307
 20
350.9978192252672
 30
3.646124999999996
 11
928.0824429363095
 21
350.1088192252665
 31
3.646124999999996
  0
LINE
  5
574DF
330
458D6
100
AcDbEntity
  8
0
 62
     0
100
AcDbLine
 10
937.8614429363093
 20
352.8836207738878
 30
3.646124999999996
 11
937.8614429363093
 21
350.9500264799102
 31
3.646124999999996
  0
LINE
  5
574E0
330
458D6
100
AcDbEntity
  8
0
 62
     0
100
AcDbLine
 10
937.8614429363093
 20
361.304017676647
 30
3.646124999999996
 11
929.9874429363077
 21
361.304017676647
 31
3.646124999999996
  0
LINE
  5
574E1
330
458D6
100
AcDbEntity
  8
0
 62
     0
100
AcDbLine
 10
937.8614429363093
 20
363.2376119706246
 30
3.646124999999996
 11
929.9874429363077
 21
363.2376119706246
 31
3.646124999999996
  0
LINE
  5
574E2
330
458D6
100
AcDbEntity
  8
0
 62
     0
100
AcDbLine
 10
927.574442936307
 20
363.1898192252676
 30
3.646124999999996
 11
928.0824429363095
 21
364.0788192252668
 31
3.646124999999996
  0
LINE
  5
574E3
330
458D6
100
AcDbEntity
  8
0
 62
     0
100
AcDbLine
 10
928.5904429363089
 20
364.0788192252668
 30
3.646124999999996
 11
929.0984429363085
 21
363.1898192252676
 31
3.646124999999996
  0
LINE
  5
574E4
330
458D6
100
AcDbEntity
  8
0
 62
     0
100
AcDbLine
 10
928.0824429363095
 20
364.0788192252668
 30
3.646124999999996
 11
928.5904429363089
 21
364.0788192252668
 31
3.646124999999996
  0
LINE
  5
574E5
330
458D6
100
AcDbEntity
  8
0
 62
     0
100
AcDbLine
 10
929.0984429363085
 20
363.1898192252676
 30
3.646124999999996
 11
929.6064429363079
 21
363.1898192252676
 31
3.646124999999996
  0
LINE
  5
574E6
330
458D6
100
AcDbEntity
  8
0
 62
     0
100
AcDbLine
 10
929.6064429363079
 20
363.1898192252676
 30
3.646124999999996
 11
929.9874429363077
 21
363.8565692252677
 31
3.646124999999996
  0
LINE
  5
574E7
330
458D6
100
AcDbEntity
  8
0
 62
     0
100
AcDbLine
 10
937.8614429363093
 20
363.2376119706246
 30
3.646124999999996
 11
937.8614429363093
 21
361.304017676647
 31
3.646124999999996
  0
LINE
  5
574E8
330
458D6
100
AcDbEntity
  8
0
 62
     0
100
AcDbLine
 10
921.9991429363089
 20
367.5078192252665
 30
3.646124999999996
 11
925.5424429363088
 21
367.5078192252665
 31
3.646124999999996
  0
LINE
  5
574E9
330
458D6
100
AcDbEntity
  8
0
 62
     0
100
AcDbLine
 10
929.9874429363077
 20
367.5078192252665
 30
3.646124999999996
 11
937.8614429363093
 21
367.5078192252665
 31
3.646124999999996
  0
LINE
  5
574EA
330
458D6
100
AcDbEntity
  8
0
 62
     0
100
AcDbLine
 10
938.8774429363083
 20
366.6188192252674
 30
3.646124999999996
 11
938.5790925520304
 21
366.6188192252674
 31
3.646124999999996
  0
LINE
  5
574EB
330
458D6
100
AcDbEntity
  8
0
 62
     0
100
AcDbLine
 10
942.1794429363082
 20
363.3168192252675
 30
3.646124999999996
 11
942.1794429363082
 21
350.8708192252672
 31
3.646124999999996
  0
ARC
  5
574EC
330
458D6
100
AcDbEntity
  8
0
 62
     0
100
AcDbCircle
 10
938.8774429363083
 20
426.386593161023
 30
3.646124999999996
 40
3.302
100
AcDbArc
 50
270.0
 51
0.0
  0
ARC
  5
574ED
330
458D6
100
AcDbEntity
  8
0
 62
     0
100
AcDbCircle
 10
936.1260053189324
 20
424.330696788345
 30
3.646124999999996
 40
2.751438028232276
100
AcDbArc
 50
309.1046213224502
 51
50.89537867754973
  0
LINE
  5
574EE
330
458D6
100
AcDbEntity
  8
0
 62
     0
100
AcDbLine
 10
929.9874429363077
 20
443.0235931610238
 30
3.646124999999996
 11
929.9874429363077
 21
422.1955931610239
 31
3.646124999999996
  0
LINE
  5
574EF
330
458D6
100
AcDbEntity
  8
0
 62
     0
100
AcDbLine
 10
925.5424429363088
 20
443.0235931610238
 30
3.646124999999996
 11
925.5424429363088
 21
422.1955931610239
 31
3.646124999999996
  0
LINE
  5
574F0
330
458D6
100
AcDbEntity
  8
0
 62
     0
100
AcDbLine
 10
921.9991429363089
 20
422.1955931610239
 30
3.646124999999996
 11
925.5424429363088
 21
422.1955931610239
 31
3.646124999999996
  0
LINE
  5
574F1
330
458D6
100
AcDbEntity
  8
0
 62
     0
100
AcDbLine
 10
929.9874429363077
 20
422.1955931610239
 30
3.646124999999996
 11
937.8614429363093
 21
422.1955931610239
 31
3.646124999999996
  0
LINE
  5
574F2
330
458D6
100
AcDbEntity
  8
0
 62
     0
100
AcDbLine
 10
938.8774429363083
 20
423.0845931610232
 30
3.646124999999996
 11
938.5790925520304
 21
423.0845931610232
 31
3.646124999999996
  0
ARC
  5
574F3
330
458D6
100
AcDbEntity
  8
0
 62
     0
100
AcDbCircle
 10
938.8774429363083
 20
438.8325931610232
 30
3.646124999999996
 40
3.302
100
AcDbArc
 50
0.0
 51
90.0
  0
ARC
  5
574F4
330
458D6
100
AcDbEntity
  8
0
 62
     0
100
AcDbCircle
 10
936.1260053189324
 20
440.8884895337013
 30
3.646124999999996
 40
2.751438028232276
100
AcDbArc
 50
309.1046213224502
 51
50.89537867754973
  0
LINE
  5
574F5
330
458D6
100
AcDbEntity
  8
0
 62
     0
100
AcDbLine
 10
927.0664429363074
 20
438.7055931610234
 30
3.646124999999996
 11
927.574442936307
 21
438.7055931610234
 31
3.646124999999996
  0
LINE
  5
574F6
330
458D6
100
AcDbEntity
  8
0
 62
     0
100
AcDbLine
 10
927.0664429363074
 20
426.5135931610229
 30
3.646124999999996
 11
927.574442936307
 21
426.5135931610229
 31
3.646124999999996
  0
LINE
  5
574F7
330
458D6
100
AcDbEntity
  8
0
 62
     0
100
AcDbLine
 10
926.0504429363084
 20
439.594593161024
 30
3.646124999999996
 11
926.0504429363084
 21
425.6245931610237
 31
3.646124999999996
  0
LINE
  5
574F8
330
458D6
100
AcDbEntity
  8
0
 62
     0
100
AcDbLine
 10
926.558442936308
 20
439.594593161024
 30
3.646124999999996
 11
926.558442936308
 21
425.6245931610237
 31
3.646124999999996
  0
LINE
  5
574F9
330
458D6
100
AcDbEntity
  8
0
 62
     0
100
AcDbLine
 10
927.0664429363074
 20
438.7055931610234
 30
3.646124999999996
 11
927.0664429363074
 21
426.5135931610229
 31
3.646124999999996
  0
LINE
  5
574FA
330
458D6
100
AcDbEntity
  8
0
 62
     0
100
AcDbLine
 10
926.0504429363084
 20
425.6245931610237
 30
3.646124999999996
 11
926.558442936308
 21
425.6245931610237
 31
3.646124999999996
  0
LINE
  5
574FB
330
458D6
100
AcDbEntity
  8
0
 62
     0
100
AcDbLine
 10
926.558442936308
 20
425.6245931610237
 30
3.646124999999996
 11
927.0664429363074
 21
426.5135931610229
 31
3.646124999999996
  0
LINE
  5
574FC
330
458D6
100
AcDbEntity
  8
0
 62
     0
100
AcDbLine
 10
925.5424429363088
 20
426.5135931610229
 30
3.646124999999996
 11
926.0504429363084
 21
425.6245931610237
 31
3.646124999999996
  0
LINE
  5
574FD
330
458D6
100
AcDbEntity
  8
0
 62
     0
100
AcDbLine
 10
925.5424429363088
 20
426.465800415666
 30
3.646124999999996
 11
921.9991429363089
 21
426.465800415666
 31
3.646124999999996
  0
LINE
  5
574FE
330
458D6
100
AcDbEntity
  8
0
 62
     0
100
AcDbLine
 10
925.5424429363088
 20
428.3993947096436
 30
3.646124999999996
 11
921.9991429363089
 21
428.3993947096436
 31
3.646124999999996
  0
LINE
  5
574FF
330
458D6
100
AcDbEntity
  8
0
 62
     0
100
AcDbLine
 10
925.5424429363088
 20
438.7055931610234
 30
3.646124999999996
 11
926.0504429363084
 21
439.594593161024
 31
3.646124999999996
  0
LINE
  5
57500
330
458D6
100
AcDbEntity
  8
0
 62
     0
100
AcDbLine
 10
926.558442936308
 20
439.594593161024
 30
3.646124999999996
 11
927.0664429363074
 21
438.7055931610234
 31
3.646124999999996
  0
LINE
  5
57501
330
458D6
100
AcDbEntity
  8
0
 62
     0
100
AcDbLine
 10
926.0504429363084
 20
439.594593161024
 30
3.646124999999996
 11
926.558442936308
 21
439.594593161024
 31
3.646124999999996
  0
LINE
  5
57502
330
458D6
100
AcDbEntity
  8
0
 62
     0
100
AcDbLine
 10
925.5424429363088
 20
438.7533859063803
 30
3.646124999999996
 11
921.9991429363089
 21
438.7533859063803
 31
3.646124999999996
  0
LINE
  5
57503
330
458D6
100
AcDbEntity
  8
0
 62
     0
100
AcDbLine
 10
925.5424429363088
 20
436.8197916124027
 30
3.646124999999996
 11
921.9991429363089
 21
436.8197916124027
 31
3.646124999999996
  0
LINE
  5
57504
330
458D6
100
AcDbEntity
  8
0
 62
     0
100
AcDbLine
 10
927.574442936307
 20
438.7055931610234
 30
3.646124999999996
 11
927.574442936307
 21
426.5135931610229
 31
3.646124999999996
  0
LINE
  5
57505
330
458D6
100
AcDbEntity
  8
0
 62
     0
100
AcDbLine
 10
928.0824429363095
 20
439.594593161024
 30
3.646124999999996
 11
928.0824429363095
 21
425.6245931610237
 31
3.646124999999996
  0
LINE
  5
57506
330
458D6
100
AcDbEntity
  8
0
 62
     0
100
AcDbLine
 10
928.5904429363089
 20
439.594593161024
 30
3.646124999999996
 11
928.5904429363089
 21
425.6245931610237
 31
3.646124999999996
  0
LINE
  5
57507
330
458D6
100
AcDbEntity
  8
0
 62
     0
100
AcDbLine
 10
929.0984429363085
 20
438.7055931610234
 30
3.646124999999996
 11
929.0984429363085
 21
426.5135931610229
 31
3.646124999999996
  0
LINE
  5
57508
330
458D6
100
AcDbEntity
  8
0
 62
     0
100
AcDbLine
 10
929.6064429363079
 20
438.7055931610234
 30
3.646124999999996
 11
929.6064429363079
 21
426.5135931610229
 31
3.646124999999996
  0
LINE
  5
57509
330
458D6
100
AcDbEntity
  8
0
 62
     0
100
AcDbLine
 10
938.8774429363083
 20
440.8899931609746
 30
3.646124999999996
 11
938.8774429363083
 21
424.3291931609374
 31
3.646124999999996
  0
ARC
  5
5750A
330
458D6
100
AcDbEntity
  8
0
 62
     0
100
AcDbCircle
 10
929.6461304363104
 20
432.6095931610232
 30
3.646124999999996
 40
9.231312499998928
100
AcDbArc
 50
332.8656845153003
 51
27.1343154846996
  0
LINE
  5
5750B
330
458D6
100
AcDbEntity
  8
0
 62
     0
100
AcDbLine
 10
937.8614429363093
 20
426.465800415666
 30
3.646124999999996
 11
929.9874429363077
 21
426.465800415666
 31
3.646124999999996
  0
LINE
  5
5750C
330
458D6
100
AcDbEntity
  8
0
 62
     0
100
AcDbLine
 10
937.8614429363093
 20
428.3993947096436
 30
3.646124999999996
 11
929.9874429363077
 21
428.3993947096436
 31
3.646124999999996
  0
LINE
  5
5750D
330
458D6
100
AcDbEntity
  8
0
 62
     0
100
AcDbLine
 10
929.6064429363079
 20
426.5135931610229
 30
3.646124999999996
 11
929.9874429363077
 21
425.8468431610228
 31
3.646124999999996
  0
LINE
  5
5750E
330
458D6
100
AcDbEntity
  8
0
 62
     0
100
AcDbLine
 10
929.0984429363085
 20
426.5135931610229
 30
3.646124999999996
 11
929.6064429363079
 21
426.5135931610229
 31
3.646124999999996
  0
LINE
  5
5750F
330
458D6
100
AcDbEntity
  8
0
 62
     0
100
AcDbLine
 10
928.0824429363095
 20
425.6245931610237
 30
3.646124999999996
 11
928.5904429363089
 21
425.6245931610237
 31
3.646124999999996
  0
LINE
  5
57510
330
458D6
100
AcDbEntity
  8
0
 62
     0
100
AcDbLine
 10
928.5904429363089
 20
425.6245931610237
 30
3.646124999999996
 11
929.0984429363085
 21
426.5135931610229
 31
3.646124999999996
  0
LINE
  5
57511
330
458D6
100
AcDbEntity
  8
0
 62
     0
100
AcDbLine
 10
927.574442936307
 20
426.5135931610229
 30
3.646124999999996
 11
928.0824429363095
 21
425.6245931610237
 31
3.646124999999996
  0
LINE
  5
57512
330
458D6
100
AcDbEntity
  8
0
 62
     0
100
AcDbLine
 10
937.8614429363093
 20
428.3993947096436
 30
3.646124999999996
 11
937.8614429363093
 21
426.465800415666
 31
3.646124999999996
  0
LINE
  5
57513
330
458D6
100
AcDbEntity
  8
0
 62
     0
100
AcDbLine
 10
937.8614429363093
 20
436.8197916124027
 30
3.646124999999996
 11
929.9874429363077
 21
436.8197916124027
 31
3.646124999999996
  0
LINE
  5
57514
330
458D6
100
AcDbEntity
  8
0
 62
     0
100
AcDbLine
 10
937.8614429363093
 20
438.7533859063803
 30
3.646124999999996
 11
929.9874429363077
 21
438.7533859063803
 31
3.646124999999996
  0
LINE
  5
57515
330
458D6
100
AcDbEntity
  8
0
 62
     0
100
AcDbLine
 10
927.574442936307
 20
438.7055931610234
 30
3.646124999999996
 11
928.0824429363095
 21
439.594593161024
 31
3.646124999999996
  0
LINE
  5
57516
330
458D6
100
AcDbEntity
  8
0
 62
     0
100
AcDbLine
 10
928.5904429363089
 20
439.594593161024
 30
3.646124999999996
 11
929.0984429363085
 21
438.7055931610234
 31
3.646124999999996
  0
LINE
  5
57517
330
458D6
100
AcDbEntity
  8
0
 62
     0
100
AcDbLine
 10
928.0824429363095
 20
439.594593161024
 30
3.646124999999996
 11
928.5904429363089
 21
439.594593161024
 31
3.646124999999996
  0
LINE
  5
57518
330
458D6
100
AcDbEntity
  8
0
 62
     0
100
AcDbLine
 10
929.0984429363085
 20
438.7055931610234
 30
3.646124999999996
 11
929.6064429363079
 21
438.7055931610234
 31
3.646124999999996
  0
LINE
  5
57519
330
458D6
100
AcDbEntity
  8
0
 62
     0
100
AcDbLine
 10
929.6064429363079
 20
438.7055931610234
 30
3.646124999999996
 11
929.9874429363077
 21
439.3723431610235
 31
3.646124999999996
  0
LINE
  5
5751A
330
458D6
100
AcDbEntity
  8
0
 62
     0
100
AcDbLine
 10
937.8614429363093
 20
438.7533859063803
 30
3.646124999999996
 11
937.8614429363093
 21
436.8197916124027
 31
3.646124999999996
  0
LINE
  5
5751B
330
458D6
100
AcDbEntity
  8
0
 62
     0
100
AcDbLine
 10
921.9991429363089
 20
443.0235931610238
 30
3.646124999999996
 11
925.5424429363088
 21
443.0235931610238
 31
3.646124999999996
  0
LINE
  5
5751C
330
458D6
100
AcDbEntity
  8
0
 62
     0
100
AcDbLine
 10
929.9874429363077
 20
443.0235931610238
 30
3.646124999999996
 11
937.8614429363093
 21
443.0235931610238
 31
3.646124999999996
  0
LINE
  5
5751D
330
458D6
100
AcDbEntity
  8
0
 62
     0
100
AcDbLine
 10
938.8774429363083
 20
442.1345931610232
 30
3.646124999999996
 11
938.5790925520304
 21
442.1345931610232
 31
3.646124999999996
  0
LINE
  5
5751E
330
458D6
100
AcDbEntity
  8
0
 62
     0
100
AcDbLine
 10
942.1794429363082
 20
438.8325931610232
 30
3.646124999999996
 11
942.1794429363082
 21
426.386593161023
 31
3.646124999999996
  0
CIRCLE
  5
5751F
330
458D6
100
AcDbEntity
  8
0
 62
     0
100
AcDbCircle
 10
915.6491429363088
 20
474.416379008247
 30
3.646124999999996
 40
3.96875
  0
CIRCLE
  5
57520
330
458D6
100
AcDbEntity
  8
0
 62
     0
100
AcDbCircle
 10
830.3051429363085
 20
474.416379008247
 30
3.646124999999996
 40
3.96875
  0
LINE
  5
57521
330
458D6
100
AcDbEntity
  8
0
 62
     0
100
AcDbLine
 10
803.7748429363093
 20
438.8325931610232
 30
3.646124999999996
 11
803.7748429363093
 21
426.386593161023
 31
3.646124999999996
  0
LINE
  5
57522
330
458D6
100
AcDbEntity
  8
0
 62
     0
100
AcDbLine
 10
808.0928429363082
 20
428.3993947096436
 30
3.646124999999996
 11
808.0928429363082
 21
426.465800415666
 31
3.646124999999996
  0
LINE
  5
57523
330
458D6
100
AcDbEntity
  8
0
 62
     0
100
AcDbLine
 10
807.0768429363091
 20
440.8899931609746
 30
3.646124999999996
 11
807.0768429363091
 21
424.3291931609374
 31
3.646124999999996
  0
LINE
  5
57524
330
458D6
100
AcDbEntity
  8
0
 62
     0
100
AcDbLine
 10
816.3478429363093
 20
438.7055931610234
 30
3.646124999999996
 11
816.3478429363093
 21
426.5135931610229
 31
3.646124999999996
  0
LINE
  5
57525
330
458D6
100
AcDbEntity
  8
0
 62
     0
100
AcDbLine
 10
816.8558429363089
 20
438.7055931610234
 30
3.646124999999996
 11
816.8558429363089
 21
426.5135931610229
 31
3.646124999999996
  0
LINE
  5
57526
330
458D6
100
AcDbEntity
  8
0
 62
     0
100
AcDbLine
 10
817.3638429363085
 20
439.594593161024
 30
3.646124999999996
 11
817.3638429363085
 21
425.6245931610237
 31
3.646124999999996
  0
LINE
  5
57527
330
458D6
100
AcDbEntity
  8
0
 62
     0
100
AcDbLine
 10
817.871842936308
 20
439.594593161024
 30
3.646124999999996
 11
817.871842936308
 21
425.6245931610237
 31
3.646124999999996
  0
LINE
  5
57528
330
458D6
100
AcDbEntity
  8
0
 62
     0
100
AcDbLine
 10
818.3798429363076
 20
438.7055931610234
 30
3.646124999999996
 11
818.3798429363076
 21
426.5135931610229
 31
3.646124999999996
  0
LINE
  5
57529
330
458D6
100
AcDbEntity
  8
0
 62
     0
100
AcDbLine
 10
818.88784293631
 20
438.7055931610234
 30
3.646124999999996
 11
818.88784293631
 21
426.5135931610229
 31
3.646124999999996
  0
LINE
  5
5752A
330
458D6
100
AcDbEntity
  8
0
 62
     0
100
AcDbLine
 10
819.3958429363096
 20
439.594593161024
 30
3.646124999999996
 11
819.3958429363096
 21
425.6245931610237
 31
3.646124999999996
  0
LINE
  5
5752B
330
458D6
100
AcDbEntity
  8
0
 62
     0
100
AcDbLine
 10
819.903842936309
 20
439.594593161024
 30
3.646124999999996
 11
819.903842936309
 21
425.6245931610237
 31
3.646124999999996
  0
LINE
  5
5752C
330
458D6
100
AcDbEntity
  8
0
 62
     0
100
AcDbLine
 10
820.4118429363086
 20
443.0235931610238
 30
3.646124999999996
 11
820.4118429363086
 21
422.1955931610239
 31
3.646124999999996
  0
LINE
  5
5752D
330
458D6
100
AcDbEntity
  8
0
 62
     0
100
AcDbLine
 10
815.9668429363097
 20
443.0235931610238
 30
3.646124999999996
 11
815.9668429363097
 21
422.1955931610239
 31
3.646124999999996
  0
LINE
  5
5752E
330
458D6
100
AcDbEntity
  8
0
 62
     0
100
AcDbLine
 10
819.903842936309
 20
425.6245931610237
 30
3.646124999999996
 11
819.3958429363096
 21
425.6245931610237
 31
3.646124999999996
  0
LINE
  5
5752F
330
458D6
100
AcDbEntity
  8
0
 62
     0
100
AcDbLine
 10
823.9551429363086
 20
422.1955931610239
 30
3.646124999999996
 11
820.4118429363086
 21
422.1955931610239
 31
3.646124999999996
  0
LINE
  5
57530
330
458D6
100
AcDbEntity
  8
0
 62
     0
100
AcDbLine
 10
820.4118429363086
 20
426.465800415666
 30
3.646124999999996
 11
823.9551429363086
 21
426.465800415666
 31
3.646124999999996
  0
LINE
  5
57531
330
458D6
100
AcDbEntity
  8
0
 62
     0
100
AcDbLine
 10
820.4118429363086
 20
426.5135931610229
 30
3.646124999999996
 11
819.903842936309
 21
425.6245931610237
 31
3.646124999999996
  0
LINE
  5
57532
330
458D6
100
AcDbEntity
  8
0
 62
     0
100
AcDbLine
 10
808.0928429363082
 20
426.465800415666
 30
3.646124999999996
 11
815.9668429363097
 21
426.465800415666
 31
3.646124999999996
  0
LINE
  5
57533
330
458D6
100
AcDbEntity
  8
0
 62
     0
100
AcDbLine
 10
815.9668429363097
 20
422.1955931610239
 30
3.646124999999996
 11
808.0928429363082
 21
422.1955931610239
 31
3.646124999999996
  0
LINE
  5
57534
330
458D6
100
AcDbEntity
  8
0
 62
     0
100
AcDbLine
 10
818.3798429363076
 20
426.5135931610229
 30
3.646124999999996
 11
817.871842936308
 21
425.6245931610237
 31
3.646124999999996
  0
LINE
  5
57535
330
458D6
100
AcDbEntity
  8
0
 62
     0
100
AcDbLine
 10
817.3638429363085
 20
425.6245931610237
 30
3.646124999999996
 11
816.8558429363089
 21
426.5135931610229
 31
3.646124999999996
  0
LINE
  5
57536
330
458D6
100
AcDbEntity
  8
0
 62
     0
100
AcDbLine
 10
817.871842936308
 20
425.6245931610237
 30
3.646124999999996
 11
817.3638429363085
 21
425.6245931610237
 31
3.646124999999996
  0
LINE
  5
57537
330
458D6
100
AcDbEntity
  8
0
 62
     0
100
AcDbLine
 10
816.8558429363089
 20
426.5135931610229
 30
3.646124999999996
 11
816.3478429363093
 21
426.5135931610229
 31
3.646124999999996
  0
LINE
  5
57538
330
458D6
100
AcDbEntity
  8
0
 62
     0
100
AcDbLine
 10
816.3478429363093
 20
426.5135931610229
 30
3.646124999999996
 11
815.9668429363097
 21
425.8468431610228
 31
3.646124999999996
  0
LINE
  5
57539
330
458D6
100
AcDbEntity
  8
0
 62
     0
100
AcDbLine
 10
819.3958429363096
 20
425.6245931610237
 30
3.646124999999996
 11
818.88784293631
 21
426.5135931610229
 31
3.646124999999996
  0
LINE
  5
5753A
330
458D6
100
AcDbEntity
  8
0
 62
     0
100
AcDbLine
 10
818.88784293631
 20
426.5135931610229
 30
3.646124999999996
 11
818.3798429363076
 21
426.5135931610229
 31
3.646124999999996
  0
ARC
  5
5753B
330
458D6
100
AcDbEntity
  8
0
 62
     0
100
AcDbCircle
 10
807.0768429363091
 20
426.386593161023
 30
3.646124999999996
 40
3.302
100
AcDbArc
 50
180.0
 51
270.0
  0
LINE
  5
5753C
330
458D6
100
AcDbEntity
  8
0
 62
     0
100
AcDbLine
 10
807.0768429363091
 20
423.0845931610232
 30
3.646124999999996
 11
807.3751933205871
 21
423.0845931610232
 31
3.646124999999996
  0
ARC
  5
5753D
330
458D6
100
AcDbEntity
  8
0
 62
     0
100
AcDbCircle
 10
809.828280553685
 20
424.330696788345
 30
3.646124999999996
 40
2.751438028232276
100
AcDbArc
 50
129.1046213224502
 51
230.8953786775497
  0
LINE
  5
5753E
330
458D6
100
AcDbEntity
  8
0
 62
     0
100
AcDbLine
 10
819.903842936309
 20
439.594593161024
 30
3.646124999999996
 11
819.3958429363096
 21
439.594593161024
 31
3.646124999999996
  0
LINE
  5
5753F
330
458D6
100
AcDbEntity
  8
0
 62
     0
100
AcDbLine
 10
820.4118429363086
 20
428.3993947096436
 30
3.646124999999996
 11
823.9551429363086
 21
428.3993947096436
 31
3.646124999999996
  0
LINE
  5
57540
330
458D6
100
AcDbEntity
  8
0
 62
     0
100
AcDbLine
 10
820.4118429363086
 20
436.8197916124027
 30
3.646124999999996
 11
823.9551429363086
 21
436.8197916124027
 31
3.646124999999996
  0
LINE
  5
57541
330
458D6
100
AcDbEntity
  8
0
 62
     0
100
AcDbLine
 10
820.4118429363086
 20
438.7533859063803
 30
3.646124999999996
 11
823.9551429363086
 21
438.7533859063803
 31
3.646124999999996
  0
LINE
  5
57542
330
458D6
100
AcDbEntity
  8
0
 62
     0
100
AcDbLine
 10
823.9551429363086
 20
443.0235931610238
 30
3.646124999999996
 11
820.4118429363086
 21
443.0235931610238
 31
3.646124999999996
  0
LINE
  5
57543
330
458D6
100
AcDbEntity
  8
0
 62
     0
100
AcDbLine
 10
820.4118429363086
 20
438.7055931610234
 30
3.646124999999996
 11
819.903842936309
 21
439.594593161024
 31
3.646124999999996
  0
LINE
  5
57544
330
458D6
100
AcDbEntity
  8
0
 62
     0
100
AcDbLine
 10
815.9668429363097
 20
443.0235931610238
 30
3.646124999999996
 11
808.0928429363082
 21
443.0235931610238
 31
3.646124999999996
  0
LINE
  5
57545
330
458D6
100
AcDbEntity
  8
0
 62
     0
100
AcDbLine
 10
808.0928429363082
 20
438.7533859063803
 30
3.646124999999996
 11
815.9668429363097
 21
438.7533859063803
 31
3.646124999999996
  0
LINE
  5
57546
330
458D6
100
AcDbEntity
  8
0
 62
     0
100
AcDbLine
 10
808.0928429363082
 20
436.8197916124027
 30
3.646124999999996
 11
815.9668429363097
 21
436.8197916124027
 31
3.646124999999996
  0
LINE
  5
57547
330
458D6
100
AcDbEntity
  8
0
 62
     0
100
AcDbLine
 10
808.0928429363082
 20
428.3993947096436
 30
3.646124999999996
 11
815.9668429363097
 21
428.3993947096436
 31
3.646124999999996
  0
LINE
  5
57548
330
458D6
100
AcDbEntity
  8
0
 62
     0
100
AcDbLine
 10
816.3478429363093
 20
438.7055931610234
 30
3.646124999999996
 11
815.9668429363097
 21
439.3723431610235
 31
3.646124999999996
  0
LINE
  5
57549
330
458D6
100
AcDbEntity
  8
0
 62
     0
100
AcDbLine
 10
816.8558429363089
 20
438.7055931610234
 30
3.646124999999996
 11
816.3478429363093
 21
438.7055931610234
 31
3.646124999999996
  0
LINE
  5
5754A
330
458D6
100
AcDbEntity
  8
0
 62
     0
100
AcDbLine
 10
817.871842936308
 20
439.594593161024
 30
3.646124999999996
 11
817.3638429363085
 21
439.594593161024
 31
3.646124999999996
  0
LINE
  5
5754B
330
458D6
100
AcDbEntity
  8
0
 62
     0
100
AcDbLine
 10
817.3638429363085
 20
439.594593161024
 30
3.646124999999996
 11
816.8558429363089
 21
438.7055931610234
 31
3.646124999999996
  0
LINE
  5
5754C
330
458D6
100
AcDbEntity
  8
0
 62
     0
100
AcDbLine
 10
818.3798429363076
 20
438.7055931610234
 30
3.646124999999996
 11
817.871842936308
 21
439.594593161024
 31
3.646124999999996
  0
LINE
  5
5754D
330
458D6
100
AcDbEntity
  8
0
 62
     0
100
AcDbLine
 10
819.3958429363096
 20
439.594593161024
 30
3.646124999999996
 11
818.88784293631
 21
438.7055931610234
 31
3.646124999999996
  0
LINE
  5
5754E
330
458D6
100
AcDbEntity
  8
0
 62
     0
100
AcDbLine
 10
818.88784293631
 20
438.7055931610234
 30
3.646124999999996
 11
818.3798429363076
 21
438.7055931610234
 31
3.646124999999996
  0
LINE
  5
5754F
330
458D6
100
AcDbEntity
  8
0
 62
     0
100
AcDbLine
 10
808.0928429363082
 20
438.7533859063803
 30
3.646124999999996
 11
808.0928429363082
 21
436.8197916124027
 31
3.646124999999996
  0
ARC
  5
57550
330
458D6
100
AcDbEntity
  8
0
 62
     0
100
AcDbCircle
 10
816.3081554363071
 20
432.6095931610232
 30
3.646124999999996
 40
9.231312499998928
100
AcDbArc
 50
152.8656845153004
 51
207.1343154846995
  0
ARC
  5
57551
330
458D6
100
AcDbEntity
  8
0
 62
     0
100
AcDbCircle
 10
807.0768429363091
 20
438.8325931610232
 30
3.646124999999996
 40
3.302
100
AcDbArc
 50
90.0
 51
180.0
  0
LINE
  5
57552
330
458D6
100
AcDbEntity
  8
0
 62
     0
100
AcDbLine
 10
807.0768429363091
 20
442.1345931610232
 30
3.646124999999996
 11
807.3751933205871
 21
442.1345931610232
 31
3.646124999999996
  0
ARC
  5
57553
330
458D6
100
AcDbEntity
  8
0
 62
     0
100
AcDbCircle
 10
809.828280553685
 20
440.8884895337013
 30
3.646124999999996
 40
2.751438028232276
100
AcDbArc
 50
129.1046213224502
 51
230.8953786775497
  0
LINE
  5
57554
330
458D6
100
AcDbEntity
  8
0
 62
     0
100
AcDbLine
 10
819.903842936309
 20
364.0788192252668
 30
3.646124999999996
 11
819.3958429363096
 21
364.0788192252668
 31
3.646124999999996
  0
LINE
  5
57555
330
458D6
100
AcDbEntity
  8
0
 62
     0
100
AcDbLine
 10
819.903842936309
 20
350.1088192252665
 30
3.646124999999996
 11
819.3958429363096
 21
350.1088192252665
 31
3.646124999999996
  0
LINE
  5
57556
330
458D6
100
AcDbEntity
  8
0
 62
     0
100
AcDbLine
 10
819.903842936309
 20
364.0788192252668
 30
3.646124999999996
 11
819.903842936309
 21
350.1088192252665
 31
3.646124999999996
  0
LINE
  5
57557
330
458D6
100
AcDbEntity
  8
0
 62
     0
100
AcDbLine
 10
820.4118429363086
 20
367.5078192252665
 30
3.646124999999996
 11
820.4118429363086
 21
346.6798192252667
 31
3.646124999999996
  0
LINE
  5
57558
330
458D6
100
AcDbEntity
  8
0
 62
     0
100
AcDbLine
 10
823.9551429363086
 20
346.6798192252667
 30
3.646124999999996
 11
820.4118429363086
 21
346.6798192252667
 31
3.646124999999996
  0
LINE
  5
57559
330
458D6
100
AcDbEntity
  8
0
 62
     0
100
AcDbLine
 10
820.4118429363086
 20
350.9500264799102
 30
3.646124999999996
 11
823.9551429363086
 21
350.9500264799102
 31
3.646124999999996
  0
LINE
  5
5755A
330
458D6
100
AcDbEntity
  8
0
 62
     0
100
AcDbLine
 10
820.4118429363086
 20
350.9978192252672
 30
3.646124999999996
 11
819.903842936309
 21
350.1088192252665
 31
3.646124999999996
  0
LINE
  5
5755B
330
458D6
100
AcDbEntity
  8
0
 62
     0
100
AcDbLine
 10
820.4118429363086
 20
352.8836207738878
 30
3.646124999999996
 11
823.9551429363086
 21
352.8836207738878
 31
3.646124999999996
  0
LINE
  5
5755C
330
458D6
100
AcDbEntity
  8
0
 62
     0
100
AcDbLine
 10
820.4118429363086
 20
361.304017676647
 30
3.646124999999996
 11
823.9551429363086
 21
361.304017676647
 31
3.646124999999996
  0
LINE
  5
5755D
330
458D6
100
AcDbEntity
  8
0
 62
     0
100
AcDbLine
 10
820.4118429363086
 20
363.2376119706246
 30
3.646124999999996
 11
823.9551429363086
 21
363.2376119706246
 31
3.646124999999996
  0
LINE
  5
5755E
330
458D6
100
AcDbEntity
  8
0
 62
     0
100
AcDbLine
 10
823.9551429363086
 20
367.5078192252665
 30
3.646124999999996
 11
820.4118429363086
 21
367.5078192252665
 31
3.646124999999996
  0
LINE
  5
5755F
330
458D6
100
AcDbEntity
  8
0
 62
     0
100
AcDbLine
 10
820.4118429363086
 20
363.1898192252676
 30
3.646124999999996
 11
819.903842936309
 21
364.0788192252668
 31
3.646124999999996
  0
LINE
  5
57560
330
458D6
100
AcDbEntity
  8
0
 62
     0
100
AcDbLine
 10
803.7748429363093
 20
363.3168192252675
 30
3.646124999999996
 11
803.7748429363093
 21
350.8708192252672
 31
3.646124999999996
  0
ARC
  5
57561
330
458D6
100
AcDbEntity
  8
0
 62
     0
100
AcDbCircle
 10
816.3081554363071
 20
357.0938192252674
 30
3.646124999999996
 40
9.231312499998928
100
AcDbArc
 50
152.8656845153004
 51
207.1343154846995
  0
LINE
  5
57562
330
458D6
100
AcDbEntity
  8
0
 62
     0
100
AcDbLine
 10
807.0768429363091
 20
365.3742192252189
 30
3.646124999999996
 11
807.0768429363091
 21
348.8134192251816
 31
3.646124999999996
  0
LINE
  5
57563
330
458D6
100
AcDbEntity
  8
0
 62
     0
100
AcDbLine
 10
816.3478429363093
 20
363.1898192252676
 30
3.646124999999996
 11
816.3478429363093
 21
350.9978192252672
 31
3.646124999999996
  0
LINE
  5
57564
330
458D6
100
AcDbEntity
  8
0
 62
     0
100
AcDbLine
 10
816.8558429363089
 20
363.1898192252676
 30
3.646124999999996
 11
816.8558429363089
 21
350.9978192252672
 31
3.646124999999996
  0
LINE
  5
57565
330
458D6
100
AcDbEntity
  8
0
 62
     0
100
AcDbLine
 10
817.3638429363085
 20
364.0788192252668
 30
3.646124999999996
 11
817.3638429363085
 21
350.1088192252665
 31
3.646124999999996
  0
LINE
  5
57566
330
458D6
100
AcDbEntity
  8
0
 62
     0
100
AcDbLine
 10
817.871842936308
 20
364.0788192252668
 30
3.646124999999996
 11
817.871842936308
 21
350.1088192252665
 31
3.646124999999996
  0
LINE
  5
57567
330
458D6
100
AcDbEntity
  8
0
 62
     0
100
AcDbLine
 10
818.3798429363076
 20
363.1898192252676
 30
3.646124999999996
 11
818.3798429363076
 21
350.9978192252672
 31
3.646124999999996
  0
LINE
  5
57568
330
458D6
100
AcDbEntity
  8
0
 62
     0
100
AcDbLine
 10
818.88784293631
 20
363.1898192252676
 30
3.646124999999996
 11
818.88784293631
 21
350.9978192252672
 31
3.646124999999996
  0
LINE
  5
57569
330
458D6
100
AcDbEntity
  8
0
 62
     0
100
AcDbLine
 10
819.3958429363096
 20
364.0788192252668
 30
3.646124999999996
 11
819.3958429363096
 21
350.1088192252665
 31
3.646124999999996
  0
LINE
  5
5756A
330
458D6
100
AcDbEntity
  8
0
 62
     0
100
AcDbLine
 10
815.9668429363097
 20
367.5078192252665
 30
3.646124999999996
 11
815.9668429363097
 21
346.6798192252667
 31
3.646124999999996
  0
LINE
  5
5756B
330
458D6
100
AcDbEntity
  8
0
 62
     0
100
AcDbLine
 10
808.0928429363082
 20
352.8836207738878
 30
3.646124999999996
 11
815.9668429363097
 21
352.8836207738878
 31
3.646124999999996
  0
LINE
  5
5756C
330
458D6
100
AcDbEntity
  8
0
 62
     0
100
AcDbLine
 10
808.0928429363082
 20
350.9500264799102
 30
3.646124999999996
 11
815.9668429363097
 21
350.9500264799102
 31
3.646124999999996
  0
LINE
  5
5756D
330
458D6
100
AcDbEntity
  8
0
 62
     0
100
AcDbLine
 10
815.9668429363097
 20
346.6798192252667
 30
3.646124999999996
 11
808.0928429363082
 21
346.6798192252667
 31
3.646124999999996
  0
LINE
  5
5756E
330
458D6
100
AcDbEntity
  8
0
 62
     0
100
AcDbLine
 10
818.3798429363076
 20
350.9978192252672
 30
3.646124999999996
 11
817.871842936308
 21
350.1088192252665
 31
3.646124999999996
  0
LINE
  5
5756F
330
458D6
100
AcDbEntity
  8
0
 62
     0
100
AcDbLine
 10
817.3638429363085
 20
350.1088192252665
 30
3.646124999999996
 11
816.8558429363089
 21
350.9978192252672
 31
3.646124999999996
  0
LINE
  5
57570
330
458D6
100
AcDbEntity
  8
0
 62
     0
100
AcDbLine
 10
817.871842936308
 20
350.1088192252665
 30
3.646124999999996
 11
817.3638429363085
 21
350.1088192252665
 31
3.646124999999996
  0
LINE
  5
57571
330
458D6
100
AcDbEntity
  8
0
 62
     0
100
AcDbLine
 10
816.8558429363089
 20
350.9978192252672
 30
3.646124999999996
 11
816.3478429363093
 21
350.9978192252672
 31
3.646124999999996
  0
LINE
  5
57572
330
458D6
100
AcDbEntity
  8
0
 62
     0
100
AcDbLine
 10
816.3478429363093
 20
350.9978192252672
 30
3.646124999999996
 11
815.9668429363097
 21
350.331069225267
 31
3.646124999999996
  0
LINE
  5
57573
330
458D6
100
AcDbEntity
  8
0
 62
     0
100
AcDbLine
 10
819.3958429363096
 20
350.1088192252665
 30
3.646124999999996
 11
818.88784293631
 21
350.9978192252672
 31
3.646124999999996
  0
LINE
  5
57574
330
458D6
100
AcDbEntity
  8
0
 62
     0
100
AcDbLine
 10
818.88784293631
 20
350.9978192252672
 30
3.646124999999996
 11
818.3798429363076
 21
350.9978192252672
 31
3.646124999999996
  0
LINE
  5
57575
330
458D6
100
AcDbEntity
  8
0
 62
     0
100
AcDbLine
 10
808.0928429363082
 20
352.8836207738878
 30
3.646124999999996
 11
808.0928429363082
 21
350.9500264799102
 31
3.646124999999996
  0
ARC
  5
57576
330
458D6
100
AcDbEntity
  8
0
 62
     0
100
AcDbCircle
 10
807.0768429363091
 20
350.8708192252672
 30
3.646124999999996
 40
3.302
100
AcDbArc
 50
180.0
 51
270.0
  0
LINE
  5
57577
330
458D6
100
AcDbEntity
  8
0
 62
     0
100
AcDbLine
 10
807.0768429363091
 20
347.5688192252674
 30
3.646124999999996
 11
807.3751933205871
 21
347.5688192252674
 31
3.646124999999996
  0
ARC
  5
57578
330
458D6
100
AcDbEntity
  8
0
 62
     0
100
AcDbCircle
 10
809.828280553685
 20
348.8149228525892
 30
3.646124999999996
 40
2.751438028232276
100
AcDbArc
 50
129.1046213224502
 51
230.8953786775497
  0
LINE
  5
57579
330
458D6
100
AcDbEntity
  8
0
 62
     0
100
AcDbLine
 10
815.9668429363097
 20
367.5078192252665
 30
3.646124999999996
 11
808.0928429363082
 21
367.5078192252665
 31
3.646124999999996
  0
LINE
  5
5757A
330
458D6
100
AcDbEntity
  8
0
 62
     0
100
AcDbLine
 10
808.0928429363082
 20
363.2376119706246
 30
3.646124999999996
 11
815.9668429363097
 21
363.2376119706246
 31
3.646124999999996
  0
LINE
  5
5757B
330
458D6
100
AcDbEntity
  8
0
 62
     0
100
AcDbLine
 10
808.0928429363082
 20
361.304017676647
 30
3.646124999999996
 11
815.9668429363097
 21
361.304017676647
 31
3.646124999999996
  0
LINE
  5
5757C
330
458D6
100
AcDbEntity
  8
0
 62
     0
100
AcDbLine
 10
816.3478429363093
 20
363.1898192252676
 30
3.646124999999996
 11
815.9668429363097
 21
363.8565692252677
 31
3.646124999999996
  0
LINE
  5
5757D
330
458D6
100
AcDbEntity
  8
0
 62
     0
100
AcDbLine
 10
816.8558429363089
 20
363.1898192252676
 30
3.646124999999996
 11
816.3478429363093
 21
363.1898192252676
 31
3.646124999999996
  0
LINE
  5
5757E
330
458D6
100
AcDbEntity
  8
0
 62
     0
100
AcDbLine
 10
817.871842936308
 20
364.0788192252668
 30
3.646124999999996
 11
817.3638429363085
 21
364.0788192252668
 31
3.646124999999996
  0
LINE
  5
5757F
330
458D6
100
AcDbEntity
  8
0
 62
     0
100
AcDbLine
 10
817.3638429363085
 20
364.0788192252668
 30
3.646124999999996
 11
816.8558429363089
 21
363.1898192252676
 31
3.646124999999996
  0
LINE
  5
57580
330
458D6
100
AcDbEntity
  8
0
 62
     0
100
AcDbLine
 10
818.3798429363076
 20
363.1898192252676
 30
3.646124999999996
 11
817.871842936308
 21
364.0788192252668
 31
3.646124999999996
  0
LINE
  5
57581
330
458D6
100
AcDbEntity
  8
0
 62
     0
100
AcDbLine
 10
819.3958429363096
 20
364.0788192252668
 30
3.646124999999996
 11
818.88784293631
 21
363.1898192252676
 31
3.646124999999996
  0
LINE
  5
57582
330
458D6
100
AcDbEntity
  8
0
 62
     0
100
AcDbLine
 10
818.88784293631
 20
363.1898192252676
 30
3.646124999999996
 11
818.3798429363076
 21
363.1898192252676
 31
3.646124999999996
  0
ARC
  5
57583
330
458D6
100
AcDbEntity
  8
0
 62
     0
100
AcDbCircle
 10
807.0768429363091
 20
363.3168192252675
 30
3.646124999999996
 40
3.302
100
AcDbArc
 50
90.0
 51
180.0
  0
LINE
  5
57584
330
458D6
100
AcDbEntity
  8
0
 62
     0
100
AcDbLine
 10
807.0768429363091
 20
366.6188192252674
 30
3.646124999999996
 11
807.3751933205871
 21
366.6188192252674
 31
3.646124999999996
  0
LINE
  5
57585
330
458D6
100
AcDbEntity
  8
0
 62
     0
100
AcDbLine
 10
808.0928429363082
 20
363.2376119706246
 30
3.646124999999996
 11
808.0928429363082
 21
361.304017676647
 31
3.646124999999996
  0
ARC
  5
57586
330
458D6
100
AcDbEntity
  8
0
 62
     0
100
AcDbCircle
 10
809.828280553685
 20
365.3727155979456
 30
3.646124999999996
 40
2.751438028232276
100
AcDbArc
 50
129.1046213224502
 51
230.8953786775497
  0
CIRCLE
  5
57587
330
458D6
100
AcDbEntity
  8
0
 62
     0
100
AcDbCircle
 10
830.3051429363085
 20
376.1183790082469
 30
3.646124999999996
 40
3.96875
  0
CIRCLE
  5
57588
330
458D6
100
AcDbEntity
  8
0
 62
     0
100
AcDbCircle
 10
915.6364429363092
 20
376.1183790082469
 30
3.646124999999996
 40
3.96875
  0
INSERT
  5
57589
330
458D6
100
AcDbEntity
  8
0
 62
     0
100
AcDbBlockReference
  2
PHILL
 10
830.3051429363085
 20
376.1183790082469
 30
3.646124999999996
 41
25.4
 42
25.4
 43
25.4
  0
INSERT
  5
5758A
330
458D6
100
AcDbEntity
  8
0
 62
     0
100
AcDbBlockReference
  2
PHILL
 10
830.3051429363085
 20
474.416379008247
 30
3.646124999999996
 41
25.4
 42
25.4
 43
25.4
 50
341.9995233723391
  0
INSERT
  5
5758B
330
458D6
100
AcDbEntity
  8
0
 62
     0
100
AcDbBlockReference
  2
PHILL
 10
915.6491429363088
 20
474.416379008247
 30
3.646124999999996
 41
25.4
 42
25.4
 43
25.4
 50
211.0924681174722
  0
INSERT
  5
5758C
330
458D6
100
AcDbEntity
  8
0
 62
     0
100
AcDbBlockReference
  2
PHILL
 10
915.6364429363092
 20
376.1183790082469
 30
3.646124999999996
 41
25.4
 42
25.4
 43
25.4
 50
331.4276060762644
  0
LINE
  5
5758D
330
458D6
100
AcDbEntity
  8
0
 62
     0
100
AcDbLine
 10
827.7651429363078
 20
228.417379008247
 30
3.646124999999996
 11
918.1891429363094
 21
228.417379008247
 31
3.646124999999996
  0
LINE
  5
5758E
330
458D6
100
AcDbEntity
  8
0
 62
     0
100
AcDbLine
 10
825.2251429363074
 20
237.5613790082474
 30
3.646124999999996
 11
920.7291429363072
 21
237.5613790082474
 31
3.646124999999996
  0
LINE
  5
5758F
330
458D6
100
AcDbEntity
  8
0
 62
     0
100
AcDbLine
 10
825.2251429363074
 20
182.6973790082467
 30
3.646124999999996
 11
920.7291429363072
 21
182.6973790082467
 31
3.646124999999996
  0
ARC
  5
57590
330
458D6
100
AcDbEntity
  8
0
 62
     0
100
AcDbCircle
 10
825.2251429363074
 20
183.967379008247
 30
3.646124999999996
 40
1.27
100
AcDbArc
 50
180.0
 51
270.0
  0
LINE
  5
57591
330
458D6
100
AcDbEntity
  8
0
 62
     0
100
AcDbLine
 10
823.9551429363086
 20
228.417379008247
 30
3.646124999999996
 11
823.9551429363086
 21
183.967379008247
 31
3.646124999999996
  0
ARC
  5
57592
330
458D6
100
AcDbEntity
  8
0
 62
     0
100
AcDbCircle
 10
825.2251429363074
 20
236.2913790082471
 30
3.646124999999996
 40
1.27
100
AcDbArc
 50
90.0
 51
180.0
  0
LINE
  5
57593
330
458D6
100
AcDbEntity
  8
0
 62
     0
100
AcDbLine
 10
823.9551429363086
 20
228.417379008247
 30
3.646124999999996
 11
827.7651429363078
 21
228.417379008247
 31
3.646124999999996
  0
LINE
  5
57594
330
458D6
100
AcDbEntity
  8
0
 62
     0
100
AcDbLine
 10
823.9551429363086
 20
236.2913790082471
 30
3.646124999999996
 11
823.9551429363086
 21
228.417379008247
 31
3.646124999999996
  0
ARC
  5
57595
330
458D6
100
AcDbEntity
  8
0
 62
     0
100
AcDbCircle
 10
920.7291429363072
 20
183.967379008247
 30
3.646124999999996
 40
1.27
100
AcDbArc
 50
270.0
 51
0.0
  0
LINE
  5
57596
330
458D6
100
AcDbEntity
  8
0
 62
     0
100
AcDbLine
 10
921.9991429363089
 20
228.417379008247
 30
3.646124999999996
 11
921.9991429363089
 21
183.967379008247
 31
3.646124999999996
  0
LINE
  5
57597
330
458D6
100
AcDbEntity
  8
0
 62
     0
100
AcDbLine
 10
921.9991429363089
 20
236.2913790082471
 30
3.646124999999996
 11
921.9991429363089
 21
228.417379008247
 31
3.646124999999996
  0
LINE
  5
57598
330
458D6
100
AcDbEntity
  8
0
 62
     0
100
AcDbLine
 10
918.1891429363094
 20
228.417379008247
 30
3.646124999999996
 11
921.9991429363089
 21
228.417379008247
 31
3.646124999999996
  0
ARC
  5
57599
330
458D6
100
AcDbEntity
  8
0
 62
     0
100
AcDbCircle
 10
920.7291429363072
 20
236.2913790082471
 30
3.646124999999996
 40
1.27
100
AcDbArc
 50
0.0
 51
90.0
  0
LINE
  5
5759A
330
458D6
100
AcDbEntity
  8
0
 62
     0
100
AcDbLine
 10
803.7748429363093
 20
292.6298964878487
 30
3.646124999999996
 11
803.7748429363093
 21
305.075896487849
 31
3.646124999999996
  0
ARC
  5
5759B
330
458D6
100
AcDbEntity
  8
0
 62
     0
100
AcDbCircle
 10
816.3081554363071
 20
298.8528964878488
 30
3.646124999999996
 40
9.231312499998928
100
AcDbArc
 50
152.8656845153004
 51
207.1343154846995
  0
LINE
  5
5759C
330
458D6
100
AcDbEntity
  8
0
 62
     0
100
AcDbLine
 10
807.0768429363091
 20
290.5724964878974
 30
3.646124999999996
 11
807.0768429363091
 21
307.1332964879346
 31
3.646124999999996
  0
LINE
  5
5759D
330
458D6
100
AcDbEntity
  8
0
 62
     0
100
AcDbLine
 10
816.3478429363093
 20
292.7568964878486
 30
3.646124999999996
 11
816.3478429363093
 21
304.9488964878491
 31
3.646124999999996
  0
LINE
  5
5759E
330
458D6
100
AcDbEntity
  8
0
 62
     0
100
AcDbLine
 10
816.8558429363089
 20
292.7568964878486
 30
3.646124999999996
 11
816.8558429363089
 21
304.9488964878491
 31
3.646124999999996
  0
LINE
  5
5759F
330
458D6
100
AcDbEntity
  8
0
 62
     0
100
AcDbLine
 10
817.3638429363085
 20
291.8678964878494
 30
3.646124999999996
 11
817.3638429363085
 21
305.8378964878497
 31
3.646124999999996
  0
LINE
  5
575A0
330
458D6
100
AcDbEntity
  8
0
 62
     0
100
AcDbLine
 10
817.871842936308
 20
291.8678964878494
 30
3.646124999999996
 11
817.871842936308
 21
305.8378964878497
 31
3.646124999999996
  0
LINE
  5
575A1
330
458D6
100
AcDbEntity
  8
0
 62
     0
100
AcDbLine
 10
818.3798429363076
 20
292.7568964878486
 30
3.646124999999996
 11
818.3798429363076
 21
304.9488964878491
 31
3.646124999999996
  0
LINE
  5
575A2
330
458D6
100
AcDbEntity
  8
0
 62
     0
100
AcDbLine
 10
818.8878429363072
 20
292.7568964878486
 30
3.646124999999996
 11
818.8878429363072
 21
304.9488964878491
 31
3.646124999999996
  0
LINE
  5
575A3
330
458D6
100
AcDbEntity
  8
0
 62
     0
100
AcDbLine
 10
819.3958429363096
 20
291.8678964878494
 30
3.646124999999996
 11
819.3958429363096
 21
305.8378964878497
 31
3.646124999999996
  0
LINE
  5
575A4
330
458D6
100
AcDbEntity
  8
0
 62
     0
100
AcDbLine
 10
819.903842936309
 20
291.8678964878494
 30
3.646124999999996
 11
819.903842936309
 21
305.8378964878497
 31
3.646124999999996
  0
LINE
  5
575A5
330
458D6
100
AcDbEntity
  8
0
 62
     0
100
AcDbLine
 10
820.4118429363086
 20
288.4388964878496
 30
3.646124999999996
 11
820.4118429363086
 21
309.2668964878495
 31
3.646124999999996
  0
LINE
  5
575A6
330
458D6
100
AcDbEntity
  8
0
 62
     0
100
AcDbLine
 10
815.9668429363069
 20
288.4388964878496
 30
3.646124999999996
 11
815.9668429363069
 21
309.2668964878495
 31
3.646124999999996
  0
LINE
  5
575A7
330
458D6
100
AcDbEntity
  8
0
 62
     0
100
AcDbLine
 10
815.9668429363069
 20
288.4388964878496
 30
3.646124999999996
 11
808.0928429363082
 21
288.4388964878496
 31
3.646124999999996
  0
LINE
  5
575A8
330
458D6
100
AcDbEntity
  8
0
 62
     0
100
AcDbLine
 10
808.0928429363082
 20
292.7091037424917
 30
3.646124999999996
 11
815.9668429363097
 21
292.7091037424917
 31
3.646124999999996
  0
LINE
  5
575A9
330
458D6
100
AcDbEntity
  8
0
 62
     0
100
AcDbLine
 10
808.0928429363082
 20
294.6426980364693
 30
3.646124999999996
 11
815.9668429363069
 21
294.6426980364693
 31
3.646124999999996
  0
ARC
  5
575AA
330
458D6
100
AcDbEntity
  8
0
 62
     0
100
AcDbCircle
 10
809.8282805536822
 20
290.5740001151706
 30
3.646124999999996
 40
2.751438028232276
100
AcDbArc
 50
129.1046213224502
 51
230.8953786775497
  0
LINE
  5
575AB
330
458D6
100
AcDbEntity
  8
0
 62
     0
100
AcDbLine
 10
807.0768429363091
 20
289.3278964878488
 30
3.646124999999996
 11
807.3751933205871
 21
289.3278964878488
 31
3.646124999999996
  0
ARC
  5
575AC
330
458D6
100
AcDbEntity
  8
0
 62
     0
100
AcDbCircle
 10
807.0768429363091
 20
292.6298964878487
 30
3.646124999999996
 40
3.302
100
AcDbArc
 50
180.0
 51
270.0
  0
LINE
  5
575AD
330
458D6
100
AcDbEntity
  8
0
 62
     0
100
AcDbLine
 10
808.0928429363082
 20
292.7091037424917
 30
3.646124999999996
 11
808.0928429363082
 21
294.6426980364693
 31
3.646124999999996
  0
LINE
  5
575AE
330
458D6
100
AcDbEntity
  8
0
 62
     0
100
AcDbLine
 10
818.8878429363072
 20
292.7568964878486
 30
3.646124999999996
 11
818.3798429363076
 21
292.7568964878486
 31
3.646124999999996
  0
LINE
  5
575AF
330
458D6
100
AcDbEntity
  8
0
 62
     0
100
AcDbLine
 10
816.3478429363093
 20
292.7568964878486
 30
3.646124999999996
 11
815.9668429363069
 21
292.0901464878485
 31
3.646124999999996
  0
LINE
  5
575B0
330
458D6
100
AcDbEntity
  8
0
 62
     0
100
AcDbLine
 10
816.8558429363089
 20
292.7568964878486
 30
3.646124999999996
 11
816.3478429363093
 21
292.7568964878486
 31
3.646124999999996
  0
LINE
  5
575B1
330
458D6
100
AcDbEntity
  8
0
 62
     0
100
AcDbLine
 10
817.871842936308
 20
291.8678964878494
 30
3.646124999999996
 11
817.3638429363085
 21
291.8678964878494
 31
3.646124999999996
  0
LINE
  5
575B2
330
458D6
100
AcDbEntity
  8
0
 62
     0
100
AcDbLine
 10
817.3638429363085
 20
291.8678964878494
 30
3.646124999999996
 11
816.8558429363089
 21
292.7568964878486
 31
3.646124999999996
  0
LINE
  5
575B3
330
458D6
100
AcDbEntity
  8
0
 62
     0
100
AcDbLine
 10
818.3798429363076
 20
292.7568964878486
 30
3.646124999999996
 11
817.871842936308
 21
291.8678964878494
 31
3.646124999999996
  0
LINE
  5
575B4
330
458D6
100
AcDbEntity
  8
0
 62
     0
100
AcDbLine
 10
823.9551429363086
 20
288.4388964878496
 30
3.646124999999996
 11
820.4118429363086
 21
288.4388964878496
 31
3.646124999999996
  0
LINE
  5
575B5
330
458D6
100
AcDbEntity
  8
0
 62
     0
100
AcDbLine
 10
820.4118429363086
 20
294.6426980364693
 30
3.646124999999996
 11
823.9551429363086
 21
294.6426980364693
 31
3.646124999999996
  0
LINE
  5
575B6
330
458D6
100
AcDbEntity
  8
0
 62
     0
100
AcDbLine
 10
820.4118429363086
 20
292.7091037424917
 30
3.646124999999996
 11
823.9551429363086
 21
292.7091037424917
 31
3.646124999999996
  0
LINE
  5
575B7
330
458D6
100
AcDbEntity
  8
0
 62
     0
100
AcDbLine
 10
819.903842936309
 20
291.8678964878494
 30
3.646124999999996
 11
819.3958429363096
 21
291.8678964878494
 31
3.646124999999996
  0
LINE
  5
575B8
330
458D6
100
AcDbEntity
  8
0
 62
     0
100
AcDbLine
 10
819.3958429363096
 20
291.8678964878494
 30
3.646124999999996
 11
818.8878429363072
 21
292.7568964878486
 31
3.646124999999996
  0
LINE
  5
575B9
330
458D6
100
AcDbEntity
  8
0
 62
     0
100
AcDbLine
 10
820.4118429363086
 20
292.7568964878486
 30
3.646124999999996
 11
819.903842936309
 21
291.8678964878494
 31
3.646124999999996
  0
LINE
  5
575BA
330
458D6
100
AcDbEntity
  8
0
 62
     0
100
AcDbLine
 10
808.0928429363082
 20
303.0630949392284
 30
3.646124999999996
 11
815.9668429363069
 21
303.0630949392284
 31
3.646124999999996
  0
LINE
  5
575BB
330
458D6
100
AcDbEntity
  8
0
 62
     0
100
AcDbLine
 10
808.0928429363082
 20
304.996689233206
 30
3.646124999999996
 11
815.9668429363069
 21
304.996689233206
 31
3.646124999999996
  0
LINE
  5
575BC
330
458D6
100
AcDbEntity
  8
0
 62
     0
100
AcDbLine
 10
815.9668429363069
 20
309.2668964878495
 30
3.646124999999996
 11
808.0928429363082
 21
309.2668964878495
 31
3.646124999999996
  0
LINE
  5
575BD
330
458D6
100
AcDbEntity
  8
0
 62
     0
100
AcDbLine
 10
808.0928429363082
 20
303.0630949392284
 30
3.646124999999996
 11
808.0928429363082
 21
304.996689233206
 31
3.646124999999996
  0
ARC
  5
575BE
330
458D6
100
AcDbEntity
  8
0
 62
     0
100
AcDbCircle
 10
809.8282805536822
 20
307.131792860527
 30
3.646124999999996
 40
2.751438028232276
100
AcDbArc
 50
129.1046213224502
 51
230.8953786775497
  0
LINE
  5
575BF
330
458D6
100
AcDbEntity
  8
0
 62
     0
100
AcDbLine
 10
807.0768429363091
 20
308.3778964878488
 30
3.646124999999996
 11
807.3751933205871
 21
308.3778964878488
 31
3.646124999999996
  0
ARC
  5
575C0
330
458D6
100
AcDbEntity
  8
0
 62
     0
100
AcDbCircle
 10
807.0768429363091
 20
305.075896487849
 30
3.646124999999996
 40
3.302
100
AcDbArc
 50
90.0
 51
180.0
  0
LINE
  5
575C1
330
458D6
100
AcDbEntity
  8
0
 62
     0
100
AcDbLine
 10
820.4118429363086
 20
303.0630949392284
 30
3.646124999999996
 11
823.9551429363086
 21
303.0630949392284
 31
3.646124999999996
  0
LINE
  5
575C2
330
458D6
100
AcDbEntity
  8
0
 62
     0
100
AcDbLine
 10
818.8878429363072
 20
304.9488964878491
 30
3.646124999999996
 11
818.3798429363076
 21
304.9488964878491
 31
3.646124999999996
  0
LINE
  5
575C3
330
458D6
100
AcDbEntity
  8
0
 62
     0
100
AcDbLine
 10
818.3798429363076
 20
304.9488964878491
 30
3.646124999999996
 11
817.871842936308
 21
305.8378964878497
 31
3.646124999999996
  0
LINE
  5
575C4
330
458D6
100
AcDbEntity
  8
0
 62
     0
100
AcDbLine
 10
817.3638429363085
 20
305.8378964878497
 30
3.646124999999996
 11
816.8558429363089
 21
304.9488964878491
 31
3.646124999999996
  0
LINE
  5
575C5
330
458D6
100
AcDbEntity
  8
0
 62
     0
100
AcDbLine
 10
817.871842936308
 20
305.8378964878497
 30
3.646124999999996
 11
817.3638429363085
 21
305.8378964878497
 31
3.646124999999996
  0
LINE
  5
575C6
330
458D6
100
AcDbEntity
  8
0
 62
     0
100
AcDbLine
 10
816.8558429363089
 20
304.9488964878491
 30
3.646124999999996
 11
816.3478429363093
 21
304.9488964878491
 31
3.646124999999996
  0
LINE
  5
575C7
330
458D6
100
AcDbEntity
  8
0
 62
     0
100
AcDbLine
 10
816.3478429363093
 20
304.9488964878491
 30
3.646124999999996
 11
815.9668429363069
 21
305.6156464878491
 31
3.646124999999996
  0
LINE
  5
575C8
330
458D6
100
AcDbEntity
  8
0
 62
     0
100
AcDbLine
 10
820.4118429363086
 20
304.996689233206
 30
3.646124999999996
 11
823.9551429363086
 21
304.996689233206
 31
3.646124999999996
  0
LINE
  5
575C9
330
458D6
100
AcDbEntity
  8
0
 62
     0
100
AcDbLine
 10
820.4118429363086
 20
304.9488964878491
 30
3.646124999999996
 11
819.903842936309
 21
305.8378964878497
 31
3.646124999999996
  0
LINE
  5
575CA
330
458D6
100
AcDbEntity
  8
0
 62
     0
100
AcDbLine
 10
819.3958429363096
 20
305.8378964878497
 30
3.646124999999996
 11
818.8878429363072
 21
304.9488964878491
 31
3.646124999999996
  0
LINE
  5
575CB
330
458D6
100
AcDbEntity
  8
0
 62
     0
100
AcDbLine
 10
819.903842936309
 20
305.8378964878497
 30
3.646124999999996
 11
819.3958429363096
 21
305.8378964878497
 31
3.646124999999996
  0
LINE
  5
575CC
330
458D6
100
AcDbEntity
  8
0
 62
     0
100
AcDbLine
 10
823.9551429363086
 20
309.2668964878495
 30
3.646124999999996
 11
820.4118429363086
 21
309.2668964878495
 31
3.646124999999996
  0
LINE
  5
575CD
330
458D6
100
AcDbEntity
  8
0
 62
     0
100
AcDbLine
 10
937.8614429363093
 20
292.7091037424917
 30
3.646124999999996
 11
937.8614429363093
 21
294.6426980364693
 31
3.646124999999996
  0
LINE
  5
575CE
330
458D6
100
AcDbEntity
  8
0
 62
     0
100
AcDbLine
 10
929.9874429363077
 20
288.4388964878496
 30
3.646124999999996
 11
929.9874429363077
 21
309.2668964878495
 31
3.646124999999996
  0
LINE
  5
575CF
330
458D6
100
AcDbEntity
  8
0
 62
     0
100
AcDbLine
 10
925.5424429363088
 20
288.4388964878496
 30
3.646124999999996
 11
925.5424429363088
 21
309.2668964878495
 31
3.646124999999996
  0
LINE
  5
575D0
330
458D6
100
AcDbEntity
  8
0
 62
     0
100
AcDbLine
 10
926.0504429363084
 20
291.8678964878494
 30
3.646124999999996
 11
926.0504429363084
 21
305.8378964878497
 31
3.646124999999996
  0
LINE
  5
575D1
330
458D6
100
AcDbEntity
  8
0
 62
     0
100
AcDbLine
 10
926.558442936308
 20
291.8678964878494
 30
3.646124999999996
 11
926.558442936308
 21
305.8378964878497
 31
3.646124999999996
  0
LINE
  5
575D2
330
458D6
100
AcDbEntity
  8
0
 62
     0
100
AcDbLine
 10
927.0664429363074
 20
292.7568964878486
 30
3.646124999999996
 11
927.0664429363074
 21
304.9488964878491
 31
3.646124999999996
  0
LINE
  5
575D3
330
458D6
100
AcDbEntity
  8
0
 62
     0
100
AcDbLine
 10
927.5744429363099
 20
292.7568964878486
 30
3.646124999999996
 11
927.5744429363099
 21
304.9488964878491
 31
3.646124999999996
  0
LINE
  5
575D4
330
458D6
100
AcDbEntity
  8
0
 62
     0
100
AcDbLine
 10
928.0824429363095
 20
291.8678964878494
 30
3.646124999999996
 11
928.0824429363095
 21
305.8378964878497
 31
3.646124999999996
  0
LINE
  5
575D5
330
458D6
100
AcDbEntity
  8
0
 62
     0
100
AcDbLine
 10
928.5904429363089
 20
291.8678964878494
 30
3.646124999999996
 11
928.5904429363089
 21
305.8378964878497
 31
3.646124999999996
  0
LINE
  5
575D6
330
458D6
100
AcDbEntity
  8
0
 62
     0
100
AcDbLine
 10
929.0984429363085
 20
292.7568964878486
 30
3.646124999999996
 11
929.0984429363085
 21
304.9488964878491
 31
3.646124999999996
  0
LINE
  5
575D7
330
458D6
100
AcDbEntity
  8
0
 62
     0
100
AcDbLine
 10
929.6064429363079
 20
292.7568964878486
 30
3.646124999999996
 11
929.6064429363079
 21
304.9488964878491
 31
3.646124999999996
  0
LINE
  5
575D8
330
458D6
100
AcDbEntity
  8
0
 62
     0
100
AcDbLine
 10
938.8774429363083
 20
290.5724964878974
 30
3.646124999999996
 11
938.8774429363083
 21
307.1332964879346
 31
3.646124999999996
  0
LINE
  5
575D9
330
458D6
100
AcDbEntity
  8
0
 62
     0
100
AcDbLine
 10
942.1794429363082
 20
292.6298964878487
 30
3.646124999999996
 11
942.1794429363082
 21
305.075896487849
 31
3.646124999999996
  0
LINE
  5
575DA
330
458D6
100
AcDbEntity
  8
0
 62
     0
100
AcDbLine
 10
928.5904429363089
 20
291.8678964878494
 30
3.646124999999996
 11
929.0984429363085
 21
292.7568964878486
 31
3.646124999999996
  0
ARC
  5
575DB
330
458D6
100
AcDbEntity
  8
0
 62
     0
100
AcDbCircle
 10
938.8774429363083
 20
292.6298964878487
 30
3.646124999999996
 40
3.302
100
AcDbArc
 50
270.0
 51
0.0
  0
LINE
  5
575DC
330
458D6
100
AcDbEntity
  8
0
 62
     0
100
AcDbLine
 10
937.8614429363093
 20
292.7091037424917
 30
3.646124999999996
 11
929.9874429363077
 21
292.7091037424917
 31
3.646124999999996
  0
LINE
  5
575DD
330
458D6
100
AcDbEntity
  8
0
 62
     0
100
AcDbLine
 10
929.9874429363077
 20
288.4388964878496
 30
3.646124999999996
 11
937.8614429363093
 21
288.4388964878496
 31
3.646124999999996
  0
LINE
  5
575DE
330
458D6
100
AcDbEntity
  8
0
 62
     0
100
AcDbLine
 10
938.8774429363083
 20
289.3278964878488
 30
3.646124999999996
 11
938.5790925520304
 21
289.3278964878488
 31
3.646124999999996
  0
ARC
  5
575DF
330
458D6
100
AcDbEntity
  8
0
 62
     0
100
AcDbCircle
 10
936.1260053189324
 20
290.5740001151706
 30
3.646124999999996
 40
2.751438028232276
100
AcDbArc
 50
309.1046213224502
 51
50.89537867754973
  0
LINE
  5
575E0
330
458D6
100
AcDbEntity
  8
0
 62
     0
100
AcDbLine
 10
929.0984429363085
 20
292.7568964878486
 30
3.646124999999996
 11
929.6064429363079
 21
292.7568964878486
 31
3.646124999999996
  0
LINE
  5
575E1
330
458D6
100
AcDbEntity
  8
0
 62
     0
100
AcDbLine
 10
929.6064429363079
 20
292.7568964878486
 30
3.646124999999996
 11
929.9874429363077
 21
292.0901464878485
 31
3.646124999999996
  0
LINE
  5
575E2
330
458D6
100
AcDbEntity
  8
0
 62
     0
100
AcDbLine
 10
925.5424429363088
 20
292.7091037424917
 30
3.646124999999996
 11
921.9991429363089
 21
292.7091037424917
 31
3.646124999999996
  0
LINE
  5
575E3
330
458D6
100
AcDbEntity
  8
0
 62
     0
100
AcDbLine
 10
921.9991429363089
 20
288.4388964878496
 30
3.646124999999996
 11
925.5424429363088
 21
288.4388964878496
 31
3.646124999999996
  0
LINE
  5
575E4
330
458D6
100
AcDbEntity
  8
0
 62
     0
100
AcDbLine
 10
925.5424429363088
 20
292.7568964878486
 30
3.646124999999996
 11
926.0504429363084
 21
291.8678964878494
 31
3.646124999999996
  0
LINE
  5
575E5
330
458D6
100
AcDbEntity
  8
0
 62
     0
100
AcDbLine
 10
926.558442936308
 20
291.8678964878494
 30
3.646124999999996
 11
927.0664429363074
 21
292.7568964878486
 31
3.646124999999996
  0
LINE
  5
575E6
330
458D6
100
AcDbEntity
  8
0
 62
     0
100
AcDbLine
 10
926.0504429363084
 20
291.8678964878494
 30
3.646124999999996
 11
926.558442936308
 21
291.8678964878494
 31
3.646124999999996
  0
LINE
  5
575E7
330
458D6
100
AcDbEntity
  8
0
 62
     0
100
AcDbLine
 10
927.5744429363099
 20
292.7568964878486
 30
3.646124999999996
 11
928.0824429363095
 21
291.8678964878494
 31
3.646124999999996
  0
LINE
  5
575E8
330
458D6
100
AcDbEntity
  8
0
 62
     0
100
AcDbLine
 10
928.0824429363095
 20
291.8678964878494
 30
3.646124999999996
 11
928.5904429363089
 21
291.8678964878494
 31
3.646124999999996
  0
LINE
  5
575E9
330
458D6
100
AcDbEntity
  8
0
 62
     0
100
AcDbLine
 10
927.0664429363074
 20
292.7568964878486
 30
3.646124999999996
 11
927.5744429363099
 21
292.7568964878486
 31
3.646124999999996
  0
LINE
  5
575EA
330
458D6
100
AcDbEntity
  8
0
 62
     0
100
AcDbLine
 10
928.5904429363089
 20
305.8378964878497
 30
3.646124999999996
 11
929.0984429363085
 21
304.9488964878491
 31
3.646124999999996
  0
ARC
  5
575EB
330
458D6
100
AcDbEntity
  8
0
 62
     0
100
AcDbCircle
 10
938.8774429363083
 20
305.075896487849
 30
3.646124999999996
 40
3.302
100
AcDbArc
 50
0.0
 51
90.0
  0
ARC
  5
575EC
330
458D6
100
AcDbEntity
  8
0
 62
     0
100
AcDbCircle
 10
929.6461304363104
 20
298.8528964878488
 30
3.646124999999996
 40
9.231312499998928
100
AcDbArc
 50
332.8656845153003
 51
27.1343154846996
  0
LINE
  5
575ED
330
458D6
100
AcDbEntity
  8
0
 62
     0
100
AcDbLine
 10
937.8614429363093
 20
294.6426980364693
 30
3.646124999999996
 11
929.9874429363077
 21
294.6426980364693
 31
3.646124999999996
  0
LINE
  5
575EE
330
458D6
100
AcDbEntity
  8
0
 62
     0
100
AcDbLine
 10
929.9874429363077
 20
309.2668964878495
 30
3.646124999999996
 11
937.8614429363093
 21
309.2668964878495
 31
3.646124999999996
  0
LINE
  5
575EF
330
458D6
100
AcDbEntity
  8
0
 62
     0
100
AcDbLine
 10
937.8614429363093
 20
304.996689233206
 30
3.646124999999996
 11
929.9874429363077
 21
304.996689233206
 31
3.646124999999996
  0
LINE
  5
575F0
330
458D6
100
AcDbEntity
  8
0
 62
     0
100
AcDbLine
 10
937.8614429363093
 20
303.0630949392284
 30
3.646124999999996
 11
929.9874429363077
 21
303.0630949392284
 31
3.646124999999996
  0
LINE
  5
575F1
330
458D6
100
AcDbEntity
  8
0
 62
     0
100
AcDbLine
 10
938.8774429363083
 20
308.3778964878488
 30
3.646124999999996
 11
938.5790925520304
 21
308.3778964878488
 31
3.646124999999996
  0
ARC
  5
575F2
330
458D6
100
AcDbEntity
  8
0
 62
     0
100
AcDbCircle
 10
936.1260053189324
 20
307.131792860527
 30
3.646124999999996
 40
2.751438028232276
100
AcDbArc
 50
309.1046213224502
 51
50.89537867754973
  0
LINE
  5
575F3
330
458D6
100
AcDbEntity
  8
0
 62
     0
100
AcDbLine
 10
937.8614429363093
 20
303.0630949392284
 30
3.646124999999996
 11
937.8614429363093
 21
304.996689233206
 31
3.646124999999996
  0
LINE
  5
575F4
330
458D6
100
AcDbEntity
  8
0
 62
     0
100
AcDbLine
 10
929.6064429363079
 20
304.9488964878491
 30
3.646124999999996
 11
929.9874429363077
 21
305.6156464878491
 31
3.646124999999996
  0
LINE
  5
575F5
330
458D6
100
AcDbEntity
  8
0
 62
     0
100
AcDbLine
 10
929.0984429363085
 20
304.9488964878491
 30
3.646124999999996
 11
929.6064429363079
 21
304.9488964878491
 31
3.646124999999996
  0
LINE
  5
575F6
330
458D6
100
AcDbEntity
  8
0
 62
     0
100
AcDbLine
 10
925.5424429363088
 20
294.6426980364693
 30
3.646124999999996
 11
921.9991429363089
 21
294.6426980364693
 31
3.646124999999996
  0
LINE
  5
575F7
330
458D6
100
AcDbEntity
  8
0
 62
     0
100
AcDbLine
 10
921.9991429363089
 20
309.2668964878495
 30
3.646124999999996
 11
925.5424429363088
 21
309.2668964878495
 31
3.646124999999996
  0
LINE
  5
575F8
330
458D6
100
AcDbEntity
  8
0
 62
     0
100
AcDbLine
 10
925.5424429363088
 20
304.996689233206
 30
3.646124999999996
 11
921.9991429363089
 21
304.996689233206
 31
3.646124999999996
  0
LINE
  5
575F9
330
458D6
100
AcDbEntity
  8
0
 62
     0
100
AcDbLine
 10
925.5424429363088
 20
303.0630949392284
 30
3.646124999999996
 11
921.9991429363089
 21
303.0630949392284
 31
3.646124999999996
  0
LINE
  5
575FA
330
458D6
100
AcDbEntity
  8
0
 62
     0
100
AcDbLine
 10
926.0504429363084
 20
305.8378964878497
 30
3.646124999999996
 11
926.558442936308
 21
305.8378964878497
 31
3.646124999999996
  0
LINE
  5
575FB
330
458D6
100
AcDbEntity
  8
0
 62
     0
100
AcDbLine
 10
926.558442936308
 20
305.8378964878497
 30
3.646124999999996
 11
927.0664429363074
 21
304.9488964878491
 31
3.646124999999996
  0
LINE
  5
575FC
330
458D6
100
AcDbEntity
  8
0
 62
     0
100
AcDbLine
 10
925.5424429363088
 20
304.9488964878491
 30
3.646124999999996
 11
926.0504429363084
 21
305.8378964878497
 31
3.646124999999996
  0
LINE
  5
575FD
330
458D6
100
AcDbEntity
  8
0
 62
     0
100
AcDbLine
 10
928.0824429363095
 20
305.8378964878497
 30
3.646124999999996
 11
928.5904429363089
 21
305.8378964878497
 31
3.646124999999996
  0
LINE
  5
575FE
330
458D6
100
AcDbEntity
  8
0
 62
     0
100
AcDbLine
 10
927.5744429363099
 20
304.9488964878491
 30
3.646124999999996
 11
928.0824429363095
 21
305.8378964878497
 31
3.646124999999996
  0
LINE
  5
575FF
330
458D6
100
AcDbEntity
  8
0
 62
     0
100
AcDbLine
 10
927.0664429363074
 20
304.9488964878491
 30
3.646124999999996
 11
927.5744429363099
 21
304.9488964878491
 31
3.646124999999996
  0
LINE
  5
57600
330
458D6
100
AcDbEntity
  8
0
 62
     0
100
AcDbLine
 10
808.0928429363082
 20
203.7315862628894
 30
3.646124999999996
 11
808.0928429363082
 21
205.665180556867
 31
3.646124999999996
  0
LINE
  5
57601
330
458D6
100
AcDbEntity
  8
0
 62
     0
100
AcDbLine
 10
815.9668429363069
 20
199.4613790082473
 30
3.646124999999996
 11
815.9668429363069
 21
220.2893790082472
 31
3.646124999999996
  0
LINE
  5
57602
330
458D6
100
AcDbEntity
  8
0
 62
     0
100
AcDbLine
 10
820.4118429363086
 20
199.4613790082473
 30
3.646124999999996
 11
820.4118429363086
 21
220.2893790082472
 31
3.646124999999996
  0
LINE
  5
57603
330
458D6
100
AcDbEntity
  8
0
 62
     0
100
AcDbLine
 10
819.903842936309
 20
202.8903790082472
 30
3.646124999999996
 11
819.903842936309
 21
216.8603790082474
 31
3.646124999999996
  0
LINE
  5
57604
330
458D6
100
AcDbEntity
  8
0
 62
     0
100
AcDbLine
 10
819.3958429363096
 20
202.8903790082472
 30
3.646124999999996
 11
819.3958429363096
 21
216.8603790082474
 31
3.646124999999996
  0
LINE
  5
57605
330
458D6
100
AcDbEntity
  8
0
 62
     0
100
AcDbLine
 10
818.8878429363072
 20
203.7793790082463
 30
3.646124999999996
 11
818.8878429363072
 21
215.9713790082467
 31
3.646124999999996
  0
LINE
  5
57606
330
458D6
100
AcDbEntity
  8
0
 62
     0
100
AcDbLine
 10
818.3798429363076
 20
203.7793790082463
 30
3.646124999999996
 11
818.3798429363076
 21
215.9713790082467
 31
3.646124999999996
  0
LINE
  5
57607
330
458D6
100
AcDbEntity
  8
0
 62
     0
100
AcDbLine
 10
817.871842936308
 20
202.8903790082472
 30
3.646124999999996
 11
817.871842936308
 21
216.8603790082474
 31
3.646124999999996
  0
LINE
  5
57608
330
458D6
100
AcDbEntity
  8
0
 62
     0
100
AcDbLine
 10
817.3638429363085
 20
202.8903790082472
 30
3.646124999999996
 11
817.3638429363085
 21
216.8603790082474
 31
3.646124999999996
  0
LINE
  5
57609
330
458D6
100
AcDbEntity
  8
0
 62
     0
100
AcDbLine
 10
816.8558429363089
 20
203.7793790082463
 30
3.646124999999996
 11
816.8558429363089
 21
215.9713790082467
 31
3.646124999999996
  0
LINE
  5
5760A
330
458D6
100
AcDbEntity
  8
0
 62
     0
100
AcDbLine
 10
816.3478429363093
 20
203.7793790082463
 30
3.646124999999996
 11
816.3478429363093
 21
215.9713790082467
 31
3.646124999999996
  0
LINE
  5
5760B
330
458D6
100
AcDbEntity
  8
0
 62
     0
100
AcDbLine
 10
807.0768429363091
 20
201.5949790082951
 30
3.646124999999996
 11
807.0768429363091
 21
218.1557790083323
 31
3.646124999999996
  0
LINE
  5
5760C
330
458D6
100
AcDbEntity
  8
0
 62
     0
100
AcDbLine
 10
803.7748429363093
 20
203.6523790082465
 30
3.646124999999996
 11
803.7748429363093
 21
216.0983790082466
 31
3.646124999999996
  0
LINE
  5
5760D
330
458D6
100
AcDbEntity
  8
0
 62
     0
100
AcDbLine
 10
817.3638429363085
 20
202.8903790082472
 30
3.646124999999996
 11
816.8558429363089
 21
203.7793790082463
 31
3.646124999999996
  0
ARC
  5
5760E
330
458D6
100
AcDbEntity
  8
0
 62
     0
100
AcDbCircle
 10
807.0768429363091
 20
203.6523790082465
 30
3.646124999999996
 40
3.302
100
AcDbArc
 50
180.0
 51
270.0
  0
LINE
  5
5760F
330
458D6
100
AcDbEntity
  8
0
 62
     0
100
AcDbLine
 10
808.0928429363082
 20
203.7315862628894
 30
3.646124999999996
 11
815.9668429363069
 21
203.7315862628894
 31
3.646124999999996
  0
LINE
  5
57610
330
458D6
100
AcDbEntity
  8
0
 62
     0
100
AcDbLine
 10
815.9668429363069
 20
199.4613790082473
 30
3.646124999999996
 11
808.0928429363082
 21
199.4613790082473
 31
3.646124999999996
  0
LINE
  5
57611
330
458D6
100
AcDbEntity
  8
0
 62
     0
100
AcDbLine
 10
807.0768429363091
 20
200.3503790082465
 30
3.646124999999996
 11
807.3751933205871
 21
200.3503790082465
 31
3.646124999999996
  0
ARC
  5
57612
330
458D6
100
AcDbEntity
  8
0
 62
     0
100
AcDbCircle
 10
809.8282805536822
 20
201.5964826355684
 30
3.646124999999996
 40
2.751438028232276
100
AcDbArc
 50
129.1046213224502
 51
230.8953786775497
  0
LINE
  5
57613
330
458D6
100
AcDbEntity
  8
0
 62
     0
100
AcDbLine
 10
816.8558429363089
 20
203.7793790082463
 30
3.646124999999996
 11
816.3478429363093
 21
203.7793790082463
 31
3.646124999999996
  0
LINE
  5
57614
330
458D6
100
AcDbEntity
  8
0
 62
     0
100
AcDbLine
 10
816.3478429363093
 20
203.7793790082463
 30
3.646124999999996
 11
815.9668429363069
 21
203.1126290082462
 31
3.646124999999996
  0
LINE
  5
57615
330
458D6
100
AcDbEntity
  8
0
 62
     0
100
AcDbLine
 10
820.4118429363086
 20
203.7315862628894
 30
3.646124999999996
 11
823.9551429363086
 21
203.7315862628894
 31
3.646124999999996
  0
LINE
  5
57616
330
458D6
100
AcDbEntity
  8
0
 62
     0
100
AcDbLine
 10
823.9551429363086
 20
199.4613790082473
 30
3.646124999999996
 11
820.4118429363086
 21
199.4613790082473
 31
3.646124999999996
  0
LINE
  5
57617
330
458D6
100
AcDbEntity
  8
0
 62
     0
100
AcDbLine
 10
820.4118429363086
 20
203.7793790082463
 30
3.646124999999996
 11
819.903842936309
 21
202.8903790082472
 31
3.646124999999996
  0
LINE
  5
57618
330
458D6
100
AcDbEntity
  8
0
 62
     0
100
AcDbLine
 10
819.3958429363096
 20
202.8903790082472
 30
3.646124999999996
 11
818.8878429363072
 21
203.7793790082463
 31
3.646124999999996
  0
LINE
  5
57619
330
458D6
100
AcDbEntity
  8
0
 62
     0
100
AcDbLine
 10
819.903842936309
 20
202.8903790082472
 30
3.646124999999996
 11
819.3958429363096
 21
202.8903790082472
 31
3.646124999999996
  0
LINE
  5
5761A
330
458D6
100
AcDbEntity
  8
0
 62
     0
100
AcDbLine
 10
818.3798429363076
 20
203.7793790082463
 30
3.646124999999996
 11
817.871842936308
 21
202.8903790082472
 31
3.646124999999996
  0
LINE
  5
5761B
330
458D6
100
AcDbEntity
  8
0
 62
     0
100
AcDbLine
 10
817.871842936308
 20
202.8903790082472
 30
3.646124999999996
 11
817.3638429363085
 21
202.8903790082472
 31
3.646124999999996
  0
LINE
  5
5761C
330
458D6
100
AcDbEntity
  8
0
 62
     0
100
AcDbLine
 10
818.8878429363072
 20
203.7793790082463
 30
3.646124999999996
 11
818.3798429363076
 21
203.7793790082463
 31
3.646124999999996
  0
LINE
  5
5761D
330
458D6
100
AcDbEntity
  8
0
 62
     0
100
AcDbLine
 10
817.3638429363085
 20
216.8603790082474
 30
3.646124999999996
 11
816.8558429363089
 21
215.9713790082467
 31
3.646124999999996
  0
ARC
  5
5761E
330
458D6
100
AcDbEntity
  8
0
 62
     0
100
AcDbCircle
 10
807.0768429363091
 20
216.0983790082466
 30
3.646124999999996
 40
3.302
100
AcDbArc
 50
90.0
 51
180.0
  0
ARC
  5
5761F
330
458D6
100
AcDbEntity
  8
0
 62
     0
100
AcDbCircle
 10
816.3081554363071
 20
209.8753790082465
 30
3.646124999999996
 40
9.231312499998928
100
AcDbArc
 50
152.8656845153004
 51
207.1343154846995
  0
LINE
  5
57620
330
458D6
100
AcDbEntity
  8
0
 62
     0
100
AcDbLine
 10
808.0928429363082
 20
205.665180556867
 30
3.646124999999996
 11
815.9668429363069
 21
205.665180556867
 31
3.646124999999996
  0
LINE
  5
57621
330
458D6
100
AcDbEntity
  8
0
 62
     0
100
AcDbLine
 10
815.9668429363069
 20
220.2893790082472
 30
3.646124999999996
 11
808.0928429363082
 21
220.2893790082472
 31
3.646124999999996
  0
LINE
  5
57622
330
458D6
100
AcDbEntity
  8
0
 62
     0
100
AcDbLine
 10
808.0928429363082
 20
216.0191717536037
 30
3.646124999999996
 11
815.9668429363069
 21
216.0191717536037
 31
3.646124999999996
  0
LINE
  5
57623
330
458D6
100
AcDbEntity
  8
0
 62
     0
100
AcDbLine
 10
808.0928429363082
 20
214.0855774596261
 30
3.646124999999996
 11
815.9668429363069
 21
214.0855774596261
 31
3.646124999999996
  0
LINE
  5
57624
330
458D6
100
AcDbEntity
  8
0
 62
     0
100
AcDbLine
 10
807.0768429363091
 20
219.4003790082466
 30
3.646124999999996
 11
807.3751933205871
 21
219.4003790082466
 31
3.646124999999996
  0
ARC
  5
57625
330
458D6
100
AcDbEntity
  8
0
 62
     0
100
AcDbCircle
 10
809.8282805536822
 20
218.1542753809247
 30
3.646124999999996
 40
2.751438028232276
100
AcDbArc
 50
129.1046213224502
 51
230.8953786775497
  0
LINE
  5
57626
330
458D6
100
AcDbEntity
  8
0
 62
     0
100
AcDbLine
 10
808.0928429363082
 20
214.0855774596261
 30
3.646124999999996
 11
808.0928429363082
 21
216.0191717536037
 31
3.646124999999996
  0
LINE
  5
57627
330
458D6
100
AcDbEntity
  8
0
 62
     0
100
AcDbLine
 10
816.3478429363093
 20
215.9713790082467
 30
3.646124999999996
 11
815.9668429363069
 21
216.6381290082469
 31
3.646124999999996
  0
LINE
  5
57628
330
458D6
100
AcDbEntity
  8
0
 62
     0
100
AcDbLine
 10
816.8558429363089
 20
215.9713790082467
 30
3.646124999999996
 11
816.3478429363093
 21
215.9713790082467
 31
3.646124999999996
  0
LINE
  5
57629
330
458D6
100
AcDbEntity
  8
0
 62
     0
100
AcDbLine
 10
820.4118429363086
 20
205.665180556867
 30
3.646124999999996
 11
823.9551429363086
 21
205.665180556867
 31
3.646124999999996
  0
LINE
  5
5762A
330
458D6
100
AcDbEntity
  8
0
 62
     0
100
AcDbLine
 10
823.9551429363086
 20
220.2893790082472
 30
3.646124999999996
 11
820.4118429363086
 21
220.2893790082472
 31
3.646124999999996
  0
LINE
  5
5762B
330
458D6
100
AcDbEntity
  8
0
 62
     0
100
AcDbLine
 10
820.4118429363086
 20
216.0191717536037
 30
3.646124999999996
 11
823.9551429363086
 21
216.0191717536037
 31
3.646124999999996
  0
LINE
  5
5762C
330
458D6
100
AcDbEntity
  8
0
 62
     0
100
AcDbLine
 10
820.4118429363086
 20
214.0855774596261
 30
3.646124999999996
 11
823.9551429363086
 21
214.0855774596261
 31
3.646124999999996
  0
LINE
  5
5762D
330
458D6
100
AcDbEntity
  8
0
 62
     0
100
AcDbLine
 10
819.903842936309
 20
216.8603790082474
 30
3.646124999999996
 11
819.3958429363096
 21
216.8603790082474
 31
3.646124999999996
  0
LINE
  5
5762E
330
458D6
100
AcDbEntity
  8
0
 62
     0
100
AcDbLine
 10
819.3958429363096
 20
216.8603790082474
 30
3.646124999999996
 11
818.8878429363072
 21
215.9713790082467
 31
3.646124999999996
  0
LINE
  5
5762F
330
458D6
100
AcDbEntity
  8
0
 62
     0
100
AcDbLine
 10
820.4118429363086
 20
215.9713790082467
 30
3.646124999999996
 11
819.903842936309
 21
216.8603790082474
 31
3.646124999999996
  0
LINE
  5
57630
330
458D6
100
AcDbEntity
  8
0
 62
     0
100
AcDbLine
 10
817.871842936308
 20
216.8603790082474
 30
3.646124999999996
 11
817.3638429363085
 21
216.8603790082474
 31
3.646124999999996
  0
LINE
  5
57631
330
458D6
100
AcDbEntity
  8
0
 62
     0
100
AcDbLine
 10
818.3798429363076
 20
215.9713790082467
 30
3.646124999999996
 11
817.871842936308
 21
216.8603790082474
 31
3.646124999999996
  0
LINE
  5
57632
330
458D6
100
AcDbEntity
  8
0
 62
     0
100
AcDbLine
 10
818.8878429363072
 20
215.9713790082467
 30
3.646124999999996
 11
818.3798429363076
 21
215.9713790082467
 31
3.646124999999996
  0
ARC
  5
57633
330
458D6
100
AcDbEntity
  8
0
 62
     0
100
AcDbCircle
 10
929.6461304363104
 20
209.8753790082465
 30
3.646124999999996
 40
9.231312499998928
100
AcDbArc
 50
332.8656845153003
 51
27.1343154846996
  0
LINE
  5
57634
330
458D6
100
AcDbEntity
  8
0
 62
     0
100
AcDbLine
 10
942.1794429363082
 20
203.6523790082465
 30
3.646124999999996
 11
942.1794429363082
 21
216.0983790082466
 31
3.646124999999996
  0
LINE
  5
57635
330
458D6
100
AcDbEntity
  8
0
 62
     0
100
AcDbLine
 10
938.8774429363083
 20
201.5949790082951
 30
3.646124999999996
 11
938.8774429363083
 21
218.1557790083323
 31
3.646124999999996
  0
LINE
  5
57636
330
458D6
100
AcDbEntity
  8
0
 62
     0
100
AcDbLine
 10
929.6064429363079
 20
203.7793790082463
 30
3.646124999999996
 11
929.6064429363079
 21
215.9713790082467
 31
3.646124999999996
  0
LINE
  5
57637
330
458D6
100
AcDbEntity
  8
0
 62
     0
100
AcDbLine
 10
929.0984429363085
 20
203.7793790082463
 30
3.646124999999996
 11
929.0984429363085
 21
215.9713790082467
 31
3.646124999999996
  0
LINE
  5
57638
330
458D6
100
AcDbEntity
  8
0
 62
     0
100
AcDbLine
 10
928.5904429363089
 20
202.8903790082472
 30
3.646124999999996
 11
928.5904429363089
 21
216.8603790082474
 31
3.646124999999996
  0
LINE
  5
57639
330
458D6
100
AcDbEntity
  8
0
 62
     0
100
AcDbLine
 10
928.0824429363095
 20
202.8903790082472
 30
3.646124999999996
 11
928.0824429363095
 21
216.8603790082474
 31
3.646124999999996
  0
LINE
  5
5763A
330
458D6
100
AcDbEntity
  8
0
 62
     0
100
AcDbLine
 10
927.5744429363099
 20
203.7793790082463
 30
3.646124999999996
 11
927.5744429363099
 21
215.9713790082467
 31
3.646124999999996
  0
LINE
  5
5763B
330
458D6
100
AcDbEntity
  8
0
 62
     0
100
AcDbLine
 10
927.0664429363074
 20
203.7793790082463
 30
3.646124999999996
 11
927.0664429363074
 21
215.9713790082467
 31
3.646124999999996
  0
LINE
  5
5763C
330
458D6
100
AcDbEntity
  8
0
 62
     0
100
AcDbLine
 10
926.558442936308
 20
202.8903790082472
 30
3.646124999999996
 11
926.558442936308
 21
216.8603790082474
 31
3.646124999999996
  0
LINE
  5
5763D
330
458D6
100
AcDbEntity
  8
0
 62
     0
100
AcDbLine
 10
926.0504429363084
 20
202.8903790082472
 30
3.646124999999996
 11
926.0504429363084
 21
216.8603790082474
 31
3.646124999999996
  0
LINE
  5
5763E
330
458D6
100
AcDbEntity
  8
0
 62
     0
100
AcDbLine
 10
925.5424429363088
 20
199.4613790082473
 30
3.646124999999996
 11
925.5424429363088
 21
220.2893790082472
 31
3.646124999999996
  0
LINE
  5
5763F
330
458D6
100
AcDbEntity
  8
0
 62
     0
100
AcDbLine
 10
929.9874429363077
 20
199.4613790082473
 30
3.646124999999996
 11
929.9874429363077
 21
220.2893790082472
 31
3.646124999999996
  0
LINE
  5
57640
330
458D6
100
AcDbEntity
  8
0
 62
     0
100
AcDbLine
 10
928.5904429363089
 20
202.8903790082472
 30
3.646124999999996
 11
929.0984429363085
 21
203.7793790082463
 31
3.646124999999996
  0
ARC
  5
57641
330
458D6
100
AcDbEntity
  8
0
 62
     0
100
AcDbCircle
 10
938.8774429363083
 20
203.6523790082465
 30
3.646124999999996
 40
3.302
100
AcDbArc
 50
270.0
 51
0.0
  0
LINE
  5
57642
330
458D6
100
AcDbEntity
  8
0
 62
     0
100
AcDbLine
 10
937.8614429363093
 20
203.7315862628894
 30
3.646124999999996
 11
937.8614429363093
 21
205.665180556867
 31
3.646124999999996
  0
LINE
  5
57643
330
458D6
100
AcDbEntity
  8
0
 62
     0
100
AcDbLine
 10
929.9874429363077
 20
199.4613790082473
 30
3.646124999999996
 11
937.8614429363093
 21
199.4613790082473
 31
3.646124999999996
  0
LINE
  5
57644
330
458D6
100
AcDbEntity
  8
0
 62
     0
100
AcDbLine
 10
937.8614429363093
 20
203.7315862628894
 30
3.646124999999996
 11
929.9874429363077
 21
203.7315862628894
 31
3.646124999999996
  0
ARC
  5
57645
330
458D6
100
AcDbEntity
  8
0
 62
     0
100
AcDbCircle
 10
936.1260053189324
 20
201.5964826355684
 30
3.646124999999996
 40
2.751438028232276
100
AcDbArc
 50
309.1046213224502
 51
50.89537867754973
  0
LINE
  5
57646
330
458D6
100
AcDbEntity
  8
0
 62
     0
100
AcDbLine
 10
938.8774429363083
 20
200.3503790082465
 30
3.646124999999996
 11
938.5790925520304
 21
200.3503790082465
 31
3.646124999999996
  0
LINE
  5
57647
330
458D6
100
AcDbEntity
  8
0
 62
     0
100
AcDbLine
 10
929.6064429363079
 20
203.7793790082463
 30
3.646124999999996
 11
929.9874429363077
 21
203.1126290082462
 31
3.646124999999996
  0
LINE
  5
57648
330
458D6
100
AcDbEntity
  8
0
 62
     0
100
AcDbLine
 10
929.0984429363085
 20
203.7793790082463
 30
3.646124999999996
 11
929.6064429363079
 21
203.7793790082463
 31
3.646124999999996
  0
LINE
  5
57649
330
458D6
100
AcDbEntity
  8
0
 62
     0
100
AcDbLine
 10
937.8614429363093
 20
205.665180556867
 30
3.646124999999996
 11
929.9874429363077
 21
205.665180556867
 31
3.646124999999996
  0
LINE
  5
5764A
330
458D6
100
AcDbEntity
  8
0
 62
     0
100
AcDbLine
 10
921.9991429363089
 20
199.4613790082473
 30
3.646124999999996
 11
925.5424429363088
 21
199.4613790082473
 31
3.646124999999996
  0
LINE
  5
5764B
330
458D6
100
AcDbEntity
  8
0
 62
     0
100
AcDbLine
 10
925.5424429363088
 20
203.7315862628894
 30
3.646124999999996
 11
921.9991429363089
 21
203.7315862628894
 31
3.646124999999996
  0
LINE
  5
5764C
330
458D6
100
AcDbEntity
  8
0
 62
     0
100
AcDbLine
 10
927.0664429363074
 20
203.7793790082463
 30
3.646124999999996
 11
927.5744429363099
 21
203.7793790082463
 31
3.646124999999996
  0
LINE
  5
5764D
330
458D6
100
AcDbEntity
  8
0
 62
     0
100
AcDbLine
 10
928.0824429363095
 20
202.8903790082472
 30
3.646124999999996
 11
928.5904429363089
 21
202.8903790082472
 31
3.646124999999996
  0
LINE
  5
5764E
330
458D6
100
AcDbEntity
  8
0
 62
     0
100
AcDbLine
 10
927.5744429363099
 20
203.7793790082463
 30
3.646124999999996
 11
928.0824429363095
 21
202.8903790082472
 31
3.646124999999996
  0
LINE
  5
5764F
330
458D6
100
AcDbEntity
  8
0
 62
     0
100
AcDbLine
 10
926.0504429363084
 20
202.8903790082472
 30
3.646124999999996
 11
926.558442936308
 21
202.8903790082472
 31
3.646124999999996
  0
LINE
  5
57650
330
458D6
100
AcDbEntity
  8
0
 62
     0
100
AcDbLine
 10
926.558442936308
 20
202.8903790082472
 30
3.646124999999996
 11
927.0664429363074
 21
203.7793790082463
 31
3.646124999999996
  0
LINE
  5
57651
330
458D6
100
AcDbEntity
  8
0
 62
     0
100
AcDbLine
 10
925.5424429363088
 20
203.7793790082463
 30
3.646124999999996
 11
926.0504429363084
 21
202.8903790082472
 31
3.646124999999996
  0
LINE
  5
57652
330
458D6
100
AcDbEntity
  8
0
 62
     0
100
AcDbLine
 10
925.5424429363088
 20
205.665180556867
 30
3.646124999999996
 11
921.9991429363089
 21
205.665180556867
 31
3.646124999999996
  0
LINE
  5
57653
330
458D6
100
AcDbEntity
  8
0
 62
     0
100
AcDbLine
 10
928.5904429363089
 20
216.8603790082474
 30
3.646124999999996
 11
929.0984429363085
 21
215.9713790082467
 31
3.646124999999996
  0
ARC
  5
57654
330
458D6
100
AcDbEntity
  8
0
 62
     0
100
AcDbCircle
 10
938.8774429363083
 20
216.0983790082466
 30
3.646124999999996
 40
3.302
100
AcDbArc
 50
0.0
 51
90.0
  0
LINE
  5
57655
330
458D6
100
AcDbEntity
  8
0
 62
     0
100
AcDbLine
 10
937.8614429363093
 20
214.0855774596261
 30
3.646124999999996
 11
929.9874429363077
 21
214.0855774596261
 31
3.646124999999996
  0
LINE
  5
57656
330
458D6
100
AcDbEntity
  8
0
 62
     0
100
AcDbLine
 10
937.8614429363093
 20
216.0191717536037
 30
3.646124999999996
 11
929.9874429363077
 21
216.0191717536037
 31
3.646124999999996
  0
LINE
  5
57657
330
458D6
100
AcDbEntity
  8
0
 62
     0
100
AcDbLine
 10
929.9874429363077
 20
220.2893790082472
 30
3.646124999999996
 11
937.8614429363093
 21
220.2893790082472
 31
3.646124999999996
  0
LINE
  5
57658
330
458D6
100
AcDbEntity
  8
0
 62
     0
100
AcDbLine
 10
937.8614429363093
 20
214.0855774596261
 30
3.646124999999996
 11
937.8614429363093
 21
216.0191717536037
 31
3.646124999999996
  0
ARC
  5
57659
330
458D6
100
AcDbEntity
  8
0
 62
     0
100
AcDbCircle
 10
936.1260053189324
 20
218.1542753809247
 30
3.646124999999996
 40
2.751438028232276
100
AcDbArc
 50
309.1046213224502
 51
50.89537867754973
  0
LINE
  5
5765A
330
458D6
100
AcDbEntity
  8
0
 62
     0
100
AcDbLine
 10
938.8774429363083
 20
219.4003790082466
 30
3.646124999999996
 11
938.5790925520304
 21
219.4003790082466
 31
3.646124999999996
  0
LINE
  5
5765B
330
458D6
100
AcDbEntity
  8
0
 62
     0
100
AcDbLine
 10
929.0984429363085
 20
215.9713790082467
 30
3.646124999999996
 11
929.6064429363079
 21
215.9713790082467
 31
3.646124999999996
  0
LINE
  5
5765C
330
458D6
100
AcDbEntity
  8
0
 62
     0
100
AcDbLine
 10
929.6064429363079
 20
215.9713790082467
 30
3.646124999999996
 11
929.9874429363077
 21
216.6381290082469
 31
3.646124999999996
  0
LINE
  5
5765D
330
458D6
100
AcDbEntity
  8
0
 62
     0
100
AcDbLine
 10
925.5424429363088
 20
214.0855774596261
 30
3.646124999999996
 11
921.9991429363089
 21
214.0855774596261
 31
3.646124999999996
  0
LINE
  5
5765E
330
458D6
100
AcDbEntity
  8
0
 62
     0
100
AcDbLine
 10
925.5424429363088
 20
216.0191717536037
 30
3.646124999999996
 11
921.9991429363089
 21
216.0191717536037
 31
3.646124999999996
  0
LINE
  5
5765F
330
458D6
100
AcDbEntity
  8
0
 62
     0
100
AcDbLine
 10
921.9991429363089
 20
220.2893790082472
 30
3.646124999999996
 11
925.5424429363088
 21
220.2893790082472
 31
3.646124999999996
  0
LINE
  5
57660
330
458D6
100
AcDbEntity
  8
0
 62
     0
100
AcDbLine
 10
927.0664429363074
 20
215.9713790082467
 30
3.646124999999996
 11
927.5744429363099
 21
215.9713790082467
 31
3.646124999999996
  0
LINE
  5
57661
330
458D6
100
AcDbEntity
  8
0
 62
     0
100
AcDbLine
 10
927.5744429363099
 20
215.9713790082467
 30
3.646124999999996
 11
928.0824429363095
 21
216.8603790082474
 31
3.646124999999996
  0
LINE
  5
57662
330
458D6
100
AcDbEntity
  8
0
 62
     0
100
AcDbLine
 10
928.0824429363095
 20
216.8603790082474
 30
3.646124999999996
 11
928.5904429363089
 21
216.8603790082474
 31
3.646124999999996
  0
LINE
  5
57663
330
458D6
100
AcDbEntity
  8
0
 62
     0
100
AcDbLine
 10
925.5424429363088
 20
215.9713790082467
 30
3.646124999999996
 11
926.0504429363084
 21
216.8603790082474
 31
3.646124999999996
  0
LINE
  5
57664
330
458D6
100
AcDbEntity
  8
0
 62
     0
100
AcDbLine
 10
926.558442936308
 20
216.8603790082474
 30
3.646124999999996
 11
927.0664429363074
 21
215.9713790082467
 31
3.646124999999996
  0
LINE
  5
57665
330
458D6
100
AcDbEntity
  8
0
 62
     0
100
AcDbLine
 10
926.0504429363084
 20
216.8603790082474
 30
3.646124999999996
 11
926.558442936308
 21
216.8603790082474
 31
3.646124999999996
  0
INSERT
  5
57666
330
458D6
100
AcDbEntity
  8
0
 62
     0
100
AcDbBlockReference
  2
PHILL
 10
830.3051429363085
 20
277.8203790082468
 30
3.646124999999996
 41
25.4
 42
25.4
 43
25.4
 50
341.9995233723391
  0
CIRCLE
  5
57667
330
458D6
100
AcDbEntity
  8
0
 62
     0
100
AcDbCircle
 10
830.3051429363085
 20
277.8203790082468
 30
3.646124999999996
 40
3.96875
  0
INSERT
  5
57668
330
458D6
100
AcDbEntity
  8
0
 62
     0
100
AcDbBlockReference
  2
PHILL
 10
915.6491429363088
 20
277.8203790082468
 30
3.646124999999996
 41
25.4
 42
25.4
 43
25.4
 50
211.0924681174722
  0
CIRCLE
  5
57669
330
458D6
100
AcDbEntity
  8
0
 62
     0
100
AcDbCircle
 10
915.6491429363088
 20
277.8203790082468
 30
3.646124999999996
 40
3.96875
  0
ARC
  5
57699
330
458D6
100
AcDbEntity
  8
0
 62
     0
100
AcDbCircle
 10
906.3781429363087
 20
474.416379008247
 30
3.646124999999996
 40
6.351269873025481
100
AcDbArc
 50
173.1090052174623
 51
234.7493880596931
  0
ARC
  5
5769A
330
458D6
100
AcDbEntity
  8
0
 62
     0
100
AcDbCircle
 10
898.4967210565413
 20
475.3688790082462
 30
3.646124999999996
 40
1.587499999999999
100
AcDbArc
 50
353.1090052174623
 51
90.0
  0
ARC
  5
5769B
330
458D6
100
AcDbEntity
  8
0
 62
     0
100
AcDbCircle
 10
898.4967210565413
 20
475.3688790082462
 30
3.646124999999996
 40
2.4765
100
AcDbArc
 50
353.1090052174623
 51
90.0
  0
ARC
  5
5769C
330
458D6
100
AcDbEntity
  8
0
 62
     0
100
AcDbCircle
 10
897.4249459202251
 20
475.3688790082462
 30
3.646124999999996
 40
3.4925
100
AcDbArc
 50
0.0
 51
90.0
  0
LINE
  5
5769D
330
458D6
100
AcDbEntity
  8
0
 62
     0
100
AcDbLine
 10
848.5293399523895
 20
478.8613790082473
 30
3.646124999999996
 11
850.7834458097427
 21
478.8613790082473
 31
3.646124999999996
  0
LINE
  5
5769E
330
458D6
100
AcDbEntity
  8
0
 62
     0
100
AcDbLine
 10
899.2036590267378
 20
477.8453790082468
 30
3.646124999999996
 11
894.8833920720211
 21
477.8453790082468
 31
3.646124999999996
  0
LINE
  5
5769F
330
458D6
100
AcDbEntity
  8
0
 62
     0
100
AcDbLine
 10
899.2587210565405
 20
476.9563790082462
 30
3.646124999999996
 11
895.37670410445
 21
476.9563790082462
 31
3.646124999999996
  0
LINE
  5
576A0
330
458D6
100
AcDbEntity
  8
0
 62
     0
100
AcDbLine
 10
848.5293399523895
 20
478.8613790082473
 30
3.646124999999996
 11
833.1454873611511
 21
478.8613790082459
 31
3.646124999999996
  0
ARC
  5
576A1
330
458D6
100
AcDbEntity
  8
0
 62
     0
100
AcDbCircle
 10
830.6861429363081
 20
474.416379008247
 30
3.646124999999996
 40
5.08
100
AcDbArc
 50
270.0
 51
61.04497562813933
  0
LINE
  5
576A2
330
458D6
100
AcDbEntity
  8
0
 62
     0
100
AcDbLine
 10
836.0189709922988
 20
468.9553790082462
 30
3.646124999999996
 11
829.7336429363076
 21
468.9553790082462
 31
3.646124999999996
  0
LINE
  5
576A3
330
458D6
100
AcDbEntity
  8
0
 62
     0
100
AcDbLine
 10
834.6880617958236
 20
468.0663790082471
 30
3.646124999999996
 11
829.7336429363076
 21
468.0663790082471
 31
3.646124999999996
  0
ARC
  5
576A4
330
458D6
100
AcDbEntity
  8
0
 62
     0
100
AcDbCircle
 10
829.7336429363076
 20
466.4788790082471
 30
3.646124999999996
 40
1.587499999999999
100
AcDbArc
 50
90.0
 51
180.0
  0
ARC
  5
576A5
330
458D6
100
AcDbEntity
  8
0
 62
     0
100
AcDbCircle
 10
829.7336429363076
 20
466.4788790082471
 30
3.646124999999996
 40
2.4765
100
AcDbArc
 50
90.0
 51
180.0
  0
ARC
  5
576A6
330
458D6
100
AcDbEntity
  8
0
 62
     0
100
AcDbCircle
 10
839.5761429363087
 20
474.416379008247
 30
3.646124999999996
 40
5.462269873025481
100
AcDbArc
 50
292.6934489569337
 51
6.890994782537673
  0
ARC
  5
576A7
330
458D6
100
AcDbEntity
  8
0
 62
     0
100
AcDbCircle
 10
839.5761429363087
 20
474.416379008247
 30
3.646124999999996
 40
6.351269873025481
100
AcDbArc
 50
303.0366729955255
 51
6.890994782537673
  0
ARC
  5
576A8
330
458D6
100
AcDbEntity
  8
0
 62
     0
100
AcDbCircle
 10
847.4575648160762
 20
475.3688790082462
 30
3.646124999999996
 40
1.587499999999999
100
AcDbArc
 50
90.0
 51
186.8909947825376
  0
ARC
  5
576A9
330
458D6
100
AcDbEntity
  8
0
 62
     0
100
AcDbCircle
 10
847.4575648160762
 20
475.3688790082462
 30
3.646124999999996
 40
2.4765
100
AcDbArc
 50
90.0
 51
186.8909947825376
  0
ARC
  5
576AA
330
458D6
100
AcDbEntity
  8
0
 62
     0
100
AcDbCircle
 10
848.5293399523895
 20
475.3688790082462
 30
3.646124999999996
 40
3.4925
100
AcDbArc
 50
90.0
 51
164.4751537870814
  0
CIRCLE
  5
576AB
330
458D6
100
AcDbEntity
  8
0
 62
     0
100
AcDbCircle
 10
839.5761429363087
 20
474.416379008247
 30
3.646124999999996
 40
2.222499999999999
  0
ARC
  5
576AC
330
458D6
100
AcDbEntity
  8
0
 62
     0
100
AcDbCircle
 10
915.2681429363092
 20
474.416379008247
 30
3.646124999999996
 40
5.08
100
AcDbArc
 50
118.9550243718606
 51
270.0
  0
LINE
  5
576AD
330
458D6
100
AcDbEntity
  8
0
 62
     0
100
AcDbLine
 10
911.2314649015521
 20
468.0663790082471
 30
3.646124999999996
 11
916.2206429363097
 21
468.0663790082471
 31
3.646124999999996
  0
LINE
  5
576AE
330
458D6
100
AcDbEntity
  8
0
 62
     0
100
AcDbLine
 10
910.0232649315033
 20
468.9553790082462
 30
3.646124999999996
 11
916.2206429363097
 21
468.9553790082462
 31
3.646124999999996
  0
ARC
  5
576AF
330
458D6
100
AcDbEntity
  8
0
 62
     0
100
AcDbCircle
 10
906.3781429363087
 20
474.416379008247
 30
3.646124999999996
 40
5.462269873025481
100
AcDbArc
 50
173.1090052174623
 51
244.3832777188589
  0
CIRCLE
  5
576B0
330
458D6
100
AcDbEntity
  8
0
 62
     0
100
AcDbCircle
 10
906.3781429363087
 20
474.416379008247
 30
3.646124999999996
 40
2.222499999999999
  0
ARC
  5
576B1
330
458D6
100
AcDbEntity
  8
0
 62
     0
100
AcDbCircle
 10
916.2206429363097
 20
466.4788790082471
 30
3.646124999999996
 40
1.587499999999999
100
AcDbArc
 50
0.0
 51
90.0
  0
ARC
  5
576B2
330
458D6
100
AcDbEntity
  8
0
 62
     0
100
AcDbCircle
 10
916.2206429363097
 20
466.4788790082471
 30
3.646124999999996
 40
2.4765
100
AcDbArc
 50
0.0
 51
90.0
  0
LINE
  5
576B3
330
458D6
100
AcDbEntity
  8
0
 62
     0
100
AcDbLine
 10
895.1708400628747
 20
478.8613790082473
 30
3.646124999999996
 11
912.8087985114662
 21
478.8613790082459
 31
3.646124999999996
  0
LINE
  5
576B4
330
458D6
100
AcDbEntity
  8
0
 62
     0
100
AcDbLine
 10
851.0708938005963
 20
477.8453790082468
 30
3.646124999999996
 11
847.5126268458788
 21
477.8453790082468
 31
3.646124999999996
  0
LINE
  5
576B5
330
458D6
100
AcDbEntity
  8
0
 62
     0
100
AcDbLine
 10
850.5775817681675
 20
476.9563790082462
 30
3.646124999999996
 11
847.4575648160762
 21
476.9563790082462
 31
3.646124999999996
  0
CIRCLE
  5
576B6
330
458D6
100
AcDbEntity
  8
0
 62
     0
100
AcDbCircle
 10
839.5761429363087
 20
277.8203790082468
 30
3.646124999999996
 40
2.222499999999999
  0
CIRCLE
  5
576B7
330
458D6
100
AcDbEntity
  8
0
 62
     0
100
AcDbCircle
 10
906.3781429363087
 20
277.8203790082468
 30
3.646124999999996
 40
2.222499999999999
  0
LINE
  5
576B8
330
458D6
100
AcDbEntity
  8
0
 62
     0
100
AcDbLine
 10
848.5293399523895
 20
273.3753790082465
 30
3.646124999999996
 11
833.1454873611511
 21
273.3753790082465
 31
3.646124999999996
  0
ARC
  5
576B9
330
458D6
100
AcDbEntity
  8
0
 62
     0
100
AcDbCircle
 10
830.6861429363081
 20
277.8203790082468
 30
3.646124999999996
 40
5.08
100
AcDbArc
 50
298.9550243718607
 51
90.0
  0
LINE
  5
576BA
330
458D6
100
AcDbEntity
  8
0
 62
     0
100
AcDbLine
 10
895.1708400628747
 20
273.3753790082465
 30
3.646124999999996
 11
912.8087985114662
 21
273.3753790082465
 31
3.646124999999996
  0
ARC
  5
576BB
330
458D6
100
AcDbEntity
  8
0
 62
     0
100
AcDbCircle
 10
915.2681429363092
 20
277.8203790082468
 30
3.646124999999996
 40
5.08
100
AcDbArc
 50
90.0
 51
241.0449756281393
  0
ARC
  5
576BC
330
458D6
100
AcDbEntity
  8
0
 62
     0
100
AcDbCircle
 10
916.2206429363097
 20
285.7578790082468
 30
3.646124999999996
 40
1.587499999999999
100
AcDbArc
 50
270.0
 51
0.0
  0
ARC
  5
576BD
330
458D6
100
AcDbEntity
  8
0
 62
     0
100
AcDbCircle
 10
916.2206429363097
 20
285.7578790082468
 30
3.646124999999996
 40
2.4765
100
AcDbArc
 50
270.0
 51
0.0
  0
LINE
  5
576BE
330
458D6
100
AcDbEntity
  8
0
 62
     0
100
AcDbLine
 10
911.2314649015521
 20
284.1703790082468
 30
3.646124999999996
 11
916.2206429363097
 21
284.1703790082468
 31
3.646124999999996
  0
LINE
  5
576BF
330
458D6
100
AcDbEntity
  8
0
 62
     0
100
AcDbLine
 10
910.0232649315033
 20
283.2813790082476
 30
3.646124999999996
 11
916.2206429363097
 21
283.2813790082476
 31
3.646124999999996
  0
ARC
  5
576C0
330
458D6
100
AcDbEntity
  8
0
 62
     0
100
AcDbCircle
 10
829.7336429363076
 20
285.7578790082468
 30
3.646124999999996
 40
2.4765
100
AcDbArc
 50
180.0
 51
270.0
  0
ARC
  5
576C1
330
458D6
100
AcDbEntity
  8
0
 62
     0
100
AcDbCircle
 10
829.7336429363076
 20
285.7578790082468
 30
3.646124999999996
 40
1.587499999999999
100
AcDbArc
 50
180.0
 51
270.0
  0
LINE
  5
576C2
330
458D6
100
AcDbEntity
  8
0
 62
     0
100
AcDbLine
 10
834.6880617958236
 20
284.1703790082468
 30
3.646124999999996
 11
829.7336429363076
 21
284.1703790082468
 31
3.646124999999996
  0
LINE
  5
576C3
330
458D6
100
AcDbEntity
  8
0
 62
     0
100
AcDbLine
 10
836.0189709922988
 20
283.2813790082476
 30
3.646124999999996
 11
829.7336429363076
 21
283.2813790082476
 31
3.646124999999996
  0
LINE
  5
576C4
330
458D6
100
AcDbEntity
  8
0
 62
     0
100
AcDbLine
 10
851.0708938005963
 20
274.3913790082471
 30
3.646124999999996
 11
847.5126268458788
 21
274.3913790082471
 31
3.646124999999996
  0
LINE
  5
576C5
330
458D6
100
AcDbEntity
  8
0
 62
     0
100
AcDbLine
 10
848.5293399523895
 20
273.3753790082465
 30
3.646124999999996
 11
850.7834458097427
 21
273.3753790082465
 31
3.646124999999996
  0
LINE
  5
576C6
330
458D6
100
AcDbEntity
  8
0
 62
     0
100
AcDbLine
 10
850.5775817681675
 20
275.2803790082477
 30
3.646124999999996
 11
847.4575648160762
 21
275.2803790082463
 31
3.646124999999996
  0
ARC
  5
576C7
330
458D6
100
AcDbEntity
  8
0
 62
     0
100
AcDbCircle
 10
847.4575648160762
 20
276.8678790082462
 30
3.646124999999996
 40
2.4765
100
AcDbArc
 50
173.1090052174623
 51
270.0
  0
ARC
  5
576C8
330
458D6
100
AcDbEntity
  8
0
 62
     0
100
AcDbCircle
 10
847.4575648160762
 20
276.8678790082462
 30
3.646124999999996
 40
1.587499999999999
100
AcDbArc
 50
173.1090052174623
 51
270.0
  0
ARC
  5
576C9
330
458D6
100
AcDbEntity
  8
0
 62
     0
100
AcDbCircle
 10
839.5761429363087
 20
277.8203790082468
 30
3.646124999999996
 40
5.462269873025481
100
AcDbArc
 50
353.1090052174623
 51
67.30655104306626
  0
ARC
  5
576CA
330
458D6
100
AcDbEntity
  8
0
 62
     0
100
AcDbCircle
 10
839.5761429363087
 20
277.8203790082468
 30
3.646124999999996
 40
6.351269873025481
100
AcDbArc
 50
353.1090052174623
 51
56.96332700447445
  0
ARC
  5
576CB
330
458D6
100
AcDbEntity
  8
0
 62
     0
100
AcDbCircle
 10
848.5293399523895
 20
276.8678790082462
 30
3.646124999999996
 40
3.4925
100
AcDbArc
 50
195.5248462129185
 51
270.0
  0
LINE
  5
576CC
330
458D6
100
AcDbEntity
  8
0
 62
     0
100
AcDbLine
 10
899.2587210565405
 20
275.2803790082463
 30
3.646124999999996
 11
895.37670410445
 21
275.2803790082463
 31
3.646124999999996
  0
LINE
  5
576CD
330
458D6
100
AcDbEntity
  8
0
 62
     0
100
AcDbLine
 10
899.2036590267378
 20
274.3913790082471
 30
3.646124999999996
 11
894.8833920720211
 21
274.3913790082471
 31
3.646124999999996
  0
ARC
  5
576CE
330
458D6
100
AcDbEntity
  8
0
 62
     0
100
AcDbCircle
 10
897.4249459202251
 20
276.8678790082462
 30
3.646124999999996
 40
3.4925
100
AcDbArc
 50
270.0
 51
0.0
  0
ARC
  5
576CF
330
458D6
100
AcDbEntity
  8
0
 62
     0
100
AcDbCircle
 10
898.4967210565413
 20
276.8678790082462
 30
3.646124999999996
 40
2.4765
100
AcDbArc
 50
270.0
 51
6.890994782537673
  0
ARC
  5
576D0
330
458D6
100
AcDbEntity
  8
0
 62
     0
100
AcDbCircle
 10
898.4967210565413
 20
276.8678790082462
 30
3.646124999999996
 40
1.587499999999999
100
AcDbArc
 50
270.0
 51
6.890994782537673
  0
ARC
  5
576D1
330
458D6
100
AcDbEntity
  8
0
 62
     0
100
AcDbCircle
 10
906.3781429363087
 20
277.8203790082468
 30
3.646124999999996
 40
6.351269873025481
100
AcDbArc
 50
125.2506119403068
 51
186.8909947825376
  0
ARC
  5
576D2
330
458D6
100
AcDbEntity
  8
0
 62
     0
100
AcDbCircle
 10
906.3781429363087
 20
277.8203790082468
 30
3.646124999999996
 40
5.462269873025481
100
AcDbArc
 50
115.6167222811351
 51
186.8909947825376
  0
POLYLINE
  5
576DB
330
458D6
100
AcDbEntity
  8
0
 62
     0
100
AcDb2dPolyline
 66
     1
 10
0.0
 20
0.0
 30
3.646124999999996
 70
     4
 75
     6
  0
VERTEX
  5
576DC
330
576DB
100
AcDbEntity
  8
0
 62
     0
100
AcDbVertex
100
AcDb2dVertex
 10
824.052330511828
 20
466.9774982875378
 30
3.646124999999996
 70
    16
  0
VERTEX
  5
576DD
330
576DB
100
AcDbEntity
  8
0
 62
     0
100
AcDbVertex
100
AcDb2dVertex
 10
824.052330511828
 20
466.9774982875378
 30
3.646124999999996
 70
     8
  0
VERTEX
  5
576DE
330
576DB
100
AcDbEntity
  8
0
 62
     0
100
AcDbVertex
100
AcDb2dVertex
 10
824.7332122875333
 20
466.9429469299832
 30
3.646124999999996
 70
     8
  0
VERTEX
  5
576DF
330
576DB
100
AcDbEntity
  8
0
 62
     0
100
AcDbVertex
100
AcDb2dVertex
 10
825.2990956236107
 20
466.8948721164265
 30
3.646124999999996
 70
     8
  0
VERTEX
  5
576E0
330
576DB
100
AcDbEntity
  8
0
 62
     0
100
AcDbVertex
100
AcDb2dVertex
 10
825.7668385781139
 20
466.8355277242206
 30
3.646124999999996
 70
     8
  0
VERTEX
  5
576E1
330
576DB
100
AcDbEntity
  8
0
 62
     0
100
AcDbVertex
100
AcDb2dVertex
 10
826.1532992090845
 20
466.767167630723
 30
3.646124999999996
 70
     8
  0
VERTEX
  5
576E2
330
576DB
100
AcDbEntity
  8
0
 62
     0
100
AcDbVertex
100
AcDb2dVertex
 10
826.4753355745765
 20
466.6920457132865
 30
3.646124999999996
 70
     8
  0
VERTEX
  5
576E3
330
576DB
100
AcDbEntity
  8
0
 62
     0
100
AcDbVertex
100
AcDb2dVertex
 10
826.7498057326374
 20
466.6124158492657
 30
3.646124999999996
 70
     8
  0
VERTEX
  5
576E4
330
576DB
100
AcDbEntity
  8
0
 62
     0
100
AcDbVertex
100
AcDb2dVertex
 10
826.9935677413178
 20
466.5305319160165
 30
3.646124999999996
 70
     8
  0
VERTEX
  5
576E5
330
576DB
100
AcDbEntity
  8
0
 62
     0
100
AcDbVertex
100
AcDb2dVertex
 10
827.2234796586596
 20
466.4486477908905
 30
3.646124999999996
 70
     8
  0
VERTEX
  5
576E6
330
576DB
100
AcDbEntity
  8
0
 62
     0
100
AcDbVertex
100
AcDb2dVertex
 10
827.4536838655011
 20
466.3688138620954
 30
3.646124999999996
 70
     8
  0
VERTEX
  5
576E7
330
576DB
100
AcDbEntity
  8
0
 62
     0
100
AcDbVertex
100
AcDb2dVertex
 10
827.6874600337981
 20
466.2922665612308
 30
3.646124999999996
 70
     8
  0
VERTEX
  5
576E8
330
576DB
100
AcDbEntity
  8
0
 62
     0
100
AcDbVertex
100
AcDb2dVertex
 10
827.9253721582934
 20
466.2200388307465
 30
3.646124999999996
 70
     8
  0
VERTEX
  5
576E9
330
576DB
100
AcDbEntity
  8
0
 62
     0
100
AcDbVertex
100
AcDb2dVertex
 10
828.1679842337251
 20
466.1531636130954
 30
3.646124999999996
 70
     8
  0
VERTEX
  5
576EA
330
576DB
100
AcDbEntity
  8
0
 62
     0
100
AcDbVertex
100
AcDb2dVertex
 10
828.415860254833
 20
466.0926738507272
 30
3.646124999999996
 70
     8
  0
VERTEX
  5
576EB
330
576DB
100
AcDbEntity
  8
0
 62
     0
100
AcDbVertex
100
AcDb2dVertex
 10
828.6695642163634
 20
466.0396024860935
 30
3.646124999999996
 70
     8
  0
VERTEX
  5
576EC
330
576DB
100
AcDbEntity
  8
0
 62
     0
100
AcDbVertex
100
AcDb2dVertex
 10
828.929660113051
 20
465.9949824616441
 30
3.646124999999996
 70
     8
  0
VERTEX
  5
576ED
330
576DB
100
AcDbEntity
  8
0
 62
     0
100
AcDbVertex
100
AcDb2dVertex
 10
829.1967119396417
 20
465.9598467198303
 30
3.646124999999996
 70
     8
  0
VERTEX
  5
576EE
330
576DB
100
AcDbEntity
  8
0
 62
     0
100
AcDbVertex
100
AcDb2dVertex
 10
829.4708450284073
 20
465.935087348089
 30
3.646124999999996
 70
     8
  0
VERTEX
  5
576EF
330
576DB
100
AcDbEntity
  8
0
 62
     0
100
AcDbVertex
100
AcDb2dVertex
 10
829.7504300617505
 20
465.9210330137926
 30
3.646124999999996
 70
     8
  0
VERTEX
  5
576F0
330
576DB
100
AcDbEntity
  8
0
 62
     0
100
AcDbVertex
100
AcDb2dVertex
 10
830.0333990596143
 20
465.9178715293035
 30
3.646124999999996
 70
     8
  0
VERTEX
  5
576F1
330
576DB
100
AcDbEntity
  8
0
 62
     0
100
AcDbVertex
100
AcDb2dVertex
 10
830.3176840419329
 20
465.9257907069796
 30
3.646124999999996
 70
     8
  0
VERTEX
  5
576F2
330
576DB
100
AcDbEntity
  8
0
 62
     0
100
AcDbVertex
100
AcDb2dVertex
 10
830.6012170286463
 20
465.9449783591803
 30
3.646124999999996
 70
     8
  0
VERTEX
  5
576F3
330
576DB
100
AcDbEntity
  8
0
 62
     0
100
AcDbVertex
100
AcDb2dVertex
 10
830.8819300396914
 20
465.975622298265
 30
3.646124999999996
 70
     8
  0
VERTEX
  5
576F4
330
576DB
100
AcDbEntity
  8
0
 62
     0
100
AcDbVertex
100
AcDb2dVertex
 10
831.1577550950055
 20
466.0179103365946
 30
3.646124999999996
 70
     8
  0
VERTEX
  5
576F5
330
576DB
100
AcDbEntity
  8
0
 62
     0
100
AcDbVertex
100
AcDb2dVertex
 10
831.4266242145286
 20
466.0720302865285
 30
3.646124999999996
 70
     8
  0
VERTEX
  5
576F6
330
576DB
100
AcDbEntity
  8
0
 62
     0
100
AcDbVertex
100
AcDb2dVertex
 10
831.6869080809926
 20
466.1380760548989
 30
3.646124999999996
 70
     8
  0
VERTEX
  5
576F7
330
576DB
100
AcDbEntity
  8
0
 62
     0
100
AcDbVertex
100
AcDb2dVertex
 10
831.9387320283066
 20
466.2157659264428
 30
3.646124999999996
 70
     8
  0
VERTEX
  5
576F8
330
576DB
100
AcDbEntity
  8
0
 62
     0
100
AcDbVertex
100
AcDb2dVertex
 10
832.1826600531775
 20
466.3047242803643
 30
3.646124999999996
 70
     8
  0
VERTEX
  5
576F9
330
576DB
100
AcDbEntity
  8
0
 62
     0
100
AcDbVertex
100
AcDb2dVertex
 10
832.4192561523059
 20
466.4045754958732
 30
3.646124999999996
 70
     8
  0
VERTEX
  5
576FA
330
576DB
100
AcDbEntity
  8
0
 62
     0
100
AcDbVertex
100
AcDb2dVertex
 10
832.6490843223991
 20
466.5149439521794
 30
3.646124999999996
 70
     8
  0
VERTEX
  5
576FB
330
576DB
100
AcDbEntity
  8
0
 62
     0
100
AcDbVertex
100
AcDb2dVertex
 10
832.8727085601608
 20
466.6354540284868
 30
3.646124999999996
 70
     8
  0
VERTEX
  5
576FC
330
576DB
100
AcDbEntity
  8
0
 62
     0
100
AcDbVertex
100
AcDb2dVertex
 10
833.0906928622979
 20
466.7657301040069
 30
3.646124999999996
 70
     8
  0
VERTEX
  5
576FD
330
576DB
100
AcDbEntity
  8
0
 62
     0
100
AcDbVertex
100
AcDb2dVertex
 10
833.3036012255087
 20
466.9053965579466
 30
3.646124999999996
 70
     8
  0
VERTEX
  5
576FE
330
576DB
100
AcDbEntity
  8
0
 62
     0
100
AcDbVertex
100
AcDb2dVertex
 10
833.5119036457438
 20
467.0537960591572
 30
3.646124999999996
 70
     8
  0
VERTEX
  5
576FF
330
576DB
100
AcDbEntity
  8
0
 62
     0
100
AcDbVertex
100
AcDb2dVertex
 10
833.7156941159079
 20
467.2091444350567
 30
3.646124999999996
 70
     8
  0
VERTEX
  5
57700
330
576DB
100
AcDbEntity
  8
0
 62
     0
100
AcDbVertex
100
AcDb2dVertex
 10
833.9149726281434
 20
467.3693758027074
 30
3.646124999999996
 70
     8
  0
VERTEX
  5
57701
330
576DB
100
AcDbEntity
  8
0
 62
     0
100
AcDbVertex
100
AcDb2dVertex
 10
834.1097391745963
 20
467.5324242791716
 30
3.646124999999996
 70
     8
  0
VERTEX
  5
57702
330
576DB
100
AcDbEntity
  8
0
 62
     0
100
AcDbVertex
100
AcDb2dVertex
 10
834.2999937474147
 20
467.6962239815102
 30
3.646124999999996
 70
     8
  0
VERTEX
  5
57703
330
576DB
100
AcDbEntity
  8
0
 62
     0
100
AcDbVertex
100
AcDb2dVertex
 10
834.4857363387443
 20
467.8587090267855
 30
3.646124999999996
 70
     8
  0
VERTEX
  5
57704
330
576DB
100
AcDbEntity
  8
0
 62
     0
100
AcDbVertex
100
AcDb2dVertex
 10
834.666966940728
 20
468.0178135320614
 30
3.646124999999996
 70
     8
  0
VERTEX
  5
57705
330
576DB
100
AcDbEntity
  8
0
 62
     0
100
AcDbVertex
100
AcDb2dVertex
 10
834.8436855455112
 20
468.1714716143958
 30
3.646124999999996
 70
     8
  0
VERTEX
  5
57706
330
576DB
100
AcDbEntity
  8
0
 62
     0
100
AcDbVertex
100
AcDb2dVertex
 10
835.0162368118613
 20
468.3179304032727
 30
3.646124999999996
 70
     8
  0
VERTEX
  5
57707
330
576DB
100
AcDbEntity
  8
0
 62
     0
100
AcDbVertex
100
AcDb2dVertex
 10
835.1863440649985
 20
468.4566890778383
 30
3.646124999999996
 70
     8
  0
VERTEX
  5
57708
330
576DB
100
AcDbEntity
  8
0
 62
     0
100
AcDbVertex
100
AcDb2dVertex
 10
835.3560752967725
 20
468.5875598296618
 30
3.646124999999996
 70
     8
  0
VERTEX
  5
57709
330
576DB
100
AcDbEntity
  8
0
 62
     0
100
AcDbVertex
100
AcDb2dVertex
 10
835.5274984990224
 20
468.710354850311
 30
3.646124999999996
 70
     8
  0
VERTEX
  5
5770A
330
576DB
100
AcDbEntity
  8
0
 62
     0
100
AcDbVertex
100
AcDb2dVertex
 10
835.7026816635926
 20
468.8248863313522
 30
3.646124999999996
 70
     8
  0
VERTEX
  5
5770B
330
576DB
100
AcDbEntity
  8
0
 62
     0
100
AcDbVertex
100
AcDb2dVertex
 10
835.8836927823276
 20
468.9309664643547
 30
3.646124999999996
 70
     8
  0
VERTEX
  5
5770C
330
576DB
100
AcDbEntity
  8
0
 62
     0
100
AcDbVertex
100
AcDb2dVertex
 10
836.0725998470689
 20
469.0284074408864
 30
3.646124999999996
 70
     8
  0
VERTEX
  5
5770D
330
576DB
100
AcDbEntity
  8
0
 62
     0
100
AcDbVertex
100
AcDb2dVertex
 10
836.2714708496643
 20
469.1170214525135
 30
3.646124999999996
 70
     8
  0
VERTEX
  5
5770E
330
576DB
100
AcDbEntity
  8
0
 62
     0
100
AcDbVertex
100
AcDb2dVertex
 10
836.4819037833907
 20
469.196651991881
 30
3.646124999999996
 70
     8
  0
VERTEX
  5
5770F
330
576DB
100
AcDbEntity
  8
0
 62
     0
100
AcDbVertex
100
AcDb2dVertex
 10
836.70361664728
 20
469.2672677559495
 30
3.646124999999996
 70
     8
  0
VERTEX
  5
57710
330
576DB
100
AcDbEntity
  8
0
 62
     0
100
AcDbVertex
100
AcDb2dVertex
 10
836.9358574417969
 20
469.3288687427541
 30
3.646124999999996
 70
     8
  0
VERTEX
  5
57711
330
576DB
100
AcDbEntity
  8
0
 62
     0
100
AcDbVertex
100
AcDb2dVertex
 10
837.1778741674122
 20
469.3814549503326
 30
3.646124999999996
 70
     8
  0
VERTEX
  5
57712
330
576DB
100
AcDbEntity
  8
0
 62
     0
100
AcDbVertex
100
AcDb2dVertex
 10
837.4289148245871
 20
469.4250263767186
 30
3.646124999999996
 70
     8
  0
VERTEX
  5
57713
330
576DB
100
AcDbEntity
  8
0
 62
     0
100
AcDbVertex
100
AcDb2dVertex
 10
837.6882274137924
 20
469.4595830199511
 30
3.646124999999996
 70
     8
  0
VERTEX
  5
57714
330
576DB
100
AcDbEntity
  8
0
 62
     0
100
AcDbVertex
100
AcDb2dVertex
 10
837.9550599354956
 20
469.4851248780639
 30
3.646124999999996
 70
     8
  0
VERTEX
  5
57715
330
576DB
100
AcDbEntity
  8
0
 62
     0
100
AcDbVertex
100
AcDb2dVertex
 10
838.2286603901587
 20
469.5016519490962
 30
3.646124999999996
 70
     8
  0
VERTEX
  5
57716
330
576DB
100
AcDbEntity
  8
0
 62
     0
100
AcDbVertex
100
AcDb2dVertex
 10
838.5079947825188
 20
469.509320738438
 30
3.646124999999996
 70
     8
  0
VERTEX
  5
57717
330
576DB
100
AcDbEntity
  8
0
 62
     0
100
AcDbVertex
100
AcDb2dVertex
 10
838.7909011343706
 20
469.5089137808953
 30
3.646124999999996
 70
     8
  0
VERTEX
  5
57718
330
576DB
100
AcDbEntity
  8
0
 62
     0
100
AcDbVertex
100
AcDb2dVertex
 10
839.074935471779
 20
469.5013701186319
 30
3.646124999999996
 70
     8
  0
VERTEX
  5
57719
330
576DB
100
AcDbEntity
  8
0
 62
     0
100
AcDbVertex
100
AcDb2dVertex
 10
839.3576538208025
 20
469.487628793809
 30
3.646124999999996
 70
     8
  0
VERTEX
  5
5771A
330
576DB
100
AcDbEntity
  8
0
 62
     0
100
AcDbVertex
100
AcDb2dVertex
 10
839.6366122075056
 20
469.4686288485874
 30
3.646124999999996
 70
     8
  0
VERTEX
  5
5771B
330
576DB
100
AcDbEntity
  8
0
 62
     0
100
AcDbVertex
100
AcDb2dVertex
 10
839.9093666579503
 20
469.445309325131
 30
3.646124999999996
 70
     8
  0
VERTEX
  5
5771C
330
576DB
100
AcDbEntity
  8
0
 62
     0
100
AcDbVertex
100
AcDb2dVertex
 10
840.1734731981978
 20
469.418609265601
 30
3.646124999999996
 70
     8
  0
VERTEX
  5
5771D
330
576DB
100
AcDbEntity
  8
0
 62
     0
100
AcDbVertex
100
AcDb2dVertex
 10
840.4264878543129
 20
469.3894677121567
 30
3.646124999999996
 70
     8
  0
VERTEX
  5
5771E
330
576DB
100
AcDbEntity
  8
0
 62
     0
100
AcDbVertex
100
AcDb2dVertex
 10
840.6668126434832
 20
469.3586985010149
 30
3.646124999999996
 70
     8
  0
VERTEX
  5
5771F
330
576DB
100
AcDbEntity
  8
0
 62
     0
100
AcDbVertex
100
AcDb2dVertex
 10
840.8962335474223
 20
469.3266146445915
 30
3.646124999999996
 70
     8
  0
VERTEX
  5
57720
330
576DB
100
AcDbEntity
  8
0
 62
     0
100
AcDbVertex
100
AcDb2dVertex
 10
841.1173825389699
 20
469.2934039493549
 30
3.646124999999996
 70
     8
  0
VERTEX
  5
57721
330
576DB
100
AcDbEntity
  8
0
 62
     0
100
AcDbVertex
100
AcDb2dVertex
 10
841.33289159096
 20
469.2592542217755
 30
3.646124999999996
 70
     8
  0
VERTEX
  5
57722
330
576DB
100
AcDbEntity
  8
0
 62
     0
100
AcDbVertex
100
AcDb2dVertex
 10
841.545392676238
 20
469.2243532683201
 30
3.646124999999996
 70
     8
  0
VERTEX
  5
57723
330
576DB
100
AcDbEntity
  8
0
 62
     0
100
AcDbVertex
100
AcDb2dVertex
 10
841.7575177676376
 20
469.1888888954589
 30
3.646124999999996
 70
     8
  0
VERTEX
  5
57724
330
576DB
100
AcDbEntity
  8
0
 62
     0
100
AcDbVertex
100
AcDb2dVertex
 10
841.9718988380013
 20
469.1530489096606
 30
3.646124999999996
 70
     8
  0
VERTEX
  5
57725
330
576DB
100
AcDbEntity
  8
0
 62
     0
100
AcDbVertex
100
AcDb2dVertex
 10
842.191167860169
 20
469.1170211173921
 30
3.646124999999996
 70
     8
  0
VERTEX
  5
57726
330
576DB
100
AcDbEntity
  8
0
 62
     0
100
AcDbVertex
100
AcDb2dVertex
 10
842.4173928122369
 20
469.0816506526742
 30
3.646124999999996
 70
     8
  0
VERTEX
  5
57727
330
576DB
100
AcDbEntity
  8
0
 62
     0
100
AcDbVertex
100
AcDb2dVertex
 10
842.6503856933402
 20
469.0504119597225
 30
3.646124999999996
 70
     8
  0
VERTEX
  5
57728
330
576DB
100
AcDbEntity
  8
0
 62
     0
100
AcDbVertex
100
AcDb2dVertex
 10
842.8893945078737
 20
469.0274368103059
 30
3.646124999999996
 70
     8
  0
VERTEX
  5
57729
330
576DB
100
AcDbEntity
  8
0
 62
     0
100
AcDbVertex
100
AcDb2dVertex
 10
843.133667260232
 20
469.0168569761905
 30
3.646124999999996
 70
     8
  0
VERTEX
  5
5772A
330
576DB
100
AcDbEntity
  8
0
 62
     0
100
AcDbVertex
100
AcDb2dVertex
 10
843.3824519548071
 20
469.022804229144
 30
3.646124999999996
 70
     8
  0
VERTEX
  5
5772B
330
576DB
100
AcDbEntity
  8
0
 62
     0
100
AcDbVertex
100
AcDb2dVertex
 10
843.6349965959966
 20
469.0494103409311
 30
3.646124999999996
 70
     8
  0
VERTEX
  5
5772C
330
576DB
100
AcDbEntity
  8
0
 62
     0
100
AcDbVertex
100
AcDb2dVertex
 10
843.8905491881893
 20
469.1008070833221
 30
3.646124999999996
 70
     8
  0
VERTEX
  5
5772D
330
576DB
100
AcDbEntity
  8
0
 62
     0
100
AcDbVertex
100
AcDb2dVertex
 10
844.1483577357832
 20
469.1811262280833
 30
3.646124999999996
 70
     8
  0
VERTEX
  5
5772E
330
576DB
100
AcDbEntity
  8
0
 62
     0
100
AcDbVertex
100
AcDb2dVertex
 10
844.4073255804841
 20
469.2935292066851
 30
3.646124999999996
 70
     8
  0
VERTEX
  5
5772F
330
576DB
100
AcDbEntity
  8
0
 62
     0
100
AcDbVertex
100
AcDb2dVertex
 10
844.6649774132369
 20
469.4372960894241
 30
3.646124999999996
 70
     8
  0
VERTEX
  5
57730
330
576DB
100
AcDbEntity
  8
0
 62
     0
100
AcDbVertex
100
AcDb2dVertex
 10
844.9184932623037
 20
469.6107366062983
 30
3.646124999999996
 70
     8
  0
VERTEX
  5
57731
330
576DB
100
AcDbEntity
  8
0
 62
     0
100
AcDbVertex
100
AcDb2dVertex
 10
845.1650531559405
 20
469.8121604873076
 30
3.646124999999996
 70
     8
  0
VERTEX
  5
57732
330
576DB
100
AcDbEntity
  8
0
 62
     0
100
AcDbVertex
100
AcDb2dVertex
 10
845.4018371224121
 20
470.0398774624511
 30
3.646124999999996
 70
     8
  0
VERTEX
  5
57733
330
576DB
100
AcDbEntity
  8
0
 62
     0
100
AcDbVertex
100
AcDb2dVertex
 10
845.6260251899719
 20
470.2921972617272
 30
3.646124999999996
 70
     8
  0
VERTEX
  5
57734
330
576DB
100
AcDbEntity
  8
0
 62
     0
100
AcDbVertex
100
AcDb2dVertex
 10
845.8347973868818
 20
470.5674296151382
 30
3.646124999999996
 70
     8
  0
VERTEX
  5
57735
330
576DB
100
AcDbEntity
  8
0
 62
     0
100
AcDbVertex
100
AcDb2dVertex
 10
846.0253337414036
 20
470.8638842526808
 30
3.646124999999996
 70
     8
  0
VERTEX
  5
57736
330
576DB
100
AcDbEntity
  8
0
 62
     0
100
AcDbVertex
100
AcDb2dVertex
 10
846.1958169393261
 20
471.1793387821002
 30
3.646124999999996
 70
     8
  0
VERTEX
  5
57737
330
576DB
100
AcDbEntity
  8
0
 62
     0
100
AcDbVertex
100
AcDb2dVertex
 10
846.3484402965903
 20
471.5094423221192
 30
3.646124999999996
 70
     8
  0
VERTEX
  5
57738
330
576DB
100
AcDbEntity
  8
0
 62
     0
100
AcDbVertex
100
AcDb2dVertex
 10
846.4863997866643
 20
471.8493118692038
 30
3.646124999999996
 70
     8
  0
VERTEX
  5
57739
330
576DB
100
AcDbEntity
  8
0
 62
     0
100
AcDbVertex
100
AcDb2dVertex
 10
846.6128913830218
 20
472.1940644198213
 30
3.646124999999996
 70
     8
  0
VERTEX
  5
5773A
330
576DB
100
AcDbEntity
  8
0
 62
     0
100
AcDbVertex
100
AcDb2dVertex
 10
846.7311110591303
 20
472.5388169704387
 30
3.646124999999996
 70
     8
  0
VERTEX
  5
5773B
330
576DB
100
AcDbEntity
  8
0
 62
     0
100
AcDbVertex
100
AcDb2dVertex
 10
846.844254788461
 20
472.8786865175234
 30
3.646124999999996
 70
     8
  0
VERTEX
  5
5773C
330
576DB
100
AcDbEntity
  8
0
 62
     0
100
AcDbVertex
100
AcDb2dVertex
 10
846.9555185444844
 20
473.208790057541
 30
3.646124999999996
 70
     8
  0
VERTEX
  5
5773D
330
576DB
100
AcDbEntity
  8
0
 62
     0
100
AcDbVertex
100
AcDb2dVertex
 10
847.0680983006744
 20
473.5242445869602
 30
3.646124999999996
 70
     8
  0
VERTEX
  5
5773E
330
576DB
100
AcDbEntity
  8
0
 62
     0
100
AcDbVertex
100
AcDb2dVertex
 10
847.1846260351059
 20
473.8209183336874
 30
3.646124999999996
 70
     8
  0
VERTEX
  5
5773F
330
576DB
100
AcDbEntity
  8
0
 62
     0
100
AcDbVertex
100
AcDb2dVertex
 10
847.3054777442701
 20
474.0976844513796
 30
3.646124999999996
 70
     8
  0
VERTEX
  5
57740
330
576DB
100
AcDbEntity
  8
0
 62
     0
100
AcDbVertex
100
AcDb2dVertex
 10
847.4304654292662
 20
474.3541673251392
 30
3.646124999999996
 70
     8
  0
VERTEX
  5
57741
330
576DB
100
AcDbEntity
  8
0
 62
     0
100
AcDbVertex
100
AcDb2dVertex
 10
847.5594010911956
 20
474.5899913400624
 30
3.646124999999996
 70
     8
  0
VERTEX
  5
57742
330
576DB
100
AcDbEntity
  8
0
 62
     0
100
AcDbVertex
100
AcDb2dVertex
 10
847.692096731154
 20
474.8047808812483
 30
3.646124999999996
 70
     8
  0
VERTEX
  5
57743
330
576DB
100
AcDbEntity
  8
0
 62
     0
100
AcDbVertex
100
AcDb2dVertex
 10
847.8283643502376
 20
474.9981603337976
 30
3.646124999999996
 70
     8
  0
VERTEX
  5
57744
330
576DB
100
AcDbEntity
  8
0
 62
     0
100
AcDbVertex
100
AcDb2dVertex
 10
847.9680159495531
 20
475.1697540828081
 30
3.646124999999996
 70
     8
  0
VERTEX
  5
57745
330
576DB
100
AcDbEntity
  8
0
 62
     0
100
AcDbVertex
100
AcDb2dVertex
 10
848.1108635301911
 20
475.3191865133775
 30
3.646124999999996
 70
     8
  0
VERTEX
  5
57746
330
576DB
100
AcDbEntity
  8
0
 62
     0
100
AcDbVertex
100
AcDb2dVertex
 10
848.2568444251981
 20
475.4468958442011
 30
3.646124999999996
 70
     8
  0
VERTEX
  5
57747
330
576DB
100
AcDbEntity
  8
0
 62
     0
100
AcDbVertex
100
AcDb2dVertex
 10
848.4063972954087
 20
475.5565756283526
 30
3.646124999999996
 70
     8
  0
VERTEX
  5
57748
330
576DB
100
AcDbEntity
  8
0
 62
     0
100
AcDbVertex
100
AcDb2dVertex
 10
848.5600861335939
 20
475.6527332524976
 30
3.646124999999996
 70
     8
  0
VERTEX
  5
57749
330
576DB
100
AcDbEntity
  8
0
 62
     0
100
AcDbVertex
100
AcDb2dVertex
 10
848.7184749325388
 20
475.7398761033072
 30
3.646124999999996
 70
     8
  0
VERTEX
  5
5774A
330
576DB
100
AcDbEntity
  8
0
 62
     0
100
AcDbVertex
100
AcDb2dVertex
 10
848.8821276850144
 20
475.8225115674485
 30
3.646124999999996
 70
     8
  0
VERTEX
  5
5774B
330
576DB
100
AcDbEntity
  8
0
 62
     0
100
AcDbVertex
100
AcDb2dVertex
 10
849.0516083838004
 20
475.9051470315898
 30
3.646124999999996
 70
     8
  0
VERTEX
  5
5774C
330
576DB
100
AcDbEntity
  8
0
 62
     0
100
AcDbVertex
100
AcDb2dVertex
 10
849.2274810216738
 20
475.9922898823994
 30
3.646124999999996
 70
     8
  0
VERTEX
  5
5774D
330
576DB
100
AcDbEntity
  8
0
 62
     0
100
AcDbVertex
100
AcDb2dVertex
 10
849.4103095914109
 20
476.0884475065458
 30
3.646124999999996
 70
     8
  0
VERTEX
  5
5774E
330
576DB
100
AcDbEntity
  8
0
 62
     0
100
AcDbVertex
100
AcDb2dVertex
 10
849.5999060928053
 20
476.1971569504018
 30
3.646124999999996
 70
     8
  0
VERTEX
  5
5774F
330
576DB
100
AcDbEntity
  8
0
 62
     0
100
AcDbVertex
100
AcDb2dVertex
 10
849.7930745536887
 20
476.3180738991631
 30
3.646124999999996
 70
     8
  0
VERTEX
  5
57750
330
576DB
100
AcDbEntity
  8
0
 62
     0
100
AcDbVertex
100
AcDb2dVertex
 10
849.985867008915
 20
476.4498836977303
 30
3.646124999999996
 70
     8
  0
VERTEX
  5
57751
330
576DB
100
AcDbEntity
  8
0
 62
     0
100
AcDbVertex
100
AcDb2dVertex
 10
850.1743354933354
 20
476.5912716910036
 30
3.646124999999996
 70
     8
  0
VERTEX
  5
57752
330
576DB
100
AcDbEntity
  8
0
 62
     0
100
AcDbVertex
100
AcDb2dVertex
 10
850.3545320417984
 20
476.740923223885
 30
3.646124999999996
 70
     8
  0
VERTEX
  5
57753
330
576DB
100
AcDbEntity
  8
0
 62
     0
100
AcDbVertex
100
AcDb2dVertex
 10
850.5225086891552
 20
476.8975236412731
 30
3.646124999999996
 70
     8
  0
VERTEX
  5
57754
330
576DB
100
AcDbEntity
  8
0
 62
     0
100
AcDbVertex
100
AcDb2dVertex
 10
850.6743174702565
 20
477.0597582880684
 30
3.646124999999996
 70
     8
  0
VERTEX
  5
57755
330
576DB
100
AcDbEntity
  8
0
 62
     0
100
AcDbVertex
100
AcDb2dVertex
 10
850.8060104199541
 20
477.2263125091741
 30
3.646124999999996
 70
     8
  0
VERTEX
  5
57756
330
576DB
100
AcDbEntity
  8
0
 62
     0
100
AcDbVertex
100
AcDb2dVertex
 10
850.9141252346315
 20
477.39607510846
 30
3.646124999999996
 70
     8
  0
VERTEX
  5
57757
330
576DB
100
AcDbEntity
  8
0
 62
     0
100
AcDbVertex
100
AcDb2dVertex
 10
850.9971422568325
 20
477.568748725683
 30
3.646124999999996
 70
     8
  0
VERTEX
  5
57758
330
576DB
100
AcDbEntity
  8
0
 62
     0
100
AcDbVertex
100
AcDb2dVertex
 10
851.0540274906391
 20
477.7442394595754
 30
3.646124999999996
 70
     8
  0
VERTEX
  5
57759
330
576DB
100
AcDbEntity
  8
0
 62
     0
100
AcDbVertex
100
AcDb2dVertex
 10
851.0837469401216
 20
477.9224534088635
 30
3.646124999999996
 70
     8
  0
VERTEX
  5
5775A
330
576DB
100
AcDbEntity
  8
0
 62
     0
100
AcDbVertex
100
AcDb2dVertex
 10
851.0852666093626
 20
478.1032966722782
 30
3.646124999999996
 70
     8
  0
VERTEX
  5
5775B
330
576DB
100
AcDbEntity
  8
0
 62
     0
100
AcDbVertex
100
AcDb2dVertex
 10
851.0575525024409
 20
478.2866753485487
 30
3.646124999999996
 70
     8
  0
VERTEX
  5
5775C
330
576DB
100
AcDbEntity
  8
0
 62
     0
100
AcDbVertex
100
AcDb2dVertex
 10
850.9995706234329
 20
478.4724955364028
 30
3.646124999999996
 70
     8
  0
VERTEX
  5
5775D
330
576DB
100
AcDbEntity
  8
0
 62
     0
100
AcDbVertex
100
AcDb2dVertex
 10
850.9102869764149
 20
478.6606633345713
 30
3.646124999999996
 70
     8
  0
VERTEX
  5
5775E
330
576DB
100
AcDbEntity
  8
0
 62
     0
100
AcDbVertex
100
AcDb2dVertex
 10
850.7901715540661
 20
478.8520864811913
 30
3.646124999999996
 70
     8
  0
VERTEX
  5
5775F
330
576DB
100
AcDbEntity
  8
0
 62
     0
100
AcDbVertex
100
AcDb2dVertex
 10
850.6457103034257
 20
479.0516792720379
 30
3.646124999999996
 70
     8
  0
VERTEX
  5
57760
330
576DB
100
AcDbEntity
  8
0
 62
     0
100
AcDbVertex
100
AcDb2dVertex
 10
850.4848931601383
 20
479.2653576422968
 30
3.646124999999996
 70
     8
  0
VERTEX
  5
57761
330
576DB
100
AcDbEntity
  8
0
 62
     0
100
AcDbVertex
100
AcDb2dVertex
 10
850.3157100598462
 20
479.4990375271496
 30
3.646124999999996
 70
     8
  0
VERTEX
  5
57762
330
576DB
100
AcDbEntity
  8
0
 62
     0
100
AcDbVertex
100
AcDb2dVertex
 10
850.1461509381854
 20
479.7586348617819
 30
3.646124999999996
 70
     8
  0
VERTEX
  5
57763
330
576DB
100
AcDbEntity
  8
0
 62
     0
100
AcDbVertex
100
AcDb2dVertex
 10
849.9842057308006
 20
480.0500655813784
 30
3.646124999999996
 70
     8
  0
VERTEX
  5
57764
330
576DB
100
AcDbEntity
  8
0
 62
     0
100
AcDbVertex
100
AcDb2dVertex
 10
849.8378643733312
 20
480.3792456211215
 30
3.646124999999996
 70
     8
  0
VERTEX
  5
57765
330
576DB
100
AcDbEntity
  8
0
 62
     0
100
AcDbVertex
100
AcDb2dVertex
 10
849.7151168014159
 20
480.752090916196
 30
3.646124999999996
 70
     8
  0
VERTEX
  5
57766
330
576DB
100
AcDbEntity
  8
0
 62
     0
100
AcDbVertex
100
AcDb2dVertex
 10
826.0363314403651
 20
466.9053960552652
 30
3.646124999999996
 70
    16
  0
VERTEX
  5
57767
330
576DB
100
AcDbEntity
  8
0
 62
     0
100
AcDbVertex
100
AcDb2dVertex
 10
827.1913946803685
 20
466.424608479107
 30
3.646124999999996
 70
    16
  0
VERTEX
  5
57768
330
576DB
100
AcDbEntity
  8
0
 62
     0
100
AcDbVertex
100
AcDb2dVertex
 10
829.1164994101304
 20
465.8476629855721
 30
3.646124999999996
 70
    16
  0
VERTEX
  5
57769
330
576DB
100
AcDbEntity
  8
0
 62
     0
100
AcDbVertex
100
AcDb2dVertex
 10
831.5228793169691
 20
465.9438198975862
 30
3.646124999999996
 70
    16
  0
VERTEX
  5
5776A
330
576DB
100
AcDbEntity
  8
0
 62
     0
100
AcDbVertex
100
AcDb2dVertex
 10
833.3517286091703
 20
466.8092391432511
 30
3.646124999999996
 70
    16
  0
VERTEX
  5
5776B
330
576DB
100
AcDbEntity
  8
0
 62
     0
100
AcDbVertex
100
AcDb2dVertex
 10
834.8918135994129
 20
468.2516028770898
 30
3.646124999999996
 70
    16
  0
VERTEX
  5
5776C
330
576DB
100
AcDbEntity
  8
0
 62
     0
100
AcDbVertex
100
AcDb2dVertex
 10
836.1431302662511
 20
469.2131790347688
 30
3.646124999999996
 70
    16
  0
VERTEX
  5
5776D
330
576DB
100
AcDbEntity
  8
0
 62
     0
100
AcDbVertex
100
AcDb2dVertex
 10
838.1644904335734
 20
469.5978096989129
 30
3.646124999999996
 70
    16
  0
VERTEX
  5
5776E
330
576DB
100
AcDbEntity
  8
0
 62
     0
100
AcDbVertex
100
AcDb2dVertex
 10
840.5708703404123
 20
469.4054938641595
 30
3.646124999999996
 70
    16
  0
VERTEX
  5
5776F
330
576DB
100
AcDbEntity
  8
0
 62
     0
100
AcDbVertex
100
AcDb2dVertex
 10
842.1109553306546
 20
469.1170211173921
 30
3.646124999999996
 70
    16
  0
VERTEX
  5
57770
330
576DB
100
AcDbEntity
  8
0
 62
     0
100
AcDbVertex
100
AcDb2dVertex
 10
844.132315497977
 20
468.8285483706247
 30
3.646124999999996
 70
    16
  0
VERTEX
  5
57771
330
576DB
100
AcDbEntity
  8
0
 62
     0
100
AcDbVertex
100
AcDb2dVertex
 10
846.2499290921371
 20
470.655542768606
 30
3.646124999999996
 70
    16
  0
VERTEX
  5
57772
330
576DB
100
AcDbEntity
  8
0
 62
     0
100
AcDbVertex
100
AcDb2dVertex
 10
847.0199705818956
 20
473.7325860710352
 30
3.646124999999996
 70
    16
  0
VERTEX
  5
57773
330
576DB
100
AcDbEntity
  8
0
 62
     0
100
AcDbVertex
100
AcDb2dVertex
 10
848.0787783843357
 20
475.5595804690179
 30
3.646124999999996
 70
    16
  0
VERTEX
  5
57774
330
576DB
100
AcDbEntity
  8
0
 62
     0
100
AcDbVertex
100
AcDb2dVertex
 10
849.3300970618994
 20
475.9442111331621
 30
3.646124999999996
 70
    16
  0
VERTEX
  5
57775
330
576DB
100
AcDbEntity
  8
0
 62
     0
100
AcDbVertex
100
AcDb2dVertex
 10
851.0626909165402
 20
477.1942600376085
 30
3.646124999999996
 70
    16
  0
VERTEX
  5
57776
330
576DB
100
AcDbEntity
  8
0
 62
     0
100
AcDbVertex
100
AcDb2dVertex
 10
851.2552017916613
 20
478.6366237714472
 30
3.646124999999996
 70
    16
  0
VERTEX
  5
57777
330
576DB
100
AcDbEntity
  8
0
 62
     0
100
AcDbVertex
100
AcDb2dVertex
 10
850.0038831140974
 20
479.6943578465029
 30
3.646124999999996
 70
    16
  0
VERTEX
  5
57778
330
576DB
100
AcDbEntity
  8
0
 62
     0
100
AcDbVertex
100
AcDb2dVertex
 10
849.7151168014159
 20
480.752090916196
 30
3.646124999999996
 70
    16
  0
SEQEND
  5
57779
330
576DB
100
AcDbEntity
  8
0
 62
     0
  0
POLYLINE
  5
5777A
330
458D6
100
AcDbEntity
  8
0
 62
     0
100
AcDb2dPolyline
 66
     1
 10
0.0
 20
0.0
 30
3.646124999999996
  0
VERTEX
  5
5777B
330
5777A
100
AcDbEntity
  8
0
 62
     0
100
AcDbVertex
100
AcDb2dVertex
 10
872.518970250694
 20
480.7663790082471
 30
3.646124999999996
  0
VERTEX
  5
5777C
330
5777A
100
AcDbEntity
  8
0
 62
     0
100
AcDbVertex
100
AcDb2dVertex
 10
872.5481324919522
 20
480.7703777291656
 30
3.646124999999996
  0
SEQEND
  5
5777D
330
5777A
100
AcDbEntity
  8
0
 62
     0
  0
POLYLINE
  5
5777E
330
458D6
100
AcDbEntity
  8
0
 62
     0
100
AcDb2dPolyline
 66
     1
 10
0.0
 20
0.0
 30
3.646124999999996
  0
VERTEX
  5
5777F
330
5777E
100
AcDbEntity
  8
0
 62
     0
100
AcDbVertex
100
AcDb2dVertex
 10
921.9019553607894
 20
466.9774982875378
 30
3.646124999999996
  0
VERTEX
  5
57780
330
5777E
100
AcDbEntity
  8
0
 62
     0
100
AcDbVertex
100
AcDb2dVertex
 10
921.2210735850842
 20
466.9429469299832
 30
3.646124999999996
  0
VERTEX
  5
57781
330
5777E
100
AcDbEntity
  8
0
 62
     0
100
AcDbVertex
100
AcDb2dVertex
 10
920.6551902490037
 20
466.8948721164265
 30
3.646124999999996
  0
VERTEX
  5
57782
330
5777E
100
AcDbEntity
  8
0
 62
     0
100
AcDbVertex
100
AcDb2dVertex
 10
920.1874472945036
 20
466.8355277242206
 30
3.646124999999996
  0
VERTEX
  5
57783
330
5777E
100
AcDbEntity
  8
0
 62
     0
100
AcDbVertex
100
AcDb2dVertex
 10
919.8009866635301
 20
466.767167630723
 30
3.646124999999996
  0
VERTEX
  5
57784
330
5777E
100
AcDbEntity
  8
0
 62
     0
100
AcDbVertex
100
AcDb2dVertex
 10
919.4789502980381
 20
466.6920457132865
 30
3.646124999999996
  0
VERTEX
  5
57785
330
5777E
100
AcDbEntity
  8
0
 62
     0
100
AcDbVertex
100
AcDb2dVertex
 10
919.2044801399772
 20
466.6124158492657
 30
3.646124999999996
  0
VERTEX
  5
57786
330
5777E
100
AcDbEntity
  8
0
 62
     0
100
AcDbVertex
100
AcDb2dVertex
 10
918.9607181312997
 20
466.5305319160165
 30
3.646124999999996
  0
VERTEX
  5
57787
330
5777E
100
AcDbEntity
  8
0
 62
     0
100
AcDbVertex
100
AcDb2dVertex
 10
918.7308062139548
 20
466.4486477908905
 30
3.646124999999996
  0
VERTEX
  5
57788
330
5777E
100
AcDbEntity
  8
0
 62
     0
100
AcDbVertex
100
AcDb2dVertex
 10
918.5006020071163
 20
466.3688138620954
 30
3.646124999999996
  0
VERTEX
  5
57789
330
5777E
100
AcDbEntity
  8
0
 62
     0
100
AcDbVertex
100
AcDb2dVertex
 10
918.2668258388165
 20
466.2922665612308
 30
3.646124999999996
  0
VERTEX
  5
5778A
330
5777E
100
AcDbEntity
  8
0
 62
     0
100
AcDbVertex
100
AcDb2dVertex
 10
918.0289137143239
 20
466.2200388307465
 30
3.646124999999996
  0
VERTEX
  5
5778B
330
5777E
100
AcDbEntity
  8
0
 62
     0
100
AcDbVertex
100
AcDb2dVertex
 10
917.7863016388924
 20
466.1531636130954
 30
3.646124999999996
  0
VERTEX
  5
5778C
330
5777E
100
AcDbEntity
  8
0
 62
     0
100
AcDbVertex
100
AcDb2dVertex
 10
917.5384256177816
 20
466.0926738507272
 30
3.646124999999996
  0
VERTEX
  5
5778D
330
5777E
100
AcDbEntity
  8
0
 62
     0
100
AcDbVertex
100
AcDb2dVertex
 10
917.2847216562539
 20
466.0396024860935
 30
3.646124999999996
  0
VERTEX
  5
5778E
330
5777E
100
AcDbEntity
  8
0
 62
     0
100
AcDbVertex
100
AcDb2dVertex
 10
917.0246257595634
 20
465.9949824616441
 30
3.646124999999996
  0
VERTEX
  5
5778F
330
5777E
100
AcDbEntity
  8
0
 62
     0
100
AcDbVertex
100
AcDb2dVertex
 10
916.7575739329757
 20
465.9598467198303
 30
3.646124999999996
  0
VERTEX
  5
57790
330
5777E
100
AcDbEntity
  8
0
 62
     0
100
AcDbVertex
100
AcDb2dVertex
 10
916.4834408442102
 20
465.935087348089
 30
3.646124999999996
  0
VERTEX
  5
57791
330
5777E
100
AcDbEntity
  8
0
 62
     0
100
AcDbVertex
100
AcDb2dVertex
 10
916.203855810864
 20
465.9210330137926
 30
3.646124999999996
  0
VERTEX
  5
57792
330
5777E
100
AcDbEntity
  8
0
 62
     0
100
AcDbVertex
100
AcDb2dVertex
 10
915.9208868130031
 20
465.9178715293035
 30
3.646124999999996
  0
VERTEX
  5
57793
330
5777E
100
AcDbEntity
  8
0
 62
     0
100
AcDbVertex
100
AcDb2dVertex
 10
915.6366018306846
 20
465.9257907069796
 30
3.646124999999996
  0
VERTEX
  5
57794
330
5777E
100
AcDbEntity
  8
0
 62
     0
100
AcDbVertex
100
AcDb2dVertex
 10
915.3530688439712
 20
465.9449783591803
 30
3.646124999999996
  0
VERTEX
  5
57795
330
5777E
100
AcDbEntity
  8
0
 62
     0
100
AcDbVertex
100
AcDb2dVertex
 10
915.0723558329261
 20
465.975622298265
 30
3.646124999999996
  0
VERTEX
  5
57796
330
5777E
100
AcDbEntity
  8
0
 62
     0
100
AcDbVertex
100
AcDb2dVertex
 10
914.7965307776118
 20
466.0179103365946
 30
3.646124999999996
  0
VERTEX
  5
57797
330
5777E
100
AcDbEntity
  8
0
 62
     0
100
AcDbVertex
100
AcDb2dVertex
 10
914.5276616580888
 20
466.0720302865285
 30
3.646124999999996
  0
VERTEX
  5
57798
330
5777E
100
AcDbEntity
  8
0
 62
     0
100
AcDbVertex
100
AcDb2dVertex
 10
914.2673777916247
 20
466.1380760548989
 30
3.646124999999996
  0
VERTEX
  5
57799
330
5777E
100
AcDbEntity
  8
0
 62
     0
100
AcDbVertex
100
AcDb2dVertex
 10
914.0155538443108
 20
466.2157659264428
 30
3.646124999999996
  0
VERTEX
  5
5779A
330
5777E
100
AcDbEntity
  8
0
 62
     0
100
AcDbVertex
100
AcDb2dVertex
 10
913.77162581944
 20
466.3047242803643
 30
3.646124999999996
  0
VERTEX
  5
5779B
330
5777E
100
AcDbEntity
  8
0
 62
     0
100
AcDbVertex
100
AcDb2dVertex
 10
913.5350297203116
 20
466.4045754958732
 30
3.646124999999996
  0
VERTEX
  5
5779C
330
5777E
100
AcDbEntity
  8
0
 62
     0
100
AcDbVertex
100
AcDb2dVertex
 10
913.3052015502183
 20
466.5149439521794
 30
3.646124999999996
  0
VERTEX
  5
5779D
330
5777E
100
AcDbEntity
  8
0
 62
     0
100
AcDbVertex
100
AcDb2dVertex
 10
913.0815773124536
 20
466.6354540284868
 30
3.646124999999996
  0
VERTEX
  5
5779E
330
5777E
100
AcDbEntity
  8
0
 62
     0
100
AcDbVertex
100
AcDb2dVertex
 10
912.8635930103193
 20
466.7657301040069
 30
3.646124999999996
  0
VERTEX
  5
5779F
330
5777E
100
AcDbEntity
  8
0
 62
     0
100
AcDbVertex
100
AcDb2dVertex
 10
912.6506846471087
 20
466.9053965579466
 30
3.646124999999996
  0
VERTEX
  5
577A0
330
5777E
100
AcDbEntity
  8
0
 62
     0
100
AcDbVertex
100
AcDb2dVertex
 10
912.4423822268736
 20
467.0537960591572
 30
3.646124999999996
  0
VERTEX
  5
577A1
330
5777E
100
AcDbEntity
  8
0
 62
     0
100
AcDbVertex
100
AcDb2dVertex
 10
912.2385917567095
 20
467.2091444350567
 30
3.646124999999996
  0
VERTEX
  5
577A2
330
5777E
100
AcDbEntity
  8
0
 62
     0
100
AcDbVertex
100
AcDb2dVertex
 10
912.0393132444739
 20
467.3693758027074
 30
3.646124999999996
  0
VERTEX
  5
577A3
330
5777E
100
AcDbEntity
  8
0
 62
     0
100
AcDbVertex
100
AcDb2dVertex
 10
911.8445466980212
 20
467.5324242791716
 30
3.646124999999996
  0
VERTEX
  5
577A4
330
5777E
100
AcDbEntity
  8
0
 62
     0
100
AcDbVertex
100
AcDb2dVertex
 10
911.6542921252028
 20
467.6962239815102
 30
3.646124999999996
  0
VERTEX
  5
577A5
330
5777E
100
AcDbEntity
  8
0
 62
     0
100
AcDbVertex
100
AcDb2dVertex
 10
911.4685495338731
 20
467.8587090267855
 30
3.646124999999996
  0
VERTEX
  5
577A6
330
5777E
100
AcDbEntity
  8
0
 62
     0
100
AcDbVertex
100
AcDb2dVertex
 10
911.2873189318895
 20
468.0178135320614
 30
3.646124999999996
  0
VERTEX
  5
577A7
330
5777E
100
AcDbEntity
  8
0
 62
     0
100
AcDbVertex
100
AcDb2dVertex
 10
911.1106003271034
 20
468.1714716143958
 30
3.646124999999996
  0
VERTEX
  5
577A8
330
5777E
100
AcDbEntity
  8
0
 62
     0
100
AcDbVertex
100
AcDb2dVertex
 10
910.9380490607561
 20
468.3179304032727
 30
3.646124999999996
  0
VERTEX
  5
577A9
330
5777E
100
AcDbEntity
  8
0
 62
     0
100
AcDbVertex
100
AcDb2dVertex
 10
910.7679418076191
 20
468.4566890778383
 30
3.646124999999996
  0
VERTEX
  5
577AA
330
5777E
100
AcDbEntity
  8
0
 62
     0
100
AcDbVertex
100
AcDb2dVertex
 10
910.598210575845
 20
468.5875598296618
 30
3.646124999999996
  0
VERTEX
  5
577AB
330
5777E
100
AcDbEntity
  8
0
 62
     0
100
AcDbVertex
100
AcDb2dVertex
 10
910.4267873735951
 20
468.710354850311
 30
3.646124999999996
  0
VERTEX
  5
577AC
330
5777E
100
AcDbEntity
  8
0
 62
     0
100
AcDbVertex
100
AcDb2dVertex
 10
910.2516042090249
 20
468.8248863313522
 30
3.646124999999996
  0
VERTEX
  5
577AD
330
5777E
100
AcDbEntity
  8
0
 62
     0
100
AcDbVertex
100
AcDb2dVertex
 10
910.0705930902899
 20
468.9309664643547
 30
3.646124999999996
  0
VERTEX
  5
577AE
330
5777E
100
AcDbEntity
  8
0
 62
     0
100
AcDbVertex
100
AcDb2dVertex
 10
909.8816860255455
 20
469.0284074408864
 30
3.646124999999996
  0
VERTEX
  5
577AF
330
5777E
100
AcDbEntity
  8
0
 62
     0
100
AcDbVertex
100
AcDb2dVertex
 10
909.6828150229532
 20
469.1170214525135
 30
3.646124999999996
  0
VERTEX
  5
577B0
330
5777E
100
AcDbEntity
  8
0
 62
     0
100
AcDbVertex
100
AcDb2dVertex
 10
909.4723820892239
 20
469.196651991881
 30
3.646124999999996
  0
SEQEND
  5
577B1
330
5777E
100
AcDbEntity
  8
0
 62
     0
  0
POLYLINE
  5
577B2
330
458D6
100
AcDbEntity
  8
0
 62
     0
100
AcDb2dPolyline
 66
     1
 10
0.0
 20
0.0
 30
3.646124999999996
  0
VERTEX
  5
577B3
330
577B2
100
AcDbEntity
  8
0
 62
     0
100
AcDbVertex
100
AcDb2dVertex
 10
909.2506692253374
 20
469.2672677559495
 30
3.646124999999996
  0
VERTEX
  5
577B4
330
577B2
100
AcDbEntity
  8
0
 62
     0
100
AcDbVertex
100
AcDb2dVertex
 10
909.0184284308175
 20
469.3288687427541
 30
3.646124999999996
  0
VERTEX
  5
577B5
330
577B2
100
AcDbEntity
  8
0
 62
     0
100
AcDbVertex
100
AcDb2dVertex
 10
908.7764117052053
 20
469.3814549503326
 30
3.646124999999996
  0
VERTEX
  5
577B6
330
577B2
100
AcDbEntity
  8
0
 62
     0
100
AcDbVertex
100
AcDb2dVertex
 10
908.5253710480303
 20
469.4250263767186
 30
3.646124999999996
  0
VERTEX
  5
577B7
330
577B2
100
AcDbEntity
  8
0
 62
     0
100
AcDbVertex
100
AcDb2dVertex
 10
908.266058458825
 20
469.4595830199511
 30
3.646124999999996
  0
VERTEX
  5
577B8
330
577B2
100
AcDbEntity
  8
0
 62
     0
100
AcDbVertex
100
AcDb2dVertex
 10
907.9992259371218
 20
469.4851248780639
 30
3.646124999999996
  0
VERTEX
  5
577B9
330
577B2
100
AcDbEntity
  8
0
 62
     0
100
AcDbVertex
100
AcDb2dVertex
 10
907.7256254824588
 20
469.5016519490962
 30
3.646124999999996
  0
VERTEX
  5
577BA
330
577B2
100
AcDbEntity
  8
0
 62
     0
100
AcDbVertex
100
AcDb2dVertex
 10
907.4462910900987
 20
469.509320738438
 30
3.646124999999996
  0
VERTEX
  5
577BB
330
577B2
100
AcDbEntity
  8
0
 62
     0
100
AcDbVertex
100
AcDb2dVertex
 10
907.1633847382438
 20
469.5089137808953
 30
3.646124999999996
  0
VERTEX
  5
577BC
330
577B2
100
AcDbEntity
  8
0
 62
     0
100
AcDbVertex
100
AcDb2dVertex
 10
906.8793504008382
 20
469.5013701186319
 30
3.646124999999996
  0
VERTEX
  5
577BD
330
577B2
100
AcDbEntity
  8
0
 62
     0
100
AcDbVertex
100
AcDb2dVertex
 10
906.596632051815
 20
469.487628793809
 30
3.646124999999996
  0
VERTEX
  5
577BE
330
577B2
100
AcDbEntity
  8
0
 62
     0
100
AcDbVertex
100
AcDb2dVertex
 10
906.3176736651117
 20
469.4686288485874
 30
3.646124999999996
  0
VERTEX
  5
577BF
330
577B2
100
AcDbEntity
  8
0
 62
     0
100
AcDbVertex
100
AcDb2dVertex
 10
906.0449192146673
 20
469.445309325131
 30
3.646124999999996
  0
VERTEX
  5
577C0
330
577B2
100
AcDbEntity
  8
0
 62
     0
100
AcDbVertex
100
AcDb2dVertex
 10
905.7808126744168
 20
469.418609265601
 30
3.646124999999996
  0
VERTEX
  5
577C1
330
577B2
100
AcDbEntity
  8
0
 62
     0
100
AcDbVertex
100
AcDb2dVertex
 10
905.5277980183046
 20
469.3894677121567
 30
3.646124999999996
  0
VERTEX
  5
577C2
330
577B2
100
AcDbEntity
  8
0
 62
     0
100
AcDbVertex
100
AcDb2dVertex
 10
905.2874732291313
 20
469.3586985010149
 30
3.646124999999996
  0
VERTEX
  5
577C3
330
577B2
100
AcDbEntity
  8
0
 62
     0
100
AcDbVertex
100
AcDb2dVertex
 10
905.0580523251923
 20
469.3266146445915
 30
3.646124999999996
  0
VERTEX
  5
577C4
330
577B2
100
AcDbEntity
  8
0
 62
     0
100
AcDbVertex
100
AcDb2dVertex
 10
904.8369033336475
 20
469.2934039493549
 30
3.646124999999996
  0
VERTEX
  5
577C5
330
577B2
100
AcDbEntity
  8
0
 62
     0
100
AcDbVertex
100
AcDb2dVertex
 10
904.6213942816574
 20
469.2592542217755
 30
3.646124999999996
  0
VERTEX
  5
577C6
330
577B2
100
AcDbEntity
  8
0
 62
     0
100
AcDbVertex
100
AcDb2dVertex
 10
904.4088931963795
 20
469.2243532683201
 30
3.646124999999996
  0
VERTEX
  5
577C7
330
577B2
100
AcDbEntity
  8
0
 62
     0
100
AcDbVertex
100
AcDb2dVertex
 10
904.1967681049799
 20
469.1888888954589
 30
3.646124999999996
  0
VERTEX
  5
577C8
330
577B2
100
AcDbEntity
  8
0
 62
     0
100
AcDbVertex
100
AcDb2dVertex
 10
903.9823870346133
 20
469.1530489096606
 30
3.646124999999996
  0
VERTEX
  5
577C9
330
577B2
100
AcDbEntity
  8
0
 62
     0
100
AcDbVertex
100
AcDb2dVertex
 10
903.7631180124485
 20
469.1170211173921
 30
3.646124999999996
  0
VERTEX
  5
577CA
330
577B2
100
AcDbEntity
  8
0
 62
     0
100
AcDbVertex
100
AcDb2dVertex
 10
903.5368930603805
 20
469.0816506526742
 30
3.646124999999996
  0
VERTEX
  5
577CB
330
577B2
100
AcDbEntity
  8
0
 62
     0
100
AcDbVertex
100
AcDb2dVertex
 10
903.3039001792772
 20
469.0504119597225
 30
3.646124999999996
  0
VERTEX
  5
577CC
330
577B2
100
AcDbEntity
  8
0
 62
     0
100
AcDbVertex
100
AcDb2dVertex
 10
903.0648913647437
 20
469.0274368103059
 30
3.646124999999996
  0
VERTEX
  5
577CD
330
577B2
100
AcDbEntity
  8
0
 62
     0
100
AcDbVertex
100
AcDb2dVertex
 10
902.8206186123854
 20
469.0168569761905
 30
3.646124999999996
  0
VERTEX
  5
577CE
330
577B2
100
AcDbEntity
  8
0
 62
     0
100
AcDbVertex
100
AcDb2dVertex
 10
902.5718339178103
 20
469.022804229144
 30
3.646124999999996
  0
VERTEX
  5
577CF
330
577B2
100
AcDbEntity
  8
0
 62
     0
100
AcDbVertex
100
AcDb2dVertex
 10
902.3192892766209
 20
469.0494103409311
 30
3.646124999999996
  0
VERTEX
  5
577D0
330
577B2
100
AcDbEntity
  8
0
 62
     0
100
AcDbVertex
100
AcDb2dVertex
 10
902.063736684428
 20
469.1008070833221
 30
3.646124999999996
  0
VERTEX
  5
577D1
330
577B2
100
AcDbEntity
  8
0
 62
     0
100
AcDbVertex
100
AcDb2dVertex
 10
901.8059281368312
 20
469.1811262280833
 30
3.646124999999996
  0
VERTEX
  5
577D2
330
577B2
100
AcDbEntity
  8
0
 62
     0
100
AcDbVertex
100
AcDb2dVertex
 10
901.5469602921331
 20
469.2935292066851
 30
3.646124999999996
  0
VERTEX
  5
577D3
330
577B2
100
AcDbEntity
  8
0
 62
     0
100
AcDbVertex
100
AcDb2dVertex
 10
901.2893084593804
 20
469.4372960894241
 30
3.646124999999996
  0
VERTEX
  5
577D4
330
577B2
100
AcDbEntity
  8
0
 62
     0
100
AcDbVertex
100
AcDb2dVertex
 10
901.0357926103138
 20
469.6107366062983
 30
3.646124999999996
  0
VERTEX
  5
577D5
330
577B2
100
AcDbEntity
  8
0
 62
     0
100
AcDbVertex
100
AcDb2dVertex
 10
900.789232716677
 20
469.8121604873076
 30
3.646124999999996
  0
VERTEX
  5
577D6
330
577B2
100
AcDbEntity
  8
0
 62
     0
100
AcDbVertex
100
AcDb2dVertex
 10
900.5524487502054
 20
470.0398774624511
 30
3.646124999999996
  0
VERTEX
  5
577D7
330
577B2
100
AcDbEntity
  8
0
 62
     0
100
AcDbVertex
100
AcDb2dVertex
 10
900.3282606826456
 20
470.2921972617272
 30
3.646124999999996
  0
VERTEX
  5
577D8
330
577B2
100
AcDbEntity
  8
0
 62
     0
100
AcDbVertex
100
AcDb2dVertex
 10
900.1194884857357
 20
470.5674296151382
 30
3.646124999999996
  0
VERTEX
  5
577D9
330
577B2
100
AcDbEntity
  8
0
 62
     0
100
AcDbVertex
100
AcDb2dVertex
 10
899.9289521312137
 20
470.8638842526808
 30
3.646124999999996
  0
VERTEX
  5
577DA
330
577B2
100
AcDbEntity
  8
0
 62
     0
100
AcDbVertex
100
AcDb2dVertex
 10
899.7584689332883
 20
471.1793387821002
 30
3.646124999999996
  0
VERTEX
  5
577DB
330
577B2
100
AcDbEntity
  8
0
 62
     0
100
AcDbVertex
100
AcDb2dVertex
 10
899.6058455760271
 20
471.5094423221192
 30
3.646124999999996
  0
VERTEX
  5
577DC
330
577B2
100
AcDbEntity
  8
0
 62
     0
100
AcDbVertex
100
AcDb2dVertex
 10
899.4678860859503
 20
471.8493118692038
 30
3.646124999999996
  0
VERTEX
  5
577DD
330
577B2
100
AcDbEntity
  8
0
 62
     0
100
AcDbVertex
100
AcDb2dVertex
 10
899.3413944895957
 20
472.1940644198213
 30
3.646124999999996
  0
VERTEX
  5
577DE
330
577B2
100
AcDbEntity
  8
0
 62
     0
100
AcDbVertex
100
AcDb2dVertex
 10
899.2231748134869
 20
472.5388169704387
 30
3.646124999999996
  0
VERTEX
  5
577DF
330
577B2
100
AcDbEntity
  8
0
 62
     0
100
AcDbVertex
100
AcDb2dVertex
 10
899.1100310841563
 20
472.8786865175234
 30
3.646124999999996
  0
VERTEX
  5
577E0
330
577B2
100
AcDbEntity
  8
0
 62
     0
100
AcDbVertex
100
AcDb2dVertex
 10
898.99876732813
 20
473.208790057541
 30
3.646124999999996
  0
VERTEX
  5
577E1
330
577B2
100
AcDbEntity
  8
0
 62
     0
100
AcDbVertex
100
AcDb2dVertex
 10
898.8861875719429
 20
473.5242445869602
 30
3.646124999999996
  0
VERTEX
  5
577E2
330
577B2
100
AcDbEntity
  8
0
 62
     0
100
AcDbVertex
100
AcDb2dVertex
 10
898.7696598375116
 20
473.8209183336874
 30
3.646124999999996
  0
VERTEX
  5
577E3
330
577B2
100
AcDbEntity
  8
0
 62
     0
100
AcDbVertex
100
AcDb2dVertex
 10
898.6488081283471
 20
474.0976844513796
 30
3.646124999999996
  0
VERTEX
  5
577E4
330
577B2
100
AcDbEntity
  8
0
 62
     0
100
AcDbVertex
100
AcDb2dVertex
 10
898.5238204433512
 20
474.3541673251392
 30
3.646124999999996
  0
VERTEX
  5
577E5
330
577B2
100
AcDbEntity
  8
0
 62
     0
100
AcDbVertex
100
AcDb2dVertex
 10
898.3948847814216
 20
474.5899913400624
 30
3.646124999999996
  0
VERTEX
  5
577E6
330
577B2
100
AcDbEntity
  8
0
 62
     0
100
AcDbVertex
100
AcDb2dVertex
 10
898.2621891414632
 20
474.8047808812483
 30
3.646124999999996
  0
VERTEX
  5
577E7
330
577B2
100
AcDbEntity
  8
0
 62
     0
100
AcDbVertex
100
AcDb2dVertex
 10
898.125921522377
 20
474.9981603337976
 30
3.646124999999996
  0
VERTEX
  5
577E8
330
577B2
100
AcDbEntity
  8
0
 62
     0
100
AcDbVertex
100
AcDb2dVertex
 10
897.9862699230642
 20
475.1697540828081
 30
3.646124999999996
  0
VERTEX
  5
577E9
330
577B2
100
AcDbEntity
  8
0
 62
     0
100
AcDbVertex
100
AcDb2dVertex
 10
897.8434223424264
 20
475.3191865133775
 30
3.646124999999996
  0
VERTEX
  5
577EA
330
577B2
100
AcDbEntity
  8
0
 62
     0
100
AcDbVertex
100
AcDb2dVertex
 10
897.6974414474192
 20
475.4468958442011
 30
3.646124999999996
  0
VERTEX
  5
577EB
330
577B2
100
AcDbEntity
  8
0
 62
     0
100
AcDbVertex
100
AcDb2dVertex
 10
897.5478885772085
 20
475.5565756283526
 30
3.646124999999996
  0
VERTEX
  5
577EC
330
577B2
100
AcDbEntity
  8
0
 62
     0
100
AcDbVertex
100
AcDb2dVertex
 10
897.3941997390207
 20
475.6527332524976
 30
3.646124999999996
  0
VERTEX
  5
577ED
330
577B2
100
AcDbEntity
  8
0
 62
     0
100
AcDbVertex
100
AcDb2dVertex
 10
897.2358109400786
 20
475.7398761033072
 30
3.646124999999996
  0
VERTEX
  5
577EE
330
577B2
100
AcDbEntity
  8
0
 62
     0
100
AcDbVertex
100
AcDb2dVertex
 10
897.0721581876031
 20
475.8225115674485
 30
3.646124999999996
  0
VERTEX
  5
577EF
330
577B2
100
AcDbEntity
  8
0
 62
     0
100
AcDbVertex
100
AcDb2dVertex
 10
896.9026774888169
 20
475.9051470315898
 30
3.646124999999996
  0
VERTEX
  5
577F0
330
577B2
100
AcDbEntity
  8
0
 62
     0
100
AcDbVertex
100
AcDb2dVertex
 10
896.7268048509437
 20
475.9922898823994
 30
3.646124999999996
  0
VERTEX
  5
577F1
330
577B2
100
AcDbEntity
  8
0
 62
     0
100
AcDbVertex
100
AcDb2dVertex
 10
896.5439762812037
 20
476.0884475065458
 30
3.646124999999996
  0
VERTEX
  5
577F2
330
577B2
100
AcDbEntity
  8
0
 62
     0
100
AcDbVertex
100
AcDb2dVertex
 10
896.3543797798122
 20
476.1971569504018
 30
3.646124999999996
  0
VERTEX
  5
577F3
330
577B2
100
AcDbEntity
  8
0
 62
     0
100
AcDbVertex
100
AcDb2dVertex
 10
896.1612113189287
 20
476.3180738991631
 30
3.646124999999996
  0
VERTEX
  5
577F4
330
577B2
100
AcDbEntity
  8
0
 62
     0
100
AcDbVertex
100
AcDb2dVertex
 10
895.9684188637025
 20
476.4498836977303
 30
3.646124999999996
  0
VERTEX
  5
577F5
330
577B2
100
AcDbEntity
  8
0
 62
     0
100
AcDbVertex
100
AcDb2dVertex
 10
895.7799503792818
 20
476.5912716910036
 30
3.646124999999996
  0
VERTEX
  5
577F6
330
577B2
100
AcDbEntity
  8
0
 62
     0
100
AcDbVertex
100
AcDb2dVertex
 10
895.5997538308189
 20
476.740923223885
 30
3.646124999999996
  0
VERTEX
  5
577F7
330
577B2
100
AcDbEntity
  8
0
 62
     0
100
AcDbVertex
100
AcDb2dVertex
 10
895.4317771834622
 20
476.8975236412731
 30
3.646124999999996
  0
VERTEX
  5
577F8
330
577B2
100
AcDbEntity
  8
0
 62
     0
100
AcDbVertex
100
AcDb2dVertex
 10
895.2799684023608
 20
477.0597582880684
 30
3.646124999999996
  0
VERTEX
  5
577F9
330
577B2
100
AcDbEntity
  8
0
 62
     0
100
AcDbVertex
100
AcDb2dVertex
 10
895.1482754526633
 20
477.2263125091741
 30
3.646124999999996
  0
VERTEX
  5
577FA
330
577B2
100
AcDbEntity
  8
0
 62
     0
100
AcDbVertex
100
AcDb2dVertex
 10
895.0401606379859
 20
477.39607510846
 30
3.646124999999996
  0
VERTEX
  5
577FB
330
577B2
100
AcDbEntity
  8
0
 62
     0
100
AcDbVertex
100
AcDb2dVertex
 10
894.9571436157821
 20
477.568748725683
 30
3.646124999999996
  0
VERTEX
  5
577FC
330
577B2
100
AcDbEntity
  8
0
 62
     0
100
AcDbVertex
100
AcDb2dVertex
 10
894.9002583819783
 20
477.7442394595754
 30
3.646124999999996
  0
VERTEX
  5
577FD
330
577B2
100
AcDbEntity
  8
0
 62
     0
100
AcDbVertex
100
AcDb2dVertex
 10
894.8705389324956
 20
477.9224534088635
 30
3.646124999999996
  0
VERTEX
  5
577FE
330
577B2
100
AcDbEntity
  8
0
 62
     0
100
AcDbVertex
100
AcDb2dVertex
 10
894.8690192632549
 20
478.1032966722782
 30
3.646124999999996
  0
VERTEX
  5
577FF
330
577B2
100
AcDbEntity
  8
0
 62
     0
100
AcDbVertex
100
AcDb2dVertex
 10
894.8967333701766
 20
478.2866753485487
 30
3.646124999999996
  0
VERTEX
  5
57800
330
577B2
100
AcDbEntity
  8
0
 62
     0
100
AcDbVertex
100
AcDb2dVertex
 10
894.9547152491845
 20
478.4724955364028
 30
3.646124999999996
  0
VERTEX
  5
57801
330
577B2
100
AcDbEntity
  8
0
 62
     0
100
AcDbVertex
100
AcDb2dVertex
 10
895.0439988961997
 20
478.6606633345713
 30
3.646124999999996
  0
VERTEX
  5
57802
330
577B2
100
AcDbEntity
  8
0
 62
     0
100
AcDbVertex
100
AcDb2dVertex
 10
895.1641143185511
 20
478.8520864811913
 30
3.646124999999996
  0
VERTEX
  5
57803
330
577B2
100
AcDbEntity
  8
0
 62
     0
100
AcDbVertex
100
AcDb2dVertex
 10
895.3085755691917
 20
479.0516792720379
 30
3.646124999999996
  0
VERTEX
  5
57804
330
577B2
100
AcDbEntity
  8
0
 62
     0
100
AcDbVertex
100
AcDb2dVertex
 10
895.469392712479
 20
479.2653576422968
 30
3.646124999999996
  0
VERTEX
  5
57805
330
577B2
100
AcDbEntity
  8
0
 62
     0
100
AcDbVertex
100
AcDb2dVertex
 10
895.6385758127712
 20
479.4990375271496
 30
3.646124999999996
  0
VERTEX
  5
57806
330
577B2
100
AcDbEntity
  8
0
 62
     0
100
AcDbVertex
100
AcDb2dVertex
 10
895.808134934432
 20
479.7586348617819
 30
3.646124999999996
  0
VERTEX
  5
57807
330
577B2
100
AcDbEntity
  8
0
 62
     0
100
AcDbVertex
100
AcDb2dVertex
 10
895.9700801418167
 20
480.0500655813784
 30
3.646124999999996
  0
VERTEX
  5
57808
330
577B2
100
AcDbEntity
  8
0
 62
     0
100
AcDbVertex
100
AcDb2dVertex
 10
896.1164214992862
 20
480.3792456211215
 30
3.646124999999996
  0
VERTEX
  5
57809
330
577B2
100
AcDbEntity
  8
0
 62
     0
100
AcDbVertex
100
AcDb2dVertex
 10
896.2391690712014
 20
480.752090916196
 30
3.646124999999996
  0
SEQEND
  5
5780A
330
577B2
100
AcDbEntity
  8
0
 62
     0
  0
POLYLINE
  5
5780B
330
458D6
100
AcDbEntity
  8
0
 62
     0
100
AcDb2dPolyline
 66
     1
 10
0.0
 20
0.0
 30
3.646124999999996
 70
     4
 75
     6
  0
VERTEX
  5
5780C
330
5780B
100
AcDbEntity
  8
0
 62
     0
100
AcDbVertex
100
AcDb2dVertex
 10
824.052330511828
 20
285.2592597289561
 30
3.646124999999996
 70
    16
  0
VERTEX
  5
5780D
330
5780B
100
AcDbEntity
  8
0
 62
     0
100
AcDbVertex
100
AcDb2dVertex
 10
824.052330511828
 20
285.2592597289561
 30
3.646124999999996
 70
     8
  0
VERTEX
  5
5780E
330
5780B
100
AcDbEntity
  8
0
 62
     0
100
AcDbVertex
100
AcDb2dVertex
 10
824.7332122875333
 20
285.2938110865106
 30
3.646124999999996
 70
     8
  0
VERTEX
  5
5780F
330
5780B
100
AcDbEntity
  8
0
 62
     0
100
AcDbVertex
100
AcDb2dVertex
 10
825.2990956236107
 20
285.3418859000674
 30
3.646124999999996
 70
     8
  0
VERTEX
  5
57810
330
5780B
100
AcDbEntity
  8
0
 62
     0
100
AcDbVertex
100
AcDb2dVertex
 10
825.7668385781139
 20
285.4012302922718
 30
3.646124999999996
 70
     8
  0
VERTEX
  5
57811
330
5780B
100
AcDbEntity
  8
0
 62
     0
100
AcDbVertex
100
AcDb2dVertex
 10
826.1532992090845
 20
285.4695903857709
 30
3.646124999999996
 70
     8
  0
VERTEX
  5
57812
330
5780B
100
AcDbEntity
  8
0
 62
     0
100
AcDbVertex
100
AcDb2dVertex
 10
826.4753355745765
 20
285.5447123032074
 30
3.646124999999996
 70
     8
  0
VERTEX
  5
57813
330
5780B
100
AcDbEntity
  8
0
 62
     0
100
AcDbVertex
100
AcDb2dVertex
 10
826.7498057326374
 20
285.6243421672268
 30
3.646124999999996
 70
     8
  0
VERTEX
  5
57814
330
5780B
100
AcDbEntity
  8
0
 62
     0
100
AcDbVertex
100
AcDb2dVertex
 10
826.9935677413178
 20
285.7062261004774
 30
3.646124999999996
 70
     8
  0
VERTEX
  5
57815
330
5780B
100
AcDbEntity
  8
0
 62
     0
100
AcDbVertex
100
AcDb2dVertex
 10
827.2234796586596
 20
285.7881102256019
 30
3.646124999999996
 70
     8
  0
VERTEX
  5
57816
330
5780B
100
AcDbEntity
  8
0
 62
     0
100
AcDbVertex
100
AcDb2dVertex
 10
827.4536838655011
 20
285.8679441543985
 30
3.646124999999996
 70
     8
  0
VERTEX
  5
57817
330
5780B
100
AcDbEntity
  8
0
 62
     0
100
AcDbVertex
100
AcDb2dVertex
 10
827.6874600337981
 20
285.9444914552631
 30
3.646124999999996
 70
     8
  0
VERTEX
  5
57818
330
5780B
100
AcDbEntity
  8
0
 62
     0
100
AcDbVertex
100
AcDb2dVertex
 10
827.9253721582934
 20
286.0167191857474
 30
3.646124999999996
 70
     8
  0
VERTEX
  5
57819
330
5780B
100
AcDbEntity
  8
0
 62
     0
100
AcDbVertex
100
AcDb2dVertex
 10
828.1679842337251
 20
286.0835944033985
 30
3.646124999999996
 70
     8
  0
VERTEX
  5
5781A
330
5780B
100
AcDbEntity
  8
0
 62
     0
100
AcDbVertex
100
AcDb2dVertex
 10
828.415860254833
 20
286.1440841657667
 30
3.646124999999996
 70
     8
  0
VERTEX
  5
5781B
330
5780B
100
AcDbEntity
  8
0
 62
     0
100
AcDbVertex
100
AcDb2dVertex
 10
828.6695642163634
 20
286.1971555304004
 30
3.646124999999996
 70
     8
  0
VERTEX
  5
5781C
330
5780B
100
AcDbEntity
  8
0
 62
     0
100
AcDbVertex
100
AcDb2dVertex
 10
828.929660113051
 20
286.2417755548498
 30
3.646124999999996
 70
     8
  0
VERTEX
  5
5781D
330
5780B
100
AcDbEntity
  8
0
 62
     0
100
AcDbVertex
100
AcDb2dVertex
 10
829.1967119396417
 20
286.2769112966636
 30
3.646124999999996
 70
     8
  0
VERTEX
  5
5781E
330
5780B
100
AcDbEntity
  8
0
 62
     0
100
AcDbVertex
100
AcDb2dVertex
 10
829.4708450284073
 20
286.3016706684049
 30
3.646124999999996
 70
     8
  0
VERTEX
  5
5781F
330
5780B
100
AcDbEntity
  8
0
 62
     0
100
AcDbVertex
100
AcDb2dVertex
 10
829.7504300617505
 20
286.3157250026998
 30
3.646124999999996
 70
     8
  0
VERTEX
  5
57820
330
5780B
100
AcDbEntity
  8
0
 62
     0
100
AcDbVertex
100
AcDb2dVertex
 10
830.0333990596143
 20
286.3188864871904
 30
3.646124999999996
 70
     8
  0
VERTEX
  5
57821
330
5780B
100
AcDbEntity
  8
0
 62
     0
100
AcDbVertex
100
AcDb2dVertex
 10
830.3176840419329
 20
286.3109673095143
 30
3.646124999999996
 70
     8
  0
VERTEX
  5
57822
330
5780B
100
AcDbEntity
  8
0
 62
     0
100
AcDbVertex
100
AcDb2dVertex
 10
830.6012170286463
 20
286.2917796573136
 30
3.646124999999996
 70
     8
  0
VERTEX
  5
57823
330
5780B
100
AcDbEntity
  8
0
 62
     0
100
AcDbVertex
100
AcDb2dVertex
 10
830.8819300396914
 20
286.2611357182274
 30
3.646124999999996
 70
     8
  0
VERTEX
  5
57824
330
5780B
100
AcDbEntity
  8
0
 62
     0
100
AcDbVertex
100
AcDb2dVertex
 10
831.1577550950055
 20
286.2188476798978
 30
3.646124999999996
 70
     8
  0
VERTEX
  5
57825
330
5780B
100
AcDbEntity
  8
0
 62
     0
100
AcDbVertex
100
AcDb2dVertex
 10
831.4266242145286
 20
286.1647277299654
 30
3.646124999999996
 70
     8
  0
VERTEX
  5
57826
330
5780B
100
AcDbEntity
  8
0
 62
     0
100
AcDbVertex
100
AcDb2dVertex
 10
831.6869080809926
 20
286.0986819615935
 30
3.646124999999996
 70
     8
  0
VERTEX
  5
57827
330
5780B
100
AcDbEntity
  8
0
 62
     0
100
AcDbVertex
100
AcDb2dVertex
 10
831.9387320283066
 20
286.0209920900511
 30
3.646124999999996
 70
     8
  0
VERTEX
  5
57828
330
5780B
100
AcDbEntity
  8
0
 62
     0
100
AcDbVertex
100
AcDb2dVertex
 10
832.1826600531775
 20
285.9320337361296
 30
3.646124999999996
 70
     8
  0
VERTEX
  5
57829
330
5780B
100
AcDbEntity
  8
0
 62
     0
100
AcDbVertex
100
AcDb2dVertex
 10
832.4192561523059
 20
285.8321825206193
 30
3.646124999999996
 70
     8
  0
VERTEX
  5
5782A
330
5780B
100
AcDbEntity
  8
0
 62
     0
100
AcDbVertex
100
AcDb2dVertex
 10
832.6490843223991
 20
285.7218140643145
 30
3.646124999999996
 70
     8
  0
VERTEX
  5
5782B
330
5780B
100
AcDbEntity
  8
0
 62
     0
100
AcDbVertex
100
AcDb2dVertex
 10
832.8727085601608
 20
285.6013039880071
 30
3.646124999999996
 70
     8
  0
VERTEX
  5
5782C
330
5780B
100
AcDbEntity
  8
0
 62
     0
100
AcDbVertex
100
AcDb2dVertex
 10
833.0906928622979
 20
285.4710279124856
 30
3.646124999999996
 70
     8
  0
VERTEX
  5
5782D
330
5780B
100
AcDbEntity
  8
0
 62
     0
100
AcDbVertex
100
AcDb2dVertex
 10
833.3036012255087
 20
285.3313614585459
 30
3.646124999999996
 70
     8
  0
VERTEX
  5
5782E
330
5780B
100
AcDbEntity
  8
0
 62
     0
100
AcDbVertex
100
AcDb2dVertex
 10
833.5119036457438
 20
285.1829619573367
 30
3.646124999999996
 70
     8
  0
VERTEX
  5
5782F
330
5780B
100
AcDbEntity
  8
0
 62
     0
100
AcDbVertex
100
AcDb2dVertex
 10
833.7156941159079
 20
285.0276135814372
 30
3.646124999999996
 70
     8
  0
VERTEX
  5
57830
330
5780B
100
AcDbEntity
  8
0
 62
     0
100
AcDbVertex
100
AcDb2dVertex
 10
833.9149726281434
 20
284.8673822137866
 30
3.646124999999996
 70
     8
  0
VERTEX
  5
57831
330
5780B
100
AcDbEntity
  8
0
 62
     0
100
AcDbVertex
100
AcDb2dVertex
 10
834.1097391745963
 20
284.7043337373223
 30
3.646124999999996
 70
     8
  0
VERTEX
  5
57832
330
5780B
100
AcDbEntity
  8
0
 62
     0
100
AcDbVertex
100
AcDb2dVertex
 10
834.2999937474147
 20
284.5405340349838
 30
3.646124999999996
 70
     8
  0
VERTEX
  5
57833
330
5780B
100
AcDbEntity
  8
0
 62
     0
100
AcDbVertex
100
AcDb2dVertex
 10
834.4857363387443
 20
284.3780489897069
 30
3.646124999999996
 70
     8
  0
VERTEX
  5
57834
330
5780B
100
AcDbEntity
  8
0
 62
     0
100
AcDbVertex
100
AcDb2dVertex
 10
834.666966940728
 20
284.2189444844325
 30
3.646124999999996
 70
     8
  0
VERTEX
  5
57835
330
5780B
100
AcDbEntity
  8
0
 62
     0
100
AcDbVertex
100
AcDb2dVertex
 10
834.8436855455112
 20
284.0652864020967
 30
3.646124999999996
 70
     8
  0
VERTEX
  5
57836
330
5780B
100
AcDbEntity
  8
0
 62
     0
100
AcDbVertex
100
AcDb2dVertex
 10
835.0162368118613
 20
283.9188276132211
 30
3.646124999999996
 70
     8
  0
VERTEX
  5
57837
330
5780B
100
AcDbEntity
  8
0
 62
     0
100
AcDbVertex
100
AcDb2dVertex
 10
835.1863440649985
 20
283.7800689386556
 30
3.646124999999996
 70
     8
  0
VERTEX
  5
57838
330
5780B
100
AcDbEntity
  8
0
 62
     0
100
AcDbVertex
100
AcDb2dVertex
 10
835.3560752967725
 20
283.649198186832
 30
3.646124999999996
 70
     8
  0
VERTEX
  5
57839
330
5780B
100
AcDbEntity
  8
0
 62
     0
100
AcDbVertex
100
AcDb2dVertex
 10
835.5274984990224
 20
283.5264031661829
 30
3.646124999999996
 70
     8
  0
VERTEX
  5
5783A
330
5780B
100
AcDbEntity
  8
0
 62
     0
100
AcDbVertex
100
AcDb2dVertex
 10
835.7026816635926
 20
283.4118716851417
 30
3.646124999999996
 70
     8
  0
VERTEX
  5
5783B
330
5780B
100
AcDbEntity
  8
0
 62
     0
100
AcDbVertex
100
AcDb2dVertex
 10
835.8836927823276
 20
283.3057915521377
 30
3.646124999999996
 70
     8
  0
VERTEX
  5
5783C
330
5780B
100
AcDbEntity
  8
0
 62
     0
100
AcDbVertex
100
AcDb2dVertex
 10
836.0725998470689
 20
283.2083505756075
 30
3.646124999999996
 70
     8
  0
VERTEX
  5
5783D
330
5780B
100
AcDbEntity
  8
0
 62
     0
100
AcDbVertex
100
AcDb2dVertex
 10
836.2714708496643
 20
283.1197365639805
 30
3.646124999999996
 70
     8
  0
VERTEX
  5
5783E
330
5780B
100
AcDbEntity
  8
0
 62
     0
100
AcDbVertex
100
AcDb2dVertex
 10
836.4819037833907
 20
283.0401060246115
 30
3.646124999999996
 70
     8
  0
VERTEX
  5
5783F
330
5780B
100
AcDbEntity
  8
0
 62
     0
100
AcDbVertex
100
AcDb2dVertex
 10
836.70361664728
 20
282.969490260543
 30
3.646124999999996
 70
     8
  0
VERTEX
  5
57840
330
5780B
100
AcDbEntity
  8
0
 62
     0
100
AcDbVertex
100
AcDb2dVertex
 10
836.9358574417969
 20
282.9078892737384
 30
3.646124999999996
 70
     8
  0
VERTEX
  5
57841
330
5780B
100
AcDbEntity
  8
0
 62
     0
100
AcDbVertex
100
AcDb2dVertex
 10
837.1778741674122
 20
282.8553030661613
 30
3.646124999999996
 70
     8
  0
VERTEX
  5
57842
330
5780B
100
AcDbEntity
  8
0
 62
     0
100
AcDbVertex
100
AcDb2dVertex
 10
837.4289148245871
 20
282.8117316397754
 30
3.646124999999996
 70
     8
  0
VERTEX
  5
57843
330
5780B
100
AcDbEntity
  8
0
 62
     0
100
AcDbVertex
100
AcDb2dVertex
 10
837.6882274137924
 20
282.7771749965428
 30
3.646124999999996
 70
     8
  0
VERTEX
  5
57844
330
5780B
100
AcDbEntity
  8
0
 62
     0
100
AcDbVertex
100
AcDb2dVertex
 10
837.9550599354956
 20
282.7516331384286
 30
3.646124999999996
 70
     8
  0
VERTEX
  5
57845
330
5780B
100
AcDbEntity
  8
0
 62
     0
100
AcDbVertex
100
AcDb2dVertex
 10
838.2286603901587
 20
282.7351060673962
 30
3.646124999999996
 70
     8
  0
VERTEX
  5
57846
330
5780B
100
AcDbEntity
  8
0
 62
     0
100
AcDbVertex
100
AcDb2dVertex
 10
838.5079947825188
 20
282.7274372780559
 30
3.646124999999996
 70
     8
  0
VERTEX
  5
57847
330
5780B
100
AcDbEntity
  8
0
 62
     0
100
AcDbVertex
100
AcDb2dVertex
 10
838.7909011343706
 20
282.7278442355971
 30
3.646124999999996
 70
     8
  0
VERTEX
  5
57848
330
5780B
100
AcDbEntity
  8
0
 62
     0
100
AcDbVertex
100
AcDb2dVertex
 10
839.074935471779
 20
282.7353878978619
 30
3.646124999999996
 70
     8
  0
VERTEX
  5
57849
330
5780B
100
AcDbEntity
  8
0
 62
     0
100
AcDbVertex
100
AcDb2dVertex
 10
839.3576538208025
 20
282.7491292226849
 30
3.646124999999996
 70
     8
  0
VERTEX
  5
5784A
330
5780B
100
AcDbEntity
  8
0
 62
     0
100
AcDbVertex
100
AcDb2dVertex
 10
839.6366122075056
 20
282.7681291679051
 30
3.646124999999996
 70
     8
  0
VERTEX
  5
5784B
330
5780B
100
AcDbEntity
  8
0
 62
     0
100
AcDbVertex
100
AcDb2dVertex
 10
839.9093666579503
 20
282.7914486913629
 30
3.646124999999996
 70
     8
  0
VERTEX
  5
5784C
330
5780B
100
AcDbEntity
  8
0
 62
     0
100
AcDbVertex
100
AcDb2dVertex
 10
840.1734731981978
 20
282.8181487508929
 30
3.646124999999996
 70
     8
  0
VERTEX
  5
5784D
330
5780B
100
AcDbEntity
  8
0
 62
     0
100
AcDbVertex
100
AcDb2dVertex
 10
840.4264878543129
 20
282.8472903043357
 30
3.646124999999996
 70
     8
  0
VERTEX
  5
5784E
330
5780B
100
AcDbEntity
  8
0
 62
     0
100
AcDbVertex
100
AcDb2dVertex
 10
840.6668126434832
 20
282.8780595154789
 30
3.646124999999996
 70
     8
  0
VERTEX
  5
5784F
330
5780B
100
AcDbEntity
  8
0
 62
     0
100
AcDbVertex
100
AcDb2dVertex
 10
840.8962335474223
 20
282.9101433719024
 30
3.646124999999996
 70
     8
  0
VERTEX
  5
57850
330
5780B
100
AcDbEntity
  8
0
 62
     0
100
AcDbVertex
100
AcDb2dVertex
 10
841.1173825389699
 20
282.9433540671375
 30
3.646124999999996
 70
     8
  0
VERTEX
  5
57851
330
5780B
100
AcDbEntity
  8
0
 62
     0
100
AcDbVertex
100
AcDb2dVertex
 10
841.33289159096
 20
282.9775037947184
 30
3.646124999999996
 70
     8
  0
VERTEX
  5
57852
330
5780B
100
AcDbEntity
  8
0
 62
     0
100
AcDbVertex
100
AcDb2dVertex
 10
841.545392676238
 20
283.0124047481738
 30
3.646124999999996
 70
     8
  0
VERTEX
  5
57853
330
5780B
100
AcDbEntity
  8
0
 62
     0
100
AcDbVertex
100
AcDb2dVertex
 10
841.7575177676376
 20
283.047869121035
 30
3.646124999999996
 70
     8
  0
VERTEX
  5
57854
330
5780B
100
AcDbEntity
  8
0
 62
     0
100
AcDbVertex
100
AcDb2dVertex
 10
841.9718988380013
 20
283.0837091068334
 30
3.646124999999996
 70
     8
  0
VERTEX
  5
57855
330
5780B
100
AcDbEntity
  8
0
 62
     0
100
AcDbVertex
100
AcDb2dVertex
 10
842.191167860169
 20
283.1197368991018
 30
3.646124999999996
 70
     8
  0
VERTEX
  5
57856
330
5780B
100
AcDbEntity
  8
0
 62
     0
100
AcDbVertex
100
AcDb2dVertex
 10
842.4173928122369
 20
283.1551073638197
 30
3.646124999999996
 70
     8
  0
VERTEX
  5
57857
330
5780B
100
AcDbEntity
  8
0
 62
     0
100
AcDbVertex
100
AcDb2dVertex
 10
842.6503856933402
 20
283.18634605677
 30
3.646124999999996
 70
     8
  0
VERTEX
  5
57858
330
5780B
100
AcDbEntity
  8
0
 62
     0
100
AcDbVertex
100
AcDb2dVertex
 10
842.8893945078737
 20
283.2093212061881
 30
3.646124999999996
 70
     8
  0
VERTEX
  5
57859
330
5780B
100
AcDbEntity
  8
0
 62
     0
100
AcDbVertex
100
AcDb2dVertex
 10
843.133667260232
 20
283.2199010403034
 30
3.646124999999996
 70
     8
  0
VERTEX
  5
5785A
330
5780B
100
AcDbEntity
  8
0
 62
     0
100
AcDbVertex
100
AcDb2dVertex
 10
843.3824519548071
 20
283.2139537873499
 30
3.646124999999996
 70
     8
  0
VERTEX
  5
5785B
330
5780B
100
AcDbEntity
  8
0
 62
     0
100
AcDbVertex
100
AcDb2dVertex
 10
843.6349965959966
 20
283.1873476755614
 30
3.646124999999996
 70
     8
  0
VERTEX
  5
5785C
330
5780B
100
AcDbEntity
  8
0
 62
     0
100
AcDbVertex
100
AcDb2dVertex
 10
843.8905491881893
 20
283.1359509331718
 30
3.646124999999996
 70
     8
  0
VERTEX
  5
5785D
330
5780B
100
AcDbEntity
  8
0
 62
     0
100
AcDbVertex
100
AcDb2dVertex
 10
844.1483577357832
 20
283.0556317884106
 30
3.646124999999996
 70
     8
  0
VERTEX
  5
5785E
330
5780B
100
AcDbEntity
  8
0
 62
     0
100
AcDbVertex
100
AcDb2dVertex
 10
844.4073255804841
 20
282.9432288098089
 30
3.646124999999996
 70
     8
  0
VERTEX
  5
5785F
330
5780B
100
AcDbEntity
  8
0
 62
     0
100
AcDbVertex
100
AcDb2dVertex
 10
844.6649774132369
 20
282.7994619270699
 30
3.646124999999996
 70
     8
  0
VERTEX
  5
57860
330
5780B
100
AcDbEntity
  8
0
 62
     0
100
AcDbVertex
100
AcDb2dVertex
 10
844.9184932623037
 20
282.6260214101955
 30
3.646124999999996
 70
     8
  0
VERTEX
  5
57861
330
5780B
100
AcDbEntity
  8
0
 62
     0
100
AcDbVertex
100
AcDb2dVertex
 10
845.1650531559405
 20
282.4245975291863
 30
3.646124999999996
 70
     8
  0
VERTEX
  5
57862
330
5780B
100
AcDbEntity
  8
0
 62
     0
100
AcDbVertex
100
AcDb2dVertex
 10
845.4018371224121
 20
282.1968805540427
 30
3.646124999999996
 70
     8
  0
VERTEX
  5
57863
330
5780B
100
AcDbEntity
  8
0
 62
     0
100
AcDbVertex
100
AcDb2dVertex
 10
845.6260251899719
 20
281.9445607547652
 30
3.646124999999996
 70
     8
  0
VERTEX
  5
57864
330
5780B
100
AcDbEntity
  8
0
 62
     0
100
AcDbVertex
100
AcDb2dVertex
 10
845.8347973868818
 20
281.6693284013556
 30
3.646124999999996
 70
     8
  0
VERTEX
  5
57865
330
5780B
100
AcDbEntity
  8
0
 62
     0
100
AcDbVertex
100
AcDb2dVertex
 10
846.0253337414036
 20
281.372873763813
 30
3.646124999999996
 70
     8
  0
VERTEX
  5
57866
330
5780B
100
AcDbEntity
  8
0
 62
     0
100
AcDbVertex
100
AcDb2dVertex
 10
846.1958169393261
 20
281.0574192343923
 30
3.646124999999996
 70
     8
  0
VERTEX
  5
57867
330
5780B
100
AcDbEntity
  8
0
 62
     0
100
AcDbVertex
100
AcDb2dVertex
 10
846.3484402965903
 20
280.7273156943746
 30
3.646124999999996
 70
     8
  0
VERTEX
  5
57868
330
5780B
100
AcDbEntity
  8
0
 62
     0
100
AcDbVertex
100
AcDb2dVertex
 10
846.4863997866643
 20
280.38744614729
 30
3.646124999999996
 70
     8
  0
VERTEX
  5
57869
330
5780B
100
AcDbEntity
  8
0
 62
     0
100
AcDbVertex
100
AcDb2dVertex
 10
846.6128913830218
 20
280.0426935966726
 30
3.646124999999996
 70
     8
  0
VERTEX
  5
5786A
330
5780B
100
AcDbEntity
  8
0
 62
     0
100
AcDbVertex
100
AcDb2dVertex
 10
846.7311110591303
 20
279.6979410460552
 30
3.646124999999996
 70
     8
  0
VERTEX
  5
5786B
330
5780B
100
AcDbEntity
  8
0
 62
     0
100
AcDbVertex
100
AcDb2dVertex
 10
846.844254788461
 20
279.3580714989705
 30
3.646124999999996
 70
     8
  0
VERTEX
  5
5786C
330
5780B
100
AcDbEntity
  8
0
 62
     0
100
AcDbVertex
100
AcDb2dVertex
 10
846.9555185444844
 20
279.0279679589514
 30
3.646124999999996
 70
     8
  0
VERTEX
  5
5786D
330
5780B
100
AcDbEntity
  8
0
 62
     0
100
AcDbVertex
100
AcDb2dVertex
 10
847.0680983006744
 20
278.7125134295322
 30
3.646124999999996
 70
     8
  0
VERTEX
  5
5786E
330
5780B
100
AcDbEntity
  8
0
 62
     0
100
AcDbVertex
100
AcDb2dVertex
 10
847.1846260351059
 20
278.4158396828065
 30
3.646124999999996
 70
     8
  0
VERTEX
  5
5786F
330
5780B
100
AcDbEntity
  8
0
 62
     0
100
AcDbVertex
100
AcDb2dVertex
 10
847.3054777442701
 20
278.1390735651128
 30
3.646124999999996
 70
     8
  0
VERTEX
  5
57870
330
5780B
100
AcDbEntity
  8
0
 62
     0
100
AcDbVertex
100
AcDb2dVertex
 10
847.4304654292662
 20
277.8825906913547
 30
3.646124999999996
 70
     8
  0
VERTEX
  5
57871
330
5780B
100
AcDbEntity
  8
0
 62
     0
100
AcDbVertex
100
AcDb2dVertex
 10
847.5594010911956
 20
277.6467666764316
 30
3.646124999999996
 70
     8
  0
VERTEX
  5
57872
330
5780B
100
AcDbEntity
  8
0
 62
     0
100
AcDbVertex
100
AcDb2dVertex
 10
847.692096731154
 20
277.4319771352442
 30
3.646124999999996
 70
     8
  0
VERTEX
  5
57873
330
5780B
100
AcDbEntity
  8
0
 62
     0
100
AcDbVertex
100
AcDb2dVertex
 10
847.8283643502376
 20
277.2385976826963
 30
3.646124999999996
 70
     8
  0
VERTEX
  5
57874
330
5780B
100
AcDbEntity
  8
0
 62
     0
100
AcDbVertex
100
AcDb2dVertex
 10
847.9680159495531
 20
277.0670039336859
 30
3.646124999999996
 70
     8
  0
VERTEX
  5
57875
330
5780B
100
AcDbEntity
  8
0
 62
     0
100
AcDbVertex
100
AcDb2dVertex
 10
848.1108635301911
 20
276.9175715031165
 30
3.646124999999996
 70
     8
  0
VERTEX
  5
57876
330
5780B
100
AcDbEntity
  8
0
 62
     0
100
AcDbVertex
100
AcDb2dVertex
 10
848.2568444251981
 20
276.7898621722914
 30
3.646124999999996
 70
     8
  0
VERTEX
  5
57877
330
5780B
100
AcDbEntity
  8
0
 62
     0
100
AcDbVertex
100
AcDb2dVertex
 10
848.4063972954087
 20
276.6801823881413
 30
3.646124999999996
 70
     8
  0
VERTEX
  5
57878
330
5780B
100
AcDbEntity
  8
0
 62
     0
100
AcDbVertex
100
AcDb2dVertex
 10
848.5600861335939
 20
276.5840247639949
 30
3.646124999999996
 70
     8
  0
VERTEX
  5
57879
330
5780B
100
AcDbEntity
  8
0
 62
     0
100
AcDbVertex
100
AcDb2dVertex
 10
848.7184749325388
 20
276.4968819131867
 30
3.646124999999996
 70
     8
  0
VERTEX
  5
5787A
330
5780B
100
AcDbEntity
  8
0
 62
     0
100
AcDbVertex
100
AcDb2dVertex
 10
848.8821276850144
 20
276.4142464490454
 30
3.646124999999996
 70
     8
  0
VERTEX
  5
5787B
330
5780B
100
AcDbEntity
  8
0
 62
     0
100
AcDbVertex
100
AcDb2dVertex
 10
849.0516083838004
 20
276.3316109849041
 30
3.646124999999996
 70
     8
  0
VERTEX
  5
5787C
330
5780B
100
AcDbEntity
  8
0
 62
     0
100
AcDbVertex
100
AcDb2dVertex
 10
849.2274810216738
 20
276.2444681340945
 30
3.646124999999996
 70
     8
  0
VERTEX
  5
5787D
330
5780B
100
AcDbEntity
  8
0
 62
     0
100
AcDbVertex
100
AcDb2dVertex
 10
849.4103095914109
 20
276.1483105099481
 30
3.646124999999996
 70
     8
  0
VERTEX
  5
5787E
330
5780B
100
AcDbEntity
  8
0
 62
     0
100
AcDbVertex
100
AcDb2dVertex
 10
849.5999060928053
 20
276.0396010660922
 30
3.646124999999996
 70
     8
  0
VERTEX
  5
5787F
330
5780B
100
AcDbEntity
  8
0
 62
     0
100
AcDbVertex
100
AcDb2dVertex
 10
849.7930745536887
 20
275.9186841173308
 30
3.646124999999996
 70
     8
  0
VERTEX
  5
57880
330
5780B
100
AcDbEntity
  8
0
 62
     0
100
AcDbVertex
100
AcDb2dVertex
 10
849.985867008915
 20
275.7868743187636
 30
3.646124999999996
 70
     8
  0
VERTEX
  5
57881
330
5780B
100
AcDbEntity
  8
0
 62
     0
100
AcDbVertex
100
AcDb2dVertex
 10
850.1743354933354
 20
275.6454863254903
 30
3.646124999999996
 70
     8
  0
VERTEX
  5
57882
330
5780B
100
AcDbEntity
  8
0
 62
     0
100
AcDbVertex
100
AcDb2dVertex
 10
850.3545320417984
 20
275.4958347926089
 30
3.646124999999996
 70
     8
  0
VERTEX
  5
57883
330
5780B
100
AcDbEntity
  8
0
 62
     0
100
AcDbVertex
100
AcDb2dVertex
 10
850.5225086891552
 20
275.3392343752208
 30
3.646124999999996
 70
     8
  0
VERTEX
  5
57884
330
5780B
100
AcDbEntity
  8
0
 62
     0
100
AcDbVertex
100
AcDb2dVertex
 10
850.6743174702565
 20
275.1769997284241
 30
3.646124999999996
 70
     8
  0
VERTEX
  5
57885
330
5780B
100
AcDbEntity
  8
0
 62
     0
100
AcDbVertex
100
AcDb2dVertex
 10
850.8060104199541
 20
275.0104455073198
 30
3.646124999999996
 70
     8
  0
VERTEX
  5
57886
330
5780B
100
AcDbEntity
  8
0
 62
     0
100
AcDbVertex
100
AcDb2dVertex
 10
850.9141252346315
 20
274.8406829080339
 30
3.646124999999996
 70
     8
  0
VERTEX
  5
57887
330
5780B
100
AcDbEntity
  8
0
 62
     0
100
AcDbVertex
100
AcDb2dVertex
 10
850.9971422568325
 20
274.6680092908094
 30
3.646124999999996
 70
     8
  0
VERTEX
  5
57888
330
5780B
100
AcDbEntity
  8
0
 62
     0
100
AcDbVertex
100
AcDb2dVertex
 10
851.0540274906391
 20
274.4925185569185
 30
3.646124999999996
 70
     8
  0
VERTEX
  5
57889
330
5780B
100
AcDbEntity
  8
0
 62
     0
100
AcDbVertex
100
AcDb2dVertex
 10
851.0837469401216
 20
274.3143046076303
 30
3.646124999999996
 70
     8
  0
VERTEX
  5
5788A
330
5780B
100
AcDbEntity
  8
0
 62
     0
100
AcDbVertex
100
AcDb2dVertex
 10
851.0852666093626
 20
274.1334613442157
 30
3.646124999999996
 70
     8
  0
VERTEX
  5
5788B
330
5780B
100
AcDbEntity
  8
0
 62
     0
100
AcDbVertex
100
AcDb2dVertex
 10
851.0575525024409
 20
273.9500826679452
 30
3.646124999999996
 70
     8
  0
VERTEX
  5
5788C
330
5780B
100
AcDbEntity
  8
0
 62
     0
100
AcDbVertex
100
AcDb2dVertex
 10
850.9995706234329
 20
273.7642624800911
 30
3.646124999999996
 70
     8
  0
VERTEX
  5
5788D
330
5780B
100
AcDbEntity
  8
0
 62
     0
100
AcDbVertex
100
AcDb2dVertex
 10
850.9102869764149
 20
273.5760946819226
 30
3.646124999999996
 70
     8
  0
VERTEX
  5
5788E
330
5780B
100
AcDbEntity
  8
0
 62
     0
100
AcDbVertex
100
AcDb2dVertex
 10
850.7901715540661
 20
273.3846715353026
 30
3.646124999999996
 70
     8
  0
VERTEX
  5
5788F
330
5780B
100
AcDbEntity
  8
0
 62
     0
100
AcDbVertex
100
AcDb2dVertex
 10
850.6457103034257
 20
273.185078744456
 30
3.646124999999996
 70
     8
  0
VERTEX
  5
57890
330
5780B
100
AcDbEntity
  8
0
 62
     0
100
AcDbVertex
100
AcDb2dVertex
 10
850.4848931601383
 20
272.9714003741971
 30
3.646124999999996
 70
     8
  0
VERTEX
  5
57891
330
5780B
100
AcDbEntity
  8
0
 62
     0
100
AcDbVertex
100
AcDb2dVertex
 10
850.3157100598462
 20
272.7377204893443
 30
3.646124999999996
 70
     8
  0
VERTEX
  5
57892
330
5780B
100
AcDbEntity
  8
0
 62
     0
100
AcDbVertex
100
AcDb2dVertex
 10
850.1461509381854
 20
272.4781231547119
 30
3.646124999999996
 70
     8
  0
VERTEX
  5
57893
330
5780B
100
AcDbEntity
  8
0
 62
     0
100
AcDbVertex
100
AcDb2dVertex
 10
849.9842057308006
 20
272.1866924351155
 30
3.646124999999996
 70
     8
  0
VERTEX
  5
57894
330
5780B
100
AcDbEntity
  8
0
 62
     0
100
AcDbVertex
100
AcDb2dVertex
 10
849.8378643733312
 20
271.8575123953724
 30
3.646124999999996
 70
     8
  0
VERTEX
  5
57895
330
5780B
100
AcDbEntity
  8
0
 62
     0
100
AcDbVertex
100
AcDb2dVertex
 10
849.7151168014159
 20
271.4846671002979
 30
3.646124999999996
 70
     8
  0
VERTEX
  5
57896
330
5780B
100
AcDbEntity
  8
0
 62
     0
100
AcDbVertex
100
AcDb2dVertex
 10
826.0363314403651
 20
285.3313619612273
 30
3.646124999999996
 70
    16
  0
VERTEX
  5
57897
330
5780B
100
AcDbEntity
  8
0
 62
     0
100
AcDbVertex
100
AcDb2dVertex
 10
827.1913946803685
 20
285.8121495373869
 30
3.646124999999996
 70
    16
  0
VERTEX
  5
57898
330
5780B
100
AcDbEntity
  8
0
 62
     0
100
AcDbVertex
100
AcDb2dVertex
 10
829.1164994101304
 20
286.3890950309217
 30
3.646124999999996
 70
    16
  0
VERTEX
  5
57899
330
5780B
100
AcDbEntity
  8
0
 62
     0
100
AcDbVertex
100
AcDb2dVertex
 10
831.5228793169691
 20
286.2929381189077
 30
3.646124999999996
 70
    16
  0
VERTEX
  5
5789A
330
5780B
100
AcDbEntity
  8
0
 62
     0
100
AcDbVertex
100
AcDb2dVertex
 10
833.3517286091703
 20
285.4275188732413
 30
3.646124999999996
 70
    16
  0
VERTEX
  5
5789B
330
5780B
100
AcDbEntity
  8
0
 62
     0
100
AcDbVertex
100
AcDb2dVertex
 10
834.8918135994129
 20
283.9851551394041
 30
3.646124999999996
 70
    16
  0
VERTEX
  5
5789C
330
5780B
100
AcDbEntity
  8
0
 62
     0
100
AcDbVertex
100
AcDb2dVertex
 10
836.1431302662511
 20
283.0235789817251
 30
3.646124999999996
 70
    16
  0
VERTEX
  5
5789D
330
5780B
100
AcDbEntity
  8
0
 62
     0
100
AcDbVertex
100
AcDb2dVertex
 10
838.1644904335734
 20
282.6389483175809
 30
3.646124999999996
 70
    16
  0
VERTEX
  5
5789E
330
5780B
100
AcDbEntity
  8
0
 62
     0
100
AcDbVertex
100
AcDb2dVertex
 10
840.5708703404123
 20
282.8312641523344
 30
3.646124999999996
 70
    16
  0
VERTEX
  5
5789F
330
5780B
100
AcDbEntity
  8
0
 62
     0
100
AcDbVertex
100
AcDb2dVertex
 10
842.1109553306546
 20
283.1197368991018
 30
3.646124999999996
 70
    16
  0
VERTEX
  5
578A0
330
5780B
100
AcDbEntity
  8
0
 62
     0
100
AcDbVertex
100
AcDb2dVertex
 10
844.132315497977
 20
283.4082096458693
 30
3.646124999999996
 70
    16
  0
VERTEX
  5
578A1
330
5780B
100
AcDbEntity
  8
0
 62
     0
100
AcDbVertex
100
AcDb2dVertex
 10
846.2499290921371
 20
281.5812152478865
 30
3.646124999999996
 70
    16
  0
VERTEX
  5
578A2
330
5780B
100
AcDbEntity
  8
0
 62
     0
100
AcDbVertex
100
AcDb2dVertex
 10
847.0199705818956
 20
278.5041719454588
 30
3.646124999999996
 70
    16
  0
VERTEX
  5
578A3
330
5780B
100
AcDbEntity
  8
0
 62
     0
100
AcDbVertex
100
AcDb2dVertex
 10
848.0787783843357
 20
276.6771775474759
 30
3.646124999999996
 70
    16
  0
VERTEX
  5
578A4
330
5780B
100
AcDbEntity
  8
0
 62
     0
100
AcDbVertex
100
AcDb2dVertex
 10
849.3300970618994
 20
276.2925468833318
 30
3.646124999999996
 70
    16
  0
VERTEX
  5
578A5
330
5780B
100
AcDbEntity
  8
0
 62
     0
100
AcDbVertex
100
AcDb2dVertex
 10
851.0626909165402
 20
275.0424979788853
 30
3.646124999999996
 70
    16
  0
VERTEX
  5
578A6
330
5780B
100
AcDbEntity
  8
0
 62
     0
100
AcDbVertex
100
AcDb2dVertex
 10
851.2552017916613
 20
273.6001342450467
 30
3.646124999999996
 70
    16
  0
VERTEX
  5
578A7
330
5780B
100
AcDbEntity
  8
0
 62
     0
100
AcDbVertex
100
AcDb2dVertex
 10
850.0038831140974
 20
272.542400169991
 30
3.646124999999996
 70
    16
  0
VERTEX
  5
578A8
330
5780B
100
AcDbEntity
  8
0
 62
     0
100
AcDbVertex
100
AcDb2dVertex
 10
849.7151168014159
 20
271.4846671002979
 30
3.646124999999996
 70
    16
  0
SEQEND
  5
578A9
330
5780B
100
AcDbEntity
  8
0
 62
     0
  0
POLYLINE
  5
578AA
330
458D6
100
AcDbEntity
  8
0
 62
     0
100
AcDb2dPolyline
 66
     1
 10
0.0
 20
0.0
 30
3.646124999999996
  0
VERTEX
  5
578AB
330
578AA
100
AcDbEntity
  8
0
 62
     0
100
AcDbVertex
100
AcDb2dVertex
 10
921.9019553607894
 20
285.2592597289561
 30
3.646124999999996
  0
VERTEX
  5
578AC
330
578AA
100
AcDbEntity
  8
0
 62
     0
100
AcDbVertex
100
AcDb2dVertex
 10
921.2210735850842
 20
285.2938110865106
 30
3.646124999999996
  0
VERTEX
  5
578AD
330
578AA
100
AcDbEntity
  8
0
 62
     0
100
AcDbVertex
100
AcDb2dVertex
 10
920.6551902490037
 20
285.3418859000674
 30
3.646124999999996
  0
VERTEX
  5
578AE
330
578AA
100
AcDbEntity
  8
0
 62
     0
100
AcDbVertex
100
AcDb2dVertex
 10
920.1874472945036
 20
285.4012302922718
 30
3.646124999999996
  0
VERTEX
  5
578AF
330
578AA
100
AcDbEntity
  8
0
 62
     0
100
AcDbVertex
100
AcDb2dVertex
 10
919.8009866635301
 20
285.4695903857709
 30
3.646124999999996
  0
VERTEX
  5
578B0
330
578AA
100
AcDbEntity
  8
0
 62
     0
100
AcDbVertex
100
AcDb2dVertex
 10
919.4789502980381
 20
285.5447123032074
 30
3.646124999999996
  0
VERTEX
  5
578B1
330
578AA
100
AcDbEntity
  8
0
 62
     0
100
AcDbVertex
100
AcDb2dVertex
 10
919.2044801399772
 20
285.6243421672268
 30
3.646124999999996
  0
VERTEX
  5
578B2
330
578AA
100
AcDbEntity
  8
0
 62
     0
100
AcDbVertex
100
AcDb2dVertex
 10
918.9607181312997
 20
285.7062261004774
 30
3.646124999999996
  0
VERTEX
  5
578B3
330
578AA
100
AcDbEntity
  8
0
 62
     0
100
AcDbVertex
100
AcDb2dVertex
 10
918.7308062139548
 20
285.7881102256019
 30
3.646124999999996
  0
VERTEX
  5
578B4
330
578AA
100
AcDbEntity
  8
0
 62
     0
100
AcDbVertex
100
AcDb2dVertex
 10
918.5006020071163
 20
285.8679441543985
 30
3.646124999999996
  0
VERTEX
  5
578B5
330
578AA
100
AcDbEntity
  8
0
 62
     0
100
AcDbVertex
100
AcDb2dVertex
 10
918.2668258388165
 20
285.9444914552631
 30
3.646124999999996
  0
VERTEX
  5
578B6
330
578AA
100
AcDbEntity
  8
0
 62
     0
100
AcDbVertex
100
AcDb2dVertex
 10
918.0289137143239
 20
286.0167191857474
 30
3.646124999999996
  0
VERTEX
  5
578B7
330
578AA
100
AcDbEntity
  8
0
 62
     0
100
AcDbVertex
100
AcDb2dVertex
 10
917.7863016388924
 20
286.0835944033985
 30
3.646124999999996
  0
VERTEX
  5
578B8
330
578AA
100
AcDbEntity
  8
0
 62
     0
100
AcDbVertex
100
AcDb2dVertex
 10
917.5384256177816
 20
286.1440841657667
 30
3.646124999999996
  0
VERTEX
  5
578B9
330
578AA
100
AcDbEntity
  8
0
 62
     0
100
AcDbVertex
100
AcDb2dVertex
 10
917.2847216562539
 20
286.1971555304004
 30
3.646124999999996
  0
VERTEX
  5
578BA
330
578AA
100
AcDbEntity
  8
0
 62
     0
100
AcDbVertex
100
AcDb2dVertex
 10
917.0246257595634
 20
286.2417755548498
 30
3.646124999999996
  0
VERTEX
  5
578BB
330
578AA
100
AcDbEntity
  8
0
 62
     0
100
AcDbVertex
100
AcDb2dVertex
 10
916.7575739329757
 20
286.2769112966636
 30
3.646124999999996
  0
VERTEX
  5
578BC
330
578AA
100
AcDbEntity
  8
0
 62
     0
100
AcDbVertex
100
AcDb2dVertex
 10
916.4834408442102
 20
286.3016706684049
 30
3.646124999999996
  0
VERTEX
  5
578BD
330
578AA
100
AcDbEntity
  8
0
 62
     0
100
AcDbVertex
100
AcDb2dVertex
 10
916.203855810864
 20
286.3157250026998
 30
3.646124999999996
  0
VERTEX
  5
578BE
330
578AA
100
AcDbEntity
  8
0
 62
     0
100
AcDbVertex
100
AcDb2dVertex
 10
915.9208868130031
 20
286.3188864871904
 30
3.646124999999996
  0
VERTEX
  5
578BF
330
578AA
100
AcDbEntity
  8
0
 62
     0
100
AcDbVertex
100
AcDb2dVertex
 10
915.6366018306846
 20
286.3109673095143
 30
3.646124999999996
  0
VERTEX
  5
578C0
330
578AA
100
AcDbEntity
  8
0
 62
     0
100
AcDbVertex
100
AcDb2dVertex
 10
915.3530688439712
 20
286.2917796573136
 30
3.646124999999996
  0
VERTEX
  5
578C1
330
578AA
100
AcDbEntity
  8
0
 62
     0
100
AcDbVertex
100
AcDb2dVertex
 10
915.0723558329261
 20
286.2611357182274
 30
3.646124999999996
  0
VERTEX
  5
578C2
330
578AA
100
AcDbEntity
  8
0
 62
     0
100
AcDbVertex
100
AcDb2dVertex
 10
914.7965307776118
 20
286.2188476798978
 30
3.646124999999996
  0
VERTEX
  5
578C3
330
578AA
100
AcDbEntity
  8
0
 62
     0
100
AcDbVertex
100
AcDb2dVertex
 10
914.5276616580888
 20
286.1647277299654
 30
3.646124999999996
  0
VERTEX
  5
578C4
330
578AA
100
AcDbEntity
  8
0
 62
     0
100
AcDbVertex
100
AcDb2dVertex
 10
914.2673777916247
 20
286.0986819615935
 30
3.646124999999996
  0
VERTEX
  5
578C5
330
578AA
100
AcDbEntity
  8
0
 62
     0
100
AcDbVertex
100
AcDb2dVertex
 10
914.0155538443108
 20
286.0209920900511
 30
3.646124999999996
  0
VERTEX
  5
578C6
330
578AA
100
AcDbEntity
  8
0
 62
     0
100
AcDbVertex
100
AcDb2dVertex
 10
913.77162581944
 20
285.9320337361296
 30
3.646124999999996
  0
VERTEX
  5
578C7
330
578AA
100
AcDbEntity
  8
0
 62
     0
100
AcDbVertex
100
AcDb2dVertex
 10
913.5350297203116
 20
285.8321825206193
 30
3.646124999999996
  0
VERTEX
  5
578C8
330
578AA
100
AcDbEntity
  8
0
 62
     0
100
AcDbVertex
100
AcDb2dVertex
 10
913.3052015502183
 20
285.7218140643145
 30
3.646124999999996
  0
VERTEX
  5
578C9
330
578AA
100
AcDbEntity
  8
0
 62
     0
100
AcDbVertex
100
AcDb2dVertex
 10
913.0815773124536
 20
285.6013039880071
 30
3.646124999999996
  0
VERTEX
  5
578CA
330
578AA
100
AcDbEntity
  8
0
 62
     0
100
AcDbVertex
100
AcDb2dVertex
 10
912.8635930103193
 20
285.4710279124856
 30
3.646124999999996
  0
VERTEX
  5
578CB
330
578AA
100
AcDbEntity
  8
0
 62
     0
100
AcDbVertex
100
AcDb2dVertex
 10
912.6506846471087
 20
285.3313614585459
 30
3.646124999999996
  0
VERTEX
  5
578CC
330
578AA
100
AcDbEntity
  8
0
 62
     0
100
AcDbVertex
100
AcDb2dVertex
 10
912.4423822268736
 20
285.1829619573367
 30
3.646124999999996
  0
VERTEX
  5
578CD
330
578AA
100
AcDbEntity
  8
0
 62
     0
100
AcDbVertex
100
AcDb2dVertex
 10
912.2385917567095
 20
285.0276135814372
 30
3.646124999999996
  0
VERTEX
  5
578CE
330
578AA
100
AcDbEntity
  8
0
 62
     0
100
AcDbVertex
100
AcDb2dVertex
 10
912.0393132444739
 20
284.8673822137866
 30
3.646124999999996
  0
VERTEX
  5
578CF
330
578AA
100
AcDbEntity
  8
0
 62
     0
100
AcDbVertex
100
AcDb2dVertex
 10
911.8445466980212
 20
284.7043337373223
 30
3.646124999999996
  0
VERTEX
  5
578D0
330
578AA
100
AcDbEntity
  8
0
 62
     0
100
AcDbVertex
100
AcDb2dVertex
 10
911.6542921252028
 20
284.5405340349838
 30
3.646124999999996
  0
VERTEX
  5
578D1
330
578AA
100
AcDbEntity
  8
0
 62
     0
100
AcDbVertex
100
AcDb2dVertex
 10
911.4685495338731
 20
284.3780489897069
 30
3.646124999999996
  0
VERTEX
  5
578D2
330
578AA
100
AcDbEntity
  8
0
 62
     0
100
AcDbVertex
100
AcDb2dVertex
 10
911.2873189318895
 20
284.2189444844325
 30
3.646124999999996
  0
VERTEX
  5
578D3
330
578AA
100
AcDbEntity
  8
0
 62
     0
100
AcDbVertex
100
AcDb2dVertex
 10
911.1106003271034
 20
284.0652864020967
 30
3.646124999999996
  0
VERTEX
  5
578D4
330
578AA
100
AcDbEntity
  8
0
 62
     0
100
AcDbVertex
100
AcDb2dVertex
 10
910.9380490607561
 20
283.9188276132211
 30
3.646124999999996
  0
VERTEX
  5
578D5
330
578AA
100
AcDbEntity
  8
0
 62
     0
100
AcDbVertex
100
AcDb2dVertex
 10
910.7679418076191
 20
283.7800689386556
 30
3.646124999999996
  0
VERTEX
  5
578D6
330
578AA
100
AcDbEntity
  8
0
 62
     0
100
AcDbVertex
100
AcDb2dVertex
 10
910.598210575845
 20
283.649198186832
 30
3.646124999999996
  0
VERTEX
  5
578D7
330
578AA
100
AcDbEntity
  8
0
 62
     0
100
AcDbVertex
100
AcDb2dVertex
 10
910.4267873735951
 20
283.5264031661829
 30
3.646124999999996
  0
VERTEX
  5
578D8
330
578AA
100
AcDbEntity
  8
0
 62
     0
100
AcDbVertex
100
AcDb2dVertex
 10
910.2516042090249
 20
283.4118716851417
 30
3.646124999999996
  0
VERTEX
  5
578D9
330
578AA
100
AcDbEntity
  8
0
 62
     0
100
AcDbVertex
100
AcDb2dVertex
 10
910.0705930902899
 20
283.3057915521377
 30
3.646124999999996
  0
VERTEX
  5
578DA
330
578AA
100
AcDbEntity
  8
0
 62
     0
100
AcDbVertex
100
AcDb2dVertex
 10
909.8816860255455
 20
283.2083505756075
 30
3.646124999999996
  0
VERTEX
  5
578DB
330
578AA
100
AcDbEntity
  8
0
 62
     0
100
AcDbVertex
100
AcDb2dVertex
 10
909.6828150229532
 20
283.1197365639805
 30
3.646124999999996
  0
VERTEX
  5
578DC
330
578AA
100
AcDbEntity
  8
0
 62
     0
100
AcDbVertex
100
AcDb2dVertex
 10
909.4723820892239
 20
283.0401060246115
 30
3.646124999999996
  0
VERTEX
  5
578DD
330
578AA
100
AcDbEntity
  8
0
 62
     0
100
AcDbVertex
100
AcDb2dVertex
 10
909.2506692253374
 20
282.969490260543
 30
3.646124999999996
  0
SEQEND
  5
578DE
330
578AA
100
AcDbEntity
  8
0
 62
     0
  0
POLYLINE
  5
578DF
330
458D6
100
AcDbEntity
  8
0
 62
     0
100
AcDb2dPolyline
 66
     1
 10
0.0
 20
0.0
 30
3.646124999999996
  0
VERTEX
  5
578E0
330
578DF
100
AcDbEntity
  8
0
 62
     0
100
AcDbVertex
100
AcDb2dVertex
 10
909.0184284308175
 20
282.9078892737384
 30
3.646124999999996
  0
VERTEX
  5
578E1
330
578DF
100
AcDbEntity
  8
0
 62
     0
100
AcDbVertex
100
AcDb2dVertex
 10
908.7764117052053
 20
282.8553030661613
 30
3.646124999999996
  0
VERTEX
  5
578E2
330
578DF
100
AcDbEntity
  8
0
 62
     0
100
AcDbVertex
100
AcDb2dVertex
 10
908.5253710480303
 20
282.8117316397754
 30
3.646124999999996
  0
VERTEX
  5
578E3
330
578DF
100
AcDbEntity
  8
0
 62
     0
100
AcDbVertex
100
AcDb2dVertex
 10
908.266058458825
 20
282.7771749965428
 30
3.646124999999996
  0
VERTEX
  5
578E4
330
578DF
100
AcDbEntity
  8
0
 62
     0
100
AcDbVertex
100
AcDb2dVertex
 10
907.9992259371218
 20
282.7516331384286
 30
3.646124999999996
  0
VERTEX
  5
578E5
330
578DF
100
AcDbEntity
  8
0
 62
     0
100
AcDbVertex
100
AcDb2dVertex
 10
907.7256254824588
 20
282.7351060673962
 30
3.646124999999996
  0
VERTEX
  5
578E6
330
578DF
100
AcDbEntity
  8
0
 62
     0
100
AcDbVertex
100
AcDb2dVertex
 10
907.4462910900987
 20
282.7274372780559
 30
3.646124999999996
  0
VERTEX
  5
578E7
330
578DF
100
AcDbEntity
  8
0
 62
     0
100
AcDbVertex
100
AcDb2dVertex
 10
907.1633847382438
 20
282.7278442355971
 30
3.646124999999996
  0
VERTEX
  5
578E8
330
578DF
100
AcDbEntity
  8
0
 62
     0
100
AcDbVertex
100
AcDb2dVertex
 10
906.8793504008382
 20
282.7353878978619
 30
3.646124999999996
  0
VERTEX
  5
578E9
330
578DF
100
AcDbEntity
  8
0
 62
     0
100
AcDbVertex
100
AcDb2dVertex
 10
906.596632051815
 20
282.7491292226849
 30
3.646124999999996
  0
VERTEX
  5
578EA
330
578DF
100
AcDbEntity
  8
0
 62
     0
100
AcDbVertex
100
AcDb2dVertex
 10
906.3176736651117
 20
282.7681291679051
 30
3.646124999999996
  0
VERTEX
  5
578EB
330
578DF
100
AcDbEntity
  8
0
 62
     0
100
AcDbVertex
100
AcDb2dVertex
 10
906.0449192146673
 20
282.7914486913629
 30
3.646124999999996
  0
VERTEX
  5
578EC
330
578DF
100
AcDbEntity
  8
0
 62
     0
100
AcDbVertex
100
AcDb2dVertex
 10
905.7808126744168
 20
282.8181487508929
 30
3.646124999999996
  0
VERTEX
  5
578ED
330
578DF
100
AcDbEntity
  8
0
 62
     0
100
AcDbVertex
100
AcDb2dVertex
 10
905.5277980183046
 20
282.8472903043357
 30
3.646124999999996
  0
VERTEX
  5
578EE
330
578DF
100
AcDbEntity
  8
0
 62
     0
100
AcDbVertex
100
AcDb2dVertex
 10
905.2874732291313
 20
282.8780595154789
 30
3.646124999999996
  0
VERTEX
  5
578EF
330
578DF
100
AcDbEntity
  8
0
 62
     0
100
AcDbVertex
100
AcDb2dVertex
 10
905.0580523251923
 20
282.9101433719024
 30
3.646124999999996
  0
VERTEX
  5
578F0
330
578DF
100
AcDbEntity
  8
0
 62
     0
100
AcDbVertex
100
AcDb2dVertex
 10
904.8369033336475
 20
282.9433540671375
 30
3.646124999999996
  0
VERTEX
  5
578F1
330
578DF
100
AcDbEntity
  8
0
 62
     0
100
AcDbVertex
100
AcDb2dVertex
 10
904.6213942816574
 20
282.9775037947184
 30
3.646124999999996
  0
VERTEX
  5
578F2
330
578DF
100
AcDbEntity
  8
0
 62
     0
100
AcDbVertex
100
AcDb2dVertex
 10
904.4088931963795
 20
283.0124047481738
 30
3.646124999999996
  0
VERTEX
  5
578F3
330
578DF
100
AcDbEntity
  8
0
 62
     0
100
AcDbVertex
100
AcDb2dVertex
 10
904.1967681049799
 20
283.047869121035
 30
3.646124999999996
  0
VERTEX
  5
578F4
330
578DF
100
AcDbEntity
  8
0
 62
     0
100
AcDbVertex
100
AcDb2dVertex
 10
903.9823870346133
 20
283.0837091068334
 30
3.646124999999996
  0
VERTEX
  5
578F5
330
578DF
100
AcDbEntity
  8
0
 62
     0
100
AcDbVertex
100
AcDb2dVertex
 10
903.7631180124485
 20
283.1197368991018
 30
3.646124999999996
  0
VERTEX
  5
578F6
330
578DF
100
AcDbEntity
  8
0
 62
     0
100
AcDbVertex
100
AcDb2dVertex
 10
903.5368930603805
 20
283.1551073638197
 30
3.646124999999996
  0
VERTEX
  5
578F7
330
578DF
100
AcDbEntity
  8
0
 62
     0
100
AcDbVertex
100
AcDb2dVertex
 10
903.3039001792772
 20
283.18634605677
 30
3.646124999999996
  0
VERTEX
  5
578F8
330
578DF
100
AcDbEntity
  8
0
 62
     0
100
AcDbVertex
100
AcDb2dVertex
 10
903.0648913647437
 20
283.2093212061881
 30
3.646124999999996
  0
VERTEX
  5
578F9
330
578DF
100
AcDbEntity
  8
0
 62
     0
100
AcDbVertex
100
AcDb2dVertex
 10
902.8206186123854
 20
283.2199010403034
 30
3.646124999999996
  0
VERTEX
  5
578FA
330
578DF
100
AcDbEntity
  8
0
 62
     0
100
AcDbVertex
100
AcDb2dVertex
 10
902.5718339178103
 20
283.2139537873499
 30
3.646124999999996
  0
VERTEX
  5
578FB
330
578DF
100
AcDbEntity
  8
0
 62
     0
100
AcDbVertex
100
AcDb2dVertex
 10
902.3192892766209
 20
283.1873476755614
 30
3.646124999999996
  0
VERTEX
  5
578FC
330
578DF
100
AcDbEntity
  8
0
 62
     0
100
AcDbVertex
100
AcDb2dVertex
 10
902.063736684428
 20
283.1359509331718
 30
3.646124999999996
  0
VERTEX
  5
578FD
330
578DF
100
AcDbEntity
  8
0
 62
     0
100
AcDbVertex
100
AcDb2dVertex
 10
901.8059281368312
 20
283.0556317884106
 30
3.646124999999996
  0
VERTEX
  5
578FE
330
578DF
100
AcDbEntity
  8
0
 62
     0
100
AcDbVertex
100
AcDb2dVertex
 10
901.5469602921331
 20
282.9432288098089
 30
3.646124999999996
  0
VERTEX
  5
578FF
330
578DF
100
AcDbEntity
  8
0
 62
     0
100
AcDbVertex
100
AcDb2dVertex
 10
901.2893084593804
 20
282.7994619270699
 30
3.646124999999996
  0
VERTEX
  5
57900
330
578DF
100
AcDbEntity
  8
0
 62
     0
100
AcDbVertex
100
AcDb2dVertex
 10
901.0357926103138
 20
282.6260214101955
 30
3.646124999999996
  0
VERTEX
  5
57901
330
578DF
100
AcDbEntity
  8
0
 62
     0
100
AcDbVertex
100
AcDb2dVertex
 10
900.789232716677
 20
282.4245975291863
 30
3.646124999999996
  0
VERTEX
  5
57902
330
578DF
100
AcDbEntity
  8
0
 62
     0
100
AcDbVertex
100
AcDb2dVertex
 10
900.5524487502054
 20
282.1968805540427
 30
3.646124999999996
  0
VERTEX
  5
57903
330
578DF
100
AcDbEntity
  8
0
 62
     0
100
AcDbVertex
100
AcDb2dVertex
 10
900.3282606826456
 20
281.9445607547652
 30
3.646124999999996
  0
VERTEX
  5
57904
330
578DF
100
AcDbEntity
  8
0
 62
     0
100
AcDbVertex
100
AcDb2dVertex
 10
900.1194884857357
 20
281.6693284013556
 30
3.646124999999996
  0
VERTEX
  5
57905
330
578DF
100
AcDbEntity
  8
0
 62
     0
100
AcDbVertex
100
AcDb2dVertex
 10
899.9289521312137
 20
281.372873763813
 30
3.646124999999996
  0
VERTEX
  5
57906
330
578DF
100
AcDbEntity
  8
0
 62
     0
100
AcDbVertex
100
AcDb2dVertex
 10
899.7584689332883
 20
281.0574192343923
 30
3.646124999999996
  0
VERTEX
  5
57907
330
578DF
100
AcDbEntity
  8
0
 62
     0
100
AcDbVertex
100
AcDb2dVertex
 10
899.6058455760271
 20
280.7273156943746
 30
3.646124999999996
  0
VERTEX
  5
57908
330
578DF
100
AcDbEntity
  8
0
 62
     0
100
AcDbVertex
100
AcDb2dVertex
 10
899.4678860859503
 20
280.38744614729
 30
3.646124999999996
  0
VERTEX
  5
57909
330
578DF
100
AcDbEntity
  8
0
 62
     0
100
AcDbVertex
100
AcDb2dVertex
 10
899.3413944895957
 20
280.0426935966726
 30
3.646124999999996
  0
VERTEX
  5
5790A
330
578DF
100
AcDbEntity
  8
0
 62
     0
100
AcDbVertex
100
AcDb2dVertex
 10
899.2231748134869
 20
279.6979410460552
 30
3.646124999999996
  0
VERTEX
  5
5790B
330
578DF
100
AcDbEntity
  8
0
 62
     0
100
AcDbVertex
100
AcDb2dVertex
 10
899.1100310841563
 20
279.3580714989705
 30
3.646124999999996
  0
VERTEX
  5
5790C
330
578DF
100
AcDbEntity
  8
0
 62
     0
100
AcDbVertex
100
AcDb2dVertex
 10
898.99876732813
 20
279.0279679589514
 30
3.646124999999996
  0
VERTEX
  5
5790D
330
578DF
100
AcDbEntity
  8
0
 62
     0
100
AcDbVertex
100
AcDb2dVertex
 10
898.8861875719429
 20
278.7125134295322
 30
3.646124999999996
  0
VERTEX
  5
5790E
330
578DF
100
AcDbEntity
  8
0
 62
     0
100
AcDbVertex
100
AcDb2dVertex
 10
898.7696598375116
 20
278.4158396828065
 30
3.646124999999996
  0
VERTEX
  5
5790F
330
578DF
100
AcDbEntity
  8
0
 62
     0
100
AcDbVertex
100
AcDb2dVertex
 10
898.6488081283471
 20
278.1390735651128
 30
3.646124999999996
  0
VERTEX
  5
57910
330
578DF
100
AcDbEntity
  8
0
 62
     0
100
AcDbVertex
100
AcDb2dVertex
 10
898.5238204433512
 20
277.8825906913547
 30
3.646124999999996
  0
VERTEX
  5
57911
330
578DF
100
AcDbEntity
  8
0
 62
     0
100
AcDbVertex
100
AcDb2dVertex
 10
898.3948847814216
 20
277.6467666764316
 30
3.646124999999996
  0
VERTEX
  5
57912
330
578DF
100
AcDbEntity
  8
0
 62
     0
100
AcDbVertex
100
AcDb2dVertex
 10
898.2621891414632
 20
277.4319771352442
 30
3.646124999999996
  0
VERTEX
  5
57913
330
578DF
100
AcDbEntity
  8
0
 62
     0
100
AcDbVertex
100
AcDb2dVertex
 10
898.125921522377
 20
277.2385976826963
 30
3.646124999999996
  0
VERTEX
  5
57914
330
578DF
100
AcDbEntity
  8
0
 62
     0
100
AcDbVertex
100
AcDb2dVertex
 10
897.9862699230642
 20
277.0670039336859
 30
3.646124999999996
  0
VERTEX
  5
57915
330
578DF
100
AcDbEntity
  8
0
 62
     0
100
AcDbVertex
100
AcDb2dVertex
 10
897.8434223424264
 20
276.9175715031165
 30
3.646124999999996
  0
VERTEX
  5
57916
330
578DF
100
AcDbEntity
  8
0
 62
     0
100
AcDbVertex
100
AcDb2dVertex
 10
897.6974414474192
 20
276.7898621722914
 30
3.646124999999996
  0
VERTEX
  5
57917
330
578DF
100
AcDbEntity
  8
0
 62
     0
100
AcDbVertex
100
AcDb2dVertex
 10
897.5478885772085
 20
276.6801823881413
 30
3.646124999999996
  0
VERTEX
  5
57918
330
578DF
100
AcDbEntity
  8
0
 62
     0
100
AcDbVertex
100
AcDb2dVertex
 10
897.3941997390207
 20
276.5840247639949
 30
3.646124999999996
  0
VERTEX
  5
57919
330
578DF
100
AcDbEntity
  8
0
 62
     0
100
AcDbVertex
100
AcDb2dVertex
 10
897.2358109400786
 20
276.4968819131867
 30
3.646124999999996
  0
VERTEX
  5
5791A
330
578DF
100
AcDbEntity
  8
0
 62
     0
100
AcDbVertex
100
AcDb2dVertex
 10
897.0721581876031
 20
276.4142464490454
 30
3.646124999999996
  0
VERTEX
  5
5791B
330
578DF
100
AcDbEntity
  8
0
 62
     0
100
AcDbVertex
100
AcDb2dVertex
 10
896.9026774888169
 20
276.3316109849041
 30
3.646124999999996
  0
VERTEX
  5
5791C
330
578DF
100
AcDbEntity
  8
0
 62
     0
100
AcDbVertex
100
AcDb2dVertex
 10
896.7268048509437
 20
276.2444681340945
 30
3.646124999999996
  0
VERTEX
  5
5791D
330
578DF
100
AcDbEntity
  8
0
 62
     0
100
AcDbVertex
100
AcDb2dVertex
 10
896.5439762812037
 20
276.1483105099481
 30
3.646124999999996
  0
VERTEX
  5
5791E
330
578DF
100
AcDbEntity
  8
0
 62
     0
100
AcDbVertex
100
AcDb2dVertex
 10
896.3543797798122
 20
276.0396010660922
 30
3.646124999999996
  0
VERTEX
  5
5791F
330
578DF
100
AcDbEntity
  8
0
 62
     0
100
AcDbVertex
100
AcDb2dVertex
 10
896.1612113189287
 20
275.9186841173308
 30
3.646124999999996
  0
VERTEX
  5
57920
330
578DF
100
AcDbEntity
  8
0
 62
     0
100
AcDbVertex
100
AcDb2dVertex
 10
895.9684188637025
 20
275.7868743187636
 30
3.646124999999996
  0
VERTEX
  5
57921
330
578DF
100
AcDbEntity
  8
0
 62
     0
100
AcDbVertex
100
AcDb2dVertex
 10
895.7799503792818
 20
275.6454863254903
 30
3.646124999999996
  0
VERTEX
  5
57922
330
578DF
100
AcDbEntity
  8
0
 62
     0
100
AcDbVertex
100
AcDb2dVertex
 10
895.5997538308189
 20
275.4958347926089
 30
3.646124999999996
  0
VERTEX
  5
57923
330
578DF
100
AcDbEntity
  8
0
 62
     0
100
AcDbVertex
100
AcDb2dVertex
 10
895.4317771834622
 20
275.3392343752208
 30
3.646124999999996
  0
VERTEX
  5
57924
330
578DF
100
AcDbEntity
  8
0
 62
     0
100
AcDbVertex
100
AcDb2dVertex
 10
895.2799684023608
 20
275.1769997284241
 30
3.646124999999996
  0
VERTEX
  5
57925
330
578DF
100
AcDbEntity
  8
0
 62
     0
100
AcDbVertex
100
AcDb2dVertex
 10
895.1482754526633
 20
275.0104455073198
 30
3.646124999999996
  0
VERTEX
  5
57926
330
578DF
100
AcDbEntity
  8
0
 62
     0
100
AcDbVertex
100
AcDb2dVertex
 10
895.0401606379859
 20
274.8406829080339
 30
3.646124999999996
  0
VERTEX
  5
57927
330
578DF
100
AcDbEntity
  8
0
 62
     0
100
AcDbVertex
100
AcDb2dVertex
 10
894.9571436157821
 20
274.6680092908094
 30
3.646124999999996
  0
VERTEX
  5
57928
330
578DF
100
AcDbEntity
  8
0
 62
     0
100
AcDbVertex
100
AcDb2dVertex
 10
894.9002583819783
 20
274.4925185569185
 30
3.646124999999996
  0
VERTEX
  5
57929
330
578DF
100
AcDbEntity
  8
0
 62
     0
100
AcDbVertex
100
AcDb2dVertex
 10
894.8705389324956
 20
274.3143046076303
 30
3.646124999999996
  0
VERTEX
  5
5792A
330
578DF
100
AcDbEntity
  8
0
 62
     0
100
AcDbVertex
100
AcDb2dVertex
 10
894.8690192632549
 20
274.1334613442157
 30
3.646124999999996
  0
VERTEX
  5
5792B
330
578DF
100
AcDbEntity
  8
0
 62
     0
100
AcDbVertex
100
AcDb2dVertex
 10
894.8967333701766
 20
273.9500826679452
 30
3.646124999999996
  0
VERTEX
  5
5792C
330
578DF
100
AcDbEntity
  8
0
 62
     0
100
AcDbVertex
100
AcDb2dVertex
 10
894.9547152491845
 20
273.7642624800911
 30
3.646124999999996
  0
VERTEX
  5
5792D
330
578DF
100
AcDbEntity
  8
0
 62
     0
100
AcDbVertex
100
AcDb2dVertex
 10
895.0439988961997
 20
273.5760946819226
 30
3.646124999999996
  0
VERTEX
  5
5792E
330
578DF
100
AcDbEntity
  8
0
 62
     0
100
AcDbVertex
100
AcDb2dVertex
 10
895.1641143185511
 20
273.3846715353026
 30
3.646124999999996
  0
VERTEX
  5
5792F
330
578DF
100
AcDbEntity
  8
0
 62
     0
100
AcDbVertex
100
AcDb2dVertex
 10
895.3085755691917
 20
273.185078744456
 30
3.646124999999996
  0
VERTEX
  5
57930
330
578DF
100
AcDbEntity
  8
0
 62
     0
100
AcDbVertex
100
AcDb2dVertex
 10
895.469392712479
 20
272.9714003741971
 30
3.646124999999996
  0
VERTEX
  5
57931
330
578DF
100
AcDbEntity
  8
0
 62
     0
100
AcDbVertex
100
AcDb2dVertex
 10
895.6385758127712
 20
272.7377204893443
 30
3.646124999999996
  0
VERTEX
  5
57932
330
578DF
100
AcDbEntity
  8
0
 62
     0
100
AcDbVertex
100
AcDb2dVertex
 10
895.808134934432
 20
272.4781231547119
 30
3.646124999999996
  0
VERTEX
  5
57933
330
578DF
100
AcDbEntity
  8
0
 62
     0
100
AcDbVertex
100
AcDb2dVertex
 10
895.9700801418167
 20
272.1866924351155
 30
3.646124999999996
  0
VERTEX
  5
57934
330
578DF
100
AcDbEntity
  8
0
 62
     0
100
AcDbVertex
100
AcDb2dVertex
 10
896.1164214992862
 20
271.8575123953724
 30
3.646124999999996
  0
VERTEX
  5
57935
330
578DF
100
AcDbEntity
  8
0
 62
     0
100
AcDbVertex
100
AcDb2dVertex
 10
896.2391690712014
 20
271.4846671002979
 30
3.646124999999996
  0
SEQEND
  5
57936
330
578DF
100
AcDbEntity
  8
0
 62
     0
  0
DIMENSION
  5
57954
330
458D6
100
AcDbEntity
  8
AREA1
100
AcDbDimension
  2
*D4
 10
906.3781429363087
 20
495.0344240574221
 30
3.646124999999996
 11
875.1596527373347
 21
495.0344240574221
 31
3.646124999999996
 70
   160
 71
     5
 42
66.80199999999991
  3
ABECAD_3D
100
AcDbAlignedDimension
 13
839.5761429363087
 23
474.416379008247
 33
3.646124999999996
 14
906.3781429363087
 24
474.416379008247
 34
3.646124999999996
100
AcDbRotatedDimension
  0
DIMENSION
  5
57962
330
458D6
100
AcDbEntity
  8
AREA1
100
AcDbDimension
  2
*D5
 10
915.6491429363088
 20
510.6264382876098
 30
3.646124999999996
 11
873.2724306645396
 21
510.6264382876098
 31
3.646124999999996
 70
   160
 71
     5
 42
85.34400000000028
  3
ABECAD_3D
100
AcDbAlignedDimension
 13
830.3051429363085
 23
474.416379008247
 33
3.646124999999996
 14
915.6491429363088
 24
474.416379008247
 34
3.646124999999996
100
AcDbRotatedDimension
  0
DIMENSION
  5
57971
330
458D6
100
AcDbEntity
  8
AREA1
100
AcDbDimension
  2
*D6
 10
921.9991429363087
 20
526.6256111121041
 30
3.646124999999996
 11
874.4733554641126
 21
526.6256111121041
 31
3.646124999999996
 70
   160
 71
     5
 42
98.04400000000033
  3
ABECAD_3D
100
AcDbAlignedDimension
 13
823.9551429363084
 23
474.416379008247
 33
3.646124999999996
 14
921.9991429363087
 24
474.416379008247
 34
3.646124999999996
100
AcDbRotatedDimension
  0
DIMENSION
  5
5797F
330
458D6
100
AcDbEntity
  8
AREA1
100
AcDbDimension
  2
*D7
 10
1007.375441906582
 20
271.4703790082468
 30
3.646124999999996
 11
1007.375441906582
 21
378.4327535078992
 31
3.646124999999996
 70
   160
 71
     5
 42
209.2960000000002
  3
ABECAD_3D
100
AcDbAlignedDimension
 13
915.6491429363088
 23
480.7663790082471
 33
3.646124999999996
 14
915.6491429363088
 24
271.4703790082468
 34
3.646124999999996
 50
90.0
100
AcDbRotatedDimension
  0
DIMENSION
  5
5798D
330
458D6
100
AcDbEntity
  8
AREA1
100
AcDbDimension
  2
*D8
 10
958.7242181628772
 20
376.1183790082469
 30
3.646124999999996
 11
958.7242181628772
 21
424.0942552010934
 31
3.646124999999996
 70
   160
 71
     5
 42
98.29800000000012
  3
ABECAD_3D
100
AcDbAlignedDimension
 13
915.6491429363088
 23
474.416379008247
 33
3.646124999999996
 14
915.636442936309
 24
376.1183790082469
 34
3.646124999999996
 50
90.0
100
AcDbRotatedDimension
  0
DIMENSION
  5
5799B
330
458D6
100
AcDbEntity
  8
AREA1
100
AcDbDimension
  2
*D9
 10
980.1558437276645
 20
277.8203790082468
 30
3.646124999999996
 11
980.1558437276645
 21
377.8517055461596
 31
3.646124999999996
 70
   160
 71
     5
 42
196.5960000000002
  3
ABECAD_3D
100
AcDbAlignedDimension
 13
915.6491429363088
 23
474.416379008247
 33
3.646124999999996
 14
915.6491429363088
 24
277.8203790082468
 34
3.646124999999996
 50
90.0
100
AcDbRotatedDimension
  0
DIMENSION
  5
579A9
330
458D6
100
AcDbEntity
  8
AREA1
100
AcDbDimension
  2
*D10
 10
790.8269515707729
 20
432.6095931610232
 30
3.646124999999996
 11
783.1345387166402
 21
465.0289729716952
 31
3.646124999999996
 70
   160
 71
     5
 42
48.15678584722388
  3
ABECAD_3D
100
AcDbAlignedDimension
 13
830.3051429363085
 23
480.7663790082471
 33
3.646124999999996
 14
803.7748429363091
 24
432.6095931610232
 34
3.646124999999996
 50
90.0
100
AcDbRotatedDimension
  0
DIMENSION
  5
579B6
330
458D6
100
AcDbEntity
  8
AREA1
100
AcDbDimension
  2
*D11
 10
790.8269515707729
 20
357.0938192252674
 30
3.646124999999996
 11
782.1088849774776
 21
395.3417636832022
 31
3.646124999999996
 70
   160
 71
     5
 42
75.51577393575581
  3
ABECAD_3D
100
AcDbAlignedDimension
 13
803.7748429363091
 23
432.6095931610232
 33
3.646124999999996
 14
803.7748429363091
 24
357.0938192252674
 34
3.646124999999996
 50
90.0
100
AcDbRotatedDimension
  0
DIMENSION
  5
579C4
330
458D6
100
AcDbEntity
  8
AREA1
100
AcDbDimension
  2
*D12
 10
790.3141238093358
 20
298.8528964878488
 30
3.646124999999996
 11
782.1088849774776
 21
323.6049309747485
 31
3.646124999999996
 70
   160
 71
     5
 42
58.24092273741854
  3
ABECAD_3D
100
AcDbAlignedDimension
 13
803.7748429363091
 23
357.0938192252674
 33
3.646124999999996
 14
803.7748429363091
 24
298.8528964878488
 34
3.646124999999996
 50
90.0
100
AcDbRotatedDimension
  0
DIMENSION
  5
57A1A
330
458D6
100
AcDbEntity
  8
AREA1
100
AcDbDimension
  2
*D13
 10
966.2203621047019
 20
182.6973790082467
 30
3.646124999999996
 11
974.8797374544674
 21
209.8932076809266
 31
3.646124999999996
 70
   160
 71
     5
 42
54.86400000000066
  3
ABECAD_3D
100
AcDbAlignedDimension
 13
920.7291429363072
 23
237.5613790082474
 33
3.646124999999996
 14
920.7291429363072
 24
182.6973790082467
 34
3.646124999999996
 50
90.0
100
AcDbRotatedDimension
  0
LINE
  5
57A57
330
458D6
100
AcDbEntity
  8
SCALE
100
AcDbLine
 10
712.1607160002659
 20
460.6972895441971
 30
3.646124999999996
 11
737.5607160002659
 21
460.6972895441971
 31
3.646124999999996
  0
LINE
  5
57A58
330
458D6
100
AcDbEntity
  8
SCALE
100
AcDbLine
 10
737.5607160002659
 20
458.1572895441971
 30
3.646124999999996
 11
737.5607160002659
 21
463.2372895441973
 31
3.646124999999996
  0
LINE
  5
57A59
330
458D6
100
AcDbEntity
  8
SCALE
100
AcDbLine
 10
712.1607160002659
 20
458.1572895441971
 30
3.646124999999996
 11
712.1607160002659
 21
463.2372895441973
 31
3.646124999999996
  0
LINE
  5
57A5A
330
458D6
100
AcDbEntity
  8
SCALE
100
AcDbLine
 10
712.160716000266
 20
465.8837132814904
 30
3.646124999999996
 11
712.160716000266
 21
470.9637132814903
 31
3.646124999999996
  0
LINE
  5
57A5B
330
458D6
100
AcDbEntity
  8
SCALE
100
AcDbLine
 10
722.1606960002661
 20
465.8837132814904
 30
3.646124999999996
 11
722.1606960002661
 21
470.9637132814903
 31
3.646124999999996
  0
LINE
  5
57A5C
330
458D6
100
AcDbEntity
  8
SCALE
100
AcDbLine
 10
712.160716000266
 20
468.4237132814904
 30
3.646124999999996
 11
722.1606960002661
 21
468.4237132814904
 31
3.646124999999996
  0
TEXT
  5
57A5D
330
458D6
100
AcDbEntity
  8
SCALE
100
AcDbText
 10
713.6700387410399
 20
469.585500271453
 30
3.646124999999996
 40
1.587499999999999
  1
10 mm
100
AcDbText
  0
TEXT
  5
57A5E
330
458D6
100
AcDbEntity
  8
SCALE
100
AcDbText
 10
719.758608733354
 20
462.4511264066764
 30
3.646124999999996
 40
1.587499999999999
  1
[1 Inch]
100
AcDbText
  0
TEXT
  5
57A5F
330
458D6
100
AcDbEntity
  8
SCALE
100
AcDbText
 10
711.9668000803954
 20
473.9572508963423
 30
3.646124999999996
 40
1.587499999999999
  1
SCALE:
100
AcDbText
  0
LWPOLYLINE
  5
57A60
330
458D6
100
AcDbEntity
  8
SCALE
100
AcDbPolyline
 90
        4
 70
     1
 43
0.0
 38
3.646124999999996
 10
710.4547652717737
 20
476.6293613110796
 10
739.2997372881398
 20
476.6293613110796
 10
739.2997372881398
 20
455.252478314918
 10
710.4547652717737
 20
455.252478314918
  0
VIEWPORT
  5
48102
102
{ACAD_XDICTIONARY
360
57A71
102
}
330
458D3
100
AcDbEntity
 67
     1
  8
0
100
AcDbViewport
 10
128.5912307667807
 20
110.2672517513029
 30
0.0
 40
354.7658559645883
 41
183.7447629521232
 68
     1
 69
     1
 12
128.5912307667807
 22
110.2672517513029
 13
0.0
 23
0.0
 14
0.5
 24
0.5
 15
0.5
 25
0.5
 16
0.0
 26
0.0
 36
1.0
 17
0.0
 27
0.0
 37
0.0
 42
50.0
 43
0.0
 44
0.0
 45
183.7447629521232
 50
0.0
 51
0.0
 72
 20000
 90
    32800
  1

281
     0
 71
     1
 74
     0
110
0.0
120
0.0
130
0.0
111
1.0
121
0.0
131
0.0
112
0.0
122
1.0
132
0.0
 79
     0
146
0.0
  0
VIEWPORT
  5
48104
102
{ACAD_XDICTIONARY
360
57A73
102
}
330
458D3
100
AcDbEntity
 67
     1
  8
AREA1
100
AcDbViewport
 10
128.5935853097791
 20
93.57174786820314
 30
0.0
 40
205.4128293804416
 41
148.1434957364063
 68
     2
 69
     2
 12
613.3446765125049
 22
347.6294843810321
 13
0.0
 23
0.0
 14
0.25
 24
0.25
 15
0.25
 25
0.25
 16
0.0
 26
0.0
 36
1.0
 17
272.824838996967
 27
8.306349224220612
 37
23.31369335295995
 42
50.0
 43
0.0
 44
0.0
 45
397.8617917670762
 50
0.0
 51
0.0
 72
 20000
 90
    32800
  1

281
     0
 71
     1
 74
     0
110
266.8673580196576
120
8.203180508612135
130
3.646124999999996
111
1.0
121
0.0
131
0.0
112
0.0
122
1.0
132
0.0
 79
     1
146
0.0
  0
TEXT
  5
4810E
330
458D3
100
AcDbEntity
 67
     1
  8
0
100
AcDbText
 10
133.2323326534653
 20
186.9455936734827
 30
0.0
 40
5.113019999999999
  1
1485P-P4T5-T5C
100
AcDbText
  0
TEXT
  5
4810F
330
458D3
100
AcDbEntity
 67
     1
  8
0
100
AcDbText
 10
133.2323326534653
 20
178.4238936734827
 30
0.0
 40
5.113
  1
6-Port DeviceBox,
100
AcDbText
  0
TEXT
  5
566D3
330
458D3
100
AcDbEntity
 67
     1
  8
0
100
AcDbText
 10
133.3449136584272
 20
170.2051663405579
 30
0.0
 40
5.113
  1
Thin Cable
100
AcDbText
  0
ENDSEC
  0
SECTION
  2
OBJECTS
  0
DICTIONARY
  5
458CB
330
0
100
AcDbDictionary
281
     1
  3
ACAD_COLOR
350
459D8
  3
ACAD_GROUP
350
458CC
  3
ACAD_LAYOUT
350
458FB
  3
ACAD_MATERIAL
350
459D7
  3
ACAD_MLINESTYLE
350
458D9
  3
ACAD_PLOTSETTINGS
350
458FC
  3
ACAD_PLOTSTYLENAME
350
458F9
  3
ACAD_TABLESTYLE
350
46C32
  3
ACDBVARIABLEDICTIONARY
350
458E1
  3
DWGPROPS
350
57A6C
  0
DICTIONARY
  5
480DB
330
458C1
100
AcDbDictionary
280
     1
281
     1
  3
ACAD_LAYERFILTERS
360
480DF
  3
ACAD_LAYERSTATES
360
48105
  3
ACLYDICTIONARY
360
480DE
  0
DICTIONARY
  5
45930
330
458D6
100
AcDbDictionary
280
     1
281
     1
  3
ACAD_LAYOUTSELFREF
360
459C8
  0
DICTIONARY
  5
4592E
330
458D3
100
AcDbDictionary
280
     1
281
     1
  3
ACAD_LAYOUTSELFREF
360
459C7
  0
DICTIONARY
  5
57A71
330
48102
100
AcDbDictionary
280
     1
281
     1
  3
ACAD_XREC_ROUNDTRIP
360
57A72
  0
DICTIONARY
  5
57A73
330
48104
100
AcDbDictionary
280
     1
281
     1
  3
ACAD_XREC_ROUNDTRIP
360
57A74
  0
DICTIONARY
  5
459D8
102
{ACAD_REACTORS
330
458CB
102
}
330
458CB
100
AcDbDictionary
281
     1
  0
DICTIONARY
  5
458CC
102
{ACAD_REACTORS
330
458CB
102
}
330
458CB
100
AcDbDictionary
281
     1
  0
DICTIONARY
  5
458FB
102
{ACAD_REACTORS
330
458CB
102
}
330
458CB
100
AcDbDictionary
281
     1
  3
Layout1
350
458FE
  3
Model
350
458FD
  0
DICTIONARY
  5
459D7
102
{ACAD_REACTORS
330
458CB
102
}
330
458CB
100
AcDbDictionary
281
     1
  0
DICTIONARY
  5
458D9
102
{ACAD_REACTORS
330
458CB
102
}
330
458CB
100
AcDbDictionary
281
     1
  3
STANDARD
350
458DA
  0
DICTIONARY
  5
458FC
102
{ACAD_REACTORS
330
458CB
102
}
330
458CB
100
AcDbDictionary
281
     1
  0
ACDBDICTIONARYWDFLT
  5
458F9
102
{ACAD_REACTORS
330
458CB
102
}
330
458CB
100
AcDbDictionary
281
     1
  3
Normal
350
458FA
100
AcDbDictionaryWithDefault
340
458FA
  0
DICTIONARY
  5
46C32
102
{ACAD_REACTORS
330
458CB
102
}
330
458CB
100
AcDbDictionary
281
     1
  3
Standard
350
46C33
  0
DICTIONARY
  5
458E1
102
{ACAD_REACTORS
330
458CB
102
}
330
458CB
100
AcDbDictionary
281
     1
  3
CTABLESTYLE
350
46C39
  3
DIMADEC
350
458E2
  3
DIMASSOC
350
46C46
  3
PROJECTNAME
350
46C47
  0
XRECORD
  5
57A6C
102
{ACAD_REACTORS
330
458CB
102
}
330
458CB
100
AcDbXrecord
280
     1
  1
DWGPROPS COOKIE
  2

  3

  4

  6

  7

  8
TModica
  9

300
=
301
=
302
=
303
=
304
=
305
=
306
=
307
=
308
=
309
=
 40
0.1956881481481481
 41
2453042.595653843
 42
2453597.711094803
  1

 90
        0
  0
DICTIONARY
  5
480DF
102
{ACAD_REACTORS
330
480DB
102
}
330
480DB
100
AcDbDictionary
281
     1
  0
DICTIONARY
  5
48105
102
{ACAD_REACTORS
330
480DB
102
}
330
480DB
100
AcDbDictionary
281
     1
  0
DICTIONARY
  5
480DE
102
{ACAD_REACTORS
330
480DB
102
}
330
480DB
100
AcDbDictionary
281
     1
1001
ACAD
1000
<All
  0
XRECORD
  5
459C8
102
{ACAD_REACTORS
330
45930
102
}
330
45930
100
AcDbXrecord
280
     1
340
458D6
  0
XRECORD
  5
459C7
102
{ACAD_REACTORS
330
4592E
102
}
330
4592E
100
AcDbXrecord
280
     1
340
458D3
  0
XRECORD
  5
57A72
102
{ACAD_REACTORS
330
57A71
102
}
330
57A71
100
AcDbXrecord
280
     1
102
SHADEPLOT
 70
     0
  0
XRECORD
  5
57A74
102
{ACAD_REACTORS
330
57A73
102
}
330
57A73
100
AcDbXrecord
280
     1
102
SHADEPLOT
 70
     0
  0
LAYOUT
  5
458FE
102
{ACAD_XDICTIONARY
360
48133
102
}
102
{ACAD_REACTORS
330
458FB
102
}
330
458FB
100
AcDbPlotSettings
  1

  2
\\usmkevprnt001\USMKEPD0487
  4
Letter
  6

 40
7.143749713897705
 41
5.027085304260253
 42
7.14373779296875
 43
5.027069091796875
 44
215.8999938964843
 45
279.3999938964843
 46
-0.0000000000000113
 47
14.56436523858406
 48
0.0
 49
0.0
140
0.0
141
0.0
142
1.0
143
21.73966717538989
 70
   692
 72
     0
 73
     1
 74
     1
  7
acad.ctb
 75
     0
147
0.0459988642849159
148
-652.7799999999996
149
-495.2999999999999
100
AcDbLayout
  1
Layout1
 70
     1
 71
     1
 10
8.931840085394117
 20
13.38571885179438
 11
248.0681737907302
 21
198.1728846186557
 12
0.0
 22
0.0
 32
0.0
 14
25.88717061955833
 24
19.5
 34
0.0
 15
231.3
 25
192.0586136734827
 35
0.0
146
0.0
 13
0.0
 23
0.0
 33
0.0
 16
1.0
 26
0.0
 36
0.0
 17
0.0
 27
1.0
 37
0.0
 76
     0
330
458D3
331
48102
1001
ACAD_PSEXT
1000
\\usmkevprnt001\USMKEPD0487
1000
RICOH Aficio 2035 PCL 5e
1000
MKE - 7H29
1000
IKON ID: N/A FAX: N/A UNIX: N/A MAINFRAME: R5074
1070
     0
  0
LAYOUT
  5
458FD
102
{ACAD_XDICTIONARY
360
57A6E
102
}
102
{ACAD_REACTORS
330
458FB
102
}
330
458FB
100
AcDbPlotSettings
  1

  2
\\usmkevprnt001\USMKEPD0487
  4
Letter
  6

 40
7.143749713897705
 41
5.027085304260253
 42
7.14373779296875
 43
5.027069091796875
 44
215.8999938964843
 45
279.3999938964843
 46
69.08278724492785
 47
0.0
 48
0.0
 49
0.0
140
0.0
141
0.0
142
1.0
143
46.08643047371788
 70
 11956
 72
     0
 73
     1
 74
     1
  7
acad.ctb
 75
     0
147
0.0216983608780524
148
12526.7129110102
149
-10456.17513608382
100
AcDbLayout
  1
Model
 70
     1
 71
     0
 10
0.0
 20
0.0
 11
12.0
 21
9.0
 12
0.0
 22
0.0
 32
0.0
 14
0.0
 24
0.0
 34
0.0
 15
0.0
 25
0.0
 35
0.0
146
0.0
 13
0.0
 23
0.0
 33
0.0
 16
1.0
 26
0.0
 36
0.0
 17
0.0
 27
1.0
 37
0.0
 76
     0
330
458D6
1001
ACAD_PSEXT
1000
\\usmkevprnt001\USMKEPD0487
1000
RICOH Aficio 2035 PCL 5e
1000
MKE - 7H29
1000
IKON ID: N/A FAX: N/A UNIX: N/A MAINFRAME: R5074
1070
     0
  0
MLINESTYLE
  5
458DA
102
{ACAD_REACTORS
330
458D9
102
}
330
458D9
100
AcDbMlineStyle
  2
STANDARD
 70
     0
  3

 62
   256
 51
90.0
 52
90.0
 71
     2
 49
0.5
 62
   256
  6
BYLAYER
 49
-0.5
 62
   256
  6
BYLAYER
  0
ACDBPLACEHOLDER
  5
458FA
102
{ACAD_REACTORS
330
458F9
102
}
330
458F9
  0
ACAD_PROXY_OBJECT
  5
46C33
102
{ACAD_REACTORS
330
46C32
102
}
330
46C32
100
AcDbProxyObject
 90
      499
 91
      512
 95
   393239
 70
     0
 93
     1841
310
4214DD185B99185C9928000000000000F83F0000000000003E0FC00000000000004901028000000C1008070000C3001FDFF8000000C1003FBFF000000182007F7FE00000030400FEFFC00000060801FDFF8000000C1003FBFF000000182000000000000000C2020B0000001820100E000186003FBFF000000182007F7FE000
310
00030400FEFFC00000060801FDFF8000000C1003FBFF000000182007F7FE0000003040000000000000012404160000003040201C00030C007F7FE00000030400FEFFC00000060801FDFF8000000C1003FBFF000000182007F7FE00000030400FEFFC00000060801A
340
458CE
340
458CE
340
458CE
 94
        0
  0
DICTIONARYVAR
  5
46C39
102
{ACAD_REACTORS
330
458E1
102
}
330
458E1
100
DictionaryVariables
280
     0
  1
STANDARD
  0
DICTIONARYVAR
  5
458E2
102
{ACAD_REACTORS
330
458E1
102
}
330
458E1
100
DictionaryVariables
280
     0
  1
0
  0
DICTIONARYVAR
  5
46C46
102
{ACAD_REACTORS
330
458E1
102
}
330
458E1
100
DictionaryVariables
280
     0
  1
1
  0
DICTIONARYVAR
  5
46C47
102
{ACAD_REACTORS
330
458E1
102
}
330
458E1
100
DictionaryVariables
280
     0
  1

  0
DICTIONARY
  5
48133
330
458FE
100
AcDbDictionary
280
     1
281
     1
  3
ACAD_XREC_ROUNDTRIP
360
57A70
  3
ADSK_XREC_LAYOUTTHUMBNAIL
360
48134
  0
DICTIONARY
  5
57A6E
330
458FD
100
AcDbDictionary
280
     1
281
     1
  3
ACAD_XREC_ROUNDTRIP
360
57A6F
  0
XRECORD
  5
57A70
102
{ACAD_REACTORS
330
48133
102
}
330
48133
100
AcDbXrecord
280
     1
102
SHADEPLOT
 70
     0
102
SHADEPLOTRESLEVEL
 70
     2
102
SHADEPLOTCUSTOMDPI
 70
   300
  0
XRECORD
  5
48134
102
{ACAD_REACTORS
330
48133
102
}
330
48133
100
AcDbXrecord
280
     1
310
28000000B40000008B0000000100080000000000BC61000000000000000000000001000000000000FFFFFF0000000000FFFFFF000000000000000000000000000000000000000000000000000000000000000000330000006600000099000000CC000000FF00000000330000333300006633000099330000CC330000FF3300
310
0000660000336600006666000099660000CC660000FF66000000990000339900006699000099990000CC990000FF99000000CC000033CC000066CC000099CC0000CCCC0000FFCC000000FF000033FF000066FF000099FF0000CCFF0000FFFF000000003300330033006600330099003300CC003300FF003300003333003333
310
33006633330099333300CC333300FF33330000663300336633006666330099663300CC663300FF66330000993300339933006699330099993300CC993300FF99330000CC330033CC330066CC330099CC3300CCCC3300FFCC330000FF330033FF330066FF330099FF3300CCFF3300FFFF330000006600330066006600660099
310
006600CC006600FF00660000336600333366006633660099336600CC336600FF33660000666600336666006666660099666600CC666600FF66660000996600339966006699660099996600CC996600FF99660000CC660033CC660066CC660099CC6600CCCC6600FFCC660000FF660033FF660066FF660099FF6600CCFF6600
310
FFFF660000009900330099006600990099009900CC009900FF00990000339900333399006633990099339900CC339900FF33990000669900336699006666990099669900CC669900FF66990000999900339999006699990099999900CC999900FF99990000CC990033CC990066CC990099CC9900CCCC9900FFCC990000FF99
310
0033FF990066FF990099FF9900CCFF9900FFFF99000000CC003300CC006600CC009900CC00CC00CC00FF00CC000033CC003333CC006633CC009933CC00CC33CC00FF33CC000066CC003366CC006666CC009966CC00CC66CC00FF66CC000099CC003399CC006699CC009999CC00CC99CC00FF99CC0000CCCC0033CCCC0066CC
310
CC0099CCCC00CCCCCC00FFCCCC0000FFCC0033FFCC0066FFCC0099FFCC00CCFFCC00FFFFCC000000FF003300FF006600FF009900FF00CC00FF00FF00FF000033FF003333FF006633FF009933FF00CC33FF00FF33FF000066FF003366FF006666FF009966FF00CC66FF00FF66FF000099FF003399FF006699FF009999FF00CC
310
99FF00FF99FF0000CCFF0033CCFF0066CCFF0099CCFF00CCCCFF00FFCCFF0000FFFF0033FFFF0066FFFF0099FFFF00CCFFFF00FFFFFF00000000000D0D0D001A1A1A00282828003535350043434300505050005D5D5D006B6B6B00787878008686860093939300A1A1A100AEAEAE00BBBBBB00C9C9C900D6D6D600E4E4E400
310
F1F1F100FFFFFF0000000000000000000000000000000000000000000000000000000000000000000000000000000000E2E2E2E2E2E2E2E2E2E2E2E2E2E2E2E2E2E2E2E2E2E2E2E2E2E2E2E2E2E2E2E2E2E2E2E2E2E2E2E2E2E2E2E2E2E2E2E2E2E2E2E2E2E2E2E2E2E2E2E2E2E2E2E2E2E2E2E2E2E2E2E2E2E2E2E2E2E2E2
310
E2E2E2E2E2E2E2E2E2E2E2E2E2E2E2E2E2E2E2E2E2E2E2E2E2E2E2E2E2E2E2E2E2E2E2E2E2E2E2E2E2E2E2E2E2E2E2E2E2E2E2E2E2E2E2E2E2E2E2E2E2E2E2E2E2E2E2E2E2E2E2E2E2E2E2E2E2E2E2E2E2E2E2E2E2E2E2E2E2E2E2E2E2E2E2E2E2E2E2E2E2E2F5F5F5F5F5F5F5F5F5F5F5F5F5F5F5F5F5F5F5F5F5F5F5F5F5
310
F5F5F5F5F5F5F5F5F5F5F5F5F5F5F5F5F5F5F5F5F5F5F5F5F5F5F5F5F5F5F5F5F5F5F5F5F5F5F5F5F5F5F5F5F5F5F5F5F5F5F5F5F5F5F5F5F5F5F5F5F5F5F5F5F5F5F5F5F5F5F5F5F5F5F5F5F5F5F5F5F5F5F5F5F5F5F5F5F5F5F5F5F5F5F5F5F5F5F5F5F5F5F5F5F5F5F5F5F5F5F5F5F5F5F5F5F5F5F5F5F5F5F5F5F5F5F5
310
F5F5F5F5F5F5F5F5F5F5F5F5F5F5F5F5F5F5F5F5F5F5F5F5E2E2E2E2F5F5F5F5F5F5F5F5F5F5F5F5F5F5F5F5F5F5F5F5F5F5F5F5F5F5F5F5F5F5F5F5F5F5F5F5F5F5F5F5F5F5F5F5F5F5F5F5F5F5F5F5F5F5F5F5F5F5F5F5F5F5F5F5F5F5F5F5F5F5F5F5F5F5F5F5F5F5F5F5F5F5F5F5F5F5F5F5F5F5F5F5F5F5F5F5F5F5F5
310
F5F5F5F5F5F5F5F5F5F5F5F5F5F5F5F5F5F5F5F5F5F5F5F5F5F5F5F5F5F5F5F5F5F5F5F5F5F5F5F5F5F5F5F5F5F5F5F5F5F5F5F5F5F5F5F5F5F5F5F5F5F5F5F5F5F5F5F5F5F5F5F5F5F5F5F5F5E2E2E2E2F5F5F5F5F5F5F5F5F5F5F5F5F5F5F5F5F5F5F5F5F5F5F5F5F5F5F5F5F5F5F5F5F5F5F5F5F5F5F5F5F5F5F5F5F5F5
310
F5F5F5F5F5F5F5F5F5F5F5F5F5F5F5F5F5F5F5F5F5F5F5F5F5F5F5F5F5F5F5F5F5F5F5F5F5F5F5F5F5F5F5F5F5F5F5F5F5F5F5F5F5F5F5F5F5F5F5F5F5F5F5F5F5F5F5F5F5F5F5F5F5F5F5F5F5F5F5F5F5F5F5F5F5F5F5F5F5F5F5F5F5F5F5F5F5F5F5F5F5F5F5F5F5F5F5F5F5F5F5F5F5F5F5F5F5F5F5F5F5F5F5F5F5F5F5
310
F5F5F5E2E2E2E2F5F5F5F5F5F5F5F5F5F5F5F5F5F5F5F5F5F5F5F5F5F5F5F5F5F5F5F5F5F5F5F5F5F5F5F5F5F5F5F5F5F5F5F5F5F5F5F5F5F5F5F5F5F5F5F5F5F5F5F5F5F5F5F5F5F5F5F5F5F5F5F5F5F5F5F5F5F5F5F5F5F5F5F5F5F5F5F5F5F5F5F5F5F5F5F5F5F5F5F5F5F5F5F5F5F5F5F5F5F5F5F5F5F5F5F5F5F5F5F5
310
F5F5F5F5F5F5F5F5F5F5F5F5F5F5F5F5F5F5F5F5F5F5F5F5F5F5F5F5F5F5F5F5F5F5F5F5F5F5F5F5F5F5F5F5F5F5F5F5F5F5F5F5F5F5F5F5E2E2E2E2F5F5E2E2E2E2E2E2E2E2F5E2E2E2E2E2E2E2E2E2E2E2E2E2E2E2E2E2E2E2E2E2E2E2E2E2E2E2E2E2E2E2E2E2E2E2E2E2E2E2E2E2E2E2E2E2E2E2E2E2E2E2E2E2E2E2E2
310
E2E2E2E2E2E2E2E2E2E2E2E2E2E2E2E2E2E2E2E2E2E2E2E2E2E2E2E2E2E2E2E2E2E2E2E2E2E2E2E2E2E2E2E2E2E2E2E2E2E2E2E2E2E2E2E2E2E2E2E2E2E2E2E2E2E2E2E2E2E2E2E2E2E2E2E2E2E2E2E2E2E2E2E2E2E2E2E2E2E2E2E2E2E2E2E2E2E2F5E2E2E2E2E2E2E2E2F5F5E2E2E2E2F5F5E2F5F5F5F5F5F5F5F5E2F5F5
310
F5F5F5F5F5F5F5F5F5F5F5F5F5F5F5F5F5F5F5F5F5F5F5F5F5F5F5F5F5F5F5F5F5F5F5F5F5F5F5F5F5F5F5F5F5F5F5F5F5F5F5F5F5F5F5F5F5F5F5F5F5F5F5F5F5F5F5F5F5F5F5F5F5F5F5F5F5F5F5F5F5F5F5F5F5F5F5F5F5F5F5F5F5F5F5F5F5F5F5F5F5F5F5F5F5F5F5F5F5F5F5F5F5F5F5F5F5F5F5F5F5F5F5F5F5F5F5
310
F5F5F5F5F5F5F5F5F5F5F5F5F5F5F5F5F5F5F5F5F5F5F5E2F5F5F5F5F5F5F5F5E2F5F5E2E2E2E2F5F5E2F5F5F5F5F5F5F5F5E2F5F5F5F5F5F5F5F5F5F5F5F5F5F5F5F5F5F5F5F5F5F5F5F5F5F5F5F5F5F5F5F5F5F5F5F5F5F5F5F5F5F5F5F5F5F5F5F5F5F5F5F5F5F5F5F5F5F5F5F5F5F5F5F5F5F5F5F5F5F5F5F5F5F5F5F5
310
F5F5F5F5F5F5F5F5F5F5F5F5F5F5F5F5F5F5F5F5F5F5F5F5F5F5F5F5F5F5F5F5F5F5F5F5F5F5F5F5F5F5F5F5F5F5F5F5F5F5F5F5F5F5F5F5F5F5F5F5F5F5F5F5F5F5F5F5F5F5F5F5F5F5F5F5E2F5F5F5F5F5F5F5F5E2F5F5E2E2E2E2F5F5E2F5F5F5F5F5F5F5F5E2F5F5F5F5F5F5F5F5F5F5F5F5F5F5F5F5F5F5F5F5F5F5F5
310
F5F5F5F5F5F5F5F5F5F5F5F5F5F5F5F5F5F5F5F5F5F5F5F5F5F5F5F5F5F5F5F5F5F5F5F5F5F5F5F5F5F5F5F5F5F5F5F5F5F5F5F5F5F5F5F5F5F5F5F5F5F5F5F5F5F5F5F5F5F5F5F5F5F5F5F5F5F5F5F5F5F5F5F5F5F5F5F5F5F5F5F5F5F5F5F5F5F5F5F5F5F5F5F5F5F5F5F5F5F5F5F5F5F5F5F5F5F5F5F5F5F5F5F5F5F5F5
310
F5F5E2F5F5F5F5F5F5F5F5E2F5F5E2E2E2E2F5F5E2F5F5F5F5F5F5F5F5E2F5F5F5F5F5F5F5F5F5F5F5F5F5F5F5F5F5F5F5F5F5F5F5F5F5F5F5F5F5F5F5F5F5F5F5F5F5F5F5F5F5F5F5F5F5F5F5F5F5F5F5F5F5F5F5F5F5F5F5F5F5F5F5F5F5F5F5F5F5F5F5F5F5F5F5F5F5F5F5F5F5F5F5F5F5F5F5F5F5F5F5F5F5F5F5F5F5
310
F5F5F5F5F5F5F5F5F5F5F5F5F5F5F5F5F5F5F5F5F5F5F5F5F5F5F5F5F5F5F5F5F5F5F5F5F5F5F5F5F5F5F5F5F5F5F5F5F5F5F5F5F5F5F5E2F5F5F5F5F5F5F5F5E2F5F5E2E2E2E2F5F5E2F5F5F5F5F5F5F5F5E2F5F5F5F5F5F5F5F5F5F5F5F5F5F5F5F5F5F5F5F5F5F5F5F5F5F5F5F5F5F5F5F5F5F5F5F5F5F5F5F5F5F5F5F5
310
F5F5F5F5F5F5F5F5F5F5F5F5F5F5F5F5F5F5F5F5F5F5F5F5F5F5F5F5F5F5F5F5F5F5F5F5F5F5F5F5F5F5F5F5F5F5F5F5F5F5F5F5F5F5F5F5F5F5F5F5F5F5F5F5F5F5F5F5F5F5F5F5F5F5F5F5F5F5F5F5F5F5F5F5F5F5F5F5F5F5F5F5F5F5F5F5F5F5F5F5F5F5F5F5F5F5F5F5E2F5F5F5F5F5F5F5F5E2F5F5E2E2E2E2F5F5E2
310
F5F5F5F5F5F5F5F5E2F5F5F5F5F5F5F5F5F5F5F5F5F5F5F5F5F5F5F5F5F5F5F5F5F5F5F5F5F5F5F5F5F5F5F5F5F5F5F5F5F5F5F5F5F5F5F5F5F5F5F5F5F5F5F5F5F5F5F5F5F5F5F5F5F5F5F5F5F5F5F5F5F5F5F5F5F5F5F5F5F5F5F5F5F5F5F5F5F5F5F5F5F5F5F5F5F5F5F5F5F5F5F5F5F5F5F5F5F5F5F5F5F5F5F5F5F5F5
310
F5F5F5F5F5F5F5F5F5F5F5F5F5F5F5F5F5F5F5F5F5F5F5F5F5F5F5F5F5F5F5F5F5F5E2F5F5F5F5F5F5F5F5E2F5F5E2E2E2E2F5F5E2F5F5F5F5F5F5F5F5E2F5F5F5F5F5F5F5F5F5F5F5F5F5F5F5F5F5F5F5F5F5F5F5F5F5F5F5F5F5F5F5F5F5F5F5F5F5F5F5F5F5F5F5F5F5F5F5F5F5F5F5F5F5F5F5F5F5F5E2E2E2E2E2E2E2
310
E2E2E2E2E2E2E2E2E2E2E2E2E2E2E2E2E2E2E2E2E2E2E2E2E2E2E2E2E2E2E2E2E2E2E2E2E2F5F5F5F5F5F5F5F5F5F5F5F5F5F5F5F5F5F5F5F5F5F5F5F5F5F5F5F5F5F5F5F5F5F5F5F5F5F5F5F5F5F5F5F5F5F5F5F5F5F5E2F5F5F5F5F5F5F5F5E2F5F5E2E2E2E2F5F5E2F5F5F5F5F5F5F5F5E2F5F5F5F5F5F5F5F5F5F5F5F5
310
F5F5F5F5F5F5F5F5F5F5F5F5F5F5F5F5F5F5F5F5F5F5F5F5F5F5F5F5F5F5F5F5F5F5F5F5F5F5F5F5F5F5F5F5F5F5E2F5F5F5F5F5F5F5F5F5F5F5F5F5F5F5F5F5F5F5F5F5F5F5F5F5F5E2F5F5F5F5F5F5F5F5F5F5F5F5E2F5E2E2F5F5F5F5F5F5F5F5F5F5F5F5F5F5F5F5F5F5F5F5F5F5F5F5F5F5F5F5F5F5F5F5F5F5F5F5F5
310
F5F5F5F5F5F5F5F5F5F5F5F5F5E2F5F5F5F5F5F5F5F5E2F5F5E2E2E2E2F5F5F5F5F5F5F5F5F5F5F5E2F5F5F5F5F5F5F5F5F5F5F5F5F5F5F5F5F5F5F5F5F5F5F5F5F5F5F5F5F5F5F5F5F5F5F5F5F5F5F5F5F5F5F5F5F5F5F5F5F5F5F5F5F5F5F5F5F5F5E2F5F5F5F5F5F5F5F5F5F5F5F5F5F5F5F5F5F5F5F5F5F5F5F5F5F5E2
310
F5F5F5F5F5F5F5F5F5F5F5F5E2F5E2E2F5F5F5F5F5F5F5F5F5F5F5F5F5F5F5F5F5F5F5F5F5F5F5F5F5F5F5F5F5F5F5F5F5F5F5F5F5F5F5F5F5F5F5F5F5F5F5F5F5F5E2F5F5F5F5F5F5F5F5F5F5F5E2E2E2E2F5F5F5F5F5F5F5F5F5F5F5E2F5F5F5F5F5F5F5F5F5F5F5F5F5F5F5F5F5F5F5F5F5F5F5F5F5F5F5F5F5F5F5F5F5
310
F5F5F5F5F5F5F5F5F5F5F5F5F5F5F5F5F5F5F5F5F5F5F5F5F5E2F5F5F5F5F5F5F5F5F5F5F5F5F5F5F5F5F5F5F5F5F5F5F5F5F5F5E2F5F5F5F5F5F5F5F5F5F5F5F5E2F5E2E2F5F5F5F5F5F5F5F5F5F5F5F5F5F5F5F5F5F5F5F5F5F5F5F5F5F5F5F5F5F5F5F5F5F5F5F5F5F5F5F5F5F5F5F5F5F5F5F5F5F5E2F5F5F5F5F5F5F5
310
F5F5F5F5E2E2E2E2F5F5F5F5F5F5F5F5F5F5F5E2F5F5F5F5F5F5F5F5F5F5F5F5F5F5F5F5F5F5F5F5F5F5F5F5F5F5F5F5F5F5F5F5F5F5F5F5F5F5F5F5F5F5F5F5F5F5F5F5F5F5F5F5F5F5E2E2E2E2E2F5F5F5F5F5F5F5F5F5F5F5F5F5F5F5F5F5F5F5F5F5F5F5F5F5F5E2E2F5E2E2E2F5F5F5F5F5F5F5E2F5E2E2F5F5F5F5F5
310
F5F5F5F5F5F5F5F5F5F5F5F5F5F5F5F5F5F5F5F5F5F5F5F5F5F5F5F5F5F5F5F5F5F5F5F5F5F5F5F5F5F5F5F5F5E2F5F5F5F5F5F5F5F5F5F5F5E2E2E2E2F5F5F5F5F5F5F5F5F5F5F5E2F5F5F5F5F5F5F5F5F5F5F5F5F5F5F5F5F5F5F5F5F5F5F5F5F5F5F5F5F5F5F5F5F5F5F5F5F5F5F5F5F5F5F5F5F5F5F5F5F5F5F5F5F5E2
310
E2F5E2E2E2F5F5F5F5F5F5F5F5F5F5F5F5F5F5F5F5F5F5F5F5F5F5F5F5F5F5E2E2E2E2F5E2E2F5F5F5F5F5F5E2F5E2E2F5F5F5F5F5F5F5F5F5F5F5F5F5F5F5F5F5F5F5F5F5F5F5F5F5F5F5F5F5F5F5F5F5F5F5F5F5F5F5F5F5F5F5F5F5F5F5F5F5F5E2F5F5F5F5F5F5F5F5F5F5F5E2E2E2E2F5F5F5F5F5F5F5F5F5F5F5E2F5
310
F5F5F5F5F5F5F5F5F5F5F5F5F5F5F5F5F5F5F5F5F5F5F5F5F5F5F5F5F5F5F5F5F5F5F5F5F5F5F5F5F5F5F5F5F5F5F5F5F5F5F5F5E2E2E2E2E2E2F5F5F5F5F5F5F5F5F5F5F5F5F5F5F5F5F5F5F5F5F5F5F5F5F5F5E2E2E2E2E2E2E2F5F5F5F5F5F5E2F5E2E2F5F5F5F5F5F5F5F5F5F5F5F5F5F5F5F5F5F5F5F5F5F5F5F5F5F5
310
F5F5F5F5F5F5F5F5F5F5F5F5F5F5F5F5F5F5F5F5F5F5F5F5E2F5F5F5F5F5F5F5F5F5F5F5E2E2E2E2F5F5F5F5F5F5F5F5F5F5F5E2F5F5F5F5F5F5F5F5F5F5F5F5F5F5F5F5F5F5F5F5F5F5F5F5F5F5F5F5F5F5F5F5F5F5F5F5F5F5F5F5F5F5F5F5F5F5F5F5F5F5F5F5F5E2E2F5E2E2E2F5F5F5F5F5F5F5F5F5F5F5F5F5F5F5F5
310
F5F5F5F5F5F5F5F5F5F5E2E2E2E2F5E2E2F5F5F5F5F5F5E2F5E2E2F5F5F5F5F5F5F5F5F5F5F5F5F5F5F5F5F5F5F5F5F5F5F5F5F5F5F5F5F5F5F5F5F5F5F5F5F5F5F5F5F5F5F5F5F5F5F5F5F5F5E2F5F5F5F5F5F5F5F5F5F5F5E2E2E2E2F5F5F5F5F5F5F5F5F5F5F5E2F5F5F5F5F5F5F5F5F5F5F5F5F5F5F5F5F5F5F5F5F5F5
310
F5F5F5F5F5F5F5F5F5F5F5F5F5F5F5F5F5F5F5F5F5F5F5F5F5F5F5F5F5F5F5E2E2F5E2E2E2F5F5F5F5F5F5F5F5F5F5F5F5F5F5F5F5F5F5F5F5F5F5F5F5F5F5E2E2E2E2F5E2E2F5F5F5F5F5F5E2F5E2E2F5F5F5F5F5F5F5F5F5F5F5F5F5F5F5F5F5F5F5F5F5F5F5F5F5F5F5F5F5F5F5F5F5F5F5F5F5F5F5F5F5F5F5F5F5F5F5
310
F5F5F5E2F5F5F5F5F5F5F5F5F5F5F5E2E2E2E2F5F5F5F5F5F5F5F5F5F5F5E2F5F5F5F5F5F5F5F5F5F5F5F5F5F5F5F5F5F5F5F5F5F5F5F5F5F5F5F5F5F5F5F5F5F5F5F5F5F5F5F5F5F5F5F5F5F5F5F5F5F5F5F5F5E2E2E2E2E2E2F5F5F5F5F5F5F5F5F5F5F5F5F5F5F5F5F5F5F5F5F5F5F5F5F5F5E2E2E2E2E2E2E2F5F5F5F5
310
F5F5E2F5F5F5F5F5F5F5F5F5F5F5F5F5F5F5F5F5F5F5F5F5F5F5F5F5F5F5F5F5F5F5F5F5F5F5F5F5F5F5F5F5F5F5F5F5F5F5F5F5F5F5F5F5E2F5F5F5F5F5F5F5F5F5F5F5E2E2E2E2F5F5F5F5F5F5F5F5F5F5F5E2F5F5F5F5F5F5F5F5F5F5F5F5F5F5F5F5F5F5F5F5F5F5F5F5F5F5F5F5F5F5F5F5F5F5F5F5F5F5F5F5F5F5F5
310
F5F5F5F5F5F5F5F5F5F5E2E2E2E2E2E2F5F5F5F5F5F5F5F5F5F5F5F5F5F5F5F5F5F5F5F5F5F5F5F5F5F5E2E2F5E2E2E2E2F5F5F5F5F5F5E2F5E2E2F5F5F5F5F5F5F5F5F5F5F5F5F5F5F5F5F5F5F5F5F5F5F5F5F5F5F5F5F5F5F5F5F5F5F5F5F5F5F5F5F5F5F5F5F5F5F5F5F5F5E2F5F5F5F5F5F5F5F5F5F5F5E2E2E2E2F5F5
310
E2F5F5F5F5F5F5F5F5E2F5F5F5F5F5F5F5F5F5F5F5F5F5F5F5F5F5F5F5F5F5F5F5F5F5F5F5F5F5F5F5F5F5F5F5F5F5F5F5F5F5F5F5F5F5F5F5F5F5F5F5F5F5F5F5F5F5F5E2F5F5F5F5F5F5F5F5F5F5F5F5F5F5F5F5F5F5F5F5F5F5F5F5F5F5E2F5F5F5F5F5F5F5F5F5F5F5F5E2F5E2E2F5F5F5F5F5F5F5F5F5F5F5F5F5F5F5
310
F5F5F5F5F5F5F5F5F5F5F5F5F5F5F5F5F5F5F5F5F5F5F5F5F5F5F5F5F5F5F5F5F5F5F5E2F5F5F5F5F5F5F5F5E2F5F5E2E2E2E2F5F5E2F5F5F5F5F5F5F5F5E2F5F5F5F5F5F5F5F5F5F5F5F5F5F5F5F5F5F5F5F5F5F5F5F5F5F5F5F5F5F5F5F5F5F5F5F5F5F5F5F5F5F5F5F5F5F5F5F5F5F5F5F5F5F5F5F5F5F5E2F5F5F5F5F5
310
F5F5F5F5F5F5F5F5F5F5F5F5F5F5F5F5F5F5F5F5F5E2F5F5F5F5F5F5F5F5F5F5F5F5E2F5E2E2F5F5F5F5F5F5F5F5F5F5F5F5F5F5F5F5F5F5F5F5F5F5F5F5F5F5F5F5F5F5F5F5F5F5F5F5F5F5F5F5F5F5F5F5F5F5F5F5F5F5E2F5F5F5F5F5F5F5F5E2F5F5E2E2E2E2F5F5E2F5F5F5F5F5F5F5F5E2F5F5F5F5F5F5F5F5F5F5F5
310
F5F5F5F5F5F5F5F5F5F5F5F5F5F5F5F5F5F5F5F5F5F5F5F5F5F5F5F5F5F5F5F5F5F5F5F5F5F5F5F5F5F5F5F5F5F5F5E2E2E2E2E2E2E2E2E2E2E2E2E2E2E2E2E2E2E2E2E2E2E2E2E2E2E2E2F5F5F5F5F5F5F5F5F5F5F5F5E2F5E2E2F5F5F5F5F5F5F5F5F5F5F5F5F5F5F5F5F5F5F5F5F5F5F5F5F5F5F5F5F5F5F5F5F5F5F5F5
310
F5F5F5F5F5F5F5F5F5F5F5F5F5F5E2F5F5F5F5F5F5F5F5E2F5F5E2E2E2E2F5F5E2F5F5F5F5F5F5F5F5E2F5F5F5F5F5F5F5F5F5F5F5F5F5F5F5F5F5F5F5F5F5F5F5F5F5F5F5F5F5F5F5F5F5F5F5F5F5F5F5F5F5F5F5F5F5F5F5F5F5F5F5F5F5F5F5F5F5F5E2F5F5F5F5F5F5F5F5F5F5F5F5F5F5F5F5F5F5F5F5F5F5F5F5F5F5
310
E2F5F5F5F5F5F5F5F5F5F5F5F5E2F5E2E2F5F5F5F5F5F5F5F5F5F5F5F5F5F5F5F5F5F5F5F5F5F5F5F5F5F5F5F5F5F5F5F5F5F5F5F5F5F5F5F5F5F5F5F5F5F5F5F5F5F5E2F5F5F5F5F5F5F5F5E2F5F5E2E2E2E2F5F5E2F5F5F5F5F5F5F5F5E2F5F5F5F5F5F5F5F5F5F5F5F5F5F5F5F5F5F5F5F5F5F5F5F5F5F5F5F5F5F5F5F5
310
F5F5F5F5F5F5F5F5F5F5F5F5F5F5F5F5F5F5F5F5F5F5F5F5F5F5E2E2E2E2E2E2E2E2E2E2E2E2E2E2E2E2E2E2E2E2E2E2E2E2E2E2E2E2E2E2E2E2E2E2E2E2E2E2E2E2E2E2E2E2F5F5F5F5F5F5F5F5F5F5F5F5F5F5F5F5F5F5F5F5F5F5F5F5F5F5F5F5F5F5F5F5F5F5F5F5F5F5F5F5F5F5F5F5F5F5F5F5F5F5E2F5F5F5F5F5F5
310
F5F5E2F5F5E2E2E2E2F5F5E2F5F5F5F5F5F5F5F5E2F5F5F5F5F5F5F5F5F5F5F5F5F5F5F5F5F5F5F5F5F5F5F5F5F5F5F5F5F5F5F5F5F5F5F5F5F5F5F5F5F5F5F5F5F5F5F5F5F5F5F5F5F5F5F5F5F5F5F5F5F5F5F5F5F5F5F5F5F5F5F5F5F5F5F5F5F5F5F5F5F5F5F5F5F5F5F5F5F5F5F5F5F5F5F5F5F5F5F5F5F5F5F5F5F5F5
310
F5F5F5F5F5F5F5F5F5F5F5F5F5F5F5F5F5F5F5F5F5F5F5F5F5F5F5F5F5F5F5F5F5F5F5F5F5F5F5F5F5F5F5F5F5F5E2F5F5F5F5F5F5F5F5E2F5F5E2E2E2E2F5F5E2F5F5F5F5F5F5F5F5E2F5F5F5F5F5F5F5F5F5F5F5F5F5F5F5F5F5F5F5F5F5F5F5F5F5F5F5F5F5F5F5F5F5F5F5F5F5F5F5F5F5F5F5F5F5F5F5F5F5F5F5F5F5
310
F5F5F5F5F5F5F5F5F5F5F5F5F5F5F5F5F5F5F5F5F5F5F5F5F5F5F5F5F5F5F5F5F5F5F5F5F5F5F5F5F5F5F5F5F5F5F5F5F5F5F5F5F5F5F5F5F5F5F5F5F5F5F5F5F5F5F5F5F5F5F5F5F5F5F5F5F5F5F5F5F5F5F5F5F5F5F5F5F5F5F5F5F5F5F5F5F5F5F5E2F5F5F5F5F5F5F5F5E2F5F5E2E2E2E2F5F5E2F5F5F5F5F5F5F5F5E2
310
F5F5F5F5F5F5F5F5F5F5F5F5F5F5F5F5F5F5F5F5F5F5F5F5F5F5F5F5F5F5F5F5F5F5F5F5F5F5F5F5F5F5F5F5F5F5F5F5F5F5F5F5F5F5F5F5F5F5F5F5F5F5F5F5F5F5F5F5F5F5F5F5F5F5F5F5F5F5F5F5F5F5F5F5F5F5F5F5F5F5F5F5F5F5F5F5F5F5F5F5F5F5F5F5F5F5F5F5F5F5F5F5F5F5F5F5F5F5F5F5F5F5F5F5F5F5F5
310
F5F5F5F5F5F5F5F5F5F5F5F5F5F5F5F5F5F5F5F5F5F5F5F5F5E2F5F5F5F5F5F5F5F5E2F5F5E2E2E2E2F5F5E2F5F5F5F5F5F5F5F5E2F5F5F5F5F5F5F5F5F5F5F5F5F5F5F5F5F5F5F5F5F5F5F5F5F5F5F5F5F5F5F5F5F5F5F5F5F5F5F5F5F5F5F5F5F5F5F5F5F5F5F5F5F5F5F5F5F5F5F5F5F5F5F5F5F5F5F5F5F5F5F5F5F5F5
310
F5F5F5F5F5F5F5F5F5F5F5F5F5F5F5F5F5F5F5F5F5F5F5F5F5F5F5F5F5F5F5F5F5F5F5F5F5F5F5F5F5F5F5F5F5F5F5F5F5F5F5F5F5F5F5F5F5F5F5F5F5F5F5F5F5F5F5F5F5F5F5F5F5F5F5F5F5F5E2F5F5F5F5F5F5F5F5E2F5F5E2E2E2E2F5F5E2F5F5F5F5F5F5F5F5E2F5F5F5F5F5F5F5F5F5F5F5F5F5F5F5F5F5F5F5F5F5
310
F5F5F5F5F5F5F5F5F5F5F5F5F5F5F5F5F5F5F5F5F5F5F5F5F5F5F5F5F5F5F5F5F5F5F5F5F5F5F5F5F5F5F5F5F5F5F5F5F5F5F5F5F5F5F5F5F5F5F5F5F5F5F5F5F5F5F5F5F5F5F5F5F5F5F5F5F5F5F5F5F5F5F5F5F5F5F5F5F5F5F5F5F5F5F5F5F5F5F5F5F5F5F5F5F5F5F5F5F5F5F5F5F5F5F5F5F5F5F5F5F5F5F5F5F5F5F5
310
F5F5F5F5E2F5F5F5F5F5F5F5F5E2F5F5E2E2E2E2F5F5E2F5F5F5F5F5F5F5F5E2F5F5F5F5F5F5F5F5F5F5F5F5F5F5F5F5F5F5F5F5F5F5F5F5F5F5F5F5F5F5F5F5F5F5F5F5F5F5F5F5F5F5F5F5F5F5F5F5F5F5F5F5F5F5F5F5F5F5F5F5F5F5F5F5F5F5F5F5F5F5F5F5F5F5F5F5F5F5F5F5F5F5F5F5F5F5F5F5F5F5F5F5F5F5F5
310
F5F5F5F5F5F5F5F5F5F5F5F5F5F5F5F5F5F5F5F5F5F5F5F5F5F5F5F5F5F5F5F5F5F5F5F5F5F5F5F5F5F5F5F5F5F5F5F5F5F5F5F5F5F5F5F5F5E2F5F5F5F5F5F5F5F5E2F5F5E2E2E2E2F5F5E2F5F5F5F5F5F5F5F5E2F5F5F5F5F5F5F5F5F5F5F5F5F5F5F5F5F5F5F5F5F5F5F5F5F5F5F5F5F5F5F5F5F5F5F5F5F5F5F5F5F5F5
310
F5F5F5F5F5F5F5F5F5F5F5F5F5F5F5F5F5F5F5F5F5F5F5F5F5F5F5F5F5F5F5F5F5F5F5F5F5F5F5F5F5F5F5F5F5F5F5F5F5F5F5F5F5F5F5F5F5F5F5F5F5F5F5F5F5F5F5F5F5F5F5F5F5F5F5F5F5F5F5F5F5F5F5F5F5F5F5F5F5F5F5F5F5F5F5F5F5F5F5F5F5F5F5F5F5F5F5F5F5F5E2F5F5F5F5F5F5F5F5E2F5F5E2E2E2E2F5
310
F5E2F5F5F5F5F5F5F5F5E2F5F5F5F5F5F5F5F5F5F5F5F5F5F5F5F5F5F5F5F5F5F5F5F5F5F5F5F5F5F5F5F5F5F5F5F5F5F5F5F5F5F5F5F5F5F5F5F5F5F5F5F5F5F5F5F5F5F5F5F5F5F5F5F5F5F5F5F5F5F5F5F5F5F5F5F5F5F5F5F5F5F5F5F5F5F5F5F5F5F5F5F5F5F5F5F5F5F5F5F5F5F5F5F5F5F5F5F5F5F5F5F5F5F5F5F5
310
F5F5F5F5F5F5F5F5F5F5F5F5F5F5F5F5F5F5F5F5F5F5F5F5F5F5F5F5F5F5F5F5F5F5F5F5E2F5F5F5F5F5F5F5F5E2F5F5E2E2E2E2F5F5E2F5F5F5F5F5F5F5F5E2F5F5F5F5F5F5F5F5F5F5F5F5F5F5F5F5F5F5F5F5F5F5F5F5F5F5F5F5F5F5F5F5F5F5F5F5F5F5F5F5F5F5F5F5F5F5F5F5F5F5F5F5F5F5F5F5F5F5F5F5F5F5F5
310
F5F5F5F5F5F5F5F5F5F5F5F5F5F5F5F5F5F5F5F5F5F5F5F5F5F5F5F5F5F5F5F5F5F5F5F5F5F5F5F5F5F5F5F5F5F5F5F5F5F5F5F5F5F5F5F5F5F5F5F5F5F5F5F5F5F5F5F5F5F5F5F5F5F5F5F5F5F5F5F5F5F5F5F5F5F5F5F5F5E2F5F5F5F5F5F5F5F5E2F5F5E2E2E2E2F5F5E2F5F5F5F5F5F5F5F5E2F5F5F5F5F5F5F5F5F5F5
310
F5F5F5F5F5F5F5F5F5F5F5F5F5F5F5F5F5F5F5F5F5F5F5F5F5F5F5F5F5F5F5F5F5F5F5F5F5F5F5F5F5F5F5F5F5F5F5F5E2E2E2E2E2E2E2E2E2E2E2E2E2E2E2E2E2E2E2E2E2E2E2E2E2E2E2E2E2E2E2E2E2E2E2E2E2E2E2E2E2E2E2E2E2E2E2E2E2E2E2E2E2E2F5F5F5F5F5F5F5F5F5F5F5F5F5F5F5F5F5F5F5F5F5F5F5F5F5
310
F5F5F5F5F5F5F5F5F5F5F5F5F5F5F5E2F5F5F5F5F5F5F5F5E2F5F5E2E2E2E2F5F5E2F5F5F5F5F5F5F5F5E2F5F5F5F5F5F5F5F5F5F5F5F5F5F5F5F5F5F5F5F5F5F5F5F5F5F5F5F5F5F5F5F5F5F5F5F5F5F5F5F5F5F5F5F5F5F5F5F5F5F5F5F5F5F5F5F5F5F5E2E2E2E2E2E2E2E2E2F5F5F5F5F5F5F5F5F5F5F5E2E2E2E2E2E2
310
E2E2E2E2E2E2E2E2E2E2E2E2E2E2E2E2E2E2E2E2F5F5F5F5F5E2F5F5F5F5F5F5F5F5F5F5F5F5F5F5F5F5F5F5F5F5F5F5F5F5F5F5F5F5F5F5F5F5F5F5F5F5F5F5F5F5F5F5E2F5F5F5F5F5F5F5F5E2F5F5E2E2E2E2F5F5F5F5F5F5F5F5F5F5F5E2F5F5F5F5F5F5F5F5F5F5F5F5F5F5F5F5F5F5F5F5F5F5F5F5F5F5F5F5F5F5F5
310
F5F5F5F5F5F5F5F5F5F5F5F5F5F5F5F5F5F5F5F5F5F5F5F5F5F5F5E2E2E2E2E2E2E2E2F5F5F5F5F5F5F5F5F5F5F5F5F5E2E2E2E2E2E2E2F5F5F5F5F5F5F5F5F5F5F5F5F5F5F5F5E2F5F5F5F5F5F5E2F5F5F5F5F5F5F5F5F5F5F5F5F5F5F5F5F5F5F5F5F5F5F5F5F5F5F5F5F5F5F5F5F5F5F5F5F5F5F5F5F5F5E2F5F5F5F5F5
310
F5F5F5F5F5F5E2E2E2E2F5F5F5F5F5F5F5F5F5F5F5E2F5F5F5F5F5F5F5F5F5F5F5F5F5F5F5F5F5F5F5F5F5F5F5F5F5F5F5F5F5F5F5F5F5F5F5F5F5F5F5F5F5F5F5F5F5F5F5F5F5F5F5F5F5F5F5F5F5F5E2E2E2E2E2E2E2F5F5F5F5F5F5F5F5F5F5F5F5F5F5F5E2E2E2E2E2E2F5F5F5F5F5F5F5F5F5F5F5F5F5F5F5E2E2F5F5
310
F5F5F5F5E2F5F5F5F5F5F5F5F5F5F5F5F5F5F5F5F5F5F5F5F5F5F5F5F5F5F5F5F5F5F5F5F5F5F5F5F5F5F5F5F5F5F5E2F5F5F5F5F5F5F5F5F5F5F5E2E2E2E2F5F5F5F5F5F5F5F5F5F5F5E2F5F5F5F5F5F5F5F5F5F5F5F5F5F5F5F5F5F5F5F5F5F5F5F5F5F5F5F5F5F5F5F5F5F5F5F5F5F5F5F5F5F5F5F5F5F5F5F5F5F5F5F5
310
F5E2E2E2E2E2E2E2E2E2F5F5F5F5F5F5F5F5F5F5F5F5F5F5F5F5F5F5F5F5F5E2E2E2E2F5E2E2E2F5F5F5F5F5F5F5F5F5F5F5E2F5F5F5F5F5F5E2F5F5F5F5F5F5F5F5F5F5F5F5F5F5F5F5F5F5F5F5F5F5F5F5F5F5F5F5F5F5F5F5F5F5F5F5F5F5F5F5F5F5E2F5F5F5F5F5F5F5F5F5F5F5E2E2E2E2F5F5F5F5F5F5F5F5F5F5F5
310
E2F5F5F5F5F5F5F5F5F5F5F5F5F5F5F5F5F5F5F5F5F5F5F5F5F5F5F5F5F5F5F5F5F5F5F5F5F5F5F5F5F5F5F5F5F5F5F5F5F5F5F5F5F5E2E2E2E2E2E2F5F5F5F5F5F5F5F5F5F5F5F5F5F5F5F5F5F5F5F5F5F5F5F5F5F5E2E2E2E2E2E2E2F5F5F5F5F5F5F5F5F5F5E2F5F5F5F5F5F5E2F5F5F5F5F5F5F5F5F5F5F5F5F5F5F5F5
310
F5F5F5F5F5F5F5F5F5F5F5F5F5F5F5F5F5F5F5F5F5F5F5F5F5F5E2F5F5F5F5F5F5F5F5F5F5F5E2E2E2E2F5F5F5F5F5F5F5F5F5F5F5E2F5F5F5F5F5F5F5F5F5F5F5F5F5F5F5F5F5F5F5F5F5F5F5F5F5F5F5F5F5F5F5F5F5F5F5F5F5F5F5F5F5F5F5F5F5F5E2E2F5F5F5F5F5E2E2E2E2E2E2F5F5F5F5F5F5F5F5F5F5F5F5F5F5
310
F5F5F5F5F5F5F5F5F5F5F5F5E2E2E2E2E2E2E2F5F5F5F5F5F5F5F5F5F5E2F5F5F5F5F5F5E2F5F5F5F5F5F5F5F5F5F5F5F5F5F5F5F5F5F5F5F5F5F5F5F5F5F5F5F5F5F5F5F5F5F5F5F5F5F5F5F5F5F5E2F5F5F5F5F5F5F5F5F5F5F5E2E2E2E2F5F5F5F5F5F5F5F5F5F5F5E2F5F5F5F5F5F5F5F5F5F5F5F5F5F5F5F5F5F5F5F5
310
F5F5F5F5F5F5F5F5F5F5F5F5F5F5F5F5F5F5F5F5F5F5F5F5F5F5E2E2E2E2E2E2E2E2E2F5E2E2E2F5F5F5F5F5F5F5F5F5F5F5F5F5F5F5F5F5F5F5F5F5F5F5F5F5F5E2E2E2E2F5E2E2F5F5F5F5F5F5F5F5F5F5E2F5F5F5F5F5F5E2F5F5F5F5F5F5F5F5F5F5F5F5F5F5F5F5F5F5F5F5F5F5F5F5F5F5F5F5F5F5F5F5F5F5F5F5F5
310
F5F5F5F5F5E2F5F5F5F5F5F5F5F5F5F5F5E2E2E2E2F5F5F5F5F5F5F5F5F5F5F5E2F5F5F5F5F5F5F5F5F5F5F5F5F5F5F5F5F5F5F5F5F5F5F5F5F5F5F5F5F5F5F5F5F5F5F5F5F5F5F5F5F5F5F5F5F5F5E2E2F5E2F5F5F5E2E2E2E2E2E2F5F5F5F5F5F5F5F5F5F5F5F5F5F5F5F5F5F5F5F5F5F5F5F5F5F5E2E2E2E2E2E2E2F5F5
310
F5F5F5F5F5F5F5F5E2F5F5F5F5F5F5E2F5F5F5F5F5F5F5F5F5F5F5F5F5F5F5F5F5F5F5F5F5F5F5F5F5F5F5F5F5F5F5F5F5F5F5F5F5F5F5F5F5F5E2F5F5F5F5F5F5F5F5F5F5F5E2E2E2E2F5F5F5F5F5F5F5F5F5F5F5E2F5F5F5F5F5F5F5F5F5F5F5F5F5F5F5F5F5F5F5F5F5F5F5F5F5F5F5F5F5F5F5F5F5F5F5F5F5F5F5F5F5
310
F5F5F5F5F5E2E2F5E2F5F5F5E2E2E2E2E2E2F5F5F5F5F5F5F5F5F5F5F5F5F5F5F5F5F5F5F5F5F5F5F5F5F5F5E2E2E2E2E2E2E2F5F5F5F5F5F5F5F5F5F5E2F5F5F5F5F5F5E2F5F5F5F5F5F5F5F5F5F5F5F5F5F5F5F5F5F5F5F5F5F5F5F5F5F5F5F5F5F5F5F5F5F5F5F5F5F5F5F5F5F5E2F5F5F5F5F5F5F5F5F5F5F5E2E2E2E2
310
F5F5F5F5F5F5F5F5F5F5F5E2F5F5F5F5F5F5F5F5F5F5F5F5F5F5F5F5F5F5F5F5F5F5F5F5F5F5F5F5F5F5F5F5F5F5F5F5F5F5F5F5F5F5F5F5F5F5E2E2F5E2F5F5F5E2E2E2E2E2E2F5F5F5F5F5F5F5F5F5F5F5F5F5F5F5F5F5F5F5F5F5F5F5F5F5F5E2E2F5E2E2E2E2F5F5F5F5F5F5F5F5F5F5E2F5F5F5F5F5F5E2F5F5F5F5F5
310
F5F5F5F5F5F5F5F5F5F5F5F5F5F5F5F5F5F5F5F5F5F5F5F5F5F5F5F5F5F5F5F5F5F5F5F5F5E2F5F5F5F5F5F5F5F5F5F5F5E2E2E2E2F5F5F5F5F5F5F5F5F5F5F5E2F5F5F5F5F5F5F5F5F5F5F5F5F5F5F5F5F5F5F5F5F5F5F5F5F5F5F5F5F5F5F5F5F5F5F5F5F5F5F5F5F5F5F5F5F5F5E2E2F5E2F5F5F5F5F5F5F5F5E2F5F5F5
310
F5F5F5F5F5F5F5F5F5F5F5F5F5F5F5F5F5F5F5F5F5F5F5E2F5F5F5F5F5F5F5F5F5F5F5F5F5F5F5F5E2F5F5F5F5F5F5E2F5F5F5F5F5F5F5F5F5F5F5F5F5F5F5F5F5F5F5F5F5F5F5F5F5F5F5F5F5F5F5F5F5F5F5F5F5F5F5F5F5F5E2F5F5F5F5F5F5F5F5F5F5F5E2E2E2E2F5F5E2F5F5F5F5F5F5F5F5E2F5F5F5F5F5F5F5F5F5
310
F5F5F5F5F5F5F5F5F5F5F5F5F5F5F5F5F5F5F5F5F5F5F5F5F5F5F5F5F5F5F5F5F5F5F5F5F5F5F5F5E2F5F5F5F5F5F5F5F5E2F5F5F5F5F5F5F5F5F5F5F5F5F5F5F5F5F5F5F5F5F5F5F5F5F5F5E2F5F5F5F5F5F5F5F5F5F5F5F5F5F5F5F5E2F5F5F5F5F5F5E2F5F5F5F5F5F5F5F5F5F5F5F5F5F5F5F5F5F5F5F5F5F5F5F5F5F5
310
F5F5F5F5F5F5F5F5F5F5F5F5F5F5F5F5E2F5F5F5F5F5F5F5F5E2F5F5E2E2E2E2F5F5E2F5F5F5F5F5F5F5F5E2F5F5F5F5F5F5F5F5F5F5F5F5F5F5F5F5F5F5F5F5F5F5F5F5F5F5F5F5F5F5F5F5F5F5F5F5F5F5F5F5F5F5F5F5F5F5E2E2F5E2F5F5F5F5F5F5F5F5E2F5F5F5F5F5F5F5F5F5F5F5F5F5F5F5F5F5F5F5F5F5F5F5F5
310
F5F5E2F5F5F5F5F5F5F5F5F5F5F5F5F5F5F5F5E2F5F5F5F5F5F5E2F5F5F5F5F5F5F5F5F5F5F5F5F5F5F5F5F5F5F5F5F5F5F5F5F5F5F5F5F5F5F5F5F5F5F5F5F5F5F5F5F5F5E2F5F5F5F5F5F5F5F5E2F5F5E2E2E2E2F5F5E2F5F5F5F5F5F5F5F5E2F5F5F5F5F5F5F5F5F5F5F5F5F5F5F5F5F5F5F5F5F5F5F5F5F5F5F5F5F5F5
310
F5F5F5F5F5F5F5F5F5F5F5F5F5F5F5F5E2E2F5E2F5F5F5F5F5F5F5F5E2F5F5F5F5F5F5F5F5F5F5F5F5F5F5F5F5F5F5F5F5F5F5F5F5F5F5E2F5F5F5F5F5F5F5F5F5F5F5F5F5F5F5F5E2F5F5F5F5F5F5E2F5F5F5F5F5F5F5F5F5F5F5F5F5F5F5F5F5F5F5F5F5F5F5F5F5F5F5F5F5F5F5F5F5F5F5F5F5F5F5F5F5F5E2F5F5F5F5
310
F5F5F5F5E2F5F5E2E2E2E2F5F5E2F5F5F5F5F5F5F5F5E2F5F5F5F5F5F5F5F5F5F5F5F5F5F5F5F5F5F5F5F5F5F5F5F5F5F5F5F5F5F5F5F5F5F5F5F5F5F5F5F5F5F5F5F5F5F5F5F5F5E2F5F5F5F5F5F5F5F5E2F5F5F5F5F5F5F5F5F5F5F5F5F5F5F5F5F5F5F5F5F5F5F5F5F5F5E2F5F5F5F5F5F5F5F5F5F5F5F5F5F5F5F5E2F5
310
F5F5F5F5F5E2F5F5F5F5F5F5F5F5F5F5F5F5F5F5F5F5F5F5F5F5F5F5F5F5F5F5F5F5F5F5F5F5F5F5F5F5F5F5F5F5F5F5E2F5F5F5F5F5F5F5F5E2F5F5E2E2E2E2F5F5E2F5F5F5F5F5F5F5F5E2F5F5F5F5F5F5F5F5F5F5F5F5F5F5F5F5F5F5F5F5F5F5F5F5F5F5F5F5F5F5F5F5F5F5F5F5F5F5F5F5F5F5F5F5F5F5E2E2F5E2F5
310
F5F5F5F5F5F5F5E2F5F5F5F5F5F5F5F5F5F5F5F5F5F5F5F5F5F5F5F5F5F5F5F5F5F5E2F5F5F5F5F5F5F5F5F5F5F5F5F5F5F5F5E2F5F5F5F5F5F5E2F5F5F5F5F5F5F5F5F5F5F5F5F5F5F5F5F5F5F5F5F5F5F5F5F5F5F5F5F5F5F5F5F5F5F5F5F5F5F5F5F5F5E2F5F5F5F5F5F5F5F5E2F5F5E2E2E2E2F5F5E2F5F5F5F5F5F5F5
310
F5E2F5F5F5F5F5F5F5F5F5F5F5F5F5F5F5F5F5F5F5F5F5F5F5F5F5F5F5F5F5F5F5F5F5F5F5F5F5F5F5F5F5F5F5F5F5F5E2E2F5E2F5F5F5F5F5F5F5F5E2F5F5F5F5F5F5F5F5F5F5F5F5F5F5F5F5F5F5F5F5F5F5F5F5F5F5E2F5F5F5F5F5F5F5F5F5F5F5F5F5F5F5F5E2F5F5F5F5F5F5E2F5F5F5F5F5F5F5F5F5F5F5F5F5F5F5
310
F5F5F5F5F5F5F5F5F5F5F5F5F5F5F5F5F5F5F5F5F5F5F5F5F5F5F5E2F5F5F5F5F5F5F5F5E2F5F5E2E2E2E2F5F5E2F5F5F5F5F5F5F5F5E2F5F5F5F5F5F5F5F5F5F5F5F5F5F5F5F5F5F5F5F5F5F5F5F5F5F5F5F5F5F5F5F5F5F5F5F5F5F5F5F5F5F5F5F5F5F5E2E2F5E2F5F5F5F5F5F5F5F5E2F5F5F5F5F5F5F5F5F5F5F5F5F5
310
F5F5F5F5F5F5F5F5F5F5F5F5F5E2F5F5F5F5F5F5F5F5F5F5F5F5F5F5F5F5E2F5F5F5F5F5F5E2F5F5F5F5F5F5F5F5F5F5F5F5F5F5F5F5F5F5F5F5F5F5F5F5F5F5F5F5F5F5F5F5F5F5F5F5F5F5F5F5F5F5E2F5F5F5F5F5F5F5F5E2F5F5E2E2E2E2F5F5E2F5F5F5F5F5F5F5F5E2F5F5F5F5F5F5F5F5F5F5F5F5F5F5F5F5F5F5F5
310
F5F5F5F5F5F5F5F5F5F5F5F5F5F5F5F5F5F5F5F5F5F5F5F5F5F5F5E2E2F5E2F5F5F5F5F5F5F5F5E2F5F5F5F5F5F5F5F5F5F5F5F5F5F5F5F5F5F5F5F5F5F5F5F5F5F5E2F5F5F5F5F5F5F5F5F5F5F5F5F5F5F5F5E2F5F5F5F5F5F5E2F5F5F5F5F5F5F5F5F5F5F5F5F5F5F5F5F5F5F5F5F5F5F5F5F5F5F5F5F5F5F5F5F5F5F5F5
310
F5F5F5F5F5F5E2F5F5F5F5F5F5F5F5E2F5F5E2E2E2E2F5F5E2F5F5F5F5F5F5F5F5E2F5F5F5F5F5F5F5F5F5F5F5F5F5F5F5F5F5F5F5F5F5F5F5F5F5F5F5F5F5F5F5F5F5F5F5F5F5F5F5F5F5F5F5F5F5F5E2E2F5E2F5F5F5F5E2E2E2E2E2F5F5F5F5F5F5F5F5F5F5F5F5F5F5F5F5F5F5F5F5F5F5F5F5F5F5E2E2F5E2E2E2F5F5
310
F5F5F5F5F5F5F5F5E2E2F5F5F5F5F5F5E2F5F5F5F5F5F5F5F5F5F5F5F5F5F5F5F5F5F5F5F5F5F5F5F5F5F5F5F5F5F5F5F5F5F5F5F5F5F5F5F5F5F5E2F5F5F5F5F5F5F5F5E2F5F5E2E2E2E2F5F5E2F5F5F5F5F5F5F5F5E2F5F5F5F5F5F5F5F5F5F5F5F5F5F5F5F5F5F5F5F5F5F5F5F5F5F5F5F5F5F5F5F5F5F5F5F5F5F5F5F5
310
F5F5F5F5F5F5E2E2F5E2F5F5F5E2E2F5E2E2E2F5F5F5F5F5F5F5F5F5F5F5F5F5F5F5F5F5F5F5F5F5F5F5F5F5F5E2E2E2E2F5E2E2F5F5F5F5F5F5F5F5F5E2E2F5F5F5F5F5F5E2E2F5F5F5F5F5F5F5F5F5F5F5F5F5F5F5F5F5F5F5F5F5F5F5F5F5F5F5F5F5F5F5F5F5F5F5F5F5F5F5F5F5E2F5F5F5F5F5F5F5F5E2F5F5E2E2E2
310
E2F5F5E2F5F5F5F5F5F5F5F5E2F5F5F5F5F5F5F5F5F5F5F5F5F5F5F5F5F5F5F5F5F5F5F5F5F5F5F5F5F5F5F5F5F5F5F5F5F5F5F5F5F5F5F5F5F5F5E2E2F5E2F5F5F5E2E2E2E2E2E2F5F5F5F5F5F5F5F5F5F5F5F5F5F5F5F5F5F5F5F5F5F5F5F5F5F5E2E2E2E2E2E2E2F5F5F5F5F5F5F5F5F5E2E2F5F5F5F5F5F5E2E2F5F5F5
310
F5F5F5F5F5F5F5F5F5F5F5F5F5F5F5F5F5F5F5F5F5F5F5F5F5F5F5F5F5F5F5F5F5F5F5F5F5F5E2F5F5F5F5F5F5F5F5E2F5F5E2E2E2E2F5F5E2F5F5F5F5F5F5F5F5E2F5F5F5F5F5F5F5F5F5F5F5F5F5F5F5F5F5F5F5F5F5F5F5F5F5F5F5F5F5F5F5F5F5F5F5F5F5F5F5F5F5F5F5F5F5F5F5F5E2E2E2E2E2E2E2F5E2E2E2F5F5
310
F5F5F5F5F5F5F5F5F5F5F5F5F5F5F5F5F5F5F5F5F5F5F5F5E2E2E2E2F5E2E2F5F5F5F5F5F5F5F5F5E2E2F5F5F5F5F5F5E2E2F5F5F5F5F5F5F5F5F5F5F5F5F5F5F5F5F5F5F5F5F5F5F5F5F5F5F5F5F5F5F5F5F5F5F5F5F5F5F5F5F5E2F5F5F5F5F5F5F5F5E2F5F5E2E2E2E2F5F5E2F5F5F5F5F5F5F5F5E2F5F5F5F5F5F5F5F5
310
F5F5F5F5F5F5F5F5F5F5F5F5F5F5F5F5F5F5F5F5F5F5F5F5F5F5F5F5F5F5F5F5F5F5F5F5F5F5F5F5F5E2F5F5F5E2E2E2E2E2E2F5F5F5F5F5F5F5F5F5F5F5F5F5F5F5F5F5F5F5F5F5F5F5F5F5F5E2E2E2E2E2E2E2F5F5F5F5F5F5F5F5F5E2E2F5F5F5F5F5F5E2E2F5F5F5F5F5F5F5F5F5F5F5F5F5F5F5F5F5F5F5F5F5F5F5F5
310
F5F5F5F5F5F5F5F5F5F5F5F5F5F5F5F5F5E2F5F5F5F5F5F5F5F5E2F5F5E2E2E2E2F5F5E2F5F5F5F5F5F5F5F5E2F5F5F5F5F5F5F5F5F5F5F5F5F5F5F5F5F5F5F5F5F5F5F5F5F5F5F5F5F5F5F5F5F5F5F5F5F5F5F5F5F5F5F5F5F5F5F5F5F5E2F5F5F5E2E2E2E2E2E2F5F5F5F5F5F5F5F5F5F5F5F5F5F5F5F5F5F5F5F5F5F5F5
310
F5F5F5E2E2E2E2E2E2E2F5F5F5F5F5F5F5F5F5E2E2F5F5F5F5F5F5E2E2F5F5F5F5F5F5F5F5F5F5F5F5F5F5F5F5F5F5F5F5F5F5F5F5F5F5F5F5F5F5F5F5F5F5F5F5F5F5F5F5F5E2F5F5F5F5F5F5F5F5E2F5F5E2E2E2E2F5F5E2F5F5F5F5F5F5F5F5E2F5F5F5F5F5F5F5F5F5F5F5F5F5F5F5F5F5F5F5F5F5F5F5F5F5F5F5F5F5
310
F5F5F5F5F5F5F5F5F5F5F5F5F5F5F5F5F5E2E2F5E2F5F5F5E2E2E2E2E2E2F5F5F5F5F5F5F5F5F5F5F5F5F5F5F5F5F5F5F5F5F5F5F5F5F5F5E2E2F5E2E2E2E2F5F5F5F5F5F5F5F5F5E2E2F5F5F5F5F5F5E2E2F5F5F5F5F5F5F5F5F5F5F5F5F5F5F5F5F5F5F5F5F5F5F5F5F5F5F5F5F5F5F5F5F5F5F5F5F5F5F5F5F5E2F5F5F5
310
F5F5F5F5F5E2F5F5E2E2E2E2F5F5E2F5F5F5F5F5F5F5F5E2F5F5F5F5F5F5F5F5F5F5F5F5F5F5F5F5F5F5F5F5F5F5F5F5F5F5F5F5F5F5F5F5F5F5F5F5F5F5F5F5F5F5F5F5F5F5E2E2F5E2F5F5F5F5F5F5F5F5E2F5F5F5F5F5F5F5F5F5F5F5F5F5F5F5F5F5F5F5F5F5F5F5F5F5F5E2F5F5F5F5F5F5F5F5F5F5F5F5F5F5F5F5F5
310
F5F5F5F5F5F5E2E2F5F5F5F5F5F5F5F5F5F5F5F5F5F5F5F5F5F5F5F5F5F5F5F5F5F5F5F5F5F5F5F5F5F5F5F5F5F5F5F5F5E2F5F5F5F5F5F5F5F5E2F5F5E2E2E2E2F5F5F5F5F5F5F5F5F5F5F5E2F5F5F5F5F5F5F5F5F5F5F5F5F5F5F5F5F5F5F5F5F5F5F5F5F5F5F5F5F5F5F5F5F5F5F5F5F5F5F5F5F5F5F5F5F5F5E2E2F5E2
310
F5F5F5F5F5F5F5F5E2E2E2E2F5F5F5F5F5F5F5F5F5F5F5F5F5F5F5F5F5F5F5F5F5E2E2E2F5F5F5F5F5F5F5F5F5F5F5F5F5F5F5E2E2F5F5F5F5F5F5E2E2F5F5F5F5F5F5F5F5F5F5F5F5F5F5F5F5F5F5F5F5F5F5F5F5F5F5F5F5F5F5F5F5F5F5F5F5F5F5F5F5F5E2F5F5F5F5F5F5F5F5F5F5F5E2E2E2E2F5F5F5F5F5F5F5F5F5
310
F5F5E2F5F5F5F5F5F5F5F5F5F5F5F5F5F5F5F5F5F5F5F5F5F5F5F5F5F5F5F5F5F5F5F5F5F5F5F5F5F5F5F5F5F5F5F5F5F5E2E2F5E2F5F5F5F5F5F5F5F5E2E2E2E2F5F5F5F5F5F5F5F5F5F5F5F5F5F5F5F5F5F5F5F5F5E2E2E2E2E2E2E2E2E2E2E2E2E2E2E2F5F5F5E2E2F5F5F5F5F5F5E2E2F5F5F5F5F5F5F5F5F5F5F5F5F5
310
F5F5F5F5F5F5F5F5F5F5F5F5F5F5F5F5F5F5F5F5F5F5F5F5F5F5F5F5E2F5F5F5F5F5F5F5F5F5F5F5E2E2E2E2F5F5F5F5F5F5F5F5F5F5F5E2F5F5F5F5F5F5F5F5F5F5F5F5F5F5F5F5F5F5F5F5F5F5F5F5F5F5F5F5F5F5F5F5F5F5F5F5F5F5F5F5F5F5F5F5F5F5E2E2F5E2F5F5F5F5F5F5F5F5E2E2E2E2F5F5F5F5F5F5F5F5F5
310
F5F5F5F5F5F5F5F5F5F5F5F5E2E2E2F5F5F5F5F5F5F5F5F5E2E2F5F5F5F5F5F5F5F5F5F5F5F5E2E2F5F5F5F5F5F5F5F5F5F5F5F5F5F5F5F5F5F5F5F5F5F5F5F5F5F5F5F5F5F5F5F5F5F5F5F5F5F5F5F5F5E2F5F5F5F5F5F5F5F5F5F5F5E2E2E2E2F5F5F5F5F5F5F5F5F5F5F5E2F5F5F5F5F5F5F5F5F5F5F5F5F5F5F5F5F5F5
310
F5F5F5F5F5F5F5F5F5F5F5F5F5F5F5F5F5F5F5F5F5F5F5F5F5F5F5F5E2E2F5E2F5F5F5F5F5F5F5F5E2F5F5F5F5F5F5F5F5F5F5F5F5F5F5F5F5F5F5F5F5F5F5F5F5F5F5E2F5F5F5F5F5F5F5F5F5F5E2F5F5F5F5F5E2F5F5F5F5F5F5F5F5F5F5F5F5F5F5F5F5F5F5F5F5F5F5F5F5F5F5F5F5F5F5F5F5F5F5F5F5F5F5F5F5F5F5
310
F5F5F5F5F5F5F5E2F5F5F5F5F5F5F5F5F5F5F5E2E2E2E2F5F5F5F5F5F5F5F5F5F5F5E2F5F5F5F5F5F5F5F5F5F5F5F5F5F5F5F5F5F5F5F5F5F5F5F5F5F5F5F5F5F5F5F5F5F5F5F5F5F5F5F5F5F5F5F5F5F5E2E2F5E2F5F5F5F5F5F5F5F5E2F5F5F5F5F5F5F5F5F5F5F5F5F5F5F5F5F5F5F5F5F5F5F5F5F5F5E2F5F5F5F5F5F5
310
F5F5F5F5E2F5F5F5F5E2E2F5F5F5F5F5F5E2E2F5F5F5F5F5F5F5F5F5F5F5F5F5F5F5F5F5F5F5F5F5F5F5F5F5F5F5F5F5F5F5F5F5F5F5F5F5F5F5F5F5E2F5F5F5F5F5F5F5F5F5F5F5E2E2E2E2F5F5F5F5F5F5F5F5F5F5F5E2F5F5F5F5F5F5F5F5F5F5F5F5F5F5F5F5F5F5F5F5F5F5F5F5F5F5F5F5F5F5F5F5F5F5F5F5F5F5F5
310
F5F5F5F5F5F5F5E2E2F5E2F5F5F5F5F5F5F5F5E2F5F5F5F5F5F5F5F5F5F5F5F5F5F5F5F5F5F5F5F5F5F5F5F5F5F5E2F5F5F5F5F5F5F5F5F5F5E2F5F5F5F5E2E2F5F5F5F5F5F5E2E2F5F5F5F5F5F5F5F5F5F5F5F5F5F5F5F5F5F5F5F5F5F5F5F5F5F5F5F5F5F5F5F5F5F5F5F5F5F5F5F5F5E2F5F5F5F5F5F5F5F5F5F5F5E2E2
310
E2E2F5F5F5F5F5F5F5F5F5F5F5E2F5F5F5F5F5F5F5F5F5F5F5F5F5F5F5F5F5F5F5F5F5F5F5F5F5F5F5F5F5F5F5F5F5F5F5F5F5F5F5F5F5F5F5F5F5F5E2E2F5E2F5F5F5F5F5F5F5F5E2F5F5F5F5F5F5F5F5F5F5F5F5F5F5F5F5F5F5F5F5F5F5F5F5F5F5E2F5F5F5F5F5F5F5F5F5F5E2F5F5F5F5E2E2F5F5F5F5F5F5F5E2F5F5
310
F5F5F5F5F5F5F5F5F5F5F5F5F5F5F5F5F5F5F5F5F5F5F5F5F5F5F5F5F5F5F5F5F5F5F5F5F5F5F5E2F5F5F5F5F5F5F5F5F5F5F5E2E2E2E2F5F5F5F5F5F5F5F5F5F5F5E2F5F5F5F5F5F5F5F5F5F5F5F5F5F5F5F5F5F5F5F5F5F5F5F5F5F5F5F5F5F5F5F5F5F5F5F5F5F5F5F5F5F5F5F5F5F5F5F5F5E2F5F5F5F5F5F5F5F5E2F5
310
F5F5F5F5F5F5F5F5F5F5F5F5F5F5F5F5F5F5F5F5F5F5F5F5F5E2F5F5F5F5F5F5F5F5F5E2E2F5F5F5F5E2E2F5F5F5F5F5F5E2E2F5F5F5F5F5F5F5F5F5F5F5F5F5F5F5F5F5F5F5F5F5F5F5F5F5F5F5F5F5F5F5F5F5F5F5F5F5F5F5F5F5E2F5F5F5F5F5F5F5F5F5F5F5E2E2E2E2F5F5F5F5F5F5F5F5F5F5F5E2F5F5F5F5F5F5F5
310
F5F5F5F5F5F5F5F5F5F5F5F5F5F5F5F5F5F5F5F5F5F5F5F5F5F5F5F5F5F5F5F5F5F5F5F5F5F5F5E2E2F5E2F5F5F5F5F5F5F5F5E2F5F5F5F5F5F5F5F5F5F5F5F5F5F5F5F5F5F5F5F5F5F5F5F5F5F5E2F5F5F5F5F5F5F5F5F5E2E2F5F5F5F5E2E2F5F5F5F5F5F5E2E2F5F5F5F5F5F5F5F5F5F5F5F5F5F5F5F5F5F5F5F5F5F5F5
310
F5F5F5F5F5F5F5F5F5F5F5F5F5F5F5F5F5F5E2F5F5F5F5F5F5F5F5F5F5F5E2E2E2E2F5F5E2F5F5F5F5F5F5F5F5E2F5F5F5F5F5F5F5F5F5F5F5F5F5F5F5F5F5F5F5F5F5F5F5F5F5F5F5F5F5F5F5F5F5F5F5F5F5F5F5F5F5F5F5F5F5F5E2E2F5E2F5F5F5F5F5F5F5F5E2F5F5F5F5F5F5F5F5F5F5F5F5F5F5F5F5F5F5F5F5F5F5
310
F5F5F5F5E2F5F5F5F5F5F5F5F5F5E2E2F5F5F5F5E2E2F5F5F5F5F5F5E2E2F5F5F5F5F5F5F5F5F5F5F5F5F5F5F5F5F5F5F5F5F5F5F5F5F5F5F5F5F5F5F5F5F5F5F5F5F5F5F5F5F5E2F5F5F5F5F5F5F5F5E2F5F5E2E2E2E2F5F5E2F5F5F5F5F5F5F5F5E2F5F5F5F5F5F5F5F5F5F5F5F5F5F5F5F5F5F5F5F5F5F5F5F5F5F5F5F5
310
F5F5F5F5F5F5F5F5F5F5F5F5F5F5F5F5F5F5F5E2F5E2F5F5F5F5F5F5F5F5E2F5F5F5F5F5F5F5F5F5F5F5F5F5F5F5F5F5F5F5F5F5F5F5F5F5F5E2F5F5F5F5F5F5F5F5F5E2E2F5F5F5F5E2E2F5F5F5F5F5F5E2E2F5F5F5F5F5F5F5F5F5F5F5F5F5F5F5F5F5F5F5F5F5F5F5F5F5F5F5F5F5F5F5F5F5F5F5F5F5F5F5F5F5E2F5F5
310
F5F5F5F5F5F5E2F5F5E2E2E2E2F5F5E2F5F5F5F5F5F5F5F5E2F5F5F5F5F5F5F5F5F5F5F5F5F5F5F5F5F5F5F5F5F5F5F5F5F5F5F5F5F5F5F5F5F5F5F5F5F5F5F5F5F5F5F5F5F5F5E2E2F5E2F5F5F5F5F5F5F5F5E2F5F5F5F5F5F5F5F5F5F5F5F5F5F5F5F5F5F5F5F5F5F5F5F5F5F5E2F5F5F5F5F5F5F5F5F5E2E2F5F5F5F5F5
310
E2F5F5F5F5F5F5E2F5F5F5F5F5F5F5F5F5F5F5F5F5F5F5F5F5F5F5F5F5F5F5F5F5F5F5F5F5F5F5F5F5F5F5F5F5F5F5F5F5F5E2F5F5F5F5F5F5F5F5E2F5F5E2E2E2E2F5F5E2F5F5F5F5F5F5F5F5E2F5F5F5F5F5F5F5F5F5F5F5F5F5F5F5F5F5F5F5F5F5F5F5F5F5F5F5F5F5F5F5F5F5F5F5F5F5F5F5F5F5F5F5F5F5F5E2E2F5
310
E2F5F5F5F5F5F5F5F5E2F5F5F5F5F5F5F5F5F5F5F5F5F5F5F5F5F5F5F5F5F5F5F5F5F5F5E2F5F5F5F5F5F5F5F5F5E2E2F5F5F5F5F5E2F5F5F5F5F5F5E2F5F5F5F5F5F5F5F5F5F5F5F5F5F5F5F5F5F5F5F5F5F5F5F5F5F5F5F5F5F5F5F5F5F5F5F5F5F5F5F5F5F5E2F5F5F5F5F5F5F5F5E2F5F5E2E2E2E2F5F5E2F5F5F5F5F5
310
F5F5F5E2F5F5F5F5F5F5F5F5F5F5F5F5F5F5F5F5F5F5F5F5F5F5F5F5F5F5F5F5F5F5F5F5F5F5F5F5F5F5F5F5F5F5F5F5F5F5E2E2F5E2F5F5F5F5E2E2E2E2E2F5F5F5F5F5F5F5F5F5F5F5F5F5F5F5F5F5F5F5F5F5F5F5F5F5F5E2E2F5E2E2E2F5F5F5F5E2E2F5F5F5F5F5E2F5F5F5F5F5F5E2F5F5F5F5F5F5F5F5F5F5F5F5F5
310
F5F5F5F5F5F5F5F5F5F5F5F5F5F5F5F5F5F5F5F5F5F5F5F5F5F5F5F5F5E2F5F5F5F5F5F5F5F5E2F5F5E2E2E2E2F5F5E2F5F5F5F5F5F5F5F5E2F5F5F5F5F5F5F5F5F5F5F5F5F5F5F5F5F5F5F5F5F5F5F5F5F5F5F5F5F5F5F5F5F5F5F5F5F5F5F5F5F5F5F5F5F5F5E2E2F5E2F5F5F5E2E2F5E2E2E2F5F5F5F5F5F5F5F5F5F5F5
310
F5F5F5F5F5F5F5F5F5F5F5F5F5F5F5E2E2E2E2F5E2E2F5F5F5E2E2F5F5F5F5F5E2F5F5F5F5F5F5E2F5F5F5F5F5F5F5F5F5F5F5F5F5F5F5F5F5F5F5F5F5F5F5F5F5F5F5F5F5F5F5F5F5F5F5F5F5F5F5F5F5F5E2F5F5F5F5F5F5F5F5E2F5F5E2E2E2E2F5F5E2F5F5F5F5F5F5F5F5E2F5F5F5F5F5F5F5F5F5F5F5F5F5F5F5F5F5
310
F5F5F5F5F5F5F5F5F5F5F5F5F5F5F5F5F5F5F5F5F5F5F5F5F5F5F5F5F5F5F5F5E2F5F5F5E2E2E2E2E2E2F5F5F5F5F5F5F5F5F5F5F5F5F5F5F5F5F5F5F5F5F5F5F5F5F5F5E2E2E2E2E2E2E2F5F5F5E2E2F5F5F5F5F5E2F5F5F5F5F5F5E2F5F5F5F5F5F5F5F5F5F5F5F5F5F5F5F5F5F5F5F5F5F5F5F5F5F5F5F5F5F5F5F5F5F5
310
F5F5F5F5F5F5F5F5E2F5F5F5F5F5F5F5F5E2F5F5E2E2E2E2F5F5E2F5F5F5F5F5F5F5F5E2F5F5F5F5F5F5F5F5F5F5F5F5F5F5F5F5F5F5F5F5F5F5F5F5F5F5F5F5F5F5F5F5F5F5F5F5F5F5F5F5F5F5F5F5F5F5F5F5E2E2E2E2E2E2E2F5E2E2E2F5F5F5F5F5F5F5F5F5F5F5F5F5F5F5F5F5F5F5F5F5F5F5F5F5F5E2E2E2E2F5E2
310
E2F5F5F5F5F5F5F5F5F5F5E2F5F5F5F5F5F5E2F5F5F5F5F5F5F5F5F5F5F5F5F5F5F5F5F5F5F5F5F5F5F5F5F5F5F5F5F5F5F5F5F5F5F5F5F5F5F5F5F5F5E2F5F5F5F5F5F5F5F5E2F5F5E2E2E2E2F5F5E2F5F5F5F5F5F5F5F5E2F5F5F5F5F5F5F5F5F5F5F5F5F5F5F5F5F5F5F5F5F5F5F5F5F5F5F5F5F5F5F5F5F5F5F5F5F5F5
310
F5F5F5F5F5F5F5F5F5E2F5E2F5F5F5E2E2E2E2E2E2F5F5F5F5F5F5F5F5F5F5F5F5F5F5F5F5F5F5F5F5F5F5F5F5F5F5E2E2E2E2E2E2E2F5F5F5E2E2F5F5F5F5F5E2F5F5F5F5F5F5E2F5F5F5F5F5F5F5F5F5F5F5F5F5F5F5F5F5F5F5F5F5F5F5F5F5F5F5F5F5F5F5F5F5F5F5F5F5F5F5F5F5F5E2F5F5F5F5F5F5F5F5E2F5F5E2
310
E2E2E2F5F5E2F5F5F5F5F5F5F5F5E2F5F5F5F5F5F5F5F5F5F5F5F5F5F5F5F5F5F5F5F5F5F5F5F5F5F5F5F5F5F5F5F5F5F5F5F5F5F5F5F5F5F5F5F5F5F5E2E2F5E2F5F5F5E2E2E2E2E2E2F5F5F5F5F5F5F5F5F5F5F5F5F5F5F5F5F5F5F5F5F5F5F5F5F5F5E2E2E2E2E2E2E2F5F5F5E2E2F5F5F5F5F5E2F5F5F5F5F5F5E2F5F5
310
F5F5F5F5F5F5F5F5F5F5F5F5F5F5F5F5F5F5F5F5F5F5F5F5F5F5F5F5F5F5F5F5F5F5F5F5F5F5F5F5E2F5F5F5F5F5F5F5F5E2F5F5E2E2E2E2F5F5E2F5F5F5F5F5F5F5F5E2F5F5F5F5F5F5F5F5F5F5F5F5F5F5F5F5F5F5F5F5F5F5F5F5F5F5F5F5F5F5F5F5F5F5F5F5F5F5F5F5F5F5F5F5F5F5E2E2F5E2F5F5F5E2E2E2E2E2E2
310
F5F5F5F5F5F5F5F5F5F5F5F5F5F5F5F5F5F5F5F5F5F5F5F5F5F5E2E2F5E2E2E2E2F5F5F5E2E2F5F5F5F5F5E2F5F5F5F5F5F5E2F5F5F5F5F5F5F5F5F5F5F5F5F5F5F5F5F5F5F5F5F5F5F5F5F5F5F5F5F5F5F5F5F5F5F5F5F5F5F5F5F5F5E2F5F5F5F5F5F5F5F5E2F5F5E2E2E2E2F5F5E2F5F5F5F5F5F5F5F5E2F5F5F5F5F5F5
310
F5F5F5F5F5F5F5F5F5F5F5F5F5F5F5F5F5F5F5F5F5F5F5F5F5F5F5F5F5F5F5F5F5F5F5F5F5F5F5F5E2E2F5E2F5F5F5F5F5F5F5F5E2F5F5F5F5F5F5F5F5F5F5F5F5F5F5F5F5F5F5F5F5F5F5F5F5F5F5E2F5F5F5F5F5F5F5F5F5E2E2F5F5F5F5F5E2F5F5F5F5F5F5E2F5F5F5F5F5F5F5F5F5F5F5F5F5F5F5F5F5F5F5F5F5F5F5
310
F5F5F5F5F5F5F5F5F5F5F5F5F5F5F5F5F5F5F5E2F5F5F5F5F5F5F5F5E2F5F5E2E2E2E2F5F5E2F5F5F5F5F5F5F5F5E2F5F5F5F5F5F5F5F5F5F5F5F5F5F5F5F5F5F5F5F5F5F5F5F5F5F5F5F5F5F5F5F5F5F5F5F5F5F5F5F5F5F5F5F5F5F5F5E2F5E2F5F5F5F5F5F5F5F5E2F5F5F5F5F5F5F5F5F5F5F5F5F5F5F5F5F5F5F5F5F5
310
F5F5F5F5F5E2F5F5F5F5F5F5F5F5F5E2E2F5F5F5F5F5E2F5F5F5F5F5F5E2F5F5F5F5F5F5F5F5F5F5F5F5F5F5F5F5F5F5F5F5F5F5F5F5F5F5F5F5F5F5F5F5F5F5F5F5F5F5F5F5F5F5E2F5F5F5F5F5F5F5F5E2F5F5E2E2E2E2F5F5E2F5F5F5F5F5F5F5F5E2F5F5F5F5F5F5F5F5F5F5F5F5F5F5F5F5F5F5F5F5F5F5F5F5F5F5F5
310
F5F5F5F5F5F5F5F5F5F5F5F5F5F5F5F5F5F5F5E2E2F5E2F5F5F5F5F5F5F5F5E2F5F5F5F5F5F5F5F5F5F5F5F5F5F5F5F5F5F5F5F5F5F5F5F5F5F5E2F5F5F5F5F5F5F5F5F5F5E2F5F5F5F5F5E2F5F5F5F5F5F5E2F5F5F5F5F5F5F5F5F5F5F5F5F5F5F5F5F5F5F5F5F5F5F5F5F5F5F5F5F5F5F5F5F5F5F5F5F5F5F5F5F5F5E2F5
310
F5F5F5F5F5F5F5E2F5F5E2E2E2E2F5F5E2F5F5F5F5F5F5F5F5E2F5F5F5F5F5F5F5F5F5F5F5F5F5F5F5F5F5F5F5F5F5F5F5F5F5F5F5F5F5F5F5F5F5F5F5F5F5F5F5F5F5F5F5F5F5F5F5F5F5E2F5F5F5F5F5F5F5F5E2F5F5F5F5F5F5F5F5F5F5F5F5F5F5F5F5F5F5F5F5F5F5F5F5F5F5E2F5F5F5F5F5F5F5F5F5F5E2F5F5F5F5
310
F5E2F5F5F5F5F5F5E2F5F5F5F5F5F5F5F5F5F5F5F5F5F5F5F5F5F5F5F5F5F5F5F5F5F5F5F5F5F5F5F5F5F5F5F5F5F5F5F5F5F5E2F5F5F5F5F5F5F5F5E2F5F5E2E2E2E2F5F5E2F5F5F5F5F5F5F5F5E2F5F5F5F5F5F5F5F5F5F5F5F5F5F5F5F5F5F5F5F5F5F5F5F5F5F5F5F5F5F5F5F5F5F5F5F5F5F5F5F5F5F5F5F5F5F5E2E2
310
F5E2F5F5F5F5F5F5F5F5E2F5F5F5F5F5F5F5F5F5F5F5F5F5F5F5F5F5F5F5F5F5F5F5F5F5F5E2F5F5F5F5F5F5F5F5F5F5E2F5F5F5F5F5E2F5F5F5F5F5F5E2F5F5F5F5F5F5F5F5F5F5F5F5F5F5F5F5F5F5F5F5F5F5F5F5F5F5F5F5F5F5F5F5F5F5F5F5F5F5F5F5F5F5E2F5F5F5F5F5F5F5F5E2F5F5E2E2E2E2F5F5F5F5F5F5F5
310
F5F5F5F5E2F5F5F5F5F5F5F5F5F5F5F5F5F5F5F5F5F5F5F5F5F5F5F5F5F5F5F5F5F5F5F5F5F5F5F5F5F5F5F5F5F5F5F5F5F5F5E2E2F5E2F5F5F5F5F5F5F5F5E2F5F5F5F5F5F5F5F5F5F5F5F5F5F5F5F5F5F5F5F5F5F5F5F5F5F5E2F5F5F5F5F5F5F5F5F5F5E2F5F5F5F5F5E2F5F5F5F5F5F5E2F5F5F5F5F5F5F5F5F5F5F5F5
310
F5F5F5F5F5F5F5F5F5F5F5F5F5F5F5F5F5F5F5F5F5F5F5F5F5F5F5F5F5F5E2F5F5F5F5F5F5F5F5F5F5F5E2E2E2E2F5F5F5F5F5F5F5F5F5F5F5E2F5F5F5F5F5F5F5F5F5F5F5F5F5F5F5F5F5F5F5F5F5F5F5F5F5F5F5F5F5F5F5F5F5F5F5F5F5F5F5F5F5F5F5F5F5F5F5F5F5E2F5F5F5F5F5F5F5F5E2E2E2E2E2E2E2F5F5F5F5
310
F5F5F5F5F5F5F5F5F5F5F5E2E2E2E2E2E2F5F5F5F5F5F5F5F5F5F5E2F5F5F5F5F5E2F5F5F5F5F5F5E2F5F5F5F5F5F5F5F5F5F5F5F5F5F5F5F5F5F5F5F5F5F5F5F5F5F5F5F5F5F5F5F5F5F5F5F5F5F5F5F5F5F5E2F5F5F5F5F5F5F5F5F5F5F5E2E2E2E2F5F5F5F5F5F5F5F5F5F5F5E2F5F5F5F5F5F5F5F5F5F5F5F5F5F5F5F5
310
F5F5F5F5F5F5F5F5F5F5F5F5F5F5F5F5F5F5F5F5F5F5F5F5F5F5F5F5F5F5E2E2F5E2F5F5F5F5F5F5F5F5E2E2E2E2E2E2E2E2F5F5F5F5F5F5F5F5F5F5F5F5F5E2E2E2E2E2E2E2F5F5F5F5F5F5F5F5F5E2E2F5F5F5F5E2E2F5F5F5F5F5F5E2F5F5F5F5F5F5F5F5F5F5F5F5F5F5F5F5F5F5F5F5F5F5F5F5F5F5F5F5F5F5F5F5F5
310
F5F5F5F5F5F5F5F5F5E2F5F5F5F5F5F5F5F5F5F5F5E2E2E2E2F5F5F5F5F5F5F5F5F5F5F5E2F5F5F5F5F5F5F5F5F5F5F5F5F5F5F5F5F5F5F5F5F5F5F5F5F5F5F5F5F5F5F5F5F5F5F5F5F5F5F5F5F5F5F5F5F5F5E2E2F5E2F5F5F5F5F5F5F5F5E2E2E2E2E2E2E2E2F5F5F5F5F5F5F5F5F5F5F5F5E2E2E2E2E2E2E2E2E2E2E2E2
310
E2E2E2E2E2E2E2E2E2E2E2E2E2E2F5F5F5F5F5E2F5F5F5F5F5F5F5F5F5F5F5F5F5F5F5F5F5F5F5F5F5F5F5F5F5F5F5F5F5F5F5F5F5F5F5F5F5F5F5F5F5F5E2F5F5F5F5F5F5F5F5F5F5F5E2E2E2E2F5F5F5F5F5F5F5F5F5F5F5E2F5F5F5F5F5F5F5F5F5F5F5F5F5F5F5F5F5F5F5F5F5F5F5F5F5F5F5F5F5F5F5F5F5F5F5F5F5
310
F5F5F5F5F5F5F5F5F5E2E2F5E2F5F5F5F5F5F5F5F5E2E2E2E2E2E2E2E2E2F5F5F5F5F5F5F5F5F5F5F5E2E2E2E2E2E2E2E2F5F5F5F5F5F5F5F5F5F5F5F5F5F5F5F5F5F5F5F5F5F5F5E2F5F5F5F5F5F5F5F5F5F5F5F5F5F5F5F5F5F5F5F5F5F5F5F5F5F5F5F5F5F5F5F5F5F5F5F5F5F5F5F5F5F5E2F5F5F5F5F5F5F5F5F5F5F5
310
E2E2E2E2F5F5F5F5F5F5F5F5F5F5F5E2F5F5F5F5F5F5F5F5F5F5F5F5F5F5F5F5F5F5F5F5F5F5F5F5F5F5F5F5F5F5F5F5F5F5F5F5F5F5F5F5F5F5F5F5F5F5E2E2E2E2E2E2E2E2E2E2E2E2E2E2E2E2E2E2E2E2E2E2E2E2E2E2E2E2E2E2E2E2E2E2E2E2E2E2E2E2E2E2E2E2E2E2E2E2E2E2E2E2E2E2E2E2E2E2E2E2E2E2E2E2E2
310
E2F5F5F5F5F5F5F5F5F5F5F5F5F5F5F5F5F5F5F5F5F5F5F5F5F5F5F5F5F5F5F5F5F5F5F5F5F5F5F5F5E2F5F5F5F5F5F5F5F5F5F5F5E2E2E2E2F5F5F5F5F5F5F5F5F5F5F5E2F5F5F5F5F5F5F5F5F5F5F5F5F5F5F5F5F5F5F5F5F5F5F5F5F5F5F5F5F5F5F5F5F5F5F5F5F5F5F5F5F5F5F5F5F5F5E2E2F5F5F5F5F5F5F5F5F5F5
310
E2F5E2F5F5E2F5F5F5F5F5F5F5F5F5F5F5F5F5F5F5F5F5E2F5F5E2E2F5F5F5F5F5F5F5F5F5F5F5F5F5F5F5F5F5F5F5F5F5F5F5F5F5F5F5F5F5F5F5F5F5F5F5F5F5F5F5F5F5F5F5F5F5F5F5F5F5F5F5F5F5F5F5F5F5F5F5F5F5F5F5F5F5F5E2F5F5F5F5F5F5F5F5F5F5F5E2E2E2E2F5F5F5F5F5F5F5F5F5F5F5E2F5F5F5F5F5
310
F5F5F5F5F5F5F5F5F5F5F5F5F5F5F5F5F5F5F5F5F5F5F5F5F5F5F5F5F5F5F5F5F5F5F5F5F5F5F5F5F5E2E2F5F5F5F5F5F5F5F5F5F5E2F5E2F5F5E2F5F5F5F5F5F5F5F5F5F5F5F5F5F5F5F5F5E2F5F5E2E2F5F5F5F5F5F5F5F5F5F5F5F5F5F5F5F5F5F5F5F5F5F5F5F5F5F5F5F5F5F5F5F5F5F5F5F5F5F5F5F5F5F5F5F5F5F5
310
F5F5F5F5F5F5F5F5F5F5F5F5F5F5F5F5F5F5F5F5E2F5F5F5F5F5F5F5F5F5F5F5E2E2E2E2F5F5F5F5F5F5F5F5F5F5F5E2F5F5F5F5F5F5F5F5F5F5F5F5F5F5F5F5F5F5F5F5F5F5F5F5F5F5F5F5F5F5F5F5F5F5F5F5F5F5F5F5F5F5F5F5F5F5E2E2F5F5F5F5F5F5F5F5F5F5E2F5E2E2F5E2F5E2E2E2E2E2E2F5E2E2E2E2E2E2E2
310
E2E2E2E2F5E2E2F5F5F5F5F5F5F5F5F5F5F5F5F5F5F5F5F5F5F5F5F5F5F5F5F5F5F5F5F5F5F5F5F5F5F5F5F5F5F5F5F5F5F5F5F5F5F5F5F5F5F5F5F5F5F5F5F5F5F5F5F5F5F5F5F5F5E2F5F5F5F5F5F5F5F5F5F5F5E2E2E2E2F5F5F5F5F5F5F5F5F5F5F5E2F5F5F5F5F5F5F5F5F5F5F5F5F5F5F5F5F5F5F5F5F5F5F5F5F5F5
310
F5F5F5F5F5F5F5F5F5F5F5F5F5F5F5F5F5F5F5F5F5F5F5F5F5F5F5F5F5F5F5F5E2F5E2E2E2E2F5E2E2E2E2E2E2F5E2E2E2E2E2E2E2E2E2E2E2E2E2E2F5F5F5F5F5F5F5F5F5F5F5F5F5F5F5F5F5F5F5F5F5F5F5F5F5F5F5F5F5F5F5F5F5F5F5F5F5F5F5F5F5F5F5F5F5F5F5F5F5F5F5F5F5F5F5F5F5F5F5F5F5F5F5F5F5F5E2
310
F5F5F5F5F5F5F5F5F5F5F5E2E2E2E2F5F5E2F5F5F5F5F5F5F5F5E2F5F5F5F5F5F5F5F5F5F5F5F5F5F5F5F5F5F5F5F5F5F5F5F5F5F5F5F5F5F5F5F5F5F5F5F5F5F5F5F5F5F5F5F5F5F5F5F5F5F5F5F5F5F5F5F5F5F5E2F5E2F5F5E2F5F5F5F5F5F5F5F5F5F5F5F5F5F5F5F5F5E2F5F5E2E2F5F5F5F5F5F5F5F5F5F5F5F5F5F5
310
F5F5F5F5F5F5F5F5F5F5F5F5F5F5F5F5F5F5F5F5F5F5F5F5F5F5F5F5F5F5F5F5F5F5F5F5F5F5F5F5F5F5F5F5F5F5F5F5F5F5F5F5E2F5F5F5F5F5F5F5F5E2F5F5E2E2E2E2F5F5E2F5F5F5F5F5F5F5F5E2F5F5F5F5F5F5F5F5F5F5F5F5F5F5F5F5F5F5F5F5F5F5F5F5F5F5F5F5F5F5F5F5F5F5F5F5F5F5F5F5F5F5F5F5F5F5F5
310
F5F5F5F5F5F5F5F5F5F5F5E2F5E2F5F5F5F5F5F5F5F5F5F5F5F5F5F5F5F5F5F5F5F5F5F5F5E2E2F5F5F5F5F5F5F5F5F5F5F5F5F5F5F5F5F5F5F5F5F5F5F5F5F5F5F5F5F5F5F5F5F5F5F5F5F5F5F5F5F5F5F5F5F5F5F5F5F5F5F5F5F5F5F5F5F5F5F5F5F5F5F5F5F5F5E2F5F5F5F5F5F5F5F5E2F5F5E2E2E2E2F5F5E2F5F5F5
310
F5F5F5F5F5E2F5F5F5F5F5F5F5F5F5F5F5F5F5F5F5F5F5F5F5F5F5F5F5F5F5F5F5F5F5F5F5F5F5F5F5F5F5F5F5F5F5F5F5F5F5F5F5F5F5F5F5F5F5F5F5F5F5F5E2F5E2F5F5F5E2E2E2E2E2F5E2E2E2F5E2E2E2F5E2E2E2F5F5F5E2E2F5F5F5F5F5F5F5F5F5F5F5F5F5F5F5F5F5F5F5F5F5F5F5F5F5F5F5F5F5F5F5F5F5F5F5
310
F5F5F5F5F5F5F5F5F5F5F5F5F5F5F5F5F5F5F5F5F5F5F5F5F5F5F5F5F5F5F5E2F5F5F5F5F5F5F5F5E2F5F5E2E2E2E2F5F5E2F5F5F5F5F5F5F5F5E2F5F5F5F5F5F5F5F5F5F5F5F5F5F5F5F5F5F5F5F5F5F5F5F5F5F5F5F5F5F5F5F5F5F5F5F5F5F5F5F5F5F5F5F5F5F5F5F5F5F5F5F5F5F5F5F5F5F5E2F5E2E2E2E2E2E2E2E2
310
E2E2E2E2E2F5E2E2E2E2E2E2E2E2E2E2E2E2F5F5F5F5F5F5F5F5F5F5F5F5F5F5F5F5F5F5F5F5F5F5F5F5F5F5F5F5F5F5F5F5F5F5F5F5F5F5F5F5F5F5F5F5F5F5F5F5F5F5F5F5F5F5F5F5F5F5F5F5F5F5F5F5F5F5E2F5F5F5F5F5F5F5F5E2F5F5E2E2E2E2F5F5E2F5F5F5F5F5F5F5F5E2F5F5F5F5F5F5F5F5F5F5F5F5F5F5F5
310
F5F5F5F5F5F5F5F5F5F5F5F5F5F5F5F5F5F5F5F5F5F5F5F5F5F5F5F5F5F5F5F5F5F5F5F5F5F5F5F5F5F5F5E2F5E2F5F5F5E2E2E2E2E2F5E2E2E2F5E2E2E2E2E2E2E2F5F5F5E2E2F5F5F5F5F5F5F5F5F5F5F5F5F5F5F5F5F5F5F5F5F5F5F5F5F5F5F5F5F5F5F5F5F5F5F5F5F5F5F5F5F5F5F5F5F5F5F5F5F5F5F5F5F5F5F5F5
310
F5F5F5F5F5F5F5F5F5F5E2F5F5F5F5F5F5F5F5E2F5F5E2E2E2E2F5F5E2F5F5F5F5F5F5F5F5E2F5F5F5F5F5F5F5F5F5F5F5F5F5F5F5F5F5F5F5F5F5F5F5F5F5F5F5F5F5F5F5F5F5F5F5F5F5F5F5F5F5F5F5F5F5F5F5F5F5F5F5F5F5F5F5F5F5F5E2F5F5F5F5F5F5F5F5F5F5F5F5F5F5F5F5F5F5F5F5F5F5F5F5F5F5E2F5F5F5
310
F5F5F5F5F5F5F5F5F5F5F5F5F5F5F5F5F5F5F5F5F5F5F5F5F5F5F5F5F5F5F5F5F5F5F5F5F5F5F5F5F5F5F5F5F5F5F5F5F5F5F5F5F5F5F5F5F5F5F5F5F5F5F5E2F5F5F5F5F5F5F5F5E2F5F5E2E2E2E2F5F5E2F5F5F5F5F5F5F5F5E2F5F5F5F5F5F5F5F5F5F5F5F5F5F5F5F5F5F5F5F5F5F5F5F5F5F5F5F5F5F5F5F5F5F5F5F5
310
F5F5F5F5F5F5F5F5F5F5F5F5F5F5F5F5F5F5F5F5F5F5E2F5F5F5F5F5F5F5F5F5F5F5F5F5F5F5F5F5F5F5F5F5F5F5F5F5F5E2F5F5F5F5F5F5F5F5F5F5F5F5F5F5F5F5F5F5F5F5F5F5F5F5F5F5F5F5F5F5F5F5F5F5F5F5F5F5F5F5F5F5F5F5F5F5F5F5F5F5F5F5F5F5F5F5F5F5F5F5F5F5F5F5F5F5E2F5F5F5F5F5F5F5F5E2F5
310
F5E2E2E2E2F5F5E2F5F5F5F5F5F5F5F5E2F5F5F5F5F5F5F5F5F5F5F5F5F5F5F5F5F5F5F5F5F5F5F5F5F5F5F5F5F5F5F5F5F5F5F5F5F5F5F5F5F5F5F5F5F5F5F5F5F5F5F5F5F5F5F5F5F5F5E2E2E2E2E2E2E2E2E2E2E2E2E2E2E2F5E2E2E2F5E2E2E2E2E2E2E2E2F5F5F5F5F5F5F5F5F5F5F5F5F5F5F5F5F5F5F5F5F5F5F5F5
310
F5F5F5F5F5F5F5F5F5F5F5F5F5F5F5F5F5F5F5F5F5F5F5F5F5F5F5F5F5F5F5F5F5F5F5F5F5F5F5F5F5F5E2F5F5F5F5F5F5F5F5E2F5F5E2E2E2E2F5F5E2F5F5F5F5F5F5F5F5E2F5F5F5F5F5F5F5F5F5F5F5F5F5F5F5F5F5F5F5F5F5F5F5F5F5F5F5F5F5F5F5F5F5F5F5F5F5F5F5F5F5F5F5F5F5F5F5F5F5F5F5F5F5F5F5F5F5
310
F5E2E2F5F5F5F5E2E2E2E2F5E2E2E2E2F5E2E2E2E2E2F5E2E2F5F5E2E2F5F5F5F5F5F5F5F5F5F5F5F5F5F5F5F5F5F5F5F5F5F5F5F5F5F5F5F5F5F5F5F5F5F5F5F5F5F5F5F5F5F5F5F5F5F5F5F5F5F5F5F5F5F5F5F5F5F5F5F5F5F5F5F5F5F5E2F5F5F5F5F5F5F5F5E2F5F5E2E2E2E2F5F5E2F5F5F5F5F5F5F5F5E2F5F5F5F5
310
F5F5F5F5F5F5F5F5F5F5F5F5F5F5F5F5F5F5F5F5F5F5F5F5F5F5F5F5F5F5F5F5F5F5F5F5F5F5F5F5F5F5F5F5F5F5F5F5F5F5F5F5F5F5E2F5F5F5F5F5F5F5F5F5F5F5F5F5F5F5F5F5F5F5F5F5F5F5F5F5F5E2F5F5F5F5F5F5F5F5F5F5F5F5F5F5F5F5F5F5F5F5F5F5F5F5F5F5F5F5F5F5F5F5F5F5F5F5F5F5F5F5F5F5F5F5F5
310
F5F5F5F5F5F5F5F5F5F5F5F5F5F5F5F5F5F5F5F5F5E2F5F5F5F5F5F5F5F5E2F5F5E2E2E2E2F5F5E2F5F5F5F5F5F5F5F5E2F5F5F5F5F5F5F5F5F5F5F5F5F5F5F5F5F5F5F5F5F5F5F5F5F5F5F5F5F5F5F5F5F5F5F5F5F5F5F5F5F5F5F5F5F5F5F5F5F5F5F5F5F5F5F5F5F5F5F5F5F5F5F5F5F5F5F5F5F5F5F5F5F5F5F5F5F5F5
310
F5F5F5F5F5F5F5F5F5F5F5F5F5F5F5F5F5F5F5F5F5F5F5F5F5F5F5F5F5F5F5F5F5F5F5F5F5F5F5F5F5F5F5F5F5F5F5F5F5F5F5F5F5F5F5F5F5F5F5F5F5F5F5F5F5F5F5F5F5F5F5F5F5F5E2F5F5F5F5F5F5F5F5E2F5F5E2E2E2E2F5F5E2F5F5F5F5F5F5F5F5E2F5F5F5F5F5F5F5F5F5F5F5F5F5F5F5F5F5F5F5F5F5F5F5F5F5
310
F5F5F5F5F5F5F5F5F5F5F5F5F5F5F5F5F5F5F5F5F5F5F5F5F5F5F5F5F5F5F5F5F5F5F5F5F5F5F5F5F5F5F5F5F5F5F5F5F5F5F5F5F5F5F5F5F5F5F5F5F5F5F5F5F5F5F5F5F5F5F5F5F5F5F5F5F5F5F5F5F5F5F5F5F5F5F5F5F5F5F5F5F5F5F5F5F5F5F5F5F5F5F5F5F5F5F5F5F5F5F5F5F5F5F5F5F5F5F5F5F5F5F5F5F5F5F5
310
E2F5F5F5F5F5F5F5F5E2F5F5E2E2E2E2F5F5E2F5F5F5F5F5F5F5F5E2F5F5F5F5F5F5F5F5F5F5F5F5F5F5F5F5F5F5F5F5F5F5F5F5F5F5F5F5F5F5F5F5F5F5F5F5F5F5F5F5F5F5F5F5F5F5F5F5F5F5F5F5F5F5F5F5F5F5F5F5F5F5F5F5F5F5F5F5F5F5F5F5F5F5F5F5F5F5F5F5F5F5F5F5F5F5F5F5F5F5F5F5F5F5F5F5F5F5F5
310
F5F5F5F5F5F5F5F5F5F5F5F5F5F5F5F5F5F5F5F5F5F5F5F5F5F5F5F5F5F5F5F5F5F5F5F5F5F5F5F5F5F5F5F5F5F5F5F5F5F5F5F5F5E2F5F5F5F5F5F5F5F5E2F5F5E2E2E2E2F5F5E2F5F5F5F5F5F5F5F5E2F5F5F5F5F5F5F5F5F5F5F5F5F5F5F5F5F5F5F5F5F5F5F5F5F5F5F5F5F5F5F5F5F5F5F5F5F5F5F5F5F5F5F5F5F5F5
310
F5F5F5F5F5F5F5F5F5F5F5F5F5F5F5F5F5F5F5F5F5F5F5F5F5F5F5F5F5F5F5F5F5F5F5F5F5F5F5F5F5F5F5F5F5F5F5F5F5F5F5F5F5F5F5F5F5F5F5F5F5F5F5F5F5F5F5F5F5F5F5F5F5F5F5F5F5F5F5F5F5F5F5F5F5F5F5F5F5F5F5F5F5F5F5F5F5F5F5F5F5F5F5F5F5F5E2F5F5F5F5F5F5F5F5E2F5F5E2E2E2E2F5F5E2F5F5
310
F5F5F5F5F5F5E2F5F5F5F5F5F5F5F5F5F5F5F5F5F5F5F5F5F5F5F5F5F5F5F5F5F5F5F5F5F5F5F5F5F5F5F5F5F5F5F5F5F5F5F5F5F5F5F5F5F5F5F5F5F5F5F5F5F5F5F5F5F5F5F5F5F5F5F5F5F5F5F5F5F5F5F5F5F5F5F5F5F5F5F5F5F5F5F5F5F5F5F5F5F5F5F5F5F5F5F5F5F5F5F5F5F5F5F5F5F5F5F5F5F5F5F5F5F5F5F5
310
F5F5F5F5F5F5F5F5F5F5F5F5F5F5F5F5F5F5F5F5F5F5F5F5F5F5F5F5F5F5F5F5E2F5F5F5F5F5F5F5F5E2F5F5E2E2E2E2F5F5E2F5F5F5F5F5F5F5F5E2E2E2E2E2E2E2E2E2E2E2E2E2E2E2E2E2E2E2E2E2E2E2E2E2E2E2E2E2E2E2E2E2E2E2E2E2E2E2E2E2E2E2E2E2E2E2E2E2E2E2E2E2E2E2E2E2E2E2E2E2E2E2E2E2E2E2E2
310
E2E2E2E2E2E2E2E2E2E2E2E2E2E2E2E2E2E2E2E2E2E2E2E2E2E2E2E2E2E2E2E2E2E2E2E2E2E2E2E2E2E2E2E2E2E2E2E2E2E2E2E2E2E2E2E2E2E2E2E2E2E2E2E2E2E2E2E2E2E2E2E2E2E2E2E2E2E2E2E2E2E2E2E2E2E2F5F5F5F5F5F5F5F5E2F5F5E2E2E2E2F5F5F5F5F5F5F5F5F5F5F5F5F5F5F5F5F5F5F5F5F5F5F5F5F5F5
310
F5F5F5F5F5F5F5F5F5F5F5F5F5F5F5F5F5F5F5F5F5F5F5F5F5F5F5F5F5F5F5F5F5F5F5F5F5F5F5F5F5F5F5F5F5F5F5F5F5F5F5F5F5F5F5F5F5F5F5F5F5F5F5F5F5F5F5F5F5F5F5F5F5F5F5F5F5F5F5F5F5F5F5F5F5F5F5F5F5F5F5F5F5F5F5F5F5F5F5F5F5F5F5F5F5F5F5F5F5F5F5F5F5F5F5F5F5F5F5F5F5F5F5F5F5F5F5
310
F5F5F5F5F5F5F5F5F5F5F5F5F5F5F5F5F5F5F5F5F5F5F5E2E2E2E2F5F5F5F5F5F5F5F5F5F5F5F5F5F5F5F5F5F5F5F5F5F5F5F5F5F5F5F5F5F5F5F5F5F5F5F5F5F5F5F5F5F5F5F5F5F5F5F5F5F5F5F5F5F5F5F5F5F5F5F5F5F5F5F5F5F5F5F5F5F5F5F5F5F5F5F5F5F5F5F5F5F5F5F5F5F5F5F5F5F5F5F5E2F5F5E2F5E2F5E2
310
E2F5F5E2F5F5F5F5E2E2E2E2E2E2E2E2E2E2E2E2E2E2E2E2F5F5F5F5F5F5F5F5F5F5F5F5F5F5F5F5F5F5F5F5F5F5F5F5F5F5F5F5F5F5F5F5F5F5F5F5F5F5F5F5F5F5F5F5F5F5F5F5F5F5F5F5E2E2E2E2F5F5F5F5F5F5F5F5F5F5F5F5F5F5F5F5F5F5F5F5F5F5F5F5F5F5F5F5F5F5F5F5F5F5F5F5F5F5F5F5F5F5F5F5F5F5F5
310
F5F5F5F5F5F5F5F5F5F5F5F5F5F5F5F5F5F5F5F5F5F5F5F5F5F5F5F5F5F5F5F5F5F5F5F5F5F5F5F5F5F5F5F5F5E2F5F5E2F5E2F5E2E2F5F5E2F5F5F5F5E2F5F5E2F5E2F5E2F5F5E2E2F5E2E2E2F5F5F5F5F5F5F5F5F5F5F5F5F5F5F5F5F5F5F5F5F5F5F5F5F5F5F5F5F5F5F5F5F5F5F5F5F5F5F5F5F5F5F5F5F5F5F5F5F5F5
310
F5F5E2E2E2E2F5F5F5F5F5F5F5F5F5F5F5F5F5F5F5F5F5F5F5F5F5F5F5F5F5F5F5F5F5F5F5F5F5F5F5F5F5F5F5F5F5F5F5F5F5F5F5F5F5F5F5F5F5F5F5F5F5F5F5F5F5F5F5F5F5F5F5F5F5F5F5F5F5F5F5F5F5F5F5F5F5F5F5F5F5F5F5F5F5F5F5F5E2F5F5E2E2E2F5E2E2E2E2E2F5F5F5F5E2F5F5E2E2E2F5E2E2E2E2E2F5
310
E2E2E2F5F5F5F5F5F5F5F5F5F5F5F5F5F5F5F5F5F5F5F5F5F5F5F5F5F5F5F5F5F5F5F5F5F5F5F5F5F5F5F5F5F5F5F5F5F5F5F5F5F5F5F5E2E2E2E2F5F5F5F5F5F5F5F5F5F5F5F5F5F5F5F5F5F5F5F5F5F5F5F5F5F5F5F5F5F5F5F5F5F5F5F5F5F5F5F5F5F5F5F5F5F5F5F5F5F5F5F5F5F5F5F5F5F5F5F5F5F5F5F5F5F5F5F5
310
F5F5F5F5F5F5F5F5F5F5F5F5F5F5F5F5F5F5F5F5F5F5F5F5E2F5F5E2F5F5F5E2F5F5F5F5F5F5F5F5E2F5E2F5F5F5F5E2F5F5F5E2F5F5F5F5F5F5F5F5F5F5F5F5F5F5F5F5F5F5F5F5F5F5F5F5F5F5F5F5F5F5F5F5F5F5F5F5F5F5F5F5F5F5F5F5F5F5F5F5F5F5F5F5F5F5F5F5E2E2E2E2F5F5F5F5F5F5F5F5F5F5F5F5F5F5F5
310
F5F5F5F5F5F5F5F5F5F5F5F5F5F5F5F5F5F5F5F5F5F5F5F5F5F5F5F5F5F5F5F5F5F5F5F5F5F5F5F5F5F5F5F5F5F5F5F5F5F5F5F5F5F5F5F5F5F5F5F5F5F5F5F5F5F5F5F5F5F5F5F5F5F5F5F5E2E2E2E2E2F5F5F5E2F5F5F5F5F5F5F5F5E2E2F5F5F5F5F5E2F5F5F5E2F5F5F5F5F5F5F5F5F5F5F5F5F5F5F5F5F5F5F5F5F5F5
310
F5F5F5F5F5F5F5F5F5F5F5F5F5F5F5F5F5F5F5F5F5F5F5F5F5F5F5F5F5F5F5F5F5F5E2E2E2E2F5F5F5F5F5F5F5F5F5F5F5F5F5F5F5F5F5F5F5F5F5F5F5F5F5F5F5F5F5F5F5F5F5F5F5F5F5F5F5F5F5F5F5F5F5F5F5F5F5F5F5F5F5F5F5F5F5F5F5F5F5F5F5F5F5F5F5F5F5F5F5F5F5F5F5F5F5F5F5F5F5F5F5F5F5F5F5F5F5
310
F5F5F5F5F5F5F5F5F5F5F5F5F5F5F5F5F5F5F5F5F5F5F5F5F5F5F5F5F5F5F5F5F5F5F5F5F5F5F5F5F5F5F5F5F5F5F5F5F5F5F5F5F5F5F5F5F5F5F5F5E2F5F5F5F5F5F5F5F5F5F5F5F5F5F5F5F5F5F5F5F5F5F5F5F5F5F5E2E2E2E2F5F5F5F5F5F5F5F5F5F5F5F5F5F5F5F5F5F5F5F5F5F5F5F5F5F5F5F5F5F5F5F5F5F5F5F5
310
F5F5F5F5F5F5F5F5F5F5F5F5F5F5F5F5F5F5F5F5F5F5F5F5F5F5F5F5F5F5F5F5F5F5F5F5F5F5F5F5F5F5F5F5F5F5F5F5F5F5F5F5F5F5F5F5E2E2F5F5F5F5F5E2F5F5F5E2E2F5E2F5F5F5F5F5E2F5F5F5F5F5E2E2E2F5E2E2F5F5F5E2F5E2F5E2E2E2F5E2E2F5E2E2E2F5E2E2E2F5E2F5E2F5E2F5F5F5F5F5F5F5F5F5F5F5F5
310
F5F5F5F5F5F5F5F5F5F5F5F5F5E2E2E2E2F5F5F5F5F5F5F5F5F5F5F5F5F5F5F5F5F5F5F5F5F5F5F5F5F5F5F5F5F5F5F5F5F5F5F5F5F5F5F5F5F5F5F5F5F5F5F5F5F5F5F5F5F5F5F5F5F5F5F5F5F5F5F5F5F5F5F5F5F5F5F5F5F5F5F5F5F5F5F5F5F5F5F5F5F5F5F5F5F5F5F5E2F5F5E2F5F5F5F5E2F5F5E2F5F5E2E2F5F5F5
310
F5E2F5E2F5F5F5F5E2F5E2E2E2E2F5F5E2F5E2E2E2F5F5F5E2E2E2F5F5E2E2F5E2F5E2F5F5E2F5F5E2F5F5F5F5F5F5F5F5F5F5F5F5F5F5F5F5F5F5F5F5F5F5F5F5F5E2E2E2E2F5F5E2F5F5F5F5F5F5F5F5F5F5F5F5F5F5F5F5F5F5F5F5F5F5F5F5F5F5F5F5F5F5F5F5F5F5F5F5F5F5F5F5F5F5F5F5F5F5F5F5F5F5F5F5F5F5
310
F5F5F5F5F5F5F5F5F5F5F5F5F5F5F5F5F5F5F5F5F5F5F5F5F5F5F5F5F5F5F5F5F5F5E2E2E2F5E2E2E2F5E2E2E2E2E2E2E2E2E2E2E2E2E2E2E2F5F5F5F5E2F5E2E2E2E2E2E2F5F5E2E2E2E2E2E2E2E2E2E2F5E2E2F5E2E2E2F5E2F5E2F5F5F5F5F5F5F5F5F5F5F5F5F5F5F5F5F5F5F5F5F5F5F5F5E2F5F5E2E2E2E2F5F5E2F5
310
F5F5F5F5F5F5F5F5F5F5F5F5F5F5F5F5F5F5F5F5F5F5F5F5F5F5F5F5F5F5F5F5F5F5F5F5F5F5F5F5F5F5F5F5F5F5F5F5F5F5F5F5F5F5F5F5F5F5F5F5F5F5F5F5F5F5F5F5F5F5F5F5F5F5F5F5F5F5F5F5F5F5F5F5F5F5F5F5E2F5F5F5F5F5F5E2F5E2F5F5F5F5F5F5F5F5F5E2F5F5F5F5F5F5E2F5E2F5F5F5F5F5F5F5F5E2F5
310
F5F5F5F5F5F5F5F5E2E2F5F5F5F5F5F5F5F5F5F5F5F5F5F5F5F5F5F5F5F5F5F5F5F5F5F5F5F5F5F5F5F5E2F5F5E2E2E2E2F5F5E2F5F5F5F5F5F5F5F5F5F5F5F5F5F5F5F5F5F5F5F5F5F5F5F5F5F5F5F5F5F5F5F5F5F5F5F5F5F5F5F5F5F5F5F5F5F5F5F5F5F5F5F5F5F5F5F5F5F5F5F5F5F5F5F5F5F5F5F5F5F5F5F5F5F5F5
310
F5F5F5F5F5F5F5F5F5F5F5F5F5F5E2E2F5F5F5F5F5E2E2E2F5F5F5F5F5F5F5F5F5E2F5F5F5F5F5F5E2E2E2F5F5F5F5F5F5F5F5E2F5F5F5F5F5F5F5F5E2E2E2F5F5F5F5F5F5F5F5F5F5F5F5F5F5F5F5F5F5F5F5F5F5F5F5F5F5F5F5F5F5F5F5E2F5F5E2E2E2E2F5F5E2F5F5F5F5F5F5F5F5F5F5F5F5F5F5F5F5F5F5F5F5F5F5
310
F5F5F5F5F5F5F5F5F5F5F5F5F5F5F5F5F5F5F5F5F5F5F5F5F5F5F5F5F5F5F5F5F5F5F5F5F5F5F5F5F5F5F5F5F5F5F5F5F5F5F5F5F5F5F5F5F5F5F5F5F5F5F5F5F5F5F5F5F5F5F5F5F5F5F5F5F5F5F5F5F5F5F5F5F5F5F5F5F5F5F5F5F5F5F5F5F5F5F5F5F5F5F5F5F5F5F5F5F5F5F5F5F5F5F5F5F5F5F5F5F5F5F5F5F5F5F5
310
F5F5F5F5F5F5F5F5F5F5F5F5F5F5F5F5F5F5F5F5F5E2F5F5E2E2E2E2F5F5E2F5F5F5F5F5F5F5F5F5F5F5F5F5F5F5F5F5F5F5F5F5F5F5F5F5F5F5F5F5F5F5F5F5F5F5F5F5F5F5F5F5F5F5F5F5F5F5F5F5F5F5F5F5F5F5F5F5F5F5F5F5F5F5F5F5F5F5F5F5F5F5F5F5F5F5F5F5F5F5F5F5F5F5F5F5F5F5F5E2E2F5F5E2F5F5E2
310
E2F5F5E2E2F5E2F5F5F5F5F5F5F5E2F5F5F5F5E2F5F5E2F5F5F5E2E2F5F5F5F5F5F5E2F5F5E2E2F5F5E2E2F5F5F5F5F5F5F5F5F5F5F5F5F5F5F5F5F5F5F5F5F5F5F5F5F5F5F5F5F5F5F5E2F5F5E2E2E2E2F5F5E2F5F5F5F5F5F5F5F5F5F5F5F5F5F5F5F5F5F5F5F5F5F5F5F5F5F5F5F5F5F5F5F5F5F5F5F5F5F5F5F5F5F5F5
310
F5F5F5F5F5F5F5F5F5F5F5F5F5F5F5F5F5F5F5F5F5F5F5F5F5F5F5F5F5F5F5F5F5F5F5F5F5F5F5F5F5F5F5F5F5F5E2F5F5E2F5E2F5F5E2E2F5F5E2E2F5F5F5F5F5F5F5E2F5F5F5F5E2F5F5E2F5F5E2F5F5E2F5F5F5F5F5E2F5E2F5F5E2E2F5F5E2F5F5F5F5F5F5F5F5F5F5F5F5F5F5F5F5F5F5F5F5F5F5F5F5F5F5F5F5F5F5
310
E2F5F5E2E2E2E2F5F5E2F5F5F5F5F5F5F5F5F5F5F5F5F5F5F5F5F5F5F5F5F5F5F5F5F5F5F5F5F5F5F5F5F5F5F5F5F5F5F5F5F5F5F5F5F5F5F5F5F5F5F5F5F5F5F5F5F5F5F5F5F5F5F5F5F5F5F5F5F5F5F5F5F5F5F5F5F5F5F5F5F5F5F5F5F5F5F5F5F5E2F5E2E2E2E2E2E2E2F5F5F5E2E2E2E2F5E2E2E2F5E2E2F5E2E2E2E2
310
F5E2F5F5F5F5F5E2E2E2E2F5F5E2F5F5F5F5E2E2F5F5F5F5F5F5F5F5F5F5F5F5F5F5F5F5F5F5F5F5F5F5F5F5F5F5F5F5F5F5F5F5F5E2F5F5E2E2E2E2F5F5E2F5F5F5F5F5F5F5F5F5F5F5F5F5F5F5F5F5F5F5F5F5F5F5F5F5F5F5F5F5F5F5F5F5F5F5F5F5F5F5F5F5F5F5F5F5F5F5F5F5F5F5F5F5F5F5F5F5F5F5F5F5F5F5F5
310
F5F5F5F5F5F5F5F5F5F5F5F5F5F5F5F5F5F5F5F5F5F5F5F5E2E2F5F5E2F5E2F5F5E2E2E2E2F5E2F5F5E2F5F5F5F5E2F5E2F5E2E2F5F5E2F5F5E2E2E2F5F5F5F5F5F5E2F5E2E2E2F5E2F5F5E2F5F5F5F5F5F5F5F5F5F5F5F5F5F5F5F5F5F5F5F5F5F5F5F5F5F5F5F5F5F5E2F5F5E2E2E2E2F5F5E2E2E2E2E2E2E2E2F5F5F5F5
310
F5F5F5F5F5E2E2E2E2E2E2E2E2E2E2E2E2E2E2E2E2F5F5F5F5F5F5F5F5F5E2E2E2E2E2E2E2E2E2E2E2E2E2E2E2F5F5F5F5F5F5F5F5F5E2E2E2E2E2E2E2E2E2E2E2E2E2E2E2E2F5F5F5F5F5F5F5F5E2E2E2E2E2E2E2E2E2E2E2E2E2E2E2E2F5F5F5F5F5E2E2F5F5E2E2E2E2E2E2E2E2E2E2E2E2E2E2E2E2E2E2E2E2E2E2F5E2
310
E2E2E2E2E2E2E2E2E2E2E2E2E2E2E2E2F5F5F5F5F5F5F5F5F5E2E2E2E2E2E2E2E2F5F5E2E2E2E2F5F5F5F5F5F5F5F5F5F5F5F5F5F5F5F5F5F5F5F5F5F5F5F5F5F5F5F5F5F5F5F5F5F5F5F5F5F5F5F5F5F5F5F5F5F5F5F5F5F5F5F5F5F5F5F5F5F5F5F5F5F5F5F5F5F5F5F5F5F5F5F5F5F5F5F5F5F5F5F5F5F5F5F5F5F5F5F5
310
F5F5F5F5F5F5F5F5F5F5F5F5F5F5F5F5F5F5F5F5F5F5F5F5F5F5F5F5F5F5F5F5F5F5F5F5F5F5F5F5F5F5F5F5F5F5F5F5F5F5F5F5F5F5F5F5F5F5F5F5F5F5F5F5F5F5F5F5F5F5F5F5F5F5F5F5F5F5F5F5F5F5F5F5F5F5F5F5E2E2E2E2F5F5F5F5F5F5F5F5F5F5F5F5F5F5F5F5F5F5F5F5F5F5F5F5F5F5F5F5F5F5F5F5F5F5F5
310
F5F5F5F5F5F5F5F5F5F5F5F5F5F5F5F5F5F5F5F5F5F5F5F5F5F5F5F5F5F5F5F5F5F5F5F5F5F5F5F5F5F5F5F5F5F5F5F5F5F5F5F5F5F5F5F5F5F5F5F5F5F5F5F5F5F5F5F5F5F5F5F5F5F5F5F5F5F5F5F5F5F5F5F5F5F5F5F5F5F5F5F5F5F5F5F5F5F5F5F5F5F5F5F5F5F5F5F5F5F5F5F5F5F5F5F5F5F5F5F5F5F5F5F5F5F5F5
310
F5F5F5F5F5F5F5F5F5F5F5F5F5F5E2E2E2E2F5F5F5F5F5F5F5F5F5F5F5F5F5F5F5F5F5F5F5F5F5F5F5F5F5F5F5F5F5F5F5F5F5F5F5F5F5F5F5F5F5F5F5F5F5F5F5F5F5F5F5F5F5F5F5F5F5F5F5F5F5F5F5F5F5F5F5F5F5F5F5F5F5F5F5F5F5F5F5F5F5F5F5F5F5F5F5F5F5F5F5F5F5F5F5F5F5F5F5F5F5F5F5F5F5F5F5F5F5
310
F5F5F5F5F5F5F5F5F5F5F5F5F5F5F5F5F5F5F5F5F5F5F5F5F5F5F5F5F5F5F5F5F5F5F5F5F5F5F5F5F5F5F5F5F5F5F5F5F5F5F5F5F5F5F5F5F5F5F5F5F5F5F5F5F5F5F5E2EFEFE2F5F5F5F5F5F5F5F5F5F5F5F5F5F5F5F5F5F5F5F5F5F5F5F5F5F5F5F5F5F5F5F5F5F5F5F5F5F5F5F5F5F5F5F5F5F5F5F5F5F5F5F5F5F5F5F5
310
F5F5F5F5F5F5F5F5F5F5F5F5F5F5F5F5F5F5F5F5F5F5F5F5F5F5F5F5F5F5F5F5F5F5F5F5F5F5F5F5F5F5F5F5F5F5F5F5F5F5F5F5F5F5F5F5F5F5F5F5F5F5F5F5F5F5F5F5F5F5F5F5F5F5F5F5F5F5F5F5F5F5F5F5F5F5F5F5F5F5F5F5F5F5F5F5F5F5F5F5F5F5F5F5F5F5F5F5F5F5F5F5F5F5F5F5F5F5F5F5E2EFEFE2E2E2E2
310
E2E2E2E2E2E2E2E2E2E2E2E2E2E2E2E2E2E2E2E2E2E2E2E2E2E2E2E2E2E2E2E2E2E2E2E2E2E2E2E2E2E2E2E2E2E2E2E2E2E2E2E2E2E2E2E2E2E2E2E2E2E2E2E2E2E2E2E2E2E2E2E2E2E2E2E2E2E2E2E2E2E2E2E2E2E2E2E2E2E2E2E2E2E2E2E2E2E2E2E2E2E2E2E2E2E2E2E2E2E2E2E2E2E2E2E2E2E2E2E2E2E2E2E2E2E2E2
310
E2E2E2E2E2E2E2E2E2E2E2E2E2E2E2E2E2E2E2E2E2E2E2E2E2E2E2E2E2E2E2E2E2E2E2E2E2E2E2E2E2E2E2E2E2E2E2EFEF
  0
XRECORD
  5
57A6F
102
{ACAD_REACTORS
330
57A6E
102
}
330
57A6E
100
AcDbXrecord
280
     1
102
SHADEPLOT
 70
     0
102
SHADEPLOTRESLEVEL
 70
     2
102
SHADEPLOTCUSTOMDPI
 70
   300
  0
ENDSEC
  0
EOF
