  0
SECTION
  2
HEADER
  9
$ACADVER
  1
AC1015
  9
$ACADMAINTVER
 70
     6
  9
$DWGCODEPAGE
  3
ANSI_1252
  9
$INSBASE
 10
0.0
 20
0.0
 30
0.0
  9
$EXTMIN
 10
829.9194134314882
 20
329.7143912622327
 30
3.644056121604464
  9
$EXTMAX
 10
1261.908837024293
 20
481.3421639991287
 30
3.646124999999996
  9
$LIMMIN
 10
0.0
 20
0.0
  9
$LIMMAX
 10
12.0
 20
9.0
  9
$ORTHOMODE
 70
     0
  9
$REGENMODE
 70
     1
  9
$FILLMODE
 70
     1
  9
$QTEXTMODE
 70
     0
  9
$MIRRTEXT
 70
     1
  9
$LTSCALE
 40
5.0
  9
$ATTMODE
 70
     1
  9
$TEXTSIZE
 40
0.12
  9
$TRACEWID
 40
0.05
  9
$TEXTSTYLE
  7
STANDARD
  9
$CLAYER
  8
AREA1
  9
$CELTYPE
  6
BYLAYER
  9
$CECOLOR
 62
   256
  9
$CELTSCALE
 40
1.0
  9
$DISPSILH
 70
     0
  9
$DIMSCALE
 40
1.0
  9
$DIMASZ
 40
4.572
  9
$DIMEXO
 40
1.587499999999999
  9
$DIMDLI
 40
9.525
  9
$DIMRND
 40
0.0
  9
$DIMDLE
 40
0.0
  9
$DIMEXE
 40
4.572
  9
$DIMTP
 40
0.0
  9
$DIMTM
 40
0.0
  9
$DIMTXT
 40
4.572
  9
$DIMCEN
 40
2.286
  9
$DIMTSZ
 40
0.0
  9
$DIMTOL
 70
     0
  9
$DIMLIM
 70
     0
  9
$DIMTIH
 70
     1
  9
$DIMTOH
 70
     1
  9
$DIMSE1
 70
     0
  9
$DIMSE2
 70
     0
  9
$DIMTAD
 70
     0
  9
$DIMZIN
 70
     4
  9
$DIMBLK
  1

  9
$DIMASO
 70
     1
  9
$DIMSHO
 70
     1
  9
$DIMPOST
  1

  9
$DIMAPOST
  1

  9
$DIMALT
 70
     1
  9
$DIMALTD
 70
     6
  9
$DIMALTF
 40
0.03937
  9
$DIMLFAC
 40
1.0
  9
$DIMTOFL
 70
     0
  9
$DIMTVP
 40
0.0
  9
$DIMTIX
 70
     0
  9
$DIMSOXD
 70
     0
  9
$DIMSAH
 70
     0
  9
$DIMBLK1
  1

  9
$DIMBLK2
  1

  9
$DIMSTYLE
  2
ABECAD_3D
  9
$DIMCLRD
 70
     0
  9
$DIMCLRE
 70
     0
  9
$DIMCLRT
 70
     0
  9
$DIMTFAC
 40
1.5
  9
$DIMGAP
 40
2.286
  9
$DIMJUST
 70
     0
  9
$DIMSD1
 70
     0
  9
$DIMSD2
 70
     0
  9
$DIMTOLJ
 70
     1
  9
$DIMTZIN
 70
     4
  9
$DIMALTZ
 70
     4
  9
$DIMALTTZ
 70
     4
  9
$DIMUPT
 70
     1
  9
$DIMDEC
 70
     2
  9
$DIMTDEC
 70
     2
  9
$DIMALTU
 70
     7
  9
$DIMALTTD
 70
     6
  9
$DIMTXSTY
  7
STANDARD
  9
$DIMAUNIT
 70
     0
  9
$DIMADEC
 70
     0
  9
$DIMALTRND
 40
0.0
  9
$DIMAZIN
 70
     0
  9
$DIMDSEP
 70
    46
  9
$DIMATFIT
 70
     2
  9
$DIMFRAC
 70
     2
  9
$DIMLDRBLK
  1

  9
$DIMLUNIT
 70
     2
  9
$DIMLWD
 70
    -2
  9
$DIMLWE
 70
    -2
  9
$DIMTMOVE
 70
     1
  9
$LUNITS
 70
     2
  9
$LUPREC
 70
     4
  9
$SKETCHINC
 40
0.1
  9
$FILLETRAD
 40
0.0
  9
$AUNITS
 70
     0
  9
$AUPREC
 70
     0
  9
$MENU
  1
ACAD
  9
$ELEVATION
 40
0.0
  9
$PELEVATION
 40
0.0
  9
$THICKNESS
 40
0.0
  9
$LIMCHECK
 70
     0
  9
$CHAMFERA
 40
0.0
  9
$CHAMFERB
 40
0.0
  9
$CHAMFERC
 40
0.0
  9
$CHAMFERD
 40
0.0
  9
$SKPOLY
 70
     0
  9
$TDCREATE
 40
2453042.595653843
  9
$TDUCREATE
 40
2453042.803987176
  9
$TDUPDATE
 40
2453597.755525185
  9
$TDUUPDATE
 40
2453597.963858519
  9
$TDINDWG
 40
0.3236285069
  9
$TDUSRTIMER
 40
0.3236285069
  9
$USRTIMER
 70
     1
  9
$ANGBASE
 50
0.0
  9
$ANGDIR
 70
     0
  9
$PDMODE
 70
     3
  9
$PDSIZE
 40
2.5
  9
$PLINEWID
 40
0.0
  9
$SPLFRAME
 70
     1
  9
$SPLINETYPE
 70
     6
  9
$SPLINESEGS
 70
     8
  9
$HANDSEED
  5
5BE4A
  9
$SURFTAB1
 70
     6
  9
$SURFTAB2
 70
     6
  9
$SURFTYPE
 70
     6
  9
$SURFU
 70
     6
  9
$SURFV
 70
     6
  9
$UCSBASE
  2

  9
$UCSNAME
  2

  9
$UCSORG
 10
266.8673580196576
 20
8.203180508612135
 30
3.646124999999996
  9
$UCSXDIR
 10
1.0
 20
0.0
 30
0.0
  9
$UCSYDIR
 10
0.0
 20
1.0
 30
0.0
  9
$UCSORTHOREF
  2

  9
$UCSORTHOVIEW
 70
     1
  9
$UCSORGTOP
 10
266.8673580196576
 20
8.203180508612135
 30
3.646124999999996
  9
$UCSORGBOTTOM
 10
0.0
 20
0.0
 30
0.0
  9
$UCSORGLEFT
 10
0.0
 20
0.0
 30
0.0
  9
$UCSORGRIGHT
 10
44.57293710473379
 20
-10.57239502465733
 30
3.810000000000003
  9
$UCSORGFRONT
 10
0.0
 20
0.0
 30
0.0
  9
$UCSORGBACK
 10
0.0
 20
0.0
 30
0.0
  9
$PUCSBASE
  2

  9
$PUCSNAME
  2

  9
$PUCSORG
 10
0.0
 20
0.0
 30
0.0
  9
$PUCSXDIR
 10
1.0
 20
0.0
 30
0.0
  9
$PUCSYDIR
 10
0.0
 20
1.0
 30
0.0
  9
$PUCSORTHOREF
  2

  9
$PUCSORTHOVIEW
 70
     0
  9
$PUCSORGTOP
 10
0.0
 20
0.0
 30
0.0
  9
$PUCSORGBOTTOM
 10
0.0
 20
0.0
 30
0.0
  9
$PUCSORGLEFT
 10
0.0
 20
0.0
 30
0.0
  9
$PUCSORGRIGHT
 10
0.0
 20
0.0
 30
0.0
  9
$PUCSORGFRONT
 10
0.0
 20
0.0
 30
0.0
  9
$PUCSORGBACK
 10
0.0
 20
0.0
 30
0.0
  9
$USERI1
 70
     0
  9
$USERI2
 70
     0
  9
$USERI3
 70
     0
  9
$USERI4
 70
     0
  9
$USERI5
 70
     0
  9
$USERR1
 40
0.0
  9
$USERR2
 40
0.0
  9
$USERR3
 40
0.0
  9
$USERR4
 40
0.0
  9
$USERR5
 40
0.0
  9
$WORLDVIEW
 70
     1
  9
$SHADEDGE
 70
     3
  9
$SHADEDIF
 70
    70
  9
$TILEMODE
 70
     0
  9
$MAXACTVP
 70
    16
  9
$PINSBASE
 10
0.0
 20
0.0
 30
0.0
  9
$PLIMCHECK
 70
     0
  9
$PEXTMIN
 10
25.88717061955833
 20
19.5
 30
0.0
  9
$PEXTMAX
 10
231.1536386921643
 20
192.0586136734827
 30
0.0
  9
$PLIMMIN
 10
8.931840085394117
 20
13.38571885179438
  9
$PLIMMAX
 10
248.0681737907302
 20
198.1728846186557
  9
$UNITMODE
 70
     0
  9
$VISRETAIN
 70
     0
  9
$PLINEGEN
 70
     0
  9
$PSLTSCALE
 70
     1
  9
$TREEDEPTH
 70
  3020
  9
$CMLSTYLE
  2
STANDARD
  9
$CMLJUST
 70
     0
  9
$CMLSCALE
 40
1.0
  9
$PROXYGRAPHICS
 70
     1
  9
$MEASUREMENT
 70
     1
  9
$CELWEIGHT
370
    -1
  9
$ENDCAPS
280
     0
  9
$JOINSTYLE
280
     0
  9
$LWDISPLAY
290
     0
  9
$INSUNITS
 70
     0
  9
$HYPERLINKBASE
  1

  9
$STYLESHEET
  1

  9
$XEDIT
290
     1
  9
$CEPSNTYPE
380
     0
  9
$PSTYLEMODE
290
     1
  9
$FINGERPRINTGUID
  2
{6E0CF4B8-225E-11D4-A150-00A0CC3303EC}
  9
$VERSIONGUID
  2
{D5CB557B-DAE9-42F9-BD56-CD06CD2F5CF4}
  9
$EXTNAMES
290
     1
  9
$PSVPSCALE
 40
0.0
  9
$OLESTARTUP
290
     0
  0
ENDSEC
  0
SECTION
  2
CLASSES
  0
CLASS
  1
DICTIONARYVAR
  2
AcDbDictionaryVar
  3
AutoCAD 2000
 90
        0
280
     0
281
     0
  0
CLASS
  1
ACDBDICTIONARYWDFLT
  2
AcDbDictionaryWithDefault
  3
AutoCAD 2000
 90
        0
280
     0
281
     0
  0
CLASS
  1
ACDBPLACEHOLDER
  2
AcDbPlaceHolder
  3
AutoCAD 2000
 90
        0
280
     0
281
     0
  0
CLASS
  1
LAYOUT
  2
AcDbLayout
  3
AutoCAD 2000
 90
        0
280
     0
281
     0
  0
CLASS
  1
LONG_TRANSACTION
  2
AcDbLongTransaction
  3
AutoCAD 2000
 90
    32768
280
     0
281
     0
  0
CLASS
  1
LWPOLYLINE
  2
AcDbPolyline
  3
AutoCAD 2000
 90
    32768
280
     0
281
     1
  0
CLASS
  1
HATCH
  2
AcDbHatch
  3
AutoCAD 2000
 90
    32768
280
     0
281
     1
  0
CLASS
  1
XRECORD
  2
AcDbXrecord
  3
AutoCAD 2000
 90
    32768
280
     0
281
     0
  0
CLASS
  1
LONG_TRANSACTION
  2
AcDbLongTransaction
  3
AutoCAD 2000
 90
    32768
280
     0
281
     0
  0
CLASS
  1
LWPOLYLINE
  2
AcDbPolyline
  3
AutoCAD 2000
 90
    32768
280
     0
281
     1
  0
CLASS
  1
HATCH
  2
AcDbHatch
  3
AutoCAD 2000
 90
    32768
280
     0
281
     1
  0
CLASS
  1
XRECORD
  2
AcDbXrecord
  3
AutoCAD 2000
 90
    32768
280
     0
281
     0
  0
CLASS
  1
TABLESTYLE
  2
AcDbTableStyle
  3
ObjectDBX Classes
 90
     2047
280
     0
281
     0
  0
CLASS
  1
SORTENTSTABLE
  2
AcDbSortentsTable
  3
AutoCAD 2000
 90
    32768
280
     0
281
     0
  0
ENDSEC
  0
SECTION
  2
TABLES
  0
TABLE
  2
VPORT
  5
458C7
330
0
100
AcDbSymbolTable
 70
     1
  0
VPORT
  5
5BE3B
330
458C7
100
AcDbSymbolTableRecord
100
AcDbViewportTableRecord
  2
*Active
 70
     0
 10
0.0
 20
0.0
 11
1.0
 21
1.0
 12
773.0892862309238
 22
397.22192840646
 13
0.0
 23
0.0
 14
0.25
 24
0.25
 15
0.25
 25
0.25
 16
0.0
 26
0.0
 36
1.0
 17
272.824838996967
 27
8.306349224220612
 37
23.31369335295995
 40
214.1542919708354
 41
2.029914529914529
 42
50.0
 43
0.0
 44
0.0
 50
0.0
 51
0.0
 71
     0
 72
 20000
 73
     1
 74
     1
 75
     0
 76
     0
 77
     0
 78
     0
281
     0
 65
     1
110
266.8673580196576
120
8.203180508612135
130
3.646124999999996
111
1.0
121
0.0
131
0.0
112
0.0
122
1.0
132
0.0
 79
     1
146
0.0
  0
ENDTAB
  0
TABLE
  2
LTYPE
  5
458C4
330
0
100
AcDbSymbolTable
 70
     4
  0
LTYPE
  5
458D0
330
458C4
100
AcDbSymbolTableRecord
100
AcDbLinetypeTableRecord
  2
BYBLOCK
 70
     0
  3

 72
    65
 73
     0
 40
0.0
  0
LTYPE
  5
458D1
330
458C4
100
AcDbSymbolTableRecord
100
AcDbLinetypeTableRecord
  2
BYLAYER
 70
     0
  3

 72
    65
 73
     0
 40
0.0
  0
LTYPE
  5
458D2
330
458C4
100
AcDbSymbolTableRecord
100
AcDbLinetypeTableRecord
  2
CONTINUOUS
 70
     0
  3
Solid line
 72
    65
 73
     0
 40
0.0
  0
LTYPE
  5
4D249
330
458C4
100
AcDbSymbolTableRecord
100
AcDbLinetypeTableRecord
  2
PHANTOM
 70
     0
  3
______  __  __  ______  __  __  ______  __  __ 
 72
    65
 73
     6
 40
2.5
 49
1.25
 74
     0
 49
-0.25
 74
     0
 49
0.25
 74
     0
 49
-0.25
 74
     0
 49
0.25
 74
     0
 49
-0.25
 74
     0
  0
LTYPE
  5
4DE42
330
458C4
100
AcDbSymbolTableRecord
100
AcDbLinetypeTableRecord
  2
CENTER
 70
     0
  3
____ _ ____ _ ____ _ ____ _ ____ _ ____ _ ____
 72
    65
 73
     4
 40
2.0
 49
1.25
 74
     0
 49
-0.25
 74
     0
 49
0.25
 74
     0
 49
-0.25
 74
     0
  0
LTYPE
  5
4DE43
330
458C4
100
AcDbSymbolTableRecord
100
AcDbLinetypeTableRecord
  2
HIDDEN
 70
     0
  3
Hidden __ __ __ __ __ __ __ __ __ __ __ __ __ _
 72
    65
 73
     2
 40
0.375
 49
0.25
 74
     0
 49
-0.125
 74
     0
  0
ENDTAB
  0
TABLE
  2
LAYER
  5
458C1
102
{ACAD_XDICTIONARY
360
480DB
102
}
330
0
100
AcDbSymbolTable
 70
     8
  0
LAYER
  5
458CD
330
458C1
100
AcDbSymbolTableRecord
100
AcDbLayerTableRecord
  2
0
 70
     0
 62
     7
  6
CONTINUOUS
370
    -3
390
458FA
  0
LAYER
  5
458EB
330
458C1
100
AcDbSymbolTableRecord
100
AcDbLayerTableRecord
  2
ATTRIBUTES
 70
     0
 62
    -7
  6
CONTINUOUS
370
    -3
390
458FA
  0
LAYER
  5
4593F
330
458C1
100
AcDbSymbolTableRecord
100
AcDbLayerTableRecord
  2
AREA1
 70
     0
 62
     7
  6
CONTINUOUS
370
    -3
390
458FA
  0
LAYER
  5
45946
330
458C1
100
AcDbSymbolTableRecord
100
AcDbLayerTableRecord
  2
Defpoints
 70
     0
 62
     7
  6
CONTINUOUS
290
     0
370
    -3
390
458FA
  0
LAYER
  5
45972
330
458C1
100
AcDbSymbolTableRecord
100
AcDbLayerTableRecord
  2
SCALE
 70
     0
 62
    -7
  6
CONTINUOUS
370
    -3
390
458FA
  0
LAYER
  5
46E1B
330
458C1
100
AcDbSymbolTableRecord
100
AcDbLayerTableRecord
  2
OBJECT
 70
     0
 62
     7
  6
CONTINUOUS
370
    -3
390
458FA
  0
LAYER
  5
4DE44
330
458C1
100
AcDbSymbolTableRecord
100
AcDbLayerTableRecord
  2
DIMS
 70
     0
 62
     1
  6
CONTINUOUS
370
    -3
390
458FA
  0
LAYER
  5
56706
330
458C1
100
AcDbSymbolTableRecord
100
AcDbLayerTableRecord
  2
TESTPROBE
 70
     0
 62
     7
  6
CONTINUOUS
370
    -3
390
458FA
  0
ENDTAB
  0
TABLE
  2
STYLE
  5
458C2
330
0
100
AcDbSymbolTable
 70
     3
  0
STYLE
  5
458CE
330
458C2
100
AcDbSymbolTableRecord
100
AcDbTextStyleTableRecord
  2
STANDARD
 70
     0
 40
0.0
 41
1.0
 50
0.0
 71
     0
 42
0.12
  3
txt
  4

  0
STYLE
  5
46E1C
330
458C2
100
AcDbSymbolTableRecord
100
AcDbTextStyleTableRecord
  2
ROMANS
 70
     0
 40
0.0
 41
1.0
 50
0.0
 71
     0
 42
0.125
  3
romans
  4

  0
STYLE
  5
5401D
330
458C2
100
AcDbSymbolTableRecord
100
AcDbTextStyleTableRecord
  2
ROMANC
 70
     0
 40
0.0
 41
1.0
 50
0.0
 71
     0
 42
0.2
  3
romanc
  4

  0
ENDTAB
  0
TABLE
  2
VIEW
  5
458C5
330
0
100
AcDbSymbolTable
 70
     0
  0
ENDTAB
  0
TABLE
  2
UCS
  5
458C6
330
0
100
AcDbSymbolTable
 70
     0
  0
ENDTAB
  0
TABLE
  2
APPID
  5
458C8
330
0
100
AcDbSymbolTable
 70
     9
  0
APPID
  5
458CF
330
458C8
100
AcDbSymbolTableRecord
100
AcDbRegAppTableRecord
  2
ACAD
 70
     0
  0
APPID
  5
480E0
330
458C8
100
AcDbSymbolTableRecord
100
AcDbRegAppTableRecord
  2
ACAD_PSEXT
 70
     0
  0
APPID
  5
4DE46
330
458C8
100
AcDbSymbolTableRecord
100
AcDbRegAppTableRecord
  2
GENIUS_GENODEF_13
 70
     0
  0
APPID
  5
4DE47
330
458C8
100
AcDbSymbolTableRecord
100
AcDbRegAppTableRecord
  2
GENIUS_GENOBJ-N-CEN_13
 70
     0
  0
APPID
  5
4DE48
330
458C8
100
AcDbSymbolTableRecord
100
AcDbRegAppTableRecord
  2
GENIUS_GENOBJ-N-FIL_13
 70
     0
  0
APPID
  5
4DE49
330
458C8
100
AcDbSymbolTableRecord
100
AcDbRegAppTableRecord
  2
GENIUS_GENREC_13
 70
     0
  0
APPID
  5
4DE4A
330
458C8
100
AcDbSymbolTableRecord
100
AcDbRegAppTableRecord
  2
GENIUS_GENOBJ-N-REC_13
 70
     0
  0
APPID
  5
59F0D
330
458C8
100
AcDbSymbolTableRecord
100
AcDbRegAppTableRecord
  2
DCO15
 70
     0
  0
APPID
  5
5B020
330
458C8
100
AcDbSymbolTableRecord
100
AcDbRegAppTableRecord
  2
ACAD_DSTYLE_DIMTEXT_FILL
 70
     0
  0
ENDTAB
  0
TABLE
  2
DIMSTYLE
  5
458C9
330
0
100
AcDbSymbolTable
 70
     2
100
AcDbDimStyleTable
 71
     1
340
458F6
  0
DIMSTYLE
105
458F6
102
{ACAD_REACTORS
330
5BA83
330
5BA90
330
5BA9E
330
5BAAD
330
5BAC8
330
5BBFA
330
5BC08
330
5BD40
330
5BD4E
330
5BDBA
102
}
330
458C9
100
AcDbSymbolTableRecord
100
AcDbDimStyleTableRecord
  2
ABECAD_3D
 70
     0
 41
4.572
 42
1.587499999999999
 43
9.525
 44
4.572
 78
     4
140
4.572
141
2.286
143
0.03937
146
1.5
147
2.286
170
     1
171
     6
271
     2
272
     2
273
     7
274
     6
276
     2
279
     1
284
     4
285
     4
286
     4
288
     1
289
     2
340
458CE
  0
DIMSTYLE
105
459E0
330
458C9
100
AcDbSymbolTableRecord
100
AcDbDimStyleTableRecord
  2
Standard
 70
     0
340
458CE
  0
ENDTAB
  0
TABLE
  2
BLOCK_RECORD
  5
458C0
330
0
100
AcDbSymbolTable
 70
    14
  0
BLOCK_RECORD
  5
458D6
102
{ACAD_XDICTIONARY
360
45930
102
}
330
458C0
100
AcDbSymbolTableRecord
100
AcDbBlockTableRecord
  2
*MODEL_SPACE
340
458FD
  0
BLOCK_RECORD
  5
458D3
102
{ACAD_XDICTIONARY
360
4592E
102
}
330
458C0
100
AcDbSymbolTableRecord
100
AcDbBlockTableRecord
  2
*PAPER_SPACE
340
458FE
  0
BLOCK_RECORD
  5
5B47C
330
458C0
100
AcDbSymbolTableRecord
100
AcDbBlockTableRecord
  2
FAAL037T
340
0
102
{BLKREFS
331
5B86E
331
5B89F
102
}
  0
BLOCK_RECORD
  5
5BA84
330
458C0
100
AcDbSymbolTableRecord
100
AcDbBlockTableRecord
  2
*D4
340
0
  0
BLOCK_RECORD
  5
5BA91
330
458C0
100
AcDbSymbolTableRecord
100
AcDbBlockTableRecord
  2
*D5
340
0
  0
BLOCK_RECORD
  5
5BA9F
330
458C0
100
AcDbSymbolTableRecord
100
AcDbBlockTableRecord
  2
*D6
340
0
  0
BLOCK_RECORD
  5
5BAAE
330
458C0
100
AcDbSymbolTableRecord
100
AcDbBlockTableRecord
  2
*D7
340
0
  0
BLOCK_RECORD
  5
5BAC9
330
458C0
100
AcDbSymbolTableRecord
100
AcDbBlockTableRecord
  2
*D8
340
0
  0
BLOCK_RECORD
  5
5BBFB
330
458C0
100
AcDbSymbolTableRecord
100
AcDbBlockTableRecord
  2
*D9
340
0
  0
BLOCK_RECORD
  5
5BC09
330
458C0
100
AcDbSymbolTableRecord
100
AcDbBlockTableRecord
  2
*D10
340
0
  0
BLOCK_RECORD
  5
5BD41
330
458C0
100
AcDbSymbolTableRecord
100
AcDbBlockTableRecord
  2
*D11
340
0
  0
BLOCK_RECORD
  5
5BD4F
330
458C0
100
AcDbSymbolTableRecord
100
AcDbBlockTableRecord
  2
*D12
340
0
  0
BLOCK_RECORD
  5
5BDBB
330
458C0
100
AcDbSymbolTableRecord
100
AcDbBlockTableRecord
  2
*D13
340
0
  0
ENDTAB
  0
ENDSEC
  0
SECTION
  2
BLOCKS
  0
BLOCK
  5
458DF
330
458D6
100
AcDbEntity
  8
0
100
AcDbBlockBegin
  2
*MODEL_SPACE
 70
     0
 10
0.0
 20
0.0
 30
0.0
  3
*MODEL_SPACE
  1

  0
ENDBLK
  5
458E0
330
458D6
100
AcDbEntity
  8
0
100
AcDbBlockEnd
  0
BLOCK
  5
458DD
330
458D3
100
AcDbEntity
 67
     1
  8
0
100
AcDbBlockBegin
  2
*PAPER_SPACE
 70
     0
 10
0.0
 20
0.0
 30
0.0
  3
*PAPER_SPACE
  1

  0
ENDBLK
  5
458DE
330
458D3
100
AcDbEntity
 67
     1
  8
0
100
AcDbBlockEnd
  0
BLOCK
  5
5B47D
330
5B47C
100
AcDbEntity
  8
0
100
AcDbBlockBegin
  2
FAAL037T
 70
     2
 10
0.0
 20
0.0
 30
0.0
  3
FAAL037T
  1

  0
LWPOLYLINE
  5
5B47E
330
5B47C
100
AcDbEntity
  8
0
  6
ByBlock
 62
     0
100
AcDbPolyline
 90
        6
 70
     1
 43
0.0
 10
0.090239847074427
 20
0.0
 10
0.0451199235373467
 20
0.07815
 10
-0.0451199235373467
 20
0.07815
 10
-0.090239847074427
 20
0.0
 10
-0.0451199235373467
 20
-0.07815
 10
0.0451199235373467
 20
-0.07815
  0
CIRCLE
  5
5B47F
330
5B47C
100
AcDbEntity
  8
0
  6
ByBlock
 62
     0
100
AcDbCircle
 10
0.0
 20
0.0
 30
0.0
 40
0.140625
  0
CIRCLE
  5
5B480
330
5B47C
100
AcDbEntity
  8
0
  6
ByBlock
 62
     0
100
AcDbCircle
 10
0.0
 20
0.0
 30
0.0
 40
0.15625
  0
ATTDEF
  5
5B481
330
5B47C
100
AcDbEntity
  8
0
  6
ByBlock
 62
     0
100
AcDbText
 10
-0.15625
 20
-0.1437499999999998
 30
0.0
 40
0.025
  1

100
AcDbAttributeDefinition
  3
Manufacturer
  2
AC_VND_LABEL
 70
     1
  0
ATTDEF
  5
5B482
330
5B47C
100
AcDbEntity
  8
0
  6
ByBlock
 62
     0
100
AcDbText
 10
-0.15625
 20
-0.0991071428571431
 30
0.0
 40
0.025
  1

100
AcDbAttributeDefinition
  3
Part No.
  2
AC_PART_NO
 70
     1
  0
ATTDEF
  5
5B483
330
5B47C
100
AcDbEntity
  8
0
  6
ByBlock
 62
     0
100
AcDbText
 10
-0.15625
 20
-0.0544642857142863
 30
0.0
 40
0.025
  1

100
AcDbAttributeDefinition
  3
Description
  2
AC_DESCRIPTN
 70
     1
  0
ATTDEF
  5
5B484
330
5B47C
100
AcDbEntity
  8
0
  6
ByBlock
 62
     0
100
AcDbText
 10
-0.15625
 20
-0.0098214285714295
 30
0.0
 40
0.025
  1

100
AcDbAttributeDefinition
  3
Units
  2
AC_SCALE_UNT
 70
     1
  0
ATTDEF
  5
5B485
330
5B47C
100
AcDbEntity
  8
0
  6
ByBlock
 62
     0
100
AcDbText
 10
-0.15625
 20
0.0348214285714272
 30
0.0
 40
0.025
  1

100
AcDbAttributeDefinition
  3
View
  2
AC_VIEW_CODE
 70
     1
  0
ATTDEF
  5
5B486
330
5B47C
100
AcDbEntity
  8
0
  6
ByBlock
 62
     0
100
AcDbText
 10
-0.15625
 20
0.079464285714284
 30
0.0
 40
0.025
  1

100
AcDbAttributeDefinition
  3
Internal Part No.
  2
AC_CPART_NO
 70
     1
  0
ATTDEF
  5
5B487
330
5B47C
100
AcDbEntity
  8
0
  6
ByBlock
 62
     0
100
AcDbText
 10
-0.15625
 20
0.1241071428571407
 30
0.0
 40
0.025
  1

100
AcDbAttributeDefinition
  3
Note
  2
AC_NOTE
 70
     1
  0
ENDBLK
  5
5B488
330
5B47C
100
AcDbEntity
  8
0
100
AcDbBlockEnd
  0
BLOCK
  5
5BA8E
330
5BA84
100
AcDbEntity
  8
0
100
AcDbBlockBegin
  2
*D4
 70
     1
 10
0.0
 20
0.0
 30
0.0
  3
*D4
  1

  0
LINE
  5
5BCFF
330
5BA84
100
AcDbEntity
  8
AREA1
 62
     0
370
    -2
100
AcDbLine
 10
1203.331784108086
 20
396.3664639991283
 30
0.0
 11
1203.331784108086
 21
362.7228492997409
 31
0.0
  0
LINE
  5
5BD00
330
5BA84
100
AcDbEntity
  8
AREA1
 62
     0
370
    -2
100
AcDbLine
 10
1241.431784108086
 20
396.3664639991283
 30
0.0
 11
1241.431784108086
 21
362.7228492997409
 31
0.0
  0
LINE
  5
5BD01
330
5BA84
100
AcDbEntity
  8
AREA1
 62
     0
370
    -2
100
AcDbLine
 10
1207.581784108086
 20
366.9728492997409
 30
0.0
 11
1237.181784108086
 21
366.9728492997409
 31
0.0
  0
MTEXT
  5
5BD02
330
5BA84
100
AcDbEntity
  8
AREA1
 62
     0
100
AcDbMText
 10
1222.509477409865
 20
358.8930157057343
 30
0.0
 40
4.25
 41
0.0
 71
     5
 72
     1
  1
\A1;38.10 [1 1/2]
 73
     1
 44
1.0
1001
ACAD
1000
MTEXTBEGIN
1070
    73
1070
     1
1070
    44
1040
1.0
1070
    74
1070
     0
1000
MTEXTEND
  0
SOLID
  5
5BD03
330
5BA84
100
AcDbEntity
  8
AREA1
 62
     0
100
AcDbTrace
 10
1207.581784108086
 20
367.6811826330742
 30
0.0
 11
1207.581784108086
 21
366.2645159664076
 31
0.0
 12
1203.331784108086
 22
366.9728492997409
 32
0.0
 13
1203.331784108086
 23
366.9728492997409
 33
0.0
  0
SOLID
  5
5BD04
330
5BA84
100
AcDbEntity
  8
AREA1
 62
     0
100
AcDbTrace
 10
1237.181784108086
 20
367.6811826330742
 30
0.0
 11
1237.181784108086
 21
366.2645159664076
 31
0.0
 12
1241.431784108086
 22
366.9728492997409
 32
0.0
 13
1241.431784108086
 23
366.9728492997409
 33
0.0
  0
POINT
  5
5BD05
330
5BA84
100
AcDbEntity
  8
Defpoints
 62
     0
100
AcDbPoint
 10
1203.331784108086
 20
397.9539639991283
 30
0.0
  0
POINT
  5
5BD06
330
5BA84
100
AcDbEntity
  8
Defpoints
 62
     0
100
AcDbPoint
 10
1241.431784108086
 20
397.9539639991283
 30
0.0
  0
POINT
  5
5BD07
330
5BA84
100
AcDbEntity
  8
Defpoints
 62
     0
100
AcDbPoint
 10
1241.431784108086
 20
366.9728492997409
 30
0.0
  0
ENDBLK
  5
5BA8F
330
5BA84
100
AcDbEntity
  8
0
100
AcDbBlockEnd
  0
BLOCK
  5
5BA9C
330
5BA91
100
AcDbEntity
  8
0
100
AcDbBlockBegin
  2
*D5
 70
     1
 10
0.0
 20
0.0
 30
0.0
  3
*D5
  1

  0
LINE
  5
5BD1A
330
5BA91
100
AcDbEntity
  8
AREA1
 62
     0
370
    -2
100
AcDbLine
 10
1161.280706972872
 20
463.4859639991293
 30
0.0
 11
1202.576850785143
 21
463.4859639991293
 31
0.0
  0
LINE
  5
5BD1B
330
5BA91
100
AcDbEntity
  8
AREA1
 62
     0
370
    -2
100
AcDbLine
 10
1143.526716572872
 20
397.9539639991283
 30
0.0
 11
1202.576850785143
 21
397.9539639991282
 31
0.0
  0
LINE
  5
5BD1C
330
5BA91
100
AcDbEntity
  8
AREA1
 62
     0
370
    -2
100
AcDbLine
 10
1198.326850785143
 20
459.2359639991293
 30
0.0
 11
1198.326850785143
 21
402.2039639991282
 31
0.0
  0
MTEXT
  5
5BD1D
330
5BA91
100
AcDbEntity
  8
AREA1
 62
     0
100
AcDbMText
 10
1233.57550369096
 20
434.8629061258439
 30
0.0
 40
4.25
 41
0.0
 71
     5
 72
     1
  1
\A1;65.53 [2 37/64]
 73
     1
 44
1.0
1001
ACAD
1000
MTEXTBEGIN
1070
    73
1070
     1
1070
    44
1040
1.0
1070
    74
1070
     0
1000
MTEXTEND
  0
SOLID
  5
5BD1E
330
5BA91
100
AcDbEntity
  8
AREA1
 62
     0
100
AcDbTrace
 10
1197.618517451809
 20
459.2359639991293
 30
0.0
 11
1199.035184118476
 21
459.2359639991293
 31
0.0
 12
1198.326850785143
 22
463.4859639991293
 32
0.0
 13
1198.326850785143
 23
463.4859639991293
 33
0.0
  0
SOLID
  5
5BD1F
330
5BA91
100
AcDbEntity
  8
AREA1
 62
     0
100
AcDbTrace
 10
1197.618517451809
 20
402.2039639991282
 30
0.0
 11
1199.035184118476
 21
402.2039639991282
 31
0.0
 12
1198.326850785143
 22
397.9539639991282
 32
0.0
 13
1198.326850785143
 23
397.9539639991282
 33
0.0
  0
POINT
  5
5BD20
330
5BA91
100
AcDbEntity
  8
Defpoints
 62
     0
100
AcDbPoint
 10
1159.693206972872
 20
463.4859639991293
 30
0.0
  0
POINT
  5
5BD21
330
5BA91
100
AcDbEntity
  8
Defpoints
 62
     0
100
AcDbPoint
 10
1141.939216572872
 20
397.9539639991283
 30
0.0
  0
POINT
  5
5BD22
330
5BA91
100
AcDbEntity
  8
Defpoints
 62
     0
100
AcDbPoint
 10
1198.326850785143
 20
397.9539639991282
 30
0.0
  0
ENDBLK
  5
5BA9D
330
5BA91
100
AcDbEntity
  8
0
100
AcDbBlockEnd
  0
BLOCK
  5
5BAAB
330
5BA9F
100
AcDbEntity
  8
0
100
AcDbBlockBegin
  2
*D6
 70
     1
 10
0.0
 20
0.0
 30
0.0
  3
*D6
  1

  0
LINE
  5
5BD11
330
5BA9F
100
AcDbEntity
  8
AREA1
 62
     0
370
    -2
100
AcDbLine
 10
1153.411507572873
 20
481.3306323991288
 30
0.0
 11
1202.500144615732
 21
481.3306323991288
 31
0.0
  0
LINE
  5
5BD12
330
5BA9F
100
AcDbEntity
  8
AREA1
 62
     0
370
    -2
100
AcDbLine
 10
1161.280706972872
 20
463.4859639991293
 30
0.0
 11
1202.500144615732
 21
463.4859639991293
 31
0.0
  0
LINE
  5
5BD13
330
5BA9F
100
AcDbEntity
  8
AREA1
 62
     0
370
    -2
100
AcDbLine
 10
1198.250144615732
 20
477.0806323991289
 30
0.0
 11
1198.250144615732
 21
467.7359639991293
 31
0.0
  0
MTEXT
  5
5BD14
330
5BA9F
100
AcDbEntity
  8
AREA1
 62
     0
100
AcDbMText
 10
1228.552612810472
 20
471.7066224279578
 30
0.0
 40
4.25
 41
0.0
 71
     5
 72
     1
  1
\A1;17.84 [45/64]
 73
     1
 44
1.0
1001
ACAD
1000
MTEXTBEGIN
1070
    73
1070
     1
1070
    44
1040
1.0
1070
    74
1070
     0
1000
MTEXTEND
  0
SOLID
  5
5BD15
330
5BA9F
100
AcDbEntity
  8
AREA1
 62
     0
100
AcDbTrace
 10
1197.541811282399
 20
477.0806323991289
 30
0.0
 11
1198.958477949065
 21
477.0806323991289
 31
0.0
 12
1198.250144615732
 22
481.3306323991288
 32
0.0
 13
1198.250144615732
 23
481.3306323991288
 33
0.0
  0
SOLID
  5
5BD16
330
5BA9F
100
AcDbEntity
  8
AREA1
 62
     0
100
AcDbTrace
 10
1197.541811282399
 20
467.7359639991293
 30
0.0
 11
1198.958477949065
 21
467.7359639991293
 31
0.0
 12
1198.250144615732
 22
463.4859639991293
 32
0.0
 13
1198.250144615732
 23
463.4859639991293
 33
0.0
  0
POINT
  5
5BD17
330
5BA9F
100
AcDbEntity
  8
Defpoints
 62
     0
100
AcDbPoint
 10
1151.824007572873
 20
481.3306323991289
 30
0.0
  0
POINT
  5
5BD18
330
5BA9F
100
AcDbEntity
  8
Defpoints
 62
     0
100
AcDbPoint
 10
1159.693206972872
 20
463.4859639991293
 30
0.0
  0
POINT
  5
5BD19
330
5BA9F
100
AcDbEntity
  8
Defpoints
 62
     0
100
AcDbPoint
 10
1198.250144615732
 20
463.4859639991293
 30
0.0
  0
ENDBLK
  5
5BAAC
330
5BA9F
100
AcDbEntity
  8
0
100
AcDbBlockEnd
  0
BLOCK
  5
5BAB6
330
5BAAE
100
AcDbEntity
  8
0
100
AcDbBlockBegin
  2
*D7
 70
     1
 10
0.0
 20
0.0
 30
0.0
  3
*D7
  1

  0
LINE
  5
5BCA2
330
5BAAE
100
AcDbEntity
  8
AREA1
 62
     0
370
    -2
100
AcDbLine
 10
1088.043745804662
 20
424.647193303612
 30
0.0
 11
1092.293745804662
 21
424.6471933036121
 31
0.0
  0
LINE
  5
5BCA3
330
5BAAE
100
AcDbEntity
  8
AREA1
 62
     0
370
    -2
100
AcDbLine
 10
1092.293745804662
 20
424.6471933036121
 30
0.0
 11
1131.204961795457
 21
403.7255262333563
 31
0.0
  0
MTEXT
  5
5BCA4
330
5BAAE
100
AcDbEntity
  8
AREA1
 62
     0
100
AcDbMText
 10
1062.382745804662
 20
424.6471933036121
 30
0.0
 40
4.25
 41
0.0
 71
     5
 72
     1
  1
\A1;\U+220515.88 [\U+22055/8]
 73
     1
 44
1.0
1001
ACAD
1000
MTEXTBEGIN
1070
    73
1070
     1
1070
    44
1040
1.0
1070
    74
1070
     0
1000
MTEXTEND
  0
SOLID
  5
5BCA5
330
5BAAE
100
AcDbEntity
  8
AREA1
 62
     0
100
AcDbTrace
 10
1131.540403019327
 20
404.3493974511889
 30
0.0
 11
1130.869520571587
 21
403.1016550155237
 31
0.0
 12
1134.948189102453
 22
401.7128788901384
 32
0.0
 13
1134.948189102453
 23
401.7128788901384
 33
0.0
  0
LINE
  5
5BCA6
330
5BAAE
100
AcDbEntity
  8
AREA1
 62
     0
370
    -2
100
AcDbLine
 10
1139.653216572871
 20
397.9539639991284
 30
0.0
 11
1144.225216572871
 21
397.9539639991284
 31
0.0
  0
LINE
  5
5BCA7
330
5BAAE
100
AcDbEntity
  8
AREA1
 62
     0
370
    -2
100
AcDbLine
 10
1141.939216572871
 20
395.6679639991284
 30
0.0
 11
1141.939216572871
 21
400.2399639991284
 31
0.0
  0
POINT
  5
5BCA8
330
5BAAE
100
AcDbEntity
  8
Defpoints
 62
     0
100
AcDbPoint
 10
1134.948189102453
 20
401.7128788901384
 30
0.0
  0
POINT
  5
5BCA9
330
5BAAE
100
AcDbEntity
  8
Defpoints
 62
     0
100
AcDbPoint
 10
1148.93024404329
 20
394.1950491081184
 30
0.0
  0
ENDBLK
  5
5BAB7
330
5BAAE
100
AcDbEntity
  8
0
100
AcDbBlockEnd
  0
BLOCK
  5
5BAD4
330
5BAC9
100
AcDbEntity
  8
0
100
AcDbBlockBegin
  2
*D8
 70
     1
 10
0.0
 20
0.0
 30
0.0
  3
*D8
  1

  0
LINE
  5
5BCE1
330
5BAC9
100
AcDbEntity
  8
AREA1
 62
     0
370
    -2
100
AcDbLine
 10
1150.944284108086
 20
353.6944639991296
 30
0.0
 11
1150.944284108086
 21
335.5219885764719
 31
0.0
  0
LINE
  5
5BCE2
330
5BAC9
100
AcDbEntity
  8
AREA1
 62
     0
370
    -2
100
AcDbLine
 10
1252.544284108086
 20
390.0164639991283
 30
0.0
 11
1252.544284108086
 21
335.5219885764719
 31
0.0
  0
LINE
  5
5BCE3
330
5BAC9
100
AcDbEntity
  8
AREA1
 62
     0
370
    -2
100
AcDbLine
 10
1155.194284108086
 20
339.7719885764719
 30
0.0
 11
1183.254884044918
 21
339.7719885764719
 31
0.0
  0
LINE
  5
5BCE4
330
5BAC9
100
AcDbEntity
  8
AREA1
 62
     0
370
    -2
100
AcDbLine
 10
1248.294284108086
 20
339.7719885764719
 30
0.0
 11
1218.993550711584
 21
339.7719885764719
 31
0.0
  0
MTEXT
  5
5BCE5
330
5BAC9
100
AcDbEntity
  8
AREA1
 62
     0
100
AcDbMText
 10
1201.124217378251
 20
339.7719885764719
 30
0.0
 40
4.25
 41
0.0
 71
     5
 72
     1
  1
\A1;101.60 [4]
 73
     1
 44
1.0
1001
ACAD
1000
MTEXTBEGIN
1070
    73
1070
     1
1070
    44
1040
1.0
1070
    74
1070
     0
1000
MTEXTEND
  0
SOLID
  5
5BCE6
330
5BAC9
100
AcDbEntity
  8
AREA1
 62
     0
100
AcDbTrace
 10
1155.194284108086
 20
340.4803219098052
 30
0.0
 11
1155.194284108086
 21
339.0636552431386
 31
0.0
 12
1150.944284108086
 22
339.7719885764719
 32
0.0
 13
1150.944284108086
 23
339.7719885764719
 33
0.0
  0
SOLID
  5
5BCE7
330
5BAC9
100
AcDbEntity
  8
AREA1
 62
     0
100
AcDbTrace
 10
1248.294284108086
 20
340.4803219098052
 30
0.0
 11
1248.294284108086
 21
339.0636552431386
 31
0.0
 12
1252.544284108086
 22
339.7719885764719
 32
0.0
 13
1252.544284108086
 23
339.7719885764719
 33
0.0
  0
POINT
  5
5BCE8
330
5BAC9
100
AcDbEntity
  8
Defpoints
 62
     0
100
AcDbPoint
 10
1150.944284108086
 20
355.2819639991295
 30
0.0
  0
POINT
  5
5BCE9
330
5BAC9
100
AcDbEntity
  8
Defpoints
 62
     0
100
AcDbPoint
 10
1252.544284108086
 20
391.6039639991283
 30
0.0
  0
POINT
  5
5BCEA
330
5BAC9
100
AcDbEntity
  8
Defpoints
 62
     0
100
AcDbPoint
 10
1252.544284108086
 20
339.7719885764719
 30
0.0
  0
ENDBLK
  5
5BAD5
330
5BAC9
100
AcDbEntity
  8
0
100
AcDbBlockEnd
  0
BLOCK
  5
5BC06
330
5BBFB
100
AcDbEntity
  8
0
100
AcDbBlockBegin
  2
*D9
 70
     1
 10
0.0
 20
0.0
 30
0.0
  3
*D9
  1

  0
LINE
  5
5BD37
330
5BBFB
100
AcDbEntity
  8
AREA1
 62
     0
370
    -2
100
AcDbLine
 10
949.5059718323178
 20
426.5289639991285
 30
0.0
 11
1003.561543360294
 21
426.5289639991285
 31
0.0
  0
LINE
  5
5BD38
330
5BBFB
100
AcDbEntity
  8
AREA1
 62
     0
370
    -2
100
AcDbLine
 10
949.5059718323178
 20
369.3789639991283
 30
0.0
 11
1003.561543360294
 21
369.3789639991283
 31
0.0
  0
LINE
  5
5BD39
330
5BBFB
100
AcDbEntity
  8
AREA1
 62
     0
370
    -2
100
AcDbLine
 10
998.9895433602946
 20
422.2789639991285
 30
0.0
 11
998.9895433602946
 21
373.6289639991283
 31
0.0
  0
MTEXT
  5
5BD3A
330
5BBFB
100
AcDbEntity
  8
AREA1
 62
     0
100
AcDbMText
 10
1006.984663834066
 20
398.0189236326727
 30
0.0
 40
4.25
 41
0.0
 71
     5
 72
     1
  1
\A1;57.15 [2 1/4]
 11
0.0000000000000001
 21
1.0
 31
0.0
 73
     1
 44
1.0
1001
ACAD
1000
MTEXTBEGIN
1070
    73
1070
     1
1070
    44
1040
1.0
1070
    74
1070
     0
1000
MTEXTEND
  0
SOLID
  5
5BD3B
330
5BBFB
100
AcDbEntity
  8
AREA1
 62
     0
100
AcDbTrace
 10
998.2812100269612
 20
422.2789639991285
 30
0.0
 11
999.697876693628
 21
422.2789639991285
 31
0.0
 12
998.9895433602946
 22
426.5289639991285
 32
0.0
 13
998.9895433602946
 23
426.5289639991285
 33
0.0
  0
SOLID
  5
5BD3C
330
5BBFB
100
AcDbEntity
  8
AREA1
 62
     0
100
AcDbTrace
 10
998.2812100269612
 20
373.6289639991283
 30
0.0
 11
999.697876693628
 21
373.6289639991283
 31
0.0
 12
998.9895433602946
 22
369.3789639991283
 32
0.0
 13
998.9895433602946
 23
369.3789639991283
 33
0.0
  0
POINT
  5
5BD3D
330
5BBFB
100
AcDbEntity
  8
Defpoints
 62
     0
100
AcDbPoint
 10
947.9184718323178
 20
426.5289639991285
 30
0.0
  0
POINT
  5
5BD3E
330
5BBFB
100
AcDbEntity
  8
Defpoints
 62
     0
100
AcDbPoint
 10
947.9184718323178
 20
369.3789639991283
 30
0.0
  0
POINT
  5
5BD3F
330
5BBFB
100
AcDbEntity
  8
Defpoints
 62
     0
100
AcDbPoint
 10
998.9895433602946
 20
369.3789639991283
 30
0.0
  0
ENDBLK
  5
5BC07
330
5BBFB
100
AcDbEntity
  8
0
100
AcDbBlockEnd
  0
BLOCK
  5
5BC14
330
5BC09
100
AcDbEntity
  8
0
100
AcDbBlockBegin
  2
*D10
 70
     1
 10
0.0
 20
0.0
 30
0.0
  3
*D10
  1

  0
LINE
  5
5BC5A
330
5BC09
100
AcDbEntity
  8
AREA1
 62
     0
370
    -2
100
AcDbLine
 10
957.0155718321373
 20
422.9602639991295
 30
0.0
 11
979.2548374456037
 21
422.9602639991295
 31
0.0
  0
LINE
  5
5BC5B
330
5BC09
100
AcDbEntity
  8
AREA1
 62
     0
370
    -2
100
AcDbLine
 10
957.0155718321373
 20
372.9476639991285
 30
0.0
 11
979.2548374456037
 21
372.9476639991285
 31
0.0
  0
LINE
  5
5BC5C
330
5BC09
100
AcDbEntity
  8
AREA1
 62
     0
370
    -2
100
AcDbLine
 10
975.0048374456037
 20
418.7102639991295
 30
0.0
 11
975.0048374456037
 21
377.1976639991285
 31
0.0
  0
MTEXT
  5
5BC5D
330
5BC09
100
AcDbEntity
  8
AREA1
 62
     0
100
AcDbMText
 10
983.5970306222423
 20
397.5017848488953
 30
0.0
 40
4.25
 41
0.0
 71
     5
 72
     1
  1
\A1;50.01 [1 31/32]
 11
0.0000000000000001
 21
1.0
 31
0.0
 73
     1
 44
1.0
1001
ACAD
1000
MTEXTBEGIN
1070
    73
1070
     1
1070
    44
1040
1.0
1070
    74
1070
     0
1000
MTEXTEND
  0
SOLID
  5
5BC5E
330
5BC09
100
AcDbEntity
  8
AREA1
 62
     0
100
AcDbTrace
 10
974.2965041122703
 20
418.7102639991295
 30
0.0
 11
975.7131707789371
 21
418.7102639991295
 31
0.0
 12
975.0048374456037
 22
422.9602639991295
 32
0.0
 13
975.0048374456037
 23
422.9602639991295
 33
0.0
  0
SOLID
  5
5BC5F
330
5BC09
100
AcDbEntity
  8
AREA1
 62
     0
100
AcDbTrace
 10
974.2965041122703
 20
377.1976639991285
 30
0.0
 11
975.7131707789371
 21
377.1976639991285
 31
0.0
 12
975.0048374456037
 22
372.9476639991285
 32
0.0
 13
975.0048374456037
 23
372.9476639991285
 33
0.0
  0
POINT
  5
5BC60
330
5BC09
100
AcDbEntity
  8
Defpoints
 62
     0
100
AcDbPoint
 10
955.4280718321374
 20
422.9602639991295
 30
0.0
  0
POINT
  5
5BC61
330
5BC09
100
AcDbEntity
  8
Defpoints
 62
     0
100
AcDbPoint
 10
955.4280718321374
 20
372.9476639991285
 30
0.0
  0
POINT
  5
5BC62
330
5BC09
100
AcDbEntity
  8
Defpoints
 62
     0
100
AcDbPoint
 10
975.0048374456037
 20
372.9476639991285
 30
0.0
  0
ENDBLK
  5
5BC15
330
5BC09
100
AcDbEntity
  8
0
100
AcDbBlockEnd
  0
BLOCK
  5
5BD4C
330
5BD41
100
AcDbEntity
  8
0
100
AcDbBlockBegin
  2
*D11
 70
     1
 10
0.0
 20
0.0
 30
0.0
  3
*D11
  1

  0
LINE
  5
5BDA7
330
5BD41
100
AcDbEntity
  8
AREA1
 62
     0
370
    -2
100
AcDbLine
 10
903.6587718301792
 20
442.6735580700485
 30
0.0
 11
875.4025574145412
 21
442.6735580700486
 31
0.0
  0
LINE
  5
5BDA8
330
5BD41
100
AcDbEntity
  8
AREA1
 62
     0
370
    -2
100
AcDbLine
 10
903.0237718301769
 20
352.9539639993089
 30
0.0
 11
875.4025574145412
 21
352.9539639993089
 31
0.0
  0
LINE
  5
5BDA9
330
5BD41
100
AcDbEntity
  8
AREA1
 62
     0
370
    -2
100
AcDbLine
 10
879.6525574145412
 20
438.4235580700486
 30
0.0
 11
879.6525574145412
 21
429.5115686108111
 31
0.0
  0
LINE
  5
5BDAA
330
5BD41
100
AcDbEntity
  8
AREA1
 62
     0
370
    -2
100
AcDbLine
 10
879.6525574145412
 20
357.2039639993089
 30
0.0
 11
879.6525574145412
 21
369.6895686108112
 31
0.0
  0
MTEXT
  5
5BDAB
330
5BD41
100
AcDbEntity
  8
AREA1
 62
     0
100
AcDbMText
 10
879.7129790020271
 20
399.6005686108113
 30
0.0
 40
4.25
 41
0.0
 71
     5
 72
     1
  1
\A1;89.72 [3 17/32]
 11
0.0000000000000001
 21
1.0
 31
0.0
 73
     1
 44
1.0
1001
ACAD
1000
MTEXTBEGIN
1070
    73
1070
     1
1070
    44
1040
1.0
1070
    74
1070
     0
1000
MTEXTEND
  0
SOLID
  5
5BDAC
330
5BD41
100
AcDbEntity
  8
AREA1
 62
     0
100
AcDbTrace
 10
878.9442240812078
 20
438.4235580700486
 30
0.0
 11
880.3608907478745
 21
438.4235580700486
 31
0.0
 12
879.6525574145412
 22
442.6735580700486
 32
0.0
 13
879.6525574145412
 23
442.6735580700486
 33
0.0
  0
SOLID
  5
5BDAD
330
5BD41
100
AcDbEntity
  8
AREA1
 62
     0
100
AcDbTrace
 10
878.9442240812078
 20
357.2039639993089
 30
0.0
 11
880.3608907478745
 21
357.2039639993089
 31
0.0
 12
879.6525574145412
 22
352.9539639993089
 32
0.0
 13
879.6525574145412
 23
352.9539639993089
 33
0.0
  0
POINT
  5
5BDAE
330
5BD41
100
AcDbEntity
  8
Defpoints
 62
     0
100
AcDbPoint
 10
905.2462718301793
 20
442.6735580700485
 30
0.0
  0
POINT
  5
5BDAF
330
5BD41
100
AcDbEntity
  8
Defpoints
 62
     0
100
AcDbPoint
 10
904.6112718301769
 20
352.9539639993089
 30
0.0
  0
POINT
  5
5BDB0
330
5BD41
100
AcDbEntity
  8
Defpoints
 62
     0
100
AcDbPoint
 10
879.6525574145412
 20
352.9539639993089
 30
0.0
  0
ENDBLK
  5
5BD4D
330
5BD41
100
AcDbEntity
  8
0
100
AcDbBlockEnd
  0
BLOCK
  5
5BD59
330
5BD4F
100
AcDbEntity
  8
0
100
AcDbBlockBegin
  2
*D12
 70
     1
 10
0.0
 20
0.0
 30
0.0
  3
*D12
  1

  0
LINE
  5
5BDB1
330
5BD4F
100
AcDbEntity
  8
AREA1
 62
     0
370
    -2
100
AcDbLine
 10
902.0712718301769
 20
353.9064639993095
 30
0.0
 11
902.0712718301769
 21
336.1773494765531
 31
0.0
  0
LINE
  5
5BDB2
330
5BD4F
100
AcDbEntity
  8
AREA1
 62
     0
370
    -2
100
AcDbLine
 10
944.9974718323176
 20
351.6206512328683
 30
0.0
 11
944.9974718323176
 21
336.1773494765531
 31
0.0
  0
LINE
  5
5BDB3
330
5BD4F
100
AcDbEntity
  8
AREA1
 62
     0
370
    -2
100
AcDbLine
 10
906.321271830177
 20
340.4273494765531
 30
0.0
 11
940.7474718323175
 21
340.4273494765531
 31
0.0
  0
MTEXT
  5
5BDB4
330
5BD4F
100
AcDbEntity
  8
AREA1
 62
     0
100
AcDbMText
 10
922.5267360707912
 20
331.8393912622326
 30
0.0
 40
4.25
 41
0.0
 71
     5
 72
     1
  1
\A1;42.93 [1 11/16]
 73
     1
 44
1.0
1001
ACAD
1000
MTEXTBEGIN
1070
    73
1070
     1
1070
    44
1040
1.0
1070
    74
1070
     0
1000
MTEXTEND
  0
SOLID
  5
5BDB5
330
5BD4F
100
AcDbEntity
  8
AREA1
 62
     0
100
AcDbTrace
 10
906.321271830177
 20
341.1356828098864
 30
0.0
 11
906.321271830177
 21
339.7190161432198
 31
0.0
 12
902.0712718301769
 22
340.4273494765531
 32
0.0
 13
902.0712718301769
 23
340.4273494765531
 33
0.0
  0
SOLID
  5
5BDB6
330
5BD4F
100
AcDbEntity
  8
AREA1
 62
     0
100
AcDbTrace
 10
940.7474718323175
 20
341.1356828098864
 30
0.0
 11
940.7474718323175
 21
339.7190161432198
 31
0.0
 12
944.9974718323176
 22
340.4273494765531
 32
0.0
 13
944.9974718323176
 23
340.4273494765531
 33
0.0
  0
POINT
  5
5BDB7
330
5BD4F
100
AcDbEntity
  8
Defpoints
 62
     0
100
AcDbPoint
 10
902.0712718301769
 20
355.4939639993094
 30
0.0
  0
POINT
  5
5BDB8
330
5BD4F
100
AcDbEntity
  8
Defpoints
 62
     0
100
AcDbPoint
 10
944.9974718323176
 20
353.2081512328683
 30
0.0
  0
POINT
  5
5BDB9
330
5BD4F
100
AcDbEntity
  8
Defpoints
 62
     0
100
AcDbPoint
 10
944.9974718323176
 20
340.4273494765531
 30
0.0
  0
ENDBLK
  5
5BD5A
330
5BD4F
100
AcDbEntity
  8
0
100
AcDbBlockEnd
  0
BLOCK
  5
5BDC6
330
5BDBB
100
AcDbEntity
  8
0
100
AcDbBlockBegin
  2
*D13
 70
     1
 10
0.0
 20
0.0
 30
0.0
  3
*D13
  1

  0
LINE
  5
5BDE0
330
5BDBB
100
AcDbEntity
  8
AREA1
 62
     0
370
    -2
100
AcDbLine
 10
944.9974718323176
 20
351.6206512328683
 30
0.0
 11
944.9974718323176
 21
344.0224307342451
 31
0.0
  0
LINE
  5
5BDE1
330
5BDBB
100
AcDbEntity
  8
AREA1
 62
     0
370
    -2
100
AcDbLine
 10
948.1724718323178
 20
368.0456909227293
 30
0.0
 11
948.1724718323178
 21
344.0224307342451
 31
0.0
  0
LINE
  5
5BDE2
330
5BDBB
100
AcDbEntity
  8
AREA1
 62
     0
370
    -2
100
AcDbLine
 10
940.7474718323175
 20
348.2724307342451
 30
0.0
 11
936.4974718323177
 21
348.2724307342451
 31
0.0
  0
LINE
  5
5BDE3
330
5BDBB
100
AcDbEntity
  8
AREA1
 62
     0
370
    -2
100
AcDbLine
 10
952.4224718323178
 20
348.2724307342451
 30
0.0
 11
956.6724718323177
 21
348.2724307342451
 31
0.0
  0
LINE
  5
5BDE4
330
5BDBB
100
AcDbEntity
  8
AREA1
 62
     0
370
    -2
100
AcDbLine
 10
957.9626065019814
 20
348.2724307342451
 30
0.0
 11
948.1724718323178
 21
348.2724307342451
 31
0.0
  0
MTEXT
  5
5BDE5
330
5BDBB
100
AcDbEntity
  8
AREA1
 62
     0
100
AcDbMText
 10
976.5402731686481
 20
348.2724307342451
 30
0.0
 40
4.25
 41
0.0
 71
     5
 72
     1
  1
\A1;3.18 [1/8]
 73
     1
 44
1.0
1001
ACAD
1000
MTEXTBEGIN
1070
    73
1070
     1
1070
    44
1040
1.0
1070
    74
1070
     0
1000
MTEXTEND
  0
LINE
  5
5BDE6
330
5BDBB
100
AcDbEntity
  8
AREA1
 62
     0
370
    -2
100
AcDbLine
 10
944.9974718323176
 20
348.2724307342451
 30
0.0
 11
948.1724718323178
 21
348.2724307342451
 31
0.0
  0
SOLID
  5
5BDE7
330
5BDBB
100
AcDbEntity
  8
AREA1
 62
     0
100
AcDbTrace
 10
940.7474718323175
 20
348.9807640675784
 30
0.0
 11
940.7474718323175
 21
347.5640974009118
 31
0.0
 12
944.9974718323176
 22
348.2724307342451
 32
0.0
 13
944.9974718323176
 23
348.2724307342451
 33
0.0
  0
SOLID
  5
5BDE8
330
5BDBB
100
AcDbEntity
  8
AREA1
 62
     0
100
AcDbTrace
 10
952.4224718323178
 20
348.9807640675784
 30
0.0
 11
952.4224718323178
 21
347.5640974009118
 31
0.0
 12
948.1724718323178
 22
348.2724307342451
 32
0.0
 13
948.1724718323178
 23
348.2724307342451
 33
0.0
  0
POINT
  5
5BDE9
330
5BDBB
100
AcDbEntity
  8
Defpoints
 62
     0
100
AcDbPoint
 10
944.9974718323176
 20
353.2081512328683
 30
0.0
  0
POINT
  5
5BDEA
330
5BDBB
100
AcDbEntity
  8
Defpoints
 62
     0
100
AcDbPoint
 10
948.1724718323178
 20
369.6331909227293
 30
0.0
  0
POINT
  5
5BDEB
330
5BDBB
100
AcDbEntity
  8
Defpoints
 62
     0
100
AcDbPoint
 10
948.1724718323178
 20
348.2724307342451
 30
0.0
  0
ENDBLK
  5
5BDC7
330
5BDBB
100
AcDbEntity
  8
0
100
AcDbBlockEnd
  0
ENDSEC
  0
SECTION
  2
ENTITIES
  0
ATTDEF
  5
4DDB8
330
458D6
100
AcDbEntity
  8
ATTRIBUTES
100
AcDbText
 10
833.1364288844442
 20
389.592438801572
 30
3.644056121604464
 40
0.575719985847253
  1
ALLEN-BRADLEY
100
AcDbAttributeDefinition
  3
MANUFACTURER NAME?
  2
AC_VND_LABEL
 70
     1
  0
ATTDEF
  5
4DDB9
330
458D6
100
AcDbEntity
  8
ATTRIBUTES
100
AcDbText
 10
833.1364288844442
 20
388.3930221643903
 30
3.644056121604464
 40
0.575719985847253
  1
844D-*
100
AcDbAttributeDefinition
  3
CATALOG NUMBER?
  2
AC_PART_NO
 70
     1
  0
ATTDEF
  5
4DDBA
330
458D6
100
AcDbEntity
  8
ATTRIBUTES
100
AcDbText
 10
833.1364288844442
 20
387.1936055272086
 30
3.644056121604464
 40
0.575719985847253
  1
Hollow Shaft Terminal Model
100
AcDbAttributeDefinition
  3
PART DESCRIPTION?
  2
AC_DESCRIPTION
 70
     1
  0
ATTDEF
  5
4DDBB
330
458D6
100
AcDbEntity
  8
ATTRIBUTES
100
AcDbText
 10
833.1364288844442
 20
385.9941888900268
 30
3.644056121604464
 40
0.575719985847253
  1

100
AcDbAttributeDefinition
  3
DEVICE ID?
  2
DEVICE_ID
 70
     1
  0
ATTDEF
  5
4DDBC
330
458D6
100
AcDbEntity
  8
ATTRIBUTES
100
AcDbText
 10
833.1364288844442
 20
384.7947722528451
 30
3.644056121604464
 40
0.575719985847253
  1

100
AcDbAttributeDefinition
  3
CUSTOMER PART NUMBER?
  2
AC_CPART_NO
 70
     1
  0
ATTDEF
  5
4DDBD
330
458D6
100
AcDbEntity
  8
ATTRIBUTES
100
AcDbText
 10
833.1364288844442
 20
383.5953556156628
 30
3.644056121604464
 40
0.575719985847253
  1

100
AcDbAttributeDefinition
  3
CUSTOMER NOTE?
  2
AC_NOTE
 70
     1
  0
ATTDEF
  5
4DDBE
330
458D6
100
AcDbEntity
  8
ATTRIBUTES
100
AcDbText
 10
833.1364288844442
 20
382.3959389784811
 30
3.644056121604464
 40
0.575719985847253
  1

100
AcDbAttributeDefinition
  3
FASTENER DATA?
  2
FASTENER
 70
     1
  0
ATTDEF
  5
4DDBF
330
458D6
100
AcDbEntity
  8
ATTRIBUTES
100
AcDbText
 10
833.1364288844442
 20
381.1965223412994
 30
3.644056121604464
 40
0.575719985847253
  1
INCH
100
AcDbAttributeDefinition
  3
UNIT OF SCALE?
  2
AC_SCALE_UNIT
 70
     1
  0
ATTDEF
  5
4DDC0
330
458D6
100
AcDbEntity
  8
ATTRIBUTES
100
AcDbText
 10
833.1364288844442
 20
379.9971057041183
 30
3.644056121604464
 40
0.575719985847253
  1
0
100
AcDbAttributeDefinition
  3
VIEW CODE?
  2
AC_VIEW_CODE
 70
     1
  0
MTEXT
  5
4E0D0
330
458D6
100
AcDbEntity
  8
DIMS
100
AcDbMText
 10
263.4509981022159
 20
543.6346761443502
 30
3.646124999999996
 40
0.125
 41
0.0
 71
     1
 72
     1
  1

  7
ROMANS
 73
     1
 44
1.0
1001
ACAD
1000
MTEXTBEGIN
1070
    73
1070
     1
1070
    44
1040
1.0
1070
    74
1070
     0
1000
MTEXTEND
  0
MTEXT
  5
4E0E6
330
458D6
100
AcDbEntity
  8
DIMS
100
AcDbMText
 10
262.8011374184602
 20
540.1940165057656
 30
3.646124999999996
 40
0.125
 41
0.0
 71
     1
 72
     1
  1

  7
ROMANS
 73
     1
 44
1.0
1001
ACAD
1000
MTEXTBEGIN
1070
    73
1070
     1
1070
    44
1040
1.0
1070
    74
1070
     0
1000
MTEXTEND
  0
LINE
  5
5B788
330
458D6
100
AcDbEntity
  8
0
  6
Continuous
 62
     7
100
AcDbLine
 10
1109.639845332271
 20
370.2382931847088
 30
3.646124999999996
 11
1109.999140503951
 21
369.8791678856885
 31
3.646124999999996
  0
LINE
  5
5B789
330
458D6
100
AcDbEntity
  8
0
  6
Continuous
 62
     7
100
AcDbLine
 10
1113.879528359113
 20
366.0006146699887
 30
3.646124999999996
 11
1114.238823530793
 21
365.6414893709684
 31
3.646124999999996
  0
LINE
  5
5B78A
330
458D6
100
AcDbEntity
  8
0
  6
Continuous
 62
     7
100
AcDbLine
 10
1112.689598300571
 20
364.0915313228093
 30
3.646124999999996
 11
1112.317418249912
 21
364.0784704370689
 31
3.646124999999996
  0
LWPOLYLINE
  5
5B78B
330
458D6
100
AcDbEntity
  8
0
  6
Continuous
 62
     7
100
AcDbPolyline
 90
        9
 70
     0
 43
0.0
 38
3.646124999999983
 10
1127.651716572873
 20
445.9525384640687
 10
1127.051952443475
 20
445.4605490975295
 10
1126.451549420253
 20
444.9110469224684
 10
1125.886256773851
 20
444.3397113950882
 10
1125.390741318351
 20
443.7942870198489
 10
1124.991756165091
 20
443.3238012221895
 10
1124.704431027272
 20
442.9671933959084
 10
1124.533262538011
 20
442.7474830403093
 10
1124.476716598274
 20
442.6735588015685
  0
LWPOLYLINE
  5
5B78C
330
458D6
100
AcDbEntity
  8
0
  6
Continuous
 62
     7
100
AcDbPolyline
 90
        4
 70
     0
 43
0.0
 38
3.646124999999983
 10
1134.817130184612
 20
373.9833377012105
 10
1134.146840476173
 20
374.2188401893085
 10
1133.452680132214
 20
374.5076335842891
 10
1132.755661264633
 20
374.7946345825489
  0
LINE
  5
5B78D
330
458D6
100
AcDbEntity
  8
0
  6
Continuous
 62
     7
100
AcDbLine
 10
1132.75566126463
 20
374.7946345825484
 30
3.646124999999996
 11
1131.29840630767
 21
375.3520360560093
 31
3.646124999999996
  0
LINE
  5
5B78E
330
458D6
100
AcDbEntity
  8
0
  6
Continuous
 62
     7
100
AcDbLine
 10
1131.29840630767
 20
375.3520360560093
 30
3.646124999999996
 11
1130.71073587011
 21
375.6103684806691
 31
3.646124999999996
  0
LINE
  5
5B78F
330
458D6
100
AcDbEntity
  8
0
  6
Continuous
 62
     7
100
AcDbLine
 10
1108.090620102052
 20
368.6883351365484
 30
3.646124999999996
 11
1108.077735225611
 21
368.3161489517891
 31
3.646124999999996
  0
LWPOLYLINE
  5
5B790
330
458D6
100
AcDbEntity
  8
0
  6
Continuous
 62
     7
100
AcDbPolyline
 90
        7
 70
     0
 43
0.0
 38
3.646124999999983
 10
1127.651716572873
 20
445.9525384640687
 10
1127.047095176073
 20
444.6065407725286
 10
1126.40769263979
 20
443.2190542942694
 10
1125.677015269553
 20
441.8387473876296
 10
1124.785216242893
 20
440.5227098520695
 10
1123.661602947835
 20
439.3473654539698
 10
1122.25512821697
 20
438.4206103681894
  0
LINE
  5
5B791
330
458D6
100
AcDbEntity
  8
0
  6
Continuous
 62
     7
100
AcDbLine
 10
1124.476716572871
 20
442.6735580700485
 30
3.646124999999996
 11
1124.321076899392
 21
441.4257298062486
 31
3.646124999999996
  0
LINE
  5
5B792
330
458D6
100
AcDbEntity
  8
0
  6
Continuous
 62
     7
100
AcDbLine
 10
1124.476716572871
 20
463.4859639991293
 30
3.646124999999996
 11
1124.476716572871
 21
442.6735580700485
 31
3.646124999999996
  0
LINE
  5
5B793
330
458D6
100
AcDbEntity
  8
0
  6
Continuous
 62
     7
100
AcDbLine
 10
1127.651716572872
 20
463.4859639991293
 30
3.646124999999996
 11
1127.651716572872
 21
445.9525384640691
 31
3.646124999999996
  0
LWPOLYLINE
  5
5B794
330
458D6
100
AcDbEntity
  8
0
  6
Continuous
 62
     7
100
AcDbPolyline
 90
        7
 70
     0
 43
0.0
 38
3.646124999999983
 10
1124.476734048072
 20
442.6735975670503
 10
1124.470800115312
 20
442.4281376261692
 10
1124.453793067791
 20
442.191370792108
 10
1124.426265317412
 20
441.9593215610088
 10
1124.388798099994
 20
441.732506106589
 10
1124.341995077011
 20
441.511389678109
 10
1124.321076599674
 20
441.4257297351282
  0
LINE
  5
5B795
330
458D6
100
AcDbEntity
  8
0
  6
Continuous
 62
     7
100
AcDbLine
 10
1157.210144054833
 20
401.531996159789
 30
3.646124999999996
 11
1154.325710486607
 21
400.7583834622262
 31
3.646124999999996
  0
LINE
  5
5B796
330
458D6
100
AcDbEntity
  8
0
  6
Continuous
 62
     7
100
AcDbLine
 10
1126.927336528113
 20
393.4100672398494
 30
3.646124999999996
 11
1129.811770094329
 21
394.1836799368737
 31
3.646124999999996
  0
LINE
  5
5B797
330
458D6
100
AcDbEntity
  8
0
  6
Continuous
 62
     7
100
AcDbLine
 10
1156.95109661763
 20
402.4978607609483
 30
3.646124999999996
 11
1154.06666305088
 21
401.7242480630981
 31
3.646124999999996
  0
LINE
  5
5B798
330
458D6
100
AcDbEntity
  8
0
  6
Continuous
 62
     7
100
AcDbLine
 10
1126.668289093452
 20
394.3759318384689
 30
3.646124999999996
 11
1129.55272265928
 21
395.1495445353893
 31
3.646124999999996
  0
LINE
  5
5B799
330
458D6
100
AcDbEntity
  8
0
  6
Continuous
 62
     7
100
AcDbLine
 10
1155.267443754312
 20
389.6858384272085
 30
3.646124999999996
 11
1152.680814434162
 21
391.1784141774317
 31
3.646124999999996
  0
LINE
  5
5B79A
330
458D6
100
AcDbEntity
  8
0
  6
Continuous
 62
     7
100
AcDbLine
 10
1128.111194183251
 20
405.3559459667892
 30
3.646124999999996
 11
1130.697823501862
 21
403.8633702149042
 31
3.646124999999996
  0
LINE
  5
5B79B
330
458D6
100
AcDbEntity
  8
0
  6
Continuous
 62
     7
100
AcDbLine
 10
1128.610989393972
 20
406.2220895735892
 30
3.646124999999996
 11
1131.197618712254
 21
404.7295138218933
 31
3.646124999999996
  0
LINE
  5
5B79C
330
458D6
100
AcDbEntity
  8
0
  6
Continuous
 62
     7
100
AcDbLine
 10
1153.180609645498
 20
392.0445577864263
 30
3.646124999999996
 11
1155.76723896503
 21
390.5519820340085
 31
3.646124999999996
  0
LINE
  5
5B79D
330
458D6
100
AcDbEntity
  8
0
  6
Continuous
 62
     7
100
AcDbLine
 10
1147.20689098543
 20
373.508787667329
 30
3.646124999999996
 11
1144.777417797652
 21
382.5671369470894
 31
3.646124999999996
  0
LINE
  5
5B79E
330
458D6
100
AcDbEntity
  8
0
  6
Continuous
 62
     7
100
AcDbLine
 10
1136.696785188312
 20
412.6959701767292
 30
3.646124999999996
 11
1135.962328120271
 21
415.4344110422289
 31
3.646124999999996
  0
LINE
  5
5B79F
330
458D6
100
AcDbEntity
  8
0
  6
Continuous
 62
     7
100
AcDbLine
 10
1137.313031258333
 20
413.2726588988886
 30
3.646124999999996
 11
1138.168932511249
 21
410.0814104778677
 31
3.646124999999996
  0
LINE
  5
5B7A0
330
458D6
100
AcDbEntity
  8
0
  6
Continuous
 62
     7
100
AcDbLine
 10
1145.599537288792
 20
382.3762216647084
 30
3.646124999999996
 11
1144.743636036606
 21
385.5674700855373
 31
3.646124999999996
  0
LINE
  5
5B7A1
330
458D6
100
AcDbEntity
  8
0
  6
Continuous
 62
     7
100
AcDbLine
 10
1146.56540188741
 20
382.6352690993694
 30
3.646124999999996
 11
1145.709500637474
 21
385.8265175213173
 31
3.646124999999996
  0
LINE
  5
5B7A2
330
458D6
100
AcDbEntity
  8
0
  6
Continuous
 62
     7
100
AcDbLine
 10
1139.134797112172
 20
410.3404579134065
 30
3.646124999999996
 11
1138.278895859492
 21
413.5317063360893
 31
3.646124999999996
  0
LINE
  5
5B7A3
330
458D6
100
AcDbEntity
  8
0
  6
Continuous
 62
     7
100
AcDbLine
 10
1149.611121150292
 20
374.1536085417684
 30
3.646124999999996
 11
1147.181647959973
 21
383.2119578215288
 31
3.646124999999996
  0
LINE
  5
5B7A4
330
458D6
100
AcDbEntity
  8
0
  6
Continuous
 62
     7
100
AcDbLine
 10
1139.101015350632
 20
413.3407910537083
 30
3.646124999999996
 11
1138.366558282591
 21
416.0792319166683
 31
3.646124999999996
  0
LINE
  5
5B7A5
330
458D6
100
AcDbEntity
  8
0
  6
Continuous
 62
     7
100
AcDbLine
 10
1133.671091000952
 20
384.6257368202287
 30
3.646124999999996
 11
1135.163666751968
 21
387.2123661373368
 31
3.646124999999996
  0
LINE
  5
5B7A6
330
458D6
100
AcDbEntity
  8
0
  6
Continuous
 62
     7
100
AcDbLine
 10
1147.848622788652
 20
409.1953570701363
 30
3.646124999999996
 11
1149.341198540531
 21
411.7819863912886
 31
3.646124999999996
  0
LINE
  5
5B7A7
330
458D6
100
AcDbEntity
  8
0
  6
Continuous
 62
     7
100
AcDbLine
 10
1108.090620102052
 20
368.6883351365484
 30
3.646124999999996
 11
1109.639845332271
 21
370.2382931847088
 31
3.646124999999996
  0
LINE
  5
5B7A8
330
458D6
100
AcDbEntity
  8
0
  6
Continuous
 62
     7
100
AcDbLine
 10
1169.994833895459
 20
430.6218309342278
 30
3.646124999999996
 11
1171.18883484771
 21
431.8163966754487
 31
3.646124999999996
  0
LINE
  5
5B7A9
330
458D6
100
AcDbEntity
  8
0
  6
Continuous
 62
     7
100
AcDbLine
 10
1108.077735225611
 20
368.3161489517891
 30
3.646124999999996
 11
1109.819492907951
 21
370.0587305237687
 31
3.646124999999996
  0
LINE
  5
5B7AA
330
458D6
100
AcDbEntity
  8
0
  6
Continuous
 62
     7
100
AcDbLine
 10
1170.170038736913
 20
430.4378234399982
 30
3.646124999999996
 11
1171.561014895831
 21
431.8294575611891
 31
3.646124999999996
  0
LINE
  5
5B7AB
330
458D6
100
AcDbEntity
  8
0
  6
Continuous
 62
     7
100
AcDbLine
 10
1108.245906492011
 20
368.1251045561282
 30
3.646124999999996
 11
1109.999140503951
 21
369.8791678856885
 31
3.646124999999996
  0
LINE
  5
5B7AC
330
458D6
100
AcDbEntity
  8
0
  6
Continuous
 62
     7
100
AcDbLine
 10
1170.345243578378
 20
430.2538159457572
 30
3.646124999999996
 11
1171.752138801112
 21
431.6613766603693
 31
3.646124999999996
  0
LINE
  5
5B7AD
330
458D6
100
AcDbEntity
  8
0
  6
Continuous
 62
     7
100
AcDbLine
 10
1150.207342147332
 20
411.2821911805689
 30
3.646124999999996
 11
1148.714766394561
 21
408.6955618604244
 31
3.646124999999996
  0
LINE
  5
5B7AE
330
458D6
100
AcDbEntity
  8
0
  6
Continuous
 62
     7
100
AcDbLine
 10
1134.53723460775
 20
384.1259416095091
 30
3.646124999999996
 11
1136.029810359043
 21
386.7125709270936
 31
3.646124999999996
  0
LINE
  5
5B7AF
330
458D6
100
AcDbEntity
  8
0
  6
Continuous
 62
     7
100
AcDbLine
 10
1175.632526656271
 20
427.7828234446695
 30
3.646124999999996
 11
1174.129668160042
 21
426.2792540638558
 31
3.646124999999996
  0
LINE
  5
5B7B0
330
458D6
100
AcDbEntity
  8
0
  6
Continuous
 62
     7
100
AcDbLine
 10
1113.879528359113
 20
366.0006146699887
 30
3.646124999999996
 11
1112.126294347172
 21
364.2465513378887
 31
3.646124999999996
  0
LINE
  5
5B7B1
330
458D6
100
AcDbEntity
  8
0
  6
Continuous
 62
     7
100
AcDbLine
 10
1156.226716572872
 20
463.4859639991293
 30
3.646124999999996
 11
1156.226716572872
 21
445.9525398610686
 31
3.646124999999996
  0
LINE
  5
5B7B2
330
458D6
100
AcDbEntity
  8
0
  6
Continuous
 62
     7
100
AcDbLine
 10
1175.80069792267
 20
427.5917790464689
 30
3.646124999999996
 11
1174.304873002653
 21
426.0952465684106
 31
3.646124999999996
  0
LINE
  5
5B7B3
330
458D6
100
AcDbEntity
  8
0
  6
Continuous
 62
     7
100
AcDbLine
 10
1114.059175944951
 20
365.8210520192087
 30
3.646124999999996
 11
1112.317418249912
 21
364.0784704370689
 31
3.646124999999996
  0
LINE
  5
5B7B4
330
458D6
100
AcDbEntity
  8
0
  6
Continuous
 62
     7
100
AcDbLine
 10
1175.787813046232
 20
427.2195928642493
 30
3.646124999999996
 11
1174.480077844035
 21
425.911239074259
 31
3.646124999999996
  0
LINE
  5
5B7B5
330
458D6
100
AcDbEntity
  8
0
  6
Continuous
 62
     7
100
AcDbLine
 10
1114.238823530793
 20
365.6414893709684
 30
3.646124999999996
 11
1112.689598300571
 21
364.0915313228093
 31
3.646124999999996
  0
LINE
  5
5B7B6
330
458D6
100
AcDbEntity
  8
0
  6
Continuous
 62
     7
100
AcDbLine
 10
1159.401716572871
 20
463.4859639991293
 30
3.646124999999996
 11
1159.401716572871
 21
442.6735580700485
 31
3.646124999999996
  0
LINE
  5
5B7B7
330
458D6
100
AcDbEntity
  8
0
  6
Continuous
 62
     7
100
AcDbLine
 10
1171.18883484771
 20
431.8163966754487
 30
3.646124999999996
 11
1171.561014895831
 21
431.8294575611891
 31
3.646124999999996
  0
LINE
  5
5B7B8
330
458D6
100
AcDbEntity
  8
0
  6
Continuous
 62
     7
100
AcDbLine
 10
1175.787813046232
 20
427.2195928642493
 30
3.646124999999996
 11
1175.80069792267
 21
427.5917790464689
 31
3.646124999999996
  0
LINE
  5
5B7B9
330
458D6
100
AcDbEntity
  8
0
  6
Continuous
 62
     7
100
AcDbLine
 10
1161.628748603431
 20
382.5384728261096
 30
3.646124999999996
 11
1161.373845239732
 21
382.2194731796294
 31
3.646124999999996
  0
LINE
  5
5B7BA
330
458D6
100
AcDbEntity
  8
0
  6
Continuous
 62
     7
100
AcDbLine
 10
1161.373845239732
 20
382.2194731796294
 30
3.646124999999996
 11
1161.292677385813
 21
382.1190338072288
 31
3.646124999999996
  0
LINE
  5
5B7BB
330
458D6
100
AcDbEntity
  8
0
  6
Continuous
 62
     7
100
AcDbLine
 10
1161.292677385813
 20
382.1190338072288
 30
3.646124999999996
 11
1161.239567677452
 21
382.0539172394695
 31
3.646124999999996
  0
LINE
  5
5B7BC
330
458D6
100
AcDbEntity
  8
0
  6
Continuous
 62
     7
100
AcDbLine
 10
1161.239567677452
 20
382.0539172394695
 30
3.646124999999996
 11
1161.178598853492
 21
381.979890227249
 31
3.646124999999996
  0
LINE
  5
5B7BD
330
458D6
100
AcDbEntity
  8
0
  6
Continuous
 62
     7
100
AcDbLine
 10
1161.178598853492
 20
381.979890227249
 30
3.646124999999996
 11
1161.118707751532
 21
381.9079130229681
 31
3.646124999999996
  0
LINE
  5
5B7BE
330
458D6
100
AcDbEntity
  8
0
  6
Continuous
 62
     7
100
AcDbLine
 10
1161.118707751532
 20
381.9079130229681
 30
3.646124999999996
 11
1161.059909863032
 21
381.8379165437093
 31
3.646124999999996
  0
LINE
  5
5B7BF
330
458D6
100
AcDbEntity
  8
0
  6
Continuous
 62
     7
100
AcDbLine
 10
1161.059909863032
 20
381.8379165437093
 30
3.646124999999996
 11
1160.973796677372
 21
381.736484544389
 31
3.646124999999996
  0
LINE
  5
5B7C0
330
458D6
100
AcDbEntity
  8
0
  6
Continuous
 62
     7
100
AcDbLine
 10
1160.973796677372
 20
381.736484544389
 30
3.646124999999996
 11
1160.890230334473
 21
381.639120537949
 31
3.646124999999996
  0
LINE
  5
5B7C1
330
458D6
100
AcDbEntity
  8
0
  6
Continuous
 62
     7
100
AcDbLine
 10
1160.890230334473
 20
381.639120537949
 30
3.646124999999996
 11
1160.798510274072
 21
381.5332792561082
 31
3.646124999999996
  0
LINE
  5
5B7C2
330
458D6
100
AcDbEntity
  8
0
  6
Continuous
 62
     7
100
AcDbLine
 10
1160.798510274072
 20
381.5332792561082
 30
3.646124999999996
 11
1160.710038685712
 21
381.4322011702286
 31
3.646124999999996
  0
LINE
  5
5B7C3
330
458D6
100
AcDbEntity
  8
0
  6
Continuous
 62
     7
100
AcDbLine
 10
1160.710038685712
 20
381.4322011702286
 30
3.646124999999996
 11
1160.623352176331
 21
381.3341755141096
 31
3.646124999999996
  0
LINE
  5
5B7C4
330
458D6
100
AcDbEntity
  8
0
  6
Continuous
 62
     7
100
AcDbLine
 10
1160.623352176331
 20
381.3341755141096
 30
3.646124999999996
 11
1160.517776151773
 21
381.2162047264285
 31
3.646124999999996
  0
LINE
  5
5B7C5
330
458D6
100
AcDbEntity
  8
0
  6
Continuous
 62
     7
100
AcDbLine
 10
1160.517776151773
 20
381.2162047264285
 30
3.646124999999996
 11
1160.426576369732
 21
381.1155338203291
 31
3.646124999999996
  0
LINE
  5
5B7C6
330
458D6
100
AcDbEntity
  8
0
  6
Continuous
 62
     7
100
AcDbLine
 10
1160.426576369732
 20
381.1155338203291
 30
3.646124999999996
 11
1160.34075408265
 21
381.0217938528692
 31
3.646124999999996
  0
LINE
  5
5B7C7
330
458D6
100
AcDbEntity
  8
0
  6
Continuous
 62
     7
100
AcDbLine
 10
1160.34075408265
 20
381.0217938528692
 30
3.646124999999996
 11
1160.260987927733
 21
380.9355005685093
 31
3.646124999999996
  0
LINE
  5
5B7C8
330
458D6
100
AcDbEntity
  8
0
  6
Continuous
 62
     7
100
AcDbLine
 10
1160.178796103292
 20
380.8474512551484
 30
3.646124999999996
 11
1160.260987927733
 21
380.9355005685093
 31
3.646124999999996
  0
LINE
  5
5B7C9
330
458D6
100
AcDbEntity
  8
0
  6
Continuous
 62
     7
100
AcDbLine
 10
1160.187194465971
 20
380.8563902974693
 30
3.646124999999996
 11
1160.097098606031
 21
380.7607572070495
 31
3.646124999999996
  0
LINE
  5
5B7CA
330
458D6
100
AcDbEntity
  8
0
  6
Continuous
 62
     7
100
AcDbLine
 10
1160.109593876951
 20
380.7739597638286
 30
3.646124999999996
 11
1160.015946393431
 21
380.6754720080489
 31
3.646124999999996
  0
LINE
  5
5B7CB
330
458D6
100
AcDbEntity
  8
0
  6
Continuous
 62
     7
100
AcDbLine
 10
1159.94417714911
 20
380.6006772706684
 30
3.646124999999996
 11
1160.027981563671
 21
380.6880545051084
 31
3.646124999999996
  0
LINE
  5
5B7CC
330
458D6
100
AcDbEntity
  8
0
  6
Continuous
 62
     7
100
AcDbLine
 10
1159.864995846972
 20
380.5188991131683
 30
3.646124999999996
 11
1159.946008110653
 21
380.6025859206492
 31
3.646124999999996
  0
LINE
  5
5B7CD
330
458D6
100
AcDbEntity
  8
0
  6
Continuous
 62
     7
100
AcDbLine
 10
1159.869152081992
 20
380.5231635674296
 30
3.646124999999996
 11
1159.823722828172
 21
380.4765580065889
 31
3.646124999999996
  0
LWPOLYLINE
  5
5B7CE
330
458D6
100
AcDbEntity
  8
0
  6
Continuous
 62
     7
100
AcDbPolyline
 90
        9
 70
     0
 43
0.0
 38
3.646124999999983
 10
1159.401716572873
 20
442.6735580700492
 10
1159.345184793634
 20
442.7474651383886
 10
1159.174051668793
 20
442.9671327915088
 10
1158.886782355094
 20
443.3236750781684
 10
1158.487901397712
 20
443.794047949968
 10
1157.992548339651
 20
444.3393181675287
 10
1157.427381316571
 20
444.9105687420702
 10
1156.826889647353
 20
445.4601969087502
 10
1156.226716572873
 20
445.952539861069
  0
LINE
  5
5B7CF
330
458D6
100
AcDbEntity
  8
0
  6
Continuous
 62
     7
100
AcDbLine
 10
1124.476716572871
 20
463.4859639991293
 30
3.646124999999996
 11
1159.401716572871
 21
463.4859639991293
 31
3.646124999999996
  0
LINE
  5
5B7D0
330
458D6
100
AcDbEntity
  8
0
  6
Continuous
 62
     7
100
AcDbLine
 10
944.7434718323179
 20
352.9539639993089
 30
3.646124999999996
 11
938.9014718323174
 21
352.9539639993089
 31
3.646124999999996
  0
LINE
  5
5B7D1
330
458D6
100
AcDbEntity
  8
0
  6
Continuous
 62
     7
100
AcDbLine
 10
938.5712718323196
 20
352.9539639993089
 30
3.646124999999996
 11
904.611271830177
 21
352.9539639993089
 31
3.646124999999996
  0
LINE
  5
5B7D2
330
458D6
100
AcDbEntity
  8
0
  6
Continuous
 62
     7
100
AcDbLine
 10
944.7434718323179
 20
364.0784704370689
 30
3.646124999999996
 11
942.7114718323169
 21
364.0784704370689
 31
3.646124999999996
  0
LWPOLYLINE
  5
5B7D3
330
458D6
100
AcDbEntity
  8
0
  6
Continuous
 62
     7
100
AcDbPolyline
 90
        5
 70
     0
 43
0.0
 38
3.646124999999983
 10
942.7114718323178
 20
364.0784704370685
 10
942.6142331469387
 20
364.0912390958087
 10
942.5319557981607
 20
364.127535685649
 10
942.4768971985981
 20
364.1819641391498
 10
942.4574718323169
 20
364.2465513378897
  0
LINE
  5
5B7D4
330
458D6
100
AcDbEntity
  8
0
  6
Continuous
 62
     7
100
AcDbLine
 10
944.7434718323179
 20
368.3161489517891
 30
3.646124999999996
 11
942.7114718323169
 21
368.3161489517891
 31
3.646124999999996
  0
LINE
  5
5B7D5
330
458D6
100
AcDbEntity
  8
0
  6
Continuous
 62
     7
100
AcDbLine
 10
944.9974718323176
 20
369.3789639991283
 30
3.646124999999996
 11
947.9184718323178
 21
369.3789639991283
 31
3.646124999999996
  0
LINE
  5
5B7D6
330
458D6
100
AcDbEntity
  8
0
  6
Continuous
 62
     7
100
AcDbLine
 10
955.4280718321374
 20
372.9476639991291
 30
3.646124999999996
 11
950.5004718321384
 21
372.9476639991291
 31
3.646124999999996
  0
LINE
  5
5B7D7
330
458D6
100
AcDbEntity
  8
0
  6
Continuous
 62
     7
100
AcDbLine
 10
902.0712718301794
 20
463.4859639991293
 30
3.646124999999996
 11
902.0712718301794
 21
355.4939639993094
 31
3.646124999999996
  0
LINE
  5
5B7D8
330
458D6
100
AcDbEntity
  8
0
  6
Continuous
 62
     7
100
AcDbLine
 10
904.611271830177
 20
352.9539639993089
 30
3.646124999999996
 11
904.611271830177
 21
438.1483766810089
 31
3.646124999999996
  0
LINE
  5
5B7D9
330
458D6
100
AcDbEntity
  8
0
  6
Continuous
 62
     7
100
AcDbLine
 10
905.2462718301793
 20
463.4859639991293
 30
3.646124999999996
 11
905.2462718301793
 21
438.1373053163091
 31
3.646124999999996
  0
LWPOLYLINE
  5
5B7DA
330
458D6
100
AcDbEntity
  8
0
  6
Continuous
 62
     7
100
AcDbPolyline
 90
        5
 70
     0
 43
0.0
 38
3.646124999999983
 10
905.0020355800192
 20
442.6858792646103
 10
904.9337000346973
 20
441.30019927499
 10
904.8408719932782
 20
440.0197719780894
 10
904.7306036108206
 20
438.9418602426299
 10
904.6112718352601
 20
438.1483436025896
  0
LINE
  5
5B7DB
330
458D6
100
AcDbEntity
  8
0
  6
Continuous
 62
     7
100
AcDbLine
 10
948.1724718323178
 20
381.9519639991284
 30
3.646124999999996
 11
949.5606718321376
 21
381.9519639991284
 31
3.646124999999996
  0
LINE
  5
5B7DC
330
458D6
100
AcDbEntity
  8
0
  6
Continuous
 62
     7
100
AcDbLine
 10
957.0536718321394
 20
382.2694639991295
 30
3.646124999999996
 11
956.061671832399
 21
382.2694639991295
 31
3.646124999999996
  0
LINE
  5
5B7DD
330
458D6
100
AcDbEntity
  8
0
  6
Continuous
 62
     7
100
AcDbLine
 10
948.5700718321377
 20
383.8508039504895
 30
3.646124999999996
 11
949.5606718321376
 21
383.8508039504895
 31
3.646124999999996
  0
LINE
  5
5B7DE
330
458D6
100
AcDbEntity
  8
0
  6
Continuous
 62
     7
100
AcDbLine
 10
957.0536718321394
 20
384.1259416095091
 30
3.646124999999996
 11
956.061671832399
 21
384.1259416095091
 31
3.646124999999996
  0
LINE
  5
5B7DF
330
458D6
100
AcDbEntity
  8
0
  6
Continuous
 62
     7
100
AcDbLine
 10
948.5700718321377
 20
384.3505991612092
 30
3.646124999999996
 11
949.5606718321376
 21
384.3505991612092
 31
3.646124999999996
  0
LINE
  5
5B7E0
330
458D6
100
AcDbEntity
  8
0
  6
Continuous
 62
     7
100
AcDbLine
 10
949.865471832139
 20
384.4919639991289
 30
3.646124999999996
 11
949.5606718321376
 21
384.4919639991289
 31
3.646124999999996
  0
LINE
  5
5B7E1
330
458D6
100
AcDbEntity
  8
0
  6
Continuous
 62
     7
100
AcDbLine
 10
957.0536718321394
 20
384.6257368202287
 30
3.646124999999996
 11
956.061671832399
 21
384.6257368202287
 31
3.646124999999996
  0
LINE
  5
5B7E2
330
458D6
100
AcDbEntity
  8
0
  6
Continuous
 62
     7
100
AcDbLine
 10
949.865471832139
 20
386.0520864211692
 30
3.646124999999996
 11
949.5606718321376
 21
386.0520864211692
 31
3.646124999999996
  0
LINE
  5
5B7E3
330
458D6
100
AcDbEntity
  8
0
  6
Continuous
 62
     7
100
AcDbLine
 10
949.865471832139
 20
386.5518816293491
 30
3.646124999999996
 11
949.5606718321376
 21
386.5518816293491
 31
3.646124999999996
  0
LWPOLYLINE
  5
5B7E4
330
458D6
100
AcDbEntity
  8
0
  6
Continuous
 62
     7
100
AcDbPolyline
 90
       10
 70
     0
 43
0.0
 38
3.646124999999983
 10
950.8337049147199
 20
375.940467528369
 10
950.8729328017183
 20
375.8855760862093
 10
951.3770989282607
 20
375.4541705228088
 10
951.9735057770999
 20
375.151837073628
 10
952.6274923456808
 20
374.9961462547084
 10
953.3010513160594
 20
374.9961462547084
 10
953.9550378846366
 20
375.151837073628
 10
954.5514447334793
 20
375.4541705228088
 10
955.0556108625574
 20
375.8855760862093
 10
955.0948350106777
 20
375.9404622985089
  0
LWPOLYLINE
  5
5B7E5
330
458D6
100
AcDbEntity
  8
0
  6
Continuous
 62
     7
100
AcDbPolyline
 90
        9
 70
     0
 43
0.0
 38
3.646124999999983
 10
938.5712718272374
 20
445.9524221168298
 10
938.5141089011817
 20
445.4605490975295
 10
938.33569759176
 20
444.9110469224684
 10
938.0351687008191
 20
444.3397113950882
 10
937.6253110623189
 20
443.7942870198489
 10
937.1298333740783
 20
443.3238012221895
 10
936.5770058818203
 20
442.9671933959084
 10
935.9928197603771
 20
442.7474830403093
 10
935.3962718323204
 20
442.6735580700492
  0
LINE
  5
5B7E6
330
458D6
100
AcDbEntity
  8
0
  6
Continuous
 62
     7
100
AcDbLine
 10
935.3962718323195
 20
463.4859639991293
 30
3.646124999999996
 11
935.3962718323195
 21
438.1373053163091
 31
3.646124999999996
  0
LINE
  5
5B7E7
330
458D6
100
AcDbEntity
  8
0
  6
Continuous
 62
     7
100
AcDbLine
 10
938.5712718323196
 20
463.4859639991293
 30
3.646124999999996
 11
938.5712718323196
 21
352.954344595449
 31
3.646124999999996
  0
LINE
  5
5B7E8
330
458D6
100
AcDbEntity
  8
0
  6
Continuous
 62
     7
100
AcDbLine
 10
938.9014718323174
 20
352.9539639993089
 30
3.646124999999996
 11
938.9014718323174
 21
442.9539639989491
 31
3.646124999999996
  0
LINE
  5
5B7E9
330
458D6
100
AcDbEntity
  8
0
  6
Continuous
 62
     7
100
AcDbLine
 10
942.4574718323171
 20
364.2465513378887
 30
3.646124999999996
 11
942.4574718323171
 21
368.1251045561282
 31
3.646124999999996
  0
LINE
  5
5B7EA
330
458D6
100
AcDbEntity
  8
0
  6
Continuous
 62
     7
100
AcDbLine
 10
944.7434718323179
 20
367.6171045561287
 30
3.646124999999996
 11
944.7434718323179
 21
366.6766510225047
 31
3.646124999999996
  0
LINE
  5
5B7EB
330
458D6
100
AcDbEntity
  8
0
  6
Continuous
 62
     7
100
AcDbLine
 10
944.9974718323176
 20
442.6997767653882
 30
3.646124999999996
 11
944.9974718323176
 21
353.2081512328683
 31
3.646124999999996
  0
LINE
  5
5B7EC
330
458D6
100
AcDbEntity
  8
0
  6
Continuous
 62
     7
100
AcDbLine
 10
955.4280718321374
 20
422.960263999129
 30
3.646124999999996
 11
950.5004718321384
 21
422.960263999129
 31
3.646124999999996
  0
LWPOLYLINE
  5
5B7ED
330
458D6
100
AcDbEntity
  8
0
  6
Continuous
 62
     7
100
AcDbPolyline
 90
        4
 70
     0
 43
0.0
 38
3.646124999999983
 10
950.1702718321398
 20
374.7946345825489
 10
950.2080621553364
 20
374.5074983800891
 10
950.3249418987184
 20
374.2187179695879
 10
950.5004718321401
 20
373.9833377012105
  0
LINE
  5
5B7EE
330
458D6
100
AcDbEntity
  8
0
  6
Continuous
 62
     7
100
AcDbLine
 10
947.9184718323178
 20
426.5289639940489
 30
3.646124999999996
 11
947.9184718323178
 21
389.4829079237487
 31
3.646124999999996
  0
LINE
  5
5B7EF
330
458D6
100
AcDbEntity
  8
0
  6
Continuous
 62
     7
100
AcDbLine
 10
947.9184718323178
 20
389.4829079237487
 30
3.646124999999996
 11
947.9184718323178
 21
369.3789640042091
 31
3.646124999999996
  0
LINE
  5
5B7F0
330
458D6
100
AcDbEntity
  8
0
  6
Continuous
 62
     7
100
AcDbLine
 10
948.1724718323178
 20
426.2747370780684
 30
3.646124999999996
 11
948.1724718323178
 21
389.4829079237487
 31
3.646124999999996
  0
LINE
  5
5B7F1
330
458D6
100
AcDbEntity
  8
0
  6
Continuous
 62
     7
100
AcDbLine
 10
948.1724718323178
 20
389.4829079237487
 30
3.646124999999996
 11
948.1724718323178
 21
369.6331909227293
 31
3.646124999999996
  0
LINE
  5
5B7F2
330
458D6
100
AcDbEntity
  8
0
  6
Continuous
 62
     7
100
AcDbLine
 10
948.5700718321377
 20
384.3505991612092
 30
3.646124999999996
 11
948.5700718321377
 21
383.8508039504895
 31
3.646124999999996
  0
LINE
  5
5B7F3
330
458D6
100
AcDbEntity
  8
0
  6
Continuous
 62
     7
100
AcDbLine
 10
949.5606718321376
 20
381.9521146668496
 30
3.646124999999996
 11
949.5606718321376
 21
389.4829079237487
 31
3.646124999999996
  0
LINE
  5
5B7F4
330
458D6
100
AcDbEntity
  8
0
  6
Continuous
 62
     7
100
AcDbLine
 10
949.865471832139
 20
373.5828621877085
 30
3.646124999999996
 11
949.865471832139
 21
389.4829079237487
 31
3.646124999999996
  0
LINE
  5
5B7F5
330
458D6
100
AcDbEntity
  8
0
  6
Continuous
 62
     7
100
AcDbLine
 10
949.865471832139
 20
389.4829079237487
 30
3.646124999999996
 11
949.865471832139
 21
422.3250748377082
 31
3.646124999999996
  0
LINE
  5
5B7F6
330
458D6
100
AcDbEntity
  8
0
  6
Continuous
 62
     7
100
AcDbLine
 10
950.5004718321384
 20
422.960263999129
 30
3.646124999999996
 11
950.5004718321384
 21
389.4829079237487
 31
3.646124999999996
  0
LINE
  5
5B7F7
330
458D6
100
AcDbEntity
  8
0
  6
Continuous
 62
     7
100
AcDbLine
 10
950.5004718321384
 20
389.4829079237487
 30
3.646124999999996
 11
950.5004718321384
 21
375.6103684806691
 31
3.646124999999996
  0
LINE
  5
5B7F8
330
458D6
100
AcDbEntity
  8
0
  6
Continuous
 62
     7
100
AcDbLine
 10
950.5004718321384
 20
373.9833377012095
 30
3.646124999999996
 11
950.5004718321384
 21
372.9476639991291
 31
3.646124999999996
  0
LWPOLYLINE
  5
5B7F9
330
458D6
100
AcDbEntity
  8
0
  6
Continuous
 62
     7
100
AcDbPolyline
 90
        5
 70
     0
 43
0.0
 38
3.646124999999983
 10
944.9974718323177
 20
368.6883351365481
 10
944.9839463754983
 20
368.5683746297086
 10
944.9402420280607
 20
368.4528484472498
 10
944.8619500865975
 20
368.3590590158287
 10
944.7434718323206
 20
368.3161489517893
  0
LINE
  5
5B7FA
330
458D6
100
AcDbEntity
  8
0
  6
Continuous
 62
     7
100
AcDbLine
 10
944.9974718323176
 20
426.5289639991283
 30
3.646124999999996
 11
947.9184718323178
 21
426.5289639991283
 31
3.646124999999996
  0
LWPOLYLINE
  5
5B7FB
330
458D6
100
AcDbEntity
  8
0
  6
Continuous
 62
     7
100
AcDbPolyline
 90
        4
 70
     0
 43
0.0
 38
3.646124999999983
 10
955.7582718321397
 20
374.7946345825489
 10
955.7157277287592
 20
375.0902879892087
 10
955.6038955826011
 20
375.35203605601
 10
955.4280718321392
 20
375.6103684806689
  0
LWPOLYLINE
  5
5B7FC
330
458D6
100
AcDbEntity
  8
0
  6
Continuous
 62
     7
100
AcDbPolyline
 90
        5
 70
     0
 43
0.0
 38
3.646124999999983
 10
942.4574718323169
 20
368.1251045561289
 10
942.4768971985981
 20
368.19825808013
 10
942.5319557981607
 20
368.2601547356093
 10
942.6142331469387
 20
368.3015590978097
 10
942.7114718323178
 20
368.3161489517893
  0
LINE
  5
5B7FD
330
458D6
100
AcDbEntity
  8
0
  6
Continuous
 62
     7
100
AcDbLine
 10
955.4280718321374
 20
372.9476639991291
 30
3.646124999999996
 11
955.4280718321374
 21
373.9833377012095
 31
3.646124999999996
  0
LINE
  5
5B7FE
330
458D6
100
AcDbEntity
  8
0
  6
Continuous
 62
     7
100
AcDbLine
 10
955.4280718321374
 20
375.6103684806691
 30
3.646124999999996
 11
955.4280718321374
 21
389.4829079237487
 31
3.646124999999996
  0
LINE
  5
5B7FF
330
458D6
100
AcDbEntity
  8
0
  6
Continuous
 62
     7
100
AcDbLine
 10
955.4280718321374
 20
389.4829079237487
 30
3.646124999999996
 11
955.4280718321374
 21
422.960263999129
 31
3.646124999999996
  0
LINE
  5
5B800
330
458D6
100
AcDbEntity
  8
0
  6
Continuous
 62
     7
100
AcDbLine
 10
956.0630718321368
 20
422.3250746218091
 30
3.646124999999996
 11
956.0630718321368
 21
389.4829079237487
 31
3.646124999999996
  0
LINE
  5
5B801
330
458D6
100
AcDbEntity
  8
0
  6
Continuous
 62
     7
100
AcDbLine
 10
956.0630718321368
 20
389.4829079237487
 30
3.646124999999996
 11
956.0630718321368
 21
373.5830433430483
 31
3.646124999999996
  0
LINE
  5
5B802
330
458D6
100
AcDbEntity
  8
0
  6
Continuous
 62
     7
100
AcDbLine
 10
957.0536718321394
 20
389.4829079237487
 30
3.646124999999996
 11
957.0536718321394
 21
384.6257368202287
 31
3.646124999999996
  0
LINE
  5
5B803
330
458D6
100
AcDbEntity
  8
0
  6
Continuous
 62
     7
100
AcDbLine
 10
957.0536718321394
 20
384.1259416095091
 30
3.646124999999996
 11
957.0536718321394
 21
382.2694639991295
 31
3.646124999999996
  0
LINE
  5
5B804
330
458D6
100
AcDbEntity
  8
0
  6
Continuous
 62
     7
100
AcDbLine
 10
957.561671832139
 20
389.4829079237487
 30
3.646124999999996
 11
957.561671832139
 21
382.5627703238684
 31
3.646124999999996
  0
LWPOLYLINE
  5
5B805
330
458D6
100
AcDbEntity
  8
0
  6
Continuous
 62
     7
100
AcDbPolyline
 90
        3
 70
     0
 43
0.0
 38
3.646124999999983
 10
938.5712718323198
 20
438.4198853531284
 10
937.0018834877377
 20
438.2084829819282
 10
935.3962718323204
 20
438.1373053163092
  0
LWPOLYLINE
  5
5B806
330
458D6
100
AcDbEntity
  8
0
  6
Continuous
 62
     7
100
AcDbPolyline
 90
        9
 70
     0
 43
0.0
 38
3.646124999999983
 10
904.6112718301779
 20
438.1483766810084
 10
904.1779184576194
 20
438.185119269448
 10
903.7378050325392
 20
438.2057220273286
 10
903.3104402128996
 20
438.2091410781481
 10
902.9160089367401
 20
438.1945058191281
 10
902.5767617818569
 20
438.1612813999286
 10
902.311244042638
 20
438.1089245297894
 10
902.1355155599598
 20
438.0353720759298
 10
902.0712718301806
 20
437.9379469520094
  0
LINE
  5
5B807
330
458D6
100
AcDbEntity
  8
0
  6
Continuous
 62
     7
100
AcDbLine
 10
957.0536718321394
 20
384.6257368202287
 30
3.646124999999996
 11
957.561671832139
 21
384.8799031318091
 31
3.646124999999996
  0
LINE
  5
5B808
330
458D6
100
AcDbEntity
  8
0
  6
Continuous
 62
     7
100
AcDbLine
 10
935.3962718323195
 20
438.1373053163091
 30
3.646124999999996
 11
905.2462718301793
 21
438.1373053163091
 31
3.646124999999996
  0
LWPOLYLINE
  5
5B809
330
458D6
100
AcDbEntity
  8
0
  6
Continuous
 62
     7
100
AcDbPolyline
 90
        3
 70
     0
 43
0.0
 38
3.646124999999983
 10
905.2462718301798
 20
438.1373053163092
 10
904.9287593917984
 20
438.1400719198695
 10
904.6112718301779
 20
438.1483766810084
  0
LWPOLYLINE
  5
5B80A
330
458D6
100
AcDbEntity
  8
0
  6
Continuous
 62
     7
100
AcDbPolyline
 90
        4
 70
     0
 43
0.0
 38
3.646124999999983
 10
950.5004718321401
 20
375.6103684806689
 10
950.3246041345997
 20
375.3519575903296
 10
950.2127903272381
 20
375.0902004455688
 10
950.1702718321398
 20
374.7946345825489
  0
LWPOLYLINE
  5
5B80B
330
458D6
100
AcDbEntity
  8
0
  6
Continuous
 62
     7
100
AcDbPolyline
 90
       13
 70
     0
 43
0.0
 38
3.646124999999983
 10
950.5004718321401
 20
375.6103684806689
 10
950.795000115319
 20
375.9129544058482
 10
951.1575509650215
 20
376.1706719574681
 10
951.5763662818176
 20
376.3779753427093
 10
952.0257886011609
 20
376.5254320607505
 10
952.4937912846585
 20
376.6133084153493
 10
952.9646189358395
 20
376.6420328816489
 10
953.4358261011188
 20
376.6131762997897
 10
953.9038133439575
 20
376.5251616523487
 10
954.3532714417382
 20
376.3775303829693
 10
954.7718558446
 20
376.1701584024881
 10
955.1336933860989
 20
375.9128270273881
 10
955.4280718321392
 20
375.6103684806689
  0
LINE
  5
5B80C
330
458D6
100
AcDbEntity
  8
0
  6
Continuous
 62
     7
100
AcDbLine
 10
957.561671832139
 20
382.5627579362886
 30
3.646124999999996
 11
957.0536718321394
 21
382.2694639991295
 31
3.646124999999996
  0
LINE
  5
5B80D
330
458D6
100
AcDbEntity
  8
0
  6
Continuous
 62
     7
100
AcDbLine
 10
957.0536718321394
 20
384.1259416095091
 30
3.646124999999996
 11
957.561671832139
 21
384.3801079210895
 31
3.646124999999996
  0
LWPOLYLINE
  5
5B80E
330
458D6
100
AcDbEntity
  8
0
  6
Continuous
 62
     7
100
AcDbPolyline
 90
        9
 70
     0
 43
0.0
 38
3.646124999999983
 10
905.0020410613401
 20
442.6858792696889
 10
904.5027629336587
 20
442.6638165782292
 10
903.9948926463807
 20
442.4875293336494
 10
903.5014601102599
 20
442.1442559003094
 10
903.0461617625373
 20
441.6274349400496
 10
902.6546786923177
 20
440.9421320104279
 10
902.3482633386779
 20
440.0971630374292
 10
902.1454387582966
 20
439.0932544102501
 10
902.0712718301806
 20
437.9379475895489
  0
LINE
  5
5B80F
330
458D6
100
AcDbEntity
  8
0
  6
Continuous
 62
     7
100
AcDbLine
 10
935.3962718323195
 20
442.6735580700485
 30
3.646124999999996
 11
905.2462718301793
 21
442.6735580700485
 31
3.646124999999996
  0
LINE
  5
5B810
330
458D6
100
AcDbEntity
  8
0
  6
Continuous
 62
     7
100
AcDbLine
 10
944.7434718323179
 20
442.9539639989491
 30
3.646124999999996
 11
938.9014718323174
 21
442.9539639989491
 31
3.646124999999996
  0
LWPOLYLINE
  5
5B811
330
458D6
100
AcDbEntity
  8
0
  6
Continuous
 62
     7
100
AcDbPolyline
 90
        3
 70
     0
 43
0.0
 38
3.646124999999983
 10
905.2462718301798
 20
442.6735580700492
 10
905.1241936974006
 20
442.6766348914293
 10
905.0020410613401
 20
442.6858792696889
  0
LWPOLYLINE
  5
5B812
330
458D6
100
AcDbEntity
  8
0
  6
Continuous
 62
     7
100
AcDbPolyline
 90
        4
 70
     0
 43
0.0
 38
3.646124999999983
 10
955.4280718321392
 20
373.9833377012105
 10
955.6036705462179
 20
374.2188401893085
 10
955.7205169495578
 20
374.5076335842891
 10
955.7582718321397
 20
374.7946345825489
  0
LWPOLYLINE
  5
5B813
330
458D6
100
AcDbEntity
  8
0
  6
Continuous
 62
     7
100
AcDbPolyline
 90
        7
 70
     0
 43
0.0
 38
3.646124999999983
 10
953.9935391208169
 20
376.4956898723298
 10
953.765571832279
 20
376.3267355696493
 10
953.3796340671983
 20
376.1723318195286
 10
952.9654718322786
 20
376.119667576369
 10
952.5513095948195
 20
376.1723318195286
 10
952.1653718322781
 20
376.3267355696493
 10
951.9367095311578
 20
376.4962049690889
  0
LWPOLYLINE
  5
5B814
330
458D6
100
AcDbEntity
  8
0
  6
Continuous
 62
     7
100
AcDbPolyline
 90
       18
 70
     0
 43
0.0
 38
3.646124999999983
 10
955.4280718321392
 20
373.9833377012105
 10
955.2158774787789
 20
373.804410896249
 10
954.9756897092198
 20
373.6602515681092
 10
954.7126494580593
 20
373.5446189977496
 10
954.4320578805567
 20
373.4537669340893
 10
954.1389390433801
 20
373.3846655508291
 10
953.827870473237
 20
373.3332956281697
 10
953.4971948226781
 20
373.2985178440299
 10
953.1561767696407
 20
373.2807545089686
 10
952.8115945251014
 20
373.2797996569293
 10
952.4656021563792
 20
373.2959429774487
 10
952.1279648026979
 20
373.3297049901898
 10
951.8105868573188
 20
373.3805495570281
 10
951.5116461623369
 20
373.4496116083896
 10
951.2256353297384
 20
373.5409701404291
 10
950.9584109416577
 20
373.65741859943
 10
950.7150228914802
 20
373.8027516920496
 10
950.5004718321401
 20
373.9833377012105
  0
LWPOLYLINE
  5
5B815
330
458D6
100
AcDbEntity
  8
0
  6
Continuous
 62
     7
100
AcDbPolyline
 90
        5
 70
     0
 43
0.0
 38
3.646124999999983
 10
944.9974718323177
 20
364.0915313228101
 10
944.9839463754983
 20
364.0871980624901
 10
944.9402420280607
 20
364.0831362011699
 10
944.8619500865975
 20
364.0799186460094
 10
944.7434718323206
 20
364.0784704370685
  0
LINE
  5
5B816
330
458D6
100
AcDbEntity
  8
0
  6
Continuous
 62
     7
100
AcDbLine
 10
902.0712718301794
 20
463.4859639991293
 30
3.646124999999996
 11
938.5712718323196
 21
463.4859639991293
 31
3.646124999999996
  0
ARC
  5
5B817
330
458D6
100
AcDbEntity
  8
0
  6
Continuous
 62
     7
100
AcDbCircle
 10
1141.939216572872
 20
397.9539639991283
 30
3.646124999999996
 40
44.958
100
AcDbArc
 50
155.2552912597014
 51
184.8284760035994
  0
ARC
  5
5B818
330
458D6
100
AcDbEntity
  8
0
  6
Continuous
 62
     7
100
AcDbCircle
 10
1141.939216572872
 20
397.9539639991283
 30
3.646124999999996
 40
17.79424937713999
100
AcDbArc
 50
280.9924460503972
 51
289.0346502932982
  0
ARC
  5
5B819
330
458D6
100
AcDbEntity
  8
0
  6
Continuous
 62
     7
100
AcDbCircle
 10
1141.939216572872
 20
397.9539639991283
 30
3.646124999999996
 40
17.79424937713999
100
AcDbArc
 50
100.9924460503972
 51
109.0346502932982
  0
ARC
  5
5B81A
330
458D6
100
AcDbEntity
  8
0
  6
Continuous
 62
     7
100
AcDbCircle
 10
1141.939216572872
 20
397.9539639991283
 30
3.646124999999996
 40
17.50059999999999
100
AcDbArc
 50
280.9342924780973
 51
289.0928032320971
  0
ARC
  5
5B81B
330
458D6
100
AcDbEntity
  8
0
  6
Continuous
 62
     7
100
AcDbCircle
 10
1141.939216572872
 20
397.9539639991283
 30
3.646124999999996
 40
17.50059999999999
100
AcDbArc
 50
100.9342924780973
 51
109.0928032320971
  0
ARC
  5
5B81C
330
458D6
100
AcDbEntity
  8
0
  6
Continuous
 62
     7
100
AcDbCircle
 10
1141.939216572872
 20
397.9539639991283
 30
3.646124999999996
 40
15.6845
100
AcDbArc
 50
286.8403669561995
 51
328.1867287539024
  0
ARC
  5
5B81D
330
458D6
100
AcDbEntity
  8
0
  6
Continuous
 62
     7
100
AcDbCircle
 10
1141.939216572872
 20
397.9539639991283
 30
3.646124999999996
 40
15.6845
100
AcDbArc
 50
241.8403669561979
 51
283.1867287539022
  0
ARC
  5
5B81E
330
458D6
100
AcDbEntity
  8
0
  6
Continuous
 62
     7
100
AcDbCircle
 10
1141.939216572872
 20
397.9539639991283
 30
3.646124999999996
 40
15.6845
100
AcDbArc
 50
196.8403669561986
 51
238.1867287539007
  0
ARC
  5
5B81F
330
458D6
100
AcDbEntity
  8
0
  6
Continuous
 62
     7
100
AcDbCircle
 10
1141.939216572872
 20
397.9539639991283
 30
3.646124999999996
 40
15.6845
100
AcDbArc
 50
151.8403669562008
 51
193.1867287538984
  0
ARC
  5
5B820
330
458D6
100
AcDbEntity
  8
0
  6
Continuous
 62
     7
100
AcDbCircle
 10
1141.939216572872
 20
397.9539639991283
 30
3.646124999999996
 40
15.6845
100
AcDbArc
 50
106.8403669561995
 51
148.1867287539024
  0
ARC
  5
5B821
330
458D6
100
AcDbEntity
  8
0
  6
Continuous
 62
     7
100
AcDbCircle
 10
1141.939216572872
 20
397.9539639991283
 30
3.646124999999996
 40
15.6845
100
AcDbArc
 50
331.8403669562009
 51
13.18672875389837
  0
ARC
  5
5B822
330
458D6
100
AcDbEntity
  8
0
  6
Continuous
 62
     7
100
AcDbCircle
 10
1141.939216572872
 20
397.9539639991283
 30
3.646124999999996
 40
15.6845
100
AcDbArc
 50
16.84036695619862
 51
58.1867287539007
  0
ARC
  5
5B823
330
458D6
100
AcDbEntity
  8
0
  6
Continuous
 62
     7
100
AcDbCircle
 10
1141.939216572872
 20
397.9539639991283
 30
3.646124999999996
 40
15.6845
100
AcDbArc
 50
61.84036695619801
 51
103.1867287539022
  0
ARC
  5
5B824
330
458D6
100
AcDbEntity
  8
0
  6
Continuous
 62
     7
100
AcDbCircle
 10
1141.939216572872
 20
397.9539639991283
 30
3.646124999999996
 40
16.002
100
AcDbArc
 50
280.5297278551994
 51
289.4974220185991
  0
ARC
  5
5B825
330
458D6
100
AcDbEntity
  8
0
  6
Continuous
 62
     7
100
AcDbCircle
 10
1141.939216572872
 20
397.9539639991283
 30
3.646124999999996
 40
16.002
100
AcDbArc
 50
100.5297951568026
 51
109.497300553299
  0
ARC
  5
5B826
330
458D6
100
AcDbEntity
  8
0
  6
Continuous
 62
     7
100
AcDbCircle
 10
1141.939216572872
 20
397.9539639991283
 30
3.646124999999996
 40
15.39120606283999
100
AcDbArc
 50
16.87519085669963
 51
58.15190485340027
  0
ARC
  5
5B827
330
458D6
100
AcDbEntity
  8
0
  6
Continuous
 62
     7
100
AcDbCircle
 10
1141.939216572872
 20
397.9539639991283
 30
3.646124999999996
 40
15.39120606283999
100
AcDbArc
 50
151.8751908566982
 51
193.1519048533999
  0
ARC
  5
5B828
330
458D6
100
AcDbEntity
  8
0
  6
Continuous
 62
     7
100
AcDbCircle
 10
1141.939216572872
 20
397.9539639991283
 30
3.646124999999996
 40
15.39120606283999
100
AcDbArc
 50
241.8751908566997
 51
283.1519048533999
  0
ARC
  5
5B829
330
458D6
100
AcDbEntity
  8
0
  6
Continuous
 62
     7
100
AcDbCircle
 10
1141.939216572872
 20
397.9539639991283
 30
3.646124999999996
 40
15.39120606283999
100
AcDbArc
 50
61.87519085669974
 51
103.1519048533999
  0
ARC
  5
5B82A
330
458D6
100
AcDbEntity
  8
0
  6
Continuous
 62
     7
100
AcDbCircle
 10
1141.939216572872
 20
397.9539639991283
 30
3.646124999999996
 40
15.39120606283999
100
AcDbArc
 50
106.8751908567027
 51
148.1519048534002
  0
ARC
  5
5B82B
330
458D6
100
AcDbEntity
  8
0
  6
Continuous
 62
     7
100
AcDbCircle
 10
1141.939216572872
 20
397.9539639991283
 30
3.646124999999996
 40
15.39120606283999
100
AcDbArc
 50
286.8751908567027
 51
328.1519048534002
  0
ARC
  5
5B82C
330
458D6
100
AcDbEntity
  8
0
  6
Continuous
 62
     7
100
AcDbCircle
 10
1141.939216572872
 20
397.9539639991283
 30
3.646124999999996
 40
15.39120606283999
100
AcDbArc
 50
196.8751908566996
 51
238.1519048534002
  0
ARC
  5
5B82D
330
458D6
100
AcDbEntity
  8
0
  6
Continuous
 62
     7
100
AcDbCircle
 10
1141.939216572872
 20
397.9539639991283
 30
3.646124999999996
 40
15.39120606283999
100
AcDbArc
 50
331.8751908566982
 51
13.15190485339995
  0
ARC
  5
5B82E
330
458D6
100
AcDbEntity
  8
0
  6
Continuous
 62
     7
100
AcDbCircle
 10
1141.939216572872
 20
397.9539639991283
 30
3.646124999999996
 40
15.64639999999999
100
AcDbArc
 50
328.1902557459006
 51
331.8307586772007
  0
ARC
  5
5B82F
330
458D6
100
AcDbEntity
  8
0
  6
Continuous
 62
     7
100
AcDbCircle
 10
1141.939216572872
 20
397.9539639991283
 30
3.646124999999996
 40
15.64639999999999
100
AcDbArc
 50
13.17666234969977
 51
16.8369636778008
  0
ARC
  5
5B830
330
458D6
100
AcDbEntity
  8
0
  6
Continuous
 62
     7
100
AcDbCircle
 10
1141.939216572872
 20
397.9539639991283
 30
3.646124999999996
 40
15.64639999999999
100
AcDbArc
 50
58.22509715720232
 51
61.81860602270304
  0
ARC
  5
5B831
330
458D6
100
AcDbEntity
  8
0
  6
Continuous
 62
     7
100
AcDbCircle
 10
1141.939216572872
 20
397.9539639991283
 30
3.646124999999996
 40
15.64639999999999
100
AcDbArc
 50
148.1808442789996
 51
151.8026269175002
  0
ARC
  5
5B832
330
458D6
100
AcDbEntity
  8
0
  6
Continuous
 62
     7
100
AcDbCircle
 10
1141.939216572872
 20
397.9539639991283
 30
3.646124999999996
 40
15.64639999999999
100
AcDbArc
 50
193.1900292610985
 51
196.8504118146005
  0
ARC
  5
5B833
330
458D6
100
AcDbEntity
  8
0
  6
Continuous
 62
     7
100
AcDbCircle
 10
1141.939216572872
 20
397.9539639991283
 30
3.646124999999996
 40
15.64639999999999
100
AcDbArc
 50
238.1963157951005
 51
241.8368036816984
  0
ARC
  5
5B834
330
458D6
100
AcDbEntity
  8
0
  6
Continuous
 62
     7
100
AcDbCircle
 10
1141.939216572872
 20
397.9539639991283
 30
3.646124999999996
 40
25.0063
100
AcDbArc
 50
253.4524076932989
 51
282.1606747117971
  0
ARC
  5
5B835
330
458D6
100
AcDbEntity
  8
0
  6
Continuous
 62
     7
100
AcDbCircle
 10
1136.76091014769
 20
417.2614041878295
 30
3.646124999999996
 40
1.9939
100
AcDbArc
 50
323.637321766798
 51
246.3897739433003
  0
ARC
  5
5B836
330
458D6
100
AcDbEntity
  8
0
  6
Continuous
 62
     7
100
AcDbCircle
 10
1141.939216572872
 20
397.9539639991283
 30
3.646124999999996
 40
25.0063
100
AcDbArc
 50
287.8664209983997
 51
243.3187850034992
  0
ARC
  5
5B837
330
458D6
100
AcDbEntity
  8
0
  6
Continuous
 62
     7
100
AcDbCircle
 10
1141.939216572872
 20
397.9539639991283
 30
3.646124999999996
 40
16.28139999999999
100
AcDbArc
 50
289.3976893448003
 51
100.6294063653015
  0
ARC
  5
5B838
330
458D6
100
AcDbEntity
  8
0
  6
Continuous
 62
     7
100
AcDbCircle
 10
1141.939216572872
 20
397.9539639991283
 30
3.646124999999996
 40
16.28139999999999
100
AcDbArc
 50
109.3976893448003
 51
280.6294063653016
  0
ARC
  5
5B839
330
458D6
100
AcDbEntity
  8
0
  6
Continuous
 62
     7
100
AcDbCircle
 10
1141.939216572872
 20
397.9539639991283
 30
3.646124999999996
 40
24.37129999999999
100
AcDbArc
 50
287.9408172026985
 51
282.0862785074026
  0
CIRCLE
  5
5B83A
330
458D6
100
AcDbEntity
  8
0
  6
Continuous
 62
     7
100
AcDbCircle
 10
1103.839217639672
 20
397.9449550763291
 30
3.646124999999996
 40
2.019299999999999
  0
CIRCLE
  5
5B83B
330
458D6
100
AcDbEntity
  8
0
  6
Continuous
 62
     7
100
AcDbCircle
 10
1160.98141408403
 20
430.9540354232896
 30
3.646124999999996
 40
2.019299999999999
  0
CIRCLE
  5
5B83C
330
458D6
100
AcDbEntity
  8
0
  6
Continuous
 62
     7
100
AcDbCircle
 10
1160.997017997451
 20
364.9629015003087
 30
3.646124999999996
 40
2.019299999999999
  0
CIRCLE
  5
5B83D
330
458D6
100
AcDbEntity
  8
0
  6
Continuous
 62
     7
100
AcDbCircle
 10
1141.939216572872
 20
397.9539639991283
 30
3.646124999999996
 40
28.57499999999999
  0
ARC
  5
5B83E
330
458D6
100
AcDbEntity
  8
0
  6
Continuous
 62
     7
100
AcDbCircle
 10
1141.939216572872
 20
397.9539639991283
 30
3.646124999999996
 40
44.99999999982
100
AcDbArc
 50
173.1875434432999
 51
175.6884737703008
  0
ARC
  5
5B83F
330
458D6
100
AcDbEntity
  8
0
  6
Continuous
 62
     7
100
AcDbCircle
 10
1111.93933443153
 20
367.9398912765695
 30
3.646124999999996
 40
2.997199999999999
100
AcDbArc
 50
315.0135478551003
 51
135.0135478551003
  0
ARC
  5
5B840
330
458D6
100
AcDbEntity
  8
0
  6
Continuous
 62
     7
100
AcDbCircle
 10
1141.939216572872
 20
397.9539639991283
 30
3.646124999999996
 40
22.5044
100
AcDbArc
 50
281.8286747887978
 51
288.1984209213993
  0
ARC
  5
5B841
330
458D6
100
AcDbEntity
  8
0
  6
Continuous
 62
     7
100
AcDbCircle
 10
1141.939216572872
 20
397.9539639991283
 30
3.646124999999996
 40
18.99919999999999
100
AcDbArc
 50
281.2527614995987
 51
288.7743342104984
  0
ARC
  5
5B842
330
458D6
100
AcDbEntity
  8
0
  6
Continuous
 62
     7
100
AcDbCircle
 10
1141.939216572872
 20
397.9539639991283
 30
3.646124999999996
 40
18.99919999999999
100
AcDbArc
 50
99.97986660630054
 51
110.0472291039028
  0
ARC
  5
5B843
330
458D6
100
AcDbEntity
  8
0
  6
Continuous
 62
     7
100
AcDbCircle
 10
1111.93933443153
 20
367.9398912765695
 30
3.646124999999996
 40
2.743192824499999
100
AcDbArc
 50
315.0135478551003
 51
135.0135478551003
  0
ARC
  5
5B844
330
458D6
100
AcDbEntity
  8
0
  6
Continuous
 62
     7
100
AcDbCircle
 10
1141.939216572872
 20
397.9539639991283
 30
3.646124999999996
 40
44.74599999981999
100
AcDbArc
 50
49.18027414679787
 51
60.35636885283825
  0
ARC
  5
5B845
330
458D6
100
AcDbEntity
  8
0
  6
Continuous
 62
     7
100
AcDbCircle
 10
1141.939216572872
 20
397.9539639991283
 30
3.646124999999996
 40
44.74599999981999
100
AcDbArc
 50
184.9726801805996
 51
220.8468215632997
  0
ARC
  5
5B846
330
458D6
100
AcDbEntity
  8
0
  6
Continuous
 62
     7
100
AcDbCircle
 10
1141.939216572872
 20
397.9539639991283
 30
3.646124999999996
 40
23.5204
100
AcDbArc
 50
281.9704610473026
 51
288.0566346627985
  0
ARC
  5
5B847
330
458D6
100
AcDbEntity
  8
0
  6
Continuous
 62
     7
100
AcDbCircle
 10
1141.939216572872
 20
397.9539639991283
 30
3.646124999999996
 40
44.74599999981999
100
AcDbArc
 50
229.1802741467978
 51
287.5128495813519
  0
CIRCLE
  5
5B848
330
458D6
100
AcDbEntity
  8
0
  6
Continuous
 62
     7
100
AcDbCircle
 10
1141.939216572872
 20
397.9539639991283
 30
3.646124999999996
 40
28.32099985521999
  0
ARC
  5
5B849
330
458D6
100
AcDbEntity
  8
0
  6
Continuous
 62
     7
100
AcDbCircle
 10
1111.93933443153
 20
367.9398912765695
 30
3.646124999999996
 40
3.2511918974
100
AcDbArc
 50
315.0135478551003
 51
135.0135478551003
  0
ARC
  5
5B84A
330
458D6
100
AcDbEntity
  8
0
  6
Continuous
 62
     7
100
AcDbCircle
 10
1164.481716572873
 20
442.6735580700485
 30
3.646124999999996
 40
5.08
100
AcDbArc
 50
180.0
 51
203.7702209831672
  0
ARC
  5
5B84B
330
458D6
100
AcDbEntity
  8
0
  6
Continuous
 62
     7
100
AcDbCircle
 10
1119.396716572871
 20
442.6735580700485
 30
3.646124999999996
 40
5.08
100
AcDbArc
 50
303.8961447630005
 51
359.9999999359011
  0
ARC
  5
5B84C
330
458D6
100
AcDbEntity
  8
0
  6
Continuous
 62
     7
100
AcDbCircle
 10
1141.939216572872
 20
397.9539639991283
 30
3.646124999999996
 40
44.99999999982
100
AcDbArc
 50
177.9451577729995
 51
288.5102876735757
  0
ARC
  5
5B84D
330
458D6
100
AcDbEntity
  8
0
  6
Continuous
 62
     7
100
AcDbCircle
 10
955.4280718321374
 20
373.5826639991285
 30
3.646124999999996
 40
0.635
100
AcDbArc
 50
270.0
 51
0.0
  0
ARC
  5
5B84E
330
458D6
100
AcDbEntity
  8
0
  6
Continuous
 62
     7
100
AcDbCircle
 10
955.4280718321374
 20
422.3252639991295
 30
3.646124999999996
 40
0.635
100
AcDbArc
 50
0.0
 51
90.0
  0
ARC
  5
5B84F
330
458D6
100
AcDbEntity
  8
0
  6
Continuous
 62
     7
100
AcDbCircle
 10
950.5004718321384
 20
373.5826639991285
 30
3.646124999999996
 40
0.635
100
AcDbArc
 50
180.0
 51
270.0
  0
ARC
  5
5B850
330
458D6
100
AcDbEntity
  8
0
  6
Continuous
 62
     7
100
AcDbCircle
 10
950.5004718321384
 20
422.3252639991295
 30
3.646124999999996
 40
0.635
100
AcDbArc
 50
90.0
 51
180.0
  0
ARC
  5
5B851
330
458D6
100
AcDbEntity
  8
0
  6
Continuous
 62
     7
100
AcDbCircle
 10
947.9184718323178
 20
426.2749639991285
 30
3.646124999999996
 40
0.254
100
AcDbArc
 50
0.0
 51
90.0
  0
ARC
  5
5B852
330
458D6
100
AcDbEntity
  8
0
  6
Continuous
 62
     7
100
AcDbCircle
 10
947.9184718323178
 20
369.6329639991295
 30
3.646124999999996
 40
0.254
100
AcDbArc
 50
270.0
 51
0.0
  0
ARC
  5
5B853
330
458D6
100
AcDbEntity
  8
0
  6
Continuous
 62
     7
100
AcDbCircle
 10
944.7434718323179
 20
442.6999639989493
 30
3.646124999999996
 40
0.254
100
AcDbArc
 50
0.0
 51
90.0
  0
ARC
  5
5B854
330
458D6
100
AcDbEntity
  8
0
  6
Continuous
 62
     7
100
AcDbCircle
 10
944.7434718323179
 20
353.2079639993086
 30
3.646124999999996
 40
0.254
100
AcDbArc
 50
270.0
 51
0.0
  0
ARC
  5
5B855
330
458D6
100
AcDbEntity
  8
0
  6
Continuous
 62
     7
100
AcDbCircle
 10
938.9014718323174
 20
442.6237639989483
 30
3.646124999999996
 40
0.3302
100
AcDbArc
 50
90.0
 51
180.0
  0
ARC
  5
5B856
330
458D6
100
AcDbEntity
  8
0
  6
Continuous
 62
     7
100
AcDbCircle
 10
938.9014718323174
 20
353.2841639993083
 30
3.646124999999996
 40
0.3302
100
AcDbArc
 50
202.4994537048986
 51
270.0
  0
ARC
  5
5B857
330
458D6
100
AcDbEntity
  8
0
  6
Continuous
 62
     7
100
AcDbCircle
 10
904.611271830177
 20
355.4939639993094
 30
3.646124999999996
 40
2.54
100
AcDbArc
 50
180.0
 51
270.0
  0
CIRCLE
  5
5B858
330
458D6
100
AcDbEntity
  8
0
  6
Continuous
 62
     7
100
AcDbCircle
 10
1111.93933443153
 20
367.9398912765695
 30
3.646124999999996
 40
2.174592287637019
  0
CIRCLE
  5
5B859
330
458D6
100
AcDbEntity
  8
0
  6
Continuous
 62
     7
100
AcDbCircle
 10
1111.93933443153
 20
367.9398912765695
 30
3.646124999999996
 40
2.013068624645824
  0
LINE
  5
5B85A
330
458D6
100
AcDbEntity
  8
0
  6
Continuous
 62
     7
100
AcDbLine
 10
1110.311195789935
 20
366.7699494407095
 30
3.646124999999996
 11
1113.267449243268
 21
369.3897614157991
 31
3.646124999999996
  0
LINE
  5
5B85B
330
458D6
100
AcDbEntity
  8
0
  6
Continuous
 62
     7
100
AcDbLine
 10
1110.592871294004
 20
366.4668205753447
 30
3.646124999999996
 11
1113.549124747337
 21
369.0866325504344
 31
3.646124999999996
  0
ARC
  5
5B85C
330
458D6
100
AcDbEntity
  8
0
  6
Continuous
 62
     7
100
AcDbCircle
 10
1171.906426249993
 20
427.7753437178687
 30
3.646124999999996
 40
2.174592287637019
100
AcDbArc
 50
329.0228095860384
 51
118.1696368807546
  0
LINE
  5
5B85D
330
458D6
100
AcDbEntity
  8
0
  6
Continuous
 62
     7
100
AcDbLine
 10
1172.198689460324
 20
428.3072491180721
 30
3.646124999999996
 11
1173.234541061728
 21
429.2252138570983
 31
3.646124999999996
  0
LINE
  5
5B85E
330
458D6
100
AcDbEntity
  8
0
  6
Continuous
 62
     7
100
AcDbLine
 10
1172.484135502206
 20
428.0074616780214
 30
3.646124999999996
 11
1173.516216565797
 21
428.9220849917335
 31
3.646124999999996
  0
ARC
  5
5B85F
330
458D6
100
AcDbEntity
  8
0
  6
Continuous
 62
     7
100
AcDbCircle
 10
1171.906426249993
 20
427.7753437178687
 30
3.646124999999996
 40
2.013068624645824
100
AcDbArc
 50
330.2954090288416
 51
116.897037437953
  0
LINE
  5
5B860
330
458D6
100
AcDbEntity
  8
0
  6
Continuous
 62
     7
100
AcDbLine
 10
942.4574718323171
 20
368.1251045561282
 30
3.646124999999996
 11
944.2354718323183
 21
368.1251045561282
 31
3.646124999999996
  0
LINE
  5
5B861
330
458D6
100
AcDbEntity
  8
0
  6
Continuous
 62
     7
100
AcDbLine
 10
944.2354718323183
 20
364.4000265401214
 30
3.646124999999996
 11
942.4574718323171
 21
364.4000265401214
 31
3.646124999999996
  0
ARC
  5
5B862
330
458D6
100
AcDbEntity
  8
0
  6
Continuous
 62
     7
100
AcDbCircle
 10
944.2354718323183
 20
367.6171045561287
 30
3.646124999999996
 40
0.508
100
AcDbArc
 50
0.0
 51
90.0
  0
ARC
  5
5B863
330
458D6
100
AcDbEntity
  8
0
  6
Continuous
 62
     7
100
AcDbCircle
 10
944.2354718323183
 20
364.9080265401223
 30
3.646124999999996
 40
0.508
100
AcDbArc
 50
270.0
 51
0.0
  0
LINE
  5
5B864
330
458D6
100
AcDbEntity
  8
0
  6
Continuous
 62
     7
100
AcDbLine
 10
944.7434718323179
 20
366.6766510225047
 30
3.646124999999996
 11
944.3722656708361
 21
366.6766510225047
 31
3.646124999999996
  0
LINE
  5
5B865
330
458D6
100
AcDbEntity
  8
0
  6
Continuous
 62
     7
100
AcDbLine
 10
944.3722656708361
 20
366.6766510225047
 30
3.646124999999996
 11
944.3722656708361
 21
366.0732081299765
 31
3.646124999999996
  0
LINE
  5
5B866
330
458D6
100
AcDbEntity
  8
0
  6
Continuous
 62
     7
100
AcDbLine
 10
944.3722656708361
 20
366.0732081299765
 30
3.646124999999996
 11
944.7434718323179
 21
366.0732081299765
 31
3.646124999999996
  0
LINE
  5
5B867
330
458D6
100
AcDbEntity
  8
0
  6
Continuous
 62
     7
100
AcDbLine
 10
944.7434718323179
 20
366.0732081299765
 30
3.646124999999996
 11
944.7434718323179
 21
364.9080265401223
 31
3.646124999999996
  0
LINE
  5
5B868
330
458D6
100
AcDbEntity
  8
0
  6
Continuous
 62
     7
100
AcDbLine
 10
937.8344746465295
 20
463.4859639991293
 30
3.646124999999996
 11
902.6300690138251
 21
463.4859639991293
 31
3.646124999999996
  0
LINE
  5
5B869
330
458D6
100
AcDbEntity
  8
0
  6
Continuous
 62
     7
100
AcDbLine
 10
1159.541419389224
 20
463.4859639991293
 30
3.646124999999996
 11
1124.337013756519
 21
463.4859639991293
 31
3.646124999999996
  0
LINE
  5
5B86A
330
458D6
100
AcDbEntity
  8
0
  6
Continuous
 62
     7
100
AcDbLine
 10
1159.541419389224
 20
464.1743041092631
 30
3.646124999999996
 11
1159.541419389224
 21
463.4859639991293
 31
3.646124999999996
  0
LINE
  5
5B86B
330
458D6
100
AcDbEntity
  8
0
  6
Continuous
 62
     7
100
AcDbLine
 10
1124.337013756519
 20
463.4859639991293
 30
3.646124999999996
 11
1124.337013756519
 21
464.1743041092631
 31
3.646124999999996
  0
INSERT
  5
5B86E
330
458D6
100
AcDbEntity
  8
0
  6
Continuous
 62
     7
100
AcDbBlockReference
 66
     1
  2
FAAL037T
 10
1160.997017997451
 20
431.0029015003093
 30
3.646124999999996
 41
25.4
 42
25.4
 43
25.4
  0
ATTRIB
  5
5B86F
330
5B86E
100
AcDbEntity
  8
0
  6
ByBlock
 62
     0
100
AcDbText
 10
1157.028267997451
 20
427.3516515003089
 30
3.646124999999996
 40
0.6350000000000002
  1
FASTENERS
100
AcDbAttribute
  2
AC_VND_LABEL
 70
     1
  0
ATTRIB
  5
5B870
330
5B86E
100
AcDbEntity
  8
0
  6
ByBlock
 62
     0
100
AcDbText
 10
1157.028267997451
 20
428.4855800717369
 30
3.646124999999996
 40
0.6350000000000002
  1

100
AcDbAttribute
  2
AC_PART_NO
 70
     1
  0
ATTRIB
  5
5B871
330
5B86E
100
AcDbEntity
  8
0
  6
ByBlock
 62
     0
100
AcDbText
 10
1157.028267997451
 20
429.6195086431663
 30
3.646124999999996
 40
0.6350000000000002
  1
#10-32 SOCKET CAP SCREW
100
AcDbAttribute
  2
AC_DESCRIPTN
 70
     1
  0
ATTRIB
  5
5B872
330
5B86E
100
AcDbEntity
  8
0
  6
ByBlock
 62
     0
100
AcDbText
 10
1157.028267997451
 20
430.7534372145942
 30
3.646124999999996
 40
0.6350000000000002
  1
IN
100
AcDbAttribute
  2
AC_SCALE_UNT
 70
     1
  0
ATTRIB
  5
5B873
330
5B86E
100
AcDbEntity
  8
0
  6
ByBlock
 62
     0
100
AcDbText
 10
1157.028267997451
 20
431.8873657860236
 30
3.646124999999996
 40
0.6350000000000002
  1
TOP
100
AcDbAttribute
  2
AC_VIEW_CODE
 70
     1
  0
ATTRIB
  5
5B874
330
5B86E
100
AcDbEntity
  8
0
  6
ByBlock
 62
     0
100
AcDbText
 10
1157.028267997451
 20
433.0212943574515
 30
3.646124999999996
 40
0.6350000000000002
  1

100
AcDbAttribute
  2
AC_CPART_NO
 70
     1
  0
ATTRIB
  5
5B875
330
5B86E
100
AcDbEntity
  8
0
  6
ByBlock
 62
     0
100
AcDbText
 10
1157.028267997451
 20
434.1552229288796
 30
3.646124999999996
 40
0.6350000000000002
  1
By Thomas Publishing Company
100
AcDbAttribute
  2
AC_NOTE
 70
     1
  0
SEQEND
  5
5B876
330
5B86E
100
AcDbEntity
  8
0
  0
LINE
  5
5B877
330
458D6
100
AcDbEntity
  8
0
  6
Continuous
 62
     7
100
AcDbLine
 10
957.0536718321394
 20
411.7819863887489
 30
3.646124999999996
 11
957.561671832139
 21
411.5278200771685
 31
3.646124999999996
  0
LINE
  5
5B878
330
458D6
100
AcDbEntity
  8
0
  6
Continuous
 62
     7
100
AcDbLine
 10
957.561671832139
 20
389.4829079237487
 30
3.646124999999996
 11
957.561671832139
 21
413.3451576743881
 31
3.646124999999996
  0
LINE
  5
5B879
330
458D6
100
AcDbEntity
  8
0
  6
Continuous
 62
     7
100
AcDbLine
 10
949.5606718321376
 20
413.9558133314085
 30
3.646124999999996
 11
949.5606718321376
 21
389.4829079237487
 31
3.646124999999996
  0
LINE
  5
5B87A
330
458D6
100
AcDbEntity
  8
0
  6
Continuous
 62
     7
100
AcDbLine
 10
948.5700718321377
 20
411.5573288370488
 30
3.646124999999996
 11
948.5700718321377
 21
412.0571240477685
 31
3.646124999999996
  0
LINE
  5
5B87B
330
458D6
100
AcDbEntity
  8
0
  6
Continuous
 62
     7
100
AcDbLine
 10
948.5700718321377
 20
411.5573288370488
 30
3.646124999999996
 11
949.5606718321376
 21
411.5573288370488
 31
3.646124999999996
  0
LINE
  5
5B87C
330
458D6
100
AcDbEntity
  8
0
  6
Continuous
 62
     7
100
AcDbLine
 10
948.5700718321377
 20
412.0571240477685
 30
3.646124999999996
 11
949.5606718321376
 21
412.0571240477685
 31
3.646124999999996
  0
LINE
  5
5B87D
330
458D6
100
AcDbEntity
  8
0
  6
Continuous
 62
     7
100
AcDbLine
 10
948.1724718323178
 20
413.9559639991281
 30
3.646124999999996
 11
949.5606718321376
 21
413.9559639991281
 31
3.646124999999996
  0
LINE
  5
5B87E
330
458D6
100
AcDbEntity
  8
0
  6
Continuous
 62
     7
100
AcDbLine
 10
957.561671832139
 20
413.3451700619694
 30
3.646124999999996
 11
957.0536718321394
 21
413.6384639991284
 31
3.646124999999996
  0
LINE
  5
5B87F
330
458D6
100
AcDbEntity
  8
0
  6
Continuous
 62
     7
100
AcDbLine
 10
957.0536718321394
 20
411.7819863887489
 30
3.646124999999996
 11
957.0536718321394
 21
413.6384639991284
 31
3.646124999999996
  0
LINE
  5
5B880
330
458D6
100
AcDbEntity
  8
0
  6
Continuous
 62
     7
100
AcDbLine
 10
957.0536718321394
 20
411.7819863887489
 30
3.646124999999996
 11
956.061671832399
 21
411.7819863887489
 31
3.646124999999996
  0
LINE
  5
5B881
330
458D6
100
AcDbEntity
  8
0
  6
Continuous
 62
     7
100
AcDbLine
 10
957.0536718321394
 20
413.6384639991284
 30
3.646124999999996
 11
956.061671832399
 21
413.6384639991284
 31
3.646124999999996
  0
LINE
  5
5B882
330
458D6
100
AcDbEntity
  8
0
  6
Continuous
 62
     7
100
AcDbLine
 10
949.865471832139
 20
409.3560463689088
 30
3.646124999999996
 11
949.5606718321376
 21
409.3560463689088
 31
3.646124999999996
  0
LINE
  5
5B883
330
458D6
100
AcDbEntity
  8
0
  6
Continuous
 62
     7
100
AcDbLine
 10
949.865471832139
 20
409.8558415770888
 30
3.646124999999996
 11
949.5606718321376
 21
409.8558415770888
 31
3.646124999999996
  0
LINE
  5
5B884
330
458D6
100
AcDbEntity
  8
0
  6
Continuous
 62
     7
100
AcDbLine
 10
949.865471832139
 20
411.415963999129
 30
3.646124999999996
 11
949.5606718321376
 21
411.415963999129
 31
3.646124999999996
  0
LINE
  5
5B885
330
458D6
100
AcDbEntity
  8
0
  6
Continuous
 62
     7
100
AcDbLine
 10
957.0536718321394
 20
411.2821911780293
 30
3.646124999999996
 11
957.561671832139
 21
411.0280248664489
 31
3.646124999999996
  0
LINE
  5
5B886
330
458D6
100
AcDbEntity
  8
0
  6
Continuous
 62
     7
100
AcDbLine
 10
957.0536718321394
 20
389.4829079237487
 30
3.646124999999996
 11
957.0536718321394
 21
411.2821911780293
 31
3.646124999999996
  0
LINE
  5
5B887
330
458D6
100
AcDbEntity
  8
0
  6
Continuous
 62
     7
100
AcDbLine
 10
957.0536718321394
 20
411.2821911780293
 30
3.646124999999996
 11
956.061671832399
 21
411.2821911780293
 31
3.646124999999996
  0
LINE
  5
5B888
330
458D6
100
AcDbEntity
  8
0
  6
Continuous
 62
     7
100
AcDbLine
 10
1160.469284108086
 20
355.2819639991295
 30
3.646124999999996
 11
1150.944284108086
 21
355.2819639991295
 31
3.646124999999996
  0
LINE
  5
5B889
330
458D6
100
AcDbEntity
  8
0
  6
Continuous
 62
     7
100
AcDbLine
 10
1160.469284108086
 20
440.6259639991285
 30
3.646124999999996
 11
1150.944284108086
 21
440.6259639991285
 31
3.646124999999996
  0
LINE
  5
5B88A
330
458D6
100
AcDbEntity
  8
0
  6
Continuous
 62
     7
100
AcDbLine
 10
1150.944284108086
 20
440.6259639991285
 30
3.646124999999996
 11
1150.944284108086
 21
425.0897654044279
 31
3.646124999999996
  0
LINE
  5
5B88C
330
458D6
100
AcDbEntity
  8
0
  6
Continuous
 62
     7
100
AcDbLine
 10
1246.194284108086
 20
385.2539639991283
 30
3.646124999999996
 11
1176.915016572871
 21
385.2539639991283
 31
3.646124999999996
  0
LINE
  5
5B88D
330
458D6
100
AcDbEntity
  8
0
  6
Continuous
 62
     7
100
AcDbLine
 10
1246.194284108086
 20
410.6539639991283
 30
3.646124999999996
 11
1176.915016572871
 21
410.6539639991283
 31
3.646124999999996
  0
LINE
  5
5B88E
330
458D6
100
AcDbEntity
  8
0
  6
Continuous
 62
     7
100
AcDbLine
 10
1189.044284108086
 20
410.6539639991283
 30
3.646124999999996
 11
1189.044284108086
 21
385.2539639991283
 31
3.646124999999996
  0
LINE
  5
5B88F
330
458D6
100
AcDbEntity
  8
0
  6
Continuous
 62
     7
100
AcDbLine
 10
1241.431784108086
 20
391.5912639991286
 30
3.646124999999996
 11
1203.331784108086
 21
391.5912639991286
 31
3.646124999999996
  0
LINE
  5
5B890
330
458D6
100
AcDbEntity
  8
0
  6
Continuous
 62
     7
100
AcDbLine
 10
1241.431784108086
 20
404.3166639991294
 30
3.646124999999996
 11
1203.331784108086
 21
404.3166639991294
 31
3.646124999999996
  0
ARC
  5
5B891
330
458D6
100
AcDbEntity
  8
0
  6
Continuous
 62
     7
100
AcDbCircle
 10
1141.99001657287
 20
397.9539639991283
 30
3.646124999999996
 40
28.57499999999999
100
AcDbArc
 50
288.2618485344952
 51
71.73815146550477
  0
LINE
  5
5B892
330
458D6
100
AcDbEntity
  8
0
  6
Continuous
 62
     7
100
AcDbLine
 10
1150.944284108086
 20
370.8181625938301
 30
3.646124999999996
 11
1150.944284108086
 21
355.2819639991295
 31
3.646124999999996
  0
LINE
  5
5B893
330
458D6
100
AcDbEntity
  8
0
  6
Continuous
 62
     7
100
AcDbLine
 10
1176.915016572871
 20
423.3539639991283
 30
3.646124999999996
 11
1176.915016572871
 21
410.6539639991283
 31
3.646124999999996
  0
LINE
  5
5B894
330
458D6
100
AcDbEntity
  8
0
  6
Continuous
 62
     7
100
AcDbLine
 10
1252.544284108086
 20
404.3039639991283
 30
3.646124999999996
 11
1252.544284108086
 21
391.6039639991283
 31
3.646124999999996
  0
LINE
  5
5B895
330
458D6
100
AcDbEntity
  8
0
  6
Continuous
 62
     7
100
AcDbLine
 10
1246.194284108086
 20
410.6539639991283
 30
3.646124999999996
 11
1252.544284108086
 21
404.3039639991283
 31
3.646124999999996
  0
LINE
  5
5B896
330
458D6
100
AcDbEntity
  8
0
  6
Continuous
 62
     7
100
AcDbLine
 10
1252.544284108086
 20
391.6039639991283
 30
3.646124999999996
 11
1246.194284108086
 21
385.2539639991283
 31
3.646124999999996
  0
LINE
  5
5B897
330
458D6
100
AcDbEntity
  8
0
  6
Continuous
 62
     7
100
AcDbLine
 10
1160.469284108086
 20
440.6259639991285
 30
3.646124999999996
 11
1176.915016572871
 21
423.3539639991283
 31
3.646124999999996
  0
LINE
  5
5B898
330
458D6
100
AcDbEntity
  8
0
  6
Continuous
 62
     7
100
AcDbLine
 10
1176.915016572871
 20
372.5539639991283
 30
3.646124999999996
 11
1160.469284108086
 21
355.2819639991295
 31
3.646124999999996
  0
LINE
  5
5B899
330
458D6
100
AcDbEntity
  8
0
  6
Continuous
 62
     7
100
AcDbLine
 10
1176.915016572871
 20
385.2539639991283
 30
3.646124999999996
 11
1176.915016572871
 21
372.5539639991283
 31
3.646124999999996
  0
ARC
  5
5B89A
330
458D6
100
AcDbEntity
  8
0
  6
Continuous
 62
     7
100
AcDbCircle
 10
1241.431784108086
 20
397.9539639991283
 30
3.646124999999996
 40
6.362699999999999
100
AcDbArc
 50
270.0
 51
90.0
  0
ARC
  5
5B89B
330
458D6
100
AcDbEntity
  8
0
  6
Continuous
 62
     7
100
AcDbCircle
 10
1203.331784108086
 20
397.9539639991283
 30
3.646124999999996
 40
6.362699999999999
100
AcDbArc
 50
90.0
 51
270.0
  0
CIRCLE
  5
5B89C
330
458D6
100
AcDbEntity
  8
0
  6
Continuous
 62
     7
100
AcDbCircle
 10
1103.839835739903
 20
397.9160175751485
 30
3.646124999999996
 40
2.768599999999999
  0
CIRCLE
  5
5B89D
330
458D6
100
AcDbEntity
  8
0
  6
Continuous
 62
     7
100
AcDbCircle
 10
1103.839217639672
 20
397.9449550763291
 30
3.646124999999996
 40
2.412999999999999
  0
CIRCLE
  5
5B89E
330
458D6
100
AcDbEntity
  8
0
  6
Continuous
 62
     7
100
AcDbCircle
 10
1103.839217639672
 20
397.9449550763291
 30
3.646124999999996
 40
2.019299999999999
  0
INSERT
  5
5B89F
330
458D6
100
AcDbEntity
  8
0
  6
Continuous
 62
     7
100
AcDbBlockReference
 66
     1
  2
FAAL037T
 10
1160.997636097682
 20
364.9339639991294
 30
3.646124999999996
 41
25.4
 42
25.4
 43
25.4
  0
ATTRIB
  5
5B8A0
330
5B89F
100
AcDbEntity
  8
0
  6
ByBlock
 62
     0
100
AcDbText
 10
1157.028886097682
 20
361.2827139991292
 30
3.646124999999996
 40
0.6350000000000002
  1
FASTENERS
100
AcDbAttribute
  2
AC_VND_LABEL
 70
     1
  0
ATTRIB
  5
5B8A1
330
5B89F
100
AcDbEntity
  8
0
  6
ByBlock
 62
     0
100
AcDbText
 10
1157.028886097682
 20
362.4166425705571
 30
3.646124999999996
 40
0.6350000000000002
  1

100
AcDbAttribute
  2
AC_PART_NO
 70
     1
  0
ATTRIB
  5
5B8A2
330
5B89F
100
AcDbEntity
  8
0
  6
ByBlock
 62
     0
100
AcDbText
 10
1157.028886097682
 20
363.5505711419865
 30
3.646124999999996
 40
0.6350000000000002
  1
#10-32 SOCKET CAP SCREW
100
AcDbAttribute
  2
AC_DESCRIPTN
 70
     1
  0
ATTRIB
  5
5B8A3
330
5B89F
100
AcDbEntity
  8
0
  6
ByBlock
 62
     0
100
AcDbText
 10
1157.028886097682
 20
364.6844997134144
 30
3.646124999999996
 40
0.6350000000000002
  1
IN
100
AcDbAttribute
  2
AC_SCALE_UNT
 70
     1
  0
ATTRIB
  5
5B8A4
330
5B89F
100
AcDbEntity
  8
0
  6
ByBlock
 62
     0
100
AcDbText
 10
1157.028886097682
 20
365.8184282848438
 30
3.646124999999996
 40
0.6350000000000002
  1
TOP
100
AcDbAttribute
  2
AC_VIEW_CODE
 70
     1
  0
ATTRIB
  5
5B8A5
330
5B89F
100
AcDbEntity
  8
0
  6
ByBlock
 62
     0
100
AcDbText
 10
1157.028886097682
 20
366.9523568562718
 30
3.646124999999996
 40
0.6350000000000002
  1

100
AcDbAttribute
  2
AC_CPART_NO
 70
     1
  0
ATTRIB
  5
5B8A6
330
5B89F
100
AcDbEntity
  8
0
  6
ByBlock
 62
     0
100
AcDbText
 10
1157.028886097682
 20
368.0862854276998
 30
3.646124999999996
 40
0.6350000000000002
  1
By Thomas Publishing Company
100
AcDbAttribute
  2
AC_NOTE
 70
     1
  0
SEQEND
  5
5B8A7
330
5B89F
100
AcDbEntity
  8
0
  0
ARC
  5
5B8A8
330
458D6
100
AcDbEntity
  8
0
  6
Continuous
 62
     7
100
AcDbCircle
 10
1141.939216572872
 20
397.9539639991283
 30
3.646124999999996
 40
44.99999999982
100
AcDbArc
 50
298.6011999349349
 51
343.607121250934
  0
ARC
  5
5B8A9
330
458D6
100
AcDbEntity
  8
0
  6
Continuous
 62
     7
100
AcDbCircle
 10
1141.939216572872
 20
397.9539639991283
 30
3.646124999999996
 40
44.74599999981999
100
AcDbArc
 50
299.6436311471617
 51
343.5114186809638
  0
LWPOLYLINE
  5
5B8AA
330
458D6
100
AcDbEntity
  8
0
  6
Continuous
 62
     7
100
AcDbPolyline
 90
        5
 70
     0
 43
0.0
 38
3.646124999999983
 10
1159.023247500092
 20
440.6259639991289
 10
1158.201416055014
 20
441.8387513347893
 10
1157.470739586472
 20
443.2190570120687
 10
1156.831336996853
 20
444.6065421111102
 10
1156.226716572873
 20
445.952539861069
  0
ARC
  5
5B8AB
330
458D6
100
AcDbEntity
  8
0
  6
Continuous
 62
     7
100
AcDbCircle
 10
1141.939216572872
 20
397.9539639991283
 30
3.646124999999996
 40
44.99999999982
100
AcDbArc
 50
71.48971232642427
 51
172.8796075507996
  0
ARC
  5
5B8AC
330
458D6
100
AcDbEntity
  8
0
  6
Continuous
 62
     7
100
AcDbCircle
 10
1141.939216572872
 20
397.9539639991283
 30
3.646124999999996
 40
44.74599999981999
100
AcDbArc
 50
72.48715041864805
 51
155.1862723913976
  0
ARC
  5
5B8AD
330
458D6
100
AcDbEntity
  8
0
  6
Continuous
 62
     7
100
AcDbCircle
 10
1141.939216572872
 20
397.9539639991283
 30
3.646124999999996
 40
44.74599999981999
100
AcDbArc
 50
16.48858131903616
 51
40.84682156329971
  0
ARC
  5
5B8AE
330
458D6
100
AcDbEntity
  8
0
  6
Continuous
 62
     7
100
AcDbCircle
 10
1141.939216572872
 20
397.9539639991283
 30
3.646124999999996
 40
44.99999999982
100
AcDbArc
 50
16.39287874906596
 51
61.3988000650651
  0
ARC
  5
5B8AF
330
458D6
100
AcDbEntity
  8
0
  6
Continuous
 62
     7
100
AcDbCircle
 10
1141.939216572872
 20
397.9539639991283
 30
3.646124999999996
 40
12.7
100
AcDbArc
 50
187.1807557815005
 51
262.8192442185022
  0
ARC
  5
5B8B0
330
458D6
100
AcDbEntity
  8
0
  6
Continuous
 62
     7
100
AcDbCircle
 10
1141.939216572872
 20
397.9539639991283
 30
3.646124999999996
 40
12.7
100
AcDbArc
 50
277.1807557814977
 51
352.8192442185026
  0
ARC
  5
5B8B1
330
458D6
100
AcDbEntity
  8
0
  6
Continuous
 62
     7
100
AcDbCircle
 10
1141.939216572872
 20
397.9539639991283
 30
3.646124999999996
 40
12.7
100
AcDbArc
 50
7.180755781500566
 51
82.81924421850225
  0
ARC
  5
5B8B2
330
458D6
100
AcDbEntity
  8
0
  6
Continuous
 62
     7
100
AcDbCircle
 10
1141.939216572872
 20
397.9539639991283
 30
3.646124999999996
 40
12.7
100
AcDbArc
 50
97.18075578149774
 51
172.8192442184994
  0
ARC
  5
5B8B3
330
458D6
100
AcDbEntity
  8
0
  6
Continuous
 62
     7
100
AcDbCircle
 10
1141.939216572872
 20
397.9539639991283
 30
3.646124999999996
 40
12.7
100
AcDbArc
 50
82.81924421850225
 51
97.18075578149774
  0
CIRCLE
  5
5B8B5
330
458D6
100
AcDbEntity
  8
0
  6
Continuous
 62
     7
100
AcDbCircle
 10
1141.939216572872
 20
397.9539639991283
 30
3.646124999999996
 40
12.7
  0
CIRCLE
  5
5B8B9
330
458D6
100
AcDbEntity
  8
0
  6
Continuous
 62
     7
100
AcDbCircle
 10
1141.939216572872
 20
397.9539639991283
 30
3.646124999999996
 40
7.9375
  0
LINE
  5
5B8BE
330
458D6
100
AcDbEntity
  8
0
  6
Continuous
 62
     7
100
AcDbLine
 10
938.482271831249
 20
463.4859639991293
 30
3.646124999999996
 11
901.9822718291088
 21
463.4859639991293
 31
3.646124999999996
  0
LINE
  5
5B8BF
330
458D6
100
AcDbEntity
  8
0
  6
Continuous
 62
     7
100
AcDbLine
 10
1124.476716572871
 20
463.4859639991293
 30
3.646124999999996
 11
1159.401716572871
 21
463.4859639991293
 31
3.646124999999996
  0
LINE
  5
5B8C7
330
458D6
100
AcDbEntity
  8
0
  6
Continuous
 62
     7
100
AcDbLine
 10
938.4699544301779
 20
465.8481639991284
 30
3.646124999999996
 11
901.9699512301782
 21
465.8481639991284
 31
3.646124999999996
  0
LINE
  5
5B8C8
330
458D6
100
AcDbEntity
  8
0
  6
Continuous
 62
     7
100
AcDbLine
 10
938.4699544301779
 20
464.2733639991295
 30
3.646124999999996
 11
901.9699512301782
 21
464.2733639991295
 31
3.646124999999996
  0
LINE
  5
5B8C9
330
458D6
100
AcDbEntity
  8
0
  6
Continuous
 62
     7
100
AcDbLine
 10
905.5263322301769
 20
468.1104149991284
 30
3.646124999999996
 11
905.8738296301774
 21
468.1104149991284
 31
3.646124999999996
  0
LINE
  5
5B8CA
330
458D6
100
AcDbEntity
  8
0
  6
Continuous
 62
     7
100
AcDbLine
 10
905.4643816301775
 20
467.1091723991282
 30
3.646124999999996
 11
905.6157910301791
 21
466.5294173991293
 31
3.646124999999996
  0
LINE
  5
5B8CB
330
458D6
100
AcDbEntity
  8
0
  6
Continuous
 62
     7
100
AcDbLine
 10
908.0810388301779
 20
467.1091723991282
 30
3.646124999999996
 11
902.9716002301789
 21
467.1091723991282
 31
3.646124999999996
  0
LINE
  5
5B8CC
330
458D6
100
AcDbEntity
  8
0
  6
Continuous
 62
     7
100
AcDbLine
 10
902.6223756301769
 20
466.5294173991293
 30
3.646124999999996
 11
908.4285616301784
 21
466.5294173991293
 31
3.646124999999996
  0
LINE
  5
5B8CD
330
458D6
100
AcDbEntity
  8
0
  6
Continuous
 62
     7
100
AcDbLine
 10
935.5546186301777
 20
463.4859639991293
 30
3.646124999999996
 11
904.9099250301766
 21
463.4859639991293
 31
3.646124999999996
  0
LINE
  5
5B8CE
330
458D6
100
AcDbEntity
  8
0
  6
Continuous
 62
     7
100
AcDbLine
 10
938.4699544301779
 20
463.4859639991293
 30
3.646124999999996
 11
901.9699512301782
 21
463.4859639991293
 31
3.646124999999996
  0
LINE
  5
5B8CF
330
458D6
100
AcDbEntity
  8
0
  6
Continuous
 62
     7
100
AcDbLine
 10
902.9716002301789
 20
467.1091723991282
 30
3.646124999999996
 11
902.9716002301789
 21
467.7474235991295
 31
3.646124999999996
  0
LINE
  5
5B8D0
330
458D6
100
AcDbEntity
  8
0
  6
Continuous
 62
     7
100
AcDbLine
 10
901.9837180301781
 20
465.8481639991284
 30
3.646124999999996
 11
901.9837180301781
 21
464.2733639991295
 31
3.646124999999996
  0
LINE
  5
5B8D1
330
458D6
100
AcDbEntity
  8
0
  6
Continuous
 62
     7
100
AcDbLine
 10
902.9716002301789
 20
467.1091723991282
 30
3.646124999999996
 11
902.9716002301789
 21
466.5294173991293
 31
3.646124999999996
  0
LINE
  5
5B8D2
330
458D6
100
AcDbEntity
  8
0
  6
Continuous
 62
     7
100
AcDbLine
 10
902.6223756301769
 20
465.8481639991284
 30
3.646124999999996
 11
902.6223756301769
 21
466.5294173991293
 31
3.646124999999996
  0
LINE
  5
5B8D3
330
458D6
100
AcDbEntity
  8
0
  6
Continuous
 62
     7
100
AcDbLine
 10
901.9699512301782
 20
463.4859639991293
 30
3.646124999999996
 11
901.9699512301782
 21
464.2733639991295
 31
3.646124999999996
  0
LINE
  5
5B8D4
330
458D6
100
AcDbEntity
  8
0
  6
Continuous
 62
     7
100
AcDbLine
 10
904.9099250301766
 20
463.4859639991293
 30
3.646124999999996
 11
902.4142988301768
 21
463.4859639991293
 31
3.646124999999996
  0
LINE
  5
5B8D5
330
458D6
100
AcDbEntity
  8
0
  6
Continuous
 62
     7
100
AcDbLine
 10
903.4894300301766
 20
468.8673857991289
 30
3.646124999999996
 11
903.6821144301782
 21
469.0050029991294
 31
3.646124999999996
  0
LINE
  5
5B8D6
330
458D6
100
AcDbEntity
  8
0
  6
Continuous
 62
     7
100
AcDbLine
 10
903.1797786301789
 20
468.5026671991286
 30
3.646124999999996
 11
903.3191230301794
 21
468.6970533991287
 31
3.646124999999996
  0
LINE
  5
5B8D7
330
458D6
100
AcDbEntity
  8
0
  6
Continuous
 62
     7
100
AcDbLine
 10
903.0748258301782
 20
468.2910597991287
 30
3.646124999999996
 11
903.1797786301789
 21
468.5026671991286
 31
3.646124999999996
  0
LINE
  5
5B8D8
330
458D6
100
AcDbEntity
  8
0
  6
Continuous
 62
     7
100
AcDbLine
 10
903.3191230301794
 20
468.6970533991287
 30
3.646124999999996
 11
903.4894300301766
 21
468.8673857991289
 31
3.646124999999996
  0
LINE
  5
5B8D9
330
458D6
100
AcDbEntity
  8
0
  6
Continuous
 62
     7
100
AcDbLine
 10
905.1770822301779
 20
469.1994145991294
 30
3.646124999999996
 11
905.1770822301779
 21
468.1104149991284
 31
3.646124999999996
  0
LINE
  5
5B8DA
330
458D6
100
AcDbEntity
  8
0
  6
Continuous
 62
     7
100
AcDbLine
 10
905.1770822301779
 20
468.1104149991284
 30
3.646124999999996
 11
905.5263322301769
 21
468.1104149991284
 31
3.646124999999996
  0
LINE
  5
5B8DB
330
458D6
100
AcDbEntity
  8
0
  6
Continuous
 62
     7
100
AcDbLine
 10
903.8919946301767
 20
469.1082285991287
 30
3.646124999999996
 11
904.1070310301767
 21
469.1718809991282
 31
3.646124999999996
  0
LINE
  5
5B8DC
330
458D6
100
AcDbEntity
  8
0
  6
Continuous
 62
     7
100
AcDbLine
 10
903.6821144301782
 20
469.0050029991294
 30
3.646124999999996
 11
903.8919946301767
 21
469.1082285991287
 31
3.646124999999996
  0
LINE
  5
5B8DD
330
458D6
100
AcDbEntity
  8
0
  6
Continuous
 62
     7
100
AcDbLine
 10
904.4235658301774
 20
469.1994145991294
 30
3.646124999999996
 11
905.1770822301779
 21
469.1994145991294
 31
3.646124999999996
  0
LINE
  5
5B8DE
330
458D6
100
AcDbEntity
  8
0
  6
Continuous
 62
     7
100
AcDbLine
 10
904.1070310301767
 20
469.1718809991282
 30
3.646124999999996
 11
904.4235658301774
 21
469.1994145991294
 31
3.646124999999996
  0
LINE
  5
5B8DF
330
458D6
100
AcDbEntity
  8
0
  6
Continuous
 62
     7
100
AcDbLine
 10
902.9716002301789
 20
467.7474235991295
 30
3.646124999999996
 11
903.0060172301785
 21
468.0725689991287
 31
3.646124999999996
  0
LINE
  5
5B8E0
330
458D6
100
AcDbEntity
  8
0
  6
Continuous
 62
     7
100
AcDbLine
 10
902.9716002301789
 20
467.7474235991295
 30
3.646124999999996
 11
902.9716002301789
 21
467.7474235991295
 31
3.646124999999996
  0
LINE
  5
5B8E1
330
458D6
100
AcDbEntity
  8
0
  6
Continuous
 62
     7
100
AcDbLine
 10
903.0060172301785
 20
468.0725689991287
 30
3.646124999999996
 11
903.0748258301782
 21
468.2910597991287
 31
3.646124999999996
  0
TEXT
  5
5B8E2
330
458D6
100
AcDbEntity
  8
0
  6
Continuous
 62
     7
100
AcDbText
 10
921.5610976958853
 20
474.7784173384693
 30
3.646124999999996
 40
2.032
  1
3
100
AcDbText
  0
LWPOLYLINE
  5
5B8E3
330
458D6
100
AcDbEntity
  8
0
  6
Continuous
 62
     7
100
AcDbPolyline
 90
        4
 70
     1
 43
0.0
 38
3.646124999999983
 10
920.3257026558862
 20
473.6069405271514
 10
923.9018194558852
 20
473.6069405271514
 10
923.9018194558852
 20
467.4993784471512
 10
920.3257026558862
 20
467.4993784471512
  0
LINE
  5
5B8E4
330
458D6
100
AcDbEntity
  8
0
  6
Continuous
 62
     7
100
AcDbLine
 10
909.7300322301785
 20
481.3421639991287
 30
3.646124999999996
 11
930.0500322301772
 21
481.3421639991287
 31
3.646124999999996
  0
LWPOLYLINE
  5
5B8E5
330
458D6
100
AcDbEntity
  8
0
  6
Continuous
 62
     7
100
AcDbPolyline
 90
        4
 70
     1
 43
0.0
 38
3.646124999999983
 10
915.9693384958851
 20
473.6069405271514
 10
919.5454552958841
 20
473.6069405271514
 10
919.5454552958841
 20
467.4993784471512
 10
915.9693384958851
 20
467.4993784471512
  0
LWPOLYLINE
  5
5B8E6
330
458D6
100
AcDbEntity
  8
0
  6
Continuous
 62
     7
100
AcDbPolyline
 90
        4
 70
     1
 43
0.0
 38
3.646124999999983
 10
911.0277786558841
 20
473.6069405271514
 10
914.6039157758828
 20
473.6069405271514
 10
914.6039157758828
 20
467.4993784471512
 10
911.0277786558841
 20
467.4993784471512
  0
LINE
  5
5B8E7
330
458D6
100
AcDbEntity
  8
0
  6
Continuous
 62
     7
100
AcDbLine
 10
909.7300322301785
 20
465.8481639991284
 30
3.646124999999996
 11
909.7300322301785
 21
481.3421639991287
 31
3.646124999999996
  0
LINE
  5
5B8E8
330
458D6
100
AcDbEntity
  8
0
  6
Continuous
 62
     7
100
AcDbLine
 10
908.0810388301779
 20
467.7474235991295
 30
3.646124999999996
 11
908.0810388301779
 21
467.1091723991282
 31
3.646124999999996
  0
LINE
  5
5B8E9
330
458D6
100
AcDbEntity
  8
0
  6
Continuous
 62
     7
100
AcDbLine
 10
908.0810388301779
 20
467.1091723991282
 30
3.646124999999996
 11
908.0810388301779
 21
466.5294173991293
 31
3.646124999999996
  0
LINE
  5
5B8EA
330
458D6
100
AcDbEntity
  8
0
  6
Continuous
 62
     7
100
AcDbLine
 10
908.4285616301784
 20
466.5294173991293
 30
3.646124999999996
 11
908.4285616301784
 21
465.8481639991284
 31
3.646124999999996
  0
LINE
  5
5B8EB
330
458D6
100
AcDbEntity
  8
0
  6
Continuous
 62
     7
100
AcDbLine
 10
905.915130030177
 20
466.5294173991293
 30
3.646124999999996
 11
905.7654478301767
 21
467.1091723991282
 31
3.646124999999996
  0
LINE
  5
5B8EC
330
458D6
100
AcDbEntity
  8
0
  6
Continuous
 62
     7
100
AcDbLine
 10
908.0535052301781
 20
468.0725689991287
 30
3.646124999999996
 11
908.0810388301779
 21
467.7474235991295
 31
3.646124999999996
  0
LINE
  5
5B8ED
330
458D6
100
AcDbEntity
  8
0
  6
Continuous
 62
     7
100
AcDbLine
 10
905.8738296301774
 20
469.1994145991294
 30
3.646124999999996
 11
906.6290732301792
 21
469.1994145991294
 31
3.646124999999996
  0
LINE
  5
5B8EE
330
458D6
100
AcDbEntity
  8
0
  6
Continuous
 62
     7
100
AcDbLine
 10
905.8738296301774
 20
468.1104149991284
 30
3.646124999999996
 11
905.8738296301774
 21
469.1994145991294
 31
3.646124999999996
  0
LINE
  5
5B8EF
330
458D6
100
AcDbEntity
  8
0
  6
Continuous
 62
     7
100
AcDbLine
 10
906.6290732301792
 20
469.1994145991294
 30
3.646124999999996
 11
906.9524914301771
 21
469.1718809991282
 31
3.646124999999996
  0
LINE
  5
5B8F0
330
458D6
100
AcDbEntity
  8
0
  6
Continuous
 62
     7
100
AcDbLine
 10
906.6290732301792
 20
469.1994145991294
 30
3.646124999999996
 11
906.6290732301792
 21
469.1994145991294
 31
3.646124999999996
  0
LINE
  5
5B8F1
330
458D6
100
AcDbEntity
  8
0
  6
Continuous
 62
     7
100
AcDbLine
 10
907.3825896301769
 20
469.0050029991294
 30
3.646124999999996
 11
907.5787030301786
 21
468.8673857991289
 31
3.646124999999996
  0
LINE
  5
5B8F2
330
458D6
100
AcDbEntity
  8
0
  6
Continuous
 62
     7
100
AcDbLine
 10
907.9881510301785
 20
468.2910597991287
 30
3.646124999999996
 11
908.0535052301781
 21
468.0725689991287
 31
3.646124999999996
  0
LINE
  5
5B8F3
330
458D6
100
AcDbEntity
  8
0
  6
Continuous
 62
     7
100
AcDbLine
 10
907.8866272301779
 20
468.5026671991286
 30
3.646124999999996
 11
907.9881510301785
 21
468.2910597991287
 31
3.646124999999996
  0
LINE
  5
5B8F4
330
458D6
100
AcDbEntity
  8
0
  6
Continuous
 62
     7
100
AcDbLine
 10
907.7490100301787
 20
468.6970533991287
 30
3.646124999999996
 11
907.8866272301779
 21
468.5026671991286
 31
3.646124999999996
  0
LINE
  5
5B8F5
330
458D6
100
AcDbEntity
  8
0
  6
Continuous
 62
     7
100
AcDbLine
 10
907.5787030301786
 20
468.8673857991289
 30
3.646124999999996
 11
907.7490100301787
 21
468.6970533991287
 31
3.646124999999996
  0
LINE
  5
5B8F6
330
458D6
100
AcDbEntity
  8
0
  6
Continuous
 62
     7
100
AcDbLine
 10
907.170982230177
 20
469.1082285991287
 30
3.646124999999996
 11
907.3825896301769
 21
469.0050029991294
 31
3.646124999999996
  0
LINE
  5
5B8F7
330
458D6
100
AcDbEntity
  8
0
  6
Continuous
 62
     7
100
AcDbLine
 10
906.9524914301771
 20
469.1718809991282
 30
3.646124999999996
 11
907.170982230177
 21
469.1082285991287
 31
3.646124999999996
  0
TEXT
  5
5B8F8
330
458D6
100
AcDbEntity
  8
0
  6
Continuous
 62
     7
100
AcDbText
 10
912.133125695883
 20
474.7784173384693
 30
3.646124999999996
 40
2.032
  1
1
100
AcDbText
  0
TEXT
  5
5B8F9
330
458D6
100
AcDbEntity
  8
0
  6
Continuous
 62
     7
100
AcDbText
 10
917.1397095358852
 20
474.7784173384693
 30
3.646124999999996
 40
2.032
  1
2
100
AcDbText
  0
LWPOLYLINE
  5
5B8FA
330
458D6
100
AcDbEntity
  8
0
  6
Continuous
 62
     7
100
AcDbPolyline
 90
        4
 70
     1
 43
0.0
 38
3.646124999999983
 10
925.2672624958837
 20
473.6069405271514
 10
928.8433792958862
 20
473.6069405271514
 10
928.8433792958862
 20
467.4993784471512
 10
925.2672624958837
 20
467.4993784471512
  0
LINE
  5
5B8FB
330
458D6
100
AcDbEntity
  8
0
  6
Continuous
 62
     7
100
AcDbLine
 10
930.0500322301772
 20
465.8481639991284
 30
3.646124999999996
 11
930.0500322301772
 21
481.3421639991287
 31
3.646124999999996
  0
LINE
  5
5B8FC
330
458D6
100
AcDbEntity
  8
0
  6
Continuous
 62
     7
100
AcDbLine
 10
932.2030378301789
 20
467.1728247991293
 30
3.646124999999996
 11
932.2030378301789
 21
467.8110759991291
 31
3.646124999999996
  0
LINE
  5
5B8FD
330
458D6
100
AcDbEntity
  8
0
  6
Continuous
 62
     7
100
AcDbLine
 10
937.3124764301781
 20
467.8110759991291
 30
3.646124999999996
 11
937.3124764301781
 21
467.1728247991293
 31
3.646124999999996
  0
LINE
  5
5B8FE
330
458D6
100
AcDbEntity
  8
0
  6
Continuous
 62
     7
100
AcDbLine
 10
935.1465422301773
 20
466.593069799129
 30
3.646124999999996
 11
934.9968854301769
 21
467.1728247991293
 31
3.646124999999996
  0
LINE
  5
5B8FF
330
458D6
100
AcDbEntity
  8
0
  6
Continuous
 62
     7
100
AcDbLine
 10
937.3124764301781
 20
467.1728247991293
 30
3.646124999999996
 11
932.2030378301789
 21
467.1728247991293
 31
3.646124999999996
  0
LINE
  5
5B900
330
458D6
100
AcDbEntity
  8
0
  6
Continuous
 62
     7
100
AcDbLine
 10
931.8538132301771
 20
466.593069799129
 30
3.646124999999996
 11
937.6599738301786
 21
466.593069799129
 31
3.646124999999996
  0
LINE
  5
5B901
330
458D6
100
AcDbEntity
  8
0
  6
Continuous
 62
     7
100
AcDbLine
 10
934.6958192301775
 20
467.1728247991293
 30
3.646124999999996
 11
934.8472032301792
 21
466.593069799129
 31
3.646124999999996
  0
LINE
  5
5B902
330
458D6
100
AcDbEntity
  8
0
  6
Continuous
 62
     7
100
AcDbLine
 10
931.8538132301771
 20
465.8481639991284
 30
3.646124999999996
 11
931.8538132301771
 21
466.593069799129
 31
3.646124999999996
  0
LINE
  5
5B903
330
458D6
100
AcDbEntity
  8
0
  6
Continuous
 62
     7
100
AcDbLine
 10
932.2030378301789
 20
467.1728247991293
 30
3.646124999999996
 11
932.2030378301789
 21
466.593069799129
 31
3.646124999999996
  0
LINE
  5
5B904
330
458D6
100
AcDbEntity
  8
0
  6
Continuous
 62
     7
100
AcDbLine
 10
938.4786609212806
 20
465.8481639991284
 30
3.646124999999996
 11
938.4786609212806
 21
464.2733639991295
 31
3.646124999999996
  0
LINE
  5
5B905
330
458D6
100
AcDbEntity
  8
0
  6
Continuous
 62
     7
100
AcDbLine
 10
937.6599738301786
 20
466.593069799129
 30
3.646124999999996
 11
937.6599738301786
 21
465.8481639991284
 31
3.646124999999996
  0
LINE
  5
5B906
330
458D6
100
AcDbEntity
  8
0
  6
Continuous
 62
     7
100
AcDbLine
 10
937.3124764301781
 20
467.1728247991293
 30
3.646124999999996
 11
937.3124764301781
 21
466.593069799129
 31
3.646124999999996
  0
LINE
  5
5B907
330
458D6
100
AcDbEntity
  8
0
  6
Continuous
 62
     7
100
AcDbLine
 10
938.4699544301779
 20
464.2733639991295
 30
3.646124999999996
 11
938.4699544301779
 21
463.4859639991293
 31
3.646124999999996
  0
LINE
  5
5B908
330
458D6
100
AcDbEntity
  8
0
  6
Continuous
 62
     7
100
AcDbLine
 10
938.063224230177
 20
463.4859639991293
 30
3.646124999999996
 11
935.5546186301777
 21
463.4859639991293
 31
3.646124999999996
  0
LINE
  5
5B909
330
458D6
100
AcDbEntity
  8
0
  6
Continuous
 62
     7
100
AcDbLine
 10
934.7577444301771
 20
468.1740673991295
 30
3.646124999999996
 11
935.1052672301776
 21
468.1740673991295
 31
3.646124999999996
  0
LINE
  5
5B90A
330
458D6
100
AcDbEntity
  8
0
  6
Continuous
 62
     7
100
AcDbLine
 10
934.4085198301781
 20
469.2630669991291
 30
3.646124999999996
 11
934.4085198301781
 21
468.1740673991295
 31
3.646124999999996
  0
LINE
  5
5B90B
330
458D6
100
AcDbEntity
  8
0
  6
Continuous
 62
     7
100
AcDbLine
 10
934.4085198301781
 20
468.1740673991295
 30
3.646124999999996
 11
934.7577444301771
 21
468.1740673991295
 31
3.646124999999996
  0
LINE
  5
5B90C
330
458D6
100
AcDbEntity
  8
0
  6
Continuous
 62
     7
100
AcDbLine
 10
932.2030378301789
 20
467.8110759991291
 30
3.646124999999996
 11
932.2374294301788
 21
468.1362213991283
 31
3.646124999999996
  0
LINE
  5
5B90D
330
458D6
100
AcDbEntity
  8
0
  6
Continuous
 62
     7
100
AcDbLine
 10
932.2030378301789
 20
467.8110759991291
 30
3.646124999999996
 11
932.2030378301789
 21
467.8110759991291
 31
3.646124999999996
  0
LINE
  5
5B90E
330
458D6
100
AcDbEntity
  8
0
  6
Continuous
 62
     7
100
AcDbLine
 10
932.7208676301768
 20
468.9310381991285
 30
3.646124999999996
 11
932.9135266301785
 21
469.068655399129
 31
3.646124999999996
  0
LINE
  5
5B90F
330
458D6
100
AcDbEntity
  8
0
  6
Continuous
 62
     7
100
AcDbLine
 10
933.1234068301769
 20
469.1718809991282
 30
3.646124999999996
 11
933.3384686301769
 21
469.2355333991293
 31
3.646124999999996
  0
LINE
  5
5B910
330
458D6
100
AcDbEntity
  8
0
  6
Continuous
 62
     7
100
AcDbLine
 10
932.9135266301785
 20
469.068655399129
 30
3.646124999999996
 11
933.1234068301769
 21
469.1718809991282
 31
3.646124999999996
  0
LINE
  5
5B911
330
458D6
100
AcDbEntity
  8
0
  6
Continuous
 62
     7
100
AcDbLine
 10
933.3384686301769
 20
469.2355333991293
 30
3.646124999999996
 11
933.6550034301776
 21
469.2630669991291
 31
3.646124999999996
  0
LINE
  5
5B912
330
458D6
100
AcDbEntity
  8
0
  6
Continuous
 62
     7
100
AcDbLine
 10
932.4111908301791
 20
468.5663195991295
 30
3.646124999999996
 11
932.5505352301766
 21
468.7607057991282
 31
3.646124999999996
  0
LINE
  5
5B913
330
458D6
100
AcDbEntity
  8
0
  6
Continuous
 62
     7
100
AcDbLine
 10
932.3062634301782
 20
468.3547121991281
 30
3.646124999999996
 11
932.4111908301791
 21
468.5663195991295
 31
3.646124999999996
  0
LINE
  5
5B914
330
458D6
100
AcDbEntity
  8
0
  6
Continuous
 62
     7
100
AcDbLine
 10
932.2374294301788
 20
468.1362213991283
 30
3.646124999999996
 11
932.3062634301782
 21
468.3547121991281
 31
3.646124999999996
  0
LINE
  5
5B915
330
458D6
100
AcDbEntity
  8
0
  6
Continuous
 62
     7
100
AcDbLine
 10
932.5505352301766
 20
468.7607057991282
 30
3.646124999999996
 11
932.7208676301768
 21
468.9310381991285
 31
3.646124999999996
  0
LINE
  5
5B916
330
458D6
100
AcDbEntity
  8
0
  6
Continuous
 62
     7
100
AcDbLine
 10
933.6550034301776
 20
469.2630669991291
 30
3.646124999999996
 11
934.4085198301781
 21
469.2630669991291
 31
3.646124999999996
  0
LINE
  5
5B917
330
458D6
100
AcDbEntity
  8
0
  6
Continuous
 62
     7
100
AcDbLine
 10
937.2849428301783
 20
468.1362213991283
 30
3.646124999999996
 11
937.3124764301781
 21
467.8110759991291
 31
3.646124999999996
  0
LINE
  5
5B918
330
458D6
100
AcDbEntity
  8
0
  6
Continuous
 62
     7
100
AcDbLine
 10
937.2195632301787
 20
468.3547121991281
 30
3.646124999999996
 11
937.2849428301783
 21
468.1362213991283
 31
3.646124999999996
  0
LINE
  5
5B919
330
458D6
100
AcDbEntity
  8
0
  6
Continuous
 62
     7
100
AcDbLine
 10
937.1180648301779
 20
468.5663195991295
 30
3.646124999999996
 11
937.2195632301787
 21
468.3547121991281
 31
3.646124999999996
  0
LINE
  5
5B91A
330
458D6
100
AcDbEntity
  8
0
  6
Continuous
 62
     7
100
AcDbLine
 10
936.9804476301791
 20
468.7607057991282
 30
3.646124999999996
 11
937.1180648301779
 21
468.5663195991295
 31
3.646124999999996
  0
LINE
  5
5B91B
330
458D6
100
AcDbEntity
  8
0
  6
Continuous
 62
     7
100
AcDbLine
 10
936.8101152301788
 20
468.9310381991285
 30
3.646124999999996
 11
936.9804476301791
 21
468.7607057991282
 31
3.646124999999996
  0
LINE
  5
5B91C
330
458D6
100
AcDbEntity
  8
0
  6
Continuous
 62
     7
100
AcDbLine
 10
935.8604854301766
 20
469.2630669991291
 30
3.646124999999996
 11
936.1839290301773
 21
469.2355333991293
 31
3.646124999999996
  0
LINE
  5
5B91D
330
458D6
100
AcDbEntity
  8
0
  6
Continuous
 62
     7
100
AcDbLine
 10
935.8604854301766
 20
469.2630669991291
 30
3.646124999999996
 11
935.8604854301766
 21
469.2630669991291
 31
3.646124999999996
  0
LINE
  5
5B91E
330
458D6
100
AcDbEntity
  8
0
  6
Continuous
 62
     7
100
AcDbLine
 10
936.4023944301774
 20
469.1718809991282
 30
3.646124999999996
 11
936.6140018301772
 21
469.068655399129
 31
3.646124999999996
  0
LINE
  5
5B91F
330
458D6
100
AcDbEntity
  8
0
  6
Continuous
 62
     7
100
AcDbLine
 10
936.1839290301773
 20
469.2355333991293
 30
3.646124999999996
 11
936.4023944301774
 21
469.1718809991282
 31
3.646124999999996
  0
LINE
  5
5B920
330
458D6
100
AcDbEntity
  8
0
  6
Continuous
 62
     7
100
AcDbLine
 10
935.1052672301776
 20
468.1740673991295
 30
3.646124999999996
 11
935.1052672301776
 21
469.2630669991291
 31
3.646124999999996
  0
LINE
  5
5B921
330
458D6
100
AcDbEntity
  8
0
  6
Continuous
 62
     7
100
AcDbLine
 10
935.1052672301776
 20
469.2630669991291
 30
3.646124999999996
 11
935.8604854301766
 21
469.2630669991291
 31
3.646124999999996
  0
LINE
  5
5B922
330
458D6
100
AcDbEntity
  8
0
  6
Continuous
 62
     7
100
AcDbLine
 10
936.6140018301772
 20
469.068655399129
 30
3.646124999999996
 11
936.8101152301788
 21
468.9310381991285
 31
3.646124999999996
  0
TEXT
  5
5B923
330
458D6
100
AcDbEntity
  8
0
  6
Continuous
 62
     7
100
AcDbText
 10
926.5676612158831
 20
474.7784173384693
 30
3.646124999999996
 40
2.032
  1
4
100
AcDbText
  0
LINE
  5
5B924
330
458D6
100
AcDbEntity
  8
0
  6
Continuous
 62
     7
100
AcDbLine
 10
1159.682894572872
 20
465.8366323991286
 30
3.646124999999996
 11
1124.198967572871
 21
465.8366323991286
 31
3.646124999999996
  0
LINE
  5
5B925
330
458D6
100
AcDbEntity
  8
0
  6
Continuous
 62
     7
100
AcDbLine
 10
1144.944595372872
 20
481.3306323991289
 30
3.646124999999996
 11
1151.824007572873
 21
481.3306323991289
 31
3.646124999999996
  0
LINE
  5
5B926
330
458D6
100
AcDbEntity
  8
0
  6
Continuous
 62
     7
100
AcDbLine
 10
1143.374291172872
 20
467.2771171991286
 30
3.646124999999996
 11
1152.945646172871
 21
467.2771171991286
 31
3.646124999999996
  0
LINE
  5
5B927
330
458D6
100
AcDbEntity
  8
0
  6
Continuous
 62
     7
100
AcDbLine
 10
1159.682894572872
 20
464.2618323991283
 30
3.646124999999996
 11
1124.198967572871
 21
464.2618323991283
 31
3.646124999999996
  0
LINE
  5
5B928
330
458D6
100
AcDbEntity
  8
0
  6
Continuous
 62
     7
100
AcDbLine
 10
1124.185226172871
 20
463.4859639991293
 30
3.646124999999996
 11
1159.693206972872
 21
463.4859639991293
 31
3.646124999999996
  0
LINE
  5
5B929
330
458D6
100
AcDbEntity
  8
0
  6
Continuous
 62
     7
100
AcDbLine
 10
1129.677620572871
 20
474.5308237991283
 30
3.646124999999996
 11
1130.425396572871
 21
474.5308237991283
 31
3.646124999999996
  0
LINE
  5
5B92A
330
458D6
100
AcDbEntity
  8
0
  6
Continuous
 62
     7
100
AcDbLine
 10
1124.51042237287
 20
466.5178857991281
 30
3.646124999999996
 11
1130.316582972872
 21
466.5178857991281
 31
3.646124999999996
  0
LINE
  5
5B92B
330
458D6
100
AcDbEntity
  8
0
  6
Continuous
 62
     7
100
AcDbLine
 10
1129.677620572871
 20
468.6282248701147
 30
3.646124999999996
 11
1129.677620572871
 21
474.5308237991283
 31
3.646124999999996
  0
LINE
  5
5B92C
330
458D6
100
AcDbEntity
  8
0
  6
Continuous
 62
     7
100
AcDbLine
 10
1129.969085572871
 20
467.7358919991283
 30
3.646124999999996
 11
1129.969085572871
 21
467.0976407991284
 31
3.646124999999996
  0
LINE
  5
5B92D
330
458D6
100
AcDbEntity
  8
0
  6
Continuous
 62
     7
100
AcDbLine
 10
1124.859646972872
 20
467.0976407991284
 30
3.646124999999996
 11
1124.859646972872
 21
467.7358919991283
 31
3.646124999999996
  0
LINE
  5
5B92E
330
458D6
100
AcDbEntity
  8
0
  6
Continuous
 62
     7
100
AcDbLine
 10
1129.969085572871
 20
467.0976407991284
 30
3.646124999999996
 11
1124.859646972872
 21
467.0976407991284
 31
3.646124999999996
  0
LINE
  5
5B92F
330
458D6
100
AcDbEntity
  8
0
  6
Continuous
 62
     7
100
AcDbLine
 10
1124.51042237287
 20
465.772979999129
 30
3.646124999999996
 11
1124.51042237287
 21
466.5178857991281
 31
3.646124999999996
  0
LINE
  5
5B930
330
458D6
100
AcDbEntity
  8
0
  6
Continuous
 62
     7
100
AcDbLine
 10
1124.859646972872
 20
467.0976407991284
 30
3.646124999999996
 11
1124.859646972872
 21
466.5178857991281
 31
3.646124999999996
  0
LINE
  5
5B931
330
458D6
100
AcDbEntity
  8
0
  6
Continuous
 62
     7
100
AcDbLine
 10
1124.198967572871
 20
464.2618323991283
 30
3.646124999999996
 11
1124.198967572871
 21
463.7027275991292
 31
3.646124999999996
  0
LINE
  5
5B932
330
458D6
100
AcDbEntity
  8
0
  6
Continuous
 62
     7
100
AcDbLine
 10
1124.185226172871
 20
464.2618323991283
 30
3.646124999999996
 11
1124.185226172871
 21
463.4859639991293
 31
3.646124999999996
  0
LINE
  5
5B933
330
458D6
100
AcDbEntity
  8
0
  6
Continuous
 62
     7
100
AcDbLine
 10
1124.198967572871
 20
465.8366323991286
 30
3.646124999999996
 11
1124.198967572871
 21
464.2618323991283
 31
3.646124999999996
  0
LINE
  5
5B934
330
458D6
100
AcDbEntity
  8
0
  6
Continuous
 62
     7
100
AcDbLine
 10
1129.969085572871
 20
467.0976407991284
 30
3.646124999999996
 11
1129.969085572871
 21
466.5178857991281
 31
3.646124999999996
  0
LINE
  5
5B935
330
458D6
100
AcDbEntity
  8
0
  6
Continuous
 62
     7
100
AcDbLine
 10
1127.80315137287
 20
466.5178857991281
 30
3.646124999999996
 11
1127.653494572873
 21
467.0976407991284
 31
3.646124999999996
  0
LINE
  5
5B936
330
458D6
100
AcDbEntity
  8
0
  6
Continuous
 62
     7
100
AcDbLine
 10
1127.352428372871
 20
467.0976407991284
 30
3.646124999999996
 11
1127.503812372873
 21
466.5178857991281
 31
3.646124999999996
  0
LINE
  5
5B937
330
458D6
100
AcDbEntity
  8
0
  6
Continuous
 62
     7
100
AcDbLine
 10
1125.995077772873
 20
469.1603493991284
 30
3.646124999999996
 11
1126.311612572871
 21
469.1878575991283
 31
3.646124999999996
  0
LINE
  5
5B938
330
458D6
100
AcDbEntity
  8
0
  6
Continuous
 62
     7
100
AcDbLine
 10
1125.207144372873
 20
468.685521799129
 30
3.646124999999996
 11
1125.377476772873
 21
468.8558287991292
 31
3.646124999999996
  0
LINE
  5
5B939
330
458D6
100
AcDbEntity
  8
0
  6
Continuous
 62
     7
100
AcDbLine
 10
1125.067799972872
 20
468.4911355991288
 30
3.646124999999996
 11
1125.207144372873
 21
468.685521799129
 31
3.646124999999996
  0
LINE
  5
5B93A
330
458D6
100
AcDbEntity
  8
0
  6
Continuous
 62
     7
100
AcDbLine
 10
1125.570135772872
 20
468.9934713991282
 30
3.646124999999996
 11
1125.780041372873
 21
469.0966969991289
 31
3.646124999999996
  0
LINE
  5
5B93B
330
458D6
100
AcDbEntity
  8
0
  6
Continuous
 62
     7
100
AcDbLine
 10
1125.780041372873
 20
469.0966969991289
 30
3.646124999999996
 11
1125.995077772873
 21
469.1603493991284
 31
3.646124999999996
  0
LINE
  5
5B93C
330
458D6
100
AcDbEntity
  8
0
  6
Continuous
 62
     7
100
AcDbLine
 10
1125.377476772873
 20
468.8558287991292
 30
3.646124999999996
 11
1125.570135772872
 21
468.9934713991282
 31
3.646124999999996
  0
LINE
  5
5B93D
330
458D6
100
AcDbEntity
  8
0
  6
Continuous
 62
     7
100
AcDbLine
 10
1124.859646972872
 20
467.7358919991283
 30
3.646124999999996
 11
1124.859646972872
 21
467.7358919991283
 31
3.646124999999996
  0
LINE
  5
5B93E
330
458D6
100
AcDbEntity
  8
0
  6
Continuous
 62
     7
100
AcDbLine
 10
1124.859646972872
 20
467.7358919991283
 30
3.646124999999996
 11
1124.894038572872
 21
468.061037399129
 31
3.646124999999996
  0
LINE
  5
5B93F
330
458D6
100
AcDbEntity
  8
0
  6
Continuous
 62
     7
100
AcDbLine
 10
1124.894038572872
 20
468.061037399129
 30
3.646124999999996
 11
1124.962872572871
 21
468.2795281991288
 31
3.646124999999996
  0
LINE
  5
5B940
330
458D6
100
AcDbEntity
  8
0
  6
Continuous
 62
     7
100
AcDbLine
 10
1124.962872572871
 20
468.2795281991288
 30
3.646124999999996
 11
1125.067799972872
 21
468.4911355991288
 31
3.646124999999996
  0
LINE
  5
5B941
330
458D6
100
AcDbEntity
  8
0
  6
Continuous
 62
     7
100
AcDbLine
 10
1129.466724372872
 20
468.8558287991292
 30
3.646124999999996
 11
1129.637056772872
 21
468.685521799129
 31
3.646124999999996
  0
LINE
  5
5B942
330
458D6
100
AcDbEntity
  8
0
  6
Continuous
 62
     7
100
AcDbLine
 10
1129.637056772872
 20
468.685521799129
 30
3.646124999999996
 11
1129.774673972871
 21
468.4911355991288
 31
3.646124999999996
  0
LINE
  5
5B943
330
458D6
100
AcDbEntity
  8
0
  6
Continuous
 62
     7
100
AcDbLine
 10
1129.27061097287
 20
468.9934713991282
 30
3.646124999999996
 11
1129.466724372872
 21
468.8558287991292
 31
3.646124999999996
  0
LINE
  5
5B944
330
458D6
100
AcDbEntity
  8
0
  6
Continuous
 62
     7
100
AcDbLine
 10
1127.761876372871
 20
469.1878575991283
 30
3.646124999999996
 11
1128.517094572873
 21
469.1878575991283
 31
3.646124999999996
  0
LINE
  5
5B945
330
458D6
100
AcDbEntity
  8
0
  6
Continuous
 62
     7
100
AcDbLine
 10
1128.84053817287
 20
469.1603493991284
 30
3.646124999999996
 11
1129.05900357287
 21
469.0966969991289
 31
3.646124999999996
  0
LINE
  5
5B946
330
458D6
100
AcDbEntity
  8
0
  6
Continuous
 62
     7
100
AcDbLine
 10
1128.517094572873
 20
469.1878575991283
 30
3.646124999999996
 11
1128.517094572873
 21
469.1878575991283
 31
3.646124999999996
  0
LINE
  5
5B947
330
458D6
100
AcDbEntity
  8
0
  6
Continuous
 62
     7
100
AcDbLine
 10
1128.517094572873
 20
469.1878575991283
 30
3.646124999999996
 11
1128.84053817287
 21
469.1603493991284
 31
3.646124999999996
  0
LINE
  5
5B948
330
458D6
100
AcDbEntity
  8
0
  6
Continuous
 62
     7
100
AcDbLine
 10
1129.05900357287
 20
469.0966969991289
 30
3.646124999999996
 11
1129.27061097287
 21
468.9934713991282
 31
3.646124999999996
  0
LINE
  5
5B949
330
458D6
100
AcDbEntity
  8
0
  6
Continuous
 62
     7
100
AcDbLine
 10
1126.311612572871
 20
469.1878575991283
 30
3.646124999999996
 11
1127.065128972871
 21
469.1878575991283
 31
3.646124999999996
  0
LINE
  5
5B94A
330
458D6
100
AcDbEntity
  8
0
  6
Continuous
 62
     7
100
AcDbLine
 10
1129.876172372872
 20
468.2795281991288
 30
3.646124999999996
 11
1129.941551972871
 21
468.061037399129
 31
3.646124999999996
  0
LINE
  5
5B94B
330
458D6
100
AcDbEntity
  8
0
  6
Continuous
 62
     7
100
AcDbLine
 10
1129.941551972871
 20
468.061037399129
 30
3.646124999999996
 11
1129.969085572871
 21
467.7358919991283
 31
3.646124999999996
  0
LINE
  5
5B94C
330
458D6
100
AcDbEntity
  8
0
  6
Continuous
 62
     7
100
AcDbLine
 10
1127.065128972871
 20
468.0988833991287
 30
3.646124999999996
 11
1127.41435357287
 21
468.0988833991287
 31
3.646124999999996
  0
LINE
  5
5B94D
330
458D6
100
AcDbEntity
  8
0
  6
Continuous
 62
     7
100
AcDbLine
 10
1127.41435357287
 20
468.0988833991287
 30
3.646124999999996
 11
1127.761876372871
 21
468.0988833991287
 31
3.646124999999996
  0
LINE
  5
5B94E
330
458D6
100
AcDbEntity
  8
0
  6
Continuous
 62
     7
100
AcDbLine
 10
1127.065128972871
 20
469.1878575991283
 30
3.646124999999996
 11
1127.065128972871
 21
468.0988833991287
 31
3.646124999999996
  0
LINE
  5
5B94F
330
458D6
100
AcDbEntity
  8
0
  6
Continuous
 62
     7
100
AcDbLine
 10
1127.761876372871
 20
468.0988833991287
 30
3.646124999999996
 11
1127.761876372871
 21
469.1878575991283
 31
3.646124999999996
  0
LINE
  5
5B950
330
458D6
100
AcDbEntity
  8
0
  6
Continuous
 62
     7
100
AcDbLine
 10
1129.774673972871
 20
468.4911355991288
 30
3.646124999999996
 11
1129.876172372872
 21
468.2795281991288
 31
3.646124999999996
  0
LINE
  5
5B951
330
458D6
100
AcDbEntity
  8
0
  6
Continuous
 62
     7
100
AcDbLine
 10
1142.252652572871
 20
465.8366323991286
 30
3.646124999999996
 11
1142.252652572871
 21
474.5308237991283
 31
3.646124999999996
  0
LINE
  5
5B952
330
458D6
100
AcDbEntity
  8
0
  6
Continuous
 62
     7
100
AcDbLine
 10
1141.94094377287
 20
465.8366323991286
 30
3.646124999999996
 11
1141.94094377287
 21
474.5308237991283
 31
3.646124999999996
  0
LINE
  5
5B953
330
458D6
100
AcDbEntity
  8
0
  6
Continuous
 62
     7
100
AcDbLine
 10
1130.799259172872
 20
467.2771171991286
 30
3.646124999999996
 11
1140.370639572873
 21
467.2771171991286
 31
3.646124999999996
  0
LINE
  5
5B954
330
458D6
100
AcDbEntity
  8
0
  6
Continuous
 62
     7
100
AcDbLine
 10
1130.316582972872
 20
466.5178857991281
 30
3.646124999999996
 11
1130.316582972872
 21
465.772979999129
 31
3.646124999999996
  0
LINE
  5
5B955
330
458D6
100
AcDbEntity
  8
0
  6
Continuous
 62
     7
100
AcDbLine
 10
1130.799259172872
 20
465.8366323991286
 30
3.646124999999996
 11
1130.799259172872
 21
467.2771171991286
 31
3.646124999999996
  0
LINE
  5
5B956
330
458D6
100
AcDbEntity
  8
0
  6
Continuous
 62
     7
100
AcDbLine
 10
1140.370639572873
 20
467.2771171991286
 30
3.646124999999996
 11
1140.370639572873
 21
465.8366323991286
 31
3.646124999999996
  0
LINE
  5
5B957
330
458D6
100
AcDbEntity
  8
0
  6
Continuous
 62
     7
100
AcDbLine
 10
1143.374291172872
 20
465.8366323991286
 30
3.646124999999996
 11
1143.374291172872
 21
467.2771171991286
 31
3.646124999999996
  0
LINE
  5
5B958
330
458D6
100
AcDbEntity
  8
0
  6
Continuous
 62
     7
100
AcDbLine
 10
1132.369563372872
 20
481.3306323991289
 30
3.646124999999996
 11
1139.248975572872
 21
481.3306323991289
 31
3.646124999999996
  0
LINE
  5
5B959
330
458D6
100
AcDbEntity
  8
0
  6
Continuous
 62
     7
100
AcDbLine
 10
1130.425396572871
 20
474.5308237991283
 30
3.646124999999996
 11
1132.369563372872
 21
481.3306323991289
 31
3.646124999999996
  0
LINE
  5
5B95A
330
458D6
100
AcDbEntity
  8
0
  6
Continuous
 62
     7
100
AcDbLine
 10
1143.000403172872
 20
474.5308237991283
 30
3.646124999999996
 11
1144.944595372872
 21
481.3306323991289
 31
3.646124999999996
  0
LINE
  5
5B95B
330
458D6
100
AcDbEntity
  8
0
  6
Continuous
 62
     7
100
AcDbLine
 10
1141.193167772873
 20
474.5308237991283
 30
3.646124999999996
 11
1139.248975572872
 21
481.3306323991289
 31
3.646124999999996
  0
LINE
  5
5B95C
330
458D6
100
AcDbEntity
  8
0
  6
Continuous
 62
     7
100
AcDbLine
 10
1142.252652572871
 20
474.5308237991283
 30
3.646124999999996
 11
1143.000403172872
 21
474.5308237991283
 31
3.646124999999996
  0
LINE
  5
5B95D
330
458D6
100
AcDbEntity
  8
0
  6
Continuous
 62
     7
100
AcDbLine
 10
1141.94094377287
 20
474.5308237991283
 30
3.646124999999996
 11
1141.193167772873
 21
474.5308237991283
 31
3.646124999999996
  0
LINE
  5
5B95E
330
458D6
100
AcDbEntity
  8
0
  6
Continuous
 62
     7
100
AcDbLine
 10
1154.515950372871
 20
468.8265425991295
 30
3.646124999999996
 11
1154.515950372871
 21
474.5308237991283
 31
3.646124999999996
  0
LINE
  5
5B95F
330
458D6
100
AcDbEntity
  8
0
  6
Continuous
 62
     7
100
AcDbLine
 10
1155.543050172871
 20
469.2515099991293
 30
3.646124999999996
 11
1156.296566572871
 21
469.2515099991293
 31
3.646124999999996
  0
LINE
  5
5B960
330
458D6
100
AcDbEntity
  8
0
  6
Continuous
 62
     7
100
AcDbLine
 10
1159.200497772871
 20
467.1612931991295
 30
3.646124999999996
 11
1154.091059172872
 21
467.1612931991295
 31
3.646124999999996
  0
LINE
  5
5B961
330
458D6
100
AcDbEntity
  8
0
  6
Continuous
 62
     7
100
AcDbLine
 10
1153.74183457287
 20
466.5815381991292
 30
3.646124999999996
 11
1159.548020572872
 21
466.5815381991292
 31
3.646124999999996
  0
LINE
  5
5B962
330
458D6
100
AcDbEntity
  8
0
  6
Continuous
 62
     7
100
AcDbLine
 10
1154.091059172872
 20
467.1612931991295
 30
3.646124999999996
 11
1154.091059172872
 21
467.7995443991293
 31
3.646124999999996
  0
LINE
  5
5B963
330
458D6
100
AcDbEntity
  8
0
  6
Continuous
 62
     7
100
AcDbLine
 10
1153.74183457287
 20
465.8366323991286
 30
3.646124999999996
 11
1153.74183457287
 21
466.5815381991292
 31
3.646124999999996
  0
LINE
  5
5B964
330
458D6
100
AcDbEntity
  8
0
  6
Continuous
 62
     7
100
AcDbLine
 10
1152.945646172871
 20
467.2771171991286
 30
3.646124999999996
 11
1152.945646172871
 21
465.8366323991286
 31
3.646124999999996
  0
LINE
  5
5B965
330
458D6
100
AcDbEntity
  8
0
  6
Continuous
 62
     7
100
AcDbLine
 10
1154.091059172872
 20
467.1612931991295
 30
3.646124999999996
 11
1154.091059172872
 21
466.5815381991292
 31
3.646124999999996
  0
LINE
  5
5B966
330
458D6
100
AcDbEntity
  8
0
  6
Continuous
 62
     7
100
AcDbLine
 10
1154.60888897287
 20
468.9194811991288
 30
3.646124999999996
 11
1154.801573372872
 21
469.0571237991292
 31
3.646124999999996
  0
LINE
  5
5B967
330
458D6
100
AcDbEntity
  8
0
  6
Continuous
 62
     7
100
AcDbLine
 10
1155.01145357287
 20
469.1603493991284
 30
3.646124999999996
 11
1155.22648997287
 21
469.2240017991294
 31
3.646124999999996
  0
LINE
  5
5B968
330
458D6
100
AcDbEntity
  8
0
  6
Continuous
 62
     7
100
AcDbLine
 10
1154.801573372872
 20
469.0571237991292
 30
3.646124999999996
 11
1155.01145357287
 21
469.1603493991284
 31
3.646124999999996
  0
LINE
  5
5B969
330
458D6
100
AcDbEntity
  8
0
  6
Continuous
 62
     7
100
AcDbLine
 10
1155.22648997287
 20
469.2240017991294
 30
3.646124999999996
 11
1155.543050172871
 21
469.2515099991293
 31
3.646124999999996
  0
LINE
  5
5B96A
330
458D6
100
AcDbEntity
  8
0
  6
Continuous
 62
     7
100
AcDbLine
 10
1154.438581972873
 20
468.7491741991284
 30
3.646124999999996
 11
1154.60888897287
 21
468.9194811991288
 31
3.646124999999996
  0
LINE
  5
5B96B
330
458D6
100
AcDbEntity
  8
0
  6
Continuous
 62
     7
100
AcDbLine
 10
1154.299237572872
 20
468.5547879991283
 30
3.646124999999996
 11
1154.438581972873
 21
468.7491741991284
 31
3.646124999999996
  0
LINE
  5
5B96C
330
458D6
100
AcDbEntity
  8
0
  6
Continuous
 62
     7
100
AcDbLine
 10
1154.125476172872
 20
468.1246897991285
 30
3.646124999999996
 11
1154.194284772872
 21
468.3431805991284
 31
3.646124999999996
  0
LINE
  5
5B96D
330
458D6
100
AcDbEntity
  8
0
  6
Continuous
 62
     7
100
AcDbLine
 10
1154.091059172872
 20
467.7995443991293
 30
3.646124999999996
 11
1154.125476172872
 21
468.1246897991285
 31
3.646124999999996
  0
LINE
  5
5B96E
330
458D6
100
AcDbEntity
  8
0
  6
Continuous
 62
     7
100
AcDbLine
 10
1154.091059172872
 20
467.7995443991293
 30
3.646124999999996
 11
1154.091059172872
 21
467.7995443991293
 31
3.646124999999996
  0
LINE
  5
5B96F
330
458D6
100
AcDbEntity
  8
0
  6
Continuous
 62
     7
100
AcDbLine
 10
1154.194284772872
 20
468.3431805991284
 30
3.646124999999996
 11
1154.299237572872
 21
468.5547879991283
 31
3.646124999999996
  0
LINE
  5
5B970
330
458D6
100
AcDbEntity
  8
0
  6
Continuous
 62
     7
100
AcDbLine
 10
1159.200497772871
 20
467.7995443991293
 30
3.646124999999996
 11
1159.200497772871
 21
467.1612931991295
 31
3.646124999999996
  0
LINE
  5
5B971
330
458D6
100
AcDbEntity
  8
0
  6
Continuous
 62
     7
100
AcDbLine
 10
1159.200497772871
 20
467.1612931991295
 30
3.646124999999996
 11
1159.200497772871
 21
466.5815381991292
 31
3.646124999999996
  0
LINE
  5
5B972
330
458D6
100
AcDbEntity
  8
0
  6
Continuous
 62
     7
100
AcDbLine
 10
1159.548020572872
 20
466.5815381991292
 30
3.646124999999996
 11
1159.548020572872
 21
465.8366323991286
 31
3.646124999999996
  0
LINE
  5
5B973
330
458D6
100
AcDbEntity
  8
0
  6
Continuous
 62
     7
100
AcDbLine
 10
1156.583865972871
 20
467.1612931991295
 30
3.646124999999996
 11
1156.735249972873
 21
466.5815381991292
 31
3.646124999999996
  0
LINE
  5
5B974
330
458D6
100
AcDbEntity
  8
0
  6
Continuous
 62
     7
100
AcDbLine
 10
1157.034588972871
 20
466.5815381991292
 30
3.646124999999996
 11
1156.88490677287
 21
467.1612931991295
 31
3.646124999999996
  0
LINE
  5
5B975
330
458D6
100
AcDbEntity
  8
0
  6
Continuous
 62
     7
100
AcDbLine
 10
1159.682894572872
 20
463.4859639991293
 30
3.646124999999996
 11
1159.682894572872
 21
464.2618323991283
 31
3.646124999999996
  0
LINE
  5
5B976
330
458D6
100
AcDbEntity
  8
0
  6
Continuous
 62
     7
100
AcDbLine
 10
1159.548020572872
 20
465.8366323991286
 30
3.646124999999996
 11
1159.682894572872
 21
464.2618323991283
 31
3.646124999999996
  0
LINE
  5
5B977
330
458D6
100
AcDbEntity
  8
0
  6
Continuous
 62
     7
100
AcDbLine
 10
1157.748532172873
 20
469.2515099991293
 30
3.646124999999996
 11
1158.071950372871
 21
469.2240017991294
 31
3.646124999999996
  0
LINE
  5
5B978
330
458D6
100
AcDbEntity
  8
0
  6
Continuous
 62
     7
100
AcDbLine
 10
1157.748532172873
 20
469.2515099991293
 30
3.646124999999996
 11
1157.748532172873
 21
469.2515099991293
 31
3.646124999999996
  0
LINE
  5
5B979
330
458D6
100
AcDbEntity
  8
0
  6
Continuous
 62
     7
100
AcDbLine
 10
1158.502048572871
 20
469.0571237991292
 30
3.646124999999996
 11
1158.698161972872
 21
468.9194811991288
 31
3.646124999999996
  0
LINE
  5
5B97A
330
458D6
100
AcDbEntity
  8
0
  6
Continuous
 62
     7
100
AcDbLine
 10
1158.868468972872
 20
468.7491741991284
 30
3.646124999999996
 11
1159.006111572871
 21
468.5547879991283
 31
3.646124999999996
  0
LINE
  5
5B97B
330
458D6
100
AcDbEntity
  8
0
  6
Continuous
 62
     7
100
AcDbLine
 10
1158.698161972872
 20
468.9194811991288
 30
3.646124999999996
 11
1158.868468972872
 21
468.7491741991284
 31
3.646124999999996
  0
LINE
  5
5B97C
330
458D6
100
AcDbEntity
  8
0
  6
Continuous
 62
     7
100
AcDbLine
 10
1158.29044117287
 20
469.1603493991284
 30
3.646124999999996
 11
1158.502048572871
 21
469.0571237991292
 31
3.646124999999996
  0
LINE
  5
5B97D
330
458D6
100
AcDbEntity
  8
0
  6
Continuous
 62
     7
100
AcDbLine
 10
1158.071950372871
 20
469.2240017991294
 30
3.646124999999996
 11
1158.29044117287
 21
469.1603493991284
 31
3.646124999999996
  0
LINE
  5
5B97E
330
458D6
100
AcDbEntity
  8
0
  6
Continuous
 62
     7
100
AcDbLine
 10
1156.993288572871
 20
469.2515099991293
 30
3.646124999999996
 11
1157.748532172873
 21
469.2515099991293
 31
3.646124999999996
  0
LINE
  5
5B97F
330
458D6
100
AcDbEntity
  8
0
  6
Continuous
 62
     7
100
AcDbLine
 10
1159.172989572872
 20
468.1246897991285
 30
3.646124999999996
 11
1159.200497772871
 21
467.7995443991293
 31
3.646124999999996
  0
LINE
  5
5B980
330
458D6
100
AcDbEntity
  8
0
  6
Continuous
 62
     7
100
AcDbLine
 10
1159.107609972872
 20
468.3431805991284
 30
3.646124999999996
 11
1159.172989572872
 21
468.1246897991285
 31
3.646124999999996
  0
LINE
  5
5B981
330
458D6
100
AcDbEntity
  8
0
  6
Continuous
 62
     7
100
AcDbLine
 10
1156.64579117287
 20
468.1625357991283
 30
3.646124999999996
 11
1156.993288572871
 21
468.1625357991283
 31
3.646124999999996
  0
LINE
  5
5B982
330
458D6
100
AcDbEntity
  8
0
  6
Continuous
 62
     7
100
AcDbLine
 10
1156.296566572871
 20
468.1625357991283
 30
3.646124999999996
 11
1156.64579117287
 21
468.1625357991283
 31
3.646124999999996
  0
LINE
  5
5B983
330
458D6
100
AcDbEntity
  8
0
  6
Continuous
 62
     7
100
AcDbLine
 10
1156.296566572871
 20
469.2515099991293
 30
3.646124999999996
 11
1156.296566572871
 21
468.1625357991283
 31
3.646124999999996
  0
LINE
  5
5B984
330
458D6
100
AcDbEntity
  8
0
  6
Continuous
 62
     7
100
AcDbLine
 10
1159.006111572871
 20
468.5547879991283
 30
3.646124999999996
 11
1159.107609972872
 21
468.3431805991284
 31
3.646124999999996
  0
LINE
  5
5B985
330
458D6
100
AcDbEntity
  8
0
  6
Continuous
 62
     7
100
AcDbLine
 10
1156.993288572871
 20
468.1625357991283
 30
3.646124999999996
 11
1156.993288572871
 21
469.2515099991293
 31
3.646124999999996
  0
LINE
  5
5B986
330
458D6
100
AcDbEntity
  8
0
  6
Continuous
 62
     7
100
AcDbLine
 10
1153.76819977287
 20
474.5308237991283
 30
3.646124999999996
 11
1151.824007572873
 21
481.3306323991289
 31
3.646124999999996
  0
LINE
  5
5B987
330
458D6
100
AcDbEntity
  8
0
  6
Continuous
 62
     7
100
AcDbLine
 10
1154.515950372871
 20
474.5308237991283
 30
3.646124999999996
 11
1153.76819977287
 21
474.5308237991283
 31
3.646124999999996
  0
DIMENSION
  5
5BA83
330
458D6
100
AcDbEntity
  8
AREA1
100
AcDbDimension
  2
*D4
 10
1241.431784108086
 20
366.9728492997409
 30
3.646124999999996
 11
1222.509477409865
 21
358.8930157057343
 31
3.646124999999996
 70
   160
 71
     5
 42
38.10000000000013
  3
ABECAD_3D
100
AcDbAlignedDimension
 13
1203.331784108086
 23
397.9539639991283
 33
3.646124999999996
 14
1241.431784108086
 24
397.9539639991283
 34
3.646124999999996
100
AcDbRotatedDimension
1001
ACAD
1000
DSTYLE
1002
{
1070
    44
1040
4.25
1070
   140
1040
4.25
1070
    41
1040
4.25
1002
}
  0
DIMENSION
  5
5BA90
330
458D6
100
AcDbEntity
  8
AREA1
100
AcDbDimension
  2
*D5
 10
1198.326850785143
 20
397.9539639991282
 30
3.646124999999996
 11
1233.57550369096
 21
434.8629061258439
 31
3.646124999999996
 70
   160
 71
     5
 42
65.53200000000112
  3
ABECAD_3D
100
AcDbAlignedDimension
 13
1159.693206972872
 23
463.4859639991293
 33
3.646124999999996
 14
1141.939216572872
 24
397.9539639991283
 34
3.646124999999996
 50
90.0
100
AcDbRotatedDimension
1001
ACAD
1000
DSTYLE
1002
{
1070
    44
1040
4.25
1070
   140
1040
4.25
1070
    41
1040
4.25
1070
   279
1070
     2
1002
}
  0
DIMENSION
  5
5BA9E
330
458D6
100
AcDbEntity
  8
AREA1
100
AcDbDimension
  2
*D6
 10
1198.250144615732
 20
463.4859639991293
 30
3.646124999999996
 11
1228.552612810472
 21
471.7066224279578
 31
3.646124999999996
 70
   160
 71
     5
 42
17.84466839999953
  3
ABECAD_3D
100
AcDbAlignedDimension
 13
1151.824007572873
 23
481.3306323991289
 33
3.646124999999996
 14
1159.693206972872
 24
463.4859639991293
 34
3.646124999999996
 50
90.0
100
AcDbRotatedDimension
1001
ACAD
1000
DSTYLE
1002
{
1070
    44
1040
4.25
1070
   140
1040
4.25
1070
    41
1040
4.25
1070
   279
1070
     2
1002
}
  0
DIMENSION
  5
5BAAD
330
458D6
100
AcDbEntity
  8
AREA1
100
AcDbDimension
  2
*D7
 10
1148.93024404329
 20
394.1950491081184
 30
3.646124999999996
 11
1092.293745804662
 21
424.6471933036121
 31
3.646124999999996
 70
   163
 71
     5
 42
15.87500000000022
  3
ABECAD_3D
100
AcDbDiametricDimension
 15
1134.948189102453
 25
401.7128788901384
 35
3.646124999999996
 40
0.0
1001
ACAD
1000
DSTYLE
1002
{
1070
   140
1040
4.25
1070
    41
1040
4.25
1002
}
  0
DIMENSION
  5
5BAC8
330
458D6
100
AcDbEntity
  8
AREA1
100
AcDbDimension
  2
*D8
 10
1252.544284108086
 20
339.7719885764719
 30
3.646124999999996
 11
1201.124217378251
 21
339.7719885764719
 31
3.646124999999996
 70
   160
 71
     5
 42
101.5999999999999
  3
ABECAD_3D
100
AcDbAlignedDimension
 13
1150.944284108086
 23
355.2819639991295
 33
3.646124999999996
 14
1252.544284108086
 24
391.6039639991283
 34
3.646124999999996
100
AcDbRotatedDimension
1001
ACAD
1000
DSTYLE
1002
{
1070
    44
1040
4.25
1070
   140
1040
4.25
1070
    41
1040
4.25
1002
}
  0
DIMENSION
  5
5BBFA
330
458D6
100
AcDbEntity
  8
AREA1
100
AcDbDimension
  2
*D9
 10
998.9895433602946
 20
369.3789639991283
 30
3.646124999999996
 11
1006.984663834066
 21
398.0189236326727
 31
3.646124999999996
 70
   160
 71
     5
 42
57.15000000000026
 53
90.0
  3
ABECAD_3D
100
AcDbAlignedDimension
 13
947.9184718323178
 23
426.5289639991285
 33
3.646124999999996
 14
947.9184718323178
 24
369.3789639991283
 34
3.646124999999996
 50
90.0
100
AcDbRotatedDimension
1001
ACAD
1000
DSTYLE
1002
{
1070
   140
1040
4.25
1070
    41
1040
4.25
1002
}
  0
DIMENSION
  5
5BC08
330
458D6
100
AcDbEntity
  8
AREA1
100
AcDbDimension
  2
*D10
 10
975.0048374456037
 20
372.9476639991285
 30
3.646124999999996
 11
983.5970306222423
 21
397.5017848488953
 31
3.646124999999996
 70
   160
 71
     5
 42
50.01260000000098
 53
90.0
  3
ABECAD_3D
100
AcDbAlignedDimension
 13
955.4280718321374
 23
422.9602639991295
 33
3.646124999999996
 14
955.4280718321374
 24
372.9476639991285
 34
3.646124999999996
 50
90.0
100
AcDbRotatedDimension
1001
ACAD
1000
DSTYLE
1002
{
1070
    44
1040
4.25
1070
    41
1040
4.25
1070
   140
1040
4.25
1002
}
  0
DIMENSION
  5
5BD40
330
458D6
100
AcDbEntity
  8
AREA1
100
AcDbDimension
  2
*D11
 10
879.6525574145412
 20
352.9539639993089
 30
3.646124999999996
 11
879.7129790020271
 21
399.6005686108113
 31
3.646124999999996
 70
   160
 71
     5
 42
89.71959407073962
 53
90.0
  3
ABECAD_3D
100
AcDbAlignedDimension
 13
905.2462718301793
 23
442.6735580700485
 33
3.646124999999996
 14
904.6112718301769
 24
352.9539639993089
 34
3.646124999999996
 50
90.0
100
AcDbRotatedDimension
1001
ACAD
1000
DSTYLE
1002
{
1070
   140
1040
4.25
1070
    44
1040
4.25
1070
    41
1040
4.25
1002
}
  0
DIMENSION
  5
5BD4E
330
458D6
100
AcDbEntity
  8
AREA1
100
AcDbDimension
  2
*D12
 10
944.9974718323176
 20
340.4273494765531
 30
3.646124999999996
 11
922.5267360707912
 21
331.8393912622326
 31
3.646124999999996
 70
   160
 71
     5
 42
42.9262000021406
  3
ABECAD_3D
100
AcDbAlignedDimension
 13
902.0712718301769
 23
355.4939639993094
 33
3.646124999999996
 14
944.9974718323176
 24
353.2081512328683
 34
3.646124999999996
100
AcDbRotatedDimension
1001
ACAD
1000
DSTYLE
1002
{
1070
   140
1040
4.25
1070
    44
1040
4.25
1070
    41
1040
4.25
1002
}
  0
DIMENSION
  5
5BDBA
330
458D6
100
AcDbEntity
  8
AREA1
100
AcDbDimension
  2
*D13
 10
948.1724718323178
 20
348.2724307342451
 30
3.646124999999996
 11
976.5402731686481
 21
348.2724307342451
 31
3.646124999999996
 70
   160
 71
     5
 42
3.175000000000181
  3
ABECAD_3D
100
AcDbAlignedDimension
 13
944.9974718323176
 23
353.2081512328683
 33
3.646124999999996
 14
948.1724718323178
 24
369.6331909227293
 34
3.646124999999996
100
AcDbRotatedDimension
1001
ACAD
1000
DSTYLE
1002
{
1070
   140
1040
4.25
1070
    44
1040
4.25
1070
    41
1040
4.25
1002
}
  0
LINE
  5
5BE31
330
458D6
100
AcDbEntity
  8
SCALE
100
AcDbLine
 10
831.6253641599804
 20
358.4848657072396
 30
3.646124999999996
 11
857.0253641599803
 21
358.4848657072396
 31
3.646124999999996
  0
LINE
  5
5BE32
330
458D6
100
AcDbEntity
  8
SCALE
100
AcDbLine
 10
857.0253641599803
 20
355.9448657072397
 30
3.646124999999996
 11
857.0253641599803
 21
361.0248657072399
 31
3.646124999999996
  0
LINE
  5
5BE33
330
458D6
100
AcDbEntity
  8
SCALE
100
AcDbLine
 10
831.6253641599804
 20
355.9448657072397
 30
3.646124999999996
 11
831.6253641599804
 21
361.0248657072399
 31
3.646124999999996
  0
LINE
  5
5BE34
330
458D6
100
AcDbEntity
  8
SCALE
100
AcDbLine
 10
831.6253641599805
 20
363.671289444533
 30
3.646124999999996
 11
831.6253641599805
 21
368.7512894445329
 31
3.646124999999996
  0
LINE
  5
5BE35
330
458D6
100
AcDbEntity
  8
SCALE
100
AcDbLine
 10
841.6253441599806
 20
363.671289444533
 30
3.646124999999996
 11
841.6253441599806
 21
368.7512894445329
 31
3.646124999999996
  0
LINE
  5
5BE36
330
458D6
100
AcDbEntity
  8
SCALE
100
AcDbLine
 10
831.6253641599805
 20
366.211289444533
 30
3.646124999999996
 11
841.6253441599806
 21
366.211289444533
 31
3.646124999999996
  0
TEXT
  5
5BE37
330
458D6
100
AcDbEntity
  8
SCALE
100
AcDbText
 10
833.1346869007543
 20
367.3730764344956
 30
3.646124999999996
 40
1.587499999999999
  1
10 mm
100
AcDbText
  0
TEXT
  5
5BE38
330
458D6
100
AcDbEntity
  8
SCALE
100
AcDbText
 10
839.2232568930685
 20
360.238702569719
 30
3.646124999999996
 40
1.587499999999999
  1
[1 Inch]
100
AcDbText
  0
TEXT
  5
5BE39
330
458D6
100
AcDbEntity
  8
SCALE
100
AcDbText
 10
831.4314482401098
 20
371.7448270593848
 30
3.646124999999996
 40
1.587499999999999
  1
SCALE:
100
AcDbText
  0
LWPOLYLINE
  5
5BE3A
330
458D6
100
AcDbEntity
  8
SCALE
100
AcDbPolyline
 90
        4
 70
     1
 43
0.0
 38
3.646124999999996
 10
829.9194134314882
 20
374.4169374741221
 10
858.7643854478542
 20
374.4169374741221
 10
858.7643854478542
 20
353.0400544779605
 10
829.9194134314882
 20
353.0400544779605
  0
VIEWPORT
  5
48102
102
{ACAD_XDICTIONARY
360
5BE41
102
}
330
458D3
100
AcDbEntity
 67
     1
  8
0
100
AcDbViewport
 10
151.3779163240291
 20
113.2896295172052
 30
0.0
 40
366.3709410061038
 41
189.7554135379714
 68
     1
 69
     1
 12
151.3779163240291
 22
113.2896295172052
 13
0.0
 23
0.0
 14
0.5
 24
0.5
 15
0.5
 25
0.5
 16
0.0
 26
0.0
 36
1.0
 17
0.0
 27
0.0
 37
0.0
 42
50.0
 43
0.0
 44
0.0
 45
189.7554135379714
 50
0.0
 51
0.0
 72
 20000
 90
    32800
  1

281
     0
 71
     1
 74
     0
110
0.0
120
0.0
130
0.0
111
1.0
121
0.0
131
0.0
112
0.0
122
1.0
132
0.0
 79
     0
146
0.0
  0
VIEWPORT
  5
48104
102
{ACAD_XDICTIONARY
360
5BE43
102
}
330
458D3
100
AcDbEntity
 67
     1
  8
AREA1
100
AcDbViewport
 10
128.5204046558613
 20
96.93359731921567
 30
0.0
 40
205.266468072606
 41
154.8671946384313
 68
     2
 69
     2
 12
794.1885581983463
 22
397.2164929416102
 13
0.0
 23
0.0
 14
0.25
 24
0.25
 15
0.25
 25
0.25
 16
0.0
 26
0.0
 36
1.0
 17
272.824838996967
 27
8.306349224220612
 37
23.31369335295995
 42
50.0
 43
0.0
 44
0.0
 45
333.6999574338254
 50
0.0
 51
0.0
 72
 20000
 90
    32800
  1

281
     0
 71
     1
 74
     0
110
266.8673580196576
120
8.203180508612135
130
3.646124999999996
111
1.0
121
0.0
131
0.0
112
0.0
122
1.0
132
0.0
 79
     1
146
0.0
  0
TEXT
  5
4810E
330
458D3
100
AcDbEntity
 67
     1
  8
0
100
AcDbText
 10
133.2323326534653
 20
186.9455936734827
 30
0.0
 40
5.113019999999999
  1
844D-*
100
AcDbText
  0
TEXT
  5
4810F
330
458D3
100
AcDbEntity
 67
     1
  8
0
100
AcDbText
 10
133.2323326534653
 20
178.4238936734827
 30
0.0
 40
4.0
  1
Hollow Shaft Terminal Model
100
AcDbText
  0
ENDSEC
  0
SECTION
  2
OBJECTS
  0
DICTIONARY
  5
458CB
330
0
100
AcDbDictionary
281
     1
  3
ACAD_COLOR
350
459D8
  3
ACAD_GROUP
350
458CC
  3
ACAD_LAYOUT
350
458FB
  3
ACAD_MATERIAL
350
459D7
  3
ACAD_MLINESTYLE
350
458D9
  3
ACAD_PLOTSETTINGS
350
458FC
  3
ACAD_PLOTSTYLENAME
350
458F9
  3
ACAD_TABLESTYLE
350
46C32
  3
ACDBVARIABLEDICTIONARY
350
458E1
  3
DWGPROPS
350
5BE3C
  0
DICTIONARY
  5
480DB
330
458C1
100
AcDbDictionary
280
     1
281
     1
  3
ACAD_LAYERFILTERS
360
5B438
  3
ACAD_LAYERSTATES
360
48105
  3
ACLYDICTIONARY
360
5B437
  0
DICTIONARY
  5
45930
330
458D6
100
AcDbDictionary
280
     1
281
     1
  3
ACAD_LAYOUTSELFREF
360
459C8
  0
DICTIONARY
  5
4592E
330
458D3
100
AcDbDictionary
280
     1
281
     1
  3
ACAD_LAYOUTSELFREF
360
459C7
  0
DICTIONARY
  5
5BE41
330
48102
100
AcDbDictionary
280
     1
281
     1
  3
ACAD_XREC_ROUNDTRIP
360
5BE42
  0
DICTIONARY
  5
5BE43
330
48104
100
AcDbDictionary
280
     1
281
     1
  3
ACAD_XREC_ROUNDTRIP
360
5BE44
  0
DICTIONARY
  5
459D8
102
{ACAD_REACTORS
330
458CB
102
}
330
458CB
100
AcDbDictionary
281
     1
  0
DICTIONARY
  5
458CC
102
{ACAD_REACTORS
330
458CB
102
}
330
458CB
100
AcDbDictionary
281
     1
  0
DICTIONARY
  5
458FB
102
{ACAD_REACTORS
330
458CB
102
}
330
458CB
100
AcDbDictionary
281
     1
  3
Layout1
350
458FE
  3
Model
350
458FD
  0
DICTIONARY
  5
459D7
102
{ACAD_REACTORS
330
458CB
102
}
330
458CB
100
AcDbDictionary
281
     1
  0
DICTIONARY
  5
458D9
102
{ACAD_REACTORS
330
458CB
102
}
330
458CB
100
AcDbDictionary
281
     1
  3
STANDARD
350
458DA
  0
DICTIONARY
  5
458FC
102
{ACAD_REACTORS
330
458CB
102
}
330
458CB
100
AcDbDictionary
281
     1
  0
ACDBDICTIONARYWDFLT
  5
458F9
102
{ACAD_REACTORS
330
458CB
102
}
330
458CB
100
AcDbDictionary
281
     1
  3
Normal
350
458FA
100
AcDbDictionaryWithDefault
340
458FA
  0
DICTIONARY
  5
46C32
102
{ACAD_REACTORS
330
458CB
102
}
330
458CB
100
AcDbDictionary
281
     1
  3
Standard
350
46C33
  0
DICTIONARY
  5
458E1
102
{ACAD_REACTORS
330
458CB
102
}
330
458CB
100
AcDbDictionary
281
     1
  3
CTABLESTYLE
350
46C39
  3
DIMADEC
350
458E2
  3
DIMASSOC
350
46C46
  3
PROJECTNAME
350
46C47
  0
XRECORD
  5
5BE3C
102
{ACAD_REACTORS
330
458CB
102
}
330
458CB
100
AcDbXrecord
280
     1
  1
DWGPROPS COOKIE
  2

  3

  4

  6

  7

  8
TModica
  9

300
=
301
=
302
=
303
=
304
=
305
=
306
=
307
=
308
=
309
=
 40
0.3236236342592593
 41
2453042.595653843
 42
2453597.69722765
  1

 90
        0
  0
DICTIONARY
  5
5B438
102
{ACAD_REACTORS
330
480DB
102
}
330
480DB
100
AcDbDictionary
281
     1
  0
DICTIONARY
  5
48105
102
{ACAD_REACTORS
330
480DB
102
}
330
480DB
100
AcDbDictionary
281
     1
  0
DICTIONARY
  5
5B437
102
{ACAD_REACTORS
330
480DB
102
}
330
480DB
100
AcDbDictionary
281
     1
1001
ACAD
1000
<All
  0
XRECORD
  5
459C8
102
{ACAD_REACTORS
330
45930
102
}
330
45930
100
AcDbXrecord
280
     1
340
458D6
  0
XRECORD
  5
459C7
102
{ACAD_REACTORS
330
4592E
102
}
330
4592E
100
AcDbXrecord
280
     1
340
458D3
  0
XRECORD
  5
5BE42
102
{ACAD_REACTORS
330
5BE41
102
}
330
5BE41
100
AcDbXrecord
280
     1
102
SHADEPLOT
 70
     0
  0
XRECORD
  5
5BE44
102
{ACAD_REACTORS
330
5BE43
102
}
330
5BE43
100
AcDbXrecord
280
     1
102
SHADEPLOT
 70
     0
  0
LAYOUT
  5
458FE
102
{ACAD_XDICTIONARY
360
48133
102
}
102
{ACAD_REACTORS
330
458FB
102
}
330
458FB
100
AcDbPlotSettings
  1

  2
\\usmkevprnt001\USMKEPD0487
  4
Letter
  6

 40
7.143749713897705
 41
5.027085304260253
 42
7.14373779296875
 43
5.027069091796875
 44
215.8999938964843
 45
279.3999938964843
 46
-0.0000000000000113
 47
14.56436523858406
 48
0.0
 49
0.0
140
0.0
141
0.0
142
1.0
143
21.73966717538989
 70
   692
 72
     0
 73
     1
 74
     1
  7
acad.ctb
 75
     0
147
0.0459988642849159
148
-652.7799999999996
149
-495.2999999999999
100
AcDbLayout
  1
Layout1
 70
     1
 71
     1
 10
8.931840085394117
 20
13.38571885179438
 11
248.0681737907302
 21
198.1728846186557
 12
0.0
 22
0.0
 32
0.0
 14
25.88717061955833
 24
19.5
 34
0.0
 15
231.1536386921643
 25
192.0586136734827
 35
0.0
146
0.0
 13
0.0
 23
0.0
 33
0.0
 16
1.0
 26
0.0
 36
0.0
 17
0.0
 27
1.0
 37
0.0
 76
     0
330
458D3
331
48102
1001
ACAD_PSEXT
1000
\\usmkevprnt001\USMKEPD0487
1000
RICOH Aficio 2035 PCL 5e
1000
MKE - 7H29
1000
IKON ID: N/A FAX: N/A UNIX: N/A MAINFRAME: R5074
1070
     0
  0
LAYOUT
  5
458FD
102
{ACAD_XDICTIONARY
360
5BE3E
102
}
102
{ACAD_REACTORS
330
458FB
102
}
330
458FB
100
AcDbPlotSettings
  1

  2
\\usmkevprnt001\USMKEPD0487
  4
Letter
  6

 40
7.143749713897705
 41
5.027085304260253
 42
7.14373779296875
 43
5.027069091796875
 44
215.8999938964843
 45
279.3999938964843
 46
69.08278724492785
 47
0.0
 48
0.0
 49
0.0
140
0.0
141
0.0
142
1.0
143
46.08643047371788
 70
 11956
 72
     0
 73
     1
 74
     1
  7
acad.ctb
 75
     0
147
0.0216983608780524
148
12526.7129110102
149
-10456.17513608382
100
AcDbLayout
  1
Model
 70
     1
 71
     0
 10
0.0
 20
0.0
 11
12.0
 21
9.0
 12
0.0
 22
0.0
 32
0.0
 14
0.0
 24
0.0
 34
0.0
 15
0.0
 25
0.0
 35
0.0
146
0.0
 13
0.0
 23
0.0
 33
0.0
 16
1.0
 26
0.0
 36
0.0
 17
0.0
 27
1.0
 37
0.0
 76
     0
330
458D6
1001
ACAD_PSEXT
1000
\\usmkevprnt001\USMKEPD0487
1000
RICOH Aficio 2035 PCL 5e
1000
MKE - 7H29
1000
IKON ID: N/A FAX: N/A UNIX: N/A MAINFRAME: R5074
1070
     0
  0
MLINESTYLE
  5
458DA
102
{ACAD_REACTORS
330
458D9
102
}
330
458D9
100
AcDbMlineStyle
  2
STANDARD
 70
     0
  3

 62
   256
 51
90.0
 52
90.0
 71
     2
 49
0.5
 62
   256
  6
BYLAYER
 49
-0.5
 62
   256
  6
BYLAYER
  0
ACDBPLACEHOLDER
  5
458FA
102
{ACAD_REACTORS
330
458F9
102
}
330
458F9
  0
ACAD_PROXY_OBJECT
  5
46C33
102
{ACAD_REACTORS
330
46C32
102
}
330
46C32
100
AcDbProxyObject
 90
      499
 91
      512
 95
   393239
 70
     0
 93
     1841
310
4214DD185B99185C9928000000000000F83F0000000000003E0FC00000000000004901028000000C1008070000C3001FDFF8000000C1003FBFF000000182007F7FE00000030400FEFFC00000060801FDFF8000000C1003FBFF000000182000000000000000C2020B0000001820100E000186003FBFF000000182007F7FE000
310
00030400FEFFC00000060801FDFF8000000C1003FBFF000000182007F7FE0000003040000000000000012404160000003040201C00030C007F7FE00000030400FEFFC00000060801FDFF8000000C1003FBFF000000182007F7FE00000030400FEFFC00000060801A
340
458CE
340
458CE
340
458CE
 94
        0
  0
DICTIONARYVAR
  5
46C39
102
{ACAD_REACTORS
330
458E1
102
}
330
458E1
100
DictionaryVariables
280
     0
  1
STANDARD
  0
DICTIONARYVAR
  5
458E2
102
{ACAD_REACTORS
330
458E1
102
}
330
458E1
100
DictionaryVariables
280
     0
  1
0
  0
DICTIONARYVAR
  5
46C46
102
{ACAD_REACTORS
330
458E1
102
}
330
458E1
100
DictionaryVariables
280
     0
  1
1
  0
DICTIONARYVAR
  5
46C47
102
{ACAD_REACTORS
330
458E1
102
}
330
458E1
100
DictionaryVariables
280
     0
  1

  0
DICTIONARY
  5
48133
330
458FE
100
AcDbDictionary
280
     1
281
     1
  3
ACAD_XREC_ROUNDTRIP
360
5BE40
  3
ADSK_XREC_LAYOUTTHUMBNAIL
360
48134
  0
DICTIONARY
  5
5BE3E
330
458FD
100
AcDbDictionary
280
     1
281
     1
  3
ACAD_XREC_ROUNDTRIP
360
5BE3F
  0
XRECORD
  5
5BE40
102
{ACAD_REACTORS
330
48133
102
}
330
48133
100
AcDbXrecord
280
     1
102
SHADEPLOT
 70
     0
102
SHADEPLOTRESLEVEL
 70
     2
102
SHADEPLOTCUSTOMDPI
 70
   300
  0
XRECORD
  5
48134
102
{ACAD_REACTORS
330
48133
102
}
330
48133
100
AcDbXrecord
280
     1
310
28000000B40000008B0000000100080000000000BC61000000000000000000000001000000000000FFFFFF0000000000FFFFFF000000000000000000000000000000000000000000000000000000000000000000330000006600000099000000CC000000FF00000000330000333300006633000099330000CC330000FF3300
310
0000660000336600006666000099660000CC660000FF66000000990000339900006699000099990000CC990000FF99000000CC000033CC000066CC000099CC0000CCCC0000FFCC000000FF000033FF000066FF000099FF0000CCFF0000FFFF000000003300330033006600330099003300CC003300FF003300003333003333
310
33006633330099333300CC333300FF33330000663300336633006666330099663300CC663300FF66330000993300339933006699330099993300CC993300FF99330000CC330033CC330066CC330099CC3300CCCC3300FFCC330000FF330033FF330066FF330099FF3300CCFF3300FFFF330000006600330066006600660099
310
006600CC006600FF00660000336600333366006633660099336600CC336600FF33660000666600336666006666660099666600CC666600FF66660000996600339966006699660099996600CC996600FF99660000CC660033CC660066CC660099CC6600CCCC6600FFCC660000FF660033FF660066FF660099FF6600CCFF6600
310
FFFF660000009900330099006600990099009900CC009900FF00990000339900333399006633990099339900CC339900FF33990000669900336699006666990099669900CC669900FF66990000999900339999006699990099999900CC999900FF99990000CC990033CC990066CC990099CC9900CCCC9900FFCC990000FF99
310
0033FF990066FF990099FF9900CCFF9900FFFF99000000CC003300CC006600CC009900CC00CC00CC00FF00CC000033CC003333CC006633CC009933CC00CC33CC00FF33CC000066CC003366CC006666CC009966CC00CC66CC00FF66CC000099CC003399CC006699CC009999CC00CC99CC00FF99CC0000CCCC0033CCCC0066CC
310
CC0099CCCC00CCCCCC00FFCCCC0000FFCC0033FFCC0066FFCC0099FFCC00CCFFCC00FFFFCC000000FF003300FF006600FF009900FF00CC00FF00FF00FF000033FF003333FF006633FF009933FF00CC33FF00FF33FF000066FF003366FF006666FF009966FF00CC66FF00FF66FF000099FF003399FF006699FF009999FF00CC
310
99FF00FF99FF0000CCFF0033CCFF0066CCFF0099CCFF00CCCCFF00FFCCFF0000FFFF0033FFFF0066FFFF0099FFFF00CCFFFF00FFFFFF00000000000D0D0D001A1A1A00282828003535350043434300505050005D5D5D006B6B6B00787878008686860093939300A1A1A100AEAEAE00BBBBBB00C9C9C900D6D6D600E4E4E400
310
F1F1F100FFFFFF0000000000000000000000000000000000000000000000000000000000000000000000000000000000E2E2E2E2E2E2E2E2E2E2E2E2E2E2E2E2E2E2E2E2E2E2E2E2E2E2E2E2E2E2E2E2E2E2E2E2E2E2E2E2E2E2E2E2E2E2E2E2E2E2E2E2E2E2E2E2E2E2E2E2E2E2E2E2E2E2E2E2E2E2E2E2E2E2E2E2E2E2E2
310
E2E2E2E2E2E2E2E2E2E2E2E2E2E2E2E2E2E2E2E2E2E2E2E2E2E2E2E2E2E2E2E2E2E2E2E2E2E2E2E2E2E2E2E2E2E2E2E2E2E2E2E2E2E2E2E2E2E2E2E2E2E2E2E2E2E2E2E2E2E2E2E2E2E2E2E2E2E2E2E2E2E2E2E2E2E2E2E2E2E2E2E2E2E2E2E2E2E2E2E2E2E2F5F5F5F5F5F5F5F5F5F5F5F5F5F5F5F5F5F5F5F5F5F5F5F5F5
310
F5F5F5F5F5F5F5F5F5F5F5F5F5F5F5F5F5F5F5F5F5F5F5F5F5F5F5F5F5F5F5F5F5F5F5F5F5F5F5F5F5F5F5F5F5F5F5F5F5F5F5F5F5F5F5F5F5F5F5F5F5F5F5F5F5F5F5F5F5F5F5F5F5F5F5F5F5F5F5F5F5F5F5F5F5F5F5F5F5F5F5F5F5F5F5F5F5F5F5F5F5F5F5F5F5F5F5F5F5F5F5F5F5F5F5F5F5F5F5F5F5F5F5F5F5F5F5
310
F5F5F5F5F5F5F5F5F5F5F5F5F5F5F5F5F5F5F5F5F5F5F5F5E2E2E2E2F5F5F5F5F5F5F5F5F5F5F5F5F5F5F5F5F5F5F5F5F5F5F5F5F5F5F5F5F5F5F5F5F5F5F5F5F5F5F5F5F5F5F5F5F5F5F5F5F5F5F5F5F5F5F5F5F5F5F5F5F5F5F5F5F5F5F5F5F5F5F5F5F5F5F5F5F5F5F5F5F5F5F5F5F5F5F5F5F5F5F5F5F5F5F5F5F5F5F5
310
F5F5F5F5F5F5F5F5F5F5F5F5F5F5F5F5F5F5F5F5F5F5F5F5F5F5F5F5F5F5F5F5F5F5F5F5F5F5F5F5F5F5F5F5F5F5F5F5F5F5F5F5F5F5F5F5F5F5F5F5F5F5F5F5F5F5F5F5F5F5F5F5F5F5F5F5F5E2E2E2E2F5F5F5F5F5F5F5F5F5F5F5F5F5F5F5F5F5F5F5F5F5F5F5F5F5F5F5F5F5F5F5F5F5F5F5F5F5F5F5F5F5F5F5F5F5F5
310
F5F5F5F5F5F5F5F5F5F5F5F5F5F5F5F5F5F5F5F5F5F5F5F5F5F5F5F5F5F5F5F5F5F5F5F5F5F5F5F5F5F5F5F5F5F5F5F5F5F5F5F5F5F5F5F5F5F5F5F5F5F5F5F5F5F5F5F5F5F5F5F5F5F5F5F5F5F5F5F5F5F5F5F5F5F5F5F5F5F5F5F5F5F5F5F5F5F5F5F5F5F5F5F5F5F5F5F5F5F5F5F5F5F5F5F5F5F5F5F5F5F5F5F5F5F5F5
310
F5F5F5E2E2E2E2F5F5F5F5F5F5F5F5F5F5F5F5F5F5F5F5F5F5F5F5F5F5F5F5F5F5F5F5F5F5F5F5F5F5F5F5F5F5F5F5F5F5F5F5F5F5F5F5F5F5F5F5F5F5F5F5F5F5F5F5F5F5F5F5F5F5F5F5F5F5F5F5F5F5F5F5F5F5F5F5F5F5F5F5F5F5F5F5F5F5F5F5F5F5F5F5F5F5F5F5F5F5F5F5F5F5F5F5F5F5F5F5F5F5F5F5F5F5F5F5
310
F5F5F5F5F5F5F5F5F5F5F5F5F5F5F5F5F5F5F5F5F5F5F5F5F5F5F5F5F5F5F5F5F5F5F5F5F5F5F5F5F5F5F5F5F5F5F5F5F5F5F5F5F5F5F5F5E2E2E2E2F5F5E2E2E2E2E2E2E2E2F5E2E2E2E2E2E2E2E2E2E2E2E2E2E2E2E2E2E2E2E2E2E2E2E2E2E2E2E2E2E2E2E2E2E2E2E2E2E2E2E2E2E2E2E2E2E2E2E2E2E2E2E2E2E2E2E2
310
E2E2E2E2E2E2E2E2E2E2E2E2E2E2E2E2E2E2E2E2E2E2E2E2E2E2E2E2E2E2E2E2E2E2E2E2E2E2E2E2E2E2E2E2E2E2E2E2E2E2E2E2E2E2E2E2E2E2E2E2E2E2E2E2E2E2E2E2E2E2E2E2E2E2E2E2E2E2E2E2E2E2E2E2E2E2E2E2E2E2E2E2E2E2E2E2E2E2F5E2E2E2E2E2E2E2E2F5F5E2E2E2E2F5F5E2F5F5F5F5F5F5F5F5E2F5F5
310
F5F5F5F5F5F5F5F5F5F5F5F5F5F5F5F5F5F5F5F5F5F5F5F5F5F5F5F5F5F5F5F5F5F5F5F5F5F5F5F5F5F5F5F5F5F5F5F5F5F5F5F5F5F5F5F5F5F5F5F5F5F5F5F5F5F5F5F5F5F5F5F5F5F5F5F5F5F5F5F5F5F5F5F5F5F5F5F5F5F5F5F5F5F5F5F5F5F5F5F5F5F5F5F5F5F5F5F5F5F5F5F5F5F5F5F5F5F5F5F5F5F5F5F5F5F5F5
310
F5F5F5F5F5F5F5F5F5F5F5F5F5F5F5F5F5F5F5F5F5F5F5E2F5F5F5F5F5F5F5F5E2F5F5E2E2E2E2F5F5E2F5F5F5F5F5F5F5F5E2F5F5F5F5F5F5F5F5F5F5F5F5F5F5F5F5F5F5F5F5F5F5F5F5F5F5F5F5F5F5F5F5F5F5F5F5F5F5F5F5F5F5F5F5F5F5F5F5F5F5F5F5F5F5F5F5F5F5F5F5F5F5F5F5F5F5F5F5F5F5F5F5F5F5F5F5
310
F5F5F5F5F5F5F5F5F5F5F5F5F5F5F5F5F5F5F5F5F5F5F5F5F5F5F5F5F5F5F5F5F5F5F5F5F5F5F5F5F5F5F5F5F5F5F5F5F5F5F5F5F5F5F5F5F5F5F5F5F5F5F5F5F5F5F5F5F5F5F5F5F5F5F5F5E2F5F5F5F5F5F5F5F5E2F5F5E2E2E2E2F5F5E2F5F5F5F5F5F5F5F5E2F5F5F5F5F5F5F5F5F5F5F5F5F5F5F5F5F5F5F5F5F5F5F5
310
F5F5F5F5F5F5F5F5F5F5F5F5F5F5F5F5F5F5F5F5F5F5F5F5F5F5F5F5F5F5F5F5F5F5F5F5F5F5F5F5F5F5F5F5F5F5F5F5F5F5F5F5F5F5F5F5F5F5F5F5F5F5F5F5F5F5F5F5F5F5F5F5F5F5F5F5F5F5F5F5F5F5F5F5F5F5F5F5F5F5F5F5F5F5F5F5F5F5F5F5F5F5F5F5F5F5F5F5F5F5F5F5F5F5F5F5F5F5F5F5F5F5F5F5F5F5F5
310
F5F5E2F5F5F5F5F5F5F5F5E2F5F5E2E2E2E2F5F5E2F5F5F5F5F5F5F5F5E2F5F5F5F5F5F5F5F5F5F5F5F5F5F5F5F5F5F5F5F5F5F5F5F5F5F5F5F5F5F5F5F5F5F5F5F5F5F5F5F5F5F5F5F5F5F5F5F5F5F5F5F5F5F5F5F5F5F5F5F5F5F5F5F5F5F5F5F5F5F5F5F5F5F5F5F5F5F5F5F5F5F5F5F5F5F5F5F5F5F5F5F5F5F5F5F5F5
310
F5F5F5F5F5F5F5F5F5F5F5F5F5F5F5F5F5F5F5F5F5F5F5F5F5F5F5F5F5F5F5F5F5F5F5F5F5F5F5F5F5F5F5F5F5F5F5F5F5F5F5F5F5F5F5E2F5F5F5F5F5F5F5F5E2F5F5E2E2E2E2F5F5E2F5F5F5F5F5F5F5F5E2F5F5F5F5F5F5F5F5F5F5F5F5F5F5F5F5F5F5F5F5F5F5F5F5F5F5F5F5F5F5F5F5F5F5F5F5F5F5F5F5F5F5F5F5
310
F5F5F5F5F5F5F5F5F5F5F5F5F5F5F5F5F5F5F5F5F5F5F5F5F5F5F5F5F5F5F5F5F5F5F5F5F5F5F5F5F5F5F5F5F5F5F5F5F5F5F5F5F5F5F5F5F5F5F5F5F5F5F5F5F5F5F5F5F5F5F5F5F5F5F5F5F5F5F5F5F5F5F5F5F5F5F5F5F5F5F5F5F5F5F5F5F5F5F5F5F5F5F5F5F5F5F5F5E2F5F5F5F5F5F5F5F5E2F5F5E2E2E2E2F5F5E2
310
F5F5F5F5F5F5F5F5E2F5F5F5F5F5F5F5F5F5F5F5F5F5F5F5F5F5F5F5F5F5F5F5F5F5F5F5F5F5F5F5F5F5F5F5F5F5F5F5F5F5F5F5F5F5F5F5F5F5F5F5F5F5F5F5F5F5F5F5F5F5F5F5F5F5F5F5F5F5F5F5F5F5F5F5F5F5F5F5F5F5F5F5F5F5F5F5F5F5F5F5F5F5F5F5F5F5F5F5F5F5F5F5F5F5F5F5F5F5F5F5F5F5F5F5F5F5F5
310
F5F5F5F5F5F5F5F5F5F5F5F5F5F5F5F5F5F5F5F5F5F5F5F5F5F5F5F5F5F5F5F5F5F5E2F5F5F5F5F5F5F5F5E2F5F5E2E2E2E2F5F5E2F5F5F5F5F5F5F5F5E2F5F5F5F5F5F5F5F5F5F5F5F5F5F5F5F5F5F5F5F5F5F5F5F5F5F5F5F5F5F5F5F5F5F5F5F5F5F5F5F5F5F5F5F5F5F5F5F5F5F5F5F5F5F5F5F5F5F5F5F5F5F5F5F5F5
310
F5F5F5F5F5F5F5F5F5F5F5F5F5F5F5F5F5F5F5F5F5F5F5F5F5F5F5F5F5F5F5F5F5F5F5F5F5F5F5F5F5F5F5F5F5F5F5F5F5F5F5F5F5F5F5F5F5F5F5F5F5F5F5F5F5F5F5F5F5F5F5F5F5F5F5F5F5F5F5F5F5F5F5F5F5F5F5E2F5F5F5F5F5F5F5F5E2F5F5E2E2E2E2F5F5E2F5F5F5F5F5F5F5F5E2F5F5F5F5F5F5F5F5F5F5F5F5
310
F5F5F5F5F5F5F5F5F5F5F5F5F5F5F5F5F5F5F5F5F5F5F5F5F5F5F5F5F5F5F5F5F5F5F5F5F5F5F5F5F5F5F5F5F5F5F5F5F5F5F5F5F5F5F5F5F5F5F5F5F5F5F5F5F5F5F5F5F5F5F5F5F5F5F5F5F5F5F5F5F5F5F5F5F5F5F5F5F5F5F5F5F5F5F5F5F5F5F5F5F5F5F5F5F5F5F5F5F5F5F5F5F5F5F5F5F5F5F5F5F5F5F5F5F5F5F5
310
F5F5F5F5F5F5F5F5F5F5F5F5F5E2F5F5F5F5F5F5F5F5E2F5F5E2E2E2E2F5F5F5F5F5F5F5F5F5F5F5E2F5F5F5F5F5F5F5F5F5F5F5F5F5F5F5F5F5F5F5F5F5F5F5F5F5F5F5F5F5F5F5F5F5F5F5F5F5F5F5F5F5F5F5F5F5F5F5F5F5F5F5F5F5F5F5F5F5F5F5F5F5F5F5F5F5F5F5F5F5F5F5F5F5F5F5F5F5F5F5F5F5F5F5F5F5F5
310
F5F5F5F5F5F5F5F5F5F5F5F5F5F5F5F5F5F5F5F5F5F5F5F5F5F5F5F5F5F5F5F5F5F5F5F5F5F5F5F5F5F5F5F5F5F5F5F5F5F5F5F5F5F5F5F5F5F5F5F5F5F5F5F5F5F5E2F5F5F5F5F5F5F5F5F5F5F5E2E2E2E2F5F5F5F5F5F5F5F5F5F5F5E2F5F5F5F5F5F5F5F5F5F5F5F5F5F5F5F5F5F5F5F5F5F5F5F5F5F5F5F5F5F5F5F5F5
310
F5F5F5F5F5F5F5F5F5F5F5F5F5F5F5F5F5F5F5F5F5F5F5F5F5F5F5F5F5F5F5F5F5F5F5F5F5F5F5F5F5F5F5F5F5F5F5F5F5F5F5F5F5F5F5F5F5F5F5F5F5F5F5F5F5F5F5F5F5F5F5F5F5F5F5F5F5F5F5F5F5F5F5F5F5F5F5F5F5F5F5F5F5F5F5F5F5F5F5F5F5F5F5F5F5F5F5F5F5F5F5F5F5F5F5F5F5F5F5E2F5F5F5F5F5F5F5
310
F5F5F5F5E2E2E2E2F5F5F5F5F5F5F5F5F5F5F5E2F5F5F5F5F5F5F5F5F5F5F5F5F5F5F5F5F5F5F5F5F5F5F5F5F5F5F5F5F5F5F5F5F5F5F5F5F5F5F5F5F5F5F5F5F5F5F5F5F5F5F5F5F5F5F5F5F5F5F5F5F5F5F5F5F5F5F5F5F5F5F5F5F5F5F5F5F5F5F5F5F5F5F5F5F5F5F5F5F5F5F5F5F5F5F5F5F5F5F5F5F5F5F5F5F5F5F5
310
F5F5F5F5F5F5F5F5F5F5F5F5F5F5F5F5F5F5F5F5F5F5F5F5F5F5F5F5F5F5F5F5F5F5F5F5F5F5F5F5F5F5F5F5F5E2F5F5F5F5F5F5F5F5F5F5F5E2E2E2E2F5F5F5F5F5F5F5F5F5F5F5E2F5F5F5F5F5F5F5F5F5F5F5F5F5F5F5F5F5F5F5F5F5F5F5F5F5F5F5F5F5F5F5F5F5F5F5F5F5F5F5F5F5F5F5F5F5F5F5F5F5F5F5F5F5F5
310
F5F5F5F5F5F5F5F5F5F5F5F5F5F5F5F5F5F5F5F5F5F5F5F5F5F5F5F5F5F5F5F5F5F5F5F5F5F5F5F5F5F5F5F5F5F5F5F5F5F5F5F5F5F5F5F5F5F5F5F5F5F5F5F5F5F5F5F5F5F5F5F5F5F5F5F5F5F5F5F5F5F5F5F5F5F5F5F5F5F5F5F5F5F5F5F5F5F5E2F5F5F5F5F5F5F5F5F5F5F5E2E2E2E2F5F5F5F5F5F5F5F5F5F5F5E2F5
310
F5F5F5F5F5F5F5F5F5F5F5F5F5F5F5F5F5F5F5F5F5F5F5F5F5F5F5F5F5F5F5F5F5F5F5F5F5F5F5F5F5F5F5F5F5F5F5F5F5F5F5F5F5F5F5F5F5F5F5F5F5F5F5F5F5F5F5F5F5F5F5F5F5F5F5F5F5F5F5F5F5F5F5F5F5F5F5F5F5F5F5F5F5F5F5F5F5F5F5F5F5F5F5F5F5F5F5F5F5F5F5F5F5F5F5F5F5F5F5F5F5F5F5F5F5F5F5
310
F5F5F5F5F5F5F5F5F5F5F5F5F5F5F5F5F5F5F5F5F5F5F5F5E2F5F5F5F5F5F5F5F5F5F5F5E2E2E2E2F5F5F5F5F5F5F5F5F5F5F5E2F5F5F5F5F5F5F5F5F5F5F5F5F5F5F5F5F5F5F5F5F5F5F5F5F5F5F5F5F5F5F5F5F5F5F5F5F5F5F5F5F5F5F5F5F5F5F5F5F5F5F5F5F5F5F5F5F5F5F5F5F5F5F5F5F5F5F5F5F5F5F5F5F5F5F5
310
F5F5F5F5F5F5F5F5F5F5F5F5F5F5F5F5F5F5F5F5F5F5F5F5F5F5F5F5F5F5F5F5F5F5F5F5F5F5F5F5F5F5F5F5F5F5F5F5F5F5F5F5F5F5F5F5F5F5F5F5F5F5F5F5F5F5F5F5F5F5F5F5F5F5F5F5F5E2F5F5F5F5F5F5F5F5F5F5F5E2E2E2E2F5F5F5F5F5F5F5F5F5F5F5E2F5F5F5F5F5F5F5F5F5F5F5F5F5F5F5F5F5F5F5F5F5F5
310
F5F5F5F5F5F5F5F5F5F5F5F5F5F5F5F5F5F5F5F5F5F5F5F5F5F5F5F5F5F5F5F5F5F5F5F5F5F5F5F5F5F5F5F5F5F5F5F5F5F5F5F5F5F5F5F5F5F5F5F5F5F5F5F5F5F5F5F5F5F5F5F5F5F5F5F5F5F5F5F5F5F5F5F5F5F5F5F5F5F5F5F5F5F5F5F5F5F5F5F5F5F5F5F5F5F5F5F5F5F5F5F5F5F5F5F5F5F5F5F5F5F5F5F5F5F5F5
310
F5F5F5E2F5F5F5F5F5F5F5F5F5F5F5E2E2E2E2F5F5F5F5F5F5F5F5F5F5F5E2F5F5F5F5F5F5F5F5F5F5F5F5F5F5F5F5F5F5F5F5F5F5F5F5F5F5F5F5F5F5F5F5F5F5F5F5F5F5F5F5F5F5F5F5F5F5F5F5F5F5F5F5F5F5F5F5F5F5F5F5F5F5F5F5F5F5F5F5F5F5F5F5F5F5F5F5F5F5F5F5F5F5F5F5F5F5F5F5F5F5F5F5F5F5F5F5
310
F5F5F5F5F5F5F5F5F5F5F5F5F5F5F5F5F5F5F5F5F5F5F5F5F5F5F5F5F5F5F5F5F5F5F5F5F5F5F5F5F5F5F5F5F5F5F5F5F5F5F5F5F5F5F5F5E2F5F5F5F5F5F5F5F5F5F5F5E2E2E2E2F5F5F5F5F5F5F5F5F5F5F5E2F5F5F5F5F5F5F5F5F5F5F5F5F5F5F5F5F5F5F5F5F5F5F5F5F5F5F5F5F5F5F5F5F5F5F5F5F5F5F5F5F5F5F5
310
F5F5F5F5F5F5F5F5F5F5F5F5F5F5F5F5F5F5F5F5F5F5F5F5F5F5F5F5F5F5F5F5F5F5F5F5F5F5F5F5F5F5F5F5F5F5F5F5F5F5F5F5F5F5F5F5F5F5F5F5F5F5F5F5F5F5F5F5F5F5F5F5F5F5F5F5F5F5F5F5F5F5F5F5F5F5F5F5F5F5F5F5F5F5F5F5F5F5F5F5F5F5F5F5F5F5F5F5F5E2F5F5F5F5F5F5F5F5F5F5F5E2E2E2E2F5F5
310
E2F5F5F5F5F5F5F5F5E2F5F5F5F5F5F5F5F5F5F5F5F5F5F5F5F5F5F5F5F5F5F5F5F5F5F5F5F5F5F5F5F5F5F5F5F5F5F5F5F5F5F5F5F5F5F5F5F5F5F5F5F5F5F5F5F5F5F5F5F5F5F5F5F5F5F5F5F5F5F5F5F5F5F5F5F5F5F5F5F5F5F5F5F5F5F5F5F5F5F5F5F5F5F5F5F5F5F5F5F5F5F5F5F5F5F5F5F5F5F5F5F5F5F5F5F5F5
310
F5F5F5F5F5F5F5F5F5F5F5F5F5F5F5F5F5F5F5F5F5F5F5F5F5F5F5F5F5F5F5F5F5F5F5E2F5F5F5F5F5F5F5F5E2F5F5E2E2E2E2F5F5E2F5F5F5F5F5F5F5F5E2F5F5F5F5F5F5F5F5F5F5F5F5F5F5F5F5F5F5F5F5F5F5F5F5F5F5F5F5F5F5F5F5F5F5F5F5F5F5F5F5F5F5F5F5F5F5F5F5F5F5F5F5F5F5F5F5F5F5F5F5F5F5F5F5
310
F5F5F5F5F5F5F5F5F5F5F5F5F5F5F5F5F5F5F5F5F5F5F5F5F5F5F5F5F5F5F5F5F5F5F5F5F5F5F5F5F5F5F5F5F5F5F5F5F5F5F5F5F5F5F5F5F5F5F5F5F5F5F5F5F5F5F5F5F5F5F5F5F5F5F5F5F5F5F5F5F5F5F5F5F5F5F5F5E2F5F5F5F5F5F5F5F5E2F5F5E2E2E2E2F5F5E2F5F5F5F5F5F5F5F5E2F5F5F5F5F5F5F5F5F5F5F5
310
F5F5F5F5F5F5F5F5F5F5F5F5F5F5F5F5F5F5F5F5F5F5F5F5F5F5F5F5F5F5F5F5F5F5F5F5F5F5F5F5F5F5F5F5F5F5F5F5F5F5F5F5F5F5F5F5F5F5F5F5F5F5F5F5F5F5F5F5F5F5F5F5F5F5F5F5F5F5F5F5F5F5F5F5F5F5F5F5F5F5F5F5F5F5F5F5F5F5F5F5F5F5F5F5F5F5F5F5F5F5F5F5F5F5F5F5F5F5F5F5F5F5F5F5F5F5F5
310
F5F5F5F5F5F5F5F5F5F5F5F5F5F5E2F5F5F5F5F5F5F5F5E2F5F5E2E2E2E2F5F5E2F5F5F5F5F5F5F5F5E2F5F5F5F5F5F5F5F5F5F5F5F5F5F5F5F5F5F5F5F5F5F5F5F5F5F5F5F5F5F5F5F5F5F5F5F5F5F5F5F5F5F5F5F5F5F5F5F5F5F5F5F5F5F5F5F5F5F5F5F5F5F5F5F5F5F5F5F5F5F5F5F5F5F5F5F5F5F5F5F5F5F5F5F5F5
310
F5F5F5F5F5F5F5F5F5F5F5F5F5F5F5F5F5F5F5F5F5F5F5F5F5F5F5F5F5F5F5F5F5F5F5F5F5F5F5F5F5F5F5F5F5F5F5F5F5F5F5F5F5F5F5F5F5F5F5F5F5F5F5F5F5F5F5E2F5F5F5F5F5F5F5F5E2F5F5E2E2E2E2F5F5E2F5F5F5F5F5F5F5F5E2F5F5F5F5F5F5F5F5F5F5F5F5F5F5F5F5F5F5F5F5F5F5F5F5F5F5F5F5F5F5F5F5
310
F5F5F5F5F5F5F5F5F5F5F5F5F5F5F5F5F5F5F5F5F5F5F5F5F5F5F5F5F5F5F5F5F5F5F5F5F5F5F5F5F5F5F5F5F5F5F5F5F5F5F5F5F5F5F5F5F5F5F5F5F5F5F5F5F5F5F5F5F5F5F5F5F5F5F5F5F5F5F5F5F5F5F5F5F5F5F5F5F5F5F5F5F5F5F5F5F5F5F5F5F5F5F5F5F5F5F5F5F5F5F5F5F5F5F5F5F5F5F5F5E2F5F5F5F5F5F5
310
F5F5E2F5F5E2E2E2E2F5F5E2F5F5F5F5F5F5F5F5E2F5F5F5F5F5F5F5F5F5F5F5F5F5F5F5F5F5F5F5F5F5F5F5F5F5F5F5F5F5F5F5F5F5F5F5F5F5F5F5F5F5F5F5F5F5F5F5F5F5F5F5F5F5F5F5F5F5F5F5F5F5F5F5F5F5F5F5F5F5F5F5F5F5F5F5F5F5F5F5F5F5F5F5F5F5F5F5F5F5F5F5F5F5F5F5F5F5F5F5F5F5F5F5F5F5F5
310
F5F5F5F5F5F5F5F5F5F5F5F5F5F5F5F5F5F5F5F5F5F5F5F5F5F5F5F5F5F5F5F5F5F5F5F5F5F5F5F5F5F5F5F5F5F5E2F5F5F5F5F5F5F5F5E2F5F5E2E2E2E2F5F5E2F5F5F5F5F5F5F5F5E2F5F5F5F5F5F5F5F5F5F5F5F5F5F5F5F5F5F5F5F5F5F5F5F5F5F5F5F5F5F5F5F5F5F5F5F5F5F5F5F5F5F5F5F5F5F5F5F5F5F5F5F5F5
310
F5F5F5F5F5F5F5F5F5F5F5F5F5F5F5F5F5F5F5F5F5F5F5F5F5F5F5F5F5F5F5F5F5F5F5F5F5F5F5F5F5F5F5F5F5F5F5F5F5F5F5F5F5F5F5F5F5F5F5F5F5F5F5F5F5F5F5F5F5F5F5F5F5F5F5F5F5F5F5F5F5F5F5F5F5F5F5F5F5F5F5F5F5F5F5F5F5F5F5E2F5F5F5F5F5F5F5F5E2F5F5E2E2E2E2F5F5E2F5F5F5F5F5F5F5F5E2
310
F5F5F5F5F5F5F5F5F5F5F5F5F5F5F5F5F5F5F5F5F5F5F5F5F5F5F5F5F5F5F5F5F5F5F5F5F5F5F5F5F5F5F5F5F5F5F5F5F5F5F5F5F5F5F5F5F5F5F5F5F5F5F5F5F5F5F5F5F5F5F5F5F5F5F5F5F5F5F5F5F5F5F5F5F5F5F5F5F5F5F5F5F5F5F5F5F5F5F5F5F5F5F5F5F5F5F5F5F5F5F5F5F5F5F5F5F5F5F5F5F5F5F5F5F5F5F5
310
F5F5F5F5F5F5F5F5F5F5F5F5F5F5F5F5F5F5F5F5F5F5F5F5F5E2F5F5F5F5F5F5F5F5E2F5F5E2E2E2E2F5F5E2F5F5F5F5F5F5F5F5E2F5F5F5F5F5F5F5F5F5F5F5F5F5F5F5F5F5F5F5F5F5F5F5F5F5F5F5F5F5F5F5F5F5F5F5F5F5F5F5F5F5F5F5F5F5F5F5F5F5F5F5F5F5F5F5F5F5F5F5F5F5F5F5F5F5F5F5F5F5F5F5F5F5F5
310
F5F5F5F5F5F5F5F5F5F5F5F5F5F5F5F5F5F5F5F5F5F5F5F5F5F5F5F5F5F5F5F5F5F5F5F5F5F5F5F5F5F5F5F5F5F5F5F5F5F5F5F5F5F5F5F5F5F5F5F5F5F5F5F5F5F5F5F5F5F5F5F5F5F5F5F5F5F5E2F5F5F5F5F5F5F5F5E2F5F5E2E2E2E2F5F5E2F5F5F5F5F5F5F5F5E2F5F5F5F5F5F5F5F5F5F5F5F5F5F5F5F5F5F5F5F5F5
310
F5F5F5F5F5F5F5F5F5F5F5F5F5F5F5F5F5F5F5F5F5F5F5F5F5F5F5F5F5F5F5F5F5F5F5F5F5F5F5F5F5F5F5F5F5F5F5F5F5F5F5F5F5F5F5F5F5F5F5F5F5F5F5F5F5F5F5F5F5F5F5F5F5F5F5F5F5F5F5F5F5F5F5F5F5F5F5F5F5F5F5F5F5F5F5F5F5F5F5F5F5F5F5F5F5F5F5F5F5F5F5F5F5F5F5F5F5F5F5F5F5F5F5F5F5F5F5
310
F5F5F5F5E2F5F5F5F5F5F5F5F5E2F5F5E2E2E2E2F5F5E2F5F5F5F5F5F5F5F5E2F5F5F5F5F5F5F5F5F5F5F5F5F5F5F5F5F5F5F5F5F5F5F5F5F5F5F5F5F5F5F5F5F5F5F5F5F5F5F5F5F5F5F5F5F5F5F5F5F5F5F5F5F5F5F5F5F5F5F5F5F5F5F5F5F5F5F5F5F5F5F5F5F5F5F5F5F5F5F5F5F5F5F5F5F5F5F5F5F5F5F5F5F5F5F5
310
F5F5F5F5F5F5F5F5F5F5F5F5F5F5F5F5F5F5F5F5F5F5F5F5F5F5F5F5F5F5F5F5F5F5F5F5F5F5F5F5F5F5F5F5F5F5F5F5F5F5F5F5F5F5F5F5F5E2F5F5F5F5F5F5F5F5E2F5F5E2E2E2E2F5F5E2F5F5F5F5F5F5F5F5E2F5F5F5F5F5F5F5F5F5F5F5F5F5F5F5F5F5F5F5F5F5F5F5F5F5F5F5F5F5F5F5F5F5F5F5F5F5F5F5F5F5F5
310
F5F5F5F5F5F5F5F5F5F5F5F5F5F5F5F5F5F5F5F5F5F5F5F5F5F5F5F5F5F5F5F5F5F5F5F5F5F5F5F5F5F5F5F5F5F5F5F5F5F5F5F5F5F5F5F5F5F5F5F5F5F5F5F5F5F5F5F5F5F5F5F5F5F5F5F5F5F5F5F5F5F5F5F5F5F5F5F5F5F5F5F5F5F5F5F5F5F5F5F5F5F5F5F5F5F5F5F5F5F5E2F5F5F5F5F5F5F5F5E2F5F5E2E2E2E2F5
310
F5E2F5F5F5F5F5F5F5F5E2F5F5F5F5F5F5F5F5F5F5F5F5F5F5F5F5F5F5F5F5F5F5F5F5F5F5F5F5F5F5F5F5F5F5F5F5F5F5F5F5F5F5F5F5F5F5F5F5F5F5F5F5F5F5F5F5F5F5F5F5F5F5F5F5F5F5F5F5F5F5F5F5F5F5F5F5F5F5F5F5F5F5F5F5F5F5F5F5F5F5F5F5F5F5F5F5F5F5F5F5F5F5F5F5F5F5F5F5F5F5F5F5F5F5F5F5
310
F5F5F5F5F5F5F5F5F5F5F5F5F5F5F5F5F5F5F5F5F5F5F5F5F5F5F5F5F5F5F5F5F5F5F5F5E2F5F5F5F5F5F5F5F5E2F5F5E2E2E2E2F5F5E2F5F5F5F5F5F5F5F5E2F5F5F5F5F5F5F5F5F5F5F5F5F5F5F5F5E2E2E2E2E2E2E2F5E2E2E2F5E2E2E2E2E2E2E2F5F5F5F5F5F5F5F5F5F5F5F5F5F5F5F5F5F5F5F5F5F5F5F5F5F5F5F5
310
F5F5F5F5F5F5F5F5F5F5F5F5F5F5F5F5F5F5F5F5F5F5F5F5F5F5F5F5F5F5F5F5F5F5F5F5F5F5F5F5F5F5F5F5F5F5F5F5F5F5F5F5F5F5F5F5F5F5F5F5F5F5F5F5F5F5F5F5F5F5F5F5F5F5F5F5F5F5F5F5F5F5F5F5F5F5F5F5F5E2F5F5F5F5F5F5F5F5E2F5F5E2E2E2E2F5F5E2F5F5F5F5F5F5F5F5E2F5F5F5F5F5F5F5F5F5F5
310
F5F5F5F5F5F5F5E2E2E2E2E2E2F5E2E2E2F5E2E2F5E2E2E2E2F5F5F5F5F5F5F5F5F5F5F5F5F5F5F5F5F5F5F5F5F5F5F5F5F5F5F5F5F5F5F5F5F5F5F5F5F5F5F5F5F5F5F5F5F5F5F5F5F5F5F5F5F5F5F5F5F5F5F5F5F5F5F5F5F5F5F5F5F5F5F5F5F5F5F5F5F5F5F5F5F5F5F5F5F5F5F5F5F5F5F5F5F5F5F5F5F5F5F5F5F5F5
310
F5F5F5F5F5F5F5F5F5F5F5F5F5F5F5E2F5F5F5F5F5F5F5F5E2F5F5E2E2E2E2F5F5E2F5F5F5F5F5F5F5F5E2F5F5F5F5F5F5F5F5F5F5F5F5F5F5F5F5F5F5E2F5F5F5F5F5F5F5F5F5F5F5F5F5F5E2F5F5F5F5F5F5F5F5F5F5F5F5F5F5F5F5F5F5F5F5F5F5F5F5F5F5F5F5F5F5F5F5F5F5F5F5F5F5F5F5F5F5F5F5F5F5F5F5F5F5
310
F5F5F5F5F5F5F5F5F5F5F5F5F5F5F5F5F5F5F5F5F5E2F5F5F5F5F5F5F5F5F5F5F5F5F5F5F5F5F5F5F5F5F5F5F5F5F5F5F5F5F5F5F5F5F5F5E2F5F5F5F5F5F5F5F5F5F5F5E2F5F5F5F5F5F5F5F5E2F5F5E2E2E2E2F5F5F5F5F5F5F5F5F5F5F5E2F5F5F5F5F5F5F5F5F5F5F5F5F5F5F5F5F5F5E2F5E2F5F5F5F5F5F5F5F5F5F5
310
F5E2E2F5F5F5F5F5F5F5F5F5F5F5F5F5F5F5F5F5F5F5F5F5F5F5F5F5F5F5F5F5F5F5F5F5F5F5F5F5F5F5F5F5F5F5F5F5F5F5F5F5F5F5F5F5F5F5F5F5F5F5F5F5F5F5F5F5F5F5F5F5F5F5E2E2E2E2E2E2E2E2E2E2E2E2E2E2E2E2E2E2E2F5E2E2E2E2E2E2E2E2E2E2E2E2E2E2E2E2F5F5F5F5F5F5F5F5F5F5F5E2F5F5F5F5F5
310
F5F5F5F5F5F5E2E2E2E2F5F5F5F5F5F5F5F5F5F5F5E2F5F5F5F5F5F5F5F5F5F5F5F5F5F5F5F5F5F5E2E2E2E2E2E2E2E2E2E2E2E2E2E2E2E2F5F5F5F5F5F5F5F5F5F5F5F5F5F5F5F5F5F5F5F5F5F5F5F5F5F5F5F5F5F5F5F5F5F5F5F5F5F5F5F5F5F5F5F5F5F5F5F5F5F5F5F5F5F5F5F5F5F5F5F5F5F5F5F5F5F5F5F5F5F5F5
310
E2E2F5F5F5F5F5F5F5F5F5F5E2E2E2E2E2E2E2F5E2E2E2F5F5F5F5F5F5F5F5F5F5E2E2E2F5F5F5F5F5F5F5F5F5F5F5E2F5F5F5F5F5F5F5F5F5F5F5E2E2E2E2F5F5F5F5F5F5F5F5F5F5F5E2F5F5F5F5F5F5F5F5F5F5F5F5F5F5F5F5F5F5E2F5F5F5F5F5F5F5F5F5F5F5F5F5F5E2E2F5F5F5F5F5F5F5F5F5F5F5F5F5F5F5F5F5
310
F5F5F5F5F5F5F5F5F5F5F5F5F5F5F5F5F5F5F5F5F5F5F5F5F5F5F5F5F5F5F5F5F5F5F5F5F5F5F5F5F5F5F5F5F5F5F5F5F5F5F5F5F5E2F5F5F5F5F5F5F5F5F5F5F5F5F5F5F5F5F5F5F5F5F5F5F5F5F5F5F5F5F5F5F5F5F5F5E2F5F5F5F5F5F5F5F5F5F5F5E2F5F5F5F5F5F5F5F5F5F5F5E2E2E2E2F5F5F5F5F5F5F5F5F5F5F5
310
E2F5F5F5F5F5F5F5F5F5F5F5F5F5F5F5F5F5F5E2F5F5F5F5F5F5F5F5F5F5F5E2E2E2E2E2E2E2E2E2E2E2E2E2F5E2E2E2F5E2E2E2F5F5F5F5F5F5F5F5F5F5F5F5F5F5F5F5F5F5F5F5F5F5F5F5F5F5F5F5F5F5F5F5F5F5F5F5F5F5F5F5F5F5F5F5F5F5F5F5F5F5F5F5F5F5E2F5F5F5F5F5F5F5F5F5F5F5F5F5F5F5F5F5F5F5F5
310
F5F5F5F5F5F5F5F5F5F5F5F5F5F5E2F5F5F5F5F5F5F5F5F5F5F5E2F5F5F5F5F5F5F5F5F5F5F5E2E2E2E2F5F5F5F5F5F5F5F5F5F5F5E2F5F5F5F5F5F5F5F5F5F5F5F5F5F5F5F5F5F5E2F5F5F5F5F5F5F5F5F5F5F5F5F5E2E2E2E2E2F5E2E2E2E2E2F5E2E2E2E2E2E2E2F5F5F5F5F5F5F5F5F5F5F5F5F5F5F5F5F5F5F5F5F5F5
310
F5F5F5F5F5F5F5F5F5F5F5F5F5F5F5F5F5F5F5F5F5F5F5F5F5F5F5F5F5F5F5F5E2F5F5F5F5F5F5F5F5F5F5F5F5F5F5F5F5F5F5F5F5F5F5F5F5F5F5F5F5F5F5F5F5F5F5E2F5F5F5F5F5F5F5F5F5F5F5E2F5F5F5F5F5F5F5F5F5F5F5E2E2E2E2F5F5F5F5F5F5F5F5F5F5F5E2F5F5F5F5F5F5F5F5F5E2E2E2E2E2E2E2E2E2E2E2
310
E2E2E2E2E2E2E2E2E2E2E2E2E2E2E2F5F5F5F5F5F5F5F5F5F5F5F5F5F5F5F5F5F5F5F5F5F5F5F5F5F5F5F5F5F5F5F5F5F5F5F5F5F5F5F5F5F5F5F5F5F5F5F5F5F5F5F5F5F5F5F5F5F5F5F5F5F5F5E2E2E2E2E2E2E2E2E2F5F5F5F5F5F5F5F5F5F5F5F5F5F5F5F5F5F5F5F5F5F5F5F5F5F5F5F5F5F5F5F5F5E2F5F5F5F5F5F5
310
F5F5F5F5F5E2F5F5F5F5F5F5F5F5F5F5F5E2E2E2E2F5F5F5F5F5F5F5F5F5F5F5E2F5F5F5F5F5F5F5F5F5F5E2E2F5F5F5F5F5F5E2E2F5F5F5F5F5F5F5F5F5F5F5E2F5E2E2F5F5F5F5F5F5F5F5F5F5F5F5F5F5F5F5F5F5F5F5F5F5F5F5F5F5F5F5F5F5F5F5F5F5F5F5F5F5F5F5F5F5F5F5F5F5F5F5F5F5F5F5F5F5F5F5F5F5F5
310
F5E2E2E2E2F5F5F5F5F5F5E2E2E2E2F5F5F5F5F5F5F5F5F5F5F5F5F5E2E2E2E2E2E2F5E2E2E2F5E2E2E2E2E2F5F5E2F5F5F5F5F5F5F5F5F5F5F5E2F5F5F5F5F5F5F5F5F5F5F5E2E2E2E2F5F5F5F5F5F5F5F5F5F5F5E2F5F5F5F5F5F5F5F5F5F5E2F5F5F5F5F5F5F5E2E2F5F5F5F5F5F5F5F5F5F5F5E2F5E2E2F5F5F5F5F5F5
310
F5F5F5F5F5F5F5F5F5F5F5F5F5F5F5F5F5F5F5F5F5F5F5F5F5F5F5F5F5F5F5F5F5F5F5F5F5F5F5F5F5F5F5F5F5F5F5F5F5F5F5F5E2E2E2F5F5F5F5F5F5F5F5F5E2F5F5F5E2E2F5F5F5F5F5F5F5F5F5F5F5E2E2E2E2E2E2F5E2E2F5F5E2F5E2E2E2F5F5E2F5F5F5F5F5F5F5F5F5F5F5E2F5F5F5F5F5F5F5F5F5F5F5E2E2E2E2
310
F5F5F5F5F5F5F5F5F5F5F5E2F5F5F5F5F5F5F5F5F5F5E2F5F5F5F5F5F5F5E2E2F5F5F5F5F5F5F5F5F5F5F5E2F5E2E2F5F5F5F5F5F5F5F5F5F5F5F5F5F5F5F5F5F5F5F5F5F5F5F5F5F5F5F5F5F5F5F5F5F5F5F5F5F5F5F5F5F5F5F5F5F5F5F5F5F5F5F5F5F5F5F5F5E2E2F5F5F5F5F5F5F5F5F5F5F5E2F5E2E2E2E2E2F5F5F5
310
F5F5F5F5F5F5F5E2E2E2F5E2E2F5E2E2F5F5E2F5E2E2E2F5F5E2F5F5F5F5F5F5F5F5F5F5F5E2F5F5F5F5F5F5F5F5F5F5F5E2E2E2E2F5F5F5F5F5F5F5F5F5F5F5E2F5F5F5F5F5F5F5F5F5F5E2F5F5F5F5F5F5F5E2E2F5F5F5F5F5F5F5F5F5F5F5E2E2E2E2F5F5F5F5F5F5F5F5F5F5F5F5F5F5F5F5F5F5F5F5F5F5F5F5F5F5F5
310
F5F5F5F5F5F5F5F5F5F5F5F5F5F5F5F5F5F5F5F5F5F5F5F5F5F5F5F5E2E2E2F5F5F5F5F5F5F5F5F5F5F5F5E2F5E2E2E2E2E2E2E2F5F5F5F5F5F5F5F5F5E2F5F5F5F5F5F5F5F5F5F5F5F5E2F5F5F5E2F5F5F5F5F5F5F5F5F5F5F5E2F5F5F5F5F5F5F5F5F5F5F5E2E2E2E2F5F5E2F5F5F5F5F5F5F5F5E2F5F5F5F5F5F5F5F5F5
310
F5E2F5F5F5F5F5F5F5E2E2F5F5F5F5F5F5F5F5F5F5F5E2E2E2E2F5F5F5F5F5F5F5F5F5F5F5F5F5F5F5F5F5F5F5F5F5F5F5F5F5F5F5F5F5F5F5F5F5F5F5F5F5F5F5F5F5F5F5F5F5F5F5F5F5F5F5F5F5F5F5E2E2E2F5F5F5F5F5F5F5F5F5F5F5F5E2F5E2E2E2F5F5E2E2F5F5F5F5F5F5F5F5F5E2E2E2E2E2E2E2E2E2E2E2E2E2
310
E2F5F5F5E2F5F5F5F5F5F5F5F5F5F5F5E2F5F5F5F5F5F5F5F5E2F5F5E2E2E2E2F5F5E2F5F5F5F5F5F5F5F5E2F5F5F5F5F5F5F5F5F5F5E2E2F5F5F5F5F5F5E2E2F5F5F5F5F5F5F5F5F5F5F5E2F5E2E2E2E2E2E2E2E2E2E2E2E2E2E2E2E2E2E2E2E2E2F5F5F5F5F5F5F5F5F5F5F5F5F5F5F5F5F5F5F5F5F5F5F5F5F5F5F5F5F5
310
F5F5F5F5F5F5E2E2E2E2F5F5F5F5F5E2E2E2E2E2E2E2E2E2F5F5F5F5F5F5E2E2F5F5F5F5F5F5F5F5E2F5F5F5F5F5F5F5F5F5F5F5F5E2F5F5F5E2F5F5F5F5F5F5F5F5F5F5F5E2F5F5F5F5F5F5F5F5E2F5F5E2E2E2E2F5F5E2F5F5F5F5F5F5F5F5E2F5F5F5F5F5F5F5F5F5F5E2E2F5F5F5F5F5F5E2E2F5F5F5F5F5F5F5F5F5F5
310
F5E2F5E2E2E2E2E2E2E2E2E2E2E2E2E2E2E2F5F5F5F5E2F5F5F5F5F5F5F5F5F5F5F5F5F5F5F5F5F5F5F5F5F5F5F5F5F5F5F5F5F5F5F5F5F5F5F5E2E2F5F5F5F5F5F5E2E2E2E2E2E2E2E2E2E2E2E2F5F5F5F5F5F5E2E2F5F5F5F5F5F5F5E2F5F5F5F5F5F5F5F5F5F5F5F5E2F5F5F5E2F5F5F5F5F5F5F5F5F5F5F5E2F5F5F5F5
310
F5F5F5F5E2F5F5E2E2E2E2F5F5E2F5F5F5F5F5F5F5F5E2F5F5F5F5F5F5F5F5F5F5E2E2F5F5F5F5F5F5E2E2F5F5F5F5F5F5F5F5F5F5F5E2F5E2E2E2E2E2F5F5F5F5F5E2E2F5E2E2F5F5F5F5E2F5E2E2F5F5F5F5F5F5F5F5F5F5F5F5F5F5F5F5F5F5F5F5F5F5F5F5F5F5F5F5F5F5F5F5E2F5F5F5F5F5F5E2E2E2E2E2F5F5F5E2
310
E2E2E2E2E2F5F5F5F5F5E2E2F5F5F5F5F5F5F5E2F5F5F5F5F5F5F5F5F5F5F5F5E2F5F5F5E2F5F5F5F5F5F5F5F5F5F5F5E2F5F5F5F5F5F5F5F5E2F5F5E2E2E2E2F5F5E2F5F5F5F5F5F5F5F5E2F5F5F5F5F5F5F5F5F5F5E2E2F5F5F5F5F5F5E2E2F5F5F5F5F5F5F5F5F5F5F5E2F5E2E2E2F5E2F5F5F5F5F5F5E2F5E2E2F5F5F5
310
F5E2F5E2E2F5F5F5F5F5F5F5F5F5F5F5F5F5F5F5F5F5F5F5F5F5F5F5F5F5F5F5F5F5F5F5E2E2F5F5F5F5F5E2E2E2E2F5F5F5F5F5E2E2F5E2E2E2E2F5F5F5F5E2E2E2F5F5F5F5F5F5E2F5F5F5F5F5F5F5F5F5F5F5F5E2F5F5F5E2F5F5F5F5F5F5F5F5F5F5F5E2F5F5F5F5F5F5F5F5E2F5F5E2E2E2E2F5F5E2F5F5F5F5F5F5F5
310
F5E2F5F5F5F5F5F5F5F5F5F5E2E2F5F5F5F5F5F5E2E2F5F5F5F5F5F5F5F5F5F5F5E2F5E2E2E2F5E2F5F5F5F5F5F5E2F5E2E2F5F5F5F5E2F5E2F5F5F5F5F5F5F5F5F5F5F5F5F5F5F5F5F5F5F5F5F5F5F5F5F5F5F5F5F5F5F5F5E2F5F5F5F5F5E2E2E2F5F5F5E2E2E2E2E2E2F5F5F5E2E2E2F5F5F5E2F5E2F5F5F5F5F5F5E2F5
310
F5F5F5F5F5F5F5F5F5F5F5E2F5F5F5E2F5F5F5F5F5F5F5F5F5F5F5E2F5F5F5F5F5F5F5F5E2F5F5E2E2E2E2F5F5E2F5F5F5F5F5F5F5F5E2F5F5F5F5F5F5F5F5F5F5E2E2F5F5F5F5F5F5E2E2F5F5F5F5F5F5F5F5F5F5F5E2F5E2E2E2F5E2F5F5F5F5F5F5E2F5E2E2F5F5F5F5E2F5E2E2F5F5F5F5F5F5F5F5F5F5F5F5F5F5F5F5
310
F5F5F5F5F5F5F5F5F5F5F5F5F5F5E2E2F5F5F5F5E2E2E2E2F5F5E2E2E2E2E2E2E2E2E2F5E2E2E2E2F5F5E2E2E2E2E2E2E2E2E2E2E2E2E2E2E2E2E2E2E2E2E2E2E2E2E2F5E2F5F5F5F5F5F5F5F5F5F5F5E2F5F5F5F5F5F5F5F5E2F5F5E2E2E2E2F5F5E2F5F5F5F5F5F5F5F5E2F5F5F5F5F5F5F5F5F5F5E2E2F5F5F5F5F5F5E2
310
E2F5F5F5F5F5F5F5F5F5F5F5E2F5E2E2E2F5E2F5F5F5F5F5F5E2F5F5F5F5F5F5F5E2F5E2E2F5F5F5F5F5F5F5F5F5F5F5F5F5F5F5F5F5F5F5F5F5F5F5F5F5F5F5F5F5F5E2F5F5F5F5F5E2E2E2F5F5E2E2E2F5F5F5F5E2E2E2F5F5E2E2E2F5F5F5F5F5F5E2F5F5F5F5E2F5F5F5F5F5F5F5F5F5F5F5F5E2F5F5E2E2F5F5F5F5F5
310
F5F5F5F5F5F5E2F5F5F5F5F5F5F5F5E2F5F5E2E2E2E2F5F5E2F5F5F5F5F5F5F5F5E2F5F5F5F5F5F5F5F5F5F5F5F5F5F5F5F5F5F5E2E2F5F5F5F5F5F5F5F5F5F5F5E2F5E2E2E2F5E2F5F5F5F5F5F5E2F5E2E2F5F5F5F5E2F5E2E2F5F5F5F5F5F5F5F5F5F5F5F5F5F5F5F5F5F5F5F5F5F5F5F5F5F5F5F5F5F5E2F5F5F5F5F5E2
310
E2E2F5E2E2E2F5E2E2E2E2F5E2E2E2F5F5E2E2F5F5F5F5F5F5E2F5F5F5E2E2E2E2E2E2E2E2E2E2E2E2E2E2E2E2F5F5E2F5F5F5F5F5F5F5F5F5F5F5E2F5F5F5F5F5F5F5F5E2F5F5E2E2E2E2F5F5E2F5F5F5F5F5F5F5F5E2F5F5F5F5F5F5F5F5F5F5E2E2F5F5F5F5F5F5E2E2F5F5F5F5F5F5F5F5F5F5F5E2F5E2E2E2F5E2F5F5
310
F5F5F5F5E2F5E2E2F5F5F5F5E2F5F5F5F5F5F5F5F5F5F5F5F5F5F5F5F5F5F5F5F5F5F5F5F5F5F5F5F5F5F5F5F5F5E2F5E2E2F5F5E2E2F5F5E2E2E2E2E2F5F5F5E2F5E2E2F5F5E2E2F5F5F5F5F5F5E2F5F5E2E2E2F5F5F5F5F5F5F5F5F5F5F5F5E2E2E2F5E2F5F5F5F5F5F5F5F5F5F5F5E2F5F5F5F5F5F5F5F5E2F5F5E2E2E2
310
E2F5F5E2F5F5F5F5F5F5F5F5E2F5F5F5F5F5F5F5F5F5F5E2E2F5F5F5F5F5F5E2E2F5F5F5F5F5F5F5F5F5F5F5E2F5E2E2E2F5E2F5F5F5F5F5F5E2F5E2E2F5F5F5F5E2F5E2E2F5F5F5F5F5F5F5F5F5F5F5F5F5F5F5F5F5F5F5F5F5F5F5F5F5F5F5F5F5F5E2E2E2E2F5F5E2E2F5F5E2E2F5E2F5E2E2E2E2E2E2E2E2E2E2E2E2E2
310
E2E2E2E2E2E2E2E2E2E2F5F5F5F5F5F5F5F5F5F5F5F5E2F5E2F5E2F5F5F5F5F5F5F5F5F5F5F5E2F5F5F5F5F5F5F5F5E2F5F5E2E2E2E2F5F5E2F5F5F5F5F5F5F5F5E2F5F5F5F5F5F5F5F5F5F5E2E2F5F5F5F5F5F5E2E2F5F5F5F5F5F5F5F5F5F5F5E2F5E2E2E2F5E2F5F5F5F5F5F5E2F5F5F5F5F5F5F5E2F5E2E2F5F5F5F5F5
310
F5F5F5F5F5F5F5F5F5F5F5F5F5F5F5F5F5F5F5F5F5F5F5F5F5E2E2E2E2F5F5E2E2F5F5E2E2F5E2F5F5E2F5E2F5E2E2F5F5E2E2F5F5F5F5F5F5E2F5F5E2F5F5F5F5F5F5F5F5F5F5F5F5F5F5F5F5E2F5E2F5F5F5F5F5F5F5F5F5F5F5E2F5F5F5F5F5F5F5F5E2F5F5E2E2E2E2F5F5E2F5F5F5F5F5F5F5F5E2F5F5F5F5F5F5F5F5
310
F5F5F5F5F5F5F5F5F5F5E2E2F5F5F5F5F5F5F5F5F5F5F5E2F5E2E2E2F5E2F5F5F5F5F5F5E2F5E2E2F5F5F5F5E2F5E2E2F5F5F5F5F5F5F5F5F5F5F5F5F5F5F5F5F5F5F5F5F5F5F5F5F5F5F5F5F5F5E2F5F5F5F5F5E2E2F5F5E2E2E2E2E2F5F5E2E2E2E2E2F5F5E2E2F5F5F5F5F5F5E2F5F5E2E2F5F5F5F5F5F5F5F5F5F5F5F5
310
F5F5E2E2F5E2F5F5F5F5F5F5F5F5F5F5F5E2F5F5F5F5F5F5F5F5E2F5F5E2E2E2E2F5F5E2F5F5F5F5F5F5F5F5E2F5F5F5F5F5F5F5F5F5F5E2E2F5F5F5F5F5F5E2E2F5F5F5F5F5F5F5F5F5F5F5E2F5E2E2E2F5E2F5F5F5F5F5F5E2F5E2E2F5F5F5F5E2F5F5F5F5F5F5F5F5F5F5F5F5F5F5F5F5F5F5F5F5F5F5F5F5F5F5F5F5F5
310
F5F5F5F5E2F5F5F5F5F5E2E2E2F5E2E2E2F5E2E2E2E2F5E2E2E2F5E2E2E2F5F5F5F5F5F5E2F5F5E2E2E2E2E2E2E2E2E2E2E2E2E2E2E2E2E2F5F5E2F5F5F5F5F5F5F5F5F5F5F5E2F5F5F5F5F5F5F5F5E2F5F5E2E2E2E2F5F5E2F5F5F5F5F5F5F5F5E2F5F5F5F5F5F5F5F5F5F5E2E2F5F5F5F5F5F5E2E2F5F5F5F5F5F5F5F5F5
310
F5F5E2F5E2E2E2F5E2F5F5F5F5F5F5E2F5F5E2F5F5F5F5E2F5E2E2F5F5F5F5F5F5F5F5F5F5F5F5F5F5F5F5F5F5F5F5F5F5F5F5F5F5F5F5F5F5E2F5F5F5F5F5E2E2E2E2F5E2E2E2E2F5F5E2E2E2E2F5F5E2E2E2F5F5F5F5F5F5E2F5F5E2F5F5F5F5F5F5F5F5F5F5F5F5F5F5F5F5F5E2F5F5F5F5F5F5F5F5F5F5F5F5E2F5F5F5
310
F5F5F5F5F5E2F5F5E2E2E2E2F5F5E2F5F5F5F5F5F5F5F5E2F5F5F5F5F5F5F5F5F5F5E2F5F5F5F5F5F5F5E2E2F5F5F5F5F5F5F5F5F5F5F5E2F5E2E2E2F5E2F5F5F5F5F5F5E2F5E2F5F5F5F5F5E2F5F5E2F5F5F5F5F5F5F5F5F5F5F5F5F5F5F5F5F5F5F5F5F5F5F5F5F5F5F5F5F5F5E2E2F5F5F5F5E2E2E2E2F5F5E2E2E2E2E2
310
E2E2E2F5F5E2E2E2E2F5F5E2E2E2E2E2E2E2E2E2E2E2E2E2E2E2E2E2E2E2E2E2E2E2E2E2F5F5F5F5F5F5F5F5F5F5F5F5F5E2F5F5F5F5F5F5F5F5E2F5F5E2E2E2E2F5F5F5F5F5F5F5F5F5F5F5E2F5F5F5F5F5F5F5F5F5F5F5E2F5F5F5F5F5F5E2E2F5F5F5F5F5F5F5F5F5F5F5E2F5E2E2E2F5E2F5F5F5F5F5F5E2F5E2E2F5F5
310
F5F5E2F5E2E2F5F5F5F5F5F5F5F5F5F5F5F5F5F5F5F5F5F5F5F5F5F5F5F5F5F5F5F5F5F5F5E2F5F5F5E2F5E2E2E2E2F5F5E2E2E2E2E2E2F5F5E2E2E2E2F5F5F5E2F5E2F5F5F5F5E2F5F5F5F5F5F5F5F5F5F5F5F5F5F5F5F5F5F5F5F5F5F5F5F5F5F5F5F5F5F5E2F5F5F5F5F5F5F5F5F5F5F5E2E2E2E2F5F5F5F5F5F5F5F5F5
310
F5F5E2F5F5F5F5F5F5F5F5F5F5E2E2F5F5F5F5F5F5E2E2F5F5F5F5F5F5F5F5F5F5F5E2F5E2E2E2F5E2F5F5F5F5F5F5E2F5E2E2F5F5F5F5E2F5E2E2F5F5F5F5F5F5F5F5F5F5F5F5F5F5F5F5F5F5F5F5F5F5F5F5F5F5F5F5F5F5F5E2E2E2E2F5F5F5E2E2E2E2F5E2E2F5F5F5F5F5E2E2E2E2F5F5F5F5E2E2E2F5F5F5F5E2F5F5
310
F5F5F5F5F5F5F5F5F5F5F5F5F5F5F5F5F5F5F5F5F5F5F5F5F5F5F5F5E2F5F5F5F5F5F5F5F5F5F5F5E2E2E2E2F5F5F5F5F5F5F5F5F5F5F5E2F5F5F5F5F5F5F5F5F5F5E2E2F5F5F5F5F5F5E2E2F5F5F5F5F5F5F5F5F5F5F5E2F5E2E2E2F5E2F5F5F5F5F5E2E2F5E2E2F5F5F5F5E2F5E2E2F5F5F5F5F5F5F5F5F5F5F5F5F5F5F5
310
F5F5F5F5F5F5F5F5F5F5F5F5F5F5F5F5E2E2F5F5F5F5F5F5E2E2E2E2E2E2F5F5F5E2E2E2E2E2F5F5F5F5F5E2E2F5F5F5F5F5E2F5F5F5F5F5F5F5F5F5F5F5F5F5F5F5F5F5F5F5F5F5F5F5F5F5F5F5F5F5F5E2F5F5F5F5F5F5F5F5F5F5F5E2E2E2E2F5F5F5F5F5F5F5F5F5F5F5E2F5F5F5F5F5F5F5F5F5F5E2E2F5F5F5F5F5F5
310
E2E2F5F5F5F5F5F5F5F5F5F5F5E2F5E2E2E2E2E2E2E2E2E2E2E2E2E2E2E2F5F5F5F5E2F5F5F5F5F5F5F5F5F5F5F5F5F5E2E2E2E2E2E2E2E2F5E2E2E2E2E2E2E2E2F5F5E2E2F5E2E2F5F5F5F5F5F5E2E2E2E2E2E2E2E2E2E2E2E2F5F5F5F5F5F5E2E2F5F5F5F5F5E2F5F5F5F5F5F5F5F5F5F5F5F5F5F5F5F5F5F5F5F5F5F5F5
310
F5F5F5F5F5F5F5E2F5F5F5F5F5F5F5F5F5F5F5E2E2E2E2F5F5F5F5F5F5F5F5F5F5F5E2F5F5F5F5F5F5F5F5F5F5E2E2F5F5F5F5F5F5E2E2F5F5F5F5F5F5F5F5F5F5F5E2F5E2E2E2E2E2E2E2E2E2E2E2E2E2E2E2E2E2E2E2E2E2F5F5F5F5F5F5F5F5F5F5F5F5E2E2E2E2E2E2E2E2F5E2E2E2E2F5E2E2E2E2E2F5F5F5F5E2E2F5
310
F5F5F5F5F5F5E2E2E2E2E2E2E2E2F5F5E2E2F5F5F5E2E2F5F5F5F5F5F5E2F5F5F5F5F5F5F5F5F5F5F5F5F5F5F5F5F5F5F5F5F5F5F5F5F5F5F5F5F5F5E2F5F5F5F5F5F5F5F5F5F5F5E2E2E2E2F5F5F5F5F5F5F5F5F5F5F5E2F5F5F5F5F5F5F5F5F5F5E2F5F5F5F5F5F5F5E2E2F5F5F5F5F5F5F5F5F5F5F5E2F5E2F5F5F5F5F5
310
F5F5F5F5F5F5F5F5F5F5F5F5F5F5F5F5F5F5F5F5F5F5F5F5F5F5F5F5F5F5F5F5F5F5F5F5F5F5F5F5F5F5F5F5F5F5F5F5F5F5F5E2E2F5F5F5F5F5F5F5F5F5F5F5F5F5E2F5E2E2E2F5E2E2E2F5F5F5F5F5F5F5E2F5F5F5F5F5F5F5F5F5F5F5F5F5F5F5F5F5F5F5F5F5F5F5F5F5F5F5F5F5F5E2F5F5F5F5F5F5F5F5F5F5F5E2E2
310
E2E2F5F5F5F5F5F5F5F5F5F5F5E2F5F5F5F5F5F5F5F5F5F5E2F5F5F5F5F5F5F5E2E2F5F5F5F5F5F5F5F5F5F5F5E2F5E2F5F5F5F5F5F5F5F5F5F5F5F5F5F5F5F5F5F5F5F5F5F5F5F5F5F5F5F5F5F5F5F5F5F5F5F5F5F5F5F5F5F5F5F5F5F5F5F5F5F5F5F5F5F5F5F5F5E2E2F5F5F5F5F5F5F5F5F5F5F5F5E2F5E2E2E2E2E2E2
310
F5F5F5F5F5F5F5F5E2F5F5E2E2E2E2E2E2F5E2E2E2F5F5E2E2E2F5E2F5E2E2F5F5F5F5F5F5F5F5E2F5F5F5F5F5F5F5F5F5F5F5E2E2E2E2F5F5F5F5F5F5F5F5F5F5F5E2F5F5F5F5F5F5F5F5F5F5E2F5F5F5F5F5F5F5E2E2F5F5F5F5F5F5F5F5F5F5F5E2F5E2F5F5F5F5F5F5F5F5F5F5F5F5F5F5F5F5F5F5F5F5F5F5F5F5F5F5
310
F5F5F5F5F5F5F5F5F5F5F5F5F5F5F5F5F5F5F5F5F5F5F5F5F5F5F5F5F5F5F5F5E2E2F5F5F5F5F5F5F5F5F5F5F5E2F5E2E2E2E2E2F5F5F5F5F5F5F5F5F5E2F5F5E2E2E2E2E2E2F5E2E2E2F5E2E2F5E2E2E2E2E2E2F5F5F5F5F5F5F5F5E2F5F5F5F5F5F5F5F5F5F5F5E2E2E2E2F5F5F5F5F5F5F5F5F5F5F5E2F5F5F5F5F5F5F5
310
F5F5F5E2E2F5F5F5F5F5F5E2E2E2E2E2E2E2E2E2E2E2E2E2E2F5E2F5F5F5F5F5F5F5F5F5F5F5F5F5F5F5F5F5F5F5F5F5F5F5F5F5F5F5F5F5F5F5F5F5F5F5F5F5F5F5F5F5F5F5F5F5F5F5F5F5F5F5F5F5F5F5F5F5F5F5E2E2E2F5F5F5F5F5F5F5F5F5E2F5F5F5E2E2F5F5F5F5F5F5F5F5F5F5E2F5F5E2E2E2E2E2E2F5E2E2E2
310
F5E2E2E2E2E2E2F5E2E2F5F5F5F5F5F5F5F5E2F5F5F5F5F5F5F5F5F5F5F5E2E2E2E2F5F5E2F5F5F5F5F5F5F5F5E2F5F5F5F5F5F5F5F5F5F5E2E2F5F5F5F5F5F5E2E2F5F5F5F5F5F5F5F5F5F5E2E2F5E2F5F5F5F5F5F5F5F5F5F5F5F5F5F5F5F5F5F5F5F5F5F5F5F5F5F5F5F5F5F5F5F5F5F5F5F5F5F5F5F5F5F5F5F5F5F5F5
310
F5F5F5F5F5F5F5F5F5F5F5F5F5F5E2E2E2E2E2F5F5F5F5E2E2E2E2E2F5F5F5F5F5F5F5F5F5F5F5F5E2F5F5F5F5F5F5F5F5F5F5F5F5F5F5F5F5F5F5F5F5F5F5F5F5F5F5F5F5F5F5E2F5F5F5F5F5F5F5F5E2F5F5E2E2E2E2F5F5E2F5F5F5F5F5F5F5F5E2F5F5F5F5F5F5F5F5F5E2E2E2E2E2E2E2E2E2E2E2E2E2E2E2E2E2E2E2
310
E2E2E2E2E2E2F5F5F5F5F5F5F5F5F5F5F5F5F5F5F5F5F5F5F5F5F5F5F5F5F5F5F5F5F5F5F5F5F5F5F5F5F5F5F5F5F5F5F5F5F5F5F5F5F5F5F5F5F5F5F5F5F5F5F5F5F5E2E2F5E2E2E2E2E2E2E2E2F5E2E2F5F5F5F5F5F5F5F5F5F5F5F5E2F5F5F5F5F5F5F5F5F5F5F5F5F5F5F5F5F5F5F5F5F5F5F5F5F5F5F5F5F5F5E2F5F5
310
F5F5F5F5F5F5E2F5F5E2E2E2E2F5F5E2F5F5F5F5F5F5F5F5E2F5F5F5F5F5F5F5F5F5F5F5F5F5F5F5F5F5F5E2E2F5F5F5F5F5F5F5F5F5F5E2E2F5F5F5F5F5F5F5F5F5F5F5F5F5F5F5F5F5F5F5F5F5F5F5F5F5F5F5F5F5F5F5F5F5F5F5F5F5F5F5F5F5F5F5F5F5F5F5F5F5F5F5F5F5F5F5F5F5F5F5F5F5F5F5E2E2E2F5F5F5F5
310
F5F5F5F5E2E2E2F5F5F5F5F5F5F5F5F5F5F5F5E2F5F5F5F5F5F5F5F5F5F5F5F5F5F5F5F5F5F5F5F5F5F5F5F5F5F5F5F5F5F5E2F5F5F5F5F5F5F5F5E2F5F5E2E2E2E2F5F5E2F5F5F5F5F5F5F5F5E2F5F5F5F5F5F5F5F5F5F5F5F5F5F5F5F5F5F5E2E2F5F5F5F5F5F5F5F5F5F5E2E2F5F5F5F5F5F5F5F5F5F5F5F5F5F5F5F5F5
310
F5F5F5F5F5F5F5F5F5F5F5F5F5F5F5F5F5F5F5F5F5F5F5F5F5F5F5F5F5F5F5F5F5F5F5F5F5F5F5F5F5F5F5F5F5F5E2F5E2F5F5F5F5F5F5F5F5E2F5E2F5F5F5F5F5F5F5F5F5F5F5F5E2F5F5F5F5F5F5F5F5F5F5F5F5F5F5F5F5F5F5F5F5F5F5F5F5F5F5F5F5F5F5E2F5F5F5F5F5F5F5F5E2F5F5E2E2E2E2F5F5E2F5F5F5F5F5
310
F5F5F5E2F5F5F5F5F5F5F5F5F5F5F5F5F5F5F5F5F5F5E2E2F5F5F5F5F5F5F5F5F5F5E2E2F5F5F5F5F5F5F5F5F5F5F5F5F5F5F5F5F5F5F5F5F5F5F5F5F5F5F5F5F5F5F5F5F5F5F5F5F5F5F5F5F5F5F5F5F5F5F5F5F5F5F5F5F5F5F5F5F5F5F5F5F5F5F5E2F5E2F5F5F5F5F5F5F5F5E2F5E2F5F5F5F5F5F5F5F5F5F5F5F5E2F5
310
F5F5F5F5F5F5F5F5F5F5F5F5F5F5F5F5F5F5F5F5F5F5F5F5F5F5F5F5F5E2F5F5F5F5F5F5F5F5E2F5F5E2E2E2E2F5F5E2F5F5F5F5F5F5F5F5E2F5F5F5F5F5F5F5F5F5F5F5F5F5F5F5F5F5F5E2E2F5F5F5F5F5F5F5F5F5F5E2E2F5F5F5F5F5F5F5F5F5F5F5F5F5F5F5F5F5F5F5F5F5F5F5F5F5F5F5F5F5F5F5F5F5F5F5F5F5F5
310
F5F5F5F5F5F5F5F5F5F5F5F5F5F5F5F5F5F5F5F5F5F5F5F5F5E2F5E2F5F5F5F5F5F5F5F5E2F5E2F5F5F5F5F5F5F5F5F5F5F5F5E2F5F5F5F5F5F5F5F5F5F5F5F5F5F5F5F5F5F5F5F5F5F5F5F5F5F5F5F5F5F5E2F5F5F5F5F5F5F5F5E2F5F5E2E2E2E2F5F5E2F5F5F5F5F5F5F5F5E2F5F5F5F5F5F5F5F5F5F5F5F5F5F5F5F5F5
310
F5E2E2F5F5F5F5F5F5F5F5F5F5E2E2F5F5F5F5F5F5F5F5F5F5F5F5F5F5F5F5F5F5F5F5F5F5F5F5F5F5F5F5F5F5F5F5F5F5F5F5F5F5F5F5F5F5F5F5F5F5F5F5F5F5F5F5F5F5F5F5F5F5F5F5F5F5F5E2F5E2F5F5F5F5F5F5F5F5E2F5E2F5F5F5F5F5F5F5F5F5F5F5F5E2F5F5F5F5F5F5F5F5F5F5F5F5F5F5F5F5F5F5F5F5F5F5
310
F5F5F5F5F5F5F5F5E2F5F5F5F5F5F5F5F5E2F5F5E2E2E2E2F5F5E2F5F5F5F5F5F5F5F5E2F5F5F5F5F5F5F5F5F5F5F5F5F5F5F5F5F5F5E2E2F5F5F5F5F5F5F5F5F5F5E2E2F5F5F5F5F5F5F5F5F5F5F5F5F5F5F5F5F5F5F5F5F5F5F5F5F5F5F5F5F5F5F5F5F5F5F5F5F5F5F5F5F5F5F5F5F5F5F5F5F5F5F5F5F5F5F5F5F5F5F5
310
F5F5F5F5E2F5E2F5F5F5F5F5F5F5F5E2F5E2F5F5F5F5F5F5F5F5F5F5F5F5E2F5F5F5F5F5F5F5F5F5F5F5F5F5F5F5F5F5F5F5F5F5F5F5F5F5F5F5F5F5F5E2F5F5F5F5F5F5F5F5E2F5F5E2E2E2E2F5F5E2F5F5F5F5F5F5F5F5E2F5F5F5F5F5F5F5F5F5F5F5F5F5F5F5F5F5F5E2E2E2E2E2E2E2E2E2E2E2E2E2E2F5F5F5F5F5F5
310
F5F5F5F5F5F5F5F5F5F5F5F5F5F5F5F5F5F5F5F5F5F5F5F5F5F5F5F5F5F5F5F5F5F5F5F5F5F5F5F5F5F5F5F5F5F5F5F5F5F5F5F5F5F5F5F5F5E2E2E2E2E2E2E2E2E2E2E2E2E2E2E2E2E2E2E2E2E2E2E2E2E2E2E2E2E2F5F5F5F5F5F5F5F5F5F5F5F5F5F5F5F5F5F5F5F5F5F5F5F5F5F5F5F5E2F5F5F5F5F5F5F5F5E2F5F5E2
310
E2E2E2F5F5E2F5F5F5F5F5F5F5F5E2F5F5F5F5F5F5F5F5F5F5F5F5F5F5F5F5F5F5E2E2E2E2E2E2E2E2E2E2E2E2E2E2F5F5F5F5F5F5F5F5F5F5F5F5F5F5F5F5F5F5F5F5F5F5F5F5F5F5F5F5F5F5F5F5F5F5F5F5F5F5F5F5F5F5F5F5F5F5F5F5F5F5F5F5F5F5F5F5F5F5F5F5F5F5F5E2E2E2E2E2E2E2E2E2E2E2E2E2E2F5F5F5
310
F5F5F5F5F5F5F5F5F5E2F5F5F5F5F5F5F5F5F5F5F5F5F5F5F5F5F5F5F5F5F5F5F5F5F5F5F5F5F5F5E2F5F5F5F5F5F5F5F5E2F5F5E2E2E2E2F5F5E2F5F5F5F5F5F5F5F5E2F5F5F5F5F5F5F5F5F5F5F5F5F5F5F5F5F5F5F5E2E2E2F5E2E2E2E2F5E2E2E2F5F5F5F5F5F5F5F5F5F5F5F5F5F5F5F5F5F5F5F5F5F5F5F5F5F5F5F5
310
F5F5F5F5F5F5F5F5F5F5F5F5F5F5F5F5F5F5F5F5F5F5F5F5F5F5F5F5F5F5F5F5F5F5F5F5F5E2E2F5F5F5F5E2F5F5F5E2E2E2F5F5F5F5F5F5F5F5F5F5F5F5E2F5E2E2E2E2E2E2E2F5E2E2E2E2E2E2E2E2E2E2F5F5F5F5F5F5F5F5F5F5F5E2F5F5F5F5F5F5F5F5E2F5F5E2E2E2E2F5F5E2F5F5F5F5F5F5F5F5E2F5F5F5F5F5F5
310
F5F5F5F5F5F5F5F5F5F5F5F5F5F5F5E2E2E2E2E2E2E2E2F5F5F5F5F5F5F5F5F5F5F5F5F5F5F5F5F5F5F5F5F5F5F5F5F5F5F5F5F5F5F5F5F5F5F5F5F5F5F5F5F5F5F5F5F5F5F5F5F5F5F5F5F5F5F5F5F5F5F5F5F5F5F5F5F5F5F5F5E2F5F5F5F5E2F5F5F5E2F5F5F5F5F5F5F5F5F5F5F5F5F5F5E2F5E2E2E2E2E2F5E2F5E2F5
310
E2E2F5E2E2E2E2E2F5F5F5F5F5F5F5F5F5F5F5E2F5F5F5F5F5F5F5F5E2F5F5E2E2E2E2F5F5E2F5F5F5F5F5F5F5F5E2F5F5F5F5F5F5F5F5F5F5F5F5F5F5F5F5F5F5F5F5F5E2E2E2E2E2F5E2E2F5F5F5F5F5F5F5F5F5F5F5F5F5F5F5F5F5F5F5F5F5F5F5F5F5F5F5F5F5F5F5F5F5F5F5F5F5F5F5F5F5F5F5F5F5F5F5F5F5F5F5
310
F5F5F5F5F5F5F5F5F5F5F5F5F5F5F5F5F5E2E2F5F5E2E2F5F5F5E2F5F5F5F5F5F5F5F5F5F5F5F5F5F5E2F5F5F5F5F5F5F5F5F5F5F5F5F5F5F5F5F5F5F5F5F5F5F5F5F5F5F5F5F5F5E2F5F5F5F5F5F5F5F5E2F5F5E2E2E2E2F5F5E2F5F5F5F5F5F5F5F5E2F5F5F5F5F5F5F5F5F5F5F5F5F5F5F5F5F5F5F5F5F5E2F5F5F5F5F5
310
F5E2F5F5F5F5F5F5F5F5F5F5F5F5F5F5F5F5F5F5F5F5F5F5F5F5F5F5F5F5F5F5F5F5F5F5F5F5F5F5F5F5F5F5F5F5F5F5F5F5F5F5F5F5F5F5F5F5F5F5F5F5F5F5F5F5F5F5F5F5F5E2F5F5E2F5E2F5F5E2F5F5F5F5F5F5F5F5F5F5F5F5F5F5E2F5F5F5F5F5F5F5F5F5F5F5F5F5F5F5F5F5F5F5F5F5F5F5F5F5F5F5F5F5F5E2F5
310
F5F5F5F5F5F5F5E2F5F5E2E2E2E2F5F5E2F5F5F5F5F5F5F5F5E2F5F5F5F5F5F5F5F5F5F5F5F5F5F5F5F5F5F5F5F5F5E2E2E2E2E2E2E2E2F5F5F5F5F5F5F5F5F5F5F5F5F5F5F5F5F5F5F5F5F5F5F5F5F5F5F5F5F5F5F5F5F5F5F5F5F5F5F5F5F5F5F5F5F5F5F5F5F5F5F5F5F5F5F5F5F5F5F5F5F5F5F5F5F5F5F5F5F5E2E2E2
310
E2F5E2E2E2E2E2E2E2E2E2E2E2E2E2E2E2E2E2E2E2E2E2F5F5F5F5F5F5F5F5F5F5F5F5F5F5F5F5F5F5F5F5F5F5F5F5F5F5F5F5E2F5F5F5F5F5F5F5F5E2F5F5E2E2E2E2F5F5E2F5F5F5F5F5F5F5F5E2F5F5F5F5F5F5F5F5F5F5F5F5F5F5F5F5F5F5F5F5F5F5F5F5F5F5F5F5F5F5F5F5F5F5F5F5F5F5F5F5F5F5F5F5F5F5F5F5
310
F5F5F5F5F5F5F5F5F5F5F5F5F5F5F5F5F5F5F5F5F5F5F5F5F5F5F5F5F5F5F5F5F5F5F5F5F5F5F5F5F5F5F5F5F5F5F5F5F5F5F5F5F5F5F5F5F5F5F5F5F5F5F5F5F5F5F5F5F5F5F5F5F5F5F5F5F5F5F5F5F5F5F5F5F5F5F5F5F5F5F5F5F5F5F5F5F5F5F5F5F5F5F5F5E2F5F5F5F5F5F5F5F5E2F5F5E2E2E2E2F5F5F5F5F5F5F5
310
F5F5F5F5E2F5F5F5F5F5F5F5F5F5F5F5F5F5F5F5F5F5F5F5F5F5F5F5F5F5F5F5F5F5F5F5F5F5F5F5F5F5F5F5F5F5F5F5F5F5F5F5F5F5F5F5F5F5F5F5F5F5F5F5F5F5F5F5F5F5F5F5F5F5F5F5F5F5F5F5F5F5F5F5F5F5F5F5F5F5F5F5F5F5F5F5F5F5F5F5F5F5F5F5F5F5F5F5F5F5F5F5F5F5F5F5F5F5F5F5F5F5F5F5F5F5F5
310
F5F5F5F5F5F5F5F5F5F5F5F5F5F5F5F5F5F5F5F5F5F5F5F5F5F5F5F5F5F5E2F5F5F5F5F5F5F5F5F5F5F5E2E2E2E2F5F5F5F5F5F5F5F5F5F5F5E2F5F5F5F5F5F5F5F5F5F5F5F5F5F5F5F5F5F5F5F5F5F5F5F5F5F5F5F5F5F5F5F5F5F5F5F5F5F5F5F5F5F5F5F5F5F5F5F5F5F5F5F5F5F5F5F5F5F5F5F5F5F5F5F5F5F5F5F5F5
310
F5F5F5F5F5F5F5F5F5F5F5F5F5F5F5F5F5F5F5F5F5F5F5F5F5F5F5F5F5F5F5F5F5F5F5F5F5F5F5F5F5F5F5F5F5F5F5F5F5F5F5F5F5F5F5F5F5F5F5F5F5F5F5F5F5F5F5F5F5F5F5F5F5F5F5F5F5F5F5F5F5F5F5E2F5F5F5F5F5F5F5F5F5F5F5E2E2E2E2F5F5F5F5F5F5F5F5F5F5F5E2F5F5F5F5F5F5F5F5F5F5F5F5F5F5F5F5
310
F5F5F5F5F5F5F5F5F5F5F5F5F5F5F5F5F5F5F5F5F5F5F5F5F5F5F5F5F5F5F5F5F5F5F5F5F5F5F5F5F5F5F5F5F5F5F5F5F5F5F5F5F5F5F5F5F5F5F5F5F5F5F5F5F5F5F5F5F5F5F5F5F5F5F5F5F5F5F5F5F5F5F5F5F5F5F5F5F5F5F5F5F5F5F5F5F5F5F5F5F5F5F5F5F5F5F5F5F5F5F5F5F5F5F5F5F5F5F5F5F5F5F5F5F5F5F5
310
F5F5F5F5F5F5F5F5F5E2F5F5F5F5F5F5F5F5F5F5F5E2E2E2E2F5F5F5F5F5F5F5F5F5F5F5E2F5F5F5F5F5F5F5F5F5F5F5F5F5F5F5F5F5F5F5F5F5F5F5F5F5F5F5F5F5F5F5F5F5F5F5F5F5F5F5F5F5F5F5F5F5F5F5F5F5F5F5F5F5F5F5F5F5F5F5F5F5F5F5F5F5F5F5F5F5F5F5F5F5F5F5F5F5F5F5F5F5F5F5F5F5F5F5F5F5F5
310
F5F5F5F5F5F5F5F5F5F5F5F5F5F5F5F5F5F5F5F5F5F5F5F5F5F5F5F5F5F5F5F5F5F5F5F5F5F5F5F5F5F5F5F5F5F5F5F5F5F5F5F5F5F5F5F5F5F5F5F5F5F5E2F5F5F5F5F5F5F5F5F5F5F5E2E2E2E2F5F5F5F5F5F5F5F5F5F5F5E2F5F5F5F5F5F5F5F5F5F5F5F5F5F5F5F5F5F5F5F5F5F5F5F5F5F5F5F5F5F5F5F5F5F5F5F5F5
310
F5F5F5F5F5F5F5F5F5F5F5F5F5F5F5F5F5F5F5F5F5F5F5F5F5F5F5F5F5F5F5F5F5F5F5F5F5F5F5F5F5F5F5F5F5F5F5F5F5F5F5F5F5F5F5F5F5F5F5F5F5F5F5F5F5F5F5F5F5F5F5F5F5F5F5F5F5F5F5F5F5F5F5F5F5F5F5F5F5F5F5F5F5F5F5F5F5F5F5F5F5F5F5F5F5F5F5F5F5F5F5F5F5F5F5E2F5F5F5F5F5F5F5F5F5F5F5
310
E2E2E2E2F5F5F5F5F5F5F5F5F5F5F5E2F5F5F5F5F5F5F5F5F5F5F5F5F5F5F5F5F5F5F5F5F5F5F5F5F5F5F5F5F5F5F5F5F5F5F5F5F5F5F5F5F5F5F5F5F5F5F5F5F5F5F5F5F5F5F5F5F5F5F5F5F5F5F5F5F5F5F5F5F5F5F5F5F5F5F5F5F5F5F5F5F5F5F5F5F5F5F5F5F5F5F5F5F5F5F5F5F5F5F5F5F5F5F5F5F5F5F5F5F5F5F5
310
F5F5F5F5F5F5F5F5F5F5F5F5F5F5F5F5F5F5F5F5F5F5F5F5F5F5F5F5F5F5F5F5F5F5F5F5F5F5F5F5F5E2F5F5F5F5F5F5F5F5F5F5F5E2E2E2E2F5F5F5F5F5F5F5F5F5F5F5E2F5F5F5F5F5F5F5F5F5F5F5F5F5F5F5F5F5F5F5F5F5F5F5F5F5F5F5F5F5F5F5F5F5F5F5F5F5F5F5F5F5F5F5F5F5F5F5F5F5F5F5F5F5F5F5F5F5F5
310
F5F5F5F5F5F5F5F5F5F5F5F5F5F5F5F5F5F5F5F5F5F5F5F5F5F5F5F5F5F5F5F5F5F5F5F5F5F5F5F5F5F5F5F5F5F5F5F5F5F5F5F5F5F5F5F5F5F5F5F5F5F5F5F5F5F5F5F5F5F5F5F5F5F5F5F5F5F5F5F5F5F5F5F5F5F5F5F5F5F5F5F5F5F5E2F5F5F5F5F5F5F5F5F5F5F5E2E2E2E2F5F5F5F5F5F5F5F5F5F5F5E2F5F5F5F5F5
310
F5F5F5F5F5F5F5F5F5F5F5F5F5F5F5F5F5F5F5F5F5F5F5F5F5F5F5F5F5F5F5F5F5F5F5F5F5F5F5F5F5F5F5F5F5F5F5F5F5F5F5F5F5F5F5F5F5F5F5F5F5F5F5F5F5F5F5F5F5F5F5F5F5F5F5F5F5F5F5F5F5F5F5F5F5F5F5F5F5F5F5F5F5F5F5F5F5F5F5F5F5F5F5F5F5F5F5F5F5F5F5F5F5F5F5F5F5F5F5F5F5F5F5F5F5F5F5
310
F5F5F5F5F5F5F5F5F5F5F5F5F5F5F5F5F5F5F5F5E2F5F5F5F5F5F5F5F5F5F5F5E2E2E2E2F5F5F5F5F5F5F5F5F5F5F5E2F5F5F5F5F5F5F5F5F5F5F5F5F5F5F5F5F5F5F5F5F5F5F5F5F5F5F5F5F5F5F5F5F5F5F5F5F5F5F5F5F5F5F5F5F5F5F5F5F5F5F5F5F5F5F5F5F5F5F5F5F5F5F5F5F5F5F5F5F5F5F5F5F5F5F5F5F5F5F5
310
F5F5F5F5F5F5F5F5F5F5F5F5F5F5F5F5F5F5F5F5F5F5F5F5F5F5F5F5F5F5F5F5F5F5F5F5F5F5F5F5F5F5F5F5F5F5F5F5F5F5F5F5F5F5F5F5F5F5F5F5F5F5F5F5F5F5F5F5F5F5F5F5F5E2F5F5F5F5F5F5F5F5F5F5F5E2E2E2E2F5F5F5F5F5F5F5F5F5F5F5E2F5F5F5F5F5F5F5F5F5F5F5F5F5F5F5F5F5F5F5F5F5F5F5F5F5F5
310
F5F5F5F5F5F5F5F5F5F5F5F5F5F5F5F5F5F5F5F5F5F5F5F5F5F5F5F5F5F5F5F5F5F5F5F5F5F5F5F5F5F5F5F5F5F5F5F5F5F5F5F5F5F5F5F5F5F5F5F5F5F5F5F5F5F5F5F5F5F5F5F5F5F5F5F5F5F5F5F5F5F5F5F5F5F5F5F5F5F5F5F5F5F5F5F5F5F5F5F5F5F5F5F5F5F5F5F5F5F5F5F5F5F5F5F5F5F5F5F5F5F5F5F5F5F5E2
310
F5F5F5F5F5F5F5F5F5F5F5E2E2E2E2F5F5E2F5F5F5F5F5F5F5F5E2F5F5F5F5F5F5F5F5F5F5F5F5F5F5F5F5F5F5F5F5F5F5F5F5F5F5F5F5F5F5F5F5F5F5F5F5F5F5F5F5F5F5F5F5F5F5F5F5F5F5F5F5F5F5F5F5F5F5F5F5F5F5F5F5F5F5F5F5F5F5F5F5F5F5F5F5F5F5F5F5F5F5F5F5F5F5F5F5F5F5F5F5F5F5F5F5F5F5F5F5
310
F5F5F5F5F5F5F5F5F5F5F5F5F5F5F5F5F5F5F5F5F5F5F5F5F5F5F5F5F5F5F5F5F5F5F5F5F5F5F5F5F5F5F5F5F5F5F5F5F5F5F5F5E2F5F5F5F5F5F5F5F5E2F5F5E2E2E2E2F5F5E2F5F5F5F5F5F5F5F5E2F5F5F5F5F5F5F5F5F5F5F5F5F5F5F5F5F5F5F5F5F5F5F5F5F5F5F5F5F5F5F5F5F5F5F5F5F5F5F5F5F5F5F5F5F5F5F5
310
F5F5F5F5F5F5F5F5F5F5F5F5F5F5F5F5F5F5F5F5F5F5F5F5F5F5F5F5F5F5F5F5F5F5F5F5F5F5F5F5F5F5F5F5F5F5F5F5F5F5F5F5F5F5F5F5F5F5F5F5F5F5F5F5F5F5F5F5F5F5F5F5F5F5F5F5F5F5F5F5F5F5F5F5F5F5F5F5F5F5F5F5F5F5F5F5F5F5F5F5F5F5F5F5F5E2F5F5F5F5F5F5F5F5E2F5F5E2E2E2E2F5F5E2F5F5F5
310
F5F5F5F5F5E2F5F5F5F5F5F5F5F5F5F5F5F5F5F5F5F5F5F5F5F5F5F5F5F5F5F5F5F5F5F5F5F5F5F5F5F5F5F5F5F5F5F5F5F5F5F5F5F5F5F5F5F5F5F5F5F5F5F5F5F5F5F5F5F5F5F5F5F5F5F5F5F5F5F5F5F5F5F5F5F5F5F5F5F5F5F5F5F5F5F5F5F5F5F5F5F5F5F5F5F5F5F5F5F5F5F5F5F5F5F5F5F5F5F5F5F5F5F5F5F5F5
310
F5F5F5F5F5F5F5F5F5F5F5F5F5F5F5F5F5F5F5F5F5F5F5F5F5F5F5F5F5F5F5E2F5F5F5F5F5F5F5F5E2F5F5E2E2E2E2F5F5E2F5F5F5F5F5F5F5F5E2F5F5F5F5F5F5F5F5F5F5F5F5F5F5F5F5F5F5F5F5F5F5F5F5F5F5F5F5F5F5F5F5F5F5F5F5F5F5F5F5F5F5F5F5F5F5F5F5F5F5F5F5F5F5F5F5F5F5F5F5F5F5F5F5F5F5F5F5
310
F5F5F5F5F5F5F5F5F5F5F5F5F5F5F5F5F5F5F5F5F5F5F5F5F5F5F5F5F5F5F5F5F5F5F5F5F5F5F5F5F5F5F5F5F5F5F5F5F5F5F5F5F5F5F5F5F5F5F5F5F5F5F5F5F5F5F5F5F5F5F5F5F5F5F5F5F5F5F5F5F5F5F5F5E2F5F5F5F5F5F5F5F5E2F5F5E2E2E2E2F5F5E2F5F5F5F5F5F5F5F5E2F5F5F5F5F5F5F5F5F5F5F5F5F5F5F5
310
F5F5F5F5F5F5F5F5F5F5F5F5F5F5F5F5F5F5F5F5F5F5F5F5F5F5F5F5F5F5F5F5F5F5F5F5F5F5F5F5F5F5F5F5F5F5F5F5F5F5F5F5F5F5F5F5F5F5F5F5F5F5F5F5F5F5F5F5F5F5F5F5F5F5F5F5F5F5F5F5F5F5F5F5F5F5F5F5F5F5F5F5F5F5F5F5F5F5F5F5F5F5F5F5F5F5F5F5F5F5F5F5F5F5F5F5F5F5F5F5F5F5F5F5F5F5F5
310
F5F5F5F5F5F5F5F5F5F5E2F5F5F5F5F5F5F5F5E2F5F5E2E2E2E2F5F5E2F5F5F5F5F5F5F5F5E2F5F5F5F5F5F5F5F5F5F5F5F5F5F5F5F5F5F5F5F5F5F5F5F5F5F5F5F5F5F5F5F5F5F5F5F5F5F5F5F5F5F5F5F5F5F5F5F5F5F5F5F5F5F5F5F5F5F5F5F5F5F5F5F5F5F5F5F5F5F5F5F5F5F5F5F5F5F5F5F5F5F5F5F5F5F5F5F5F5
310
F5F5F5F5F5F5F5F5F5F5F5F5F5F5F5F5F5F5F5F5F5F5F5F5F5F5F5F5F5F5F5F5F5F5F5F5F5F5F5F5F5F5F5F5F5F5F5F5F5F5F5F5F5F5F5F5F5F5F5F5F5F5F5E2F5F5F5F5F5F5F5F5E2F5F5E2E2E2E2F5F5E2F5F5F5F5F5F5F5F5E2F5F5F5F5F5F5F5F5F5F5F5F5F5F5F5F5F5F5F5F5F5F5F5F5F5F5F5F5F5F5F5F5F5F5F5F5
310
F5F5F5F5F5F5F5F5F5F5F5F5F5F5F5F5F5F5F5F5F5F5F5F5F5F5F5F5F5F5F5F5F5F5F5F5F5F5F5F5F5F5F5F5F5F5F5F5F5F5F5F5F5F5F5F5F5F5F5F5F5F5F5F5F5F5F5F5F5F5F5F5F5F5F5F5F5F5F5F5F5F5F5F5F5F5F5F5F5F5F5F5F5F5F5F5F5F5F5F5F5F5F5F5F5F5F5F5F5F5F5F5F5F5F5F5E2F5F5F5F5F5F5F5F5E2F5
310
F5E2E2E2E2F5F5E2F5F5F5F5F5F5F5F5E2F5F5F5F5F5F5F5F5F5F5F5F5F5F5F5F5F5F5F5F5F5F5F5F5F5F5F5F5F5F5F5F5F5F5F5F5F5F5F5F5F5F5F5F5F5F5F5F5F5F5F5F5F5F5F5F5F5F5F5F5F5F5F5F5F5F5F5F5F5F5F5F5F5F5F5F5F5F5F5F5F5F5F5F5F5F5F5F5F5F5F5F5F5F5F5F5F5F5F5F5F5F5F5F5F5F5F5F5F5F5
310
F5F5F5F5F5F5F5F5F5F5F5F5F5F5F5F5F5F5F5F5F5F5F5F5F5F5F5F5F5F5F5F5F5F5F5F5F5F5F5F5F5F5E2F5F5F5F5F5F5F5F5E2F5F5E2E2E2E2F5F5E2F5F5F5F5F5F5F5F5E2F5F5F5F5F5F5F5F5F5F5F5F5F5F5F5F5F5F5F5F5F5F5F5F5F5F5F5F5F5F5F5F5F5F5F5F5F5F5F5F5F5F5F5F5F5F5F5F5F5F5F5F5F5F5F5F5F5
310
F5F5F5F5F5F5F5F5F5F5F5F5F5F5F5F5F5F5F5F5F5F5F5F5F5F5F5F5F5F5F5F5F5F5F5F5F5F5F5F5F5F5F5F5F5F5F5F5F5F5F5F5F5F5F5F5F5F5F5F5F5F5F5F5F5F5F5F5F5F5F5F5F5F5F5F5F5F5F5F5F5F5F5F5F5F5F5F5F5F5F5F5F5F5F5E2F5F5F5F5F5F5F5F5E2F5F5E2E2E2E2F5F5E2F5F5F5F5F5F5F5F5E2F5F5F5F5
310
F5F5F5F5F5F5F5F5F5F5F5F5F5F5F5F5F5F5F5F5F5F5F5F5F5F5F5F5F5F5F5F5F5F5F5F5F5F5F5F5F5F5F5F5F5F5F5F5F5F5F5F5F5F5F5F5F5F5F5F5F5F5F5F5F5F5F5F5F5F5F5F5F5F5F5F5F5F5F5F5F5F5F5F5F5F5F5F5F5F5F5F5F5F5F5F5F5F5F5F5F5F5F5F5F5F5F5F5F5F5F5F5F5F5F5F5F5F5F5F5F5F5F5F5F5F5F5
310
F5F5F5F5F5F5F5F5F5F5F5F5F5F5F5F5F5F5F5F5F5E2F5F5F5F5F5F5F5F5E2F5F5E2E2E2E2F5F5E2F5F5F5F5F5F5F5F5E2F5F5F5F5F5F5F5F5F5F5F5F5F5F5F5F5F5F5F5F5F5F5F5F5F5F5F5F5F5F5F5F5F5F5F5F5F5F5F5F5F5F5F5F5F5F5F5F5F5F5F5F5F5F5F5F5F5F5F5F5F5F5F5F5F5F5F5F5F5F5F5F5F5F5F5F5F5F5
310
F5F5F5F5F5F5F5F5F5F5F5F5F5F5F5F5F5F5F5F5F5F5F5F5F5F5F5F5F5F5F5F5F5F5F5F5F5F5F5F5F5F5F5F5F5F5F5F5F5F5F5F5F5F5F5F5F5F5F5F5F5F5F5F5F5F5F5F5F5F5F5F5F5F5E2F5F5F5F5F5F5F5F5E2F5F5E2E2E2E2F5F5E2F5F5F5F5F5F5F5F5E2F5F5F5F5F5F5F5F5F5F5F5F5F5F5F5F5F5F5F5F5F5F5F5F5F5
310
F5F5F5F5F5F5F5F5F5F5F5F5F5F5F5F5F5F5F5F5F5F5F5F5F5F5F5F5F5F5F5F5F5F5F5F5F5F5F5F5F5F5F5F5F5F5F5F5F5F5F5F5F5F5F5F5F5F5F5F5F5F5F5F5F5F5F5F5F5F5F5F5F5F5F5F5F5F5F5F5F5F5F5F5F5F5F5F5F5F5F5F5F5F5F5F5F5F5F5F5F5F5F5F5F5F5F5F5F5F5F5F5F5F5F5F5F5F5F5F5F5F5F5F5F5F5F5
310
E2F5F5F5F5F5F5F5F5E2F5F5E2E2E2E2F5F5E2F5F5F5F5F5F5F5F5E2F5F5F5F5F5F5F5F5F5F5F5F5F5F5F5F5F5F5F5F5F5F5F5F5F5F5F5F5F5F5F5F5F5F5F5F5F5F5F5F5F5F5F5F5F5F5F5F5F5F5F5F5F5F5F5F5F5F5F5F5F5F5F5F5F5F5F5F5F5F5F5F5F5F5F5F5F5F5F5F5F5F5F5F5F5F5F5F5F5F5F5F5F5F5F5F5F5F5F5
310
F5F5F5F5F5F5F5F5F5F5F5F5F5F5F5F5F5F5F5F5F5F5F5F5F5F5F5F5F5F5F5F5F5F5F5F5F5F5F5F5F5F5F5F5F5F5F5F5F5F5F5F5F5E2F5F5F5F5F5F5F5F5E2F5F5E2E2E2E2F5F5E2F5F5F5F5F5F5F5F5E2F5F5F5F5F5F5F5F5F5F5F5F5F5F5F5F5F5F5F5F5F5F5F5F5F5F5F5F5F5F5F5F5F5F5F5F5F5F5F5F5F5F5F5F5F5F5
310
F5F5F5F5F5F5F5F5F5F5F5F5F5F5F5F5F5F5F5F5F5F5F5F5F5F5F5F5F5F5F5F5F5F5F5F5F5F5F5F5F5F5F5F5F5F5F5F5F5F5F5F5F5F5F5F5F5F5F5F5F5F5F5F5F5F5F5F5F5F5F5F5F5F5F5F5F5F5F5F5F5F5F5F5F5F5F5F5F5F5F5F5F5F5F5F5F5F5F5F5F5F5F5F5F5F5E2F5F5F5F5F5F5F5F5E2F5F5E2E2E2E2F5F5E2F5F5
310
F5F5F5F5F5F5E2F5F5F5F5F5F5F5F5F5F5F5F5F5F5F5F5F5F5F5F5F5F5F5F5F5F5F5F5F5F5F5F5F5F5F5F5F5F5F5F5F5F5F5F5F5F5F5F5F5F5F5F5F5F5F5F5F5F5F5F5F5F5F5F5F5F5F5F5F5F5F5F5F5F5F5F5F5F5F5F5F5F5F5F5F5F5F5F5F5F5F5F5F5F5F5F5F5F5F5F5F5F5F5F5F5F5F5F5F5F5F5F5F5F5F5F5F5F5F5F5
310
F5F5F5F5F5F5F5F5F5F5F5F5F5F5F5F5F5F5F5F5F5F5F5F5F5F5F5F5F5F5F5F5E2F5F5F5F5F5F5F5F5E2F5F5E2E2E2E2F5F5E2F5F5F5F5F5F5F5F5E2F5F5F5F5F5F5F5F5F5F5F5F5F5F5F5F5F5F5F5F5F5F5F5F5F5F5F5F5F5F5F5F5F5F5F5F5F5F5F5F5F5F5F5F5F5F5F5F5F5F5F5F5F5F5F5F5F5F5F5F5F5F5F5F5F5F5F5
310
F5F5F5F5F5F5F5F5F5F5F5F5F5F5F5F5F5F5F5F5F5F5F5F5F5F5F5F5F5F5F5F5F5F5F5F5F5F5F5F5F5F5F5F5F5F5F5F5F5F5F5F5F5F5F5F5F5F5F5F5F5F5F5F5F5F5F5F5F5F5F5F5F5F5F5F5F5F5F5F5F5F5F5F5F5E2F5F5F5F5F5F5F5F5E2F5F5E2E2E2E2F5F5F5F5F5F5F5F5F5F5F5E2F5F5F5F5F5F5F5F5F5F5F5F5F5F5
310
F5F5F5F5F5F5F5F5F5F5F5F5F5F5F5F5F5F5F5F5F5F5F5F5F5F5F5F5F5F5F5F5F5F5F5F5F5F5F5F5F5F5F5F5F5F5F5F5F5F5F5F5F5F5F5F5F5F5F5F5F5F5F5F5F5F5F5F5F5F5F5F5F5F5F5F5F5F5F5F5F5F5F5F5F5F5F5F5F5F5F5F5F5F5F5F5F5F5F5F5F5F5F5F5F5F5F5F5F5F5F5F5F5F5F5F5F5F5F5F5F5F5F5F5F5F5F5
310
F5F5F5F5F5F5F5F5F5F5F5E2F5F5F5F5F5F5F5F5F5F5F5E2E2E2E2F5F5F5F5F5F5F5F5F5F5F5E2F5F5F5F5F5F5F5F5F5F5F5F5F5F5F5F5F5F5F5F5F5F5F5F5F5F5F5F5F5F5F5F5F5F5F5F5F5F5F5F5F5F5F5F5F5F5F5F5F5F5F5F5F5F5F5F5F5F5F5F5F5F5F5F5F5F5F5F5F5F5F5F5F5F5F5F5F5F5F5F5F5F5F5F5F5F5F5F5
310
F5F5F5F5F5F5F5F5F5F5F5F5F5F5F5F5F5F5F5F5F5F5F5F5F5F5F5F5F5F5F5F5F5F5F5F5F5F5F5F5F5F5F5F5F5F5F5F5F5F5F5F5F5F5F5F5F5F5F5F5F5F5F5F5E2F5F5F5F5F5F5F5F5F5F5F5E2E2E2E2F5F5F5F5F5F5F5F5F5F5F5E2F5F5F5F5F5F5F5F5F5F5F5F5F5F5F5F5F5F5F5F5F5F5F5F5F5F5F5F5F5F5F5F5F5F5F5
310
F5F5F5F5F5F5F5F5F5F5F5F5F5F5F5F5F5F5F5F5F5F5F5F5F5F5F5F5F5F5F5F5F5F5F5F5F5F5F5F5F5F5F5F5F5F5F5F5F5F5F5F5F5F5F5F5F5F5F5F5F5F5F5F5F5F5F5F5F5F5F5F5F5F5F5F5F5F5F5F5F5F5F5F5F5F5F5F5F5F5F5F5F5F5F5F5F5F5F5F5F5F5F5F5F5F5F5F5F5F5F5F5F5F5F5F5F5E2F5F5F5F5F5F5F5F5F5
310
F5F5E2E2E2E2F5F5F5F5F5F5F5F5F5F5F5E2F5F5F5F5F5F5F5F5F5F5F5F5F5F5F5F5F5F5F5F5F5F5F5F5F5F5F5F5F5F5F5F5F5F5F5F5F5F5F5F5F5F5F5F5F5F5F5F5F5F5F5F5F5F5F5F5F5F5F5F5F5F5F5F5F5F5F5F5F5F5F5F5F5F5F5F5F5F5F5F5F5F5F5F5F5F5F5F5F5F5F5F5F5F5F5F5F5F5F5F5F5F5F5F5F5F5F5F5F5
310
F5F5F5F5F5F5F5F5F5F5F5F5F5F5F5F5F5F5F5F5F5F5F5F5F5F5F5F5F5F5F5F5F5F5F5F5F5F5F5F5F5F5F5E2F5F5F5F5F5F5F5F5F5F5F5E2E2E2E2F5F5F5F5F5F5F5F5F5F5F5E2E2E2E2E2E2E2E2E2E2E2E2E2E2E2E2E2E2E2E2E2E2E2E2E2E2E2E2E2E2E2E2E2E2E2E2E2E2E2E2E2E2E2E2E2E2E2E2E2E2E2E2E2E2E2E2E2
310
E2E2E2E2E2E2E2E2E2E2E2E2E2E2E2E2E2E2E2E2E2E2E2E2E2E2E2E2E2E2E2E2E2E2E2E2E2E2E2E2E2E2E2E2E2E2E2E2E2E2E2E2E2E2E2E2E2E2E2E2E2E2E2E2E2E2E2E2E2E2E2E2E2E2E2E2E2E2E2E2E2E2E2E2E2E2E2E2E2E2E2E2E2E2E2E2E2F5F5F5F5F5F5F5F5F5F5F5E2E2E2E2F5F5F5F5F5F5F5F5F5F5F5F5F5F5F5
310
F5F5F5F5F5F5F5F5F5F5F5F5F5F5F5F5F5F5F5F5F5F5F5F5F5F5F5F5F5F5F5F5F5F5F5F5F5F5F5F5F5F5F5F5F5F5F5F5F5F5F5F5F5F5F5F5F5F5F5F5F5F5F5F5F5F5F5F5F5F5F5F5F5F5F5F5F5F5F5F5F5F5F5F5F5F5F5F5F5F5F5F5F5F5F5F5F5F5F5F5F5F5F5F5F5F5F5F5F5F5F5F5F5F5F5F5F5F5F5F5F5F5F5F5F5F5F5
310
F5F5F5F5F5F5F5F5F5F5F5F5F5F5F5F5F5F5F5F5F5F5F5F5F5F5F5F5F5F5F5F5F5F5E2E2E2E2F5F5F5F5F5F5F5F5F5F5F5F5F5F5F5F5F5F5F5F5F5F5F5F5F5F5F5F5F5F5F5F5F5F5F5F5F5F5F5F5F5F5F5F5F5F5F5F5F5F5F5F5F5F5F5F5F5F5F5F5F5F5F5F5F5F5F5F5F5F5F5F5F5F5F5F5F5F5F5F5F5F5F5F5F5F5F5F5F5
310
F5F5F5F5F5F5F5F5F5F5F5F5F5F5F5F5F5F5F5F5F5F5F5F5F5F5F5F5F5F5F5F5F5F5F5F5F5F5F5F5F5F5F5F5F5F5F5F5F5F5F5F5F5F5F5F5F5F5F5F5F5F5F5F5F5F5F5F5F5F5F5F5F5F5F5F5F5F5F5F5F5F5F5F5F5F5F5E2E2E2E2F5F5F5F5F5F5F5F5F5F5F5F5F5F5F5F5F5F5F5F5F5F5F5F5F5F5F5F5F5F5F5F5F5F5F5F5
310
F5F5F5F5F5F5F5F5F5F5F5F5F5F5F5F5F5F5F5F5F5F5F5F5F5F5F5F5F5F5F5F5F5F5F5F5F5F5F5F5F5F5F5F5F5F5F5F5F5F5F5F5F5F5F5E2F5E2E2E2E2E2E2E2E2E2E2E2E2F5F5F5F5E2E2E2E2F5E2E2E2E2E2F5F5F5E2E2F5F5F5F5E2F5E2E2F5E2F5F5E2F5E2E2E2F5E2E2E2E2E2F5F5F5E2F5E2E2E2E2E2E2E2E2E2F5E2
310
F5F5F5F5F5F5F5F5F5F5F5F5F5E2E2E2E2F5F5F5F5F5F5F5F5F5F5F5F5F5F5F5F5F5F5F5F5F5F5F5F5F5F5F5F5F5F5F5F5F5F5F5F5F5F5F5F5F5F5F5F5F5F5F5F5F5F5F5F5F5F5F5F5F5F5F5F5F5F5F5F5F5F5F5F5F5F5F5F5F5F5F5F5F5F5F5F5F5F5F5F5F5F5F5F5F5F5F5E2E2E2E2F5E2E2E2F5E2F5E2E2E2E2F5F5F5F5
310
E2F5E2F5E2E2E2F5E2E2F5F5E2F5F5F5F5F5E2F5E2E2E2E2F5E2E2E2E2E2E2F5E2E2E2F5E2F5F5F5E2E2E2E2F5E2E2F5E2E2E2E2E2F5F5F5F5F5F5F5F5F5F5F5F5F5E2E2E2E2F5F5E2F5F5F5F5F5F5F5F5F5F5F5F5F5F5F5F5F5F5F5F5F5F5F5F5F5F5F5F5F5F5F5F5F5F5F5F5F5F5F5F5F5F5F5F5F5F5F5F5F5F5F5F5F5F5
310
F5F5F5F5F5F5F5F5F5F5F5F5F5F5F5F5F5F5F5F5F5F5F5F5F5F5F5F5F5F5F5F5F5F5E2F5E2E2E2F5E2E2F5E2E2F5E2E2E2F5F5F5E2F5E2E2E2F5E2E2F5E2F5E2E2E2E2F5F5F5F5E2F5E2E2F5E2E2F5E2E2F5E2E2E2F5E2E2F5E2F5F5F5E2E2E2F5E2E2E2E2E2E2E2F5E2F5F5F5F5F5F5F5F5F5F5E2F5F5E2E2E2E2F5F5E2F5
310
F5F5F5F5F5F5F5F5F5F5F5F5F5F5F5F5F5F5F5F5F5F5F5F5F5F5F5F5F5F5F5F5F5F5F5F5F5F5F5F5F5F5F5F5F5F5F5F5F5F5F5F5F5F5F5F5F5F5F5F5F5F5F5F5F5F5F5F5F5F5F5F5F5F5F5F5F5F5F5F5F5F5F5F5F5F5F5E2F5E2F5F5F5E2E2F5F5F5F5F5F5F5F5F5F5E2E2F5E2F5F5F5F5F5F5E2F5F5E2F5F5F5F5E2E2E2F5
310
F5F5F5F5F5F5F5F5E2F5F5F5F5F5F5E2F5F5F5E2F5E2F5F5F5F5F5E2F5F5F5E2F5F5F5F5F5F5F5F5F5F5E2F5F5E2E2E2E2F5F5E2F5F5F5F5F5F5F5F5F5F5F5F5F5F5F5F5F5F5F5F5F5F5F5F5F5F5F5F5F5F5F5F5F5F5F5F5F5F5F5F5F5F5F5F5F5F5F5F5F5F5F5F5F5F5F5F5F5F5F5F5F5F5F5F5F5F5F5F5F5F5F5F5F5F5F5
310
F5F5F5F5F5F5F5F5F5F5F5F5F5F5F5F5F5F5F5F5F5F5F5F5F5F5F5F5F5F5F5F5F5F5F5F5F5F5F5F5F5F5F5F5F5F5F5F5F5F5F5F5F5F5F5F5F5F5F5F5F5F5F5F5F5F5F5F5F5F5F5F5F5F5F5F5F5F5F5F5F5F5F5F5F5F5F5F5F5F5F5F5F5F5F5E2F5F5E2E2E2E2F5F5E2F5F5F5F5F5F5F5F5F5F5F5F5F5F5F5F5F5F5F5F5F5F5
310
F5F5F5F5F5F5F5F5F5F5F5F5F5F5F5F5F5F5F5F5F5F5F5F5F5F5F5F5F5F5F5F5F5F5F5F5F5F5F5F5F5F5F5F5F5F5F5F5F5F5F5F5F5F5F5F5F5F5F5F5F5F5F5F5F5F5F5F5F5F5F5F5F5F5F5F5F5F5F5F5F5F5F5F5F5F5F5F5F5F5F5F5F5F5F5F5F5F5F5F5F5F5F5F5F5F5F5F5F5F5F5F5F5F5F5F5F5F5F5F5F5F5F5F5F5F5F5
310
F5F5F5F5F5F5F5F5F5F5F5F5F5F5F5F5F5F5F5F5F5E2F5F5E2E2E2E2F5F5E2F5F5F5F5F5F5F5F5F5F5F5F5F5F5F5F5F5F5F5F5F5F5F5F5F5F5F5F5F5F5F5F5F5F5F5F5F5F5F5F5F5F5F5F5F5F5F5F5F5F5F5F5F5F5F5F5F5F5F5F5F5F5F5F5F5F5F5F5F5F5F5F5F5F5F5F5F5F5F5F5F5F5F5F5F5F5F5F5F5E2E2F5F5F5E2F5
310
F5F5E2E2E2E2F5F5F5F5F5F5F5F5F5F5F5F5F5F5F5F5F5F5F5F5F5F5F5F5F5F5F5F5F5F5F5F5F5F5F5F5F5F5F5F5F5F5F5F5F5F5F5F5F5F5F5F5F5F5F5F5F5F5F5F5F5F5F5F5F5F5F5F5E2F5F5E2E2E2E2F5F5E2F5F5F5F5F5F5F5F5F5F5F5F5F5F5F5F5F5F5F5F5F5F5F5F5F5F5F5F5F5F5F5F5F5F5F5F5F5F5F5F5F5F5F5
310
F5F5F5F5F5F5F5F5F5F5F5F5F5F5F5F5F5F5F5F5F5F5F5F5F5F5F5F5F5F5F5F5F5F5F5F5F5F5F5F5F5F5F5F5F5E2F5F5E2F5F5E2F5F5F5E2F5E2F5E2F5F5F5F5E2E2F5E2F5F5F5F5F5F5F5F5F5F5F5F5F5F5F5F5F5F5F5F5F5F5F5F5F5F5F5F5F5F5F5F5F5F5F5F5F5F5F5F5F5F5F5F5F5F5F5F5F5F5F5F5F5F5F5F5F5F5F5
310
E2F5F5E2E2E2E2F5F5E2F5F5F5F5F5F5F5F5F5F5F5F5F5F5F5F5F5F5F5F5F5F5F5F5F5F5F5F5F5F5F5F5F5F5F5F5F5F5F5F5F5F5F5F5F5F5F5F5F5F5F5F5F5F5F5F5F5F5F5F5F5F5F5F5F5F5F5F5F5F5F5F5F5F5F5F5F5F5F5F5F5F5F5F5F5F5F5F5E2E2E2E2E2E2E2F5E2E2E2F5E2F5E2E2E2E2E2E2E2E2E2F5F5F5F5F5F5
310
F5F5F5F5F5F5F5F5F5F5F5F5F5F5F5F5F5F5F5F5F5F5F5F5F5F5F5F5F5F5F5F5F5F5F5F5F5F5F5F5F5F5F5F5F5F5F5F5F5F5F5F5F5E2F5F5E2E2E2E2F5F5E2F5F5F5F5F5F5F5F5F5F5F5F5F5F5F5F5F5F5F5F5F5F5F5F5F5F5F5F5F5F5F5F5F5F5F5F5F5F5F5F5F5F5F5F5F5F5F5F5F5F5F5F5F5F5F5F5F5F5F5F5F5F5F5F5
310
F5F5F5F5F5F5F5F5F5F5F5F5F5F5F5F5F5F5F5F5F5F5F5F5E2F5F5E2F5E2E2F5F5E2E2F5E2F5E2F5F5F5F5E2E2F5E2F5F5F5F5F5F5F5F5F5F5F5F5F5F5F5F5F5F5F5F5F5F5F5F5F5F5F5F5F5F5F5F5F5F5F5F5F5F5F5F5F5F5F5F5F5F5F5F5F5F5F5F5F5F5F5F5F5F5F5E2F5F5E2E2E2E2F5F5E2E2E2E2E2E2E2E2F5F5F5F5
310
F5F5F5F5F5E2E2E2E2E2E2E2E2E2E2E2E2E2E2E2E2F5F5F5F5F5F5F5F5F5E2E2E2E2E2E2E2E2E2E2E2E2E2E2E2F5F5F5F5F5F5F5F5F5E2E2E2E2E2E2E2E2E2E2E2E2E2E2E2E2F5F5F5F5F5F5F5F5E2E2E2E2E2E2E2E2E2E2E2E2E2E2E2E2F5F5F5F5F5F5F5F5F5E2E2E2E2E2E2E2E2E2E2E2E2E2E2E2F5F5F5F5F5F5F5F5F5
310
E2E2E2E2E2E2E2E2E2E2E2E2E2E2E2E2F5F5F5F5F5F5F5F5F5E2E2E2E2E2E2E2E2F5F5E2E2E2E2F5F5F5F5F5F5F5F5F5F5F5F5F5F5F5F5F5F5F5F5F5F5F5F5F5F5F5F5F5F5F5F5F5F5F5F5F5F5F5F5F5F5F5F5F5F5F5F5F5F5F5F5F5F5F5F5F5F5F5F5F5F5F5F5F5F5F5F5F5F5F5F5F5F5F5F5F5F5F5F5F5F5F5F5F5F5F5F5
310
F5F5F5F5F5F5F5F5F5F5F5F5F5F5F5F5F5F5F5F5F5F5F5F5F5F5F5F5F5F5F5F5F5F5F5F5F5F5F5F5F5F5F5F5F5F5F5F5F5F5F5F5F5F5F5F5F5F5F5F5F5F5F5F5F5F5F5F5F5F5F5F5F5F5F5F5F5F5F5F5F5F5F5F5F5F5F5F5E2E2E2E2F5F5F5F5F5F5F5F5F5F5F5F5F5F5F5F5F5F5F5F5F5F5F5F5F5F5F5F5F5F5F5F5F5F5F5
310
F5F5F5F5F5F5F5F5F5F5F5F5F5F5F5F5F5F5F5F5F5F5F5F5F5F5F5F5F5F5F5F5F5F5F5F5F5F5F5F5F5F5F5F5F5F5F5F5F5F5F5F5F5F5F5F5F5F5F5F5F5F5F5F5F5F5F5F5F5F5F5F5F5F5F5F5F5F5F5F5F5F5F5F5F5F5F5F5F5F5F5F5F5F5F5F5F5F5F5F5F5F5F5F5F5F5F5F5F5F5F5F5F5F5F5F5F5F5F5F5F5F5F5F5F5F5F5
310
F5F5F5F5F5F5F5F5F5F5F5F5F5F5E2E2E2E2F5F5F5F5F5F5F5F5F5F5F5F5F5F5F5F5F5F5F5F5F5F5F5F5F5F5F5F5F5F5F5F5F5F5F5F5F5F5F5F5F5F5F5F5F5F5F5F5F5F5F5F5F5F5F5F5F5F5F5F5F5F5F5F5F5F5F5F5F5F5F5F5F5F5F5F5F5F5F5F5F5F5F5F5F5F5F5F5F5F5F5F5F5F5F5F5F5F5F5F5F5F5F5F5F5F5F5F5F5
310
F5F5F5F5F5F5F5F5F5F5F5F5F5F5F5F5F5F5F5F5F5F5F5F5F5F5F5F5F5F5F5F5F5F5F5F5F5F5F5F5F5F5F5F5F5F5F5F5F5F5F5F5F5F5F5F5F5F5F5F5F5F5F5F5F5F5F5E2EFEFE2F5F5F5F5F5F5F5F5F5F5F5F5F5F5F5F5F5F5F5F5F5F5F5F5F5F5F5F5F5F5F5F5F5F5F5F5F5F5F5F5F5F5F5F5F5F5F5F5F5F5F5F5F5F5F5F5
310
F5F5F5F5F5F5F5F5F5F5F5F5F5F5F5F5F5F5F5F5F5F5F5F5F5F5F5F5F5F5F5F5F5F5F5F5F5F5F5F5F5F5F5F5F5F5F5F5F5F5F5F5F5F5F5F5F5F5F5F5F5F5F5F5F5F5F5F5F5F5F5F5F5F5F5F5F5F5F5F5F5F5F5F5F5F5F5F5F5F5F5F5F5F5F5F5F5F5F5F5F5F5F5F5F5F5F5F5F5F5F5F5F5F5F5F5F5F5F5F5E2EFEFE2E2E2E2
310
E2E2E2E2E2E2E2E2E2E2E2E2E2E2E2E2E2E2E2E2E2E2E2E2E2E2E2E2E2E2E2E2E2E2E2E2E2E2E2E2E2E2E2E2E2E2E2E2E2E2E2E2E2E2E2E2E2E2E2E2E2E2E2E2E2E2E2E2E2E2E2E2E2E2E2E2E2E2E2E2E2E2E2E2E2E2E2E2E2E2E2E2E2E2E2E2E2E2E2E2E2E2E2E2E2E2E2E2E2E2E2E2E2E2E2E2E2E2E2E2E2E2E2E2E2E2E2
310
E2E2E2E2E2E2E2E2E2E2E2E2E2E2E2E2E2E2E2E2E2E2E2E2E2E2E2E2E2E2E2E2E2E2E2E2E2E2E2E2E2E2E2E2E2E2E2EFEF
  0
XRECORD
  5
5BE3F
102
{ACAD_REACTORS
330
5BE3E
102
}
330
5BE3E
100
AcDbXrecord
280
     1
102
SHADEPLOT
 70
     0
102
SHADEPLOTRESLEVEL
 70
     2
102
SHADEPLOTCUSTOMDPI
 70
   300
  0
ENDSEC
  0
EOF
