  0
SECTION
  2
HEADER
  9
$ACADVER
  1
AC1015
  9
$ACADMAINTVER
 70
     6
  9
$DWGCODEPAGE
  3
ANSI_1252
  9
$INSBASE
 10
0.0
 20
0.0
 30
0.0
  9
$EXTMIN
 10
-32.375
 20
-32.375
 30
-5.350000000000007
  9
$EXTMAX
 10
81.76978573107145
 20
42.27181910399383
 30
59.25
  9
$LIMMIN
 10
0.0
 20
0.0
  9
$LIMMAX
 10
12.0
 20
9.0
  9
$ORTHOMODE
 70
     0
  9
$REGENMODE
 70
     1
  9
$FILLMODE
 70
     1
  9
$QTEXTMODE
 70
     0
  9
$MIRRTEXT
 70
     1
  9
$LTSCALE
 40
1.0
  9
$ATTMODE
 70
     0
  9
$TEXTSIZE
 40
0.2
  9
$TRACEWID
 40
0.05
  9
$TEXTSTYLE
  7
STANDARD
  9
$CLAYER
  8
0
  9
$CELTYPE
  6
BYLAYER
  9
$CECOLOR
 62
   256
  9
$CELTSCALE
 40
1.0
  9
$DISPSILH
 70
     0
  9
$DIMSCALE
 40
0.0
  9
$DIMASZ
 40
0.1796875
  9
$DIMEXO
 40
0.0625
  9
$DIMDLI
 40
0.375
  9
$DIMRND
 40
0.0
  9
$DIMDLE
 40
0.0
  9
$DIMEXE
 40
0.1796875
  9
$DIMTP
 40
0.0
  9
$DIMTM
 40
0.0
  9
$DIMTXT
 40
0.125
  9
$DIMCEN
 40
0.08984375
  9
$DIMTSZ
 40
0.0
  9
$DIMTOL
 70
     0
  9
$DIMLIM
 70
     0
  9
$DIMTIH
 70
     0
  9
$DIMTOH
 70
     0
  9
$DIMSE1
 70
     0
  9
$DIMSE2
 70
     0
  9
$DIMTAD
 70
     0
  9
$DIMZIN
 70
     4
  9
$DIMBLK
  1

  9
$DIMASO
 70
     1
  9
$DIMSHO
 70
     1
  9
$DIMPOST
  1

  9
$DIMAPOST
  1

  9
$DIMALT
 70
     1
  9
$DIMALTD
 70
     6
  9
$DIMALTF
 40
0.03937
  9
$DIMLFAC
 40
1.0
  9
$DIMTOFL
 70
     0
  9
$DIMTVP
 40
0.0
  9
$DIMTIX
 70
     1
  9
$DIMSOXD
 70
     0
  9
$DIMSAH
 70
     0
  9
$DIMBLK1
  1

  9
$DIMBLK2
  1

  9
$DIMSTYLE
  2
ABECAD_3V
  9
$DIMCLRD
 70
     0
  9
$DIMCLRE
 70
     0
  9
$DIMCLRT
 70
     0
  9
$DIMTFAC
 40
1.5
  9
$DIMGAP
 40
0.09375
  9
$DIMJUST
 70
     0
  9
$DIMSD1
 70
     0
  9
$DIMSD2
 70
     0
  9
$DIMTOLJ
 70
     1
  9
$DIMTZIN
 70
     4
  9
$DIMALTZ
 70
     4
  9
$DIMALTTZ
 70
     4
  9
$DIMUPT
 70
     0
  9
$DIMDEC
 70
     2
  9
$DIMTDEC
 70
     2
  9
$DIMALTU
 70
     7
  9
$DIMALTTD
 70
     6
  9
$DIMTXSTY
  7
STANDARD
  9
$DIMAUNIT
 70
     0
  9
$DIMADEC
 70
     0
  9
$DIMALTRND
 40
0.0
  9
$DIMAZIN
 70
     0
  9
$DIMDSEP
 70
    46
  9
$DIMATFIT
 70
     3
  9
$DIMFRAC
 70
     2
  9
$DIMLDRBLK
  1

  9
$DIMLUNIT
 70
     2
  9
$DIMLWD
 70
    -2
  9
$DIMLWE
 70
    -2
  9
$DIMTMOVE
 70
     2
  9
$LUNITS
 70
     5
  9
$LUPREC
 70
     6
  9
$SKETCHINC
 40
0.1
  9
$FILLETRAD
 40
0.0
  9
$AUNITS
 70
     0
  9
$AUPREC
 70
     0
  9
$MENU
  1
acad
  9
$ELEVATION
 40
0.0
  9
$PELEVATION
 40
0.0
  9
$THICKNESS
 40
0.0
  9
$LIMCHECK
 70
     0
  9
$CHAMFERA
 40
0.0
  9
$CHAMFERB
 40
0.0
  9
$CHAMFERC
 40
0.0
  9
$CHAMFERD
 40
0.0
  9
$SKPOLY
 70
     0
  9
$TDCREATE
 40
2451670.407748379
  9
$TDUCREATE
 40
2451670.616081712
  9
$TDUPDATE
 40
2453514.665106597
  9
$TDUUPDATE
 40
2453514.873439930
  9
$TDINDWG
 40
0.0134542130
  9
$TDUSRTIMER
 40
0.0134542130
  9
$USRTIMER
 70
     1
  9
$ANGBASE
 50
0.0
  9
$ANGDIR
 70
     0
  9
$PDMODE
 70
     3
  9
$PDSIZE
 40
2.286
  9
$PLINEWID
 40
0.0
  9
$SPLFRAME
 70
     0
  9
$SPLINETYPE
 70
     6
  9
$SPLINESEGS
 70
     8
  9
$HANDSEED
  5
795
  9
$SURFTAB1
 70
     6
  9
$SURFTAB2
 70
     6
  9
$SURFTYPE
 70
     6
  9
$SURFU
 70
     6
  9
$SURFV
 70
     6
  9
$UCSBASE
  2

  9
$UCSNAME
  2

  9
$UCSORG
 10
0.0
 20
0.0
 30
0.0
  9
$UCSXDIR
 10
1.0
 20
0.0
 30
0.0
  9
$UCSYDIR
 10
0.0
 20
0.0
 30
1.0
  9
$UCSORTHOREF
  2

  9
$UCSORTHOVIEW
 70
     3
  9
$UCSORGTOP
 10
0.0
 20
0.0
 30
0.0
  9
$UCSORGBOTTOM
 10
0.0
 20
0.0
 30
0.0
  9
$UCSORGLEFT
 10
0.0
 20
0.0
 30
0.0
  9
$UCSORGRIGHT
 10
0.0
 20
0.0
 30
0.0
  9
$UCSORGFRONT
 10
0.0
 20
0.0
 30
0.0
  9
$UCSORGBACK
 10
0.0
 20
0.0
 30
0.0
  9
$PUCSBASE
  2

  9
$PUCSNAME
  2

  9
$PUCSORG
 10
0.0
 20
0.0
 30
0.0
  9
$PUCSXDIR
 10
1.0
 20
0.0
 30
0.0
  9
$PUCSYDIR
 10
0.0
 20
1.0
 30
0.0
  9
$PUCSORTHOREF
  2

  9
$PUCSORTHOVIEW
 70
     0
  9
$PUCSORGTOP
 10
0.0
 20
0.0
 30
0.0
  9
$PUCSORGBOTTOM
 10
0.0
 20
0.0
 30
0.0
  9
$PUCSORGLEFT
 10
0.0
 20
0.0
 30
0.0
  9
$PUCSORGRIGHT
 10
0.0
 20
0.0
 30
0.0
  9
$PUCSORGFRONT
 10
0.0
 20
0.0
 30
0.0
  9
$PUCSORGBACK
 10
0.0
 20
0.0
 30
0.0
  9
$USERI1
 70
     0
  9
$USERI2
 70
     0
  9
$USERI3
 70
     0
  9
$USERI4
 70
     0
  9
$USERI5
 70
     0
  9
$USERR1
 40
0.0
  9
$USERR2
 40
0.0
  9
$USERR3
 40
0.0
  9
$USERR4
 40
0.0
  9
$USERR5
 40
0.0
  9
$WORLDVIEW
 70
     1
  9
$SHADEDGE
 70
     3
  9
$SHADEDIF
 70
    70
  9
$TILEMODE
 70
     0
  9
$MAXACTVP
 70
    16
  9
$PINSBASE
 10
0.0
 20
0.0
 30
0.0
  9
$PLIMCHECK
 70
     0
  9
$PEXTMIN
 10
0.0
 20
0.0
 30
0.0
  9
$PEXTMAX
 10
10.0
 20
7.5
 30
0.0
  9
$PLIMMIN
 10
-0.1870289046444169
 20
-0.1869378900655213
  9
$PLIMMAX
 10
10.18751784143945
 20
7.829757271310011
  9
$UNITMODE
 70
     0
  9
$VISRETAIN
 70
     0
  9
$PLINEGEN
 70
     0
  9
$PSLTSCALE
 70
     1
  9
$TREEDEPTH
 70
  3020
  9
$CMLSTYLE
  2
STANDARD
  9
$CMLJUST
 70
     0
  9
$CMLSCALE
 40
1.0
  9
$PROXYGRAPHICS
 70
     1
  9
$MEASUREMENT
 70
     1
  9
$CELWEIGHT
370
    -1
  9
$ENDCAPS
280
     0
  9
$JOINSTYLE
280
     0
  9
$LWDISPLAY
290
     0
  9
$INSUNITS
 70
     0
  9
$HYPERLINKBASE
  1

  9
$STYLESHEET
  1

  9
$XEDIT
290
     1
  9
$CEPSNTYPE
380
     0
  9
$PSTYLEMODE
290
     1
  9
$FINGERPRINTGUID
  2
{6E0CF4B5-225E-11D4-A150-00A0CC3303EC}
  9
$VERSIONGUID
  2
{7502F109-FE22-4748-88A7-FD322200DB2B}
  9
$EXTNAMES
290
     1
  9
$PSVPSCALE
 40
0.0
  9
$OLESTARTUP
290
     0
  0
ENDSEC
  0
SECTION
  2
CLASSES
  0
CLASS
  1
DICTIONARYVAR
  2
AcDbDictionaryVar
  3
AutoCAD 2000
 90
        0
280
     0
281
     0
  0
CLASS
  1
ACDBDICTIONARYWDFLT
  2
AcDbDictionaryWithDefault
  3
AutoCAD 2000
 90
        0
280
     0
281
     0
  0
CLASS
  1
ACDBPLACEHOLDER
  2
AcDbPlaceHolder
  3
AutoCAD 2000
 90
        0
280
     0
281
     0
  0
CLASS
  1
LAYOUT
  2
AcDbLayout
  3
AutoCAD 2000
 90
        0
280
     0
281
     0
  0
CLASS
  1
LONG_TRANSACTION
  2
AcDbLongTransaction
  3
AutoCAD 2000
 90
    32768
280
     0
281
     0
  0
CLASS
  1
LWPOLYLINE
  2
AcDbPolyline
  3
AutoCAD 2000
 90
    32768
280
     0
281
     1
  0
CLASS
  1
HATCH
  2
AcDbHatch
  3
AutoCAD 2000
 90
    32768
280
     0
281
     1
  0
CLASS
  1
XRECORD
  2
AcDbXrecord
  3
AutoCAD 2000
 90
    32768
280
     0
281
     0
  0
CLASS
  1
LONG_TRANSACTION
  2
AcDbLongTransaction
  3
AutoCAD 2000
 90
    32768
280
     0
281
     0
  0
CLASS
  1
LWPOLYLINE
  2
AcDbPolyline
  3
AutoCAD 2000
 90
    32768
280
     0
281
     1
  0
CLASS
  1
HATCH
  2
AcDbHatch
  3
AutoCAD 2000
 90
    32768
280
     0
281
     1
  0
CLASS
  1
XRECORD
  2
AcDbXrecord
  3
AutoCAD 2000
 90
    32768
280
     0
281
     0
  0
CLASS
  1
LONG_TRANSACTION
  2
AcDbLongTransaction
  3
AutoCAD 2000
 90
    32768
280
     0
281
     0
  0
CLASS
  1
LWPOLYLINE
  2
AcDbPolyline
  3
AutoCAD 2000
 90
    32768
280
     0
281
     1
  0
CLASS
  1
HATCH
  2
AcDbHatch
  3
AutoCAD 2000
 90
    32768
280
     0
281
     1
  0
CLASS
  1
XRECORD
  2
AcDbXrecord
  3
AutoCAD 2000
 90
    32768
280
     0
281
     0
  0
CLASS
  1
LONG_TRANSACTION
  2
AcDbLongTransaction
  3
AutoCAD 2000
 90
    32768
280
     0
281
     0
  0
CLASS
  1
LWPOLYLINE
  2
AcDbPolyline
  3
AutoCAD 2000
 90
    32768
280
     0
281
     1
  0
CLASS
  1
HATCH
  2
AcDbHatch
  3
AutoCAD 2000
 90
    32768
280
     0
281
     1
  0
CLASS
  1
XRECORD
  2
AcDbXrecord
  3
AutoCAD 2000
 90
    32768
280
     0
281
     0
  0
CLASS
  1
LONG_TRANSACTION
  2
AcDbLongTransaction
  3
AutoCAD 2000
 90
    32768
280
     0
281
     0
  0
CLASS
  1
LWPOLYLINE
  2
AcDbPolyline
  3
AutoCAD 2000
 90
    32768
280
     0
281
     1
  0
CLASS
  1
HATCH
  2
AcDbHatch
  3
AutoCAD 2000
 90
    32768
280
     0
281
     1
  0
CLASS
  1
XRECORD
  2
AcDbXrecord
  3
AutoCAD 2000
 90
    32768
280
     0
281
     0
  0
ENDSEC
  0
SECTION
  2
TABLES
  0
TABLE
  2
VPORT
  5
469
330
0
100
AcDbSymbolTable
 70
     1
  0
VPORT
  5
709
330
469
100
AcDbSymbolTableRecord
100
AcDbViewportTableRecord
  2
*Active
 70
     0
 10
0.0
 20
0.0
 11
1.0
 21
1.0
 12
-12.05818537417934
 22
1.611195255189016
 13
0.0
 23
0.0
 14
1.0
 24
1.0
 15
0.0
 25
0.0
 16
0.0
 26
0.0
 36
1.0
 17
34.3629957483229
 27
3.283660614448393
 37
35.37991303505153
 40
84.75224657076536
 41
1.843749999999999
 42
50.0
 43
0.0
 44
0.0
 50
0.0
 51
0.0
 71
     0
 72
   100
 73
     1
 74
     1
 75
     0
 76
     0
 77
     0
 78
     0
281
     0
 65
     1
110
0.0
120
0.0
130
0.0
111
1.0
121
0.0
131
0.0
112
0.0
122
1.0
132
0.0
 79
     1
146
0.0
  0
ENDTAB
  0
TABLE
  2
LTYPE
  5
466
330
0
100
AcDbSymbolTable
 70
     1
  0
LTYPE
  5
472
330
466
100
AcDbSymbolTableRecord
100
AcDbLinetypeTableRecord
  2
BYBLOCK
 70
     0
  3

 72
    65
 73
     0
 40
0.0
  0
LTYPE
  5
473
330
466
100
AcDbSymbolTableRecord
100
AcDbLinetypeTableRecord
  2
BYLAYER
 70
     0
  3

 72
    65
 73
     0
 40
0.0
  0
LTYPE
  5
474
330
466
100
AcDbSymbolTableRecord
100
AcDbLinetypeTableRecord
  2
CONTINUOUS
 70
     0
  3
Solid line
 72
    65
 73
     0
 40
0.0
  0
ENDTAB
  0
TABLE
  2
LAYER
  5
463
330
0
100
AcDbSymbolTable
 70
     8
  0
LAYER
  5
46F
330
463
100
AcDbSymbolTableRecord
100
AcDbLayerTableRecord
  2
0
 70
     0
 62
     7
  6
CONTINUOUS
370
    -3
390
49D
  0
LAYER
  5
485
330
463
100
AcDbSymbolTableRecord
100
AcDbLayerTableRecord
  2
AREA1
 70
     0
 62
     7
  6
CONTINUOUS
370
    -3
390
49D
  0
LAYER
  5
486
330
463
100
AcDbSymbolTableRecord
100
AcDbLayerTableRecord
  2
AREA2
 70
     0
 62
     7
  6
CONTINUOUS
370
    -3
390
49D
  0
LAYER
  5
494
330
463
100
AcDbSymbolTableRecord
100
AcDbLayerTableRecord
  2
DEFPOINTS
 70
     0
 62
     7
  6
CONTINUOUS
290
     0
370
    -3
390
49D
  0
LAYER
  5
495
330
463
100
AcDbSymbolTableRecord
100
AcDbLayerTableRecord
  2
DIMS-MTG-HOLES
 70
     0
 62
     1
  6
CONTINUOUS
370
    -3
390
49D
  0
LAYER
  5
4EB
330
463
100
AcDbSymbolTableRecord
100
AcDbLayerTableRecord
  2
SCALE
 70
     0
 62
    -7
  6
CONTINUOUS
370
    -3
390
49D
  0
LAYER
  5
57A
330
463
100
AcDbSymbolTableRecord
100
AcDbLayerTableRecord
  2
ATTRIBUTES
 70
     0
 62
    -7
  6
CONTINUOUS
370
    -3
390
49D
  0
LAYER
  5
57B
330
463
100
AcDbSymbolTableRecord
100
AcDbLayerTableRecord
  2
SNAP_POINTS
 70
     0
 62
    -1
  6
CONTINUOUS
370
    -3
390
49D
  0
ENDTAB
  0
TABLE
  2
STYLE
  5
464
330
0
100
AcDbSymbolTable
 70
     1
  0
STYLE
  5
470
330
464
100
AcDbSymbolTableRecord
100
AcDbTextStyleTableRecord
  2
STANDARD
 70
     0
 40
0.0
 41
1.0
 50
0.0
 71
     0
 42
0.2
  3
txt
  4

  0
ENDTAB
  0
TABLE
  2
VIEW
  5
467
330
0
100
AcDbSymbolTable
 70
     0
  0
ENDTAB
  0
TABLE
  2
UCS
  5
468
330
0
100
AcDbSymbolTable
 70
     0
  0
ENDTAB
  0
TABLE
  2
APPID
  5
46A
330
0
100
AcDbSymbolTable
 70
     2
  0
APPID
  5
471
330
46A
100
AcDbSymbolTableRecord
100
AcDbRegAppTableRecord
  2
ACAD
 70
     0
  0
APPID
  5
47E
330
46A
100
AcDbSymbolTableRecord
100
AcDbRegAppTableRecord
  2
AVE_RENDER
 70
     0
  0
ENDTAB
  0
TABLE
  2
DIMSTYLE
  5
46B
330
0
100
AcDbSymbolTable
 70
     4
100
AcDbDimStyleTable
 71
     0
  0
DIMSTYLE
105
47F
330
46B
100
AcDbSymbolTableRecord
100
AcDbDimStyleTableRecord
  2
STANDARD
 70
     0
271
     6
272
     6
273
     5
274
     1
277
     5
279
     2
284
     4
285
     4
286
     4
340
470
  0
DIMSTYLE
105
496
330
46B
100
AcDbSymbolTableRecord
100
AcDbDimStyleTableRecord
  2
ABECAD
 70
     0
 40
0.0
 41
0.1796875
 43
0.375
 44
0.1796875
 73
     0
 74
     0
 78
     4
140
0.125
141
0.08984375
146
1.5
147
0.09375
170
     1
171
     1
174
     1
271
     6
272
     6
274
     1
276
     2
277
     5
279
     2
284
     4
285
     4
286
     4
340
470
  0
DIMSTYLE
105
49A
102
{ACAD_REACTORS
330
5AB
102
}
330
46B
100
AcDbSymbolTableRecord
100
AcDbDimStyleTableRecord
  2
ABECAD_3V
 70
     0
 40
0.0
 41
0.1796875
 43
0.375
 44
0.1796875
 73
     0
 74
     0
 78
     4
140
0.125
141
0.08984375
143
0.03937
146
1.5
147
0.09375
170
     1
171
     6
174
     1
271
     2
272
     2
273
     7
274
     6
276
     2
279
     2
284
     4
285
     4
286
     4
340
470
  0
DIMSTYLE
105
57C
102
{ACAD_REACTORS
330
59A
330
59B
102
}
330
46B
100
AcDbSymbolTableRecord
100
AcDbDimStyleTableRecord
  2
ABECAD_3D
 70
     0
 41
4.572
 42
1.587499999999999
 43
9.525
 44
4.572
 73
     0
 78
     4
140
2.859999999999999
141
2.286
143
0.03937
146
1.5
147
2.286
170
     1
171
     6
271
     2
272
     2
273
     7
274
     6
276
     2
279
     2
284
     4
285
     4
286
     4
288
     1
289
     2
340
470
  0
ENDTAB
  0
TABLE
  2
BLOCK_RECORD
  5
462
330
0
100
AcDbSymbolTable
 70
     4
  0
BLOCK_RECORD
  5
478
102
{ACAD_XDICTIONARY
360
4D7
102
}
330
462
100
AcDbSymbolTableRecord
100
AcDbBlockTableRecord
  2
*MODEL_SPACE
340
4A0
  0
BLOCK_RECORD
  5
475
102
{ACAD_XDICTIONARY
360
4D5
102
}
330
462
100
AcDbSymbolTableRecord
100
AcDbBlockTableRecord
  2
*PAPER_SPACE
340
4A1
  0
BLOCK_RECORD
  5
560
330
462
100
AcDbSymbolTableRecord
100
AcDbBlockTableRecord
  2
*D0
340
0
  0
BLOCK_RECORD
  5
56D
330
462
100
AcDbSymbolTableRecord
100
AcDbBlockTableRecord
  2
*D1
340
0
  0
BLOCK_RECORD
  5
57D
330
462
100
AcDbSymbolTableRecord
100
AcDbBlockTableRecord
  2
abese470
340
0
102
{BLKREFS
331
59F
102
}
  0
BLOCK_RECORD
  5
5AC
330
462
100
AcDbSymbolTableRecord
100
AcDbBlockTableRecord
  2
*D3
340
0
  0
ENDTAB
  0
ENDSEC
  0
SECTION
  2
BLOCKS
  0
BLOCK
  5
48B
330
478
100
AcDbEntity
  8
0
100
AcDbBlockBegin
  2
*MODEL_SPACE
 70
     0
 10
0.0
 20
0.0
 30
0.0
  3
*MODEL_SPACE
  1

  0
ENDBLK
  5
48C
330
478
100
AcDbEntity
  8
0
100
AcDbBlockEnd
  0
BLOCK
  5
489
330
475
100
AcDbEntity
 67
     1
  8
0
100
AcDbBlockBegin
  2
*PAPER_SPACE
 70
     0
 10
0.0
 20
0.0
 30
0.0
  3
*PAPER_SPACE
  1

  0
ENDBLK
  5
48A
330
475
100
AcDbEntity
 67
     1
  8
0
100
AcDbBlockEnd
  0
BLOCK
  5
56B
330
560
100
AcDbEntity
  8
0
100
AcDbBlockBegin
  2
*D0
 70
     1
 10
0.0
 20
0.0
 30
0.0
  3
*D0
  1

  0
LINE
  5
561
330
560
100
AcDbEntity
  8
AREA1
 62
     0
370
    -2
100
AcDbLine
 10
-32.375
 20
33.9625
 30
0.0
 11
-32.375
 21
42.27181910399383
 31
0.0
  0
LINE
  5
562
330
560
100
AcDbEntity
  8
AREA1
 62
     0
370
    -2
100
AcDbLine
 10
32.375
 20
33.9625
 30
0.0
 11
32.375
 21
42.27181910399383
 31
0.0
  0
LINE
  5
563
330
560
100
AcDbEntity
  8
AREA1
 62
     0
370
    -2
100
AcDbLine
 10
-27.803
 20
37.69981910399383
 30
0.0
 11
-20.97889898832409
 21
37.69981910399383
 31
0.0
  0
LINE
  5
564
330
560
100
AcDbEntity
  8
AREA1
 62
     0
370
    -2
100
AcDbLine
 10
27.803
 20
37.69981910399383
 30
0.0
 11
21.72643434500924
 21
37.69981910399383
 31
0.0
  0
MTEXT
  5
565
330
560
100
AcDbEntity
  8
AREA1
 62
     0
100
AcDbMText
 10
0.3737676783425741
 20
37.69981910399383
 30
0.0
 40
2.859999999999999
 41
0.0
 71
     5
 72
     1
  1
\A1;64.75 [2 35/64]
 73
     1
 44
1.0
  0
SOLID
  5
566
330
560
100
AcDbEntity
  8
AREA1
 62
     0
100
AcDbTrace
 10
-27.803
 20
38.46181910399383
 30
0.0
 11
-27.803
 21
36.93781910399383
 31
0.0
 12
-32.375
 22
37.69981910399383
 32
0.0
 13
-32.375
 23
37.69981910399383
 33
0.0
  0
SOLID
  5
567
330
560
100
AcDbEntity
  8
AREA1
 62
     0
100
AcDbTrace
 10
27.803
 20
38.46181910399383
 30
0.0
 11
27.803
 21
36.93781910399383
 31
0.0
 12
32.375
 22
37.69981910399383
 32
0.0
 13
32.375
 23
37.69981910399383
 33
0.0
  0
POINT
  5
568
330
560
100
AcDbEntity
  8
DEFPOINTS
 62
     0
100
AcDbPoint
 10
-32.375
 20
32.375
 30
0.0
  0
POINT
  5
569
330
560
100
AcDbEntity
  8
DEFPOINTS
 62
     0
100
AcDbPoint
 10
32.375
 20
32.375
 30
0.0
  0
POINT
  5
56A
330
560
100
AcDbEntity
  8
DEFPOINTS
 62
     0
100
AcDbPoint
 10
32.375
 20
37.69981910399383
 30
0.0
  0
ENDBLK
  5
56C
330
560
100
AcDbEntity
  8
0
100
AcDbBlockEnd
  0
BLOCK
  5
578
330
56D
100
AcDbEntity
  8
0
100
AcDbBlockBegin
  2
*D1
 70
     1
 10
0.0
 20
0.0
 30
0.0
  3
*D1
  1

  0
LINE
  5
56E
330
56D
100
AcDbEntity
  8
AREA1
 62
     0
370
    -2
100
AcDbLine
 10
33.9625
 20
32.375
 30
0.0
 11
42.0332751663778
 21
32.375
 31
0.0
  0
LINE
  5
56F
330
56D
100
AcDbEntity
  8
AREA1
 62
     0
370
    -2
100
AcDbLine
 10
33.9625
 20
-32.375
 30
0.0
 11
42.03327516637778
 21
-32.375
 31
0.0
  0
LINE
  5
570
330
56D
100
AcDbEntity
  8
AREA1
 62
     0
370
    -2
100
AcDbLine
 10
37.46127516637779
 20
27.803
 30
0.0
 11
37.46127516637779
 21
21.51309138667417
 31
0.0
  0
LINE
  5
571
330
56D
100
AcDbEntity
  8
AREA1
 62
     0
370
    -2
100
AcDbLine
 10
37.46127516637778
 20
-27.803
 30
0.0
 11
37.46127516637778
 21
-21.19224194665915
 31
0.0
  0
MTEXT
  5
572
330
56D
100
AcDbEntity
  8
AREA1
 62
     0
100
AcDbMText
 10
37.46127516637779
 20
0.1604247200075122
 30
0.0
 40
2.859999999999999
 41
0.0
 71
     5
 72
     1
  1
\A1;64.75 [2 35/64]
 11
0.0000000000000001
 21
1.0
 31
0.0
 73
     1
 44
1.0
  0
SOLID
  5
573
330
56D
100
AcDbEntity
  8
AREA1
 62
     0
100
AcDbTrace
 10
36.69927516637779
 20
27.803
 30
0.0
 11
38.22327516637779
 21
27.803
 31
0.0
 12
37.46127516637779
 22
32.375
 32
0.0
 13
37.46127516637779
 23
32.375
 33
0.0
  0
SOLID
  5
574
330
56D
100
AcDbEntity
  8
AREA1
 62
     0
100
AcDbTrace
 10
36.69927516637778
 20
-27.803
 30
0.0
 11
38.22327516637778
 21
-27.803
 31
0.0
 12
37.46127516637778
 22
-32.375
 32
0.0
 13
37.46127516637778
 23
-32.375
 33
0.0
  0
POINT
  5
575
330
56D
100
AcDbEntity
  8
DEFPOINTS
 62
     0
100
AcDbPoint
 10
32.375
 20
32.375
 30
0.0
  0
POINT
  5
576
330
56D
100
AcDbEntity
  8
DEFPOINTS
 62
     0
100
AcDbPoint
 10
32.375
 20
-32.375
 30
0.0
  0
POINT
  5
577
330
56D
100
AcDbEntity
  8
DEFPOINTS
 62
     0
100
AcDbPoint
 10
37.46127516637778
 20
-32.375
 30
0.0
  0
ENDBLK
  5
579
330
56D
100
AcDbEntity
  8
0
100
AcDbBlockEnd
  0
BLOCK
  5
59D
330
57D
100
AcDbEntity
  8
0
100
AcDbBlockBegin
  2
abese470
 70
     2
 10
0.0
 20
0.0
 30
0.0
  3
abese470
  1

  0
LINE
  5
57E
330
57D
100
AcDbEntity
  8
SCALE
100
AcDbLine
 10
54.6307644431975
 20
-26.75473043261991
 30
0.0
 11
80.0307644431975
 21
-26.75473043261991
 31
0.0
  0
LINE
  5
57F
330
57D
100
AcDbEntity
  8
SCALE
100
AcDbLine
 10
80.0307644431975
 20
-29.29473043261991
 30
0.0
 11
80.0307644431975
 21
-24.21473043261988
 31
0.0
  0
LINE
  5
580
330
57D
100
AcDbEntity
  8
SCALE
100
AcDbLine
 10
54.6307644431975
 20
-29.29473043261991
 30
0.0
 11
54.6307644431975
 21
-24.21473043261988
 31
0.0
  0
LINE
  5
581
330
57D
100
AcDbEntity
  8
SCALE
100
AcDbLine
 10
54.63076444319759
 20
-21.56830669532667
 30
0.0
 11
54.63076444319759
 21
-16.48830669532669
 31
0.0
  0
LINE
  5
582
330
57D
100
AcDbEntity
  8
SCALE
100
AcDbLine
 10
64.63074444319758
 20
-21.56830669532667
 30
0.0
 11
64.63074444319758
 21
-16.48830669532669
 31
0.0
  0
LINE
  5
583
330
57D
100
AcDbEntity
  8
SCALE
100
AcDbLine
 10
54.63076444319759
 20
-19.02830669532668
 30
0.0
 11
64.63074444319758
 21
-19.02830669532668
 31
0.0
  0
TEXT
  5
584
330
57D
100
AcDbEntity
  8
SCALE
100
AcDbText
 10
56.14008718397145
 20
-17.86651970536418
 30
0.0
 40
1.587499999999999
  1
10 mm
100
AcDbText
  0
TEXT
  5
585
330
57D
100
AcDbEntity
  8
SCALE
100
AcDbText
 10
62.2286571762855
 20
-25.0008935701406
 30
0.0
 40
1.587499999999999
  1
[1 Inch]
100
AcDbText
  0
TEXT
  5
586
330
57D
100
AcDbEntity
  8
SCALE
100
AcDbText
 10
54.43684852332687
 20
-13.4947690804748
 30
0.0
 40
1.587499999999999
  1
SCALE:
100
AcDbText
  0
LWPOLYLINE
  5
587
330
57D
100
AcDbEntity
  8
SCALE
100
AcDbPolyline
 90
        4
 70
     1
 43
0.0
 10
52.92481371470535
 20
-10.8226586657375
 10
81.76978573107145
 20
-10.8226586657375
 10
81.76978573107145
 20
-32.19954166189907
 10
52.92481371470535
 20
-32.19954166189907
  0
3DSOLID
  5
588
330
57D
100
AcDbEntity
  8
0
100
AcDbModelerGeometry
 70
     1
  1
koo lni n o         
  1
h J1410(1 nl ^ \VL kqoqm QK mk R01 R>& ml njejhekj mooj 
  1
rn fqfffffffffffffffj:rooh n:rono 
  1
=0;& {n {m {rn {rn |
  1
-:9@)+r:&:r>++-6= {rn {rn {rn {o {l {k |
  1
3*2/ {j {rn {i {o |
  1
:&:@-:961:2:1+ {rn j 8-6;  n l +-6 m k ,*-9 o l >;5 o k 8->; o f /0,+<7:<4 o k ,+03 oqjjffomkgfngjlllmj k 1+03 lo k ;,63 o g 93>+1:,, o h /6'>-:> o k 72>' o i 8-6;>- o j 28-6; loo j *8-6; o j )8-6; o no :1;@96:3;, |
  1
):-+:'@+:2/3>+: {rn l o n g |
  1
-:9@)+r:&:r>++-6= {rn {rn {rn {m {l {k |
  1
,7:33 {h {rn {rn {g {rn {m |
  1
-:9@)+r:&:r>++-6= {rn {rn {rn {i {l {k |
  1
9><: {f {no {nn {i {rn {nm -:):-,:; ,6183: |
  1
92:,7r:&:r>++-6= {rn {nl {rn {g |
  1
9><: {nk {nj {ni {i {rn {nh -:):-,:; ,6183: |
  1
300/ {rn {ng {nf {g |
  1
/3>1:r,*-9><: {rn lmqlhj rlmqlhj ni o o rn riqnmlolnhifnnnggil:ronh rn o 90-(>-;@) V V V V |
  1
-:9@)+r:&:r>++-6= {rn {rn {f {g {l {k |
  1
92:,7r:&:r>++-6= {rn {mo {rn {no |
  1
9><: {mn {mm {ml {i {rn {mk -:):-,:; ,6183: |
  1
300/ {rn {mj {mi {no |
  1
<01:r,*-9><: {rn o o rjqlkfffffffffffffi o o n fqgmhkijfgfkmkjhgh:roni niqojoooooooooooon o n V V o n niqojoooooooooooon 90-(>-; V V V V |
  1
300/ {rn {rn {mh {g |
  1
<0:;8: {rn {mg {mf {lo {ln -:):-,:; {nn {rn |
  1
-:9@)+r:&:r>++-6= {rn {rn {nk {no {l {k |
  1
92:,7r:&:r>++-6= {rn {lm {rn {nj |
  1
9><: {ll {lk {lj {i {rn {li 90-(>-; ,6183: |
  1
300/ {rn {rn {lh {nj |
  1
/3>1:r,*-9><: {rn fqgmhkijfgfkmkjhgh:roni niqojoooooooooooon jqfjoooooooooooonn o o n iqnmlolnhifnnnggil:ronh n o 90-(>-;@) V V V V |
  1
300/ {rn {rn {lg {no |
  1
<0:;8: {rn {mi {mi {lh {lf -:):-,:; {ni {rn |
  1
<0:;8: {rn {ko {kn {km {kl -:):-,:; {ng {rn |
  1
<0:;8: {rn {kk {nf {kj {ki -:):-,:; {nn {rn |
  1
<0:;8: {rn {nf {kk {kh {kg -:):-,:; {nn {rn |
  1
<0:;8: {rn {kf {jo {nf {ln 90-(>-; {jn {rn |
  1
:;8: {jm {jl {jk {lo {jj 90-(>-; |
  1
-:9@)+r:&:r>++-6= {rn {rn {mn {nj {l {k |
  1
92:,7r:&:r>++-6= {rn {ji {rn {mm |
  1
9><: {jh {jg {jf {i {rn {io -:):-,:; ,6183: |
  1
300/ {rn {in {im {mm |
  1
<01:r,*-9><: {rn o o rjqlkfffffffffffffi o o n nqojfmgkkfiojiljik:ronj nhqlooooooooooooon o n V V o n nhqlooooooooooooon 90-(>-; V V V V |
  1
<0:;8: {rn {lh {lh {mi {lf 90-(>-; {ml {rn |
  1
<0:;8: {rn {lg {lg {il {ik -:):-,:; {mj {rn |
  1
:;8: {ij {ii {ii {mi {ih 90-(>-; |
  1
<0:;8: {rn {ig {mh {if {ho -:):-,:; {ng {rn |
  1
<0:;8: {rn {mh {ig {hn {hm -:):-,:; {ng {rn |
  1
<0:;8: {rn {hl {hk {mh {kl 90-(>-; {hj {rn |
  1
:;8: {hi {hh {hg {km {hf 90-(>-; |
  1
<0:;8: {rn {mf {mg {go {gn -:):-,:; {nn {rn |
  1
<0:;8: {rn {gm {gl {mg {ki 90-(>-; {gk {rn |
  1
:;8: {gj {gi {jl {kj {gh 90-(>-; |
  1
<0:;8: {rn {gg {gf {mf {kg 90-(>-; {fo {rn |
  1
:;8: {fn {jk {fm {kh {fl 90-(>-; |
  1
<0:;8: {rn {fk {lo {gf {fj -:):-,:; {jn {rn |
  1
<0:;8: {rn {lo {fk {gm {fi 90-(>-; {jn {rn |
  1
300/ {rn {rn {lo {jg |
  1
/+36,+r:&:r>++-6= {rn {rn {rn {ln |
  1
):-+:' {rn {fi {fh |
  1
):-+:' {rn {fj {fg |
  1
,+->687+r<*-): {rn rlmqlhj rlmqlhj ni rn iqnmlolnhifnnnggil:ronh o V V |
  1
-:9@)+r:&:r>++-6= {rn {rn {ll {mm {l {k |
  1
92:,7r:&:r>++-6= {rn {ff {rn {lk |
  1
9><: {noo {non {jn {i {rn {nom 90-(>-; ,6183: |
  1
300/ {rn {nol {il {lk |
  1
/3>1:r,*-9><: {rn kqomikoggljfhlfooi:ronk mqlofmilgfnmmolmjl:ronk rjqlkfffffffffffffi o o n iqnmlolnhifnnnggil:ronh n o 90-(>-;@) V V V V |
  1
300/ {rn {rn {nok {mm |
  1
<0:;8: {rn {im {im {noj {noi -:):-,:; {lj {rn |
  1
<0:;8: {rn {il {il {lg {ik 90-(>-; {jf {rn |
  1
:;8: {noh {nog {nog {il {nof 90-(>-; |
  1
/+36,+r:&:r>++-6= {rn {rn {rn {lf |
  1
):-+:' {rn {lf {nno |
  1
:336/,:r<*-): {rn o o jqfjoooooooooooonn o o rn fqgmhkijfgfkmkjhgh:roni niqojoooooooooooon o n V V |
  1
<0:;8: {rn {kn {ko {nnn {nnm -:):-,:; {ng {rn |
  1
<0:;8: {rn {nnl {nnk {ko {ho 90-(>-; {nnj {rn |
  1
:;8: {nni {nnh {hh {if {nng 90-(>-; |
  1
<0:;8: {rn {nnf {nmo {kn {hm 90-(>-; {nmn {rn |
  1
:;8: {nmm {hg {nml {hn {nmk 90-(>-; |
  1
<0:;8: {rn {nmj {km {nmo {nmi -:):-,:; {hj {rn |
  1
<0:;8: {rn {km {nmj {nnl {nmh -:):-,:; {hj {rn |
  1
300/ {rn {rn {hl {nmg |
  1
/+36,+r:&:r>++-6= {rn {rn {rn {kl |
  1
):-+:' {rn {ho {nmf |
  1
):-+:' {rn {hm {nlo |
  1
:336/,:r<*-): {rn o o ni o o n nqlhhigmnkgojonhkk:ronj mmqj o n V V |
  1
<0:;8: {rn {nln {nlm {kk {gn 90-(>-; {nll {rn |
  1
:;8: {nlk {fm {gi {go {nlj 90-(>-; |
  1
<0:;8: {rn {nli {kj {jo {fi -:):-,:; {gk {rn |
  1
<0:;8: {rn {kj {nli {nln {nlh 90-(>-; {gk {rn |
  1
300/ {rn {rn {kj {nlg |
  1
/+36,+r:&:r>++-6= {rn {rn {rn {ki |
  1
):-+:' {rn {nlh {nlf |
  1
,+->687+r<*-): {rn lmqlhj rlmqlhj ni riqnmlolnhifnnnggil:ronh rn o V V |
  1
<0:;8: {rn {nko {kh {nlm {nkn -:):-,:; {fo {rn |
  1
<0:;8: {rn {kh {nko {kf {fj 90-(>-; {fo {rn |
  1
300/ {rn {rn {kh {non |
  1
/+36,+r:&:r>++-6= {rn {rn {rn {kg |
  1
):-+:' {rn {nkn {nkm |
  1
,+->687+r<*-): {rn rlmqlhj lmqlhj ni iqnmlolnhifnnnggil:ronh n o V V |
  1
<0:;8: {rn {jo {kf {nkl {nkk 90-(>-; {jn {rn |
  1
:;8: {nkj {nki {jk {gf {nkh 90-(>-; |
  1
:;8: {nkg {nkf {jl {jo {njo 90-(>-; |
  1
/061+ {rn lmqlhj rlmqlhj ni |
  1
/061+ {rn rlmqlhj rlmqlhj ni |
  1
-:9@)+r:&:r>++-6= {rn {rn {jh {lk {l {k |
  1
92:,7r:&:r>++-6= {rn {njn {rn {jg |
  1
9><: {njm {njl {fo {i {rn {njk 90-(>-; ,6183: |
  1
/3>1:r,*-9><: {rn lmqlhj rlmqlhj o riqnmlolnhifnnnggil:ronh rn o o o n 90-(>-;@) V V V V |
  1
300/ {rn {rn {njj {lk |
  1
<0:;8: {rn {nok {nok {njj {nji 90-(>-; {in {rn |
  1
<0:;8: {rn {noj {noj {im {noi 90-(>-; {njh {rn |
  1
:;8: {njg {njf {njf {noj {nio 90-(>-; |
  1
/+36,+r:&:r>++-6= {rn {rn {rn {ik |
  1
):-+:' {rn {ik {nin |
  1
:336/,:r<*-): {rn o o rjqlkfffffffffffffi o o n fqgmhkijfgfkmkjhgh:roni niqojoooooooooooon o n V V |
  1
/061+ {rn fqgmhkijfgfkmkjhgh:roni niqojoooooooooooon jqfjoooooooooooonn |
  1
<0:;8: {rn {nim {nil {ig {nnm 90-(>-; {nik {rn |
  1
:;8: {nij {nml {nnh {nnn {nii 90-(>-; |
  1
<0:;8: {rn {nih {if {hk {nmh 90-(>-; {nnj {rn |
  1
<0:;8: {rn {if {nig {nim {nif -:):-,:; {nnj {rn |
  1
300/ {rn {rn {nih {nho |
  1
/+36,+r:&:r>++-6= {rn {rn {rn {ho |
  1
):-+:' {rn {ho {nhn |
  1
,+->687+r<*-): {rn hqghkfffffffffffgm rmiqmj ni iqnmlolnhifnnnggil:ronh n o V V |
  1
<0:;8: {rn {nhm {hn {nil {nhl 90-(>-; {nmn {rn |
  1
<0:;8: {rn {hn {nhk {hl {nmi 90-(>-; {nmn {rn |
  1
300/ {rn {rn {nhk {nhj |
  1
/+36,+r:&:r>++-6= {rn {rn {rn {hm |
  1
):-+:' {rn {hm {nhi |
  1
,+->687+r<*-): {rn rhqghkffffffffffffn mn ni riqnmlolnhifnnnggil:ronh rn o V V |
  1
<0:;8: {rn {hk {hl {nhh {nhg 90-(>-; {hj {rn |
  1
:;8: {nhf {ngo {hg {nmo {ngn 90-(>-; |
  1
:;8: {ngm {hh {ngl {nnl {ngk 90-(>-; |
  1
9><: {ngj {nhj {hj {i {rn {ngi 90-(>-; ,6183: |
  1
/061+ {rn hqghkffffffffffffn rmnqohigigmkkjfkjfl ni |
  1
/061+ {rn rhqghjoooooooooooof rmnqohigigmkkjfkjfl ni |
  1
<0:;8: {rn {ngh {go {gl {nlh -:):-,:; {nll {rn |
  1
<0:;8: {rn {go {ngh {gg {nkn 90-(>-; {nll {rn |
  1
300/ {rn {rn {go {njl |
  1
/+36,+r:&:r>++-6= {rn {rn {rn {gn |
  1
,+->687+r<*-): {rn lmqlhj lmqlhj ni n riqnmlolnhifnnnggil:ronh o V V |
  1
<0:;8: {rn {gl {gm {ngg {ngf 90-(>-; {gk {rn |
  1
:;8: {nfo {nfn {gi {gl {nfm 90-(>-; |
  1
9><: {nfl {nfk {gk {i {rn {nfj 90-(>-; ,6183: |
  1
/061+ {rn lmqlhj lmqlhj ni |
  1
<0:;8: {rn {gf {gg {nfi {nfh 90-(>-; {fo {rn |
  1
:;8: {nfg {nff {fm {nlm {moo 90-(>-; |
  1
/061+ {rn rlmqlhj lmqlhj ni |
  1
<0:;8: {rn {nfi {ngg {fk {nkk -:):-,:; {mon {rn |
  1
:;8: {mom {nki {nkf {fk {mol 90-(>-; |
  1
/+36,+r:&:r>++-6= {rn {rn {rn {fj |
  1
):-+:' {rn {nfh {mok |
  1
,+->687+r<*-): {rn rlmqlhj rlmqlhj o o o n V V |
  1
/+36,+r:&:r>++-6= {rn {rn {rn {fi |
  1
):-+:' {rn {ngf {moj |
  1
,+->687+r<*-): {rn lmqlhj rlmqlhj o o o n V V |
  1
-:9@)+r:&:r>++-6= {rn {rn {noo {jg {l {k |
  1
92:,7r:&:r>++-6= {rn {moi {rn {non |
  1
9><: {moh {nlg {nll {i {rn {mog 90-(>-; ,6183: |
  1
/3>1:r,*-9><: {rn rlmqlhj rlmqlhj o rn iqnmlolnhifnnnggil:ronh o o o n 90-(>-;@) V V V V |
  1
<0:;8: {rn {njj {njj {nok {nji -:):-,:; {nol {rn |
  1
:;8: {mof {mno {mno {nok {mnn 90-(>-; |
  1
300/ {rn {mon {noj {nfk |
  1
/+36,+r:&:r>++-6= {rn {rn {rn {noi |
  1
):-+:' {rn {noi {mnm |
  1
:336/,:r<*-): {rn o o o o o n nqojfmgkkfiojiljik:ronj nhqlooooooooooooon o n V V |
  1
/061+ {rn fqgmhkijfgfkmkjhgh:roni niqojoooooooooooon rjqlkfffffffffffffi |
  1
<0:;8: {rn {mnl {nnn {nnk {nif 90-(>-; {nik {rn |
  1
<0:;8: {rn {nnn {mnl {nnf {nhl -:):-,:; {nik {rn |
  1
300/ {rn {rn {mnl {mnk |
  1
/+36,+r:&:r>++-6= {rn {rn {rn {nnm |
  1
,+->687+r<*-): {rn rhqghjooooooooooong rmiqmj ni n riqnmlolnhifnnnggil:ronh o V V |
  1
<0:;8: {rn {mnj {nnl {mni {mnh 90-(>-; {nnj {rn |
  1
<0:;8: {rn {nnk {mnj {mng {mnf 90-(>-; {nnj {rn |
  1
:;8: {mmo {nnh {mmn {nim {mmm 90-(>-; |
  1
9><: {mml {mmk {nnj {i {rn {mmj 90-(>-; ,6183: |
  1
/061+ {rn hqghkfffffffffffgm rmiqmj ni |
  1
<0:;8: {rn {mmi {nnf {mmh {mmg 90-(>-; {nmn {rn |
  1
:;8: {mmf {nml {mlo {nnf {mln 90-(>-; |
  1
<0:;8: {rn {nmo {mmi {mlm {mll 90-(>-; {nmn {rn |
  1
9><: {mlk {mnk {nmn {i {rn {mlj 90-(>-; ,6183: |
  1
/061+ {rn rhqghjooooooooooong rmiqmj ni |
  1
<0:;8: {rn {mlm {mni {nmj {nhg -:):-,:; {mli {rn |
  1
:;8: {mlh {ngo {ngl {nmj {mlg 90-(>-; |
  1
/+36,+r:&:r>++-6= {rn {rn {rn {nmi |
  1
):-+:' {rn {nmi {mlf |
  1
,+->687+r<*-): {rn rhqghjoooooooooooof rmnqohigigmkkjfkjfl ni o o rn V V |
  1
/+36,+r:&:r>++-6= {rn {rn {rn {nmh |
  1
):-+:' {rn {nmh {mko |
  1
,+->687+r<*-): {rn hqghkffffffffffffn rmnqohigigmkkjfkjfl ni o o n V V |
  1
92:,7r:&:r>++-6= {rn {mkn {rn {nmg |
  1
<01:r,*-9><: {rn o o ni o o n nqlhhigmnkgojonhkk:ronj mmqj o n V V o n mmqj 90-(>-; V V V V |
  1
<0:;8: {rn {nlm {nln {mkm {mkl 90-(>-; {nll {rn |
  1
<0:;8: {rn {nkl {mkm {nli {ngf -:):-,:; {mon {rn |
  1
:;8: {mkk {nkf {nfn {nli {mkj 90-(>-; |
  1
/+36,+r:&:r>++-6= {rn {rn {rn {nlh |
  1
):-+:' {rn {ngf {mki |
  1
,+->687+r<*-): {rn lmqlhj lmqlhj o o o n V V |
  1
92:,7r:&:r>++-6= {rn {mkh {rn {nlg |
  1
9><: {mkg {mkf {njh {i {rn {mjo 90-(>-; ,6183: |
  1
/3>1:r,*-9><: {rn lmqlhj lmqlhj o n riqnmlolnhifnnnggil:ronh o o o rn 90-(>-;@) V V V V |
  1
<0:;8: {rn {mkm {nkl {nko {nfh -:):-,:; {mon {rn |
  1
:;8: {mjn {nff {nki {nko {mjm 90-(>-; |
  1
/+36,+r:&:r>++-6= {rn {rn {rn {nkn |
  1
):-+:' {rn {mkl {mjl |
  1
,+->687+r<*-): {rn rlmqlhj lmqlhj o o o n V V |
  1
300/ {rn {rn {ngg {nfk |
  1
/+36,+r:&:r>++-6= {rn {rn {rn {nkk |
  1
,+->687+r<*-): {rn rlmqlhj rlmqlhj o n riqnmlolnhifnnnggil:ronh o V V |
  1
/061+ {rn rlmqlhj rlmqlhj o |
  1
/061+ {rn lmqlhj rlmqlhj o |
  1
-:9@)+r:&:r>++-6= {rn {rn {njm {non {l {k |
  1
92:,7r:&:r>++-6= {rn {mjk {rn {njl |
  1
/3>1:r,*-9><: {rn rlmqlhj lmqlhj o iqnmlolnhifnnnggil:ronh n o o o rn 90-(>-;@) V V V V |
  1
/+36,+r:&:r>++-6= {rn {rn {rn {nji |
  1
):-+:' {rn {nji {mjj |
  1
:336/,:r<*-): {rn o o rjqlkfffffffffffffi o o n nqojfmgkkfiojiljik:ronj nhqlooooooooooooon o n V V |
  1
/061+ {rn nqojfmgkkfiojiljik:ronj nhqlooooooooooooon o |
  1
<0:;8: {rn {nil {nim {mji {mjh 90-(>-; {nik {rn |
  1
9><: {mjg {mjf {nik {i {rn {mio 90-(>-; ,6183: |
  1
<0:;8: {rn {nig {nih {min {mim 90-(>-; {nnj {rn |
  1
<0:;8: {rn {nhh {mil {nih {mnh -:):-,:; {mli {rn |
  1
:;8: {mik {ngl {mij {nih {mii 90-(>-; |
  1
<0:;8: {rn {mih {mji {nig {mnf -:):-,:; {mig {rn |
  1
:;8: {mif {mho {mmn {nig {mhn 90-(>-; |
  1
/+36,+r:&:r>++-6= {rn {rn {rn {nif |
  1
):-+:' {rn {nif {mhm |
  1
,+->687+r<*-): {rn hqghkfffffffffffgm rmiqmj ni o o n V V |
  1
92:,7r:&:r>++-6= {rn {mhl {rn {nho |
  1
9><: {mhk {rn {mig {i {rn {mhj -:):-,:; ,6183: |
  1
/3>1:r,*-9><: {rn hqghjoooooooooooof mn ni n riqnmlolnhifnnnggil:ronh o o o rn 90-(>-;@) V V V V |
  1
<0:;8: {rn {nhk {nhm {mhi {mhh -:):-,:; {nmn {rn |
  1
<0:;8: {rn {mji {mih {nhm {mmg -:):-,:; {mig {rn |
  1
:;8: {mhg {mlo {mhf {nhm {mgo 90-(>-; |
  1
/+36,+r:&:r>++-6= {rn {rn {rn {nhl |
  1
):-+:' {rn {nhl {mgn |
  1
,+->687+r<*-): {rn rhqghjooooooooooong rmiqmj ni o o n V V |
  1
<0:;8: {rn {mil {nhh {nhk {mll -:):-,:; {mli {rn |
  1
:;8: {mgm {mgl {ngo {nhk {mgk 90-(>-; |
  1
92:,7r:&:r>++-6= {rn {mgj {rn {nhj |
  1
/3>1:r,*-9><: {rn rhqghjooooooooooong rmiqmj ni rn iqnmlolnhifnnnggil:ronh o o o n 90-(>-;@) V V V V |
  1
300/ {rn {rn {mlm {mkf |
  1
/+36,+r:&:r>++-6= {rn {rn {rn {nhg |
  1
:336/,:r<*-): {rn o o lnqgoooooooooooook o o rn nqlhhigmnkgojonhkk:ronj mmqj o n V V |
  1
/061+ {rn rhqghjoooooooooooof rmnqohigigmkkjfkjfl lnqgoooooooooooook |
  1
/061+ {rn hqghkffffffffffffn rmnqohigigmkkjfkjfl lnqgoooooooooooook |
  1
-:9@)+r:&:r>++-6= {rn {rn {ngj {nmg {l {k |
  1
<0:;8: {rn {ngg {nfi {ngh {mkl -:):-,:; {mon {rn |
  1
:;8: {mgi {nfn {nff {ngh {mgh 90-(>-; |
  1
/+36,+r:&:r>++-6= {rn {rn {rn {ngf |
  1
,+->687+r<*-): {rn lmqlhj rlmqlhj o iqnmlolnhifnnnggil:ronh n o V V |
  1
/061+ {rn lmqlhj lmqlhj o |
  1
-:9@)+r:&:r>++-6= {rn {rn {nfl {nlg {l {k |
  1
92:,7r:&:r>++-6= {rn {mgg {rn {nfk |
  1
9><: {mgf {nmg {mli {i {rn {mfo 90-(>-; ,6183: |
  1
/3>1:r,*-9><: {rn o o o o o rn riqnmlolnhifnnnggil:ronh rn o 90-(>-;@) V V V V |
  1
/+36,+r:&:r>++-6= {rn {rn {rn {nfh |
  1
,+->687+r<*-): {rn rlmqlhj lmqlhj o riqnmlolnhifnnnggil:ronh rn o V V |
  1
/061+ {rn rlmqlhj lmqlhj o |
  1
-:9@)+r:&:r>++-6= {rn {rn {moh {njl {l {k |
  1
/061+ {rn nqojfmgkkfiojiljik:ronj nhqlooooooooooooon rjqlkfffffffffffffi |
  1
<0:;8: {rn {mng {mmh {mnl {mjh -:):-,:; {mig {rn |
  1
:;8: {mfn {mmn {mlo {mnl {mfm 90-(>-; |
  1
92:,7r:&:r>++-6= {rn {mfl {rn {mnk |
  1
9><: {mfk {nho {mfj {i {rn {mfi 90-(>-; ,6183: |
  1
/3>1:r,*-9><: {rn hqghkfffffffffffgm rmiqmj ni riqnmlolnhifnnnggil:ronh rn o o o n 90-(>-;@) V V V V |
  1
<0:;8: {rn {mfh {mfg {mnj {mim -:):-,:; {mfj {rn |
  1
:;8: {mff {mij {mho {mnj {loo 90-(>-; |
  1
<0:;8: {rn {mni {mlm {mfh {lon -:):-,:; {mli {rn |
  1
/+36,+r:&:r>++-6= {rn {rn {rn {mnh |
  1
):-+:' {rn {mim {lom |
  1
,+->687+r<*-): {rn hqghjoooooooooooof mnqhj lnqgoooooooooooook iqnmlolnhifnnnggil:ronh n o V V |
  1
<0:;8: {rn {mmh {mng {mfg {lol -:):-,:; {mig {rn |
  1
300/ {rn {rn {mji {mmk |
  1
/+36,+r:&:r>++-6= {rn {rn {rn {mnf |
  1
):-+:' {rn {mim {lok |
  1
,+->687+r<*-): {rn hqghkfffffffffffgm rmiqmj jfqmj riqnmlolnhifnnnggil:ronh rn o V V |
  1
/061+ {rn hqghkfffffffffffgm rmiqmj jfqmj |
  1
-:9@)+r:&:r>++-6= {rn {rn {mml {nho {l {k |
  1
92:,7r:&:r>++-6= {rn {loj {rn {mmk |
  1
/3>1:r,*-9><: {rn hqghkfffffffffffgm rmiqmj jfqmj o o rn riqnmlolnhifnnnggil:ronh rn o 90-(>-;@) V V V V |
  1
<0:;8: {rn {mfg {mfh {mmi {mhh 90-(>-; {mfj {rn |
  1
:;8: {loi {mgl {mhf {mhi {loh 90-(>-; |
  1
/+36,+r:&:r>++-6= {rn {rn {rn {mmg |
  1
):-+:' {rn {mhh {log |
  1
,+->687+r<*-): {rn rhqghkffffffffffffn mn jfqmj iqnmlolnhifnnnggil:ronh n o V V |
  1
/061+ {rn rhqghjooooooooooong rmiqmj jfqmj |
  1
/+36,+r:&:r>++-6= {rn {rn {rn {mll |
  1
):-+:' {rn {mhh {lof |
  1
,+->687+r<*-): {rn rhqghj rnqghkffffffffffffi lnqgoooooooooooook riqnmlolnhifnnnggil:ronh rn o V V |
  1
-:9@)+r:&:r>++-6= {rn {rn {mlk {nhj {l {k |
  1
/+36,+r:&:r>++-6= {rn {rn {rn {mkl |
  1
,+->687+r<*-): {rn lmqlhj lmqlhj o rn iqnmlolnhifnnnggil:ronh o V V |
  1
-:9@)+r:&:r>++-6= {rn {rn {mkg {nfk {l {k |
  1
92:,7r:&:r>++-6= {rn {lno {rn {mkf |
  1
/3>1:r,*-9><: {rn nqlhhigmnkgojonhkk:ronj mmqj lnqgoooooooooooook o o n iqnmlolnhifnnnggil:ronh n o 90-(>-;@) V V V V |
  1
/+36,+r:&:r>++-6= {rn {rn {rn {mjh |
  1
,+->687+r<*-): {rn rhqghjooooooooooong rmiqmj jfqmj rn iqnmlolnhifnnnggil:ronh o V V |
  1
-:9@)+r:&:r>++-6= {rn {rn {mjg {mnk {l {k |
  1
92:,7r:&:r>++-6= {rn {lnn {rn {mjf |
  1
300/ {rn {rn {mfh {mjf |
  1
/3>1:r,*-9><: {rn rhqghkffffffffffffn mn ni iqnmlolnhifnnnggil:ronh n o o o rn 90-(>-;@) V V V V |
  1
<0:;8: {rn {mhi {min {mil {lon 90-(>-; {mfj {rn |
  1
<0:;8: {rn {min {mhi {mih {lol 90-(>-; {mfj {rn |
  1
/+36,+r:&:r>++-6= {rn {rn {rn {mim |
  1
,+->687+r<*-): {rn hqghjoooooooooooof mn ni o o n V V |
  1
:;8: {lnm {mij {mgl {mfh {lnl 90-(>-; |
  1
/061+ {rn hqghjoooooooooooof mn lnqgoooooooooooook |
  1
:;8: {lnk {mhf {mho {mfg {lnj 90-(>-; |
  1
/061+ {rn hqghjoooooooooooof mn jfqmj |
  1
-:9@)+r:&:r>++-6= {rn {rn {mhk {mmk {l {k |
  1
/+36,+r:&:r>++-6= {rn {rn {rn {mhh |
  1
,+->687+r<*-): {rn rhqghkffffffffffffn mn ni o o n V V |
  1
/061+ {rn rhqghkffffffffffffn mn jfqmj |
  1
/061+ {rn rhqghkffffffffffffn mn lnqgoooooooooooook |
  1
-:9@)+r:&:r>++-6= {rn {rn {mgf {mkf {l {k |
  1
-:9@)+r:&:r>++-6= {rn {rn {mfk {mjf {l {k |
  1
/+36,+r:&:r>++-6= {rn {rn {rn {lon |
  1
,+->687+r<*-): {rn rlqflhkffffffffffgh mn lnqgoooooooooooook rn iqnmlolnhifnnnggil:ronh o V V |
  1
/+36,+r:&:r>++-6= {rn {rn {rn {lol |
  1
,+->687+r<*-): {rn hqghjoooooooooooof mn jfqmj n riqnmlolnhifnnnggil:ronh o V V |
  0
LWPOLYLINE
  5
589
330
57D
100
AcDbEntity
  8
0
100
AcDbPolyline
 90
        4
 70
     1
 43
0.0
 38
59.25
 10
0.9000000000000007
 20
13.0
 10
0.9000000000000012
 20
20.5
 10
-0.8999999999999987
 20
20.5
 10
-0.8999999999999992
 20
13.0
  0
LWPOLYLINE
  5
58A
330
57D
100
AcDbEntity
  8
0
100
AcDbPolyline
 90
        4
 70
     1
 43
0.0
 38
16.0
 10
-0.4999999999999984
 20
25.4560984551849
 10
0.5000000000000016
 20
25.4560984551849
 10
0.5000000000000016
 20
29.9560984551849
 10
-0.4999999999999984
 20
29.9560984551849
  0
CIRCLE
  5
58B
330
57D
100
AcDbEntity
  8
0
100
AcDbCircle
 10
-27.78495167955256
 20
0.0000000000000034
 30
16.0
 40
2.25
  0
CIRCLE
  5
58C
330
57D
100
AcDbEntity
  8
0
100
AcDbCircle
 10
-27.78495167955256
 20
0.0000000000000034
 30
16.0
 40
1.75
  0
LWPOLYLINE
  5
58D
330
57D
100
AcDbEntity
  8
0
100
AcDbPolyline
 90
        8
 70
     1
 43
0.0
 38
16.0
 10
-13.46608228887203
 20
22.47585866405722
 10
-13.46608228887203
 20
25.85085866405723
 10
-12.06892731278094
 20
25.85085866405723
 10
-12.06892731278094
 20
26.60085866405722
 10
-15.44392731278094
 20
26.60085866405722
 10
-15.44392731278094
 20
25.85085866405723
 10
-14.21608228887203
 20
25.85085866405723
 10
-14.21608228887203
 20
22.47585866405722
  0
LWPOLYLINE
  5
58E
330
57D
100
AcDbEntity
  8
0
100
AcDbPolyline
 90
        5
 70
     0
 43
0.0
 38
16.0
 10
-19.75429835855377
 20
18.68357255371662
 10
-20.75429835855377
 20
19.68357255371662
 10
-20.75429835855377
 20
16.68357255371662
 10
-17.75429835855376
 20
16.68357255371662
 10
-18.75429835855376
 20
17.68357255371663
  0
ARC
  5
58F
330
57D
100
AcDbEntity
  8
0
100
AcDbCircle
 10
-2.121376706886614
 20
4.707518961011437
 30
16.0
 40
22.5
100
AcDbArc
 50
128.3553271684267
 51
141.59925740574
  0
ARC
  5
590
330
57D
100
AcDbEntity
  8
0
100
AcDbCircle
 10
-1.106135997404784
 20
3.726769005821999
 30
16.0
 40
22.5
100
AcDbArc
 50
131.7328531590065
 51
141.6617807802051
  0
ATTDEF
  5
591
330
57D
100
AcDbEntity
  8
ATTRIBUTES
100
AcDbText
 10
-30.06265773541455
 20
-5.334103783863287
 30
0.0
 40
1.523999999999999
  1
ALLEN-BRADLEY
100
AcDbAttributeDefinition
  3
MANUFACTURER NAME?
  2
AC_VND_LABEL
 70
     1
  0
ATTDEF
  5
592
330
57D
100
AcDbEntity
  8
ATTRIBUTES
100
AcDbText
 10
-30.06265773541455
 20
-8.509103783863288
 30
0.0
 40
1.523999999999999
  1
140M-C-DN*
100
AcDbAttributeDefinition
  3
CATALOG NUMBER?
  2
AC_PART_NO
 70
     1
  0
ATTDEF
  5
593
330
57D
100
AcDbEntity
  8
ATTRIBUTES
100
AcDbText
 10
-30.06265773541455
 20
-11.68410378386328
 30
0.0
 40
1.523999999999999
  1
DOOR COUPLING HANDLE FOR 140M
100
AcDbAttributeDefinition
  3
PART DESCRIPTION?
  2
AC_DESCRIPTION
 70
     1
  0
ATTDEF
  5
594
330
57D
100
AcDbEntity
  8
ATTRIBUTES
100
AcDbText
 10
-30.06265773541455
 20
-14.85910378386329
 30
0.0
 40
1.523999999999999
  1

100
AcDbAttributeDefinition
  3
DEVICE ID?
  2
DEVICE_ID
 70
     1
  0
ATTDEF
  5
595
330
57D
100
AcDbEntity
  8
ATTRIBUTES
100
AcDbText
 10
-30.06265773541455
 20
-18.03410378386329
 30
0.0
 40
1.523999999999999
  1

100
AcDbAttributeDefinition
  3
CUSTOMER PART NUMBER?
  2
AC_CPART_NO
 70
     1
  0
ATTDEF
  5
596
330
57D
100
AcDbEntity
  8
ATTRIBUTES
100
AcDbText
 10
-30.06265773541455
 20
-21.20910378386328
 30
0.0
 40
1.523999999999999
  1

100
AcDbAttributeDefinition
  3
CUSTOMER NOTE?
  2
AC_NOTE
 70
     1
  0
ATTDEF
  5
597
330
57D
100
AcDbEntity
  8
ATTRIBUTES
100
AcDbText
 10
-30.06265773541455
 20
-24.38410378386329
 30
0.0
 40
1.523999999999999
  1

100
AcDbAttributeDefinition
  3
FASTENER DATA?
  2
FASTENER
 70
     1
  0
ATTDEF
  5
598
330
57D
100
AcDbEntity
  8
ATTRIBUTES
100
AcDbText
 10
-30.06265773541455
 20
-27.55910378386329
 30
0.0
 40
1.523999999999999
  1
MM
100
AcDbAttributeDefinition
  3
UNIT OF SCALE?
  2
AC_SCALE_UNIT
 70
     1
  0
ATTDEF
  5
599
330
57D
100
AcDbEntity
  8
ATTRIBUTES
100
AcDbText
 10
-30.06265773541455
 20
-30.73410378386329
 30
0.0
 40
1.523999999999999
  1
0
100
AcDbAttributeDefinition
  3
VIEW CODE?
  2
AC_VIEW_CODE
 70
     1
  0
DIMENSION
  5
59A
330
57D
100
AcDbEntity
  8
AREA1
100
AcDbDimension
  2
*D0
 10
32.375
 20
37.69981910399383
 30
0.0
 11
0.3737676783425741
 21
37.69981910399383
 31
0.0
 70
   160
 71
     5
 42
-1.0
  3
ABECAD_3D
100
AcDbAlignedDimension
 13
-32.375
 23
32.375
 33
0.0
 14
32.375
 24
32.375
 34
0.0
100
AcDbRotatedDimension
  0
DIMENSION
  5
59B
330
57D
100
AcDbEntity
  8
AREA1
100
AcDbDimension
  2
*D1
 10
37.46127516637778
 20
-32.375
 30
0.0
 11
37.46127516637779
 21
0.1604247200075122
 31
0.0
 70
   160
 71
     5
 42
-1.0
  3
ABECAD_3D
100
AcDbAlignedDimension
 13
32.375
 23
32.375
 33
0.0
 14
32.375
 24
-32.375
 34
0.0
 50
90.0
100
AcDbRotatedDimension
  0
POINT
  5
59C
330
57D
100
AcDbEntity
  8
SNAP_POINTS
100
AcDbPoint
 10
0.0
 20
0.0
 30
0.0000000000000009
  0
ENDBLK
  5
59E
330
57D
100
AcDbEntity
  8
0
100
AcDbBlockEnd
  0
BLOCK
  5
5B7
330
5AC
100
AcDbEntity
  8
0
100
AcDbBlockBegin
  2
*D3
 70
     1
 10
0.0
 20
0.0
 30
0.0
  3
*D3
  1

  0
LINE
  5
6AC
330
5AC
100
AcDbEntity
  8
AREA2
 62
     0
370
    -2
100
AcDbLine
 10
9.347105372372677
 20
59.25
 30
0.0
 11
43.52895682283423
 21
59.24999999999999
 31
0.0
  0
LINE
  5
6AD
330
5AC
100
AcDbEntity
  8
AREA2
 62
     0
370
    -2
100
AcDbLine
 10
18.77210537237267
 20
-5.35
 30
0.0
 11
43.52895682283421
 21
-5.350000000000007
 31
0.0
  0
LINE
  5
6AE
330
5AC
100
AcDbEntity
  8
AREA2
 62
     0
370
    -2
100
AcDbLine
 10
39.29665387726278
 20
55.01769705442854
 30
0.0
 11
39.29665387726278
 21
48.54087879479927
 31
0.0
  0
LINE
  5
6AF
330
5AC
100
AcDbEntity
  8
AREA2
 62
     0
370
    -2
100
AcDbLine
 10
39.29665387726277
 20
-1.117697054428556
 30
0.0
 11
39.29665387726277
 21
5.359121205200713
 31
0.0
  0
SOLID
  5
6B0
330
5AC
100
AcDbEntity
  8
AREA2
 62
     0
100
AcDbTrace
 10
38.59127005300087
 20
55.01769705442854
 30
0.0
 11
40.00203770152469
 21
55.01769705442854
 31
0.0
 12
39.29665387726278
 22
59.24999999999999
 32
0.0
 13
39.29665387726278
 23
59.24999999999999
 33
0.0
  0
SOLID
  5
6B1
330
5AC
100
AcDbEntity
  8
AREA2
 62
     0
100
AcDbTrace
 10
38.59127005300086
 20
-1.117697054428556
 30
0.0
 11
40.00203770152467
 21
-1.117697054428556
 31
0.0
 12
39.29665387726277
 22
-5.350000000000006
 32
0.0
 13
39.29665387726277
 23
-5.350000000000006
 33
0.0
  0
MTEXT
  5
6B2
330
5AC
100
AcDbEntity
  8
AREA2
 62
     0
100
AcDbMText
 10
39.29665387726277
 20
26.95
 30
0.0
 40
2.944210744745356
 41
0.0
 71
     5
 72
     1
  1
\A1;64.60 [2 35/64]
 11
0.0000000000000001
 21
1.0
 31
0.0
 73
     1
 44
1.0
  0
POINT
  5
6B3
330
5AC
100
AcDbEntity
  8
DEFPOINTS
 62
     0
100
AcDbPoint
 10
7.875
 20
59.25
 30
2.625
  0
POINT
  5
6B4
330
5AC
100
AcDbEntity
  8
DEFPOINTS
 62
     0
100
AcDbPoint
 10
17.3
 20
-5.349999999999999
 30
0.0000000000000071
  0
POINT
  5
6B5
330
5AC
100
AcDbEntity
  8
DEFPOINTS
 62
     0
100
AcDbPoint
 10
39.29665387726277
 20
-5.350000000000006
 30
0.0
  0
ENDBLK
  5
5B8
330
5AC
100
AcDbEntity
  8
0
100
AcDbBlockEnd
  0
ENDSEC
  0
SECTION
  2
ENTITIES
  0
INSERT
  5
59F
330
478
100
AcDbEntity
  8
0
100
AcDbBlockReference
 66
     1
  2
abese470
 10
0.0
 20
0.0
 30
0.0
  0
ATTRIB
  5
5A1
330
59F
100
AcDbEntity
  8
ATTRIBUTES
100
AcDbText
 10
-30.06265773541455
 20
-5.334103783863287
 30
0.0
 40
1.523999999999999
  1
ALLEN-BRADLEY
100
AcDbAttribute
  2
AC_VND_LABEL
 70
     1
  0
ATTRIB
  5
5A2
330
59F
100
AcDbEntity
  8
ATTRIBUTES
100
AcDbText
 10
-30.06265773541455
 20
-8.509103783863288
 30
0.0
 40
1.523999999999999
  1
140M-C-DN*
100
AcDbAttribute
  2
AC_PART_NO
 70
     1
  0
ATTRIB
  5
5A3
330
59F
100
AcDbEntity
  8
ATTRIBUTES
100
AcDbText
 10
-30.06265773541455
 20
-11.68410378386328
 30
0.0
 40
1.523999999999999
  1
DOOR COUPLING HANDLE FOR 140M
100
AcDbAttribute
  2
AC_DESCRIPTION
 70
     1
  0
ATTRIB
  5
5A4
330
59F
100
AcDbEntity
  8
ATTRIBUTES
100
AcDbText
 10
-30.06265773541455
 20
-14.85910378386329
 30
0.0
 40
1.523999999999999
  1

100
AcDbAttribute
  2
DEVICE_ID
 70
     1
  0
ATTRIB
  5
5A5
330
59F
100
AcDbEntity
  8
ATTRIBUTES
100
AcDbText
 10
-30.06265773541455
 20
-18.03410378386329
 30
0.0
 40
1.523999999999999
  1

100
AcDbAttribute
  2
AC_CPART_NO
 70
     1
  0
ATTRIB
  5
5A6
330
59F
100
AcDbEntity
  8
ATTRIBUTES
100
AcDbText
 10
-30.06265773541455
 20
-21.20910378386328
 30
0.0
 40
1.523999999999999
  1

100
AcDbAttribute
  2
AC_NOTE
 70
     1
  0
ATTRIB
  5
5A7
330
59F
100
AcDbEntity
  8
ATTRIBUTES
100
AcDbText
 10
-30.06265773541455
 20
-24.38410378386329
 30
0.0
 40
1.523999999999999
  1

100
AcDbAttribute
  2
FASTENER
 70
     1
  0
ATTRIB
  5
5A8
330
59F
100
AcDbEntity
  8
ATTRIBUTES
100
AcDbText
 10
-30.06265773541455
 20
-27.55910378386329
 30
0.0
 40
1.523999999999999
  1
MM
100
AcDbAttribute
  2
AC_SCALE_UNIT
 70
     1
  0
ATTRIB
  5
5A9
330
59F
100
AcDbEntity
  8
ATTRIBUTES
100
AcDbText
 10
-30.06265773541455
 20
-30.73410378386329
 30
0.0
 40
1.523999999999999
  1
0
100
AcDbAttribute
  2
AC_VIEW_CODE
 70
     1
  0
SEQEND
  5
5A0
330
59F
100
AcDbEntity
  8
0
  0
DIMENSION
  5
5AB
330
478
100
AcDbEntity
  8
AREA2
100
AcDbDimension
  2
*D3
 10
39.29665387726277
 20
21.0
 30
-5.350000000000006
 11
39.29665387726277
 21
26.95
 31
-21.0
 70
    32
 71
     5
 42
-1.0
210
0.0
220
-1.0
230
0.0
  3
ABECAD_3V
100
AcDbAlignedDimension
 13
7.875
 23
18.375
 33
59.25
 14
17.3
 24
20.99999999999999
 34
-5.349999999999999
 50
90.0
100
AcDbRotatedDimension
1001
ACAD
1000
DSTYLE
1002
{
1070
    40
1040
23.55368595796285
1002
}
  0
ATTDEF
  5
6CE
330
478
100
AcDbEntity
  8
ATTRIBUTES
100
AcDbText
 10
-31.04612472653926
 20
-31.50043879196863
 30
0.0
 40
1.26014404603307
  1
0
100
AcDbAttributeDefinition
  3
VIEW CODE?
  2
AC_VIEW_CODE
 70
     1
  0
ATTDEF
  5
6CF
330
478
100
AcDbEntity
  8
ATTRIBUTES
100
AcDbText
 10
-31.04612472653926
 20
-28.8751386960664
 30
0.0
 40
1.26014404603307
  1
MM
100
AcDbAttributeDefinition
  3
UNIT OF SCALE?
  2
AC_SCALE_UNIT
 70
     1
  0
ATTDEF
  5
6D0
330
478
100
AcDbEntity
  8
ATTRIBUTES
100
AcDbText
 10
-31.04612472653926
 20
-26.24983860016417
 30
0.0
 40
1.26014404603307
  1

100
AcDbAttributeDefinition
  3
FASTENER DATA?
  2
FASTENER
 70
     1
  0
ATTDEF
  5
6D1
330
478
100
AcDbEntity
  8
ATTRIBUTES
100
AcDbText
 10
-31.04612472653926
 20
-23.62453850426193
 30
0.0
 40
1.26014404603307
  1

100
AcDbAttributeDefinition
  3
CUSTOMER NOTE?
  2
AC_NOTE
 70
     1
  0
ATTDEF
  5
6D2
330
478
100
AcDbEntity
  8
ATTRIBUTES
100
AcDbText
 10
-31.04612472653926
 20
-20.99923840835971
 30
0.0
 40
1.26014404603307
  1

100
AcDbAttributeDefinition
  3
CUSTOMER PART NUMBER?
  2
AC_CPART_NO
 70
     1
  0
ATTDEF
  5
6D3
330
478
100
AcDbEntity
  8
ATTRIBUTES
100
AcDbText
 10
-31.04612472653926
 20
-18.37393831245748
 30
0.0
 40
1.26014404603307
  1

100
AcDbAttributeDefinition
  3
DEVICE ID?
  2
DEVICE_ID
 70
     1
  0
ATTDEF
  5
6D4
330
478
100
AcDbEntity
  8
ATTRIBUTES
100
AcDbText
 10
-31.04612472653926
 20
-15.74863821655525
 30
0.0
 40
1.26014404603307
  1
DOOR COUPLING HANDLE FOR 140M
100
AcDbAttributeDefinition
  3
PART DESCRIPTION?
  2
AC_DESCRIPTION
 70
     1
  0
ATTDEF
  5
6D5
330
478
100
AcDbEntity
  8
ATTRIBUTES
100
AcDbText
 10
-31.04612472653926
 20
-13.12333812065302
 30
0.0
 40
1.26014404603307
  1
140M-C-DN*
100
AcDbAttributeDefinition
  3
CATALOG NUMBER?
  2
AC_PART_NO
 70
     1
  0
ATTDEF
  5
6D6
330
478
100
AcDbEntity
  8
ATTRIBUTES
100
AcDbText
 10
-31.04612472653926
 20
-10.49803802475078
 30
0.0
 40
1.26014404603307
  1
ALLEN-BRADLEY
100
AcDbAttributeDefinition
  3
MANUFACTURER NAME?
  2
AC_VND_LABEL
 70
     1
  0
VIEWPORT
  5
2C
102
{ACAD_XDICTIONARY
360
764
102
}
330
475
100
AcDbEntity
 67
     1
  8
0
100
AcDbViewport
 10
6.104581449119564
 20
4.755491313001989
 30
0.0
 40
18.90034240209348
 41
10.54475336491687
 68
     2
 69
     1
 12
6.104581449119564
 22
4.755491313001989
 13
0.0
 23
0.0
 14
1.0
 24
1.0
 15
0.0
 25
0.0
 16
0.0
 26
0.0
 36
1.0
 17
0.0
 27
0.0
 37
0.0
 42
50.0
 43
0.0
 44
0.0
 45
10.54475336491687
 50
0.0
 51
0.0
 72
   100
 90
    32800
  1

281
     0
 71
     1
 74
     0
110
0.0
120
0.0
130
0.0
111
1.0
121
0.0
131
0.0
112
0.0
122
1.0
132
0.0
 79
     0
146
0.0
  0
VIEWPORT
  5
2D
102
{ACAD_XDICTIONARY
360
766
102
}
330
475
100
AcDbEntity
 67
     1
  8
0
100
AcDbViewport
 10
2.5
 20
5.625
 30
0.0
 40
5.0
 41
3.75
 68
     3
 69
     2
 12
6.769117993594299
 22
5.257248723330512
 13
0.0
 23
0.0
 14
1.0
 24
1.0
 15
0.0
 25
0.0
 16
0.0
 26
0.0
 36
1.0
 17
0.0
 27
0.0
 37
0.0
 42
50.0
 43
0.0
 44
0.0
 45
88.3263223423607
 50
0.0
 51
0.0
 72
   100
341
486
 90
    32768
  1

281
     0
 71
     1
 74
     0
110
0.0
120
0.0
130
0.0
111
1.0
121
0.0
131
0.0
112
0.0
122
1.0
132
0.0
 79
     1
146
0.0
  0
VIEWPORT
  5
2E
102
{ACAD_XDICTIONARY
360
768
102
}
330
475
100
AcDbEntity
 67
     1
  8
0
100
AcDbViewport
 10
2.5
 20
1.875
 30
0.0
 40
5.0
 41
3.75
 68
     1
 69
     3
 12
7.696442621427422
 22
26.95000007347391
 13
0.0
 23
0.0
 14
1.0
 24
1.0
 15
0.0
 25
0.0
 16
0.0
 26
-1.0
 36
0.0
 17
0.0
 27
0.0
 37
0.0
 42
50.0
 43
0.0
 44
0.0
 45
88.3263223423607
 50
0.0
 51
0.0
 72
   100
341
485
 90
    32768
  1

281
     0
 71
     1
 74
     0
110
0.0
120
0.0
130
0.0
111
1.0
121
0.0
131
0.0
112
0.0
122
0.0
132
1.0
 79
     3
146
0.0
  0
VIEWPORT
  5
2F
102
{ACAD_XDICTIONARY
360
76A
102
}
330
475
100
AcDbEntity
 67
     1
  8
0
100
AcDbViewport
 10
7.5
 20
3.75
 30
0.0
 40
5.0
 41
7.5
 68
     4
 69
     4
 12
3.870590817491855
 22
34.10743114503769
 13
0.0
 23
0.0
 14
1.0
 24
1.0
 15
0.0
 25
0.0
 16
-1.0
 26
-1.0
 36
1.0
 17
0.0
 27
0.0
 37
0.0
 42
50.0
 43
0.0
 44
0.0
 45
206.5672225334308
 50
0.0
 51
0.0
 72
   100
341
485
341
486
 90
    32768
  1

281
     2
 71
     1
 74
     0
110
0.0
120
0.0
130
0.0
111
1.0
121
0.0
131
0.0
112
0.0
122
1.0
132
0.0
 79
     0
146
0.0
  0
TEXT
  5
42D
330
475
100
AcDbEntity
 67
     1
  8
0
100
AcDbText
 10
5.253784560170537
 20
7.092700857601182
 30
0.0
 40
0.2
  1
140M-C-DN*
100
AcDbText
  0
TEXT
  5
431
330
475
100
AcDbEntity
 67
     1
  8
0
100
AcDbText
 10
5.253784560170537
 20
6.759367524267849
 30
0.0
 40
0.2
  1
DOOR COUPLING HANDLE
100
AcDbText
1001
ACAD
1000
R13OBJECT
1002
{
1005
42D
1002
}
  0
TEXT
  5
5AA
330
475
100
AcDbEntity
 67
     1
  8
0
100
AcDbText
 10
5.253784560170537
 20
6.419376532939265
 30
0.0
 40
0.2
  1
FOR 140M
100
AcDbText
1001
ACAD
1000
R13OBJECT
1002
{
1005
42D
1002
}
  0
ENDSEC
  0
SECTION
  2
OBJECTS
  0
DICTIONARY
  5
46D
330
0
100
AcDbDictionary
281
     1
  3
ACAD_COLOR
350
68A
  3
ACAD_GROUP
350
46E
  3
ACAD_LAYOUT
350
49E
  3
ACAD_MATERIAL
350
689
  3
ACAD_MLINESTYLE
350
47B
  3
ACAD_PLOTSETTINGS
350
49F
  3
ACAD_PLOTSTYLENAME
350
49C
  3
ACDBHEADERROUNDTRIPXREC
350
774
  3
ACDBVARIABLEDICTIONARY
350
48D
  3
DWGPROPS
350
762
  0
DICTIONARY
  5
4D7
330
478
100
AcDbDictionary
280
     1
281
     1
  3
ACAD_LAYOUTSELFREF
360
74F
  0
DICTIONARY
  5
4D5
330
475
100
AcDbDictionary
280
     1
281
     1
  3
ACAD_LAYOUTSELFREF
360
74E
  0
DICTIONARY
  5
764
330
2C
100
AcDbDictionary
280
     1
281
     1
  3
ACAD_XREC_ROUNDTRIP
360
765
  0
DICTIONARY
  5
766
330
2D
100
AcDbDictionary
280
     1
281
     1
  3
ACAD_XREC_ROUNDTRIP
360
767
  0
DICTIONARY
  5
768
330
2E
100
AcDbDictionary
280
     1
281
     1
  3
ACAD_XREC_ROUNDTRIP
360
769
  0
DICTIONARY
  5
76A
330
2F
100
AcDbDictionary
280
     1
281
     1
  3
ACAD_XREC_ROUNDTRIP
360
76B
  0
DICTIONARY
  5
68A
102
{ACAD_REACTORS
330
46D
102
}
330
46D
100
AcDbDictionary
281
     1
  0
DICTIONARY
  5
46E
102
{ACAD_REACTORS
330
46D
102
}
330
46D
100
AcDbDictionary
281
     1
  0
DICTIONARY
  5
49E
102
{ACAD_REACTORS
330
46D
102
}
330
46D
100
AcDbDictionary
281
     1
  3
Layout1
350
4A1
  3
Model
350
4A0
  0
DICTIONARY
  5
689
102
{ACAD_REACTORS
330
46D
102
}
330
46D
100
AcDbDictionary
281
     1
  0
DICTIONARY
  5
47B
102
{ACAD_REACTORS
330
46D
102
}
330
46D
100
AcDbDictionary
281
     1
  3
STANDARD
350
47C
  0
DICTIONARY
  5
49F
102
{ACAD_REACTORS
330
46D
102
}
330
46D
100
AcDbDictionary
281
     1
  0
ACDBDICTIONARYWDFLT
  5
49C
102
{ACAD_REACTORS
330
46D
102
}
330
46D
100
AcDbDictionary
281
     1
  3
Normal
350
49D
100
AcDbDictionaryWithDefault
340
49D
  0
DICTIONARY
  5
774
102
{ACAD_REACTORS
330
46D
102
}
330
46D
100
AcDbDictionary
281
     1
  3
CEPSNTYPE
350
77E
  3
DIMSTYLEDATA
350
782
  3
FINGERPRINTGUID
350
77F
  3
HYPERLINKBASE
350
777
  3
INSUNITS
350
77D
  3
LAYOUTDICT
350
779
  3
LWETCUNION
350
77C
  3
PLOTSETDICT
350
77A
  3
PLOTSTYLNAMDICT
350
77B
  3
PSVPSCALE
350
781
  3
PUCSBASE
350
785
  3
PUCSORGBACK
350
78B
  3
PUCSORGBOTTOM
350
787
  3
PUCSORGFRONT
350
78A
  3
PUCSORGLEFT
350
788
  3
PUCSORGRIGHT
350
789
  3
PUCSORGTOP
350
786
  3
PUCSORTHOREF
350
783
  3
PUCSORTHOVIEW
350
784
  3
STYLESHEET
350
778
  3
TSTACKALIGN
350
775
  3
TSTACKSIZE
350
776
  3
UCSBASE
350
78E
  3
UCSORGBACK
350
794
  3
UCSORGBOTTOM
350
790
  3
UCSORGFRONT
350
793
  3
UCSORGLEFT
350
791
  3
UCSORGRIGHT
350
792
  3
UCSORGTOP
350
78F
  3
UCSORTHOREF
350
78C
  3
UCSORTHOVIEW
350
78D
  3
VERSIONGUID
350
780
  0
DICTIONARY
  5
48D
102
{ACAD_REACTORS
330
46D
102
}
330
46D
100
AcDbDictionary
281
     1
  3
DIMADEC
350
48E
  3
DIMASSOC
350
686
  3
PROJECTNAME
350
69E
  0
XRECORD
  5
762
102
{ACAD_REACTORS
330
46D
102
}
330
46D
100
AcDbXrecord
280
     1
  1
DWGPROPS COOKIE
  2

  3

  4

  6

  7

  8
colin
  9

300
=
301
=
302
=
303
=
304
=
305
=
306
=
307
=
308
=
309
=
 40
0.0134514351851852
 41
2451670.407748379
 42
2452863.459405242
  1

 90
        0
  0
XRECORD
  5
74F
102
{ACAD_REACTORS
330
4D7
102
}
330
4D7
100
AcDbXrecord
280
     1
340
478
  0
XRECORD
  5
74E
102
{ACAD_REACTORS
330
4D5
102
}
330
4D5
100
AcDbXrecord
280
     1
340
475
  0
XRECORD
  5
765
102
{ACAD_REACTORS
330
764
102
}
330
764
100
AcDbXrecord
280
     1
102
SHADEPLOT
 70
     0
  0
XRECORD
  5
767
102
{ACAD_REACTORS
330
766
102
}
330
766
100
AcDbXrecord
280
     1
102
SHADEPLOT
 70
     0
  0
XRECORD
  5
769
102
{ACAD_REACTORS
330
768
102
}
330
768
100
AcDbXrecord
280
     1
102
SHADEPLOT
 70
     0
  0
XRECORD
  5
76B
102
{ACAD_REACTORS
330
76A
102
}
330
76A
100
AcDbXrecord
280
     1
102
SHADEPLOT
 70
     0
  0
LAYOUT
  5
4A1
102
{ACAD_XDICTIONARY
360
76E
102
}
102
{ACAD_REACTORS
330
49E
102
}
330
49E
100
AcDbPlotSettings
  1

  2
HP LaserJet 5000 Series PCL 6
  4
Letter
  6

 40
5.027083396911621
 41
5.027085304260253
 42
5.027084350585937
 43
5.027069091796875
 44
215.8999938964843
 45
279.3999938964843
 46
0.0
 47
0.0
 48
0.0
 49
0.0
140
0.0
141
0.0
142
1.0
143
0.9431406338833355
 70
   688
 72
     0
 73
     1
 74
     1
  7
Default R14 pen assignments.ctb
 75
     0
147
1.060287261595917
148
0.0093010481555598
149
0.0069757861166223
100
AcDbLayout
  1
Layout1
 70
     1
 71
     1
 10
-0.1870289046444169
 20
-0.1869378900655213
 11
10.18751784143945
 21
7.829757271310011
 12
0.0
 22
0.0
 32
0.0
 14
0.0
 24
0.0
 34
0.0
 15
10.0
 25
7.5
 35
0.0
146
0.0
 13
0.0
 23
0.0
 33
0.0
 16
1.0
 26
0.0
 36
0.0
 17
0.0
 27
1.0
 37
0.0
 76
     0
330
475
331
2E
  0
LAYOUT
  5
4A0
102
{ACAD_XDICTIONARY
360
76C
102
}
102
{ACAD_REACTORS
330
49E
102
}
330
49E
100
AcDbPlotSettings
  1

  2
HP LaserJet 5000 Series PCL 6
  4

  6

 40
0.0
 41
0.0
 42
0.0
 43
0.0
 44
0.0
 45
0.0
 46
0.0
 47
0.0
 48
0.0
 49
0.0
140
0.0
141
0.0
142
1.0
143
1.0
 70
  1712
 72
     0
 73
     0
 74
     0
  7
Default R14 pen assignments.ctb
 75
     0
147
1.0
148
0.0
149
0.0
100
AcDbLayout
  1
Model
 70
     1
 71
     0
 10
0.0
 20
0.0
 11
12.0
 21
9.0
 12
0.0
 22
0.0
 32
0.0
 14
0.0
 24
0.0
 34
0.0
 15
0.0
 25
0.0
 35
0.0
146
0.0
 13
0.0
 23
0.0
 33
0.0
 16
1.0
 26
0.0
 36
0.0
 17
0.0
 27
1.0
 37
0.0
 76
     0
330
478
  0
MLINESTYLE
  5
47C
102
{ACAD_REACTORS
330
47B
102
}
330
47B
100
AcDbMlineStyle
  2
STANDARD
 70
     0
  3

 62
   256
 51
90.0
 52
90.0
 71
     2
 49
0.5
 62
   256
  6
BYLAYER
 49
-0.5
 62
   256
  6
BYLAYER
  0
ACDBPLACEHOLDER
  5
49D
102
{ACAD_REACTORS
330
49C
102
}
330
49C
  0
XRECORD
  5
77E
102
{ACAD_REACTORS
330
774
102
}
330
774
100
AcDbXrecord
280
     1
 90
        0
  0
XRECORD
  5
782
102
{ACAD_REACTORS
330
774
102
}
330
774
100
AcDbXrecord
280
     1
1000
DSTYLE
1002
{
1070
   276
 70
     2
1070
   279
 70
     2
1002
}
  0
XRECORD
  5
77F
102
{ACAD_REACTORS
330
774
102
}
330
774
100
AcDbXrecord
280
     1
  1
{6E0CF4B5-225E-11D4-A150-00A0CC3303EC}
  0
XRECORD
  5
777
102
{ACAD_REACTORS
330
774
102
}
330
774
100
AcDbXrecord
280
     1
  1

  0
XRECORD
  5
77D
102
{ACAD_REACTORS
330
774
102
}
330
774
100
AcDbXrecord
280
     1
 90
        0
  0
XRECORD
  5
779
102
{ACAD_REACTORS
330
774
102
}
330
774
100
AcDbXrecord
280
     1
340
49E
  0
XRECORD
  5
77C
102
{ACAD_REACTORS
330
774
102
}
330
774
100
AcDbXrecord
280
     1
 90
    14877
  0
XRECORD
  5
77A
102
{ACAD_REACTORS
330
774
102
}
330
774
100
AcDbXrecord
280
     1
340
49F
  0
XRECORD
  5
77B
102
{ACAD_REACTORS
330
774
102
}
330
774
100
AcDbXrecord
280
     1
340
49C
  0
XRECORD
  5
781
102
{ACAD_REACTORS
330
774
102
}
330
774
100
AcDbXrecord
280
     1
 40
0.0
  0
XRECORD
  5
785
102
{ACAD_REACTORS
330
774
102
}
330
774
100
AcDbXrecord
280
     1
340
0
  0
XRECORD
  5
78B
102
{ACAD_REACTORS
330
774
102
}
330
774
100
AcDbXrecord
280
     1
 10
0.0
 20
0.0
 30
0.0
  0
XRECORD
  5
787
102
{ACAD_REACTORS
330
774
102
}
330
774
100
AcDbXrecord
280
     1
 10
0.0
 20
0.0
 30
0.0
  0
XRECORD
  5
78A
102
{ACAD_REACTORS
330
774
102
}
330
774
100
AcDbXrecord
280
     1
 10
0.0
 20
0.0
 30
0.0
  0
XRECORD
  5
788
102
{ACAD_REACTORS
330
774
102
}
330
774
100
AcDbXrecord
280
     1
 10
0.0
 20
0.0
 30
0.0
  0
XRECORD
  5
789
102
{ACAD_REACTORS
330
774
102
}
330
774
100
AcDbXrecord
280
     1
 10
0.0
 20
0.0
 30
0.0
  0
XRECORD
  5
786
102
{ACAD_REACTORS
330
774
102
}
330
774
100
AcDbXrecord
280
     1
 10
0.0
 20
0.0
 30
0.0
  0
XRECORD
  5
783
102
{ACAD_REACTORS
330
774
102
}
330
774
100
AcDbXrecord
280
     1
340
0
  0
XRECORD
  5
784
102
{ACAD_REACTORS
330
774
102
}
330
774
100
AcDbXrecord
280
     1
 70
     0
  0
XRECORD
  5
778
102
{ACAD_REACTORS
330
774
102
}
330
774
100
AcDbXrecord
280
     1
  1

  0
XRECORD
  5
775
102
{ACAD_REACTORS
330
774
102
}
330
774
100
AcDbXrecord
280
     1
 90
        1
  0
XRECORD
  5
776
102
{ACAD_REACTORS
330
774
102
}
330
774
100
AcDbXrecord
280
     1
 90
       70
  0
XRECORD
  5
78E
102
{ACAD_REACTORS
330
774
102
}
330
774
100
AcDbXrecord
280
     1
340
0
  0
XRECORD
  5
794
102
{ACAD_REACTORS
330
774
102
}
330
774
100
AcDbXrecord
280
     1
 10
0.0
 20
0.0
 30
0.0
  0
XRECORD
  5
790
102
{ACAD_REACTORS
330
774
102
}
330
774
100
AcDbXrecord
280
     1
 10
0.0
 20
0.0
 30
0.0
  0
XRECORD
  5
793
102
{ACAD_REACTORS
330
774
102
}
330
774
100
AcDbXrecord
280
     1
 10
0.0
 20
0.0
 30
0.0
  0
XRECORD
  5
791
102
{ACAD_REACTORS
330
774
102
}
330
774
100
AcDbXrecord
280
     1
 10
0.0
 20
0.0
 30
0.0
  0
XRECORD
  5
792
102
{ACAD_REACTORS
330
774
102
}
330
774
100
AcDbXrecord
280
     1
 10
0.0
 20
0.0
 30
0.0
  0
XRECORD
  5
78F
102
{ACAD_REACTORS
330
774
102
}
330
774
100
AcDbXrecord
280
     1
 10
0.0
 20
0.0
 30
0.0
  0
XRECORD
  5
78C
102
{ACAD_REACTORS
330
774
102
}
330
774
100
AcDbXrecord
280
     1
340
0
  0
XRECORD
  5
78D
102
{ACAD_REACTORS
330
774
102
}
330
774
100
AcDbXrecord
280
     1
 70
     3
  0
XRECORD
  5
780
102
{ACAD_REACTORS
330
774
102
}
330
774
100
AcDbXrecord
280
     1
  1
{7502F109-FE22-4748-88A7-FD322200DB2B}
  0
DICTIONARYVAR
  5
48E
102
{ACAD_REACTORS
330
48D
102
}
330
48D
100
DictionaryVariables
280
     0
  1
0
  0
DICTIONARYVAR
  5
686
102
{ACAD_REACTORS
330
48D
102
}
330
48D
100
DictionaryVariables
280
     0
  1
1
  0
DICTIONARYVAR
  5
69E
102
{ACAD_REACTORS
330
48D
102
}
330
48D
100
DictionaryVariables
280
     0
  1

  0
DICTIONARY
  5
76E
330
4A1
100
AcDbDictionary
280
     1
281
     1
  3
ACAD_XREC_ROUNDTRIP
360
76F
  0
DICTIONARY
  5
76C
330
4A0
100
AcDbDictionary
280
     1
281
     1
  3
ACAD_XREC_ROUNDTRIP
360
76D
  0
XRECORD
  5
76F
102
{ACAD_REACTORS
330
76E
102
}
330
76E
100
AcDbXrecord
280
     1
102
SHADEPLOT
 70
     0
102
SHADEPLOTRESLEVEL
 70
     2
102
SHADEPLOTCUSTOMDPI
 70
   300
  0
XRECORD
  5
76D
102
{ACAD_REACTORS
330
76C
102
}
330
76C
100
AcDbXrecord
280
     1
102
SHADEPLOT
 70
     0
102
SHADEPLOTRESLEVEL
 70
     2
102
SHADEPLOTCUSTOMDPI
 70
   300
  0
ENDSEC
  0
EOF
