  0
SECTION
  2
HEADER
  9
$ACADVER
  1
AC1015
  9
$ACADMAINTVER
 70
     6
  9
$DWGCODEPAGE
  3
ANSI_1252
  9
$INSBASE
 10
0.0
 20
0.0
 30
0.0
  9
$EXTMIN
 10
-69.60264186899047
 20
-32.375
 30
-5.350000000000009
  9
$EXTMAX
 10
51.07256226407439
 20
53.375
 30
59.25
  9
$LIMMIN
 10
0.0
 20
0.0
  9
$LIMMAX
 10
12.0
 20
9.0
  9
$ORTHOMODE
 70
     0
  9
$REGENMODE
 70
     1
  9
$FILLMODE
 70
     1
  9
$QTEXTMODE
 70
     0
  9
$MIRRTEXT
 70
     1
  9
$LTSCALE
 40
1.0
  9
$ATTMODE
 70
     1
  9
$TEXTSIZE
 40
1.0
  9
$TRACEWID
 40
0.05
  9
$TEXTSTYLE
  7
STANDARD
  9
$CLAYER
  8
0
  9
$CELTYPE
  6
BYLAYER
  9
$CECOLOR
 62
   256
  9
$CELTSCALE
 40
1.0
  9
$DISPSILH
 70
     0
  9
$DIMSCALE
 40
1.0
  9
$DIMASZ
 40
4.572
  9
$DIMEXO
 40
1.587499999999999
  9
$DIMDLI
 40
9.525
  9
$DIMRND
 40
0.0
  9
$DIMDLE
 40
0.0
  9
$DIMEXE
 40
4.572
  9
$DIMTP
 40
0.0
  9
$DIMTM
 40
0.0
  9
$DIMTXT
 40
2.859999999999999
  9
$DIMCEN
 40
2.286
  9
$DIMTSZ
 40
0.0
  9
$DIMTOL
 70
     0
  9
$DIMLIM
 70
     0
  9
$DIMTIH
 70
     0
  9
$DIMTOH
 70
     1
  9
$DIMSE1
 70
     0
  9
$DIMSE2
 70
     0
  9
$DIMTAD
 70
     0
  9
$DIMZIN
 70
     4
  9
$DIMBLK
  1

  9
$DIMASO
 70
     1
  9
$DIMSHO
 70
     1
  9
$DIMPOST
  1

  9
$DIMAPOST
  1

  9
$DIMALT
 70
     1
  9
$DIMALTD
 70
     6
  9
$DIMALTF
 40
0.03937
  9
$DIMLFAC
 40
1.0
  9
$DIMTOFL
 70
     0
  9
$DIMTVP
 40
0.0
  9
$DIMTIX
 70
     0
  9
$DIMSOXD
 70
     0
  9
$DIMSAH
 70
     0
  9
$DIMBLK1
  1

  9
$DIMBLK2
  1

  9
$DIMSTYLE
  2
ABECAD_3D
  9
$DIMCLRD
 70
     0
  9
$DIMCLRE
 70
     0
  9
$DIMCLRT
 70
     0
  9
$DIMTFAC
 40
1.5
  9
$DIMGAP
 40
2.286
  9
$DIMJUST
 70
     0
  9
$DIMSD1
 70
     0
  9
$DIMSD2
 70
     0
  9
$DIMTOLJ
 70
     1
  9
$DIMTZIN
 70
     4
  9
$DIMALTZ
 70
     4
  9
$DIMALTTZ
 70
     4
  9
$DIMUPT
 70
     1
  9
$DIMDEC
 70
     2
  9
$DIMTDEC
 70
     2
  9
$DIMALTU
 70
     7
  9
$DIMALTTD
 70
     6
  9
$DIMTXSTY
  7
STANDARD
  9
$DIMAUNIT
 70
     0
  9
$DIMADEC
 70
     0
  9
$DIMALTRND
 40
0.0
  9
$DIMAZIN
 70
     0
  9
$DIMDSEP
 70
    46
  9
$DIMATFIT
 70
     2
  9
$DIMFRAC
 70
     2
  9
$DIMLDRBLK
  1

  9
$DIMLUNIT
 70
     2
  9
$DIMLWD
 70
    -2
  9
$DIMLWE
 70
    -2
  9
$DIMTMOVE
 70
     2
  9
$LUNITS
 70
     2
  9
$LUPREC
 70
     4
  9
$SKETCHINC
 40
0.1
  9
$FILLETRAD
 40
0.0
  9
$AUNITS
 70
     0
  9
$AUPREC
 70
     0
  9
$MENU
  1
ACAD
  9
$ELEVATION
 40
0.0
  9
$PELEVATION
 40
0.0
  9
$THICKNESS
 40
0.0
  9
$LIMCHECK
 70
     0
  9
$CHAMFERA
 40
0.0
  9
$CHAMFERB
 40
0.0
  9
$CHAMFERC
 40
0.0
  9
$CHAMFERD
 40
0.0
  9
$SKPOLY
 70
     0
  9
$TDCREATE
 40
2451760.428845717
  9
$TDUCREATE
 40
2451760.637179051
  9
$TDUPDATE
 40
2453514.663509710
  9
$TDUUPDATE
 40
2453514.871843044
  9
$TDINDWG
 40
0.0772439699
  9
$TDUSRTIMER
 40
0.0772439699
  9
$USRTIMER
 70
     1
  9
$ANGBASE
 50
0.0
  9
$ANGDIR
 70
     0
  9
$PDMODE
 70
     3
  9
$PDSIZE
 40
2.286
  9
$PLINEWID
 40
0.0
  9
$SPLFRAME
 70
     1
  9
$SPLINETYPE
 70
     6
  9
$SPLINESEGS
 70
     8
  9
$HANDSEED
  5
45C45
  9
$SURFTAB1
 70
     6
  9
$SURFTAB2
 70
     6
  9
$SURFTYPE
 70
     6
  9
$SURFU
 70
     6
  9
$SURFV
 70
     6
  9
$UCSBASE
  2

  9
$UCSNAME
  2

  9
$UCSORG
 10
0.0
 20
0.0
 30
0.0
  9
$UCSXDIR
 10
1.0
 20
0.0
 30
0.0
  9
$UCSYDIR
 10
0.0
 20
1.0
 30
0.0
  9
$UCSORTHOREF
  2

  9
$UCSORTHOVIEW
 70
     1
  9
$UCSORGTOP
 10
0.0
 20
0.0
 30
0.0
  9
$UCSORGBOTTOM
 10
0.0
 20
0.0
 30
0.0
  9
$UCSORGLEFT
 10
0.0
 20
0.0
 30
0.0
  9
$UCSORGRIGHT
 10
0.0
 20
0.0
 30
0.0
  9
$UCSORGFRONT
 10
0.0
 20
0.0
 30
0.0
  9
$UCSORGBACK
 10
0.0
 20
0.0
 30
0.0
  9
$PUCSBASE
  2

  9
$PUCSNAME
  2

  9
$PUCSORG
 10
0.0
 20
0.0
 30
0.0
  9
$PUCSXDIR
 10
1.0
 20
0.0
 30
0.0
  9
$PUCSYDIR
 10
0.0
 20
1.0
 30
0.0
  9
$PUCSORTHOREF
  2

  9
$PUCSORTHOVIEW
 70
     0
  9
$PUCSORGTOP
 10
0.0
 20
0.0
 30
0.0
  9
$PUCSORGBOTTOM
 10
0.0
 20
0.0
 30
0.0
  9
$PUCSORGLEFT
 10
0.0
 20
0.0
 30
0.0
  9
$PUCSORGRIGHT
 10
0.0
 20
0.0
 30
0.0
  9
$PUCSORGFRONT
 10
0.0
 20
0.0
 30
0.0
  9
$PUCSORGBACK
 10
0.0
 20
0.0
 30
0.0
  9
$USERI1
 70
     0
  9
$USERI2
 70
     0
  9
$USERI3
 70
     0
  9
$USERI4
 70
     0
  9
$USERI5
 70
     0
  9
$USERR1
 40
0.0
  9
$USERR2
 40
0.0
  9
$USERR3
 40
0.0
  9
$USERR4
 40
0.0
  9
$USERR5
 40
0.0
  9
$WORLDVIEW
 70
     1
  9
$SHADEDGE
 70
     3
  9
$SHADEDIF
 70
    70
  9
$TILEMODE
 70
     1
  9
$MAXACTVP
 70
    16
  9
$PINSBASE
 10
0.0
 20
0.0
 30
0.0
  9
$PLIMCHECK
 70
     0
  9
$PEXTMIN
 10
1.000000000000000E+20
 20
1.000000000000000E+20
 30
1.000000000000000E+20
  9
$PEXTMAX
 10
-1.000000000000000E+20
 20
-1.000000000000000E+20
 30
-1.000000000000000E+20
  9
$PLIMMIN
 10
0.0
 20
0.0
  9
$PLIMMAX
 10
12.0
 20
9.0
  9
$UNITMODE
 70
     0
  9
$VISRETAIN
 70
     0
  9
$PLINEGEN
 70
     0
  9
$PSLTSCALE
 70
     1
  9
$TREEDEPTH
 70
  3020
  9
$CMLSTYLE
  2
STANDARD
  9
$CMLJUST
 70
     0
  9
$CMLSCALE
 40
1.0
  9
$PROXYGRAPHICS
 70
     1
  9
$MEASUREMENT
 70
     1
  9
$CELWEIGHT
370
    -1
  9
$ENDCAPS
280
     0
  9
$JOINSTYLE
280
     0
  9
$LWDISPLAY
290
     0
  9
$INSUNITS
 70
     0
  9
$HYPERLINKBASE
  1

  9
$STYLESHEET
  1

  9
$XEDIT
290
     1
  9
$CEPSNTYPE
380
     0
  9
$PSTYLEMODE
290
     1
  9
$FINGERPRINTGUID
  2
{6E0CF4B8-225E-11D4-A150-00A0CC3303EC}
  9
$VERSIONGUID
  2
{A47DFD2B-B20A-44C5-B936-F7DF54772E31}
  9
$EXTNAMES
290
     1
  9
$PSVPSCALE
 40
0.0
  9
$OLESTARTUP
290
     0
  0
ENDSEC
  0
SECTION
  2
CLASSES
  0
CLASS
  1
DICTIONARYVAR
  2
AcDbDictionaryVar
  3
AutoCAD 2000
 90
        0
280
     0
281
     0
  0
CLASS
  1
ACDBDICTIONARYWDFLT
  2
AcDbDictionaryWithDefault
  3
AutoCAD 2000
 90
        0
280
     0
281
     0
  0
CLASS
  1
ACDBPLACEHOLDER
  2
AcDbPlaceHolder
  3
AutoCAD 2000
 90
        0
280
     0
281
     0
  0
CLASS
  1
LAYOUT
  2
AcDbLayout
  3
AutoCAD 2000
 90
        0
280
     0
281
     0
  0
CLASS
  1
LONG_TRANSACTION
  2
AcDbLongTransaction
  3
AutoCAD 2000
 90
    32768
280
     0
281
     0
  0
CLASS
  1
LWPOLYLINE
  2
AcDbPolyline
  3
AutoCAD 2000
 90
    32768
280
     0
281
     1
  0
CLASS
  1
HATCH
  2
AcDbHatch
  3
AutoCAD 2000
 90
    32768
280
     0
281
     1
  0
CLASS
  1
XRECORD
  2
AcDbXrecord
  3
AutoCAD 2000
 90
    32768
280
     0
281
     0
  0
CLASS
  1
LONG_TRANSACTION
  2
AcDbLongTransaction
  3
AutoCAD 2000
 90
    32768
280
     0
281
     0
  0
CLASS
  1
LWPOLYLINE
  2
AcDbPolyline
  3
AutoCAD 2000
 90
    32768
280
     0
281
     1
  0
CLASS
  1
HATCH
  2
AcDbHatch
  3
AutoCAD 2000
 90
    32768
280
     0
281
     1
  0
CLASS
  1
XRECORD
  2
AcDbXrecord
  3
AutoCAD 2000
 90
    32768
280
     0
281
     0
  0
CLASS
  1
LONG_TRANSACTION
  2
AcDbLongTransaction
  3
AutoCAD 2000
 90
    32768
280
     0
281
     0
  0
CLASS
  1
LWPOLYLINE
  2
AcDbPolyline
  3
AutoCAD 2000
 90
    32768
280
     0
281
     1
  0
CLASS
  1
HATCH
  2
AcDbHatch
  3
AutoCAD 2000
 90
    32768
280
     0
281
     1
  0
CLASS
  1
XRECORD
  2
AcDbXrecord
  3
AutoCAD 2000
 90
    32768
280
     0
281
     0
  0
CLASS
  1
LONG_TRANSACTION
  2
AcDbLongTransaction
  3
AutoCAD 2000
 90
    32768
280
     0
281
     0
  0
CLASS
  1
LWPOLYLINE
  2
AcDbPolyline
  3
AutoCAD 2000
 90
    32768
280
     0
281
     1
  0
CLASS
  1
HATCH
  2
AcDbHatch
  3
AutoCAD 2000
 90
    32768
280
     0
281
     1
  0
CLASS
  1
XRECORD
  2
AcDbXrecord
  3
AutoCAD 2000
 90
    32768
280
     0
281
     0
  0
CLASS
  1
LONG_TRANSACTION
  2
AcDbLongTransaction
  3
AutoCAD 2000
 90
    32768
280
     0
281
     0
  0
CLASS
  1
LWPOLYLINE
  2
AcDbPolyline
  3
AutoCAD 2000
 90
    32768
280
     0
281
     1
  0
CLASS
  1
HATCH
  2
AcDbHatch
  3
AutoCAD 2000
 90
    32768
280
     0
281
     1
  0
CLASS
  1
XRECORD
  2
AcDbXrecord
  3
AutoCAD 2000
 90
    32768
280
     0
281
     0
  0
ENDSEC
  0
SECTION
  2
TABLES
  0
TABLE
  2
VPORT
  5
458C7
330
0
100
AcDbSymbolTable
 70
     2
  0
VPORT
  5
45C23
330
458C7
100
AcDbSymbolTableRecord
100
AcDbViewportTableRecord
  2
*Active
 70
     0
 10
0.0
 20
0.0
 11
1.0
 21
1.0
 12
24.70697208252023
 22
9.18939233262747
 13
0.0
 23
0.0
 14
0.25
 24
0.25
 15
0.25
 25
0.25
 16
0.0
 26
0.0
 36
1.0
 17
-20.93405988926281
 27
-1.885102344421689
 37
-16.21552803409054
 40
100.1481263806332
 41
1.792393026941363
 42
50.0
 43
0.0
 44
0.0
 50
0.0
 51
0.0
 71
     0
 72
 20000
 73
     1
 74
     1
 75
     0
 76
     0
 77
     0
 78
     0
281
     0
 65
     1
110
0.0
120
0.0
130
0.0
111
1.0
121
0.0
131
0.0
112
0.0
122
1.0
132
0.0
 79
     1
146
0.0
  0
ENDTAB
  0
TABLE
  2
LTYPE
  5
458C4
330
0
100
AcDbSymbolTable
 70
     1
  0
LTYPE
  5
458D0
330
458C4
100
AcDbSymbolTableRecord
100
AcDbLinetypeTableRecord
  2
BYBLOCK
 70
     0
  3

 72
    65
 73
     0
 40
0.0
  0
LTYPE
  5
458D1
330
458C4
100
AcDbSymbolTableRecord
100
AcDbLinetypeTableRecord
  2
BYLAYER
 70
     0
  3

 72
    65
 73
     0
 40
0.0
  0
LTYPE
  5
458D2
330
458C4
100
AcDbSymbolTableRecord
100
AcDbLinetypeTableRecord
  2
CONTINUOUS
 70
     0
  3
Solid line
 72
    65
 73
     0
 40
0.0
  0
ENDTAB
  0
TABLE
  2
LAYER
  5
458C1
330
0
100
AcDbSymbolTable
 70
     8
  0
LAYER
  5
458CD
330
458C1
100
AcDbSymbolTableRecord
100
AcDbLayerTableRecord
  2
0
 70
     0
 62
     7
  6
CONTINUOUS
370
    -3
390
458FA
  0
LAYER
  5
458EA
330
458C1
100
AcDbSymbolTableRecord
100
AcDbLayerTableRecord
  2
DIMS-MTG-HOLES
 70
     0
 62
     1
  6
CONTINUOUS
370
    -3
390
458FA
  0
LAYER
  5
458EB
330
458C1
100
AcDbSymbolTableRecord
100
AcDbLayerTableRecord
  2
ATTRIBUTES
 70
     0
 62
     7
  6
CONTINUOUS
370
    -3
390
458FA
  0
LAYER
  5
4593F
330
458C1
100
AcDbSymbolTableRecord
100
AcDbLayerTableRecord
  2
AREA1
 70
     0
 62
    -7
  6
CONTINUOUS
290
     0
370
    -3
390
458FA
  0
LAYER
  5
45946
330
458C1
100
AcDbSymbolTableRecord
100
AcDbLayerTableRecord
  2
Defpoints
 70
     0
 62
     7
  6
CONTINUOUS
290
     0
370
    -3
390
458FA
  0
LAYER
  5
45972
330
458C1
100
AcDbSymbolTableRecord
100
AcDbLayerTableRecord
  2
SCALE
 70
     0
 62
    -7
  6
CONTINUOUS
370
    -3
390
458FA
  0
LAYER
  5
4597A
330
458C1
100
AcDbSymbolTableRecord
100
AcDbLayerTableRecord
  2
SNAP_POINTS
 70
     0
 62
    -1
  6
CONTINUOUS
370
    -3
390
458FA
  0
LAYER
  5
45BB7
330
458C1
100
AcDbSymbolTableRecord
100
AcDbLayerTableRecord
  2
AREA2
 70
     0
 62
    -7
  6
CONTINUOUS
370
    -3
390
458FA
  0
ENDTAB
  0
TABLE
  2
STYLE
  5
458C2
330
0
100
AcDbSymbolTable
 70
     1
  0
STYLE
  5
458CE
330
458C2
100
AcDbSymbolTableRecord
100
AcDbTextStyleTableRecord
  2
STANDARD
 70
     0
 40
0.0
 41
1.0
 50
0.0
 71
     0
 42
1.0
  3
txt
  4

  0
ENDTAB
  0
TABLE
  2
VIEW
  5
458C5
330
0
100
AcDbSymbolTable
 70
     0
  0
ENDTAB
  0
TABLE
  2
UCS
  5
458C6
330
0
100
AcDbSymbolTable
 70
     0
  0
ENDTAB
  0
TABLE
  2
APPID
  5
458C8
330
0
100
AcDbSymbolTable
 70
     1
  0
APPID
  5
458CF
330
458C8
100
AcDbSymbolTableRecord
100
AcDbRegAppTableRecord
  2
ACAD
 70
     0
  0
ENDTAB
  0
TABLE
  2
DIMSTYLE
  5
458C9
330
0
100
AcDbSymbolTable
 70
     1
100
AcDbDimStyleTable
 71
     0
  0
DIMSTYLE
105
458F6
102
{ACAD_REACTORS
330
45A95
330
45AA2
330
45B9F
102
}
330
458C9
100
AcDbSymbolTableRecord
100
AcDbDimStyleTableRecord
  2
ABECAD_3D
 70
     0
 41
4.572
 42
1.587499999999999
 43
9.525
 44
4.572
 73
     0
 78
     4
140
2.859999999999999
141
2.286
143
0.03937
146
1.5
147
2.286
170
     1
171
     6
271
     2
272
     2
273
     7
274
     6
276
     2
279
     2
284
     4
285
     4
286
     4
288
     1
289
     2
340
458CE
  0
ENDTAB
  0
TABLE
  2
BLOCK_RECORD
  5
458C0
330
0
100
AcDbSymbolTable
 70
     3
  0
BLOCK_RECORD
  5
458D6
102
{ACAD_XDICTIONARY
360
45930
102
}
330
458C0
100
AcDbSymbolTableRecord
100
AcDbBlockTableRecord
  2
*MODEL_SPACE
340
458FD
  0
BLOCK_RECORD
  5
458D3
102
{ACAD_XDICTIONARY
360
4592E
102
}
330
458C0
100
AcDbSymbolTableRecord
100
AcDbBlockTableRecord
  2
*PAPER_SPACE
340
458FE
  0
BLOCK_RECORD
  5
45A96
330
458C0
100
AcDbSymbolTableRecord
100
AcDbBlockTableRecord
  2
*D0
340
0
  0
BLOCK_RECORD
  5
45AA3
330
458C0
100
AcDbSymbolTableRecord
100
AcDbBlockTableRecord
  2
*D1
340
0
  0
BLOCK_RECORD
  5
45BA0
330
458C0
100
AcDbSymbolTableRecord
100
AcDbBlockTableRecord
  2
*D2
340
0
  0
ENDTAB
  0
ENDSEC
  0
SECTION
  2
BLOCKS
  0
BLOCK
  5
458DF
330
458D6
100
AcDbEntity
  8
0
100
AcDbBlockBegin
  2
*MODEL_SPACE
 70
     0
 10
0.0
 20
0.0
 30
0.0
  3
*MODEL_SPACE
  1

  0
ENDBLK
  5
458E0
330
458D6
100
AcDbEntity
  8
0
100
AcDbBlockEnd
  0
BLOCK
  5
458DD
330
458D3
100
AcDbEntity
 67
     1
  8
0
100
AcDbBlockBegin
  2
*PAPER_SPACE
 70
     0
 10
0.0
 20
0.0
 30
0.0
  3
*PAPER_SPACE
  1

  0
ENDBLK
  5
458DE
330
458D3
100
AcDbEntity
 67
     1
  8
0
100
AcDbBlockEnd
  0
BLOCK
  5
45AA0
330
45A96
100
AcDbEntity
  8
0
100
AcDbBlockBegin
  2
*D0
 70
     1
 10
0.0
 20
0.0
 30
0.0
  3
*D0
  1

  0
LINE
  5
45AAF
330
45A96
100
AcDbEntity
  8
AREA1
 62
     0
370
    -2
100
AcDbLine
 10
-32.375
 20
33.9625
 30
0.0
 11
-32.375
 21
42.27181910399383
 31
0.0
  0
LINE
  5
45AB0
330
45A96
100
AcDbEntity
  8
AREA1
 62
     0
370
    -2
100
AcDbLine
 10
32.375
 20
33.9625
 30
0.0
 11
32.375
 21
42.27181910399383
 31
0.0
  0
LINE
  5
45AB1
330
45A96
100
AcDbEntity
  8
AREA1
 62
     0
370
    -2
100
AcDbLine
 10
-27.803
 20
37.69981910399383
 30
0.0
 11
-20.97889898832409
 21
37.69981910399383
 31
0.0
  0
LINE
  5
45AB2
330
45A96
100
AcDbEntity
  8
AREA1
 62
     0
370
    -2
100
AcDbLine
 10
27.803
 20
37.69981910399383
 30
0.0
 11
21.72643434500924
 21
37.69981910399383
 31
0.0
  0
MTEXT
  5
45AB3
330
45A96
100
AcDbEntity
  8
AREA1
 62
     0
100
AcDbMText
 10
0.3737676783425741
 20
37.69981910399383
 30
0.0
 40
2.859999999999999
 41
0.0
 71
     5
 72
     1
  1
\A1;64.75 [2 35/64]
 73
     1
 44
1.0
  0
SOLID
  5
45AB4
330
45A96
100
AcDbEntity
  8
AREA1
 62
     0
100
AcDbTrace
 10
-27.803
 20
38.46181910399383
 30
0.0
 11
-27.803
 21
36.93781910399383
 31
0.0
 12
-32.375
 22
37.69981910399383
 32
0.0
 13
-32.375
 23
37.69981910399383
 33
0.0
  0
SOLID
  5
45AB5
330
45A96
100
AcDbEntity
  8
AREA1
 62
     0
100
AcDbTrace
 10
27.803
 20
38.46181910399383
 30
0.0
 11
27.803
 21
36.93781910399383
 31
0.0
 12
32.375
 22
37.69981910399383
 32
0.0
 13
32.375
 23
37.69981910399383
 33
0.0
  0
POINT
  5
45AB6
330
45A96
100
AcDbEntity
  8
Defpoints
 62
     0
100
AcDbPoint
 10
-32.375
 20
32.375
 30
0.0
  0
POINT
  5
45AB7
330
45A96
100
AcDbEntity
  8
Defpoints
 62
     0
100
AcDbPoint
 10
32.375
 20
32.375
 30
0.0
  0
POINT
  5
45AB8
330
45A96
100
AcDbEntity
  8
Defpoints
 62
     0
100
AcDbPoint
 10
32.375
 20
37.69981910399383
 30
0.0
  0
ENDBLK
  5
45AA1
330
45A96
100
AcDbEntity
  8
0
100
AcDbBlockEnd
  0
BLOCK
  5
45AAD
330
45AA3
100
AcDbEntity
  8
0
100
AcDbBlockBegin
  2
*D1
 70
     1
 10
0.0
 20
0.0
 30
0.0
  3
*D1
  1

  0
LINE
  5
45AB9
330
45AA3
100
AcDbEntity
  8
AREA1
 62
     0
370
    -2
100
AcDbLine
 10
33.9625
 20
32.375
 30
0.0
 11
42.0332751663778
 21
32.375
 31
0.0
  0
LINE
  5
45ABA
330
45AA3
100
AcDbEntity
  8
AREA1
 62
     0
370
    -2
100
AcDbLine
 10
33.9625
 20
-32.375
 30
0.0
 11
42.03327516637778
 21
-32.375
 31
0.0
  0
LINE
  5
45ABB
330
45AA3
100
AcDbEntity
  8
AREA1
 62
     0
370
    -2
100
AcDbLine
 10
37.46127516637779
 20
27.803
 30
0.0
 11
37.46127516637779
 21
21.51309138667417
 31
0.0
  0
LINE
  5
45ABC
330
45AA3
100
AcDbEntity
  8
AREA1
 62
     0
370
    -2
100
AcDbLine
 10
37.46127516637778
 20
-27.803
 30
0.0
 11
37.46127516637778
 21
-21.19224194665915
 31
0.0
  0
MTEXT
  5
45ABD
330
45AA3
100
AcDbEntity
  8
AREA1
 62
     0
100
AcDbMText
 10
37.46127516637779
 20
0.1604247200075122
 30
0.0
 40
2.859999999999999
 41
0.0
 71
     5
 72
     1
  1
\A1;64.75 [2 35/64]
 11
0.0000000000000001
 21
1.0
 31
0.0
 73
     1
 44
1.0
  0
SOLID
  5
45ABE
330
45AA3
100
AcDbEntity
  8
AREA1
 62
     0
100
AcDbTrace
 10
36.69927516637779
 20
27.803
 30
0.0
 11
38.22327516637779
 21
27.803
 31
0.0
 12
37.46127516637779
 22
32.375
 32
0.0
 13
37.46127516637779
 23
32.375
 33
0.0
  0
SOLID
  5
45ABF
330
45AA3
100
AcDbEntity
  8
AREA1
 62
     0
100
AcDbTrace
 10
36.69927516637778
 20
-27.803
 30
0.0
 11
38.22327516637778
 21
-27.803
 31
0.0
 12
37.46127516637778
 22
-32.375
 32
0.0
 13
37.46127516637778
 23
-32.375
 33
0.0
  0
POINT
  5
45AC0
330
45AA3
100
AcDbEntity
  8
Defpoints
 62
     0
100
AcDbPoint
 10
32.375
 20
32.375
 30
0.0
  0
POINT
  5
45AC1
330
45AA3
100
AcDbEntity
  8
Defpoints
 62
     0
100
AcDbPoint
 10
32.375
 20
-32.375
 30
0.0
  0
POINT
  5
45AC2
330
45AA3
100
AcDbEntity
  8
Defpoints
 62
     0
100
AcDbPoint
 10
37.46127516637778
 20
-32.375
 30
0.0
  0
ENDBLK
  5
45AAE
330
45AA3
100
AcDbEntity
  8
0
100
AcDbBlockEnd
  0
BLOCK
  5
45BAB
330
45BA0
100
AcDbEntity
  8
0
100
AcDbBlockBegin
  2
*D2
 70
     1
 10
0.0
 20
0.0
 30
0.0
  3
*D2
  1

  0
LINE
  5
45BCC
330
45BA0
100
AcDbEntity
  8
AREA2
 62
     0
370
    -2
100
AcDbLine
 10
9.4625
 20
59.25
 30
0.0
 11
51.07256226407439
 21
59.24999999999998
 31
0.0
  0
LINE
  5
45BCD
330
45BA0
100
AcDbEntity
  8
AREA2
 62
     0
370
    -2
100
AcDbLine
 10
18.88749999999999
 20
-5.35
 30
0.0
 11
51.07256226407436
 21
-5.350000000000009
 31
0.0
  0
LINE
  5
45BCE
330
45BA0
100
AcDbEntity
  8
AREA2
 62
     0
370
    -2
100
AcDbLine
 10
46.50056226407438
 20
54.67799999999999
 30
0.0
 11
46.50056226407437
 21
45.66984231899807
 31
0.0
  0
LINE
  5
45BCF
330
45BA0
100
AcDbEntity
  8
AREA2
 62
     0
370
    -2
100
AcDbLine
 10
46.50056226407436
 20
-0.7780000000000081
 30
0.0
 11
46.50056226407436
 21
3.441175652331402
 31
0.0
  0
MTEXT
  5
45BD0
330
45BA0
100
AcDbEntity
  8
AREA2
 62
     0
100
AcDbMText
 10
46.50056226407437
 20
24.55550898566474
 30
0.0
 40
2.859999999999999
 41
0.0
 71
     5
 72
     1
  1
\A1;64.60 [2 35/64]
 11
0.0000000000000001
 21
1.0
 31
0.0
 73
     1
 44
1.0
  0
SOLID
  5
45BD1
330
45BA0
100
AcDbEntity
  8
AREA2
 62
     0
100
AcDbTrace
 10
45.73856226407438
 20
54.67799999999999
 30
0.0
 11
47.26256226407438
 21
54.67799999999999
 31
0.0
 12
46.50056226407438
 22
59.24999999999999
 32
0.0
 13
46.50056226407438
 23
59.24999999999999
 33
0.0
  0
SOLID
  5
45BD2
330
45BA0
100
AcDbEntity
  8
AREA2
 62
     0
100
AcDbTrace
 10
45.73856226407436
 20
-0.778000000000008
 30
0.0
 11
47.26256226407437
 21
-0.7780000000000084
 31
0.0
 12
46.50056226407436
 22
-5.350000000000008
 32
0.0
 13
46.50056226407436
 23
-5.350000000000008
 33
0.0
  0
POINT
  5
45BD3
330
45BA0
100
AcDbEntity
  8
Defpoints
 62
     0
100
AcDbPoint
 10
7.875
 20
59.25
 30
-21.0
  0
POINT
  5
45BD4
330
45BA0
100
AcDbEntity
  8
Defpoints
 62
     0
100
AcDbPoint
 10
17.3
 20
-5.349999999999999
 30
0.0
  0
POINT
  5
45BD5
330
45BA0
100
AcDbEntity
  8
Defpoints
 62
     0
100
AcDbPoint
 10
46.50056226407436
 20
-5.350000000000008
 30
0.0
  0
ENDBLK
  5
45BAC
330
45BA0
100
AcDbEntity
  8
0
100
AcDbBlockEnd
  0
ENDSEC
  0
SECTION
  2
ENTITIES
  0
LINE
  5
45967
330
458D6
100
AcDbEntity
  8
SCALE
100
AcDbLine
 10
-67.89669114049832
 20
11.96180316237539
 30
0.0
 11
-42.49669114049831
 21
11.96180316237539
 31
0.0
  0
LINE
  5
45969
330
458D6
100
AcDbEntity
  8
SCALE
100
AcDbLine
 10
-42.49669114049831
 20
9.421803162375404
 30
0.0
 11
-42.49669114049831
 21
14.50180316237543
 31
0.0
  0
LINE
  5
4596A
330
458D6
100
AcDbEntity
  8
SCALE
100
AcDbLine
 10
-67.89669114049832
 20
9.421803162375404
 30
0.0
 11
-67.89669114049832
 21
14.50180316237543
 31
0.0
  0
LINE
  5
4596B
330
458D6
100
AcDbEntity
  8
SCALE
100
AcDbLine
 10
-67.89669114049823
 20
17.14822689966863
 30
0.0
 11
-67.89669114049823
 21
22.22822689966862
 31
0.0
  0
LINE
  5
4596C
330
458D6
100
AcDbEntity
  8
SCALE
100
AcDbLine
 10
-57.89671114049824
 20
17.14822689966863
 30
0.0
 11
-57.89671114049824
 21
22.22822689966862
 31
0.0
  0
LINE
  5
4596D
330
458D6
100
AcDbEntity
  8
SCALE
100
AcDbLine
 10
-67.89669114049823
 20
19.68822689966862
 30
0.0
 11
-57.89671114049824
 21
19.68822689966862
 31
0.0
  0
TEXT
  5
4596E
330
458D6
100
AcDbEntity
  8
SCALE
100
AcDbText
 10
-66.38736839972438
 20
20.85001388963113
 30
0.0
 40
1.587499999999999
  1
10 mm
100
AcDbText
  0
TEXT
  5
4596F
330
458D6
100
AcDbEntity
  8
SCALE
100
AcDbText
 10
-60.29879840741031
 20
13.7156400248547
 30
0.0
 40
1.587499999999999
  1
[1 Inch]
100
AcDbText
  0
TEXT
  5
45970
330
458D6
100
AcDbEntity
  8
SCALE
100
AcDbText
 10
-68.09060706036897
 20
25.2217645145205
 30
0.0
 40
1.587499999999999
  1
SCALE:
100
AcDbText
  0
LWPOLYLINE
  5
45971
330
458D6
100
AcDbEntity
  8
SCALE
100
AcDbPolyline
 90
        4
 70
     1
 43
0.0
 10
-69.60264186899047
 20
27.8938749292578
 10
-40.75766985262437
 20
27.8938749292578
 10
-40.75766985262437
 20
6.516991933096235
 10
-69.60264186899047
 20
6.516991933096235
  0
3DSOLID
  5
459DD
330
458D6
100
AcDbEntity
  8
0
100
AcDbModelerGeometry
 70
     1
  1
koo lni n o         
  1
h J1410(1 nl ^ \VL kqoqm QK mk R01 R>& ml njejjemh mooj 
  1
rn fqfffffffffffffffj:rooh n:rono 
  1
=0;& {n {m {rn {rn |
  1
-:9@)+r:&:r>++-6= {rn {rn {rn {o {l {k |
  1
3*2/ {j {rn {i {o |
  1
:&:@-:961:2:1+ {rn j 8-6;  n l +-6 l k ,*-9 o l >;5 o k 8->; o f /0,+<7:<4 o k ,+03 oqnmoijnhhknogkofgg k 1+03 lo k ;,63 o g 93>+1:,, o h /6'>-:> o k 72>' o i 8-6;>- o j 28-6; jnm j *8-6; o j )8-6; o no :1;@96:3;, o o o o |
  1
):-+:'@+:2/3>+: {rn l o n g |
  1
-:9@)+r:&:r>++-6= {rn {rn {rn {m {l {k |
  1
,7:33 {h {rn {rn {g {rn {m |
  1
-:9@)+r:&:r>++-6= {rn {rn {rn {i {l {k |
  1
9><: {f {no {nn {i {rn {nm -:):-,:; ,6183: |
  1
92:,7r:&:r>++-6= {rn {nl {rn {g |
  1
9><: {nk {nj {ni {i {rn {nh -:):-,:; ,6183: |
  1
300/ {rn {ng {nf {g |
  1
/3>1:r,*-9><: {rn lmqlhj rlmqlhj ni o o rn riqnmlolnhifnnnggil:ronh rn o 90-(>-;@) V V V V |
  1
-:9@)+r:&:r>++-6= {rn {rn {f {g {l {k |
  1
92:,7r:&:r>++-6= {rn {mo {rn {no |
  1
9><: {mn {mm {ml {i {rn {mk -:):-,:; ,6183: |
  1
300/ {rn {mj {mi {no |
  1
<01:r,*-9><: {rn o o rjqlkfffffffffffffi o o n fqgmhkijfgfkmkjhgh:roni niqojoooooooooooon o n V V o n niqojoooooooooooon 90-(>-; V V V V |
  1
300/ {rn {rn {mh {g |
  1
<0:;8: {rn {mg {mf {lo {ln -:):-,:; {nn {rn |
  1
-:9@)+r:&:r>++-6= {rn {rn {nk {no {l {k |
  1
92:,7r:&:r>++-6= {rn {lm {rn {nj |
  1
9><: {ll {lk {lj {i {rn {li 90-(>-; ,6183: |
  1
300/ {rn {rn {lh {nj |
  1
/3>1:r,*-9><: {rn fqgmhkijfgfkmkjhgh:roni niqojoooooooooooon jqfjoooooooooooonn o o n iqnmlolnhifnnnggil:ronh n o 90-(>-;@) V V V V |
  1
300/ {rn {rn {lg {no |
  1
<0:;8: {rn {mi {mi {lh {lf -:):-,:; {ni {rn |
  1
<0:;8: {rn {ko {kn {km {kl -:):-,:; {ng {rn |
  1
<0:;8: {rn {kk {nf {kj {ki -:):-,:; {nn {rn |
  1
<0:;8: {rn {nf {kk {kh {kg -:):-,:; {nn {rn |
  1
<0:;8: {rn {kf {jo {nf {ln 90-(>-; {jn {rn |
  1
:;8: {jm {jl {jk {lo {jj 90-(>-; |
  1
-:9@)+r:&:r>++-6= {rn {rn {mn {nj {l {k |
  1
92:,7r:&:r>++-6= {rn {ji {rn {mm |
  1
9><: {jh {jg {jf {i {rn {io -:):-,:; ,6183: |
  1
300/ {rn {in {im {mm |
  1
<01:r,*-9><: {rn o o rjqlkfffffffffffffi o o n nqojfmgkkfiojiljik:ronj nhqlooooooooooooon o n V V o n nhqlooooooooooooon 90-(>-; V V V V |
  1
<0:;8: {rn {lh {lh {mi {lf 90-(>-; {ml {rn |
  1
<0:;8: {rn {lg {lg {il {ik -:):-,:; {mj {rn |
  1
:;8: {ij {ii {ii {mi {ih 90-(>-; |
  1
<0:;8: {rn {ig {mh {if {ho -:):-,:; {ng {rn |
  1
<0:;8: {rn {mh {ig {hn {hm -:):-,:; {ng {rn |
  1
<0:;8: {rn {hl {hk {mh {kl 90-(>-; {hj {rn |
  1
:;8: {hi {hh {hg {km {hf 90-(>-; |
  1
<0:;8: {rn {mf {mg {go {gn -:):-,:; {nn {rn |
  1
<0:;8: {rn {gm {gl {mg {ki 90-(>-; {gk {rn |
  1
:;8: {gj {gi {jl {kj {gh 90-(>-; |
  1
<0:;8: {rn {gg {gf {mf {kg 90-(>-; {fo {rn |
  1
:;8: {fn {jk {fm {kh {fl 90-(>-; |
  1
<0:;8: {rn {fk {lo {gf {fj -:):-,:; {jn {rn |
  1
<0:;8: {rn {lo {fk {gm {fi 90-(>-; {jn {rn |
  1
300/ {rn {rn {lo {jg |
  1
/+36,+r:&:r>++-6= {rn {rn {rn {ln |
  1
):-+:' {rn {fi {fh |
  1
):-+:' {rn {fj {fg |
  1
,+->687+r<*-): {rn rlmqlhj rlmqlhj ni rn iqnmlolnhifnnnggil:ronh o V V |
  1
-:9@)+r:&:r>++-6= {rn {rn {ll {mm {l {k |
  1
92:,7r:&:r>++-6= {rn {ff {rn {lk |
  1
9><: {noo {non {jn {i {rn {nom 90-(>-; ,6183: |
  1
300/ {rn {nol {il {lk |
  1
/3>1:r,*-9><: {rn kqomikoggljfhlfooi:ronk mqlofmilgfnmmolmjl:ronk rjqlkfffffffffffffi o o n iqnmlolnhifnnnggil:ronh n o 90-(>-;@) V V V V |
  1
300/ {rn {rn {nok {mm |
  1
<0:;8: {rn {im {im {noj {noi -:):-,:; {lj {rn |
  1
<0:;8: {rn {il {il {lg {ik 90-(>-; {jf {rn |
  1
:;8: {noh {nog {nog {il {nof 90-(>-; |
  1
/+36,+r:&:r>++-6= {rn {rn {rn {lf |
  1
):-+:' {rn {lf {nno |
  1
:336/,:r<*-): {rn o o jqfjoooooooooooonn o o rn fqgmhkijfgfkmkjhgh:roni niqojoooooooooooon o n V V |
  1
<0:;8: {rn {kn {ko {nnn {nnm -:):-,:; {ng {rn |
  1
<0:;8: {rn {nnl {nnk {ko {ho 90-(>-; {nnj {rn |
  1
:;8: {nni {nnh {hh {if {nng 90-(>-; |
  1
<0:;8: {rn {nnf {nmo {kn {hm 90-(>-; {nmn {rn |
  1
:;8: {nmm {hg {nml {hn {nmk 90-(>-; |
  1
<0:;8: {rn {nmj {km {nmo {nmi -:):-,:; {hj {rn |
  1
<0:;8: {rn {km {nmj {nnl {nmh -:):-,:; {hj {rn |
  1
300/ {rn {rn {hl {nmg |
  1
/+36,+r:&:r>++-6= {rn {rn {rn {kl |
  1
):-+:' {rn {ho {nmf |
  1
):-+:' {rn {hm {nlo |
  1
:336/,:r<*-): {rn o o ni o o n nqlhhigmnkgojonhkk:ronj mmqj o n V V |
  1
<0:;8: {rn {nln {nlm {kk {gn 90-(>-; {nll {rn |
  1
:;8: {nlk {fm {gi {go {nlj 90-(>-; |
  1
<0:;8: {rn {nli {kj {jo {fi -:):-,:; {gk {rn |
  1
<0:;8: {rn {kj {nli {nln {nlh 90-(>-; {gk {rn |
  1
300/ {rn {rn {kj {nlg |
  1
/+36,+r:&:r>++-6= {rn {rn {rn {ki |
  1
):-+:' {rn {nlh {nlf |
  1
,+->687+r<*-): {rn lmqlhj rlmqlhj ni riqnmlolnhifnnnggil:ronh rn o V V |
  1
<0:;8: {rn {nko {kh {nlm {nkn -:):-,:; {fo {rn |
  1
<0:;8: {rn {kh {nko {kf {fj 90-(>-; {fo {rn |
  1
300/ {rn {rn {kh {non |
  1
/+36,+r:&:r>++-6= {rn {rn {rn {kg |
  1
):-+:' {rn {nkn {nkm |
  1
,+->687+r<*-): {rn rlmqlhj lmqlhj ni iqnmlolnhifnnnggil:ronh n o V V |
  1
<0:;8: {rn {jo {kf {nkl {nkk 90-(>-; {jn {rn |
  1
:;8: {nkj {nki {jk {gf {nkh 90-(>-; |
  1
:;8: {nkg {nkf {jl {jo {njo 90-(>-; |
  1
/061+ {rn lmqlhj rlmqlhj ni |
  1
/061+ {rn rlmqlhj rlmqlhj ni |
  1
-:9@)+r:&:r>++-6= {rn {rn {jh {lk {l {k |
  1
92:,7r:&:r>++-6= {rn {njn {rn {jg |
  1
9><: {njm {njl {fo {i {rn {njk 90-(>-; ,6183: |
  1
/3>1:r,*-9><: {rn lmqlhj rlmqlhj o riqnmlolnhifnnnggil:ronh rn o o o n 90-(>-;@) V V V V |
  1
300/ {rn {rn {njj {lk |
  1
<0:;8: {rn {nok {nok {njj {nji 90-(>-; {in {rn |
  1
<0:;8: {rn {noj {noj {im {noi 90-(>-; {njh {rn |
  1
:;8: {njg {njf {njf {noj {nio 90-(>-; |
  1
/+36,+r:&:r>++-6= {rn {rn {rn {ik |
  1
):-+:' {rn {ik {nin |
  1
:336/,:r<*-): {rn o o rjqlkfffffffffffffi o o n fqgmhkijfgfkmkjhgh:roni niqojoooooooooooon o n V V |
  1
/061+ {rn fqgmhkijfgfkmkjhgh:roni niqojoooooooooooon jqfjoooooooooooonn |
  1
<0:;8: {rn {nim {nil {ig {nnm 90-(>-; {nik {rn |
  1
:;8: {nij {nml {nnh {nnn {nii 90-(>-; |
  1
<0:;8: {rn {nih {if {hk {nmh 90-(>-; {nnj {rn |
  1
<0:;8: {rn {if {nig {nim {nif -:):-,:; {nnj {rn |
  1
300/ {rn {rn {nih {nho |
  1
/+36,+r:&:r>++-6= {rn {rn {rn {ho |
  1
):-+:' {rn {ho {nhn |
  1
,+->687+r<*-): {rn hqghkfffffffffffgm rmiqmj ni iqnmlolnhifnnnggil:ronh n o V V |
  1
<0:;8: {rn {nhm {hn {nil {nhl 90-(>-; {nmn {rn |
  1
<0:;8: {rn {hn {nhk {hl {nmi 90-(>-; {nmn {rn |
  1
300/ {rn {rn {nhk {nhj |
  1
/+36,+r:&:r>++-6= {rn {rn {rn {hm |
  1
):-+:' {rn {hm {nhi |
  1
,+->687+r<*-): {rn rhqghkffffffffffffn mn ni riqnmlolnhifnnnggil:ronh rn o V V |
  1
<0:;8: {rn {hk {hl {nhh {nhg 90-(>-; {hj {rn |
  1
:;8: {nhf {ngo {hg {nmo {ngn 90-(>-; |
  1
:;8: {ngm {hh {ngl {nnl {ngk 90-(>-; |
  1
9><: {ngj {nhj {hj {i {rn {ngi 90-(>-; ,6183: |
  1
/061+ {rn hqghkffffffffffffn rmnqohigigmkkjfkjfl ni |
  1
/061+ {rn rhqghjoooooooooooof rmnqohigigmkkjfkjfl ni |
  1
<0:;8: {rn {ngh {go {gl {nlh -:):-,:; {nll {rn |
  1
<0:;8: {rn {go {ngh {gg {nkn 90-(>-; {nll {rn |
  1
300/ {rn {rn {go {njl |
  1
/+36,+r:&:r>++-6= {rn {rn {rn {gn |
  1
,+->687+r<*-): {rn lmqlhj lmqlhj ni n riqnmlolnhifnnnggil:ronh o V V |
  1
<0:;8: {rn {gl {gm {ngg {ngf 90-(>-; {gk {rn |
  1
:;8: {nfo {nfn {gi {gl {nfm 90-(>-; |
  1
9><: {nfl {nfk {gk {i {rn {nfj 90-(>-; ,6183: |
  1
/061+ {rn lmqlhj lmqlhj ni |
  1
<0:;8: {rn {gf {gg {nfi {nfh 90-(>-; {fo {rn |
  1
:;8: {nfg {nff {fm {nlm {moo 90-(>-; |
  1
/061+ {rn rlmqlhj lmqlhj ni |
  1
<0:;8: {rn {nfi {ngg {fk {nkk -:):-,:; {mon {rn |
  1
:;8: {mom {nki {nkf {fk {mol 90-(>-; |
  1
/+36,+r:&:r>++-6= {rn {rn {rn {fj |
  1
):-+:' {rn {nfh {mok |
  1
,+->687+r<*-): {rn rlmqlhj rlmqlhj o o o n V V |
  1
/+36,+r:&:r>++-6= {rn {rn {rn {fi |
  1
):-+:' {rn {ngf {moj |
  1
,+->687+r<*-): {rn lmqlhj rlmqlhj o o o n V V |
  1
-:9@)+r:&:r>++-6= {rn {rn {noo {jg {l {k |
  1
92:,7r:&:r>++-6= {rn {moi {rn {non |
  1
9><: {moh {nlg {nll {i {rn {mog 90-(>-; ,6183: |
  1
/3>1:r,*-9><: {rn rlmqlhj rlmqlhj o rn iqnmlolnhifnnnggil:ronh o o o n 90-(>-;@) V V V V |
  1
<0:;8: {rn {njj {njj {nok {nji -:):-,:; {nol {rn |
  1
:;8: {mof {mno {mno {nok {mnn 90-(>-; |
  1
300/ {rn {mon {noj {nfk |
  1
/+36,+r:&:r>++-6= {rn {rn {rn {noi |
  1
):-+:' {rn {noi {mnm |
  1
:336/,:r<*-): {rn o o o o o n nqojfmgkkfiojiljik:ronj nhqlooooooooooooon o n V V |
  1
/061+ {rn fqgmhkijfgfkmkjhgh:roni niqojoooooooooooon rjqlkfffffffffffffi |
  1
<0:;8: {rn {mnl {nnn {nnk {nif 90-(>-; {nik {rn |
  1
<0:;8: {rn {nnn {mnl {nnf {nhl -:):-,:; {nik {rn |
  1
300/ {rn {rn {mnl {mnk |
  1
/+36,+r:&:r>++-6= {rn {rn {rn {nnm |
  1
,+->687+r<*-): {rn rhqghjooooooooooong rmiqmj ni n riqnmlolnhifnnnggil:ronh o V V |
  1
<0:;8: {rn {mnj {nnl {mni {mnh 90-(>-; {nnj {rn |
  1
<0:;8: {rn {nnk {mnj {mng {mnf 90-(>-; {nnj {rn |
  1
:;8: {mmo {nnh {mmn {nim {mmm 90-(>-; |
  1
9><: {mml {mmk {nnj {i {rn {mmj 90-(>-; ,6183: |
  1
/061+ {rn hqghkfffffffffffgm rmiqmj ni |
  1
<0:;8: {rn {mmi {nnf {mmh {mmg 90-(>-; {nmn {rn |
  1
:;8: {mmf {nml {mlo {nnf {mln 90-(>-; |
  1
<0:;8: {rn {nmo {mmi {mlm {mll 90-(>-; {nmn {rn |
  1
9><: {mlk {mnk {nmn {i {rn {mlj 90-(>-; ,6183: |
  1
/061+ {rn rhqghjooooooooooong rmiqmj ni |
  1
<0:;8: {rn {mlm {mni {nmj {nhg -:):-,:; {mli {rn |
  1
:;8: {mlh {ngo {ngl {nmj {mlg 90-(>-; |
  1
/+36,+r:&:r>++-6= {rn {rn {rn {nmi |
  1
):-+:' {rn {nmi {mlf |
  1
,+->687+r<*-): {rn rhqghjoooooooooooof rmnqohigigmkkjfkjfl ni o o rn V V |
  1
/+36,+r:&:r>++-6= {rn {rn {rn {nmh |
  1
):-+:' {rn {nmh {mko |
  1
,+->687+r<*-): {rn hqghkffffffffffffn rmnqohigigmkkjfkjfl ni o o n V V |
  1
92:,7r:&:r>++-6= {rn {mkn {rn {nmg |
  1
<01:r,*-9><: {rn o o ni o o n nqlhhigmnkgojonhkk:ronj mmqj o n V V o n mmqj 90-(>-; V V V V |
  1
<0:;8: {rn {nlm {nln {mkm {mkl 90-(>-; {nll {rn |
  1
<0:;8: {rn {nkl {mkm {nli {ngf -:):-,:; {mon {rn |
  1
:;8: {mkk {nkf {nfn {nli {mkj 90-(>-; |
  1
/+36,+r:&:r>++-6= {rn {rn {rn {nlh |
  1
):-+:' {rn {ngf {mki |
  1
,+->687+r<*-): {rn lmqlhj lmqlhj o o o n V V |
  1
92:,7r:&:r>++-6= {rn {mkh {rn {nlg |
  1
9><: {mkg {mkf {njh {i {rn {mjo 90-(>-; ,6183: |
  1
/3>1:r,*-9><: {rn lmqlhj lmqlhj o n riqnmlolnhifnnnggil:ronh o o o rn 90-(>-;@) V V V V |
  1
<0:;8: {rn {mkm {nkl {nko {nfh -:):-,:; {mon {rn |
  1
:;8: {mjn {nff {nki {nko {mjm 90-(>-; |
  1
/+36,+r:&:r>++-6= {rn {rn {rn {nkn |
  1
):-+:' {rn {mkl {mjl |
  1
,+->687+r<*-): {rn rlmqlhj lmqlhj o o o n V V |
  1
300/ {rn {rn {ngg {nfk |
  1
/+36,+r:&:r>++-6= {rn {rn {rn {nkk |
  1
,+->687+r<*-): {rn rlmqlhj rlmqlhj o n riqnmlolnhifnnnggil:ronh o V V |
  1
/061+ {rn rlmqlhj rlmqlhj o |
  1
/061+ {rn lmqlhj rlmqlhj o |
  1
-:9@)+r:&:r>++-6= {rn {rn {njm {non {l {k |
  1
92:,7r:&:r>++-6= {rn {mjk {rn {njl |
  1
/3>1:r,*-9><: {rn rlmqlhj lmqlhj o iqnmlolnhifnnnggil:ronh n o o o rn 90-(>-;@) V V V V |
  1
/+36,+r:&:r>++-6= {rn {rn {rn {nji |
  1
):-+:' {rn {nji {mjj |
  1
:336/,:r<*-): {rn o o rjqlkfffffffffffffi o o n nqojfmgkkfiojiljik:ronj nhqlooooooooooooon o n V V |
  1
/061+ {rn nqojfmgkkfiojiljik:ronj nhqlooooooooooooon o |
  1
<0:;8: {rn {nil {nim {mji {mjh 90-(>-; {nik {rn |
  1
9><: {mjg {mjf {nik {i {rn {mio 90-(>-; ,6183: |
  1
<0:;8: {rn {nig {nih {min {mim 90-(>-; {nnj {rn |
  1
<0:;8: {rn {nhh {mil {nih {mnh -:):-,:; {mli {rn |
  1
:;8: {mik {ngl {mij {nih {mii 90-(>-; |
  1
<0:;8: {rn {mih {mji {nig {mnf -:):-,:; {mig {rn |
  1
:;8: {mif {mho {mmn {nig {mhn 90-(>-; |
  1
/+36,+r:&:r>++-6= {rn {rn {rn {nif |
  1
):-+:' {rn {nif {mhm |
  1
,+->687+r<*-): {rn hqghkfffffffffffgm rmiqmj ni o o n V V |
  1
92:,7r:&:r>++-6= {rn {mhl {rn {nho |
  1
9><: {mhk {rn {mig {i {rn {mhj -:):-,:; ,6183: |
  1
/3>1:r,*-9><: {rn hqghjoooooooooooof mn ni n riqnmlolnhifnnnggil:ronh o o o rn 90-(>-;@) V V V V |
  1
<0:;8: {rn {nhk {nhm {mhi {mhh -:):-,:; {nmn {rn |
  1
<0:;8: {rn {mji {mih {nhm {mmg -:):-,:; {mig {rn |
  1
:;8: {mhg {mlo {mhf {nhm {mgo 90-(>-; |
  1
/+36,+r:&:r>++-6= {rn {rn {rn {nhl |
  1
):-+:' {rn {nhl {mgn |
  1
,+->687+r<*-): {rn rhqghjooooooooooong rmiqmj ni o o n V V |
  1
<0:;8: {rn {mil {nhh {nhk {mll -:):-,:; {mli {rn |
  1
:;8: {mgm {mgl {ngo {nhk {mgk 90-(>-; |
  1
92:,7r:&:r>++-6= {rn {mgj {rn {nhj |
  1
/3>1:r,*-9><: {rn rhqghjooooooooooong rmiqmj ni rn iqnmlolnhifnnnggil:ronh o o o n 90-(>-;@) V V V V |
  1
300/ {rn {rn {mlm {mkf |
  1
/+36,+r:&:r>++-6= {rn {rn {rn {nhg |
  1
:336/,:r<*-): {rn o o lnqgoooooooooooook o o rn nqlhhigmnkgojonhkk:ronj mmqj o n V V |
  1
/061+ {rn rhqghjoooooooooooof rmnqohigigmkkjfkjfl lnqgoooooooooooook |
  1
/061+ {rn hqghkffffffffffffn rmnqohigigmkkjfkjfl lnqgoooooooooooook |
  1
-:9@)+r:&:r>++-6= {rn {rn {ngj {nmg {l {k |
  1
<0:;8: {rn {ngg {nfi {ngh {mkl -:):-,:; {mon {rn |
  1
:;8: {mgi {nfn {nff {ngh {mgh 90-(>-; |
  1
/+36,+r:&:r>++-6= {rn {rn {rn {ngf |
  1
,+->687+r<*-): {rn lmqlhj rlmqlhj o iqnmlolnhifnnnggil:ronh n o V V |
  1
/061+ {rn lmqlhj lmqlhj o |
  1
-:9@)+r:&:r>++-6= {rn {rn {nfl {nlg {l {k |
  1
92:,7r:&:r>++-6= {rn {mgg {rn {nfk |
  1
9><: {mgf {nmg {mli {i {rn {mfo 90-(>-; ,6183: |
  1
/3>1:r,*-9><: {rn o o o o o rn riqnmlolnhifnnnggil:ronh rn o 90-(>-;@) V V V V |
  1
/+36,+r:&:r>++-6= {rn {rn {rn {nfh |
  1
,+->687+r<*-): {rn rlmqlhj lmqlhj o riqnmlolnhifnnnggil:ronh rn o V V |
  1
/061+ {rn rlmqlhj lmqlhj o |
  1
-:9@)+r:&:r>++-6= {rn {rn {moh {njl {l {k |
  1
/061+ {rn nqojfmgkkfiojiljik:ronj nhqlooooooooooooon rjqlkfffffffffffffi |
  1
<0:;8: {rn {mng {mmh {mnl {mjh -:):-,:; {mig {rn |
  1
:;8: {mfn {mmn {mlo {mnl {mfm 90-(>-; |
  1
92:,7r:&:r>++-6= {rn {mfl {rn {mnk |
  1
9><: {mfk {nho {mfj {i {rn {mfi 90-(>-; ,6183: |
  1
/3>1:r,*-9><: {rn hqghkfffffffffffgm rmiqmj ni riqnmlolnhifnnnggil:ronh rn o o o n 90-(>-;@) V V V V |
  1
<0:;8: {rn {mfh {mfg {mnj {mim -:):-,:; {mfj {rn |
  1
:;8: {mff {mij {mho {mnj {loo 90-(>-; |
  1
<0:;8: {rn {mni {mlm {mfh {lon -:):-,:; {mli {rn |
  1
/+36,+r:&:r>++-6= {rn {rn {rn {mnh |
  1
):-+:' {rn {mim {lom |
  1
,+->687+r<*-): {rn hqghjoooooooooooof mnqhj lnqgoooooooooooook iqnmlolnhifnnnggil:ronh n o V V |
  1
<0:;8: {rn {mmh {mng {mfg {lol -:):-,:; {mig {rn |
  1
300/ {rn {rn {mji {mmk |
  1
/+36,+r:&:r>++-6= {rn {rn {rn {mnf |
  1
):-+:' {rn {mim {lok |
  1
,+->687+r<*-): {rn hqghkfffffffffffgm rmiqmj jfqmj riqnmlolnhifnnnggil:ronh rn o V V |
  1
/061+ {rn hqghkfffffffffffgm rmiqmj jfqmj |
  1
-:9@)+r:&:r>++-6= {rn {rn {mml {nho {l {k |
  1
92:,7r:&:r>++-6= {rn {loj {rn {mmk |
  1
/3>1:r,*-9><: {rn hqghkfffffffffffgm rmiqmj jfqmj o o rn riqnmlolnhifnnnggil:ronh rn o 90-(>-;@) V V V V |
  1
<0:;8: {rn {mfg {mfh {mmi {mhh 90-(>-; {mfj {rn |
  1
:;8: {loi {mgl {mhf {mhi {loh 90-(>-; |
  1
/+36,+r:&:r>++-6= {rn {rn {rn {mmg |
  1
):-+:' {rn {mhh {log |
  1
,+->687+r<*-): {rn rhqghkffffffffffffn mn jfqmj iqnmlolnhifnnnggil:ronh n o V V |
  1
/061+ {rn rhqghjooooooooooong rmiqmj jfqmj |
  1
/+36,+r:&:r>++-6= {rn {rn {rn {mll |
  1
):-+:' {rn {mhh {lof |
  1
,+->687+r<*-): {rn rhqghj rnqghkffffffffffffi lnqgoooooooooooook riqnmlolnhifnnnggil:ronh rn o V V |
  1
-:9@)+r:&:r>++-6= {rn {rn {mlk {nhj {l {k |
  1
/+36,+r:&:r>++-6= {rn {rn {rn {mkl |
  1
,+->687+r<*-): {rn lmqlhj lmqlhj o rn iqnmlolnhifnnnggil:ronh o V V |
  1
-:9@)+r:&:r>++-6= {rn {rn {mkg {nfk {l {k |
  1
92:,7r:&:r>++-6= {rn {lno {rn {mkf |
  1
/3>1:r,*-9><: {rn nqlhhigmnkgojonhkk:ronj mmqj lnqgoooooooooooook o o n iqnmlolnhifnnnggil:ronh n o 90-(>-;@) V V V V |
  1
/+36,+r:&:r>++-6= {rn {rn {rn {mjh |
  1
,+->687+r<*-): {rn rhqghjooooooooooong rmiqmj jfqmj rn iqnmlolnhifnnnggil:ronh o V V |
  1
-:9@)+r:&:r>++-6= {rn {rn {mjg {mnk {l {k |
  1
92:,7r:&:r>++-6= {rn {lnn {rn {mjf |
  1
300/ {rn {rn {mfh {mjf |
  1
/3>1:r,*-9><: {rn rhqghkffffffffffffn mn ni iqnmlolnhifnnnggil:ronh n o o o rn 90-(>-;@) V V V V |
  1
<0:;8: {rn {mhi {min {mil {lon 90-(>-; {mfj {rn |
  1
<0:;8: {rn {min {mhi {mih {lol 90-(>-; {mfj {rn |
  1
/+36,+r:&:r>++-6= {rn {rn {rn {mim |
  1
,+->687+r<*-): {rn hqghjoooooooooooof mn ni o o n V V |
  1
:;8: {lnm {mij {mgl {mfh {lnl 90-(>-; |
  1
/061+ {rn hqghjoooooooooooof mn lnqgoooooooooooook |
  1
:;8: {lnk {mhf {mho {mfg {lnj 90-(>-; |
  1
/061+ {rn hqghjoooooooooooof mn jfqmj |
  1
-:9@)+r:&:r>++-6= {rn {rn {mhk {mmk {l {k |
  1
/+36,+r:&:r>++-6= {rn {rn {rn {mhh |
  1
,+->687+r<*-): {rn rhqghkffffffffffffn mn ni o o n V V |
  1
/061+ {rn rhqghkffffffffffffn mn jfqmj |
  1
/061+ {rn rhqghkffffffffffffn mn lnqgoooooooooooook |
  1
-:9@)+r:&:r>++-6= {rn {rn {mgf {mkf {l {k |
  1
-:9@)+r:&:r>++-6= {rn {rn {mfk {mjf {l {k |
  1
/+36,+r:&:r>++-6= {rn {rn {rn {lon |
  1
,+->687+r<*-): {rn rlqflhkffffffffffgh mn lnqgoooooooooooook rn iqnmlolnhifnnnggil:ronh o V V |
  1
/+36,+r:&:r>++-6= {rn {rn {rn {lol |
  1
,+->687+r<*-): {rn hqghjoooooooooooof mn jfqmj n riqnmlolnhifnnnggil:ronh o V V |
  0
LWPOLYLINE
  5
459DF
330
458D6
100
AcDbEntity
  8
0
100
AcDbPolyline
 90
        4
 70
     1
 43
0.0
 38
59.25
 10
0.9000000000000007
 20
13.0
 10
0.9000000000000012
 20
20.5
 10
-0.8999999999999987
 20
20.5
 10
-0.8999999999999992
 20
13.0
  0
LWPOLYLINE
  5
459E2
330
458D6
100
AcDbEntity
  8
0
100
AcDbPolyline
 90
        4
 70
     1
 43
0.0
 38
16.0
 10
-0.4999999999999984
 20
25.4560984551849
 10
0.5000000000000016
 20
25.4560984551849
 10
0.5000000000000016
 20
29.9560984551849
 10
-0.4999999999999984
 20
29.9560984551849
  0
CIRCLE
  5
459E3
330
458D6
100
AcDbEntity
  8
0
100
AcDbCircle
 10
-27.78495167955256
 20
0.0000000000000034
 30
16.0
 40
2.25
  0
CIRCLE
  5
459E4
330
458D6
100
AcDbEntity
  8
0
100
AcDbCircle
 10
-27.78495167955256
 20
0.0000000000000034
 30
16.0
 40
1.75
  0
LWPOLYLINE
  5
45A4B
330
458D6
100
AcDbEntity
  8
0
100
AcDbPolyline
 90
        8
 70
     1
 43
0.0
 38
16.0
 10
-13.46608228887203
 20
22.47585866405722
 10
-13.46608228887203
 20
25.85085866405723
 10
-12.06892731278094
 20
25.85085866405723
 10
-12.06892731278094
 20
26.60085866405722
 10
-15.44392731278094
 20
26.60085866405722
 10
-15.44392731278094
 20
25.85085866405723
 10
-14.21608228887203
 20
25.85085866405723
 10
-14.21608228887203
 20
22.47585866405722
  0
LWPOLYLINE
  5
45A56
330
458D6
100
AcDbEntity
  8
0
100
AcDbPolyline
 90
        5
 70
     0
 43
0.0
 38
16.0
 10
-19.75429835855377
 20
18.68357255371662
 10
-20.75429835855377
 20
19.68357255371662
 10
-20.75429835855377
 20
16.68357255371662
 10
-17.75429835855376
 20
16.68357255371662
 10
-18.75429835855376
 20
17.68357255371663
  0
ARC
  5
45A57
330
458D6
100
AcDbEntity
  8
0
100
AcDbCircle
 10
-2.121376706886614
 20
4.707518961011437
 30
16.0
 40
22.5
100
AcDbArc
 50
128.3553271684267
 51
141.59925740574
  0
ARC
  5
45A58
330
458D6
100
AcDbEntity
  8
0
100
AcDbCircle
 10
-1.106135997404784
 20
3.726769005821999
 30
16.0
 40
22.5
100
AcDbArc
 50
131.7328531590065
 51
141.6617807802051
  0
ATTDEF
  5
45A81
330
458D6
100
AcDbEntity
  8
ATTRIBUTES
100
AcDbText
 10
-31.09322427109526
 20
-10.60756856458401
 30
0.0
 40
1.26014404603307
  1
ALLEN-BRADLEY
100
AcDbAttributeDefinition
  3
MANUFACTURER NAME?
  2
AC_VND_LABEL
 70
     1
  0
ATTDEF
  5
45A82
330
458D6
100
AcDbEntity
  8
ATTRIBUTES
100
AcDbText
 10
-31.09322427109526
 20
-13.23286866048624
 30
0.0
 40
1.26014404603307
  1
140M-C-DN*
100
AcDbAttributeDefinition
  3
CATALOG NUMBER?
  2
AC_PART_NO
 70
     1
  0
ATTDEF
  5
45A83
330
458D6
100
AcDbEntity
  8
ATTRIBUTES
100
AcDbText
 10
-31.09322427109526
 20
-15.85816875638847
 30
0.0
 40
1.26014404603307
  1
DOOR COUPLING HANDLE FOR 140M
100
AcDbAttributeDefinition
  3
PART DESCRIPTION?
  2
AC_DESCRIPTION
 70
     1
  0
ATTDEF
  5
45A84
330
458D6
100
AcDbEntity
  8
ATTRIBUTES
100
AcDbText
 10
-31.09322427109526
 20
-18.4834688522907
 30
0.0
 40
1.26014404603307
  1

100
AcDbAttributeDefinition
  3
DEVICE ID?
  2
DEVICE_ID
 70
     1
  0
ATTDEF
  5
45A85
330
458D6
100
AcDbEntity
  8
ATTRIBUTES
100
AcDbText
 10
-31.09322427109526
 20
-21.10876894819293
 30
0.0
 40
1.26014404603307
  1

100
AcDbAttributeDefinition
  3
CUSTOMER PART NUMBER?
  2
AC_CPART_NO
 70
     1
  0
ATTDEF
  5
45A86
330
458D6
100
AcDbEntity
  8
ATTRIBUTES
100
AcDbText
 10
-31.09322427109526
 20
-23.73406904409516
 30
0.0
 40
1.26014404603307
  1

100
AcDbAttributeDefinition
  3
CUSTOMER NOTE?
  2
AC_NOTE
 70
     1
  0
ATTDEF
  5
45A87
330
458D6
100
AcDbEntity
  8
ATTRIBUTES
100
AcDbText
 10
-31.09322427109526
 20
-26.35936913999739
 30
0.0
 40
1.26014404603307
  1

100
AcDbAttributeDefinition
  3
FASTENER DATA?
  2
FASTENER
 70
     1
  0
ATTDEF
  5
45A88
330
458D6
100
AcDbEntity
  8
ATTRIBUTES
100
AcDbText
 10
-31.09322427109526
 20
-28.98466923589962
 30
0.0
 40
1.26014404603307
  1
MM
100
AcDbAttributeDefinition
  3
UNIT OF SCALE?
  2
AC_SCALE_UNIT
 70
     1
  0
ATTDEF
  5
45A89
330
458D6
100
AcDbEntity
  8
ATTRIBUTES
100
AcDbText
 10
-31.09322427109526
 20
-31.60996933180185
 30
0.0
 40
1.26014404603307
  1
0
100
AcDbAttributeDefinition
  3
VIEW CODE?
  2
AC_VIEW_CODE
 70
     1
  0
DIMENSION
  5
45A95
330
458D6
100
AcDbEntity
  8
AREA1
100
AcDbDimension
  2
*D0
 10
32.375
 20
37.69981910399383
 30
0.0
 11
0.3737676783425741
 21
37.69981910399383
 31
0.0
 70
   160
 71
     5
 42
-1.0
  3
ABECAD_3D
100
AcDbAlignedDimension
 13
-32.375
 23
32.375
 33
0.0
 14
32.375
 24
32.375
 34
0.0
100
AcDbRotatedDimension
  0
DIMENSION
  5
45AA2
330
458D6
100
AcDbEntity
  8
AREA1
100
AcDbDimension
  2
*D1
 10
37.46127516637778
 20
-32.375
 30
0.0
 11
37.46127516637779
 21
0.1604247200075122
 31
0.0
 70
   160
 71
     5
 42
-1.0
  3
ABECAD_3D
100
AcDbAlignedDimension
 13
32.375
 23
32.375
 33
0.0
 14
32.375
 24
-32.375
 34
0.0
 50
90.0
100
AcDbRotatedDimension
  0
POINT
  5
45AC3
330
458D6
100
AcDbEntity
  8
SNAP_POINTS
100
AcDbPoint
 10
0.0
 20
0.0
 30
0.0000000000000009
  0
DIMENSION
  5
45B9F
330
458D6
100
AcDbEntity
  8
AREA2
100
AcDbDimension
  2
*D2
 10
46.50056226407436
 20
32.375
 30
-5.350000000000008
 11
46.50056226407437
 21
24.55550898566474
 31
-32.375
 70
   160
 71
     5
 42
-1.0
210
0.0
220
-1.0
230
0.0
  3
ABECAD_3D
100
AcDbAlignedDimension
 13
7.875
 23
53.375
 33
59.25
 14
17.3
 24
32.375
 34
-5.349999999999999
 50
90.0
100
AcDbRotatedDimension
  0
ENDSEC
  0
SECTION
  2
OBJECTS
  0
DICTIONARY
  5
458CB
330
0
100
AcDbDictionary
281
     1
  3
ACAD_COLOR
350
45B84
  3
ACAD_GROUP
350
458CC
  3
ACAD_LAYOUT
350
458FB
  3
ACAD_MATERIAL
350
45B83
  3
ACAD_MLINESTYLE
350
458D9
  3
ACAD_PLOTSETTINGS
350
458FC
  3
ACAD_PLOTSTYLENAME
350
458F9
  3
ACDBHEADERROUNDTRIPXREC
350
45C24
  3
ACDBVARIABLEDICTIONARY
350
458E1
  3
DWGPROPS
350
45C19
  0
DICTIONARY
  5
45930
330
458D6
100
AcDbDictionary
280
     1
281
     1
  3
ACAD_LAYOUTSELFREF
360
45C0C
  0
DICTIONARY
  5
4592E
330
458D3
100
AcDbDictionary
280
     1
281
     1
  3
ACAD_LAYOUTSELFREF
360
45C0B
  0
DICTIONARY
  5
45B84
102
{ACAD_REACTORS
330
458CB
102
}
330
458CB
100
AcDbDictionary
281
     1
  0
DICTIONARY
  5
458CC
102
{ACAD_REACTORS
330
458CB
102
}
330
458CB
100
AcDbDictionary
281
     1
  0
DICTIONARY
  5
458FB
102
{ACAD_REACTORS
330
458CB
102
}
330
458CB
100
AcDbDictionary
281
     1
  3
Layout1
350
458FE
  3
Model
350
458FD
  0
DICTIONARY
  5
45B83
102
{ACAD_REACTORS
330
458CB
102
}
330
458CB
100
AcDbDictionary
281
     1
  0
DICTIONARY
  5
458D9
102
{ACAD_REACTORS
330
458CB
102
}
330
458CB
100
AcDbDictionary
281
     1
  3
STANDARD
350
458DA
  0
DICTIONARY
  5
458FC
102
{ACAD_REACTORS
330
458CB
102
}
330
458CB
100
AcDbDictionary
281
     1
  0
ACDBDICTIONARYWDFLT
  5
458F9
102
{ACAD_REACTORS
330
458CB
102
}
330
458CB
100
AcDbDictionary
281
     1
  3
Normal
350
458FA
100
AcDbDictionaryWithDefault
340
458FA
  0
DICTIONARY
  5
45C24
102
{ACAD_REACTORS
330
458CB
102
}
330
458CB
100
AcDbDictionary
281
     1
  3
CEPSNTYPE
350
45C2E
  3
DIMSTYLEDATA
350
45C32
  3
FINGERPRINTGUID
350
45C2F
  3
HYPERLINKBASE
350
45C27
  3
INSUNITS
350
45C2D
  3
LAYOUTDICT
350
45C29
  3
LWETCUNION
350
45C2C
  3
PLOTSETDICT
350
45C2A
  3
PLOTSTYLNAMDICT
350
45C2B
  3
PSVPSCALE
350
45C31
  3
PUCSBASE
350
45C35
  3
PUCSORGBACK
350
45C3B
  3
PUCSORGBOTTOM
350
45C37
  3
PUCSORGFRONT
350
45C3A
  3
PUCSORGLEFT
350
45C38
  3
PUCSORGRIGHT
350
45C39
  3
PUCSORGTOP
350
45C36
  3
PUCSORTHOREF
350
45C33
  3
PUCSORTHOVIEW
350
45C34
  3
STYLESHEET
350
45C28
  3
TSTACKALIGN
350
45C25
  3
TSTACKSIZE
350
45C26
  3
UCSBASE
350
45C3E
  3
UCSORGBACK
350
45C44
  3
UCSORGBOTTOM
350
45C40
  3
UCSORGFRONT
350
45C43
  3
UCSORGLEFT
350
45C41
  3
UCSORGRIGHT
350
45C42
  3
UCSORGTOP
350
45C3F
  3
UCSORTHOREF
350
45C3C
  3
UCSORTHOVIEW
350
45C3D
  3
VERSIONGUID
350
45C30
  0
DICTIONARY
  5
458E1
102
{ACAD_REACTORS
330
458CB
102
}
330
458CB
100
AcDbDictionary
281
     1
  3
DIMADEC
350
458E2
  3
DIMASSOC
350
45B90
  3
PROJECTNAME
350
45B91
  0
XRECORD
  5
45C19
102
{ACAD_REACTORS
330
458CB
102
}
330
458CB
100
AcDbXrecord
280
     1
  1
DWGPROPS COOKIE
  2

  3

  4

  6

  7

  8
colin
  9

300
=
301
=
302
=
303
=
304
=
305
=
306
=
307
=
308
=
309
=
 40
0.0771908796296296
 41
2451760.428845717
 42
2452863.49868831
  1

 90
        0
  0
XRECORD
  5
45C0C
102
{ACAD_REACTORS
330
45930
102
}
330
45930
100
AcDbXrecord
280
     1
340
458D6
  0
XRECORD
  5
45C0B
102
{ACAD_REACTORS
330
4592E
102
}
330
4592E
100
AcDbXrecord
280
     1
340
458D3
  0
LAYOUT
  5
458FE
102
{ACAD_XDICTIONARY
360
45C1D
102
}
102
{ACAD_REACTORS
330
458FB
102
}
330
458FB
100
AcDbPlotSettings
  1

  2
HP LaserJet 5000 Series PCL 6
  4

  6

 40
0.0
 41
0.0
 42
0.0
 43
0.0
 44
0.0
 45
0.0
 46
0.0
 47
0.0
 48
0.0
 49
0.0
140
0.0
141
0.0
142
1.0
143
1.0
 70
   688
 72
     0
 73
     0
 74
     5
  7
Default R14 pen assignments.ctb
 75
    16
147
1.0
148
0.0
149
0.0
100
AcDbLayout
  1
Layout1
 70
     1
 71
     1
 10
0.0
 20
0.0
 11
12.0
 21
9.0
 12
0.0
 22
0.0
 32
0.0
 14
1.000000000000000E+20
 24
1.000000000000000E+20
 34
1.000000000000000E+20
 15
-1.000000000000000E+20
 25
-1.000000000000000E+20
 35
-1.000000000000000E+20
146
0.0
 13
0.0
 23
0.0
 33
0.0
 16
1.0
 26
0.0
 36
0.0
 17
0.0
 27
1.0
 37
0.0
 76
     0
330
458D3
  0
LAYOUT
  5
458FD
102
{ACAD_XDICTIONARY
360
45C1B
102
}
102
{ACAD_REACTORS
330
458FB
102
}
330
458FB
100
AcDbPlotSettings
  1

  2
HP LaserJet 5000 Series PCL 6
  4

  6

 40
0.0
 41
0.0
 42
0.0
 43
0.0
 44
0.0
 45
0.0
 46
0.0
 47
0.0
 48
0.0
 49
0.0
140
0.0
141
0.0
142
1.0
143
1.0
 70
  1712
 72
     0
 73
     0
 74
     0
  7
Default R14 pen assignments.ctb
 75
     0
147
1.0
148
0.0
149
0.0
100
AcDbLayout
  1
Model
 70
     1
 71
     0
 10
0.0
 20
0.0
 11
12.0
 21
9.0
 12
0.0
 22
0.0
 32
0.0
 14
0.0
 24
0.0
 34
0.0
 15
0.0
 25
0.0
 35
0.0
146
0.0
 13
0.0
 23
0.0
 33
0.0
 16
1.0
 26
0.0
 36
0.0
 17
0.0
 27
1.0
 37
0.0
 76
     0
330
458D6
  0
MLINESTYLE
  5
458DA
102
{ACAD_REACTORS
330
458D9
102
}
330
458D9
100
AcDbMlineStyle
  2
STANDARD
 70
     0
  3

 62
   256
 51
90.0
 52
90.0
 71
     2
 49
0.5
 62
   256
  6
BYLAYER
 49
-0.5
 62
   256
  6
BYLAYER
  0
ACDBPLACEHOLDER
  5
458FA
102
{ACAD_REACTORS
330
458F9
102
}
330
458F9
  0
XRECORD
  5
45C2E
102
{ACAD_REACTORS
330
45C24
102
}
330
45C24
100
AcDbXrecord
280
     1
 90
        0
  0
XRECORD
  5
45C32
102
{ACAD_REACTORS
330
45C24
102
}
330
45C24
100
AcDbXrecord
280
     1
1000
DSTYLE
1002
{
1070
   276
 70
     2
1070
   279
 70
     2
1070
   289
 70
     2
1002
}
  0
XRECORD
  5
45C2F
102
{ACAD_REACTORS
330
45C24
102
}
330
45C24
100
AcDbXrecord
280
     1
  1
{6E0CF4B8-225E-11D4-A150-00A0CC3303EC}
  0
XRECORD
  5
45C27
102
{ACAD_REACTORS
330
45C24
102
}
330
45C24
100
AcDbXrecord
280
     1
  1

  0
XRECORD
  5
45C2D
102
{ACAD_REACTORS
330
45C24
102
}
330
45C24
100
AcDbXrecord
280
     1
 90
        0
  0
XRECORD
  5
45C29
102
{ACAD_REACTORS
330
45C24
102
}
330
45C24
100
AcDbXrecord
280
     1
340
458FB
  0
XRECORD
  5
45C2C
102
{ACAD_REACTORS
330
45C24
102
}
330
45C24
100
AcDbXrecord
280
     1
 90
    14877
  0
XRECORD
  5
45C2A
102
{ACAD_REACTORS
330
45C24
102
}
330
45C24
100
AcDbXrecord
280
     1
340
458FC
  0
XRECORD
  5
45C2B
102
{ACAD_REACTORS
330
45C24
102
}
330
45C24
100
AcDbXrecord
280
     1
340
458F9
  0
XRECORD
  5
45C31
102
{ACAD_REACTORS
330
45C24
102
}
330
45C24
100
AcDbXrecord
280
     1
 40
0.0
  0
XRECORD
  5
45C35
102
{ACAD_REACTORS
330
45C24
102
}
330
45C24
100
AcDbXrecord
280
     1
340
0
  0
XRECORD
  5
45C3B
102
{ACAD_REACTORS
330
45C24
102
}
330
45C24
100
AcDbXrecord
280
     1
 10
0.0
 20
0.0
 30
0.0
  0
XRECORD
  5
45C37
102
{ACAD_REACTORS
330
45C24
102
}
330
45C24
100
AcDbXrecord
280
     1
 10
0.0
 20
0.0
 30
0.0
  0
XRECORD
  5
45C3A
102
{ACAD_REACTORS
330
45C24
102
}
330
45C24
100
AcDbXrecord
280
     1
 10
0.0
 20
0.0
 30
0.0
  0
XRECORD
  5
45C38
102
{ACAD_REACTORS
330
45C24
102
}
330
45C24
100
AcDbXrecord
280
     1
 10
0.0
 20
0.0
 30
0.0
  0
XRECORD
  5
45C39
102
{ACAD_REACTORS
330
45C24
102
}
330
45C24
100
AcDbXrecord
280
     1
 10
0.0
 20
0.0
 30
0.0
  0
XRECORD
  5
45C36
102
{ACAD_REACTORS
330
45C24
102
}
330
45C24
100
AcDbXrecord
280
     1
 10
0.0
 20
0.0
 30
0.0
  0
XRECORD
  5
45C33
102
{ACAD_REACTORS
330
45C24
102
}
330
45C24
100
AcDbXrecord
280
     1
340
0
  0
XRECORD
  5
45C34
102
{ACAD_REACTORS
330
45C24
102
}
330
45C24
100
AcDbXrecord
280
     1
 70
     0
  0
XRECORD
  5
45C28
102
{ACAD_REACTORS
330
45C24
102
}
330
45C24
100
AcDbXrecord
280
     1
  1

  0
XRECORD
  5
45C25
102
{ACAD_REACTORS
330
45C24
102
}
330
45C24
100
AcDbXrecord
280
     1
 90
        1
  0
XRECORD
  5
45C26
102
{ACAD_REACTORS
330
45C24
102
}
330
45C24
100
AcDbXrecord
280
     1
 90
       70
  0
XRECORD
  5
45C3E
102
{ACAD_REACTORS
330
45C24
102
}
330
45C24
100
AcDbXrecord
280
     1
340
0
  0
XRECORD
  5
45C44
102
{ACAD_REACTORS
330
45C24
102
}
330
45C24
100
AcDbXrecord
280
     1
 10
0.0
 20
0.0
 30
0.0
  0
XRECORD
  5
45C40
102
{ACAD_REACTORS
330
45C24
102
}
330
45C24
100
AcDbXrecord
280
     1
 10
0.0
 20
0.0
 30
0.0
  0
XRECORD
  5
45C43
102
{ACAD_REACTORS
330
45C24
102
}
330
45C24
100
AcDbXrecord
280
     1
 10
0.0
 20
0.0
 30
0.0
  0
XRECORD
  5
45C41
102
{ACAD_REACTORS
330
45C24
102
}
330
45C24
100
AcDbXrecord
280
     1
 10
0.0
 20
0.0
 30
0.0
  0
XRECORD
  5
45C42
102
{ACAD_REACTORS
330
45C24
102
}
330
45C24
100
AcDbXrecord
280
     1
 10
0.0
 20
0.0
 30
0.0
  0
XRECORD
  5
45C3F
102
{ACAD_REACTORS
330
45C24
102
}
330
45C24
100
AcDbXrecord
280
     1
 10
0.0
 20
0.0
 30
0.0
  0
XRECORD
  5
45C3C
102
{ACAD_REACTORS
330
45C24
102
}
330
45C24
100
AcDbXrecord
280
     1
340
0
  0
XRECORD
  5
45C3D
102
{ACAD_REACTORS
330
45C24
102
}
330
45C24
100
AcDbXrecord
280
     1
 70
     1
  0
XRECORD
  5
45C30
102
{ACAD_REACTORS
330
45C24
102
}
330
45C24
100
AcDbXrecord
280
     1
  1
{A47DFD2B-B20A-44C5-B936-F7DF54772E31}
  0
DICTIONARYVAR
  5
458E2
102
{ACAD_REACTORS
330
458E1
102
}
330
458E1
100
DictionaryVariables
280
     0
  1
0
  0
DICTIONARYVAR
  5
45B90
102
{ACAD_REACTORS
330
458E1
102
}
330
458E1
100
DictionaryVariables
280
     0
  1
1
  0
DICTIONARYVAR
  5
45B91
102
{ACAD_REACTORS
330
458E1
102
}
330
458E1
100
DictionaryVariables
280
     0
  1

  0
DICTIONARY
  5
45C1D
330
458FE
100
AcDbDictionary
280
     1
281
     1
  3
ACAD_XREC_ROUNDTRIP
360
45C1E
  0
DICTIONARY
  5
45C1B
330
458FD
100
AcDbDictionary
280
     1
281
     1
  3
ACAD_XREC_ROUNDTRIP
360
45C1C
  0
XRECORD
  5
45C1E
102
{ACAD_REACTORS
330
45C1D
102
}
330
45C1D
100
AcDbXrecord
280
     1
102
SHADEPLOT
 70
     0
102
SHADEPLOTRESLEVEL
 70
     2
102
SHADEPLOTCUSTOMDPI
 70
   300
  0
XRECORD
  5
45C1C
102
{ACAD_REACTORS
330
45C1B
102
}
330
45C1B
100
AcDbXrecord
280
     1
102
SHADEPLOT
 70
     0
102
SHADEPLOTRESLEVEL
 70
     2
102
SHADEPLOTCUSTOMDPI
 70
   300
  0
ENDSEC
  0
EOF
