  0
SECTION
  2
HEADER
  9
$ACADVER
  1
AC1014
  9
$ACADMAINTVER
 70
     8
  9
$DWGCODEPAGE
  3
ANSI_1252
  9
$INSBASE
 10
0.0
 20
0.0
 30
0.0
  9
$EXTMIN
 10
-1.0775
 20
-1.088853
 30
-5.195
  9
$EXTMAX
 10
3.386212
 20
1.627029
 30
0.815
  9
$LIMMIN
 10
0.0
 20
0.0
  9
$LIMMAX
 10
12.0
 20
9.0
  9
$ORTHOMODE
 70
     0
  9
$REGENMODE
 70
     1
  9
$FILLMODE
 70
     1
  9
$QTEXTMODE
 70
     0
  9
$MIRRTEXT
 70
     1
  9
$DRAGMODE
 70
     2
  9
$LTSCALE
 40
1.0
  9
$OSMODE
 70
    37
  9
$ATTMODE
 70
     0
  9
$TEXTSIZE
 40
0.2
  9
$TRACEWID
 40
0.05
  9
$TEXTSTYLE
  7
STANDARD
  9
$CLAYER
  8
0
  9
$CELTYPE
  6
BYLAYER
  9
$CECOLOR
 62
   256
  9
$CELTSCALE
 40
1.0
  9
$DELOBJ
 70
     1
  9
$DISPSILH
 70
     0
  9
$DIMSCALE
 40
0.0
  9
$DIMASZ
 40
0.18
  9
$DIMEXO
 40
0.0625
  9
$DIMDLI
 40
0.375
  9
$DIMRND
 40
0.0
  9
$DIMDLE
 40
0.0
  9
$DIMEXE
 40
0.18
  9
$DIMTP
 40
0.0
  9
$DIMTM
 40
0.0
  9
$DIMTXT
 40
0.18
  9
$DIMCEN
 40
0.09
  9
$DIMTSZ
 40
0.0
  9
$DIMTOL
 70
     0
  9
$DIMLIM
 70
     0
  9
$DIMTIH
 70
     0
  9
$DIMTOH
 70
     1
  9
$DIMSE1
 70
     0
  9
$DIMSE2
 70
     0
  9
$DIMTAD
 70
     0
  9
$DIMZIN
 70
     4
  9
$DIMBLK
  1

  9
$DIMASO
 70
     1
  9
$DIMSHO
 70
     1
  9
$DIMPOST
  1

  9
$DIMAPOST
  1

  9
$DIMALT
 70
     1
  9
$DIMALTD
 70
     2
  9
$DIMALTF
 40
25.4
  9
$DIMLFAC
 40
1.0
  9
$DIMTOFL
 70
     0
  9
$DIMTVP
 40
0.0
  9
$DIMTIX
 70
     0
  9
$DIMSOXD
 70
     0
  9
$DIMSAH
 70
     0
  9
$DIMBLK1
  1

  9
$DIMBLK2
  1

  9
$DIMSTYLE
  2
ABECAD_3V
  9
$DIMCLRD
 70
     0
  9
$DIMCLRE
 70
     0
  9
$DIMCLRT
 70
     0
  9
$DIMTFAC
 40
1.5
  9
$DIMGAP
 40
0.09
  9
$DIMJUST
 70
     0
  9
$DIMSD1
 70
     0
  9
$DIMSD2
 70
     0
  9
$DIMTOLJ
 70
     1
  9
$DIMTZIN
 70
     4
  9
$DIMALTZ
 70
     4
  9
$DIMALTTZ
 70
     4
  9
$DIMFIT
 70
     5
  9
$DIMUPT
 70
     1
  9
$DIMUNIT
 70
     7
  9
$DIMDEC
 70
     6
  9
$DIMTDEC
 70
     6
  9
$DIMALTU
 70
     2
  9
$DIMALTTD
 70
     2
  9
$DIMTXSTY
  7
STANDARD
  9
$DIMAUNIT
 70
     0
  9
$LUNITS
 70
     2
  9
$LUPREC
 70
     6
  9
$SKETCHINC
 40
0.1
  9
$FILLETRAD
 40
0.0
  9
$AUNITS
 70
     0
  9
$AUPREC
 70
     0
  9
$MENU
  1
acad
  9
$ELEVATION
 40
0.0
  9
$PELEVATION
 40
0.0
  9
$THICKNESS
 40
0.0
  9
$LIMCHECK
 70
     0
  9
$BLIPMODE
 70
     0
  9
$CHAMFERA
 40
0.0
  9
$CHAMFERB
 40
0.0
  9
$CHAMFERC
 40
0.0
  9
$CHAMFERD
 40
0.0
  9
$SKPOLY
 70
     0
  9
$TDCREATE
 40
2451726.438362384
  9
$TDUPDATE
 40
2452010.729039815
  9
$TDINDWG
 40
0.0787685185
  9
$TDUSRTIMER
 40
0.0787685185
  9
$USRTIMER
 70
     1
  9
$ANGBASE
 50
0.0
  9
$ANGDIR
 70
     0
  9
$PDMODE
 70
     3
  9
$PDSIZE
 40
0.18
  9
$PLINEWID
 40
0.0
  9
$COORDS
 70
     1
  9
$SPLFRAME
 70
     0
  9
$SPLINETYPE
 70
     6
  9
$SPLINESEGS
 70
     8
  9
$ATTDIA
 70
     0
  9
$ATTREQ
 70
     1
  9
$HANDLING
 70
     1
  9
$HANDSEED
  5
531E
  9
$SURFTAB1
 70
     6
  9
$SURFTAB2
 70
     6
  9
$SURFTYPE
 70
     6
  9
$SURFU
 70
     6
  9
$SURFV
 70
     6
  9
$UCSNAME
  2

  9
$UCSORG
 10
0.0
 20
0.0
 30
0.0
  9
$UCSXDIR
 10
1.0
 20
0.0
 30
0.0
  9
$UCSYDIR
 10
0.0
 20
0.0
 30
1.0
  9
$PUCSNAME
  2

  9
$PUCSORG
 10
0.0
 20
0.0
 30
0.0
  9
$PUCSXDIR
 10
1.0
 20
0.0
 30
0.0
  9
$PUCSYDIR
 10
0.0
 20
1.0
 30
0.0
  9
$USERI1
 70
     0
  9
$USERI2
 70
     0
  9
$USERI3
 70
     0
  9
$USERI4
 70
     0
  9
$USERI5
 70
     0
  9
$USERR1
 40
0.0
  9
$USERR2
 40
0.0
  9
$USERR3
 40
0.0
  9
$USERR4
 40
0.0
  9
$USERR5
 40
0.0
  9
$WORLDVIEW
 70
     1
  9
$SHADEDGE
 70
     3
  9
$SHADEDIF
 70
    70
  9
$TILEMODE
 70
     0
  9
$MAXACTVP
 70
    16
  9
$PINSBASE
 10
0.0
 20
0.0
 30
0.0
  9
$PLIMCHECK
 70
     0
  9
$PEXTMIN
 10
0.0
 20
0.0
 30
0.0
  9
$PEXTMAX
 10
10.0
 20
7.5
 30
0.0
  9
$PLIMMIN
 10
-0.187029
 20
-0.186938
  9
$PLIMMAX
 10
10.187518
 20
7.829757
  9
$UNITMODE
 70
     0
  9
$VISRETAIN
 70
     0
  9
$PLINEGEN
 70
     0
  9
$PSLTSCALE
 70
     1
  9
$TREEDEPTH
 70
  3020
  9
$PICKSTYLE
 70
     1
  9
$CMLSTYLE
  2
STANDARD
  9
$CMLJUST
 70
     0
  9
$CMLSCALE
 40
1.0
  9
$PROXYGRAPHICS
 70
     1
  9
$MEASUREMENT
 70
     0
  0
ENDSEC
  0
SECTION
  2
CLASSES
  0
CLASS
  1
DICTIONARYVAR
  2
AcDbDictionaryVar
  3
"AutoCAD"
 90
        0
280
     0
281
     0
  0
CLASS
  1
ACDBDICTIONARYWDFLT
  2
AcDbDictionaryWithDefault
  3
AutoCAD 2000
 90
        0
280
     0
281
     0
  0
CLASS
  1
ACDBPLACEHOLDER
  2
AcDbPlaceHolder
  3
AutoCAD 2000
 90
        0
280
     0
281
     0
  0
CLASS
  1
LAYOUT
  2
AcDbLayout
  3
AutoCAD 2000
 90
        0
280
     0
281
     0
  0
CLASS
  1
LONG_TRANSACTION
  2
AcDbLongTransaction
  3
AutoCAD 2000
 90
        0
280
     0
281
     0
  0
CLASS
  1
LWPOLYLINE
  2
AcDbPolyline
  3
"AutoCAD"
 90
        0
280
     0
281
     1
  0
CLASS
  1
HATCH
  2
AcDbHatch
  3
"ACAD_SEDONA"
 90
        0
280
     0
281
     1
  0
CLASS
  1
XRECORD
  2
AcDbXrecord
  3
"<Built In>"
 90
        0
280
     0
281
     0
  0
CLASS
  1
LONG_TRANSACTION
  2
AcDbLongTransaction
  3
AutoCAD 2000
 90
        0
280
     0
281
     0
  0
CLASS
  1
LWPOLYLINE
  2
AcDbPolyline
  3
"AutoCAD"
 90
        0
280
     0
281
     1
  0
CLASS
  1
HATCH
  2
AcDbHatch
  3
"ACAD_SEDONA"
 90
        0
280
     0
281
     1
  0
CLASS
  1
XRECORD
  2
AcDbXrecord
  3
"<Built In>"
 90
        0
280
     0
281
     0
  0
CLASS
  1
LONG_TRANSACTION
  2
AcDbLongTransaction
  3
AutoCAD 2000
 90
        0
280
     0
281
     0
  0
CLASS
  1
LWPOLYLINE
  2
AcDbPolyline
  3
"AutoCAD"
 90
        0
280
     0
281
     1
  0
CLASS
  1
HATCH
  2
AcDbHatch
  3
"ACAD_SEDONA"
 90
        0
280
     0
281
     1
  0
CLASS
  1
XRECORD
  2
AcDbXrecord
  3
"<Built In>"
 90
        0
280
     0
281
     0
  0
CLASS
  1
LONG_TRANSACTION
  2
AcDbLongTransaction
  3
AutoCAD 2000
 90
        0
280
     0
281
     0
  0
CLASS
  1
LWPOLYLINE
  2
AcDbPolyline
  3
"AutoCAD"
 90
        0
280
     0
281
     1
  0
CLASS
  1
HATCH
  2
AcDbHatch
  3
"ACAD_SEDONA"
 90
        0
280
     0
281
     1
  0
CLASS
  1
XRECORD
  2
AcDbXrecord
  3
"<Built In>"
 90
        0
280
     0
281
     0
  0
CLASS
  1
LONG_TRANSACTION
  2
AcDbLongTransaction
  3
AutoCAD 2000
 90
        0
280
     0
281
     0
  0
CLASS
  1
LWPOLYLINE
  2
AcDbPolyline
  3
"AutoCAD"
 90
        0
280
     0
281
     1
  0
CLASS
  1
HATCH
  2
AcDbHatch
  3
"ACAD_SEDONA"
 90
        0
280
     0
281
     1
  0
CLASS
  1
XRECORD
  2
AcDbXrecord
  3
"<Built In>"
 90
        0
280
     0
281
     0
  0
CLASS
  1
LONG_TRANSACTION
  2
AcDbLongTransaction
  3
AutoCAD 2000
 90
        0
280
     0
281
     0
  0
CLASS
  1
LWPOLYLINE
  2
AcDbPolyline
  3
"AutoCAD"
 90
        0
280
     0
281
     1
  0
CLASS
  1
HATCH
  2
AcDbHatch
  3
"ACAD_SEDONA"
 90
        0
280
     0
281
     1
  0
CLASS
  1
XRECORD
  2
AcDbXrecord
  3
"<Built In>"
 90
        0
280
     0
281
     0
  0
ENDSEC
  0
SECTION
  2
TABLES
  0
TABLE
  2
VPORT
  5
469
100
AcDbSymbolTable
 70
     1
  0
VPORT
  5
5225
102
{ACAD_XDICTIONARY
360
52E4
102
}
100
AcDbSymbolTableRecord
100
AcDbViewportTableRecord
  2
*ACTIVE
 70
     0
 10
0.0
 20
0.0
 11
1.0
 21
1.0
 12
1.097005
 22
-2.235543
 13
0.0
 23
0.0
 14
1.0
 24
1.0
 15
0.0
 25
0.0
 16
0.0
 26
-1.0
 36
0.0
 17
0.0
 27
0.0
 37
0.0
 40
7.215185
 41
1.682482
 42
50.0
 43
0.0
 44
0.0
 50
0.0
 51
0.0
 71
     0
 72
   100
 73
     1
 74
     1
 75
     0
 76
     0
 77
     0
 78
     0
  0
ENDTAB
  0
TABLE
  2
LTYPE
  5
466
100
AcDbSymbolTable
 70
     1
  0
LTYPE
  5
472
100
AcDbSymbolTableRecord
100
AcDbLinetypeTableRecord
  2
BYBLOCK
 70
     0
  3

 72
    65
 73
     0
 40
0.0
  0
LTYPE
  5
473
100
AcDbSymbolTableRecord
100
AcDbLinetypeTableRecord
  2
BYLAYER
 70
     0
  3

 72
    65
 73
     0
 40
0.0
  0
LTYPE
  5
474
100
AcDbSymbolTableRecord
100
AcDbLinetypeTableRecord
  2
CONTINUOUS
 70
     0
  3
Solid line
 72
    65
 73
     0
 40
0.0
  0
ENDTAB
  0
TABLE
  2
LAYER
  5
463
100
AcDbSymbolTable
 70
     8
  0
LAYER
  5
46F
100
AcDbSymbolTableRecord
100
AcDbLayerTableRecord
  2
0
 70
     0
 62
     7
  6
CONTINUOUS
  0
LAYER
  5
485
100
AcDbSymbolTableRecord
100
AcDbLayerTableRecord
  2
AREA1
 70
     0
 62
     7
  6
CONTINUOUS
  0
LAYER
  5
486
100
AcDbSymbolTableRecord
100
AcDbLayerTableRecord
  2
AREA2
 70
     0
 62
     7
  6
CONTINUOUS
  0
LAYER
  5
494
102
{ACAD_XDICTIONARY
360
5311
102
}
100
AcDbSymbolTableRecord
100
AcDbLayerTableRecord
  2
DEFPOINTS
 70
     0
 62
    -7
  6
CONTINUOUS
  0
LAYER
  5
495
100
AcDbSymbolTableRecord
100
AcDbLayerTableRecord
  2
DIMS-MTG-HOLES
 70
     0
 62
    -1
  6
CONTINUOUS
  0
LAYER
  5
4E6
100
AcDbSymbolTableRecord
100
AcDbLayerTableRecord
  2
SCALE
 70
     0
 62
    -7
  6
CONTINUOUS
  0
LAYER
  5
4ED
100
AcDbSymbolTableRecord
100
AcDbLayerTableRecord
  2
SNAP_POINTS
 70
     0
 62
    -1
  6
CONTINUOUS
  0
LAYER
  5
4F1
100
AcDbSymbolTableRecord
100
AcDbLayerTableRecord
  2
ATTRIBUTES
 70
     0
 62
    -7
  6
CONTINUOUS
  0
ENDTAB
  0
TABLE
  2
STYLE
  5
464
100
AcDbSymbolTable
 70
     1
  0
STYLE
  5
470
100
AcDbSymbolTableRecord
100
AcDbTextStyleTableRecord
  2
STANDARD
 70
     0
 40
0.0
 41
1.0
 50
0.0
 71
     0
 42
0.2
  3
txt
  4

  0
ENDTAB
  0
TABLE
  2
VIEW
  5
467
100
AcDbSymbolTable
 70
     0
  0
ENDTAB
  0
TABLE
  2
UCS
  5
468
100
AcDbSymbolTable
 70
     0
  0
ENDTAB
  0
TABLE
  2
APPID
  5
46A
100
AcDbSymbolTable
 70
     2
  0
APPID
  5
471
100
AcDbSymbolTableRecord
100
AcDbRegAppTableRecord
  2
ACAD
 70
     0
  0
APPID
  5
47E
100
AcDbSymbolTableRecord
100
AcDbRegAppTableRecord
  2
AVE_RENDER
 70
     0
  0
ENDTAB
  0
TABLE
  2
DIMSTYLE
  5
46B
100
AcDbSymbolTable
 70
     3
  0
DIMSTYLE
105
49A
102
{ACAD_XDICTIONARY
360
5313
102
}
102
{ACAD_REACTORS
330
5217
102
}
100
AcDbSymbolTableRecord
100
AcDbDimStyleTableRecord
  2
ABECAD_3V
 70
     0
  3

  4

  5

  6

  7

 40
0.0
 41
0.18
 42
0.0625
 43
0.375
 44
0.18
 45
0.0
 46
0.0
 47
0.0
 48
0.0
140
0.18
141
0.09
142
0.0
143
25.4
144
1.0
145
0.0
146
1.5
147
0.09
 71
     0
 72
     0
 73
     0
 74
     1
 75
     0
 76
     0
 77
     0
 78
     4
170
     1
171
     2
172
     0
173
     0
174
     0
175
     0
176
     0
177
     0
178
     0
270
     7
271
     6
272
     6
273
     2
274
     2
340
470
275
     0
280
     0
281
     0
282
     0
283
     1
284
     4
285
     4
286
     4
287
     5
288
     1
  0
DIMSTYLE
105
553
102
{ACAD_XDICTIONARY
360
5317
102
}
100
AcDbSymbolTableRecord
100
AcDbDimStyleTableRecord
  2
ABECAD
 70
     0
  3

  4

  5

  6

  7

 40
1.0
 41
0.18
 42
0.0625
 43
0.375
 44
0.18
 45
0.0
 46
0.0
 47
0.0
 48
0.0
140
0.18
141
0.09
142
0.0
143
25.4
144
1.0
145
0.0
146
1.5
147
0.09
 71
     0
 72
     0
 73
     0
 74
     1
 75
     0
 76
     0
 77
     0
 78
     4
170
     1
171
     1
172
     0
173
     0
174
     0
175
     0
176
     0
177
     0
178
     0
270
     7
271
     6
272
     6
273
     2
274
     1
340
470
275
     0
280
     0
281
     0
282
     0
283
     1
284
     4
285
     4
286
     4
287
     3
288
     0
  0
DIMSTYLE
105
554
102
{ACAD_XDICTIONARY
360
5319
102
}
100
AcDbSymbolTableRecord
100
AcDbDimStyleTableRecord
  2
ABECAD_3D
 70
     0
  3

  4

  5

  6

  7

 40
1.0
 41
0.18
 42
0.0625
 43
0.375
 44
0.18
 45
0.0
 46
0.0
 47
0.0
 48
0.0
140
0.09
141
0.09
142
0.0
143
25.4
144
1.0
145
0.0
146
1.5
147
0.09
 71
     0
 72
     0
 73
     0
 74
     1
 75
     0
 76
     0
 77
     0
 78
     4
170
     1
171
     1
172
     0
173
     0
174
     0
175
     0
176
     0
177
     0
178
     0
270
     7
271
     6
272
     6
273
     2
274
     1
340
470
275
     0
280
     0
281
     0
282
     0
283
     1
284
     4
285
     4
286
     4
287
     3
288
     0
  0
ENDTAB
  0
TABLE
  2
BLOCK_RECORD
  5
462
100
AcDbSymbolTable
 70
     5
  0
BLOCK_RECORD
  5
478
102
{ACAD_XDICTIONARY
360
4D2
102
}
100
AcDbSymbolTableRecord
100
AcDbBlockTableRecord
  2
*MODEL_SPACE
  0
BLOCK_RECORD
  5
475
102
{ACAD_XDICTIONARY
360
4D0
102
}
100
AcDbSymbolTableRecord
100
AcDbBlockTableRecord
  2
*PAPER_SPACE
  0
BLOCK_RECORD
  5
545
102
{ACAD_XDICTIONARY
360
52E0
102
}
100
AcDbSymbolTableRecord
100
AcDbBlockTableRecord
  2
SCALEINCH
  0
BLOCK_RECORD
  5
5090
100
AcDbSymbolTableRecord
100
AcDbBlockTableRecord
  2
*D1
  0
BLOCK_RECORD
  5
509D
100
AcDbSymbolTableRecord
100
AcDbBlockTableRecord
  2
*D2
  0
BLOCK_RECORD
  5
50AA
102
{ACAD_XDICTIONARY
360
52E2
102
}
100
AcDbSymbolTableRecord
100
AcDbBlockTableRecord
  2
ABDSN960
  0
BLOCK_RECORD
  5
5218
100
AcDbSymbolTableRecord
100
AcDbBlockTableRecord
  2
*D4
  0
ENDTAB
  0
ENDSEC
  0
SECTION
  2
BLOCKS
  0
BLOCK
  5
48B
100
AcDbEntity
  8
0
100
AcDbBlockBegin
  2
*MODEL_SPACE
 70
     0
 10
0.0
 20
0.0
 30
0.0
  3
*MODEL_SPACE
  1

  0
ENDBLK
  5
48C
100
AcDbEntity
  8
0
100
AcDbBlockEnd
  0
BLOCK
  5
489
100
AcDbEntity
 67
     1
  8
0
100
AcDbBlockBegin
  2
*PAPER_SPACE
 70
     0
 10
0.0
 20
0.0
 30
0.0
  3
*PAPER_SPACE
  1

  0
ENDBLK
  5
48A
100
AcDbEntity
 67
     1
  8
0
100
AcDbBlockEnd
  0
BLOCK
  5
551
100
AcDbEntity
  8
0
100
AcDbBlockBegin
  2
SCALEINCH
 70
     0
 10
0.0
 20
0.0
 30
0.0
  3
SCALEINCH
  1

  0
LINE
  5
546
100
AcDbEntity
  8
SCALE
100
AcDbLine
 10
0.060623
 20
-2.404403
 30
0.0
 11
1.060623
 21
-2.404403
 31
0.0
  0
LINE
  5
547
100
AcDbEntity
  8
SCALE
100
AcDbLine
 10
1.060623
 20
-2.404403
 30
0.0
 11
1.060623
 21
-2.504403
 31
0.0
  0
LINE
  5
548
100
AcDbEntity
  8
SCALE
100
AcDbLine
 10
1.060623
 20
-2.504403
 30
0.0
 11
1.060623
 21
-2.304403
 31
0.0
  0
LINE
  5
549
100
AcDbEntity
  8
SCALE
100
AcDbLine
 10
0.060623
 20
-2.504403
 30
0.0
 11
0.060623
 21
-2.304403
 31
0.0
  0
LINE
  5
54A
100
AcDbEntity
  8
SCALE
100
AcDbLine
 10
0.063666
 20
-2.798543
 30
0.0
 11
0.063666
 21
-2.598543
 31
0.0
  0
LINE
  5
54B
100
AcDbEntity
  8
SCALE
100
AcDbLine
 10
0.457366
 20
-2.798543
 30
0.0
 11
0.457366
 21
-2.598543
 31
0.0
  0
LINE
  5
54C
100
AcDbEntity
  8
SCALE
100
AcDbLine
 10
0.063666
 20
-2.698543
 30
0.0
 11
0.457366
 21
-2.698543
 31
0.0
  0
TEXT
  5
54D
100
AcDbEntity
  8
SCALE
100
AcDbText
 10
0.089542
 20
-2.656527
 30
0.0
 40
0.0625
  1
[10 mm]
100
AcDbText
  0
TEXT
  5
54E
100
AcDbEntity
  8
SCALE
100
AcDbText
 10
0.359753
 20
-2.335354
 30
0.0
 40
0.0625
  1
1 Inch
100
AcDbText
  0
TEXT
  5
54F
100
AcDbEntity
  8
SCALE
100
AcDbText
 10
0.052989
 20
-2.167919
 30
0.0
 40
0.0625
  1
SCALE:
100
AcDbText
  0
LWPOLYLINE
  5
550
100
AcDbEntity
  8
SCALE
100
AcDbPolyline
 90
        4
 70
     1
 43
0.0
 10
-0.00654
 20
-2.062718
 10
1.129089
 20
-2.062718
 10
1.129089
 20
-2.904327
 10
-0.00654
 20
-2.904327
  0
ENDBLK
  5
552
100
AcDbEntity
  8
0
100
AcDbBlockEnd
  0
BLOCK
  5
509B
100
AcDbEntity
  8
0
100
AcDbBlockBegin
  2
*D1
 70
     1
 10
0.0
 20
0.0
 30
0.0
  3
*D1
  1

  0
LINE
  5
5091
100
AcDbEntity
  8
AREA1
 62
     0
100
AcDbLine
 10
-1.0775
 20
1.14
 30
0.0
 11
-1.0775
 21
1.627029
 31
0.0
1001
ACAD
1000
RTLwPs
1070
   158
  0
LINE
  5
5092
100
AcDbEntity
  8
AREA1
 62
     0
100
AcDbLine
 10
1.0775
 20
1.14
 30
0.0
 11
1.0775
 21
1.627029
 31
0.0
1001
ACAD
1000
RTLwPs
1070
   158
  0
LINE
  5
5093
100
AcDbEntity
  8
AREA1
 62
     0
100
AcDbLine
 10
-0.8975
 20
1.447029
 30
0.0
 11
-0.6
 21
1.447029
 31
0.0
1001
ACAD
1000
RTLwPs
1070
   158
  0
LINE
  5
5094
100
AcDbEntity
  8
AREA1
 62
     0
100
AcDbLine
 10
0.8975
 20
1.447029
 30
0.0
 11
0.6
 21
1.447029
 31
0.0
1001
ACAD
1000
RTLwPs
1070
   158
  0
SOLID
  5
5095
100
AcDbEntity
  8
AREA1
 62
     0
100
AcDbTrace
 10
-0.8975
 20
1.477029
 30
0.0
 11
-0.8975
 21
1.417029
 31
0.0
 12
-1.0775
 22
1.447029
 32
0.0
 13
-1.0775
 23
1.447029
 33
0.0
  0
SOLID
  5
5096
100
AcDbEntity
  8
AREA1
 62
     0
100
AcDbTrace
 10
0.8975
 20
1.477029
 30
0.0
 11
0.8975
 21
1.417029
 31
0.0
 12
1.0775
 22
1.447029
 32
0.0
 13
1.0775
 23
1.447029
 33
0.0
  0
MTEXT
  5
5097
100
AcDbEntity
  8
AREA1
 62
     0
100
AcDbMText
 10
0.0
 20
1.447029
 30
0.0
 40
0.09
 41
0.0
 71
     5
 72
     1
  1
\A1;2 5/32 [54.7]
1001
ACAD
1000
MTEXTBEGIN
1070
    73
1070
     1
1070
    44
1040
1.0
1070
    74
1070
     0
1000
MTEXTEND
1000
MTEXTBEGIN
1070
    73
1070
     1
1070
    44
1040
1.0
1070
    74
1070
     0
1000
MTEXTEND
1000
MTEXTBEGIN
1070
    73
1070
     1
1070
    44
1040
1.0
1070
    74
1070
     0
1000
MTEXTEND
1000
MTEXTBEGIN
1070
    73
1070
     1
1070
    44
1040
1.0
1070
    74
1070
     0
1000
MTEXTEND
1000
MTEXTBEGIN
1070
    73
1070
     1
1070
    44
1040
1.0
1070
    74
1070
     0
1000
MTEXTEND
  0
POINT
  5
5098
100
AcDbEntity
  8
DEFPOINTS
 62
     0
100
AcDbPoint
 10
-1.0775
 20
1.0775
 30
-0.19
  0
POINT
  5
5099
100
AcDbEntity
  8
DEFPOINTS
 62
     0
100
AcDbPoint
 10
1.0775
 20
1.0775
 30
0.0
  0
POINT
  5
509A
100
AcDbEntity
  8
DEFPOINTS
 62
     0
100
AcDbPoint
 10
1.0775
 20
1.447029
 30
0.0
  0
ENDBLK
  5
509C
100
AcDbEntity
  8
0
100
AcDbBlockEnd
  0
BLOCK
  5
50A8
100
AcDbEntity
  8
0
100
AcDbBlockBegin
  2
*D2
 70
     1
 10
0.0
 20
0.0
 30
0.0
  3
*D2
  1

  0
LINE
  5
509E
100
AcDbEntity
  8
AREA1
 62
     0
100
AcDbLine
 10
1.14
 20
1.0775
 30
0.0
 11
1.67069
 21
1.0775
 31
0.0
1001
ACAD
1000
RTLwPs
1070
   158
  0
LINE
  5
509F
100
AcDbEntity
  8
AREA1
 62
     0
100
AcDbLine
 10
1.14
 20
-1.0775
 30
0.0
 11
1.67069
 21
-1.0775
 31
0.0
1001
ACAD
1000
RTLwPs
1070
   158
  0
LINE
  5
50A0
100
AcDbEntity
  8
AREA1
 62
     0
100
AcDbLine
 10
1.49069
 20
0.8975
 30
0.0
 11
1.49069
 21
0.6
 31
0.0
1001
ACAD
1000
RTLwPs
1070
   158
  0
LINE
  5
50A1
100
AcDbEntity
  8
AREA1
 62
     0
100
AcDbLine
 10
1.49069
 20
-0.8975
 30
0.0
 11
1.49069
 21
-0.6
 31
0.0
1001
ACAD
1000
RTLwPs
1070
   158
  0
SOLID
  5
50A2
100
AcDbEntity
  8
AREA1
 62
     0
100
AcDbTrace
 10
1.46069
 20
0.8975
 30
0.0
 11
1.52069
 21
0.8975
 31
0.0
 12
1.49069
 22
1.0775
 32
0.0
 13
1.49069
 23
1.0775
 33
0.0
  0
SOLID
  5
50A3
100
AcDbEntity
  8
AREA1
 62
     0
100
AcDbTrace
 10
1.46069
 20
-0.8975
 30
0.0
 11
1.52069
 21
-0.8975
 31
0.0
 12
1.49069
 22
-1.0775
 32
0.0
 13
1.49069
 23
-1.0775
 33
0.0
  0
MTEXT
  5
50A4
100
AcDbEntity
  8
AREA1
 62
     0
100
AcDbMText
 10
1.49069
 20
0.0
 30
0.0
 40
0.09
 41
0.0
 71
     5
 72
     1
  1
\A1;2 5/32 [54.7]
 11
0.0
 21
1.0
 31
0.0
1001
ACAD
1000
MTEXTBEGIN
1070
    73
1070
     1
1070
    44
1040
1.0
1070
    74
1070
     0
1000
MTEXTEND
1000
MTEXTBEGIN
1070
    73
1070
     1
1070
    44
1040
1.0
1070
    74
1070
     0
1000
MTEXTEND
1000
MTEXTBEGIN
1070
    73
1070
     1
1070
    44
1040
1.0
1070
    74
1070
     0
1000
MTEXTEND
1000
MTEXTBEGIN
1070
    73
1070
     1
1070
    44
1040
1.0
1070
    74
1070
     0
1000
MTEXTEND
1000
MTEXTBEGIN
1070
    73
1070
     1
1070
    44
1040
1.0
1070
    74
1070
     0
1000
MTEXTEND
  0
POINT
  5
50A5
100
AcDbEntity
  8
DEFPOINTS
 62
     0
100
AcDbPoint
 10
1.0775
 20
1.0775
 30
0.0
  0
POINT
  5
50A6
100
AcDbEntity
  8
DEFPOINTS
 62
     0
100
AcDbPoint
 10
1.0775
 20
-1.0775
 30
0.0
  0
POINT
  5
50A7
100
AcDbEntity
  8
DEFPOINTS
 62
     0
100
AcDbPoint
 10
1.49069
 20
-1.0775
 30
0.0
  0
ENDBLK
  5
50A9
100
AcDbEntity
  8
0
100
AcDbBlockEnd
  0
BLOCK
  5
520A
100
AcDbEntity
  8
0
100
AcDbBlockBegin
  2
ABDSN960
 70
     2
 10
0.0
 20
0.0
 30
0.0
  3
ABDSN960
  1

  0
POINT
  5
50AB
100
AcDbEntity
  8
SNAP_POINTS
100
AcDbPoint
 10
0.0
 20
0.0
 30
0.0
  0
TEXT
  5
50AC
100
AcDbEntity
  8
0
100
AcDbText
 10
0.790937
 20
-0.022102
 30
0.0
 40
0.108793
  1

100
AcDbText
  0
TEXT
  5
50AD
100
AcDbEntity
  8
0
100
AcDbText
 10
-0.84256
 20
-0.022102
 30
0.0
 40
0.108793
  1

100
AcDbText
  0
TEXT
  5
50AE
100
AcDbEntity
  8
0
100
AcDbText
 10
-0.76697
 20
0.405209
 30
0.0
 40
0.108793
  1

100
AcDbText
  0
TEXT
  5
50AF
100
AcDbEntity
  8
0
100
AcDbText
 10
-0.05531
 20
0.766213
 30
0.0
 40
0.108793
  1

100
AcDbText
  0
TEXT
  5
50B0
100
AcDbEntity
  8
0
100
AcDbText
 10
0.357673
 20
0.707274
 30
0.0
 40
0.108793
  1

100
AcDbText
  0
TEXT
  5
50B1
100
AcDbEntity
  8
0
100
AcDbText
 10
0.652662
 20
0.405209
 30
0.0
 40
0.108793
  1

100
AcDbText
  0
TEXT
  5
50B2
100
AcDbEntity
  8
0
100
AcDbText
 10
0.158556
 20
0.707274
 30
0.0
 40
0.108793
  1

100
AcDbText
  0
TEXT
  5
50B3
100
AcDbEntity
  8
0
100
AcDbText
 10
-0.39086
 20
-0.766213
 30
0.0
 40
0.108793
  1

100
AcDbText
  0
TEXT
  5
50B4
100
AcDbEntity
  8
0
100
AcDbText
 10
0.39086
 20
-0.758846
 30
0.0
 40
0.108793
  1

100
AcDbText
  0
TEXT
  5
50B5
100
AcDbEntity
  8
0
100
AcDbText
 10
0.763282
 20
-0.047888
 30
0.0
 40
0.108793
  1

100
AcDbText
  0
INSERT
  5
50B6
100
AcDbEntity
  8
SCALE
100
AcDbBlockReference
  2
SCALEINCH
 10
2.257123
 20
1.815474
 30
0.0
  0
TEXT
  5
50B7
100
AcDbEntity
  8
0
100
AcDbText
 10
0.790937
 20
-0.022102
 30
0.0
 40
0.108793
  1

100
AcDbText
  0
TEXT
  5
50B8
100
AcDbEntity
  8
0
100
AcDbText
 10
-0.84256
 20
-0.022102
 30
0.0
 40
0.108793
  1

100
AcDbText
  0
TEXT
  5
50B9
100
AcDbEntity
  8
0
100
AcDbText
 10
-0.76697
 20
0.405209
 30
0.0
 40
0.108793
  1

100
AcDbText
  0
TEXT
  5
50BA
100
AcDbEntity
  8
0
100
AcDbText
 10
-0.05531
 20
0.766213
 30
0.0
 40
0.108793
  1

100
AcDbText
  0
TEXT
  5
50BB
100
AcDbEntity
  8
0
100
AcDbText
 10
0.357673
 20
0.707274
 30
0.0
 40
0.108793
  1

100
AcDbText
  0
TEXT
  5
50BC
100
AcDbEntity
  8
0
100
AcDbText
 10
0.652662
 20
0.405209
 30
0.0
 40
0.108793
  1

100
AcDbText
  0
TEXT
  5
50BD
100
AcDbEntity
  8
0
100
AcDbText
 10
0.158556
 20
0.707274
 30
0.0
 40
0.108793
  1

100
AcDbText
  0
TEXT
  5
50BE
100
AcDbEntity
  8
0
100
AcDbText
 10
-0.704285
 20
-0.383107
 30
0.0
 40
0.108793
  1

100
AcDbText
  0
TEXT
  5
50BF
100
AcDbEntity
  8
0
100
AcDbText
 10
-0.029499
 20
-0.828837
 30
0.0
 40
0.108793
  1

100
AcDbText
  0
TEXT
  5
50C0
100
AcDbEntity
  8
0
100
AcDbText
 10
0.619476
 20
0.383107
 30
0.0
 40
0.108793
  1

100
AcDbText
  0
TEXT
  5
50C1
100
AcDbEntity
  8
0
100
AcDbText
 10
0.656349
 20
-0.379423
 30
0.0
 40
0.108793
  1

100
AcDbText
  0
TEXT
  5
50C2
100
AcDbEntity
  8
0
100
AcDbText
 10
-0.040561
 20
-0.839888
 30
0.0
 40
0.108793
  1

100
AcDbText
  0
TEXT
  5
50C3
100
AcDbEntity
  8
0
100
AcDbText
 10
0.569362
 20
-0.051572
 30
0.0
 40
0.108793
  1

100
AcDbText
  0
TEXT
  5
50C4
100
AcDbEntity
  8
0
100
AcDbText
 10
0.378303
 20
0.581857
 30
0.0
 40
0.108793
  1

100
AcDbText
  0
TEXT
  5
50C5
100
AcDbEntity
  8
0
100
AcDbText
 10
-0.730708
 20
0.578344
 30
0.0
 40
0.108793
  1

100
AcDbText
  0
TEXT
  5
50C6
100
AcDbEntity
  8
0
100
AcDbText
 10
-0.737058
 20
-0.607813
 30
0.0
 40
0.108793
  1

100
AcDbText
  0
TEXT
  5
50C7
100
AcDbEntity
  8
0
100
AcDbText
 10
0.393052
 20
-0.607813
 30
0.0
 40
0.108793
  1

100
AcDbText
  0
TEXT
  5
50C8
100
AcDbEntity
  8
0
100
AcDbText
 10
-0.019974
 20
-0.844297
 30
0.0
 40
0.108793
  1

100
AcDbText
  0
POLYLINE
  5
50C9
100
AcDbEntity
  8
0
100
AcDbPolygonMesh
 66
     1
 10
0.0
 20
0.0
 30
0.0
 70
    16
 71
     6
 72
     3
  0
VERTEX
  5
50CA
100
AcDbEntity
  8
0
100
AcDbVertex
100
AcDbPolygonMeshVertex
 10
1.0775
 20
-0.2925
 30
0.0
 70
    64
  0
VERTEX
  5
50CB
100
AcDbEntity
  8
0
100
AcDbVertex
100
AcDbPolygonMeshVertex
 10
1.0775
 20
-0.2925
 30
-0.19
 70
    64
  0
VERTEX
  5
50CC
100
AcDbEntity
  8
0
100
AcDbVertex
100
AcDbPolygonMeshVertex
 10
1.0775
 20
-0.2925
 30
-0.19
 70
    64
  0
VERTEX
  5
50CD
100
AcDbEntity
  8
0
100
AcDbVertex
100
AcDbPolygonMeshVertex
 10
1.0775
 20
-1.0775
 30
0.0
 70
    64
  0
VERTEX
  5
50CE
100
AcDbEntity
  8
0
100
AcDbVertex
100
AcDbPolygonMeshVertex
 10
1.0775
 20
-1.0775
 30
-0.19
 70
    64
  0
VERTEX
  5
50CF
100
AcDbEntity
  8
0
100
AcDbVertex
100
AcDbPolygonMeshVertex
 10
1.0775
 20
-1.0775
 30
-0.19
 70
    64
  0
VERTEX
  5
50D0
100
AcDbEntity
  8
0
100
AcDbVertex
100
AcDbPolygonMeshVertex
 10
-1.0775
 20
-1.0775
 30
0.0
 70
    64
  0
VERTEX
  5
50D1
100
AcDbEntity
  8
0
100
AcDbVertex
100
AcDbPolygonMeshVertex
 10
-1.0775
 20
-1.0775
 30
-0.19
 70
    64
  0
VERTEX
  5
50D2
100
AcDbEntity
  8
0
100
AcDbVertex
100
AcDbPolygonMeshVertex
 10
1.0775
 20
-1.0775
 30
-0.19
 70
    64
  0
VERTEX
  5
50D3
100
AcDbEntity
  8
0
100
AcDbVertex
100
AcDbPolygonMeshVertex
 10
-1.0775
 20
-0.2925
 30
0.0
 70
    64
  0
VERTEX
  5
50D4
100
AcDbEntity
  8
0
100
AcDbVertex
100
AcDbPolygonMeshVertex
 10
-1.0775
 20
-0.2925
 30
-0.19
 70
    64
  0
VERTEX
  5
50D5
100
AcDbEntity
  8
0
100
AcDbVertex
100
AcDbPolygonMeshVertex
 10
1.0775
 20
-0.2925
 30
-0.19
 70
    64
  0
VERTEX
  5
50D6
100
AcDbEntity
  8
0
100
AcDbVertex
100
AcDbPolygonMeshVertex
 10
-1.0775
 20
-0.2925
 30
0.0
 70
    64
  0
VERTEX
  5
50D7
100
AcDbEntity
  8
0
100
AcDbVertex
100
AcDbPolygonMeshVertex
 10
-1.0775
 20
-0.2925
 30
0.0
 70
    64
  0
VERTEX
  5
50D8
100
AcDbEntity
  8
0
100
AcDbVertex
100
AcDbPolygonMeshVertex
 10
1.0775
 20
-0.2925
 30
0.0
 70
    64
  0
VERTEX
  5
50D9
100
AcDbEntity
  8
0
100
AcDbVertex
100
AcDbPolygonMeshVertex
 10
-1.0775
 20
-1.0775
 30
0.0
 70
    64
  0
VERTEX
  5
50DA
100
AcDbEntity
  8
0
100
AcDbVertex
100
AcDbPolygonMeshVertex
 10
-1.0775
 20
-1.0775
 30
0.0
 70
    64
  0
VERTEX
  5
50DB
100
AcDbEntity
  8
0
100
AcDbVertex
100
AcDbPolygonMeshVertex
 10
1.0775
 20
-1.0775
 30
0.0
 70
    64
  0
SEQEND
  5
50DC
100
AcDbEntity
  8
0
  0
POLYLINE
  5
50DD
100
AcDbEntity
  8
0
100
AcDbPolygonMesh
 66
     1
 10
0.0
 20
0.0
 30
0.0
 70
    16
 71
     6
 72
     3
  0
VERTEX
  5
50DE
100
AcDbEntity
  8
0
100
AcDbVertex
100
AcDbPolygonMeshVertex
 10
0.8475
 20
0.2925
 30
0.0
 70
    64
  0
VERTEX
  5
50DF
100
AcDbEntity
  8
0
100
AcDbVertex
100
AcDbPolygonMeshVertex
 10
0.8475
 20
0.2925
 30
-0.19
 70
    64
  0
VERTEX
  5
50E0
100
AcDbEntity
  8
0
100
AcDbVertex
100
AcDbPolygonMeshVertex
 10
0.8475
 20
0.2925
 30
-0.19
 70
    64
  0
VERTEX
  5
50E1
100
AcDbEntity
  8
0
100
AcDbVertex
100
AcDbPolygonMeshVertex
 10
0.8475
 20
-0.2925
 30
0.0
 70
    64
  0
VERTEX
  5
50E2
100
AcDbEntity
  8
0
100
AcDbVertex
100
AcDbPolygonMeshVertex
 10
0.8475
 20
-0.2925
 30
-0.19
 70
    64
  0
VERTEX
  5
50E3
100
AcDbEntity
  8
0
100
AcDbVertex
100
AcDbPolygonMeshVertex
 10
0.8475
 20
-0.2925
 30
-0.19
 70
    64
  0
VERTEX
  5
50E4
100
AcDbEntity
  8
0
100
AcDbVertex
100
AcDbPolygonMeshVertex
 10
-0.8475
 20
-0.2925
 30
0.0
 70
    64
  0
VERTEX
  5
50E5
100
AcDbEntity
  8
0
100
AcDbVertex
100
AcDbPolygonMeshVertex
 10
-0.8475
 20
-0.2925
 30
-0.19
 70
    64
  0
VERTEX
  5
50E6
100
AcDbEntity
  8
0
100
AcDbVertex
100
AcDbPolygonMeshVertex
 10
0.8475
 20
-0.2925
 30
-0.19
 70
    64
  0
VERTEX
  5
50E7
100
AcDbEntity
  8
0
100
AcDbVertex
100
AcDbPolygonMeshVertex
 10
-0.8475
 20
0.2925
 30
0.0
 70
    64
  0
VERTEX
  5
50E8
100
AcDbEntity
  8
0
100
AcDbVertex
100
AcDbPolygonMeshVertex
 10
-0.8475
 20
0.2925
 30
-0.19
 70
    64
  0
VERTEX
  5
50E9
100
AcDbEntity
  8
0
100
AcDbVertex
100
AcDbPolygonMeshVertex
 10
0.8475
 20
0.2925
 30
-0.19
 70
    64
  0
VERTEX
  5
50EA
100
AcDbEntity
  8
0
100
AcDbVertex
100
AcDbPolygonMeshVertex
 10
-0.8475
 20
0.2925
 30
0.0
 70
    64
  0
VERTEX
  5
50EB
100
AcDbEntity
  8
0
100
AcDbVertex
100
AcDbPolygonMeshVertex
 10
-0.8475
 20
0.2925
 30
0.0
 70
    64
  0
VERTEX
  5
50EC
100
AcDbEntity
  8
0
100
AcDbVertex
100
AcDbPolygonMeshVertex
 10
0.8475
 20
0.2925
 30
0.0
 70
    64
  0
VERTEX
  5
50ED
100
AcDbEntity
  8
0
100
AcDbVertex
100
AcDbPolygonMeshVertex
 10
-0.8475
 20
-0.2925
 30
0.0
 70
    64
  0
VERTEX
  5
50EE
100
AcDbEntity
  8
0
100
AcDbVertex
100
AcDbPolygonMeshVertex
 10
-0.8475
 20
-0.2925
 30
0.0
 70
    64
  0
VERTEX
  5
50EF
100
AcDbEntity
  8
0
100
AcDbVertex
100
AcDbPolygonMeshVertex
 10
0.8475
 20
-0.2925
 30
0.0
 70
    64
  0
SEQEND
  5
50F0
100
AcDbEntity
  8
0
  0
ARC
  5
50F1
100
AcDbEntity
  8
0
100
AcDbCircle
 39
0.485
 10
0.0
 20
0.0
 30
-0.675
 40
0.65
100
AcDbArc
 50
31.538873
 51
148.461127
  0
ARC
  5
50F2
100
AcDbEntity
  8
0
100
AcDbCircle
 39
0.485
 10
0.0
 20
0.0
 30
-0.675
 40
0.65
100
AcDbArc
 50
211.538873
 51
328.461127
  0
CIRCLE
  5
50F3
100
AcDbEntity
  8
0
100
AcDbCircle
 39
0.815
 10
0.0
 20
0.0
 30
0.0
 40
0.1725
  0
CIRCLE
  5
50F4
100
AcDbEntity
  8
0
100
AcDbCircle
 10
0.0
 20
0.0
 30
0.0
 40
0.3335
  0
POLYLINE
  5
50F5
100
AcDbEntity
  8
0
100
AcDbPolygonMesh
 66
     1
 10
0.0
 20
0.0
 30
0.0
 70
    16
 71
     6
 72
     3
  0
VERTEX
  5
50F6
100
AcDbEntity
  8
0
100
AcDbVertex
100
AcDbPolygonMeshVertex
 10
0.9825
 20
0.34
 30
-0.19
 70
    64
  0
VERTEX
  5
50F7
100
AcDbEntity
  8
0
100
AcDbVertex
100
AcDbPolygonMeshVertex
 10
0.9825
 20
0.34
 30
-0.675
 70
    64
  0
VERTEX
  5
50F8
100
AcDbEntity
  8
0
100
AcDbVertex
100
AcDbPolygonMeshVertex
 10
0.9825
 20
0.34
 30
-0.675
 70
    64
  0
VERTEX
  5
50F9
100
AcDbEntity
  8
0
100
AcDbVertex
100
AcDbPolygonMeshVertex
 10
0.9825
 20
-0.34
 30
-0.19
 70
    64
  0
VERTEX
  5
50FA
100
AcDbEntity
  8
0
100
AcDbVertex
100
AcDbPolygonMeshVertex
 10
0.9825
 20
-0.34
 30
-0.675
 70
    64
  0
VERTEX
  5
50FB
100
AcDbEntity
  8
0
100
AcDbVertex
100
AcDbPolygonMeshVertex
 10
0.9825
 20
-0.34
 30
-0.675
 70
    64
  0
VERTEX
  5
50FC
100
AcDbEntity
  8
0
100
AcDbVertex
100
AcDbPolygonMeshVertex
 10
-0.9825
 20
-0.34
 30
-0.19
 70
    64
  0
VERTEX
  5
50FD
100
AcDbEntity
  8
0
100
AcDbVertex
100
AcDbPolygonMeshVertex
 10
-0.9825
 20
-0.34
 30
-0.675
 70
    64
  0
VERTEX
  5
50FE
100
AcDbEntity
  8
0
100
AcDbVertex
100
AcDbPolygonMeshVertex
 10
0.9825
 20
-0.34
 30
-0.675
 70
    64
  0
VERTEX
  5
50FF
100
AcDbEntity
  8
0
100
AcDbVertex
100
AcDbPolygonMeshVertex
 10
-0.9825
 20
0.34
 30
-0.19
 70
    64
  0
VERTEX
  5
5100
100
AcDbEntity
  8
0
100
AcDbVertex
100
AcDbPolygonMeshVertex
 10
-0.9825
 20
0.34
 30
-0.675
 70
    64
  0
VERTEX
  5
5101
100
AcDbEntity
  8
0
100
AcDbVertex
100
AcDbPolygonMeshVertex
 10
0.9825
 20
0.34
 30
-0.675
 70
    64
  0
VERTEX
  5
5102
100
AcDbEntity
  8
0
100
AcDbVertex
100
AcDbPolygonMeshVertex
 10
-0.9825
 20
0.34
 30
-0.19
 70
    64
  0
VERTEX
  5
5103
100
AcDbEntity
  8
0
100
AcDbVertex
100
AcDbPolygonMeshVertex
 10
-0.9825
 20
0.34
 30
-0.19
 70
    64
  0
VERTEX
  5
5104
100
AcDbEntity
  8
0
100
AcDbVertex
100
AcDbPolygonMeshVertex
 10
0.9825
 20
0.34
 30
-0.19
 70
    64
  0
VERTEX
  5
5105
100
AcDbEntity
  8
0
100
AcDbVertex
100
AcDbPolygonMeshVertex
 10
-0.9825
 20
-0.34
 30
-0.19
 70
    64
  0
VERTEX
  5
5106
100
AcDbEntity
  8
0
100
AcDbVertex
100
AcDbPolygonMeshVertex
 10
-0.9825
 20
-0.34
 30
-0.19
 70
    64
  0
VERTEX
  5
5107
100
AcDbEntity
  8
0
100
AcDbVertex
100
AcDbPolygonMeshVertex
 10
0.9825
 20
-0.34
 30
-0.19
 70
    64
  0
SEQEND
  5
5108
100
AcDbEntity
  8
0
  0
POLYLINE
  5
5109
100
AcDbEntity
  8
0
100
AcDbPolygonMesh
 66
     1
 10
0.0
 20
0.0
 30
0.0
 70
    16
 71
     6
 72
     3
  0
VERTEX
  5
510A
100
AcDbEntity
  8
0
100
AcDbVertex
100
AcDbPolygonMeshVertex
 10
0.8125
 20
-1.0775
 30
-0.425
 70
    64
  0
VERTEX
  5
510B
100
AcDbEntity
  8
0
100
AcDbVertex
100
AcDbPolygonMeshVertex
 10
0.8125
 20
-1.0775
 30
-0.425
 70
    64
  0
VERTEX
  5
510C
100
AcDbEntity
  8
0
100
AcDbVertex
100
AcDbPolygonMeshVertex
 10
0.8125
 20
-1.0775
 30
-0.425
 70
    64
  0
VERTEX
  5
510D
100
AcDbEntity
  8
0
100
AcDbVertex
100
AcDbPolygonMeshVertex
 10
1.0775
 20
-0.8125
 30
-0.425
 70
    64
  0
VERTEX
  5
510E
100
AcDbEntity
  8
0
100
AcDbVertex
100
AcDbPolygonMeshVertex
 10
1.0775
 20
-1.0775
 30
-0.425
 70
    64
  0
VERTEX
  5
510F
100
AcDbEntity
  8
0
100
AcDbVertex
100
AcDbPolygonMeshVertex
 10
1.0775
 20
-1.0775
 30
-0.425
 70
    64
  0
VERTEX
  5
5110
100
AcDbEntity
  8
0
100
AcDbVertex
100
AcDbPolygonMeshVertex
 10
1.0775
 20
-0.8125
 30
-0.19
 70
    64
  0
VERTEX
  5
5111
100
AcDbEntity
  8
0
100
AcDbVertex
100
AcDbPolygonMeshVertex
 10
1.0775
 20
-1.0775
 30
-0.19
 70
    64
  0
VERTEX
  5
5112
100
AcDbEntity
  8
0
100
AcDbVertex
100
AcDbPolygonMeshVertex
 10
1.0775
 20
-1.0775
 30
-0.425
 70
    64
  0
VERTEX
  5
5113
100
AcDbEntity
  8
0
100
AcDbVertex
100
AcDbPolygonMeshVertex
 10
0.8125
 20
-1.0775
 30
-0.19
 70
    64
  0
VERTEX
  5
5114
100
AcDbEntity
  8
0
100
AcDbVertex
100
AcDbPolygonMeshVertex
 10
0.8125
 20
-1.0775
 30
-0.19
 70
    64
  0
VERTEX
  5
5115
100
AcDbEntity
  8
0
100
AcDbVertex
100
AcDbPolygonMeshVertex
 10
0.8125
 20
-1.0775
 30
-0.425
 70
    64
  0
VERTEX
  5
5116
100
AcDbEntity
  8
0
100
AcDbVertex
100
AcDbPolygonMeshVertex
 10
0.8125
 20
-1.0775
 30
-0.19
 70
    64
  0
VERTEX
  5
5117
100
AcDbEntity
  8
0
100
AcDbVertex
100
AcDbPolygonMeshVertex
 10
0.8125
 20
-1.0775
 30
-0.19
 70
    64
  0
VERTEX
  5
5118
100
AcDbEntity
  8
0
100
AcDbVertex
100
AcDbPolygonMeshVertex
 10
0.8125
 20
-1.0775
 30
-0.425
 70
    64
  0
VERTEX
  5
5119
100
AcDbEntity
  8
0
100
AcDbVertex
100
AcDbPolygonMeshVertex
 10
1.0775
 20
-0.8125
 30
-0.19
 70
    64
  0
VERTEX
  5
511A
100
AcDbEntity
  8
0
100
AcDbVertex
100
AcDbPolygonMeshVertex
 10
1.0775
 20
-0.8125
 30
-0.19
 70
    64
  0
VERTEX
  5
511B
100
AcDbEntity
  8
0
100
AcDbVertex
100
AcDbPolygonMeshVertex
 10
1.0775
 20
-0.8125
 30
-0.425
 70
    64
  0
SEQEND
  5
511C
100
AcDbEntity
  8
0
  0
POLYLINE
  5
511D
100
AcDbEntity
  8
0
100
AcDbPolygonMesh
 66
     1
 10
0.0
 20
0.0
 30
0.0
 70
    16
 71
     6
 72
     3
  0
VERTEX
  5
511E
100
AcDbEntity
  8
0
100
AcDbVertex
100
AcDbPolygonMeshVertex
 10
0.34
 20
-0.605
 30
-0.19
 70
    64
  0
VERTEX
  5
511F
100
AcDbEntity
  8
0
100
AcDbVertex
100
AcDbPolygonMeshVertex
 10
0.34
 20
-0.605
 30
-0.425
 70
    64
  0
VERTEX
  5
5120
100
AcDbEntity
  8
0
100
AcDbVertex
100
AcDbPolygonMeshVertex
 10
0.34
 20
-0.605
 30
-0.425
 70
    64
  0
VERTEX
  5
5121
100
AcDbEntity
  8
0
100
AcDbVertex
100
AcDbPolygonMeshVertex
 10
0.605
 20
-0.34
 30
-0.19
 70
    64
  0
VERTEX
  5
5122
100
AcDbEntity
  8
0
100
AcDbVertex
100
AcDbPolygonMeshVertex
 10
0.605
 20
-0.34
 30
-0.425
 70
    64
  0
VERTEX
  5
5123
100
AcDbEntity
  8
0
100
AcDbVertex
100
AcDbPolygonMeshVertex
 10
0.605
 20
-0.34
 30
-0.425
 70
    64
  0
VERTEX
  5
5124
100
AcDbEntity
  8
0
100
AcDbVertex
100
AcDbPolygonMeshVertex
 10
1.0775
 20
-0.8125
 30
-0.19
 70
    64
  0
VERTEX
  5
5125
100
AcDbEntity
  8
0
100
AcDbVertex
100
AcDbPolygonMeshVertex
 10
1.0775
 20
-0.8125
 30
-0.425
 70
    64
  0
VERTEX
  5
5126
100
AcDbEntity
  8
0
100
AcDbVertex
100
AcDbPolygonMeshVertex
 10
0.605
 20
-0.34
 30
-0.425
 70
    64
  0
VERTEX
  5
5127
100
AcDbEntity
  8
0
100
AcDbVertex
100
AcDbPolygonMeshVertex
 10
0.8125
 20
-1.0775
 30
-0.19
 70
    64
  0
VERTEX
  5
5128
100
AcDbEntity
  8
0
100
AcDbVertex
100
AcDbPolygonMeshVertex
 10
0.8125
 20
-1.0775
 30
-0.425
 70
    64
  0
VERTEX
  5
5129
100
AcDbEntity
  8
0
100
AcDbVertex
100
AcDbPolygonMeshVertex
 10
0.34
 20
-0.605
 30
-0.425
 70
    64
  0
VERTEX
  5
512A
100
AcDbEntity
  8
0
100
AcDbVertex
100
AcDbPolygonMeshVertex
 10
0.8125
 20
-1.0775
 30
-0.19
 70
    64
  0
VERTEX
  5
512B
100
AcDbEntity
  8
0
100
AcDbVertex
100
AcDbPolygonMeshVertex
 10
0.8125
 20
-1.0775
 30
-0.19
 70
    64
  0
VERTEX
  5
512C
100
AcDbEntity
  8
0
100
AcDbVertex
100
AcDbPolygonMeshVertex
 10
0.34
 20
-0.605
 30
-0.19
 70
    64
  0
VERTEX
  5
512D
100
AcDbEntity
  8
0
100
AcDbVertex
100
AcDbPolygonMeshVertex
 10
1.0775
 20
-0.8125
 30
-0.19
 70
    64
  0
VERTEX
  5
512E
100
AcDbEntity
  8
0
100
AcDbVertex
100
AcDbPolygonMeshVertex
 10
1.0775
 20
-0.8125
 30
-0.19
 70
    64
  0
VERTEX
  5
512F
100
AcDbEntity
  8
0
100
AcDbVertex
100
AcDbPolygonMeshVertex
 10
0.605
 20
-0.34
 30
-0.19
 70
    64
  0
SEQEND
  5
5130
100
AcDbEntity
  8
0
  0
POLYLINE
  5
5131
100
AcDbEntity
  8
0
100
AcDbPolygonMesh
 66
     1
 10
0.0
 20
0.0
 30
0.0
 70
    16
 71
     6
 72
     3
  0
VERTEX
  5
5132
100
AcDbEntity
  8
0
100
AcDbVertex
100
AcDbPolygonMeshVertex
 10
1.0775
 20
0.8125
 30
-0.425
 70
    64
  0
VERTEX
  5
5133
100
AcDbEntity
  8
0
100
AcDbVertex
100
AcDbPolygonMeshVertex
 10
1.0775
 20
0.8125
 30
-0.425
 70
    64
  0
VERTEX
  5
5134
100
AcDbEntity
  8
0
100
AcDbVertex
100
AcDbPolygonMeshVertex
 10
1.0775
 20
0.8125
 30
-0.425
 70
    64
  0
VERTEX
  5
5135
100
AcDbEntity
  8
0
100
AcDbVertex
100
AcDbPolygonMeshVertex
 10
0.8125
 20
1.0775
 30
-0.425
 70
    64
  0
VERTEX
  5
5136
100
AcDbEntity
  8
0
100
AcDbVertex
100
AcDbPolygonMeshVertex
 10
1.0775
 20
1.0775
 30
-0.425
 70
    64
  0
VERTEX
  5
5137
100
AcDbEntity
  8
0
100
AcDbVertex
100
AcDbPolygonMeshVertex
 10
1.0775
 20
1.0775
 30
-0.425
 70
    64
  0
VERTEX
  5
5138
100
AcDbEntity
  8
0
100
AcDbVertex
100
AcDbPolygonMeshVertex
 10
0.8125
 20
1.0775
 30
-0.19
 70
    64
  0
VERTEX
  5
5139
100
AcDbEntity
  8
0
100
AcDbVertex
100
AcDbPolygonMeshVertex
 10
1.0775
 20
1.0775
 30
-0.19
 70
    64
  0
VERTEX
  5
513A
100
AcDbEntity
  8
0
100
AcDbVertex
100
AcDbPolygonMeshVertex
 10
1.0775
 20
1.0775
 30
-0.425
 70
    64
  0
VERTEX
  5
513B
100
AcDbEntity
  8
0
100
AcDbVertex
100
AcDbPolygonMeshVertex
 10
1.0775
 20
0.8125
 30
-0.19
 70
    64
  0
VERTEX
  5
513C
100
AcDbEntity
  8
0
100
AcDbVertex
100
AcDbPolygonMeshVertex
 10
1.0775
 20
0.8125
 30
-0.19
 70
    64
  0
VERTEX
  5
513D
100
AcDbEntity
  8
0
100
AcDbVertex
100
AcDbPolygonMeshVertex
 10
1.0775
 20
0.8125
 30
-0.425
 70
    64
  0
VERTEX
  5
513E
100
AcDbEntity
  8
0
100
AcDbVertex
100
AcDbPolygonMeshVertex
 10
1.0775
 20
0.8125
 30
-0.19
 70
    64
  0
VERTEX
  5
513F
100
AcDbEntity
  8
0
100
AcDbVertex
100
AcDbPolygonMeshVertex
 10
1.0775
 20
0.8125
 30
-0.19
 70
    64
  0
VERTEX
  5
5140
100
AcDbEntity
  8
0
100
AcDbVertex
100
AcDbPolygonMeshVertex
 10
1.0775
 20
0.8125
 30
-0.425
 70
    64
  0
VERTEX
  5
5141
100
AcDbEntity
  8
0
100
AcDbVertex
100
AcDbPolygonMeshVertex
 10
0.8125
 20
1.0775
 30
-0.19
 70
    64
  0
VERTEX
  5
5142
100
AcDbEntity
  8
0
100
AcDbVertex
100
AcDbPolygonMeshVertex
 10
0.8125
 20
1.0775
 30
-0.19
 70
    64
  0
VERTEX
  5
5143
100
AcDbEntity
  8
0
100
AcDbVertex
100
AcDbPolygonMeshVertex
 10
0.8125
 20
1.0775
 30
-0.425
 70
    64
  0
SEQEND
  5
5144
100
AcDbEntity
  8
0
  0
POLYLINE
  5
5145
100
AcDbEntity
  8
0
100
AcDbPolygonMesh
 66
     1
 10
0.0
 20
0.0
 30
0.0
 70
    16
 71
     6
 72
     3
  0
VERTEX
  5
5146
100
AcDbEntity
  8
0
100
AcDbVertex
100
AcDbPolygonMeshVertex
 10
-1.0775
 20
-0.8125
 30
-0.425
 70
    64
  0
VERTEX
  5
5147
100
AcDbEntity
  8
0
100
AcDbVertex
100
AcDbPolygonMeshVertex
 10
-1.0775
 20
-0.8125
 30
-0.425
 70
    64
  0
VERTEX
  5
5148
100
AcDbEntity
  8
0
100
AcDbVertex
100
AcDbPolygonMeshVertex
 10
-1.0775
 20
-0.8125
 30
-0.425
 70
    64
  0
VERTEX
  5
5149
100
AcDbEntity
  8
0
100
AcDbVertex
100
AcDbPolygonMeshVertex
 10
-0.8125
 20
-1.0775
 30
-0.425
 70
    64
  0
VERTEX
  5
514A
100
AcDbEntity
  8
0
100
AcDbVertex
100
AcDbPolygonMeshVertex
 10
-1.0775
 20
-1.0775
 30
-0.425
 70
    64
  0
VERTEX
  5
514B
100
AcDbEntity
  8
0
100
AcDbVertex
100
AcDbPolygonMeshVertex
 10
-1.0775
 20
-1.0775
 30
-0.425
 70
    64
  0
VERTEX
  5
514C
100
AcDbEntity
  8
0
100
AcDbVertex
100
AcDbPolygonMeshVertex
 10
-0.8125
 20
-1.0775
 30
-0.19
 70
    64
  0
VERTEX
  5
514D
100
AcDbEntity
  8
0
100
AcDbVertex
100
AcDbPolygonMeshVertex
 10
-1.0775
 20
-1.0775
 30
-0.19
 70
    64
  0
VERTEX
  5
514E
100
AcDbEntity
  8
0
100
AcDbVertex
100
AcDbPolygonMeshVertex
 10
-1.0775
 20
-1.0775
 30
-0.425
 70
    64
  0
VERTEX
  5
514F
100
AcDbEntity
  8
0
100
AcDbVertex
100
AcDbPolygonMeshVertex
 10
-1.0775
 20
-0.8125
 30
-0.19
 70
    64
  0
VERTEX
  5
5150
100
AcDbEntity
  8
0
100
AcDbVertex
100
AcDbPolygonMeshVertex
 10
-1.0775
 20
-0.8125
 30
-0.19
 70
    64
  0
VERTEX
  5
5151
100
AcDbEntity
  8
0
100
AcDbVertex
100
AcDbPolygonMeshVertex
 10
-1.0775
 20
-0.8125
 30
-0.425
 70
    64
  0
VERTEX
  5
5152
100
AcDbEntity
  8
0
100
AcDbVertex
100
AcDbPolygonMeshVertex
 10
-1.0775
 20
-0.8125
 30
-0.19
 70
    64
  0
VERTEX
  5
5153
100
AcDbEntity
  8
0
100
AcDbVertex
100
AcDbPolygonMeshVertex
 10
-1.0775
 20
-0.8125
 30
-0.19
 70
    64
  0
VERTEX
  5
5154
100
AcDbEntity
  8
0
100
AcDbVertex
100
AcDbPolygonMeshVertex
 10
-1.0775
 20
-0.8125
 30
-0.425
 70
    64
  0
VERTEX
  5
5155
100
AcDbEntity
  8
0
100
AcDbVertex
100
AcDbPolygonMeshVertex
 10
-0.8125
 20
-1.0775
 30
-0.19
 70
    64
  0
VERTEX
  5
5156
100
AcDbEntity
  8
0
100
AcDbVertex
100
AcDbPolygonMeshVertex
 10
-0.8125
 20
-1.0775
 30
-0.19
 70
    64
  0
VERTEX
  5
5157
100
AcDbEntity
  8
0
100
AcDbVertex
100
AcDbPolygonMeshVertex
 10
-0.8125
 20
-1.0775
 30
-0.425
 70
    64
  0
SEQEND
  5
5158
100
AcDbEntity
  8
0
  0
POLYLINE
  5
5159
100
AcDbEntity
  8
0
100
AcDbPolygonMesh
 66
     1
 10
0.0
 20
0.0
 30
0.0
 70
    16
 71
     6
 72
     3
  0
VERTEX
  5
515A
100
AcDbEntity
  8
0
100
AcDbVertex
100
AcDbPolygonMeshVertex
 10
-0.8125
 20
1.0775
 30
-0.425
 70
    64
  0
VERTEX
  5
515B
100
AcDbEntity
  8
0
100
AcDbVertex
100
AcDbPolygonMeshVertex
 10
-0.8125
 20
1.0775
 30
-0.425
 70
    64
  0
VERTEX
  5
515C
100
AcDbEntity
  8
0
100
AcDbVertex
100
AcDbPolygonMeshVertex
 10
-0.8125
 20
1.0775
 30
-0.425
 70
    64
  0
VERTEX
  5
515D
100
AcDbEntity
  8
0
100
AcDbVertex
100
AcDbPolygonMeshVertex
 10
-1.0775
 20
0.8125
 30
-0.425
 70
    64
  0
VERTEX
  5
515E
100
AcDbEntity
  8
0
100
AcDbVertex
100
AcDbPolygonMeshVertex
 10
-1.0775
 20
1.0775
 30
-0.425
 70
    64
  0
VERTEX
  5
515F
100
AcDbEntity
  8
0
100
AcDbVertex
100
AcDbPolygonMeshVertex
 10
-1.0775
 20
1.0775
 30
-0.425
 70
    64
  0
VERTEX
  5
5160
100
AcDbEntity
  8
0
100
AcDbVertex
100
AcDbPolygonMeshVertex
 10
-1.0775
 20
0.8125
 30
-0.19
 70
    64
  0
VERTEX
  5
5161
100
AcDbEntity
  8
0
100
AcDbVertex
100
AcDbPolygonMeshVertex
 10
-1.0775
 20
1.0775
 30
-0.19
 70
    64
  0
VERTEX
  5
5162
100
AcDbEntity
  8
0
100
AcDbVertex
100
AcDbPolygonMeshVertex
 10
-1.0775
 20
1.0775
 30
-0.425
 70
    64
  0
VERTEX
  5
5163
100
AcDbEntity
  8
0
100
AcDbVertex
100
AcDbPolygonMeshVertex
 10
-0.8125
 20
1.0775
 30
-0.19
 70
    64
  0
VERTEX
  5
5164
100
AcDbEntity
  8
0
100
AcDbVertex
100
AcDbPolygonMeshVertex
 10
-0.8125
 20
1.0775
 30
-0.19
 70
    64
  0
VERTEX
  5
5165
100
AcDbEntity
  8
0
100
AcDbVertex
100
AcDbPolygonMeshVertex
 10
-0.8125
 20
1.0775
 30
-0.425
 70
    64
  0
VERTEX
  5
5166
100
AcDbEntity
  8
0
100
AcDbVertex
100
AcDbPolygonMeshVertex
 10
-0.8125
 20
1.0775
 30
-0.19
 70
    64
  0
VERTEX
  5
5167
100
AcDbEntity
  8
0
100
AcDbVertex
100
AcDbPolygonMeshVertex
 10
-0.8125
 20
1.0775
 30
-0.19
 70
    64
  0
VERTEX
  5
5168
100
AcDbEntity
  8
0
100
AcDbVertex
100
AcDbPolygonMeshVertex
 10
-0.8125
 20
1.0775
 30
-0.425
 70
    64
  0
VERTEX
  5
5169
100
AcDbEntity
  8
0
100
AcDbVertex
100
AcDbPolygonMeshVertex
 10
-1.0775
 20
0.8125
 30
-0.19
 70
    64
  0
VERTEX
  5
516A
100
AcDbEntity
  8
0
100
AcDbVertex
100
AcDbPolygonMeshVertex
 10
-1.0775
 20
0.8125
 30
-0.19
 70
    64
  0
VERTEX
  5
516B
100
AcDbEntity
  8
0
100
AcDbVertex
100
AcDbPolygonMeshVertex
 10
-1.0775
 20
0.8125
 30
-0.425
 70
    64
  0
SEQEND
  5
516C
100
AcDbEntity
  8
0
  0
POLYLINE
  5
516D
100
AcDbEntity
  8
0
100
AcDbPolygonMesh
 66
     1
 10
0.0
 20
0.0
 30
0.0
 70
    16
 71
     6
 72
     3
  0
VERTEX
  5
516E
100
AcDbEntity
  8
0
100
AcDbVertex
100
AcDbPolygonMeshVertex
 10
-1.0775
 20
0.8125
 30
-0.19
 70
    64
  0
VERTEX
  5
516F
100
AcDbEntity
  8
0
100
AcDbVertex
100
AcDbPolygonMeshVertex
 10
-1.0775
 20
0.8125
 30
-0.425
 70
    64
  0
VERTEX
  5
5170
100
AcDbEntity
  8
0
100
AcDbVertex
100
AcDbPolygonMeshVertex
 10
-1.0775
 20
0.8125
 30
-0.425
 70
    64
  0
VERTEX
  5
5171
100
AcDbEntity
  8
0
100
AcDbVertex
100
AcDbPolygonMeshVertex
 10
-0.8125
 20
1.0775
 30
-0.19
 70
    64
  0
VERTEX
  5
5172
100
AcDbEntity
  8
0
100
AcDbVertex
100
AcDbPolygonMeshVertex
 10
-0.8125
 20
1.0775
 30
-0.425
 70
    64
  0
VERTEX
  5
5173
100
AcDbEntity
  8
0
100
AcDbVertex
100
AcDbPolygonMeshVertex
 10
-0.8125
 20
1.0775
 30
-0.425
 70
    64
  0
VERTEX
  5
5174
100
AcDbEntity
  8
0
100
AcDbVertex
100
AcDbPolygonMeshVertex
 10
-0.34
 20
0.605
 30
-0.19
 70
    64
  0
VERTEX
  5
5175
100
AcDbEntity
  8
0
100
AcDbVertex
100
AcDbPolygonMeshVertex
 10
-0.34
 20
0.605
 30
-0.425
 70
    64
  0
VERTEX
  5
5176
100
AcDbEntity
  8
0
100
AcDbVertex
100
AcDbPolygonMeshVertex
 10
-0.8125
 20
1.0775
 30
-0.425
 70
    64
  0
VERTEX
  5
5177
100
AcDbEntity
  8
0
100
AcDbVertex
100
AcDbPolygonMeshVertex
 10
-0.605
 20
0.34
 30
-0.19
 70
    64
  0
VERTEX
  5
5178
100
AcDbEntity
  8
0
100
AcDbVertex
100
AcDbPolygonMeshVertex
 10
-0.605
 20
0.34
 30
-0.425
 70
    64
  0
VERTEX
  5
5179
100
AcDbEntity
  8
0
100
AcDbVertex
100
AcDbPolygonMeshVertex
 10
-1.0775
 20
0.8125
 30
-0.425
 70
    64
  0
VERTEX
  5
517A
100
AcDbEntity
  8
0
100
AcDbVertex
100
AcDbPolygonMeshVertex
 10
-0.605
 20
0.34
 30
-0.19
 70
    64
  0
VERTEX
  5
517B
100
AcDbEntity
  8
0
100
AcDbVertex
100
AcDbPolygonMeshVertex
 10
-0.605
 20
0.34
 30
-0.19
 70
    64
  0
VERTEX
  5
517C
100
AcDbEntity
  8
0
100
AcDbVertex
100
AcDbPolygonMeshVertex
 10
-1.0775
 20
0.8125
 30
-0.19
 70
    64
  0
VERTEX
  5
517D
100
AcDbEntity
  8
0
100
AcDbVertex
100
AcDbPolygonMeshVertex
 10
-0.34
 20
0.605
 30
-0.19
 70
    64
  0
VERTEX
  5
517E
100
AcDbEntity
  8
0
100
AcDbVertex
100
AcDbPolygonMeshVertex
 10
-0.34
 20
0.605
 30
-0.19
 70
    64
  0
VERTEX
  5
517F
100
AcDbEntity
  8
0
100
AcDbVertex
100
AcDbPolygonMeshVertex
 10
-0.8125
 20
1.0775
 30
-0.19
 70
    64
  0
SEQEND
  5
5180
100
AcDbEntity
  8
0
  0
POLYLINE
  5
5181
100
AcDbEntity
  8
0
100
AcDbPolygonMesh
 66
     1
 10
0.0
 20
0.0
 30
0.0
 70
    16
 71
     6
 72
     3
  0
VERTEX
  5
5182
100
AcDbEntity
  8
0
100
AcDbVertex
100
AcDbPolygonMeshVertex
 10
-0.8125
 20
-1.0775
 30
-0.19
 70
    64
  0
VERTEX
  5
5183
100
AcDbEntity
  8
0
100
AcDbVertex
100
AcDbPolygonMeshVertex
 10
-0.8125
 20
-1.0775
 30
-0.425
 70
    64
  0
VERTEX
  5
5184
100
AcDbEntity
  8
0
100
AcDbVertex
100
AcDbPolygonMeshVertex
 10
-0.8125
 20
-1.0775
 30
-0.425
 70
    64
  0
VERTEX
  5
5185
100
AcDbEntity
  8
0
100
AcDbVertex
100
AcDbPolygonMeshVertex
 10
-1.0775
 20
-0.8125
 30
-0.19
 70
    64
  0
VERTEX
  5
5186
100
AcDbEntity
  8
0
100
AcDbVertex
100
AcDbPolygonMeshVertex
 10
-1.0775
 20
-0.8125
 30
-0.425
 70
    64
  0
VERTEX
  5
5187
100
AcDbEntity
  8
0
100
AcDbVertex
100
AcDbPolygonMeshVertex
 10
-1.0775
 20
-0.8125
 30
-0.425
 70
    64
  0
VERTEX
  5
5188
100
AcDbEntity
  8
0
100
AcDbVertex
100
AcDbPolygonMeshVertex
 10
-0.605
 20
-0.34
 30
-0.19
 70
    64
  0
VERTEX
  5
5189
100
AcDbEntity
  8
0
100
AcDbVertex
100
AcDbPolygonMeshVertex
 10
-0.605
 20
-0.34
 30
-0.425
 70
    64
  0
VERTEX
  5
518A
100
AcDbEntity
  8
0
100
AcDbVertex
100
AcDbPolygonMeshVertex
 10
-1.0775
 20
-0.8125
 30
-0.425
 70
    64
  0
VERTEX
  5
518B
100
AcDbEntity
  8
0
100
AcDbVertex
100
AcDbPolygonMeshVertex
 10
-0.34
 20
-0.605
 30
-0.19
 70
    64
  0
VERTEX
  5
518C
100
AcDbEntity
  8
0
100
AcDbVertex
100
AcDbPolygonMeshVertex
 10
-0.34
 20
-0.605
 30
-0.425
 70
    64
  0
VERTEX
  5
518D
100
AcDbEntity
  8
0
100
AcDbVertex
100
AcDbPolygonMeshVertex
 10
-0.8125
 20
-1.0775
 30
-0.425
 70
    64
  0
VERTEX
  5
518E
100
AcDbEntity
  8
0
100
AcDbVertex
100
AcDbPolygonMeshVertex
 10
-0.34
 20
-0.605
 30
-0.19
 70
    64
  0
VERTEX
  5
518F
100
AcDbEntity
  8
0
100
AcDbVertex
100
AcDbPolygonMeshVertex
 10
-0.34
 20
-0.605
 30
-0.19
 70
    64
  0
VERTEX
  5
5190
100
AcDbEntity
  8
0
100
AcDbVertex
100
AcDbPolygonMeshVertex
 10
-0.8125
 20
-1.0775
 30
-0.19
 70
    64
  0
VERTEX
  5
5191
100
AcDbEntity
  8
0
100
AcDbVertex
100
AcDbPolygonMeshVertex
 10
-0.605
 20
-0.34
 30
-0.19
 70
    64
  0
VERTEX
  5
5192
100
AcDbEntity
  8
0
100
AcDbVertex
100
AcDbPolygonMeshVertex
 10
-0.605
 20
-0.34
 30
-0.19
 70
    64
  0
VERTEX
  5
5193
100
AcDbEntity
  8
0
100
AcDbVertex
100
AcDbPolygonMeshVertex
 10
-1.0775
 20
-0.8125
 30
-0.19
 70
    64
  0
SEQEND
  5
5194
100
AcDbEntity
  8
0
  0
POLYLINE
  5
5195
100
AcDbEntity
  8
0
100
AcDbPolygonMesh
 66
     1
 10
0.0
 20
0.0
 30
0.0
 70
    16
 71
     6
 72
     3
  0
VERTEX
  5
5196
100
AcDbEntity
  8
0
100
AcDbVertex
100
AcDbPolygonMeshVertex
 10
0.605
 20
0.34
 30
-0.19
 70
    64
  0
VERTEX
  5
5197
100
AcDbEntity
  8
0
100
AcDbVertex
100
AcDbPolygonMeshVertex
 10
0.605
 20
0.34
 30
-0.425
 70
    64
  0
VERTEX
  5
5198
100
AcDbEntity
  8
0
100
AcDbVertex
100
AcDbPolygonMeshVertex
 10
0.605
 20
0.34
 30
-0.425
 70
    64
  0
VERTEX
  5
5199
100
AcDbEntity
  8
0
100
AcDbVertex
100
AcDbPolygonMeshVertex
 10
0.34
 20
0.605
 30
-0.19
 70
    64
  0
VERTEX
  5
519A
100
AcDbEntity
  8
0
100
AcDbVertex
100
AcDbPolygonMeshVertex
 10
0.34
 20
0.605
 30
-0.425
 70
    64
  0
VERTEX
  5
519B
100
AcDbEntity
  8
0
100
AcDbVertex
100
AcDbPolygonMeshVertex
 10
0.34
 20
0.605
 30
-0.425
 70
    64
  0
VERTEX
  5
519C
100
AcDbEntity
  8
0
100
AcDbVertex
100
AcDbPolygonMeshVertex
 10
0.8125
 20
1.0775
 30
-0.19
 70
    64
  0
VERTEX
  5
519D
100
AcDbEntity
  8
0
100
AcDbVertex
100
AcDbPolygonMeshVertex
 10
0.8125
 20
1.0775
 30
-0.425
 70
    64
  0
VERTEX
  5
519E
100
AcDbEntity
  8
0
100
AcDbVertex
100
AcDbPolygonMeshVertex
 10
0.34
 20
0.605
 30
-0.425
 70
    64
  0
VERTEX
  5
519F
100
AcDbEntity
  8
0
100
AcDbVertex
100
AcDbPolygonMeshVertex
 10
1.0775
 20
0.8125
 30
-0.19
 70
    64
  0
VERTEX
  5
51A0
100
AcDbEntity
  8
0
100
AcDbVertex
100
AcDbPolygonMeshVertex
 10
1.0775
 20
0.8125
 30
-0.425
 70
    64
  0
VERTEX
  5
51A1
100
AcDbEntity
  8
0
100
AcDbVertex
100
AcDbPolygonMeshVertex
 10
0.605
 20
0.34
 30
-0.425
 70
    64
  0
VERTEX
  5
51A2
100
AcDbEntity
  8
0
100
AcDbVertex
100
AcDbPolygonMeshVertex
 10
1.0775
 20
0.8125
 30
-0.19
 70
    64
  0
VERTEX
  5
51A3
100
AcDbEntity
  8
0
100
AcDbVertex
100
AcDbPolygonMeshVertex
 10
1.0775
 20
0.8125
 30
-0.19
 70
    64
  0
VERTEX
  5
51A4
100
AcDbEntity
  8
0
100
AcDbVertex
100
AcDbPolygonMeshVertex
 10
0.605
 20
0.34
 30
-0.19
 70
    64
  0
VERTEX
  5
51A5
100
AcDbEntity
  8
0
100
AcDbVertex
100
AcDbPolygonMeshVertex
 10
0.8125
 20
1.0775
 30
-0.19
 70
    64
  0
VERTEX
  5
51A6
100
AcDbEntity
  8
0
100
AcDbVertex
100
AcDbPolygonMeshVertex
 10
0.8125
 20
1.0775
 30
-0.19
 70
    64
  0
VERTEX
  5
51A7
100
AcDbEntity
  8
0
100
AcDbVertex
100
AcDbPolygonMeshVertex
 10
0.34
 20
0.605
 30
-0.19
 70
    64
  0
SEQEND
  5
51A8
100
AcDbEntity
  8
0
  0
POLYLINE
  5
51A9
100
AcDbEntity
  8
0
100
AcDbPolygonMesh
 66
     1
 10
0.0
 20
0.0
 30
0.0
 70
    16
 71
     6
 72
     3
  0
VERTEX
  5
51AA
100
AcDbEntity
  8
0
100
AcDbVertex
100
AcDbPolygonMeshVertex
 10
1.0775
 20
1.0775
 30
0.0
 70
    64
  0
VERTEX
  5
51AB
100
AcDbEntity
  8
0
100
AcDbVertex
100
AcDbPolygonMeshVertex
 10
1.0775
 20
1.0775
 30
-0.19
 70
    64
  0
VERTEX
  5
51AC
100
AcDbEntity
  8
0
100
AcDbVertex
100
AcDbPolygonMeshVertex
 10
1.0775
 20
1.0775
 30
-0.19
 70
    64
  0
VERTEX
  5
51AD
100
AcDbEntity
  8
0
100
AcDbVertex
100
AcDbPolygonMeshVertex
 10
1.0775
 20
0.2925
 30
0.0
 70
    64
  0
VERTEX
  5
51AE
100
AcDbEntity
  8
0
100
AcDbVertex
100
AcDbPolygonMeshVertex
 10
1.0775
 20
0.2925
 30
-0.19
 70
    64
  0
VERTEX
  5
51AF
100
AcDbEntity
  8
0
100
AcDbVertex
100
AcDbPolygonMeshVertex
 10
1.0775
 20
0.2925
 30
-0.19
 70
    64
  0
VERTEX
  5
51B0
100
AcDbEntity
  8
0
100
AcDbVertex
100
AcDbPolygonMeshVertex
 10
-1.0775
 20
0.2925
 30
0.0
 70
    64
  0
VERTEX
  5
51B1
100
AcDbEntity
  8
0
100
AcDbVertex
100
AcDbPolygonMeshVertex
 10
-1.0775
 20
0.2925
 30
-0.19
 70
    64
  0
VERTEX
  5
51B2
100
AcDbEntity
  8
0
100
AcDbVertex
100
AcDbPolygonMeshVertex
 10
1.0775
 20
0.2925
 30
-0.19
 70
    64
  0
VERTEX
  5
51B3
100
AcDbEntity
  8
0
100
AcDbVertex
100
AcDbPolygonMeshVertex
 10
-1.0775
 20
1.0775
 30
0.0
 70
    64
  0
VERTEX
  5
51B4
100
AcDbEntity
  8
0
100
AcDbVertex
100
AcDbPolygonMeshVertex
 10
-1.0775
 20
1.0775
 30
-0.19
 70
    64
  0
VERTEX
  5
51B5
100
AcDbEntity
  8
0
100
AcDbVertex
100
AcDbPolygonMeshVertex
 10
1.0775
 20
1.0775
 30
-0.19
 70
    64
  0
VERTEX
  5
51B6
100
AcDbEntity
  8
0
100
AcDbVertex
100
AcDbPolygonMeshVertex
 10
-1.0775
 20
1.0775
 30
0.0
 70
    64
  0
VERTEX
  5
51B7
100
AcDbEntity
  8
0
100
AcDbVertex
100
AcDbPolygonMeshVertex
 10
-1.0775
 20
1.0775
 30
0.0
 70
    64
  0
VERTEX
  5
51B8
100
AcDbEntity
  8
0
100
AcDbVertex
100
AcDbPolygonMeshVertex
 10
1.0775
 20
1.0775
 30
0.0
 70
    64
  0
VERTEX
  5
51B9
100
AcDbEntity
  8
0
100
AcDbVertex
100
AcDbPolygonMeshVertex
 10
-1.0775
 20
0.2925
 30
0.0
 70
    64
  0
VERTEX
  5
51BA
100
AcDbEntity
  8
0
100
AcDbVertex
100
AcDbPolygonMeshVertex
 10
-1.0775
 20
0.2925
 30
0.0
 70
    64
  0
VERTEX
  5
51BB
100
AcDbEntity
  8
0
100
AcDbVertex
100
AcDbPolygonMeshVertex
 10
1.0775
 20
0.2925
 30
0.0
 70
    64
  0
SEQEND
  5
51BC
100
AcDbEntity
  8
0
  0
LWPOLYLINE
  5
51BD
100
AcDbEntity
  8
0
100
AcDbPolyline
 90
        8
 70
     1
 43
0.0
 38
-0.97
 10
0.86
 20
-1.8
 10
0.86
 20
-1.575
 10
0.8375
 20
-1.575
 10
0.8375
 20
-1.075
 10
0.5025
 20
-1.075
 10
0.5025
 20
-1.575
 10
0.48
 20
-1.575
 10
0.48
 20
-1.8
210
0.0
220
-1.0
230
0.0
  0
LWPOLYLINE
  5
51BE
100
AcDbEntity
  8
0
100
AcDbPolyline
 90
        8
 70
     1
 43
0.0
 38
-0.97
 10
-0.37
 20
-1.075
 10
-0.37
 20
-1.575
 10
-0.3925
 20
-1.575
 10
-0.3925
 20
-1.8
 10
-0.0125
 20
-1.8
 10
-0.0125
 20
-1.575
 10
-0.035
 20
-1.575
 10
-0.035
 20
-1.075
210
0.0
220
-1.0
230
0.0
  0
LWPOLYLINE
  5
51BF
100
AcDbEntity
  8
0
100
AcDbPolyline
 90
        8
 70
     1
 43
0.0
 38
-0.97
 10
-0.4375
 20
-2.3
 10
-0.4375
 20
-2.075
 10
-0.46
 20
-2.075
 10
-0.46
 20
-1.575
 10
-0.795
 20
-1.575
 10
-0.795
 20
-2.075
 10
-0.8175
 20
-2.075
 10
-0.8175
 20
-2.3
210
0.0
220
-1.0
230
0.0
  0
LWPOLYLINE
  5
51C0
100
AcDbEntity
  8
0
100
AcDbPolyline
 90
        8
 70
     1
 43
0.0
 38
-0.97
 10
-0.3925
 20
-2.8
 10
-0.0125
 20
-2.8
 10
-0.0125
 20
-2.575
 10
-0.035
 20
-2.575
 10
-0.035
 20
-2.075
 10
-0.37
 20
-2.075
 10
-0.37
 20
-2.575
 10
-0.3925
 20
-2.575
210
0.0
220
-1.0
230
0.0
  0
LWPOLYLINE
  5
51C1
100
AcDbEntity
  8
0
100
AcDbPolyline
 90
        8
 70
     1
 43
0.0
 38
-0.97
 10
0.8375
 20
-2.075
 10
0.5025
 20
-2.075
 10
0.5025
 20
-2.575
 10
0.48
 20
-2.575
 10
0.48
 20
-2.8
 10
0.86
 20
-2.8
 10
0.86
 20
-2.575
 10
0.8375
 20
-2.575
210
0.0
220
-1.0
230
0.0
  0
LWPOLYLINE
  5
51C2
100
AcDbEntity
  8
0
100
AcDbPolyline
 90
       10
 70
     0
 43
0.0
 38
-0.97
 10
0.4125
 20
-2.075
 10
0.39
 20
-2.075
 10
0.39
 20
-1.575
 10
0.055
 20
-1.575
 10
0.055
 20
-2.075
 10
0.0325
 20
-2.075
 10
0.0325
 20
-2.3
 10
0.4125
 20
-2.3
 10
0.4125
 20
-2.075
 10
0.4125
 20
-2.3
210
0.0
220
-1.0
230
0.0
  0
LWPOLYLINE
  5
51C3
100
AcDbEntity
  8
0
100
AcDbPolyline
 90
        8
 70
     1
 43
0.0
 38
0.97
 10
-0.37
 20
-1.075
 10
-0.37
 20
-1.575
 10
-0.3925
 20
-1.575
 10
-0.3925
 20
-1.8
 10
-0.0125
 20
-1.8
 10
-0.0125
 20
-1.575
 10
-0.035
 20
-1.575
 10
-0.035
 20
-1.075
210
0.0
220
-1.0
230
0.0
  0
LWPOLYLINE
  5
51C4
100
AcDbEntity
  8
0
100
AcDbPolyline
 90
        8
 70
     1
 43
0.0
 38
0.97
 10
0.86
 20
-1.8
 10
0.86
 20
-1.575
 10
0.8375
 20
-1.575
 10
0.8375
 20
-1.075
 10
0.5025
 20
-1.075
 10
0.5025
 20
-1.575
 10
0.48
 20
-1.575
 10
0.48
 20
-1.8
210
0.0
220
-1.0
230
0.0
  0
LWPOLYLINE
  5
51C5
100
AcDbEntity
  8
0
100
AcDbPolyline
 90
        8
 70
     1
 43
0.0
 38
0.97
 10
-0.4375
 20
-2.3
 10
-0.4375
 20
-2.075
 10
-0.46
 20
-2.075
 10
-0.46
 20
-1.575
 10
-0.795
 20
-1.575
 10
-0.795
 20
-2.075
 10
-0.8175
 20
-2.075
 10
-0.8175
 20
-2.3
210
0.0
220
-1.0
230
0.0
  0
LWPOLYLINE
  5
51C6
100
AcDbEntity
  8
0
100
AcDbPolyline
 90
       10
 70
     0
 43
0.0
 38
0.97
 10
0.4125
 20
-2.075
 10
0.39
 20
-2.075
 10
0.39
 20
-1.575
 10
0.055
 20
-1.575
 10
0.055
 20
-2.075
 10
0.0325
 20
-2.075
 10
0.0325
 20
-2.3
 10
0.4125
 20
-2.3
 10
0.4125
 20
-2.075
 10
0.4125
 20
-2.3
210
0.0
220
-1.0
230
0.0
  0
LWPOLYLINE
  5
51C7
100
AcDbEntity
  8
0
100
AcDbPolyline
 90
        8
 70
     1
 43
0.0
 38
0.97
 10
0.8375
 20
-2.075
 10
0.5025
 20
-2.075
 10
0.5025
 20
-2.575
 10
0.48
 20
-2.575
 10
0.48
 20
-2.8
 10
0.86
 20
-2.8
 10
0.86
 20
-2.575
 10
0.8375
 20
-2.575
210
0.0
220
-1.0
230
0.0
  0
LWPOLYLINE
  5
51C8
100
AcDbEntity
  8
0
100
AcDbPolyline
 90
        8
 70
     1
 43
0.0
 38
0.97
 10
-0.3925
 20
-2.8
 10
-0.0125
 20
-2.8
 10
-0.0125
 20
-2.575
 10
-0.035
 20
-2.575
 10
-0.035
 20
-2.075
 10
-0.37
 20
-2.075
 10
-0.37
 20
-2.575
 10
-0.3925
 20
-2.575
210
0.0
220
-1.0
230
0.0
  0
ATTDEF
  5
51C9
100
AcDbEntity
  8
ATTRIBUTES
100
AcDbText
 10
-0.958634
 20
-0.055447
 30
-5.194691
 40
0.051578
  1
ALLEN-BRADLEY
100
AcDbAttributeDefinition
  3
MANUFACTURER NAME?
  2
AC_VND_LABEL
 70
     1
  0
ATTDEF
  5
51CA
100
AcDbEntity
  8
ATTRIBUTES
100
AcDbText
 10
-0.958634
 20
-0.162902
 30
-5.194691
 40
0.051578
  1
194L-E20/E25 W/ 8 CARRIERS
100
AcDbAttributeDefinition
  3
CATALOG NUMBER?
  2
AC_PART_NO
 70
     1
  0
ATTDEF
  5
51CB
100
AcDbEntity
  8
ATTRIBUTES
100
AcDbText
 10
-0.958634
 20
-0.270357
 30
-5.194691
 40
0.051578
  1
CONTROL & LOAD SWITCH BODY, 20A/25A W/ 8 CARRIERS
100
AcDbAttributeDefinition
  3
PART DESCRIPTION?
  2
AC_DESCRIPTION
 70
     1
  0
ATTDEF
  5
51CC
100
AcDbEntity
  8
ATTRIBUTES
100
AcDbText
 10
-0.958634
 20
-0.377812
 30
-5.194691
 40
0.051578
  1

100
AcDbAttributeDefinition
  3
DEVICE ID?
  2
DEVICE_ID
 70
     1
  0
ATTDEF
  5
51CD
100
AcDbEntity
  8
ATTRIBUTES
100
AcDbText
 10
-0.958634
 20
-0.485266
 30
-5.194691
 40
0.051578
  1

100
AcDbAttributeDefinition
  3
CUSTOMER PART NUMBER?
  2
AC_CPART_NO
 70
     1
  0
ATTDEF
  5
51CE
100
AcDbEntity
  8
ATTRIBUTES
100
AcDbText
 10
-0.958634
 20
-0.592721
 30
-5.194691
 40
0.051578
  1

100
AcDbAttributeDefinition
  3
CUSTOMER NOTE?
  2
AC_NOTE
 70
     1
  0
ATTDEF
  5
51CF
100
AcDbEntity
  8
ATTRIBUTES
100
AcDbText
 10
-0.958634
 20
-0.700176
 30
-5.194691
 40
0.051578
  1

100
AcDbAttributeDefinition
  3
FASTENER DATA?
  2
FASTENER
 70
     1
  0
ATTDEF
  5
51D0
100
AcDbEntity
  8
ATTRIBUTES
100
AcDbText
 10
-0.958634
 20
-0.807631
 30
-5.194691
 40
0.051578
  1

100
AcDbAttributeDefinition
  3
UNIT OF SCALE?
  2
AC_SCALE_UNIT
 70
     1
  0
ATTDEF
  5
51D1
100
AcDbEntity
  8
ATTRIBUTES
100
AcDbText
 10
-0.958634
 20
-0.915086
 30
-5.194691
 40
0.051578
  1

100
AcDbAttributeDefinition
  3
VIEW CODE?
  2
AC_VIEW_CODE
 70
     1
  0
TEXT
  5
51D2
100
AcDbEntity
  8
0
100
AcDbText
 10
0.5525
 20
-1.075
 30
0.97
 40
0.2
  1
1
210
0.0
220
-1.0
230
0.0
100
AcDbText
  0
TEXT
  5
51D3
100
AcDbEntity
  8
0
100
AcDbText
 10
-0.1725
 20
-1.075
 30
0.97
 40
0.2
  1
3
210
0.0
220
-1.0
230
0.0
100
AcDbText
  0
TEXT
  5
51D4
100
AcDbEntity
  8
0
100
AcDbText
 10
0.105
 20
-1.575
 30
0.97
 40
0.2
  1
5
210
0.0
220
-1.0
230
0.0
100
AcDbText
  0
TEXT
  5
51D5
100
AcDbEntity
  8
0
100
AcDbText
 10
-0.62
 20
-1.575
 30
0.97
 40
0.2
  1
7
210
0.0
220
-1.0
230
0.0
100
AcDbText
  0
TEXT
  5
51D6
100
AcDbEntity
  8
0
100
AcDbText
 10
0.5525
 20
-2.075
 30
0.97
 40
0.2
  1
9
210
0.0
220
-1.0
230
0.0
100
AcDbText
  0
TEXT
  5
51D7
100
AcDbEntity
  8
0
100
AcDbText
 10
-0.37504
 20
-2.075
 30
0.97
 40
0.2
  1
11
210
0.0
220
-1.0
230
0.0
100
AcDbText
  0
TEXT
  5
51D8
100
AcDbEntity
  8
0
100
AcDbText
 10
-0.7925
 20
-1.075
 30
0.97
 40
0.2
  1
2
210
0.0
220
1.0
230
0.0
100
AcDbText
  0
TEXT
  5
51D9
100
AcDbEntity
  8
0
100
AcDbText
 10
-0.0675
 20
-1.075
 30
0.97
 40
0.2
  1
4
210
0.0
220
1.0
230
0.0
100
AcDbText
  0
TEXT
  5
51DA
100
AcDbEntity
  8
0
100
AcDbText
 10
-0.17
 20
-1.575
 30
0.97
 40
0.2
  1
6
210
0.0
220
1.0
230
0.0
100
AcDbText
  0
TEXT
  5
51DB
100
AcDbEntity
  8
0
100
AcDbText
 10
0.555
 20
-1.575
 30
0.97
 40
0.2
  1
8
210
0.0
220
1.0
230
0.0
100
AcDbText
  0
TEXT
  5
51DC
100
AcDbEntity
  8
0
100
AcDbText
 10
-0.7125
 20
-2.075
 30
0.97
 40
0.2
  1
10
210
0.0
220
1.0
230
0.0
100
AcDbText
  0
TEXT
  5
51DD
100
AcDbEntity
  8
0
100
AcDbText
 10
0.0125
 20
-2.075
 30
0.97
 40
0.2
  1
12
210
0.0
220
1.0
230
0.0
100
AcDbText
  0
LWPOLYLINE
  5
51DE
100
AcDbEntity
  8
0
100
AcDbPolyline
 90
        8
 70
     1
 43
0.0
 38
-0.97
 10
-0.4375
 20
-3.3
 10
-0.4375
 20
-3.075
 10
-0.46
 20
-3.075
 10
-0.46
 20
-2.575
 10
-0.795
 20
-2.575
 10
-0.795
 20
-3.075
 10
-0.8175
 20
-3.075
 10
-0.8175
 20
-3.3
210
0.0
220
-1.0
230
0.0
  0
TEXT
  5
51DF
100
AcDbEntity
  8
0
100
AcDbText
 10
0.555
 20
-2.575
 30
0.97
 40
0.2
  1
16
210
0.0
220
1.0
230
0.0
100
AcDbText
  0
LWPOLYLINE
  5
51E0
100
AcDbEntity
  8
0
100
AcDbPolyline
 90
        8
 70
     1
 43
0.0
 38
-0.97
 10
-0.3925
 20
-3.8
 10
-0.0125
 20
-3.8
 10
-0.0125
 20
-3.575
 10
-0.035
 20
-3.575
 10
-0.035
 20
-3.075
 10
-0.37
 20
-3.075
 10
-0.37
 20
-3.575
 10
-0.3925
 20
-3.575
210
0.0
220
-1.0
230
0.0
  0
TEXT
  5
51E1
100
AcDbEntity
  8
0
100
AcDbText
 10
0.0125
 20
-3.075
 30
0.97
 40
0.2
  1
20
210
0.0
220
1.0
230
0.0
100
AcDbText
  0
LWPOLYLINE
  5
51E2
100
AcDbEntity
  8
0
100
AcDbPolyline
 90
       10
 70
     0
 43
0.0
 38
-0.97
 10
0.4125
 20
-3.075
 10
0.39
 20
-3.075
 10
0.39
 20
-2.575
 10
0.055
 20
-2.575
 10
0.055
 20
-3.075
 10
0.0325
 20
-3.075
 10
0.0325
 20
-3.3
 10
0.4125
 20
-3.3
 10
0.4125
 20
-3.075
 10
0.4125
 20
-3.3
210
0.0
220
-1.0
230
0.0
  0
TEXT
  5
51E3
100
AcDbEntity
  8
0
100
AcDbText
 10
-0.335
 20
-2.575
 30
0.97
 40
0.2
  1
14
210
0.0
220
1.0
230
0.0
100
AcDbText
  0
LWPOLYLINE
  5
51E4
100
AcDbEntity
  8
0
100
AcDbPolyline
 90
        8
 70
     1
 43
0.0
 38
-0.97
 10
0.8375
 20
-3.075
 10
0.5025
 20
-3.075
 10
0.5025
 20
-3.575
 10
0.48
 20
-3.575
 10
0.48
 20
-3.8
 10
0.86
 20
-3.8
 10
0.86
 20
-3.575
 10
0.8375
 20
-3.575
210
0.0
220
-1.0
230
0.0
  0
TEXT
  5
51E5
100
AcDbEntity
  8
0
100
AcDbText
 10
-0.7125
 20
-3.075
 30
0.97
 40
0.2
  1
18
210
0.0
220
1.0
230
0.0
100
AcDbText
  0
LWPOLYLINE
  5
51E6
100
AcDbEntity
  8
0
100
AcDbPolyline
 90
        8
 70
     1
 43
0.0
 38
0.97
 10
-0.4375
 20
-3.3
 10
-0.4375
 20
-3.075
 10
-0.46
 20
-3.075
 10
-0.46
 20
-2.575
 10
-0.795
 20
-2.575
 10
-0.795
 20
-3.075
 10
-0.8175
 20
-3.075
 10
-0.8175
 20
-3.3
210
0.0
220
-1.0
230
0.0
  0
TEXT
  5
51E7
100
AcDbEntity
  8
0
100
AcDbText
 10
-0.82254
 20
-2.575
 30
0.97
 40
0.2
  1
15
210
0.0
220
-1.0
230
0.0
100
AcDbText
  0
LWPOLYLINE
  5
51E8
100
AcDbEntity
  8
0
100
AcDbPolyline
 90
        8
 70
     1
 43
0.0
 38
0.97
 10
-0.3925
 20
-3.8
 10
-0.0125
 20
-3.8
 10
-0.0125
 20
-3.575
 10
-0.035
 20
-3.575
 10
-0.035
 20
-3.075
 10
-0.37
 20
-3.075
 10
-0.37
 20
-3.575
 10
-0.3925
 20
-3.575
210
0.0
220
-1.0
230
0.0
  0
TEXT
  5
51E9
100
AcDbEntity
  8
0
100
AcDbText
 10
-0.359889
 20
-3.075
 30
0.97
 40
0.2
  1
19
210
0.0
220
-1.0
230
0.0
100
AcDbText
  0
TEXT
  5
51EA
100
AcDbEntity
  8
0
100
AcDbText
 10
0.105
 20
-2.575
 30
0.97
 40
0.2
  1
13
210
0.0
220
-1.0
230
0.0
100
AcDbText
  0
LWPOLYLINE
  5
51EB
100
AcDbEntity
  8
0
100
AcDbPolyline
 90
       10
 70
     0
 43
0.0
 38
0.97
 10
0.4125
 20
-3.075
 10
0.39
 20
-3.075
 10
0.39
 20
-2.575
 10
0.055
 20
-2.575
 10
0.055
 20
-3.075
 10
0.0325
 20
-3.075
 10
0.0325
 20
-3.3
 10
0.4125
 20
-3.3
 10
0.4125
 20
-3.075
 10
0.4125
 20
-3.3
210
0.0
220
-1.0
230
0.0
  0
TEXT
  5
51EC
100
AcDbEntity
  8
0
100
AcDbText
 10
0.5525
 20
-3.075
 30
0.97
 40
0.2
  1
17
210
0.0
220
-1.0
230
0.0
100
AcDbText
  0
LWPOLYLINE
  5
51ED
100
AcDbEntity
  8
0
100
AcDbPolyline
 90
        8
 70
     1
 43
0.0
 38
0.97
 10
0.8375
 20
-3.075
 10
0.5025
 20
-3.075
 10
0.5025
 20
-3.575
 10
0.48
 20
-3.575
 10
0.48
 20
-3.8
 10
0.86
 20
-3.8
 10
0.86
 20
-3.575
 10
0.8375
 20
-3.575
210
0.0
220
-1.0
230
0.0
  0
TEXT
  5
51EE
100
AcDbEntity
  8
0
100
AcDbText
 10
0.4825
 20
-3.575
 30
0.97
 40
0.2
  1
24
210
0.0
220
1.0
230
0.0
100
AcDbText
  0
LWPOLYLINE
  5
51EF
100
AcDbEntity
  8
0
100
AcDbPolyline
 90
        8
 70
     1
 43
0.0
 38
-0.97
 10
-0.8625
 20
-4.3
 10
-0.4825
 20
-4.3
 10
-0.4825
 20
-4.075
 10
-0.505
 20
-4.075
 10
-0.505
 20
-3.575
 10
-0.84
 20
-3.575
 10
-0.84
 20
-4.075
 10
-0.8625
 20
-4.075
210
0.0
220
-1.0
230
0.0
  0
LWPOLYLINE
  5
51F0
100
AcDbEntity
  8
0
100
AcDbPolyline
 90
        8
 70
     1
 43
0.0
 38
-0.97
 10
0.3675
 20
-3.575
 10
0.0325
 20
-3.575
 10
0.0325
 20
-4.075
 10
0.01
 20
-4.075
 10
0.01
 20
-4.3
 10
0.39
 20
-4.3
 10
0.39
 20
-4.075
 10
0.3675
 20
-4.075
210
0.0
220
-1.0
230
0.0
  0
TEXT
  5
51F1
100
AcDbEntity
  8
0
100
AcDbText
 10
-0.2425
 20
-3.575
 30
0.97
 40
0.2
  1
22
210
0.0
220
1.0
230
0.0
100
AcDbText
  0
TEXT
  5
51F2
100
AcDbEntity
  8
0
100
AcDbText
 10
-0.829889
 20
-3.575
 30
0.97
 40
0.2
  1
23
210
0.0
220
-1.0
230
0.0
100
AcDbText
  0
LWPOLYLINE
  5
51F3
100
AcDbEntity
  8
0
100
AcDbPolyline
 90
        8
 70
     1
 43
0.0
 38
0.97
 10
-0.8625
 20
-4.3
 10
-0.4825
 20
-4.3
 10
-0.4825
 20
-4.075
 10
-0.505
 20
-4.075
 10
-0.505
 20
-3.575
 10
-0.84
 20
-3.575
 10
-0.84
 20
-4.075
 10
-0.8625
 20
-4.075
210
0.0
220
-1.0
230
0.0
  0
TEXT
  5
51F4
100
AcDbEntity
  8
0
100
AcDbText
 10
0.0825
 20
-3.575
 30
0.97
 40
0.2
  1
21
210
0.0
220
-1.0
230
0.0
100
AcDbText
  0
LWPOLYLINE
  5
51F5
100
AcDbEntity
  8
0
100
AcDbPolyline
 90
        8
 70
     1
 43
0.0
 38
0.97
 10
0.3675
 20
-3.575
 10
0.0325
 20
-3.575
 10
0.0325
 20
-4.075
 10
0.01
 20
-4.075
 10
0.01
 20
-4.3
 10
0.39
 20
-4.3
 10
0.39
 20
-4.075
 10
0.3675
 20
-4.075
210
0.0
220
-1.0
230
0.0
  0
LWPOLYLINE
  5
51F6
100
AcDbEntity
  8
0
100
AcDbPolyline
 90
        4
 70
     1
 43
0.0
 38
-0.675
 10
-0.9825
 20
0.97
 10
0.9825
 20
0.97
 10
0.9825
 20
-0.97
 10
-0.9825
 20
-0.97
  0
3DSOLID
  5
51F7
100
AcDbEntity
  8
0
100
AcDbModelerGeometry
 70
     1
  1
noi gj n o          
  1
=0;& {rn {n {rn {rn |
  1
3*2/ {rn {rn {m {o |
  1
,7:33 {rn {rn {rn {l {n |
  1
9><: {rn {k {j {m {rn {i 90-(>-; ,6183: |
  1
9><: {rn {h {g {m {rn {f 90-(>-; ,6183: |
  1
300/ {rn {rn {no {l |
  1
/3>1:r,*-9><: {rn roqfgmkffffffffffffl roqfhoooooooooooookm roqihkfffffffffffflg o rn o o o rn o V V V V |
  1
9><: {rn {nn {nm {m {rn {nl 90-(>-; ,6183: |
  1
300/ {rn {rn {nk {k |
  1
/3>1:r,*-9><: {rn oqfgmkffffffffffffl roqfhoooooooooooookm roqihkfffffffffffflg n o o o o rn o V V V V |
  1
<0:;8: {rn {nj {ni {nh {ng o {j {rn |
  1
9><: {rn {nf {mo {m {rn {mn 90-(>-; ,6183: |
  1
300/ {rn {rn {mm {h |
  1
/3>1:r,*-9><: {rn oqfgmkffffffffffffl oqfiffffffffffffggi roqihkfffffffffffflg o n o o o n o V V V V |
  1
<0:;8: {rn {ml {mk {mj {mi o {g {rn |
  1
<0:;8: {rn {mh {no {mk {mg n {j {rn |
  1
<0:;8: {rn {no {mh {mf {lo o {j {rn |
  1
<0:;8: {rn {ln {mj {no {ng n {lm {rn |
  1
:;8: {rn {ll {lk {no {lj o |
  1
9><: {rn {li {lm {m {rn {lh 90-(>-; ,6183: |
  1
300/ {rn {rn {lg {nn |
  1
/3>1:r,*-9><: {rn roqfgmkffffffffffffl oqfiffffffffffffggi roqihkfffffffffffflg rn o o o o n o V V V V |
  1
<0:;8: {rn {lf {ko {kn {km o {nm {rn |
  1
<0:;8: {rn {kl {nk {ko {kk n {g {rn |
  1
<0:;8: {rn {nk {kl {nj {mg o {g {rn |
  1
<0:;8: {rn {nh {kn {nk {mi n {lm {rn |
  1
:;8: {rn {lk {kj {nk {ki o |
  1
<0:;8: {rn {ni {nj {kh {kg n {j {rn |
  1
:;8: {rn {kf {lk {mk {jo o |
  1
<0:;8: {rn {jn {lg {ni {lo n {mo {rn |
  1
:;8: {rn {jm {ll {ni {jl o |
  1
<0:;8: {rn {kn {nh {lg {jk n {lm {rn |
  1
300/ {rn {rn {nh {nf |
  1
):-+:' {rn {lo {jj |
  1
):-+:' {rn {mg {ji |
  1
,+->687+r<*-): {rn roqfgmkffffffffffffl roqfhoooooooooooookm rjqnfkfffffffffffgj n o o V V |
  1
9><: {rn {rn {jh {m {rn {jg -:):-,:; ,6183: |
  1
/3>1:r,*-9><: {rn roqfgmkffffffffffffl roqfhoooooooooooookm rjqnfkfffffffffffgj o o rn rn o o o V V V V |
  1
<0:;8: {rn {mf {jf {ln {jk o {mo {rn |
  1
<0:;8: {rn {io {mm {jf {in n {nm {rn |
  1
<0:;8: {rn {mm {io {ml {kk o {nm {rn |
  1
<0:;8: {rn {mj {ln {mm {km n {lm {rn |
  1
:;8: {rn {kj {im {mm {il o |
  1
<0:;8: {rn {mk {ml {ik {ij n {g {rn |
  1
:;8: {rn {ii {kj {ko {ih o |
  1
):-+:' {rn {kk {ig |
  1
,+->687+r<*-): {rn oqfgmkffffffffffffl roqfhoooooooooooookm rjqnfkfffffffffffgj o n o V V |
  1
<0:;8: {rn {ik {if {mh {kg o {jh {rn |
  1
:;8: {rn {jm {kf {kh {ho o |
  1
):-+:' {rn {kg {hn |
  1
,+->687+r<*-): {rn oqfgmkffffffffffffl roqfhoooooooooooookm roqihkfffffffffffflg o o rn V V |
  1
<0:;8: {rn {jf {mf {if {hm n {mo {rn |
  1
):-+:' {rn {hm {hl |
  1
,+->687+r<*-): {rn roqfgmkffffffffffffl roqfhoooooooooooookm roqihkfffffffffffflg o o rn V V |
  1
:;8: {rn {im {ll {lg {hk o |
  1
/061+ {rn roqfgmkffffffffffffl roqfhoooooooooooookm rjqnfkfffffffffffgj |
  1
/061+ {rn oqfgmkffffffffffffl roqfhoooooooooooookm rjqnfkfffffffffffgj |
  1
300/ {rn {rn {if {li |
  1
/3>1:r,*-9><: {rn o rhqhhnjinnhmlhiofjg:roni roqihkfffffffffffflg o o rn rn o o o V V V V |
  1
<0:;8: {rn {lg {jn {lf {in o {mo {rn |
  1
<0:;8: {rn {ko {lf {hj {hi n {nm {rn |
  1
:;8: {rn {hh {im {jf {hg o |
  1
):-+:' {rn {in {hf |
  1
,+->687+r<*-): {rn oqfgmkffffffffffffl oqfiffffffffffffggi rjqnfkfffffffffffgj rn o o V V |
  1
<0:;8: {rn {hj {kh {kl {ij o {jh {rn |
  1
:;8: {rn {kf {ii {ik {go o |
  1
):-+:' {rn {ij {gn |
  1
,+->687+r<*-): {rn oqfgmkffffffffffffl oqfiffffffffffffggi roqihkfffffffffffflg o o rn V V |
  1
/061+ {rn oqfgmkffffffffffffl oqfiffffffffffffggi rjqnfkfffffffffffgj |
  1
<0:;8: {rn {kh {hj {jn {hm o {jh {rn |
  1
,+->687+r<*-): {rn roqfgmkffffffffffffl roqfhoooooooooooookm roqihkfffffffffffflg n o o V V |
  1
/061+ {rn oqfgmkffffffffffffl roqfhoooooooooooookm roqihkfffffffffffflg |
  1
:;8: {rn {hh {jm {if {gm o |
  1
/061+ {rn roqfgmkffffffffffffl roqfhoooooooooooookm roqihkfffffffffffflg |
  1
,+->687+r<*-): {rn roqfgmkffffffffffffl oqfiffffffffffffggi rjqnfkfffffffffffgj o rn o V V |
  1
<0:;8: {rn {if {ik {io {hi o {jh {rn |
  1
:;8: {rn {ii {hh {hj {gl o |
  1
):-+:' {rn {hm {gk |
  1
,+->687+r<*-): {rn roqfgmkffffffffffffl oqfiffffffffffffggi roqihkfffffffffffflg o o rn V V |
  1
/061+ {rn roqfgmkffffffffffffl oqfiffffffffffffggi rjqnfkfffffffffffgj |
  1
,+->687+r<*-): {rn oqfgmkffffffffffffl roqfhoooooooooooookm roqihkfffffffffffflg o n o V V |
  1
/061+ {rn oqfgmkffffffffffffl oqfiffffffffffffggi roqihkfffffffffffflg |
  1
,+->687+r<*-): {rn roqfgmkffffffffffffl oqfiffffffffffffggi roqihkfffffffffffflg o rn o V V |
  1
,+->687+r<*-): {rn oqfgmkffffffffffffl oqfiffffffffffffggi roqihkfffffffffffflg rn o o V V |
  1
/061+ {rn roqfgmkffffffffffffl oqfiffffffffffffggi roqihkfffffffffffflg |
  0
LWPOLYLINE
  5
51F8
100
AcDbEntity
  8
0
100
AcDbPolyline
 90
        4
 70
     1
 43
0.0
 38
-0.97
 10
-0.5275
 20
-5.075
 10
-0.5275
 20
-4.575
 10
-0.8625
 20
-4.575
 10
-0.8625
 20
-5.075
210
0.0
220
-1.0
230
0.0
  0
TEXT
  5
51F9
100
AcDbEntity
  8
0
100
AcDbText
 10
0.6025
 20
-4.575
 30
0.97
 40
0.2
  1
32
210
0.0
220
1.0
230
0.0
100
AcDbText
  0
TEXT
  5
51FA
100
AcDbEntity
  8
0
100
AcDbText
 10
-0.2875
 20
-4.575
 30
0.97
 40
0.2
  1
30
210
0.0
220
1.0
230
0.0
100
AcDbText
  0
LWPOLYLINE
  5
51FB
100
AcDbEntity
  8
0
100
AcDbPolyline
 90
        4
 70
     1
 43
0.0
 38
-0.97
 10
0.01
 20
-4.575
 10
0.01
 20
-5.075
 10
0.345
 20
-5.075
 10
0.345
 20
-4.575
210
0.0
220
-1.0
230
0.0
  0
TEXT
  5
51FC
100
AcDbEntity
  8
0
100
AcDbText
 10
-0.85754
 20
-4.575
 30
0.97
 40
0.2
  1
31
210
0.0
220
-1.0
230
0.0
100
AcDbText
  0
LWPOLYLINE
  5
51FD
100
AcDbEntity
  8
0
100
AcDbPolyline
 90
        4
 70
     1
 43
0.0
 38
0.97
 10
-0.5275
 20
-5.075
 10
-0.5275
 20
-4.575
 10
-0.8625
 20
-4.575
 10
-0.8625
 20
-5.075
210
0.0
220
-1.0
230
0.0
  0
TEXT
  5
51FE
100
AcDbEntity
  8
0
100
AcDbText
 10
0.07
 20
-4.575
 30
0.97
 40
0.2
  1
29
210
0.0
220
-1.0
230
0.0
100
AcDbText
  0
LWPOLYLINE
  5
51FF
100
AcDbEntity
  8
0
100
AcDbPolyline
 90
        4
 70
     1
 43
0.0
 38
0.97
 10
0.01
 20
-4.575
 10
0.01
 20
-5.075
 10
0.345
 20
-5.075
 10
0.345
 20
-4.575
210
0.0
220
-1.0
230
0.0
  0
TEXT
  5
5200
100
AcDbEntity
  8
0
100
AcDbText
 10
0.0575
 20
-4.075
 30
0.97
 40
0.2
  1
28
210
0.0
220
1.0
230
0.0
100
AcDbText
  0
LWPOLYLINE
  5
5201
100
AcDbEntity
  8
0
100
AcDbPolyline
 90
        8
 70
     1
 43
0.0
 38
-0.97
 10
-0.4375
 20
-4.8
 10
-0.0575
 20
-4.8
 10
-0.0575
 20
-4.575
 10
-0.08
 20
-4.575
 10
-0.08
 20
-4.075
 10
-0.415
 20
-4.075
 10
-0.415
 20
-4.575
 10
-0.4375
 20
-4.575
210
0.0
220
-1.0
230
0.0
  0
TEXT
  5
5202
100
AcDbEntity
  8
0
100
AcDbText
 10
-0.6675
 20
-4.075
 30
0.97
 40
0.2
  1
26
210
0.0
220
1.0
230
0.0
100
AcDbText
  0
LWPOLYLINE
  5
5203
100
AcDbEntity
  8
0
100
AcDbPolyline
 90
        8
 70
     1
 43
0.0
 38
-0.97
 10
0.7925
 20
-4.075
 10
0.4575
 20
-4.075
 10
0.4575
 20
-4.575
 10
0.435
 20
-4.575
 10
0.435
 20
-4.8
 10
0.815
 20
-4.8
 10
0.815
 20
-4.575
 10
0.7925
 20
-4.575
210
0.0
220
-1.0
230
0.0
  0
TEXT
  5
5204
100
AcDbEntity
  8
0
100
AcDbText
 10
-0.404889
 20
-4.075
 30
0.97
 40
0.2
  1
27
210
0.0
220
-1.0
230
0.0
100
AcDbText
  0
LWPOLYLINE
  5
5205
100
AcDbEntity
  8
0
100
AcDbPolyline
 90
        8
 70
     1
 43
0.0
 38
0.97
 10
-0.4375
 20
-4.8
 10
-0.0575
 20
-4.8
 10
-0.0575
 20
-4.575
 10
-0.08
 20
-4.575
 10
-0.08
 20
-4.075
 10
-0.415
 20
-4.075
 10
-0.415
 20
-4.575
 10
-0.4375
 20
-4.575
210
0.0
220
-1.0
230
0.0
  0
TEXT
  5
5206
100
AcDbEntity
  8
0
100
AcDbText
 10
0.5075
 20
-4.075
 30
0.97
 40
0.2
  1
25
210
0.0
220
-1.0
230
0.0
100
AcDbText
  0
LWPOLYLINE
  5
5207
100
AcDbEntity
  8
0
100
AcDbPolyline
 90
        8
 70
     1
 43
0.0
 38
0.97
 10
0.7925
 20
-4.075
 10
0.4575
 20
-4.075
 10
0.4575
 20
-4.575
 10
0.435
 20
-4.575
 10
0.435
 20
-4.8
 10
0.815
 20
-4.8
 10
0.815
 20
-4.575
 10
0.7925
 20
-4.575
210
0.0
220
-1.0
230
0.0
  0
DIMENSION
  5
5208
100
AcDbEntity
  8
AREA1
100
AcDbDimension
  2
*D1
 10
1.0775
 20
1.447029
 30
0.0
 11
0.0
 21
1.447029
 31
0.0
 70
    32
  3
ABECAD_3D
100
AcDbAlignedDimension
 13
-1.0775
 23
1.0775
 33
-0.19
 14
1.0775
 24
1.0775
 34
0.0
100
AcDbRotatedDimension
  0
DIMENSION
  5
5209
100
AcDbEntity
  8
AREA1
100
AcDbDimension
  2
*D2
 10
1.49069
 20
-1.0775
 30
0.0
 11
1.49069
 21
0.0
 31
0.0
 70
    32
  3
ABECAD_3D
100
AcDbAlignedDimension
 13
1.0775
 23
1.0775
 33
0.0
 14
1.0775
 24
-1.0775
 34
0.0
 50
90.0
100
AcDbRotatedDimension
  0
ENDBLK
  5
520B
100
AcDbEntity
  8
0
100
AcDbBlockEnd
  0
BLOCK
  5
5223
100
AcDbEntity
  8
0
100
AcDbBlockBegin
  2
*D4
 70
     1
 10
0.0
 20
0.0
 30
0.0
  3
*D4
  1

  0
LINE
  5
5219
100
AcDbEntity
  8
AREA2
 62
     0
100
AcDbLine
 10
0.0625
 20
0.815
 30
0.0
 11
1.658417
 21
0.815
 31
0.0
1001
ACAD
1000
RTLwPs
1070
   158
  0
LINE
  5
521A
100
AcDbEntity
  8
AREA2
 62
     0
100
AcDbLine
 10
1.045
 20
-5.195
 30
0.0
 11
1.658417
 21
-5.195
 31
0.0
1001
ACAD
1000
RTLwPs
1070
   158
  0
LINE
  5
521B
100
AcDbEntity
  8
AREA2
 62
     0
100
AcDbLine
 10
1.478417
 20
0.635
 30
0.0
 11
1.478417
 21
-1.09754
 31
0.0
1001
ACAD
1000
RTLwPs
1070
   158
  0
LINE
  5
521C
100
AcDbEntity
  8
AREA2
 62
     0
100
AcDbLine
 10
1.478417
 20
-5.015
 30
0.0
 11
1.478417
 21
-3.55754
 31
0.0
1001
ACAD
1000
RTLwPs
1070
   158
  0
MTEXT
  5
521D
100
AcDbEntity
  8
AREA2
 62
     0
100
AcDbMText
 10
1.478417
 20
-2.32754
 30
0.0
 40
0.18
 41
0.0
 71
     5
 72
     1
  1
\A1;6 1/64 [152.65]
 11
0.0
 21
1.0
 31
0.0
1001
ACAD
1000
MTEXTBEGIN
1070
    73
1070
     1
1070
    44
1040
1.0
1070
    74
1070
     0
1000
MTEXTEND
1000
MTEXTBEGIN
1070
    73
1070
     1
1070
    44
1040
1.0
1070
    74
1070
     0
1000
MTEXTEND
1000
MTEXTBEGIN
1070
    73
1070
     1
1070
    44
1040
1.0
1070
    74
1070
     0
1000
MTEXTEND
1000
MTEXTBEGIN
1070
    73
1070
     1
1070
    44
1040
1.0
1070
    74
1070
     0
1000
MTEXTEND
  0
SOLID
  5
521E
100
AcDbEntity
  8
AREA2
 62
     0
100
AcDbTrace
 10
1.448417
 20
0.635
 30
0.0
 11
1.508417
 21
0.635
 31
0.0
 12
1.478417
 22
0.815
 32
0.0
 13
1.478417
 23
0.815
 33
0.0
  0
SOLID
  5
521F
100
AcDbEntity
  8
AREA2
 62
     0
100
AcDbTrace
 10
1.448417
 20
-5.015
 30
0.0
 11
1.508417
 21
-5.015
 31
0.0
 12
1.478417
 22
-5.195
 32
0.0
 13
1.478417
 23
-5.195
 33
0.0
  0
POINT
  5
5220
100
AcDbEntity
  8
DEFPOINTS
 62
     0
100
AcDbPoint
 10
0.0
 20
0.815
 30
0.0
  0
POINT
  5
5221
100
AcDbEntity
  8
DEFPOINTS
 62
     0
100
AcDbPoint
 10
0.9825
 20
-5.195
 30
-0.97
  0
POINT
  5
5222
100
AcDbEntity
  8
DEFPOINTS
 62
     0
100
AcDbPoint
 10
1.478417
 20
-5.195
 30
0.0
  0
ENDBLK
  5
5224
100
AcDbEntity
  8
0
100
AcDbBlockEnd
  0
ENDSEC
  0
SECTION
  2
ENTITIES
  0
INSERT
  5
520C
100
AcDbEntity
  8
0
100
AcDbBlockReference
 66
     1
  2
ABDSN960
 10
0.0
 20
0.0
 30
0.0
  0
ATTRIB
  5
520E
100
AcDbEntity
  8
ATTRIBUTES
100
AcDbText
 10
-0.958634
 20
-0.055447
 30
-5.194691
 40
0.051578
  1
ALLEN-BRADLEY
100
AcDbAttribute
  2
AC_VND_LABEL
 70
     1
  0
ATTRIB
  5
520F
100
AcDbEntity
  8
ATTRIBUTES
100
AcDbText
 10
-0.958634
 20
-0.162902
 30
-5.194691
 40
0.051578
  1
194L-E20/E25 W/ 8 CARRIERS
100
AcDbAttribute
  2
AC_PART_NO
 70
     1
  0
ATTRIB
  5
5210
100
AcDbEntity
  8
ATTRIBUTES
100
AcDbText
 10
-0.958634
 20
-0.270357
 30
-5.194691
 40
0.051578
  1
CONTROL & LOAD SWITCH BODY, 20A/25A W/ 8 CARRIERS
100
AcDbAttribute
  2
AC_DESCRIPTION
 70
     1
  0
ATTRIB
  5
5211
100
AcDbEntity
  8
ATTRIBUTES
100
AcDbText
 10
-0.958634
 20
-0.377812
 30
-5.194691
 40
0.051578
  1

100
AcDbAttribute
  2
DEVICE_ID
 70
     1
  0
ATTRIB
  5
5212
100
AcDbEntity
  8
ATTRIBUTES
100
AcDbText
 10
-0.958634
 20
-0.485266
 30
-5.194691
 40
0.051578
  1

100
AcDbAttribute
  2
AC_CPART_NO
 70
     1
  0
ATTRIB
  5
5213
100
AcDbEntity
  8
ATTRIBUTES
100
AcDbText
 10
-0.958634
 20
-0.592721
 30
-5.194691
 40
0.051578
  1

100
AcDbAttribute
  2
AC_NOTE
 70
     1
  0
ATTRIB
  5
5214
100
AcDbEntity
  8
ATTRIBUTES
100
AcDbText
 10
-0.958634
 20
-0.700176
 30
-5.194691
 40
0.051578
  1

100
AcDbAttribute
  2
FASTENER
 70
     1
  0
ATTRIB
  5
5215
100
AcDbEntity
  8
ATTRIBUTES
100
AcDbText
 10
-0.958634
 20
-0.807631
 30
-5.194691
 40
0.051578
  1

100
AcDbAttribute
  2
AC_SCALE_UNIT
 70
     1
  0
ATTRIB
  5
5216
100
AcDbEntity
  8
ATTRIBUTES
100
AcDbText
 10
-0.958634
 20
-0.915086
 30
-5.194691
 40
0.051578
  1

100
AcDbAttribute
  2
AC_VIEW_CODE
 70
     1
  0
SEQEND
  5
520D
100
AcDbEntity
  8
0
  0
DIMENSION
  5
5217
100
AcDbEntity
  8
AREA2
100
AcDbDimension
  2
*D4
 10
1.478417
 20
0.0
 30
-5.195
 11
1.478417
 21
-2.32754
 31
0.0
 70
   160
210
0.0
220
-1.0
230
0.0
  3
ABECAD_3V
100
AcDbAlignedDimension
 13
0.0
 23
0.0
 33
0.815
 14
0.9825
 24
0.97
 34
-5.195
 50
90.0
100
AcDbRotatedDimension
1001
ACAD
1000
DSTYLE
1002
{
1070
    40
1040
1.0
1002
}
  0
VIEWPORT
  5
2C
102
{ACAD_XDICTIONARY
360
5307
102
}
100
AcDbEntity
 67
     1
  8
0
100
AcDbViewport
 10
4.999849
 20
3.750155
 30
0.0
 40
13.933522
 41
7.595705
 68
     1
 69
     1
1001
ACAD
1000
MVIEW
1002
{
1070
    16
1010
0.0
1020
0.0
1030
0.0
1010
0.0
1020
0.0
1030
1.0
1040
0.0
1040
7.595705
1040
4.999849
1040
3.750155
1040
50.0
1040
0.0
1040
0.0
1070
     0
1070
   100
1070
     1
1070
     1
1070
     0
1070
     0
1070
     0
1070
     0
1040
0.0
1040
0.0
1040
0.0
1040
1.0
1040
1.0
1040
0.0
1040
0.0
1070
     0
1002
{
1002
}
1002
}
  0
VIEWPORT
  5
2D
102
{ACAD_XDICTIONARY
360
5309
102
}
100
AcDbEntity
 67
     1
  8
0
100
AcDbViewport
 10
2.5
 20
5.625
 30
0.0
 40
5.0
 41
3.75
 68
     4
 69
     2
1001
ACAD
1000
MVIEW
1002
{
1070
    16
1010
0.0
1020
0.0
1030
0.0
1010
0.0
1020
0.0
1030
1.0
1040
0.0
1040
4.057137
1040
0.203748
1040
0.23327
1040
50.0
1040
0.0
1040
0.0
1070
     0
1070
   100
1070
     1
1070
     0
1070
     0
1070
     0
1070
     0
1070
     0
1040
0.0
1040
0.0
1040
0.0
1040
1.0
1040
1.0
1040
0.0
1040
0.0
1070
     0
1002
{
1003
AREA2
1002
}
1002
}
  0
VIEWPORT
  5
2E
102
{ACAD_XDICTIONARY
360
530B
102
}
100
AcDbEntity
 67
     1
  8
0
100
AcDbViewport
 10
2.5
 20
1.875
 30
0.0
 40
5.0
 41
3.75
 68
     3
 69
     3
1001
ACAD
1000
MVIEW
1002
{
1070
    16
1010
0.0
1020
0.0
1030
0.0
1010
0.0
1020
-1.0
1030
0.0
1040
0.0
1040
6.609425
1040
0.330575
1040
-2.182314
1040
50.0
1040
0.0
1040
0.0
1070
     0
1070
   100
1070
     1
1070
     0
1070
     0
1070
     0
1070
     0
1070
     0
1040
0.0
1040
0.0
1040
0.0
1040
1.0
1040
1.0
1040
0.0
1040
0.0
1070
     0
1002
{
1003
AREA1
1002
}
1002
}
  0
VIEWPORT
  5
2F
102
{ACAD_XDICTIONARY
360
530D
102
}
100
AcDbEntity
 67
     1
  8
0
100
AcDbViewport
 10
7.5
 20
3.75
 30
0.0
 40
5.0
 41
7.5
 68
     2
 69
     4
1001
ACAD
1000
MVIEW
1002
{
1070
    16
1010
0.0
1020
0.0
1030
0.0
1010
-1.0
1020
-1.0
1030
1.0
1040
0.0
1040
9.951232
1040
0.163595
1040
-0.400034
1040
50.0
1040
0.0
1040
0.0
1070
     0
1070
   100
1070
     1
1070
     0
1070
     0
1070
     0
1070
     0
1070
     0
1040
0.0
1040
0.0
1040
0.0
1040
1.0
1040
1.0
1040
0.0
1040
0.0
1070
     0
1002
{
1003
AREA1
1003
AREA2
1002
}
1002
}
  0
TEXT
  5
42D
100
AcDbEntity
 67
     1
  8
0
100
AcDbText
 10
5.255085
 20
7.088521
 30
0.0
 40
0.17
  1
194L-E20/E25-*
100
AcDbText
  0
TEXT
  5
431
100
AcDbEntity
 67
     1
  8
0
100
AcDbText
 10
5.255085
 20
6.805188
 30
0.0
 40
0.17
  1
CONTROL & LOAD SWITCH BODY,
100
AcDbText
1001
ACAD
1000
R13OBJECT
1002
{
1005
42D
1002
}
  0
TEXT
  5
59F
100
AcDbEntity
 67
     1
  8
0
100
AcDbText
 10
5.255085
 20
6.5117
 30
0.0
 40
0.17
  1
20A/25A W/ 8 CARRIERS
100
AcDbText
1001
ACAD
1000
R13OBJECT
1002
{
1005
42D
1002
}
  0
TEXT
  5
1F8C
100
AcDbEntity
 67
     1
  8
0
100
AcDbText
 10
5.255085
 20
6.235419
 30
0.0
 40
0.17
  1

100
AcDbText
1001
ACAD
1000
R13OBJECT
1002
{
1005
42D
1002
}
  0
TEXT
  5
21C7
100
AcDbEntity
 67
     1
  8
0
100
AcDbText
 10
5.255085
 20
6.235419
 30
0.0
 40
0.17
  1

100
AcDbText
1001
ACAD
1000
R13OBJECT
1002
{
1005
42D
1002
}
  0
TEXT
  5
2646
100
AcDbEntity
 67
     1
  8
0
100
AcDbText
 10
5.255085
 20
6.235419
 30
0.0
 40
0.17
  1

100
AcDbText
1001
ACAD
1000
R13OBJECT
1002
{
1005
42D
1002
}
  0
TEXT
  5
27F7
100
AcDbEntity
 67
     1
  8
0
100
AcDbText
 10
5.255085
 20
6.235419
 30
0.0
 40
0.17
  1

100
AcDbText
1001
ACAD
1000
R13OBJECT
1002
{
1005
42D
1002
}
  0
ENDSEC
  0
SECTION
  2
OBJECTS
  0
DICTIONARY
  5
46D
100
AcDbDictionary
  3
ACAD_GROUP
350
46E
  3
ACAD_LAYOUT
350
49E
  3
ACAD_MLINESTYLE
350
47B
  3
ACAD_PLOTSETTINGS
350
49F
  3
ACAD_PLOTSTYLENAME
350
49C
  3
ACDBHEADERROUNDTRIPXREC
350
52E6
  3
ACDBVARIABLEDICTIONARY
350
48D
  0
DICTIONARY
  5
52E4
100
AcDbDictionary
280
     1
  3
ACAD_XREC_ROUNDTRIP
360
52E5
  0
DICTIONARY
  5
5311
100
AcDbDictionary
280
     1
  3
ACAD_XREC_ROUNDTRIP
360
5312
  0
DICTIONARY
  5
5313
100
AcDbDictionary
280
     1
  3
ACAD_XREC_ROUNDTRIP
360
5314
  0
DICTIONARY
  5
5317
100
AcDbDictionary
280
     1
  3
ACAD_XREC_ROUNDTRIP
360
5318
  0
DICTIONARY
  5
5319
100
AcDbDictionary
280
     1
  3
ACAD_XREC_ROUNDTRIP
360
531A
  0
DICTIONARY
  5
4D2
100
AcDbDictionary
280
     1
  3
ACAD_LAYOUTSELFREF
360
5310
  0
DICTIONARY
  5
4D0
100
AcDbDictionary
280
     1
  3
ACAD_LAYOUTSELFREF
360
530F
  0
DICTIONARY
  5
52E0
100
AcDbDictionary
280
     1
  3
ACAD_XREC_ROUNDTRIP
360
52E1
  0
DICTIONARY
  5
52E2
100
AcDbDictionary
280
     1
  3
ACAD_XREC_ROUNDTRIP
360
52E3
  0
DICTIONARY
  5
5307
100
AcDbDictionary
280
     1
  3
ACAD_XREC_ROUNDTRIP
360
5308
  0
DICTIONARY
  5
5309
100
AcDbDictionary
280
     1
  3
ACAD_XREC_ROUNDTRIP
360
530A
  0
DICTIONARY
  5
530B
100
AcDbDictionary
280
     1
  3
ACAD_XREC_ROUNDTRIP
360
530C
  0
DICTIONARY
  5
530D
100
AcDbDictionary
280
     1
  3
ACAD_XREC_ROUNDTRIP
360
530E
  0
DICTIONARY
  5
46E
102
{ACAD_REACTORS
330
46D
102
}
100
AcDbDictionary
  0
DICTIONARY
  5
49E
102
{ACAD_XDICTIONARY
360
5315
102
}
102
{ACAD_REACTORS
330
46D
102
}
100
AcDbDictionary
  3
LAYOUT1
350
4A1
  3
MODEL
350
4A0
  0
DICTIONARY
  5
47B
102
{ACAD_REACTORS
330
46D
102
}
100
AcDbDictionary
  3
STANDARD
350
47C
  0
DICTIONARY
  5
49F
102
{ACAD_REACTORS
330
46D
102
}
100
AcDbDictionary
  0
ACAD_PROXY_OBJECT
  5
49C
102
{ACAD_REACTORS
330
46D
102
}
100
AcDbProxyObject
 90
      499
 91
      501
 93
       86
310
405010041939BDC9B585B0
350
49D
340
49D
 94
        0
  0
DICTIONARY
  5
52E6
102
{ACAD_REACTORS
330
46D
102
}
100
AcDbDictionary
  3
CEPSNTYPE
350
52F0
  3
DIMSTYLEDATA
350
52F4
  3
FINGERPRINTGUID
350
52F1
  3
HYPERLINKBASE
350
52E9
  3
INSUNITS
350
52EF
  3
LAYOUTDICT
350
52EB
  3
LWETCUNION
350
52EE
  3
PLOTSETDICT
350
52EC
  3
PLOTSTYLNAMDICT
350
52ED
  3
PSVPSCALE
350
52F3
  3
PUCSBASE
350
52F7
  3
PUCSORGBACK
350
52FD
  3
PUCSORGBOTTOM
350
52F9
  3
PUCSORGFRONT
350
52FC
  3
PUCSORGLEFT
350
52FA
  3
PUCSORGRIGHT
350
52FB
  3
PUCSORGTOP
350
52F8
  3
PUCSORTHOREF
350
52F5
  3
PUCSORTHOVIEW
350
52F6
  3
STYLESHEET
350
52EA
  3
TSTACKALIGN
350
52E7
  3
TSTACKSIZE
350
52E8
  3
UCSBASE
350
5300
  3
UCSORGBACK
350
5306
  3
UCSORGBOTTOM
350
5302
  3
UCSORGFRONT
350
5305
  3
UCSORGLEFT
350
5303
  3
UCSORGRIGHT
350
5304
  3
UCSORGTOP
350
5301
  3
UCSORTHOREF
350
52FE
  3
UCSORTHOVIEW
350
52FF
  3
VERSIONGUID
350
52F2
  0
DICTIONARY
  5
48D
102
{ACAD_REACTORS
330
46D
102
}
100
AcDbDictionary
  3
DIMADEC
350
48E
  0
XRECORD
  5
52E5
102
{ACAD_REACTORS
330
52E4
102
}
100
AcDbXrecord
102
EXTNAMES
  1
*ACTIVE
  2
*Active
102
UCS
 74
     0
 71
     1
 10
0.0
 20
0.0
 30
0.0
 10
1.0
 20
0.0
 30
0.0
 10
0.0
 20
0.0
 30
1.0
146
0.0
 79
     3
102
VIEW
281
     0
  0
XRECORD
  5
5312
102
{ACAD_REACTORS
330
5311
102
}
100
AcDbXrecord
102
PLOTBIT
280
     0
  0
XRECORD
  5
5314
102
{ACAD_REACTORS
330
5313
102
}
100
AcDbXrecord
102
ACADR14ROUNDTRIP
1000
DSTYLE
1002
{
1070
   276
 70
     2
1070
   277
 70
     5
1070
   279
 70
     2
1070
   289
 70
     2
1002
}
  0
XRECORD
  5
5318
102
{ACAD_REACTORS
330
5317
102
}
100
AcDbXrecord
102
ACADR14ROUNDTRIP
1000
DSTYLE
1002
{
1070
   276
 70
     2
1070
   277
 70
     5
1002
}
  0
XRECORD
  5
531A
102
{ACAD_REACTORS
330
5319
102
}
100
AcDbXrecord
102
ACADR14ROUNDTRIP
1000
DSTYLE
1002
{
1070
   276
 70
     2
1070
   277
 70
     5
1002
}
  0
XRECORD
  5
5310
102
{ACAD_REACTORS
330
4D2
102
}
100
AcDbXrecord
340
478
  0
XRECORD
  5
530F
102
{ACAD_REACTORS
330
4D0
102
}
100
AcDbXrecord
340
475
  0
XRECORD
  5
52E1
102
{ACAD_REACTORS
330
52E0
102
}
100
AcDbXrecord
102
EXTNAMES
  1
SCALEINCH
  2
scaleinch
  0
XRECORD
  5
52E3
102
{ACAD_REACTORS
330
52E2
102
}
100
AcDbXrecord
102
EXTNAMES
  1
ABDSN960
  2
abdsn960
  0
XRECORD
  5
5308
102
{ACAD_REACTORS
330
5307
102
}
100
AcDbXrecord
102
UCS
 74
     0
 71
     1
 10
0.0
 20
0.0
 30
0.0
 10
1.0
 20
0.0
 30
0.0
 10
0.0
 20
1.0
 30
0.0
146
0.0
 79
     0
102
VIEW
281
     0
102
NEWVIEWCONTROL
280
     4
  0
XRECORD
  5
530A
102
{ACAD_REACTORS
330
5309
102
}
100
AcDbXrecord
102
UCS
 74
     0
 71
     1
 10
0.0
 20
0.0
 30
0.0
 10
1.0
 20
0.0
 30
0.0
 10
0.0
 20
1.0
 30
0.0
146
0.0
 79
     1
102
VIEW
281
     0
102
NEWVIEWCONTROL
280
     4
  0
XRECORD
  5
530C
102
{ACAD_REACTORS
330
530B
102
}
100
AcDbXrecord
102
UCS
 74
     0
 71
     1
 10
0.0
 20
0.0
 30
0.0
 10
1.0
 20
0.0
 30
0.0
 10
0.0
 20
0.0
 30
1.0
146
0.0
 79
     3
102
VIEW
281
     0
102
NEWVIEWCONTROL
280
     4
  0
XRECORD
  5
530E
102
{ACAD_REACTORS
330
530D
102
}
100
AcDbXrecord
102
UCS
 74
     0
 71
     1
 10
0.0
 20
0.0
 30
0.0
 10
1.0
 20
0.0
 30
0.0
 10
0.0
 20
1.0
 30
0.0
146
0.0
 79
     0
102
VIEW
281
     0
102
NEWVIEWCONTROL
280
     4
  0
DICTIONARY
  5
5315
100
AcDbDictionary
280
     1
  3
ACAD_XREC_ROUNDTRIP
360
5316
  0
ACAD_PROXY_OBJECT
  5
4A1
102
{ACAD_REACTORS
330
49E
102
}
100
AcDbProxyObject
 90
      499
 91
      503
 93
     2044
310
91D4850204C617365724A65742035303030205365726965732050434C20362C008000000C0BB1B1440000000102F06C510000000000BC1B1440000000002E06C5100000000C0CCFC6A4000000018199D9C501064C6574746572A901406AA427D84144352EEE3F47D11959985D5B1D08148C4D081C195B88185CDCDA59DB9B5
310
95B9D1CCB98DD18A30EDE3B1BBFDBC0FC1D572C8D6D0C833F1A2B3054E9249F0FD074C61796F75743140501A97D7DB4AA43C31EFF91E46EBA53B71EFD1B32A15809809100B2537F8EAD447D02A6A6A00200C0093BD106FC0000F06EE366FABE0000032E846F6A2F44424FF2920002440160B7F435600079000000D00CEECC5
310
43D0
330
475
330
2C
340
0
340
0
 94
        0
  0
ACAD_PROXY_OBJECT
  5
4A0
102
{ACAD_REACTORS
330
49E
102
}
100
AcDbProxyObject
 90
      499
 91
      503
 93
      924
310
91D4850204C617365724A65742035303030205365726965732050434C20362C01AAAAAAAAA547D11959985D5B1D08148C4D081C195B88185CDCDA59DB9B595B9D1CCB98DD18A69054D6F64656C901A800000000000000000000000000000000000000000000A1000000000000008902A6A6AAAA0
330
478
330
0
340
0
340
0
 94
        0
  0
MLINESTYLE
  5
47C
102
{ACAD_REACTORS
330
47B
102
}
100
AcDbMlineStyle
  2
STANDARD
 70
     0
  3

 62
   256
 51
90.0
 52
90.0
 71
     2
 49
0.5
 62
   256
  6
BYLAYER
 49
-0.5
 62
   256
  6
BYLAYER
  0
ACAD_PROXY_OBJECT
  5
49D
102
{ACAD_REACTORS
330
49C
102
}
100
AcDbProxyObject
 90
      499
 91
      502
 93
        0
 94
        0
  0
XRECORD
  5
52F0
102
{ACAD_REACTORS
330
52E6
102
}
100
AcDbXrecord
 90
        0
  0
XRECORD
  5
52F4
102
{ACAD_REACTORS
330
52E6
102
}
100
AcDbXrecord
1000
DSTYLE
1002
{
1070
   276
 70
     2
1070
   277
 70
     5
1070
   279
 70
     2
1070
   289
 70
     2
1002
}
  0
XRECORD
  5
52F1
102
{ACAD_REACTORS
330
52E6
102
}
100
AcDbXrecord
  1
{6E0CF4B5-225E-11D4-A150-00A0CC3303EC}
  0
XRECORD
  5
52E9
102
{ACAD_REACTORS
330
52E6
102
}
100
AcDbXrecord
  1

  0
XRECORD
  5
52EF
102
{ACAD_REACTORS
330
52E6
102
}
100
AcDbXrecord
 90
        0
  0
XRECORD
  5
52EB
102
{ACAD_REACTORS
330
52E6
102
}
100
AcDbXrecord
340
49E
  0
XRECORD
  5
52EE
102
{ACAD_REACTORS
330
52E6
102
}
100
AcDbXrecord
 90
    14877
  0
XRECORD
  5
52EC
102
{ACAD_REACTORS
330
52E6
102
}
100
AcDbXrecord
340
49F
  0
XRECORD
  5
52ED
102
{ACAD_REACTORS
330
52E6
102
}
100
AcDbXrecord
340
49C
  0
XRECORD
  5
52F3
102
{ACAD_REACTORS
330
52E6
102
}
100
AcDbXrecord
 40
0.0
  0
XRECORD
  5
52F7
102
{ACAD_REACTORS
330
52E6
102
}
100
AcDbXrecord
340
0
  0
XRECORD
  5
52FD
102
{ACAD_REACTORS
330
52E6
102
}
100
AcDbXrecord
 10
0.0
 20
0.0
 30
0.0
  0
XRECORD
  5
52F9
102
{ACAD_REACTORS
330
52E6
102
}
100
AcDbXrecord
 10
0.0
 20
0.0
 30
0.0
  0
XRECORD
  5
52FC
102
{ACAD_REACTORS
330
52E6
102
}
100
AcDbXrecord
 10
0.0
 20
0.0
 30
0.0
  0
XRECORD
  5
52FA
102
{ACAD_REACTORS
330
52E6
102
}
100
AcDbXrecord
 10
0.0
 20
0.0
 30
0.0
  0
XRECORD
  5
52FB
102
{ACAD_REACTORS
330
52E6
102
}
100
AcDbXrecord
 10
0.0
 20
0.0
 30
0.0
  0
XRECORD
  5
52F8
102
{ACAD_REACTORS
330
52E6
102
}
100
AcDbXrecord
 10
0.0
 20
0.0
 30
0.0
  0
XRECORD
  5
52F5
102
{ACAD_REACTORS
330
52E6
102
}
100
AcDbXrecord
340
0
  0
XRECORD
  5
52F6
102
{ACAD_REACTORS
330
52E6
102
}
100
AcDbXrecord
 70
     0
  0
XRECORD
  5
52EA
102
{ACAD_REACTORS
330
52E6
102
}
100
AcDbXrecord
  1

  0
XRECORD
  5
52E7
102
{ACAD_REACTORS
330
52E6
102
}
100
AcDbXrecord
 90
        1
  0
XRECORD
  5
52E8
102
{ACAD_REACTORS
330
52E6
102
}
100
AcDbXrecord
 90
       70
  0
XRECORD
  5
5300
102
{ACAD_REACTORS
330
52E6
102
}
100
AcDbXrecord
340
0
  0
XRECORD
  5
5306
102
{ACAD_REACTORS
330
52E6
102
}
100
AcDbXrecord
 10
0.0
 20
0.0
 30
0.0
  0
XRECORD
  5
5302
102
{ACAD_REACTORS
330
52E6
102
}
100
AcDbXrecord
 10
0.0
 20
0.0
 30
0.0
  0
XRECORD
  5
5305
102
{ACAD_REACTORS
330
52E6
102
}
100
AcDbXrecord
 10
0.0
 20
0.0
 30
0.0
  0
XRECORD
  5
5303
102
{ACAD_REACTORS
330
52E6
102
}
100
AcDbXrecord
 10
0.0
 20
0.0
 30
0.0
  0
XRECORD
  5
5304
102
{ACAD_REACTORS
330
52E6
102
}
100
AcDbXrecord
 10
0.0
 20
0.0
 30
0.0
  0
XRECORD
  5
5301
102
{ACAD_REACTORS
330
52E6
102
}
100
AcDbXrecord
 10
0.0
 20
0.0
 30
0.0
  0
XRECORD
  5
52FE
102
{ACAD_REACTORS
330
52E6
102
}
100
AcDbXrecord
340
0
  0
XRECORD
  5
52FF
102
{ACAD_REACTORS
330
52E6
102
}
100
AcDbXrecord
 70
     3
  0
XRECORD
  5
52F2
102
{ACAD_REACTORS
330
52E6
102
}
100
AcDbXrecord
  1
{BB3FC4CF-EAC5-47A3-B14C-7A99ABFA542B}
  0
DICTIONARYVAR
  5
48E
102
{ACAD_REACTORS
330
48D
102
}
100
DictionaryVariables
280
     0
  1
0
  0
XRECORD
  5
5316
102
{ACAD_REACTORS
330
5315
102
}
100
AcDbXrecord
102
EXTNAMES
  1
LAYOUT1
  2
Layout1
  1
MODEL
  2
Model
  0
ENDSEC
  0
EOF
