  0
SECTION
  2
HEADER
  9
$ACADVER
  1
AC1014
  9
$ACADMAINTVER
 70
     8
  9
$DWGCODEPAGE
  3
ANSI_1252
  9
$INSBASE
 10
0.0
 20
0.0
 30
0.0
  9
$EXTMIN
 10
-1.0775
 20
-1.088853
 30
-5.195
  9
$EXTMAX
 10
3.386212
 20
1.627029
 30
0.815
  9
$LIMMIN
 10
0.0
 20
0.0
  9
$LIMMAX
 10
12.0
 20
9.0
  9
$ORTHOMODE
 70
     0
  9
$REGENMODE
 70
     1
  9
$FILLMODE
 70
     1
  9
$QTEXTMODE
 70
     0
  9
$MIRRTEXT
 70
     1
  9
$DRAGMODE
 70
     2
  9
$LTSCALE
 40
1.0
  9
$OSMODE
 70
    37
  9
$ATTMODE
 70
     2
  9
$TEXTSIZE
 40
0.217585
  9
$TRACEWID
 40
0.05
  9
$TEXTSTYLE
  7
STANDARD
  9
$CLAYER
  8
0
  9
$CELTYPE
  6
BYLAYER
  9
$CECOLOR
 62
   256
  9
$CELTSCALE
 40
1.0
  9
$DELOBJ
 70
     1
  9
$DISPSILH
 70
     0
  9
$DIMSCALE
 40
1.0
  9
$DIMASZ
 40
0.18
  9
$DIMEXO
 40
0.0625
  9
$DIMDLI
 40
0.375
  9
$DIMRND
 40
0.0
  9
$DIMDLE
 40
0.0
  9
$DIMEXE
 40
0.18
  9
$DIMTP
 40
0.0
  9
$DIMTM
 40
0.0
  9
$DIMTXT
 40
0.09
  9
$DIMCEN
 40
0.09
  9
$DIMTSZ
 40
0.0
  9
$DIMTOL
 70
     0
  9
$DIMLIM
 70
     0
  9
$DIMTIH
 70
     0
  9
$DIMTOH
 70
     1
  9
$DIMSE1
 70
     0
  9
$DIMSE2
 70
     0
  9
$DIMTAD
 70
     0
  9
$DIMZIN
 70
     4
  9
$DIMBLK
  1

  9
$DIMASO
 70
     1
  9
$DIMSHO
 70
     1
  9
$DIMPOST
  1

  9
$DIMAPOST
  1

  9
$DIMALT
 70
     1
  9
$DIMALTD
 70
     1
  9
$DIMALTF
 40
25.4
  9
$DIMLFAC
 40
1.0
  9
$DIMTOFL
 70
     0
  9
$DIMTVP
 40
0.0
  9
$DIMTIX
 70
     0
  9
$DIMSOXD
 70
     0
  9
$DIMSAH
 70
     0
  9
$DIMBLK1
  1

  9
$DIMBLK2
  1

  9
$DIMSTYLE
  2
ABECAD_3D
  9
$DIMCLRD
 70
     0
  9
$DIMCLRE
 70
     0
  9
$DIMCLRT
 70
     0
  9
$DIMTFAC
 40
1.5
  9
$DIMGAP
 40
0.09
  9
$DIMJUST
 70
     0
  9
$DIMSD1
 70
     0
  9
$DIMSD2
 70
     0
  9
$DIMTOLJ
 70
     1
  9
$DIMTZIN
 70
     4
  9
$DIMALTZ
 70
     4
  9
$DIMALTTZ
 70
     4
  9
$DIMFIT
 70
     3
  9
$DIMUPT
 70
     0
  9
$DIMUNIT
 70
     7
  9
$DIMDEC
 70
     6
  9
$DIMTDEC
 70
     6
  9
$DIMALTU
 70
     2
  9
$DIMALTTD
 70
     1
  9
$DIMTXSTY
  7
STANDARD
  9
$DIMAUNIT
 70
     0
  9
$LUNITS
 70
     2
  9
$LUPREC
 70
     4
  9
$SKETCHINC
 40
0.1
  9
$FILLETRAD
 40
0.0
  9
$AUNITS
 70
     0
  9
$AUPREC
 70
     0
  9
$MENU
  1
ACAD
  9
$ELEVATION
 40
0.0
  9
$PELEVATION
 40
0.0
  9
$THICKNESS
 40
0.0
  9
$LIMCHECK
 70
     0
  9
$BLIPMODE
 70
     0
  9
$CHAMFERA
 40
0.0
  9
$CHAMFERB
 40
0.0
  9
$CHAMFERC
 40
0.0
  9
$CHAMFERD
 40
0.0
  9
$SKPOLY
 70
     0
  9
$TDCREATE
 40
2451660.588350463
  9
$TDUPDATE
 40
2452010.486892245
  9
$TDINDWG
 40
0.0286501157
  9
$TDUSRTIMER
 40
0.0286495370
  9
$USRTIMER
 70
     1
  9
$ANGBASE
 50
0.0
  9
$ANGDIR
 70
     0
  9
$PDMODE
 70
     3
  9
$PDSIZE
 40
0.09
  9
$PLINEWID
 40
0.0
  9
$COORDS
 70
     1
  9
$SPLFRAME
 70
     1
  9
$SPLINETYPE
 70
     6
  9
$SPLINESEGS
 70
     8
  9
$ATTDIA
 70
     0
  9
$ATTREQ
 70
     1
  9
$HANDLING
 70
     1
  9
$HANDSEED
  5
4629A
  9
$SURFTAB1
 70
     6
  9
$SURFTAB2
 70
     6
  9
$SURFTYPE
 70
     6
  9
$SURFU
 70
     6
  9
$SURFV
 70
     6
  9
$UCSNAME
  2

  9
$UCSORG
 10
0.0
 20
0.0
 30
0.0
  9
$UCSXDIR
 10
1.0
 20
0.0
 30
0.0
  9
$UCSYDIR
 10
0.0
 20
1.0
 30
0.0
  9
$PUCSNAME
  2

  9
$PUCSORG
 10
0.0
 20
0.0
 30
0.0
  9
$PUCSXDIR
 10
1.0
 20
0.0
 30
0.0
  9
$PUCSYDIR
 10
0.0
 20
1.0
 30
0.0
  9
$USERI1
 70
     0
  9
$USERI2
 70
     0
  9
$USERI3
 70
     0
  9
$USERI4
 70
     0
  9
$USERI5
 70
     0
  9
$USERR1
 40
0.0
  9
$USERR2
 40
0.0
  9
$USERR3
 40
0.0
  9
$USERR4
 40
0.0
  9
$USERR5
 40
0.0
  9
$WORLDVIEW
 70
     1
  9
$SHADEDGE
 70
     3
  9
$SHADEDIF
 70
    70
  9
$TILEMODE
 70
     1
  9
$MAXACTVP
 70
    16
  9
$PINSBASE
 10
0.0
 20
0.0
 30
0.0
  9
$PLIMCHECK
 70
     0
  9
$PEXTMIN
 10
1.000000E+20
 20
1.000000E+20
 30
1.000000E+20
  9
$PEXTMAX
 10
-1.000000E+20
 20
-1.000000E+20
 30
-1.000000E+20
  9
$PLIMMIN
 10
0.0
 20
0.0
  9
$PLIMMAX
 10
12.0
 20
9.0
  9
$UNITMODE
 70
     0
  9
$VISRETAIN
 70
     0
  9
$PLINEGEN
 70
     0
  9
$PSLTSCALE
 70
     1
  9
$TREEDEPTH
 70
  3020
  9
$PICKSTYLE
 70
     1
  9
$CMLSTYLE
  2
STANDARD
  9
$CMLJUST
 70
     0
  9
$CMLSCALE
 40
1.0
  9
$PROXYGRAPHICS
 70
     1
  9
$MEASUREMENT
 70
     0
  0
ENDSEC
  0
SECTION
  2
CLASSES
  0
CLASS
  1
DICTIONARYVAR
  2
AcDbDictionaryVar
  3
"AutoCAD"
 90
        0
280
     0
281
     0
  0
CLASS
  1
ACDBDICTIONARYWDFLT
  2
AcDbDictionaryWithDefault
  3
AutoCAD 2000
 90
        0
280
     0
281
     0
  0
CLASS
  1
ACDBPLACEHOLDER
  2
AcDbPlaceHolder
  3
AutoCAD 2000
 90
        0
280
     0
281
     0
  0
CLASS
  1
LAYOUT
  2
AcDbLayout
  3
AutoCAD 2000
 90
        0
280
     0
281
     0
  0
CLASS
  1
LONG_TRANSACTION
  2
AcDbLongTransaction
  3
AutoCAD 2000
 90
        0
280
     0
281
     0
  0
CLASS
  1
LWPOLYLINE
  2
AcDbPolyline
  3
"AutoCAD"
 90
        0
280
     0
281
     1
  0
CLASS
  1
HATCH
  2
AcDbHatch
  3
"ACAD_SEDONA"
 90
        0
280
     0
281
     1
  0
CLASS
  1
XRECORD
  2
AcDbXrecord
  3
"<Built In>"
 90
        0
280
     0
281
     0
  0
CLASS
  1
LONG_TRANSACTION
  2
AcDbLongTransaction
  3
AutoCAD 2000
 90
        0
280
     0
281
     0
  0
CLASS
  1
LWPOLYLINE
  2
AcDbPolyline
  3
"AutoCAD"
 90
        0
280
     0
281
     1
  0
CLASS
  1
HATCH
  2
AcDbHatch
  3
"ACAD_SEDONA"
 90
        0
280
     0
281
     1
  0
CLASS
  1
XRECORD
  2
AcDbXrecord
  3
"<Built In>"
 90
        0
280
     0
281
     0
  0
CLASS
  1
LONG_TRANSACTION
  2
AcDbLongTransaction
  3
AutoCAD 2000
 90
        0
280
     0
281
     0
  0
CLASS
  1
LWPOLYLINE
  2
AcDbPolyline
  3
"AutoCAD"
 90
        0
280
     0
281
     1
  0
CLASS
  1
HATCH
  2
AcDbHatch
  3
"ACAD_SEDONA"
 90
        0
280
     0
281
     1
  0
CLASS
  1
XRECORD
  2
AcDbXrecord
  3
"<Built In>"
 90
        0
280
     0
281
     0
  0
CLASS
  1
LONG_TRANSACTION
  2
AcDbLongTransaction
  3
AutoCAD 2000
 90
        0
280
     0
281
     0
  0
CLASS
  1
LWPOLYLINE
  2
AcDbPolyline
  3
"AutoCAD"
 90
        0
280
     0
281
     1
  0
CLASS
  1
HATCH
  2
AcDbHatch
  3
"ACAD_SEDONA"
 90
        0
280
     0
281
     1
  0
CLASS
  1
XRECORD
  2
AcDbXrecord
  3
"<Built In>"
 90
        0
280
     0
281
     0
  0
CLASS
  1
LONG_TRANSACTION
  2
AcDbLongTransaction
  3
AutoCAD 2000
 90
        0
280
     0
281
     0
  0
CLASS
  1
LWPOLYLINE
  2
AcDbPolyline
  3
"AutoCAD"
 90
        0
280
     0
281
     1
  0
CLASS
  1
HATCH
  2
AcDbHatch
  3
"ACAD_SEDONA"
 90
        0
280
     0
281
     1
  0
CLASS
  1
XRECORD
  2
AcDbXrecord
  3
"<Built In>"
 90
        0
280
     0
281
     0
  0
CLASS
  1
LONG_TRANSACTION
  2
AcDbLongTransaction
  3
AutoCAD 2000
 90
        0
280
     0
281
     0
  0
CLASS
  1
LWPOLYLINE
  2
AcDbPolyline
  3
"AutoCAD"
 90
        0
280
     0
281
     1
  0
CLASS
  1
HATCH
  2
AcDbHatch
  3
"ACAD_SEDONA"
 90
        0
280
     0
281
     1
  0
CLASS
  1
XRECORD
  2
AcDbXrecord
  3
"<Built In>"
 90
        0
280
     0
281
     0
  0
CLASS
  1
LONG_TRANSACTION
  2
AcDbLongTransaction
  3
AutoCAD 2000
 90
        0
280
     0
281
     0
  0
CLASS
  1
LWPOLYLINE
  2
AcDbPolyline
  3
"AutoCAD"
 90
        0
280
     0
281
     1
  0
CLASS
  1
HATCH
  2
AcDbHatch
  3
"ACAD_SEDONA"
 90
        0
280
     0
281
     1
  0
CLASS
  1
XRECORD
  2
AcDbXrecord
  3
"<Built In>"
 90
        0
280
     0
281
     0
  0
CLASS
  1
LONG_TRANSACTION
  2
AcDbLongTransaction
  3
AutoCAD 2000
 90
        0
280
     0
281
     0
  0
CLASS
  1
LWPOLYLINE
  2
AcDbPolyline
  3
"AutoCAD"
 90
        0
280
     0
281
     1
  0
CLASS
  1
HATCH
  2
AcDbHatch
  3
"ACAD_SEDONA"
 90
        0
280
     0
281
     1
  0
CLASS
  1
XRECORD
  2
AcDbXrecord
  3
"<Built In>"
 90
        0
280
     0
281
     0
  0
CLASS
  1
LONG_TRANSACTION
  2
AcDbLongTransaction
  3
AutoCAD 2000
 90
        0
280
     0
281
     0
  0
CLASS
  1
LWPOLYLINE
  2
AcDbPolyline
  3
"AutoCAD"
 90
        0
280
     0
281
     1
  0
CLASS
  1
HATCH
  2
AcDbHatch
  3
"ACAD_SEDONA"
 90
        0
280
     0
281
     1
  0
CLASS
  1
XRECORD
  2
AcDbXrecord
  3
"<Built In>"
 90
        0
280
     0
281
     0
  0
CLASS
  1
LONG_TRANSACTION
  2
AcDbLongTransaction
  3
AutoCAD 2000
 90
        0
280
     0
281
     0
  0
CLASS
  1
LWPOLYLINE
  2
AcDbPolyline
  3
"AutoCAD"
 90
        0
280
     0
281
     1
  0
CLASS
  1
HATCH
  2
AcDbHatch
  3
"ACAD_SEDONA"
 90
        0
280
     0
281
     1
  0
CLASS
  1
XRECORD
  2
AcDbXrecord
  3
"<Built In>"
 90
        0
280
     0
281
     0
  0
CLASS
  1
LONG_TRANSACTION
  2
AcDbLongTransaction
  3
AutoCAD 2000
 90
        0
280
     0
281
     0
  0
CLASS
  1
LWPOLYLINE
  2
AcDbPolyline
  3
"AutoCAD"
 90
        0
280
     0
281
     1
  0
CLASS
  1
HATCH
  2
AcDbHatch
  3
"ACAD_SEDONA"
 90
        0
280
     0
281
     1
  0
CLASS
  1
XRECORD
  2
AcDbXrecord
  3
"<Built In>"
 90
        0
280
     0
281
     0
  0
CLASS
  1
LONG_TRANSACTION
  2
AcDbLongTransaction
  3
AutoCAD 2000
 90
        0
280
     0
281
     0
  0
CLASS
  1
LWPOLYLINE
  2
AcDbPolyline
  3
"AutoCAD"
 90
        0
280
     0
281
     1
  0
CLASS
  1
HATCH
  2
AcDbHatch
  3
"ACAD_SEDONA"
 90
        0
280
     0
281
     1
  0
CLASS
  1
XRECORD
  2
AcDbXrecord
  3
"<Built In>"
 90
        0
280
     0
281
     0
  0
ENDSEC
  0
SECTION
  2
TABLES
  0
TABLE
  2
VPORT
  5
458C7
100
AcDbSymbolTable
 70
     1
  0
VPORT
  5
46267
102
{ACAD_XDICTIONARY
360
4626C
102
}
100
AcDbSymbolTableRecord
100
AcDbViewportTableRecord
  2
*ACTIVE
 70
     0
 10
0.0
 20
0.0
 11
1.0
 21
1.0
 12
1.154531
 22
0.269007
 13
0.0
 23
0.0
 14
0.25
 24
0.25
 15
0.25
 25
0.25
 16
0.0
 26
0.0
 36
1.0
 17
0.0
 27
0.0
 37
0.0
 40
2.761989
 41
1.960674
 42
50.0
 43
0.0
 44
0.0
 50
0.0
 51
0.0
 71
     0
 72
 20000
 73
     1
 74
     1
 75
     0
 76
     0
 77
     0
 78
     0
  0
ENDTAB
  0
TABLE
  2
LTYPE
  5
458C4
100
AcDbSymbolTable
 70
     1
  0
LTYPE
  5
458D0
100
AcDbSymbolTableRecord
100
AcDbLinetypeTableRecord
  2
BYBLOCK
 70
     0
  3

 72
    65
 73
     0
 40
0.0
  0
LTYPE
  5
458D1
100
AcDbSymbolTableRecord
100
AcDbLinetypeTableRecord
  2
BYLAYER
 70
     0
  3

 72
    65
 73
     0
 40
0.0
  0
LTYPE
  5
458D2
100
AcDbSymbolTableRecord
100
AcDbLinetypeTableRecord
  2
CONTINUOUS
 70
     0
  3
Solid line
 72
    65
 73
     0
 40
0.0
  0
ENDTAB
  0
TABLE
  2
LAYER
  5
458C1
100
AcDbSymbolTable
 70
     7
  0
LAYER
  5
458CD
100
AcDbSymbolTableRecord
100
AcDbLayerTableRecord
  2
0
 70
     0
 62
     7
  6
CONTINUOUS
  0
LAYER
  5
458EA
100
AcDbSymbolTableRecord
100
AcDbLayerTableRecord
  2
DIMS-MTG-HOLES
 70
     0
 62
     1
  6
CONTINUOUS
  0
LAYER
  5
458EB
100
AcDbSymbolTableRecord
100
AcDbLayerTableRecord
  2
ATTRIBUTES
 70
     0
 62
     7
  6
CONTINUOUS
  0
LAYER
  5
45BC0
100
AcDbSymbolTableRecord
100
AcDbLayerTableRecord
  2
SNAP_POINTS
 70
     0
 62
    -1
  6
CONTINUOUS
  0
LAYER
  5
45BC1
100
AcDbSymbolTableRecord
100
AcDbLayerTableRecord
  2
AREA1
 70
     0
 62
    -7
  6
CONTINUOUS
  0
LAYER
  5
45BC2
100
AcDbSymbolTableRecord
100
AcDbLayerTableRecord
  2
SCALE
 70
     0
 62
    -7
  6
CONTINUOUS
  0
LAYER
  5
45BC4
102
{ACAD_XDICTIONARY
360
4626A
102
}
100
AcDbSymbolTableRecord
100
AcDbLayerTableRecord
  2
DEFPOINTS
 70
     0
 62
    -7
  6
CONTINUOUS
  0
ENDTAB
  0
TABLE
  2
STYLE
  5
458C2
100
AcDbSymbolTable
 70
     1
  0
STYLE
  5
458CE
100
AcDbSymbolTableRecord
100
AcDbTextStyleTableRecord
  2
STANDARD
 70
     0
 40
0.0
 41
1.0
 50
0.0
 71
     0
 42
0.217585
  3
txt
  4

  0
ENDTAB
  0
TABLE
  2
VIEW
  5
458C5
100
AcDbSymbolTable
 70
     0
  0
ENDTAB
  0
TABLE
  2
UCS
  5
458C6
100
AcDbSymbolTable
 70
     0
  0
ENDTAB
  0
TABLE
  2
APPID
  5
458C8
100
AcDbSymbolTable
 70
     1
  0
APPID
  5
458CF
100
AcDbSymbolTableRecord
100
AcDbRegAppTableRecord
  2
ACAD
 70
     0
  0
ENDTAB
  0
TABLE
  2
DIMSTYLE
  5
458C9
100
AcDbSymbolTable
 70
     2
  0
DIMSTYLE
105
458F1
102
{ACAD_XDICTIONARY
360
46291
102
}
100
AcDbSymbolTableRecord
100
AcDbDimStyleTableRecord
  2
ABECAD
 70
     0
  3

  4

  5

  6

  7

 40
1.0
 41
0.18
 42
0.0625
 43
0.375
 44
0.18
 45
0.0
 46
0.0
 47
0.0
 48
0.0
140
0.18
141
0.09
142
0.0
143
25.4
144
1.0
145
0.0
146
1.5
147
0.09
 71
     0
 72
     0
 73
     0
 74
     1
 75
     0
 76
     0
 77
     0
 78
     4
170
     1
171
     1
172
     0
173
     0
174
     0
175
     0
176
     0
177
     0
178
     0
270
     7
271
     6
272
     6
273
     2
274
     1
340
458CE
275
     0
280
     0
281
     0
282
     0
283
     1
284
     4
285
     4
286
     4
287
     3
288
     0
  0
DIMSTYLE
105
458F6
102
{ACAD_XDICTIONARY
360
46293
102
}
102
{ACAD_REACTORS
330
461E5
330
461F3
102
}
100
AcDbSymbolTableRecord
100
AcDbDimStyleTableRecord
  2
ABECAD_3D
 70
     0
  3

  4

  5

  6

  7

 40
1.0
 41
0.18
 42
0.0625
 43
0.375
 44
0.18
 45
0.0
 46
0.0
 47
0.0
 48
0.0
140
0.09
141
0.09
142
0.0
143
25.4
144
1.0
145
0.0
146
1.5
147
0.09
 71
     0
 72
     0
 73
     0
 74
     1
 75
     0
 76
     0
 77
     0
 78
     4
170
     1
171
     1
172
     0
173
     0
174
     0
175
     0
176
     0
177
     0
178
     0
270
     7
271
     6
272
     6
273
     2
274
     1
340
458CE
275
     0
280
     0
281
     0
282
     0
283
     1
284
     4
285
     4
286
     4
287
     3
288
     0
  0
ENDTAB
  0
TABLE
  2
BLOCK_RECORD
  5
458C0
100
AcDbSymbolTable
 70
     3
  0
BLOCK_RECORD
  5
458D6
102
{ACAD_XDICTIONARY
360
45990
102
}
100
AcDbSymbolTableRecord
100
AcDbBlockTableRecord
  2
*MODEL_SPACE
  0
BLOCK_RECORD
  5
458D3
102
{ACAD_XDICTIONARY
360
4598E
102
}
100
AcDbSymbolTableRecord
100
AcDbBlockTableRecord
  2
*PAPER_SPACE
  0
BLOCK_RECORD
  5
45C6A
102
{ACAD_XDICTIONARY
360
46268
102
}
100
AcDbSymbolTableRecord
100
AcDbBlockTableRecord
  2
SCALEINCH
  0
BLOCK_RECORD
  5
461E6
100
AcDbSymbolTableRecord
100
AcDbBlockTableRecord
  2
*D1
  0
BLOCK_RECORD
  5
461F4
100
AcDbSymbolTableRecord
100
AcDbBlockTableRecord
  2
*D2
  0
ENDTAB
  0
ENDSEC
  0
SECTION
  2
BLOCKS
  0
BLOCK
  5
458DF
100
AcDbEntity
  8
0
100
AcDbBlockBegin
  2
*MODEL_SPACE
 70
     0
 10
0.0
 20
0.0
 30
0.0
  3
*MODEL_SPACE
  1

  0
ENDBLK
  5
458E0
100
AcDbEntity
  8
0
100
AcDbBlockEnd
  0
BLOCK
  5
458DD
100
AcDbEntity
 67
     1
  8
0
100
AcDbBlockBegin
  2
*PAPER_SPACE
 70
     0
 10
0.0
 20
0.0
 30
0.0
  3
*PAPER_SPACE
  1

  0
ENDBLK
  5
458DE
100
AcDbEntity
 67
     1
  8
0
100
AcDbBlockEnd
  0
BLOCK
  5
45C76
100
AcDbEntity
  8
0
100
AcDbBlockBegin
  2
SCALEINCH
 70
     0
 10
0.0
 20
0.0
 30
0.0
  3
SCALEINCH
  1

  0
LINE
  5
45C6B
100
AcDbEntity
  8
SCALE
100
AcDbLine
 10
0.060623
 20
-2.404403
 30
0.0
 11
1.060623
 21
-2.404403
 31
0.0
  0
LINE
  5
45C6C
100
AcDbEntity
  8
SCALE
100
AcDbLine
 10
1.060623
 20
-2.404403
 30
0.0
 11
1.060623
 21
-2.504403
 31
0.0
  0
LINE
  5
45C6D
100
AcDbEntity
  8
SCALE
100
AcDbLine
 10
1.060623
 20
-2.504403
 30
0.0
 11
1.060623
 21
-2.304403
 31
0.0
  0
LINE
  5
45C6E
100
AcDbEntity
  8
SCALE
100
AcDbLine
 10
0.060623
 20
-2.504403
 30
0.0
 11
0.060623
 21
-2.304403
 31
0.0
  0
LINE
  5
45C6F
100
AcDbEntity
  8
SCALE
100
AcDbLine
 10
0.063666
 20
-2.798543
 30
0.0
 11
0.063666
 21
-2.598543
 31
0.0
  0
LINE
  5
45C70
100
AcDbEntity
  8
SCALE
100
AcDbLine
 10
0.457366
 20
-2.798543
 30
0.0
 11
0.457366
 21
-2.598543
 31
0.0
  0
LINE
  5
45C71
100
AcDbEntity
  8
SCALE
100
AcDbLine
 10
0.063666
 20
-2.698543
 30
0.0
 11
0.457366
 21
-2.698543
 31
0.0
  0
TEXT
  5
45C72
100
AcDbEntity
  8
SCALE
100
AcDbText
 10
0.089542
 20
-2.656527
 30
0.0
 40
0.0625
  1
[10 mm]
100
AcDbText
  0
TEXT
  5
45C73
100
AcDbEntity
  8
SCALE
100
AcDbText
 10
0.359753
 20
-2.335354
 30
0.0
 40
0.0625
  1
1 Inch
100
AcDbText
  0
TEXT
  5
45C74
100
AcDbEntity
  8
SCALE
100
AcDbText
 10
0.052989
 20
-2.167919
 30
0.0
 40
0.0625
  1
SCALE:
100
AcDbText
  0
LWPOLYLINE
  5
45C75
100
AcDbEntity
  8
SCALE
100
AcDbPolyline
 90
        4
 70
     1
 43
0.0
 10
-0.00654
 20
-2.062718
 10
1.129089
 20
-2.062718
 10
1.129089
 20
-2.904327
 10
-0.00654
 20
-2.904327
  0
ENDBLK
  5
45C77
100
AcDbEntity
  8
0
100
AcDbBlockEnd
  0
BLOCK
  5
461F1
100
AcDbEntity
  8
0
100
AcDbBlockBegin
  2
*D1
 70
     1
 10
0.0
 20
0.0
 30
0.0
  3
*D1
  1

  0
LINE
  5
461E7
100
AcDbEntity
  8
AREA1
 62
     0
100
AcDbLine
 10
-1.0775
 20
1.14
 30
0.0
 11
-1.0775
 21
1.627029
 31
0.0
1001
ACAD
1000
RTLwPs
1070
   158
  0
LINE
  5
461E8
100
AcDbEntity
  8
AREA1
 62
     0
100
AcDbLine
 10
1.0775
 20
1.14
 30
0.0
 11
1.0775
 21
1.627029
 31
0.0
1001
ACAD
1000
RTLwPs
1070
   158
  0
LINE
  5
461E9
100
AcDbEntity
  8
AREA1
 62
     0
100
AcDbLine
 10
-0.8975
 20
1.447029
 30
0.0
 11
-0.6
 21
1.447029
 31
0.0
1001
ACAD
1000
RTLwPs
1070
   158
  0
LINE
  5
461EA
100
AcDbEntity
  8
AREA1
 62
     0
100
AcDbLine
 10
0.8975
 20
1.447029
 30
0.0
 11
0.6
 21
1.447029
 31
0.0
1001
ACAD
1000
RTLwPs
1070
   158
  0
SOLID
  5
461EB
100
AcDbEntity
  8
AREA1
 62
     0
100
AcDbTrace
 10
-0.8975
 20
1.477029
 30
0.0
 11
-0.8975
 21
1.417029
 31
0.0
 12
-1.0775
 22
1.447029
 32
0.0
 13
-1.0775
 23
1.447029
 33
0.0
  0
SOLID
  5
461EC
100
AcDbEntity
  8
AREA1
 62
     0
100
AcDbTrace
 10
0.8975
 20
1.477029
 30
0.0
 11
0.8975
 21
1.417029
 31
0.0
 12
1.0775
 22
1.447029
 32
0.0
 13
1.0775
 23
1.447029
 33
0.0
  0
MTEXT
  5
461ED
100
AcDbEntity
  8
AREA1
 62
     0
100
AcDbMText
 10
0.0
 20
1.447029
 30
0.0
 40
0.09
 41
0.0
 71
     5
 72
     1
  1
\A1;2 5/32 [54.7]
1001
ACAD
1000
MTEXTBEGIN
1070
    73
1070
     1
1070
    44
1040
1.0
1070
    74
1070
     0
1000
MTEXTEND
1000
MTEXTBEGIN
1070
    73
1070
     1
1070
    44
1040
1.0
1070
    74
1070
     0
1000
MTEXTEND
1000
MTEXTBEGIN
1070
    73
1070
     1
1070
    44
1040
1.0
1070
    74
1070
     0
1000
MTEXTEND
  0
POINT
  5
461EE
100
AcDbEntity
  8
DEFPOINTS
 62
     0
100
AcDbPoint
 10
-1.0775
 20
1.0775
 30
-0.19
  0
POINT
  5
461EF
100
AcDbEntity
  8
DEFPOINTS
 62
     0
100
AcDbPoint
 10
1.0775
 20
1.0775
 30
0.0
  0
POINT
  5
461F0
100
AcDbEntity
  8
DEFPOINTS
 62
     0
100
AcDbPoint
 10
1.0775
 20
1.447029
 30
0.0
  0
ENDBLK
  5
461F2
100
AcDbEntity
  8
0
100
AcDbBlockEnd
  0
BLOCK
  5
461FF
100
AcDbEntity
  8
0
100
AcDbBlockBegin
  2
*D2
 70
     1
 10
0.0
 20
0.0
 30
0.0
  3
*D2
  1

  0
LINE
  5
461F5
100
AcDbEntity
  8
AREA1
 62
     0
100
AcDbLine
 10
1.14
 20
1.0775
 30
0.0
 11
1.67069
 21
1.0775
 31
0.0
1001
ACAD
1000
RTLwPs
1070
   158
  0
LINE
  5
461F6
100
AcDbEntity
  8
AREA1
 62
     0
100
AcDbLine
 10
1.14
 20
-1.0775
 30
0.0
 11
1.67069
 21
-1.0775
 31
0.0
1001
ACAD
1000
RTLwPs
1070
   158
  0
LINE
  5
461F7
100
AcDbEntity
  8
AREA1
 62
     0
100
AcDbLine
 10
1.49069
 20
0.8975
 30
0.0
 11
1.49069
 21
0.6
 31
0.0
1001
ACAD
1000
RTLwPs
1070
   158
  0
LINE
  5
461F8
100
AcDbEntity
  8
AREA1
 62
     0
100
AcDbLine
 10
1.49069
 20
-0.8975
 30
0.0
 11
1.49069
 21
-0.6
 31
0.0
1001
ACAD
1000
RTLwPs
1070
   158
  0
SOLID
  5
461F9
100
AcDbEntity
  8
AREA1
 62
     0
100
AcDbTrace
 10
1.46069
 20
0.8975
 30
0.0
 11
1.52069
 21
0.8975
 31
0.0
 12
1.49069
 22
1.0775
 32
0.0
 13
1.49069
 23
1.0775
 33
0.0
  0
SOLID
  5
461FA
100
AcDbEntity
  8
AREA1
 62
     0
100
AcDbTrace
 10
1.46069
 20
-0.8975
 30
0.0
 11
1.52069
 21
-0.8975
 31
0.0
 12
1.49069
 22
-1.0775
 32
0.0
 13
1.49069
 23
-1.0775
 33
0.0
  0
MTEXT
  5
461FB
100
AcDbEntity
  8
AREA1
 62
     0
100
AcDbMText
 10
1.49069
 20
0.0
 30
0.0
 40
0.09
 41
0.0
 71
     5
 72
     1
  1
\A1;2 5/32 [54.7]
 11
0.0
 21
1.0
 31
0.0
1001
ACAD
1000
MTEXTBEGIN
1070
    73
1070
     1
1070
    44
1040
1.0
1070
    74
1070
     0
1000
MTEXTEND
1000
MTEXTBEGIN
1070
    73
1070
     1
1070
    44
1040
1.0
1070
    74
1070
     0
1000
MTEXTEND
1000
MTEXTBEGIN
1070
    73
1070
     1
1070
    44
1040
1.0
1070
    74
1070
     0
1000
MTEXTEND
  0
POINT
  5
461FC
100
AcDbEntity
  8
DEFPOINTS
 62
     0
100
AcDbPoint
 10
1.0775
 20
1.0775
 30
0.0
  0
POINT
  5
461FD
100
AcDbEntity
  8
DEFPOINTS
 62
     0
100
AcDbPoint
 10
1.0775
 20
-1.0775
 30
0.0
  0
POINT
  5
461FE
100
AcDbEntity
  8
DEFPOINTS
 62
     0
100
AcDbPoint
 10
1.49069
 20
-1.0775
 30
0.0
  0
ENDBLK
  5
46200
100
AcDbEntity
  8
0
100
AcDbBlockEnd
  0
ENDSEC
  0
SECTION
  2
ENTITIES
  0
POINT
  5
45901
100
AcDbEntity
  8
SNAP_POINTS
100
AcDbPoint
 10
0.0
 20
0.0
 30
0.0
  0
TEXT
  5
45935
100
AcDbEntity
  8
0
100
AcDbText
 10
0.790937
 20
-0.022102
 30
0.0
 40
0.108793
  1

100
AcDbText
  0
TEXT
  5
45936
100
AcDbEntity
  8
0
100
AcDbText
 10
-0.84256
 20
-0.022102
 30
0.0
 40
0.108793
  1

100
AcDbText
  0
TEXT
  5
45937
100
AcDbEntity
  8
0
100
AcDbText
 10
-0.76697
 20
0.405209
 30
0.0
 40
0.108793
  1

100
AcDbText
  0
TEXT
  5
45938
100
AcDbEntity
  8
0
100
AcDbText
 10
-0.05531
 20
0.766213
 30
0.0
 40
0.108793
  1

100
AcDbText
  0
TEXT
  5
4593A
100
AcDbEntity
  8
0
100
AcDbText
 10
0.357673
 20
0.707274
 30
0.0
 40
0.108793
  1

100
AcDbText
  0
TEXT
  5
4593B
100
AcDbEntity
  8
0
100
AcDbText
 10
0.652662
 20
0.405209
 30
0.0
 40
0.108793
  1

100
AcDbText
  0
TEXT
  5
459C7
100
AcDbEntity
  8
0
100
AcDbText
 10
0.158556
 20
0.707274
 30
0.0
 40
0.108793
  1

100
AcDbText
  0
TEXT
  5
45A7E
100
AcDbEntity
  8
0
100
AcDbText
 10
-0.39086
 20
-0.766213
 30
0.0
 40
0.108793
  1

100
AcDbText
  0
TEXT
  5
45A7F
100
AcDbEntity
  8
0
100
AcDbText
 10
0.39086
 20
-0.758846
 30
0.0
 40
0.108793
  1

100
AcDbText
  0
TEXT
  5
45A82
100
AcDbEntity
  8
0
100
AcDbText
 10
0.763282
 20
-0.047888
 30
0.0
 40
0.108793
  1

100
AcDbText
  0
INSERT
  5
45D56
100
AcDbEntity
  8
SCALE
100
AcDbBlockReference
  2
SCALEINCH
 10
2.257123
 20
1.815474
 30
0.0
  0
TEXT
  5
45EC3
100
AcDbEntity
  8
0
100
AcDbText
 10
0.790937
 20
-0.022102
 30
0.0
 40
0.108793
  1

100
AcDbText
  0
TEXT
  5
45EC4
100
AcDbEntity
  8
0
100
AcDbText
 10
-0.84256
 20
-0.022102
 30
0.0
 40
0.108793
  1

100
AcDbText
  0
TEXT
  5
45EC5
100
AcDbEntity
  8
0
100
AcDbText
 10
-0.76697
 20
0.405209
 30
0.0
 40
0.108793
  1

100
AcDbText
  0
TEXT
  5
45EC6
100
AcDbEntity
  8
0
100
AcDbText
 10
-0.05531
 20
0.766213
 30
0.0
 40
0.108793
  1

100
AcDbText
  0
TEXT
  5
45EC7
100
AcDbEntity
  8
0
100
AcDbText
 10
0.357673
 20
0.707274
 30
0.0
 40
0.108793
  1

100
AcDbText
  0
TEXT
  5
45EC8
100
AcDbEntity
  8
0
100
AcDbText
 10
0.652662
 20
0.405209
 30
0.0
 40
0.108793
  1

100
AcDbText
  0
TEXT
  5
45EC9
100
AcDbEntity
  8
0
100
AcDbText
 10
0.158556
 20
0.707274
 30
0.0
 40
0.108793
  1

100
AcDbText
  0
TEXT
  5
45ECA
100
AcDbEntity
  8
0
100
AcDbText
 10
-0.704285
 20
-0.383107
 30
0.0
 40
0.108793
  1

100
AcDbText
  0
TEXT
  5
45ECB
100
AcDbEntity
  8
0
100
AcDbText
 10
-0.029499
 20
-0.828837
 30
0.0
 40
0.108793
  1

100
AcDbText
  0
TEXT
  5
45ECD
100
AcDbEntity
  8
0
100
AcDbText
 10
0.619476
 20
0.383107
 30
0.0
 40
0.108793
  1

100
AcDbText
  0
TEXT
  5
45ECE
100
AcDbEntity
  8
0
100
AcDbText
 10
0.656349
 20
-0.379423
 30
0.0
 40
0.108793
  1

100
AcDbText
  0
TEXT
  5
45ECF
100
AcDbEntity
  8
0
100
AcDbText
 10
-0.040561
 20
-0.839888
 30
0.0
 40
0.108793
  1

100
AcDbText
  0
TEXT
  5
45ED0
100
AcDbEntity
  8
0
100
AcDbText
 10
0.569362
 20
-0.051572
 30
0.0
 40
0.108793
  1

100
AcDbText
  0
TEXT
  5
45ED2
100
AcDbEntity
  8
0
100
AcDbText
 10
0.378303
 20
0.581857
 30
0.0
 40
0.108793
  1

100
AcDbText
  0
TEXT
  5
45ED3
100
AcDbEntity
  8
0
100
AcDbText
 10
-0.730708
 20
0.578344
 30
0.0
 40
0.108793
  1

100
AcDbText
  0
TEXT
  5
45ED4
100
AcDbEntity
  8
0
100
AcDbText
 10
-0.737058
 20
-0.607813
 30
0.0
 40
0.108793
  1

100
AcDbText
  0
TEXT
  5
45ED5
100
AcDbEntity
  8
0
100
AcDbText
 10
0.393052
 20
-0.607813
 30
0.0
 40
0.108793
  1

100
AcDbText
  0
TEXT
  5
45ED6
100
AcDbEntity
  8
0
100
AcDbText
 10
-0.019974
 20
-0.844297
 30
0.0
 40
0.108793
  1

100
AcDbText
  0
POLYLINE
  5
460A5
100
AcDbEntity
  8
0
100
AcDbPolygonMesh
 66
     1
 10
0.0
 20
0.0
 30
0.0
 70
    16
 71
     6
 72
     3
  0
VERTEX
  5
460A6
100
AcDbEntity
  8
0
100
AcDbVertex
100
AcDbPolygonMeshVertex
 10
1.0775
 20
-0.2925
 30
0.0
 70
    64
  0
VERTEX
  5
460A7
100
AcDbEntity
  8
0
100
AcDbVertex
100
AcDbPolygonMeshVertex
 10
1.0775
 20
-0.2925
 30
-0.19
 70
    64
  0
VERTEX
  5
460A8
100
AcDbEntity
  8
0
100
AcDbVertex
100
AcDbPolygonMeshVertex
 10
1.0775
 20
-0.2925
 30
-0.19
 70
    64
  0
VERTEX
  5
460A9
100
AcDbEntity
  8
0
100
AcDbVertex
100
AcDbPolygonMeshVertex
 10
1.0775
 20
-1.0775
 30
0.0
 70
    64
  0
VERTEX
  5
460AA
100
AcDbEntity
  8
0
100
AcDbVertex
100
AcDbPolygonMeshVertex
 10
1.0775
 20
-1.0775
 30
-0.19
 70
    64
  0
VERTEX
  5
460AB
100
AcDbEntity
  8
0
100
AcDbVertex
100
AcDbPolygonMeshVertex
 10
1.0775
 20
-1.0775
 30
-0.19
 70
    64
  0
VERTEX
  5
460AC
100
AcDbEntity
  8
0
100
AcDbVertex
100
AcDbPolygonMeshVertex
 10
-1.0775
 20
-1.0775
 30
0.0
 70
    64
  0
VERTEX
  5
460AD
100
AcDbEntity
  8
0
100
AcDbVertex
100
AcDbPolygonMeshVertex
 10
-1.0775
 20
-1.0775
 30
-0.19
 70
    64
  0
VERTEX
  5
460AE
100
AcDbEntity
  8
0
100
AcDbVertex
100
AcDbPolygonMeshVertex
 10
1.0775
 20
-1.0775
 30
-0.19
 70
    64
  0
VERTEX
  5
460AF
100
AcDbEntity
  8
0
100
AcDbVertex
100
AcDbPolygonMeshVertex
 10
-1.0775
 20
-0.2925
 30
0.0
 70
    64
  0
VERTEX
  5
460B0
100
AcDbEntity
  8
0
100
AcDbVertex
100
AcDbPolygonMeshVertex
 10
-1.0775
 20
-0.2925
 30
-0.19
 70
    64
  0
VERTEX
  5
460B1
100
AcDbEntity
  8
0
100
AcDbVertex
100
AcDbPolygonMeshVertex
 10
1.0775
 20
-0.2925
 30
-0.19
 70
    64
  0
VERTEX
  5
460B2
100
AcDbEntity
  8
0
100
AcDbVertex
100
AcDbPolygonMeshVertex
 10
-1.0775
 20
-0.2925
 30
0.0
 70
    64
  0
VERTEX
  5
460B3
100
AcDbEntity
  8
0
100
AcDbVertex
100
AcDbPolygonMeshVertex
 10
-1.0775
 20
-0.2925
 30
0.0
 70
    64
  0
VERTEX
  5
460B4
100
AcDbEntity
  8
0
100
AcDbVertex
100
AcDbPolygonMeshVertex
 10
1.0775
 20
-0.2925
 30
0.0
 70
    64
  0
VERTEX
  5
460B5
100
AcDbEntity
  8
0
100
AcDbVertex
100
AcDbPolygonMeshVertex
 10
-1.0775
 20
-1.0775
 30
0.0
 70
    64
  0
VERTEX
  5
460B6
100
AcDbEntity
  8
0
100
AcDbVertex
100
AcDbPolygonMeshVertex
 10
-1.0775
 20
-1.0775
 30
0.0
 70
    64
  0
VERTEX
  5
460B7
100
AcDbEntity
  8
0
100
AcDbVertex
100
AcDbPolygonMeshVertex
 10
1.0775
 20
-1.0775
 30
0.0
 70
    64
  0
SEQEND
  5
460B8
100
AcDbEntity
  8
0
  0
POLYLINE
  5
460B9
100
AcDbEntity
  8
0
100
AcDbPolygonMesh
 66
     1
 10
0.0
 20
0.0
 30
0.0
 70
    16
 71
     6
 72
     3
  0
VERTEX
  5
460BA
100
AcDbEntity
  8
0
100
AcDbVertex
100
AcDbPolygonMeshVertex
 10
0.8475
 20
0.2925
 30
0.0
 70
    64
  0
VERTEX
  5
460BB
100
AcDbEntity
  8
0
100
AcDbVertex
100
AcDbPolygonMeshVertex
 10
0.8475
 20
0.2925
 30
-0.19
 70
    64
  0
VERTEX
  5
460BC
100
AcDbEntity
  8
0
100
AcDbVertex
100
AcDbPolygonMeshVertex
 10
0.8475
 20
0.2925
 30
-0.19
 70
    64
  0
VERTEX
  5
460BD
100
AcDbEntity
  8
0
100
AcDbVertex
100
AcDbPolygonMeshVertex
 10
0.8475
 20
-0.2925
 30
0.0
 70
    64
  0
VERTEX
  5
460BE
100
AcDbEntity
  8
0
100
AcDbVertex
100
AcDbPolygonMeshVertex
 10
0.8475
 20
-0.2925
 30
-0.19
 70
    64
  0
VERTEX
  5
460BF
100
AcDbEntity
  8
0
100
AcDbVertex
100
AcDbPolygonMeshVertex
 10
0.8475
 20
-0.2925
 30
-0.19
 70
    64
  0
VERTEX
  5
460C0
100
AcDbEntity
  8
0
100
AcDbVertex
100
AcDbPolygonMeshVertex
 10
-0.8475
 20
-0.2925
 30
0.0
 70
    64
  0
VERTEX
  5
460C1
100
AcDbEntity
  8
0
100
AcDbVertex
100
AcDbPolygonMeshVertex
 10
-0.8475
 20
-0.2925
 30
-0.19
 70
    64
  0
VERTEX
  5
460C2
100
AcDbEntity
  8
0
100
AcDbVertex
100
AcDbPolygonMeshVertex
 10
0.8475
 20
-0.2925
 30
-0.19
 70
    64
  0
VERTEX
  5
460C3
100
AcDbEntity
  8
0
100
AcDbVertex
100
AcDbPolygonMeshVertex
 10
-0.8475
 20
0.2925
 30
0.0
 70
    64
  0
VERTEX
  5
460C4
100
AcDbEntity
  8
0
100
AcDbVertex
100
AcDbPolygonMeshVertex
 10
-0.8475
 20
0.2925
 30
-0.19
 70
    64
  0
VERTEX
  5
460C5
100
AcDbEntity
  8
0
100
AcDbVertex
100
AcDbPolygonMeshVertex
 10
0.8475
 20
0.2925
 30
-0.19
 70
    64
  0
VERTEX
  5
460C6
100
AcDbEntity
  8
0
100
AcDbVertex
100
AcDbPolygonMeshVertex
 10
-0.8475
 20
0.2925
 30
0.0
 70
    64
  0
VERTEX
  5
460C7
100
AcDbEntity
  8
0
100
AcDbVertex
100
AcDbPolygonMeshVertex
 10
-0.8475
 20
0.2925
 30
0.0
 70
    64
  0
VERTEX
  5
460C8
100
AcDbEntity
  8
0
100
AcDbVertex
100
AcDbPolygonMeshVertex
 10
0.8475
 20
0.2925
 30
0.0
 70
    64
  0
VERTEX
  5
460C9
100
AcDbEntity
  8
0
100
AcDbVertex
100
AcDbPolygonMeshVertex
 10
-0.8475
 20
-0.2925
 30
0.0
 70
    64
  0
VERTEX
  5
460CA
100
AcDbEntity
  8
0
100
AcDbVertex
100
AcDbPolygonMeshVertex
 10
-0.8475
 20
-0.2925
 30
0.0
 70
    64
  0
VERTEX
  5
460CB
100
AcDbEntity
  8
0
100
AcDbVertex
100
AcDbPolygonMeshVertex
 10
0.8475
 20
-0.2925
 30
0.0
 70
    64
  0
SEQEND
  5
460CC
100
AcDbEntity
  8
0
  0
ARC
  5
460CD
100
AcDbEntity
  8
0
100
AcDbCircle
 39
0.485
 10
0.0
 20
0.0
 30
-0.675
 40
0.65
100
AcDbArc
 50
31.538873
 51
148.461127
  0
ARC
  5
460CE
100
AcDbEntity
  8
0
100
AcDbCircle
 39
0.485
 10
0.0
 20
0.0
 30
-0.675
 40
0.65
100
AcDbArc
 50
211.538873
 51
328.461127
  0
CIRCLE
  5
460CF
100
AcDbEntity
  8
0
100
AcDbCircle
 39
0.815
 10
0.0
 20
0.0
 30
0.0
 40
0.1725
  0
CIRCLE
  5
460D0
100
AcDbEntity
  8
0
100
AcDbCircle
 10
0.0
 20
0.0
 30
0.0
 40
0.3335
  0
POLYLINE
  5
460D1
100
AcDbEntity
  8
0
100
AcDbPolygonMesh
 66
     1
 10
0.0
 20
0.0
 30
0.0
 70
    16
 71
     6
 72
     3
  0
VERTEX
  5
460D2
100
AcDbEntity
  8
0
100
AcDbVertex
100
AcDbPolygonMeshVertex
 10
0.9825
 20
0.34
 30
-0.19
 70
    64
  0
VERTEX
  5
460D3
100
AcDbEntity
  8
0
100
AcDbVertex
100
AcDbPolygonMeshVertex
 10
0.9825
 20
0.34
 30
-0.675
 70
    64
  0
VERTEX
  5
460D4
100
AcDbEntity
  8
0
100
AcDbVertex
100
AcDbPolygonMeshVertex
 10
0.9825
 20
0.34
 30
-0.675
 70
    64
  0
VERTEX
  5
460D5
100
AcDbEntity
  8
0
100
AcDbVertex
100
AcDbPolygonMeshVertex
 10
0.9825
 20
-0.34
 30
-0.19
 70
    64
  0
VERTEX
  5
460D6
100
AcDbEntity
  8
0
100
AcDbVertex
100
AcDbPolygonMeshVertex
 10
0.9825
 20
-0.34
 30
-0.675
 70
    64
  0
VERTEX
  5
460D7
100
AcDbEntity
  8
0
100
AcDbVertex
100
AcDbPolygonMeshVertex
 10
0.9825
 20
-0.34
 30
-0.675
 70
    64
  0
VERTEX
  5
460D8
100
AcDbEntity
  8
0
100
AcDbVertex
100
AcDbPolygonMeshVertex
 10
-0.9825
 20
-0.34
 30
-0.19
 70
    64
  0
VERTEX
  5
460D9
100
AcDbEntity
  8
0
100
AcDbVertex
100
AcDbPolygonMeshVertex
 10
-0.9825
 20
-0.34
 30
-0.675
 70
    64
  0
VERTEX
  5
460DA
100
AcDbEntity
  8
0
100
AcDbVertex
100
AcDbPolygonMeshVertex
 10
0.9825
 20
-0.34
 30
-0.675
 70
    64
  0
VERTEX
  5
460DB
100
AcDbEntity
  8
0
100
AcDbVertex
100
AcDbPolygonMeshVertex
 10
-0.9825
 20
0.34
 30
-0.19
 70
    64
  0
VERTEX
  5
460DC
100
AcDbEntity
  8
0
100
AcDbVertex
100
AcDbPolygonMeshVertex
 10
-0.9825
 20
0.34
 30
-0.675
 70
    64
  0
VERTEX
  5
460DD
100
AcDbEntity
  8
0
100
AcDbVertex
100
AcDbPolygonMeshVertex
 10
0.9825
 20
0.34
 30
-0.675
 70
    64
  0
VERTEX
  5
460DE
100
AcDbEntity
  8
0
100
AcDbVertex
100
AcDbPolygonMeshVertex
 10
-0.9825
 20
0.34
 30
-0.19
 70
    64
  0
VERTEX
  5
460DF
100
AcDbEntity
  8
0
100
AcDbVertex
100
AcDbPolygonMeshVertex
 10
-0.9825
 20
0.34
 30
-0.19
 70
    64
  0
VERTEX
  5
460E0
100
AcDbEntity
  8
0
100
AcDbVertex
100
AcDbPolygonMeshVertex
 10
0.9825
 20
0.34
 30
-0.19
 70
    64
  0
VERTEX
  5
460E1
100
AcDbEntity
  8
0
100
AcDbVertex
100
AcDbPolygonMeshVertex
 10
-0.9825
 20
-0.34
 30
-0.19
 70
    64
  0
VERTEX
  5
460E2
100
AcDbEntity
  8
0
100
AcDbVertex
100
AcDbPolygonMeshVertex
 10
-0.9825
 20
-0.34
 30
-0.19
 70
    64
  0
VERTEX
  5
460E3
100
AcDbEntity
  8
0
100
AcDbVertex
100
AcDbPolygonMeshVertex
 10
0.9825
 20
-0.34
 30
-0.19
 70
    64
  0
SEQEND
  5
460E4
100
AcDbEntity
  8
0
  0
POLYLINE
  5
460E5
100
AcDbEntity
  8
0
100
AcDbPolygonMesh
 66
     1
 10
0.0
 20
0.0
 30
0.0
 70
    16
 71
     6
 72
     3
  0
VERTEX
  5
460E6
100
AcDbEntity
  8
0
100
AcDbVertex
100
AcDbPolygonMeshVertex
 10
0.8125
 20
-1.0775
 30
-0.425
 70
    64
  0
VERTEX
  5
460E7
100
AcDbEntity
  8
0
100
AcDbVertex
100
AcDbPolygonMeshVertex
 10
0.8125
 20
-1.0775
 30
-0.425
 70
    64
  0
VERTEX
  5
460E8
100
AcDbEntity
  8
0
100
AcDbVertex
100
AcDbPolygonMeshVertex
 10
0.8125
 20
-1.0775
 30
-0.425
 70
    64
  0
VERTEX
  5
460E9
100
AcDbEntity
  8
0
100
AcDbVertex
100
AcDbPolygonMeshVertex
 10
1.0775
 20
-0.8125
 30
-0.425
 70
    64
  0
VERTEX
  5
460EA
100
AcDbEntity
  8
0
100
AcDbVertex
100
AcDbPolygonMeshVertex
 10
1.0775
 20
-1.0775
 30
-0.425
 70
    64
  0
VERTEX
  5
460EB
100
AcDbEntity
  8
0
100
AcDbVertex
100
AcDbPolygonMeshVertex
 10
1.0775
 20
-1.0775
 30
-0.425
 70
    64
  0
VERTEX
  5
460EC
100
AcDbEntity
  8
0
100
AcDbVertex
100
AcDbPolygonMeshVertex
 10
1.0775
 20
-0.8125
 30
-0.19
 70
    64
  0
VERTEX
  5
460ED
100
AcDbEntity
  8
0
100
AcDbVertex
100
AcDbPolygonMeshVertex
 10
1.0775
 20
-1.0775
 30
-0.19
 70
    64
  0
VERTEX
  5
460EE
100
AcDbEntity
  8
0
100
AcDbVertex
100
AcDbPolygonMeshVertex
 10
1.0775
 20
-1.0775
 30
-0.425
 70
    64
  0
VERTEX
  5
460EF
100
AcDbEntity
  8
0
100
AcDbVertex
100
AcDbPolygonMeshVertex
 10
0.8125
 20
-1.0775
 30
-0.19
 70
    64
  0
VERTEX
  5
460F0
100
AcDbEntity
  8
0
100
AcDbVertex
100
AcDbPolygonMeshVertex
 10
0.8125
 20
-1.0775
 30
-0.19
 70
    64
  0
VERTEX
  5
460F1
100
AcDbEntity
  8
0
100
AcDbVertex
100
AcDbPolygonMeshVertex
 10
0.8125
 20
-1.0775
 30
-0.425
 70
    64
  0
VERTEX
  5
460F2
100
AcDbEntity
  8
0
100
AcDbVertex
100
AcDbPolygonMeshVertex
 10
0.8125
 20
-1.0775
 30
-0.19
 70
    64
  0
VERTEX
  5
460F3
100
AcDbEntity
  8
0
100
AcDbVertex
100
AcDbPolygonMeshVertex
 10
0.8125
 20
-1.0775
 30
-0.19
 70
    64
  0
VERTEX
  5
460F4
100
AcDbEntity
  8
0
100
AcDbVertex
100
AcDbPolygonMeshVertex
 10
0.8125
 20
-1.0775
 30
-0.425
 70
    64
  0
VERTEX
  5
460F5
100
AcDbEntity
  8
0
100
AcDbVertex
100
AcDbPolygonMeshVertex
 10
1.0775
 20
-0.8125
 30
-0.19
 70
    64
  0
VERTEX
  5
460F6
100
AcDbEntity
  8
0
100
AcDbVertex
100
AcDbPolygonMeshVertex
 10
1.0775
 20
-0.8125
 30
-0.19
 70
    64
  0
VERTEX
  5
460F7
100
AcDbEntity
  8
0
100
AcDbVertex
100
AcDbPolygonMeshVertex
 10
1.0775
 20
-0.8125
 30
-0.425
 70
    64
  0
SEQEND
  5
460F8
100
AcDbEntity
  8
0
  0
POLYLINE
  5
460F9
100
AcDbEntity
  8
0
100
AcDbPolygonMesh
 66
     1
 10
0.0
 20
0.0
 30
0.0
 70
    16
 71
     6
 72
     3
  0
VERTEX
  5
460FA
100
AcDbEntity
  8
0
100
AcDbVertex
100
AcDbPolygonMeshVertex
 10
0.34
 20
-0.605
 30
-0.19
 70
    64
  0
VERTEX
  5
460FB
100
AcDbEntity
  8
0
100
AcDbVertex
100
AcDbPolygonMeshVertex
 10
0.34
 20
-0.605
 30
-0.425
 70
    64
  0
VERTEX
  5
460FC
100
AcDbEntity
  8
0
100
AcDbVertex
100
AcDbPolygonMeshVertex
 10
0.34
 20
-0.605
 30
-0.425
 70
    64
  0
VERTEX
  5
460FD
100
AcDbEntity
  8
0
100
AcDbVertex
100
AcDbPolygonMeshVertex
 10
0.605
 20
-0.34
 30
-0.19
 70
    64
  0
VERTEX
  5
460FE
100
AcDbEntity
  8
0
100
AcDbVertex
100
AcDbPolygonMeshVertex
 10
0.605
 20
-0.34
 30
-0.425
 70
    64
  0
VERTEX
  5
460FF
100
AcDbEntity
  8
0
100
AcDbVertex
100
AcDbPolygonMeshVertex
 10
0.605
 20
-0.34
 30
-0.425
 70
    64
  0
VERTEX
  5
46100
100
AcDbEntity
  8
0
100
AcDbVertex
100
AcDbPolygonMeshVertex
 10
1.0775
 20
-0.8125
 30
-0.19
 70
    64
  0
VERTEX
  5
46101
100
AcDbEntity
  8
0
100
AcDbVertex
100
AcDbPolygonMeshVertex
 10
1.0775
 20
-0.8125
 30
-0.425
 70
    64
  0
VERTEX
  5
46102
100
AcDbEntity
  8
0
100
AcDbVertex
100
AcDbPolygonMeshVertex
 10
0.605
 20
-0.34
 30
-0.425
 70
    64
  0
VERTEX
  5
46103
100
AcDbEntity
  8
0
100
AcDbVertex
100
AcDbPolygonMeshVertex
 10
0.8125
 20
-1.0775
 30
-0.19
 70
    64
  0
VERTEX
  5
46104
100
AcDbEntity
  8
0
100
AcDbVertex
100
AcDbPolygonMeshVertex
 10
0.8125
 20
-1.0775
 30
-0.425
 70
    64
  0
VERTEX
  5
46105
100
AcDbEntity
  8
0
100
AcDbVertex
100
AcDbPolygonMeshVertex
 10
0.34
 20
-0.605
 30
-0.425
 70
    64
  0
VERTEX
  5
46106
100
AcDbEntity
  8
0
100
AcDbVertex
100
AcDbPolygonMeshVertex
 10
0.8125
 20
-1.0775
 30
-0.19
 70
    64
  0
VERTEX
  5
46107
100
AcDbEntity
  8
0
100
AcDbVertex
100
AcDbPolygonMeshVertex
 10
0.8125
 20
-1.0775
 30
-0.19
 70
    64
  0
VERTEX
  5
46108
100
AcDbEntity
  8
0
100
AcDbVertex
100
AcDbPolygonMeshVertex
 10
0.34
 20
-0.605
 30
-0.19
 70
    64
  0
VERTEX
  5
46109
100
AcDbEntity
  8
0
100
AcDbVertex
100
AcDbPolygonMeshVertex
 10
1.0775
 20
-0.8125
 30
-0.19
 70
    64
  0
VERTEX
  5
4610A
100
AcDbEntity
  8
0
100
AcDbVertex
100
AcDbPolygonMeshVertex
 10
1.0775
 20
-0.8125
 30
-0.19
 70
    64
  0
VERTEX
  5
4610B
100
AcDbEntity
  8
0
100
AcDbVertex
100
AcDbPolygonMeshVertex
 10
0.605
 20
-0.34
 30
-0.19
 70
    64
  0
SEQEND
  5
4610C
100
AcDbEntity
  8
0
  0
POLYLINE
  5
4610D
100
AcDbEntity
  8
0
100
AcDbPolygonMesh
 66
     1
 10
0.0
 20
0.0
 30
0.0
 70
    16
 71
     6
 72
     3
  0
VERTEX
  5
4610E
100
AcDbEntity
  8
0
100
AcDbVertex
100
AcDbPolygonMeshVertex
 10
1.0775
 20
0.8125
 30
-0.425
 70
    64
  0
VERTEX
  5
4610F
100
AcDbEntity
  8
0
100
AcDbVertex
100
AcDbPolygonMeshVertex
 10
1.0775
 20
0.8125
 30
-0.425
 70
    64
  0
VERTEX
  5
46110
100
AcDbEntity
  8
0
100
AcDbVertex
100
AcDbPolygonMeshVertex
 10
1.0775
 20
0.8125
 30
-0.425
 70
    64
  0
VERTEX
  5
46111
100
AcDbEntity
  8
0
100
AcDbVertex
100
AcDbPolygonMeshVertex
 10
0.8125
 20
1.0775
 30
-0.425
 70
    64
  0
VERTEX
  5
46112
100
AcDbEntity
  8
0
100
AcDbVertex
100
AcDbPolygonMeshVertex
 10
1.0775
 20
1.0775
 30
-0.425
 70
    64
  0
VERTEX
  5
46113
100
AcDbEntity
  8
0
100
AcDbVertex
100
AcDbPolygonMeshVertex
 10
1.0775
 20
1.0775
 30
-0.425
 70
    64
  0
VERTEX
  5
46114
100
AcDbEntity
  8
0
100
AcDbVertex
100
AcDbPolygonMeshVertex
 10
0.8125
 20
1.0775
 30
-0.19
 70
    64
  0
VERTEX
  5
46115
100
AcDbEntity
  8
0
100
AcDbVertex
100
AcDbPolygonMeshVertex
 10
1.0775
 20
1.0775
 30
-0.19
 70
    64
  0
VERTEX
  5
46116
100
AcDbEntity
  8
0
100
AcDbVertex
100
AcDbPolygonMeshVertex
 10
1.0775
 20
1.0775
 30
-0.425
 70
    64
  0
VERTEX
  5
46117
100
AcDbEntity
  8
0
100
AcDbVertex
100
AcDbPolygonMeshVertex
 10
1.0775
 20
0.8125
 30
-0.19
 70
    64
  0
VERTEX
  5
46118
100
AcDbEntity
  8
0
100
AcDbVertex
100
AcDbPolygonMeshVertex
 10
1.0775
 20
0.8125
 30
-0.19
 70
    64
  0
VERTEX
  5
46119
100
AcDbEntity
  8
0
100
AcDbVertex
100
AcDbPolygonMeshVertex
 10
1.0775
 20
0.8125
 30
-0.425
 70
    64
  0
VERTEX
  5
4611A
100
AcDbEntity
  8
0
100
AcDbVertex
100
AcDbPolygonMeshVertex
 10
1.0775
 20
0.8125
 30
-0.19
 70
    64
  0
VERTEX
  5
4611B
100
AcDbEntity
  8
0
100
AcDbVertex
100
AcDbPolygonMeshVertex
 10
1.0775
 20
0.8125
 30
-0.19
 70
    64
  0
VERTEX
  5
4611C
100
AcDbEntity
  8
0
100
AcDbVertex
100
AcDbPolygonMeshVertex
 10
1.0775
 20
0.8125
 30
-0.425
 70
    64
  0
VERTEX
  5
4611D
100
AcDbEntity
  8
0
100
AcDbVertex
100
AcDbPolygonMeshVertex
 10
0.8125
 20
1.0775
 30
-0.19
 70
    64
  0
VERTEX
  5
4611E
100
AcDbEntity
  8
0
100
AcDbVertex
100
AcDbPolygonMeshVertex
 10
0.8125
 20
1.0775
 30
-0.19
 70
    64
  0
VERTEX
  5
4611F
100
AcDbEntity
  8
0
100
AcDbVertex
100
AcDbPolygonMeshVertex
 10
0.8125
 20
1.0775
 30
-0.425
 70
    64
  0
SEQEND
  5
46120
100
AcDbEntity
  8
0
  0
POLYLINE
  5
46121
100
AcDbEntity
  8
0
100
AcDbPolygonMesh
 66
     1
 10
0.0
 20
0.0
 30
0.0
 70
    16
 71
     6
 72
     3
  0
VERTEX
  5
46122
100
AcDbEntity
  8
0
100
AcDbVertex
100
AcDbPolygonMeshVertex
 10
-1.0775
 20
-0.8125
 30
-0.425
 70
    64
  0
VERTEX
  5
46123
100
AcDbEntity
  8
0
100
AcDbVertex
100
AcDbPolygonMeshVertex
 10
-1.0775
 20
-0.8125
 30
-0.425
 70
    64
  0
VERTEX
  5
46124
100
AcDbEntity
  8
0
100
AcDbVertex
100
AcDbPolygonMeshVertex
 10
-1.0775
 20
-0.8125
 30
-0.425
 70
    64
  0
VERTEX
  5
46125
100
AcDbEntity
  8
0
100
AcDbVertex
100
AcDbPolygonMeshVertex
 10
-0.8125
 20
-1.0775
 30
-0.425
 70
    64
  0
VERTEX
  5
46126
100
AcDbEntity
  8
0
100
AcDbVertex
100
AcDbPolygonMeshVertex
 10
-1.0775
 20
-1.0775
 30
-0.425
 70
    64
  0
VERTEX
  5
46127
100
AcDbEntity
  8
0
100
AcDbVertex
100
AcDbPolygonMeshVertex
 10
-1.0775
 20
-1.0775
 30
-0.425
 70
    64
  0
VERTEX
  5
46128
100
AcDbEntity
  8
0
100
AcDbVertex
100
AcDbPolygonMeshVertex
 10
-0.8125
 20
-1.0775
 30
-0.19
 70
    64
  0
VERTEX
  5
46129
100
AcDbEntity
  8
0
100
AcDbVertex
100
AcDbPolygonMeshVertex
 10
-1.0775
 20
-1.0775
 30
-0.19
 70
    64
  0
VERTEX
  5
4612A
100
AcDbEntity
  8
0
100
AcDbVertex
100
AcDbPolygonMeshVertex
 10
-1.0775
 20
-1.0775
 30
-0.425
 70
    64
  0
VERTEX
  5
4612B
100
AcDbEntity
  8
0
100
AcDbVertex
100
AcDbPolygonMeshVertex
 10
-1.0775
 20
-0.8125
 30
-0.19
 70
    64
  0
VERTEX
  5
4612C
100
AcDbEntity
  8
0
100
AcDbVertex
100
AcDbPolygonMeshVertex
 10
-1.0775
 20
-0.8125
 30
-0.19
 70
    64
  0
VERTEX
  5
4612D
100
AcDbEntity
  8
0
100
AcDbVertex
100
AcDbPolygonMeshVertex
 10
-1.0775
 20
-0.8125
 30
-0.425
 70
    64
  0
VERTEX
  5
4612E
100
AcDbEntity
  8
0
100
AcDbVertex
100
AcDbPolygonMeshVertex
 10
-1.0775
 20
-0.8125
 30
-0.19
 70
    64
  0
VERTEX
  5
4612F
100
AcDbEntity
  8
0
100
AcDbVertex
100
AcDbPolygonMeshVertex
 10
-1.0775
 20
-0.8125
 30
-0.19
 70
    64
  0
VERTEX
  5
46130
100
AcDbEntity
  8
0
100
AcDbVertex
100
AcDbPolygonMeshVertex
 10
-1.0775
 20
-0.8125
 30
-0.425
 70
    64
  0
VERTEX
  5
46131
100
AcDbEntity
  8
0
100
AcDbVertex
100
AcDbPolygonMeshVertex
 10
-0.8125
 20
-1.0775
 30
-0.19
 70
    64
  0
VERTEX
  5
46132
100
AcDbEntity
  8
0
100
AcDbVertex
100
AcDbPolygonMeshVertex
 10
-0.8125
 20
-1.0775
 30
-0.19
 70
    64
  0
VERTEX
  5
46133
100
AcDbEntity
  8
0
100
AcDbVertex
100
AcDbPolygonMeshVertex
 10
-0.8125
 20
-1.0775
 30
-0.425
 70
    64
  0
SEQEND
  5
46134
100
AcDbEntity
  8
0
  0
POLYLINE
  5
46135
100
AcDbEntity
  8
0
100
AcDbPolygonMesh
 66
     1
 10
0.0
 20
0.0
 30
0.0
 70
    16
 71
     6
 72
     3
  0
VERTEX
  5
46136
100
AcDbEntity
  8
0
100
AcDbVertex
100
AcDbPolygonMeshVertex
 10
-0.8125
 20
1.0775
 30
-0.425
 70
    64
  0
VERTEX
  5
46137
100
AcDbEntity
  8
0
100
AcDbVertex
100
AcDbPolygonMeshVertex
 10
-0.8125
 20
1.0775
 30
-0.425
 70
    64
  0
VERTEX
  5
46138
100
AcDbEntity
  8
0
100
AcDbVertex
100
AcDbPolygonMeshVertex
 10
-0.8125
 20
1.0775
 30
-0.425
 70
    64
  0
VERTEX
  5
46139
100
AcDbEntity
  8
0
100
AcDbVertex
100
AcDbPolygonMeshVertex
 10
-1.0775
 20
0.8125
 30
-0.425
 70
    64
  0
VERTEX
  5
4613A
100
AcDbEntity
  8
0
100
AcDbVertex
100
AcDbPolygonMeshVertex
 10
-1.0775
 20
1.0775
 30
-0.425
 70
    64
  0
VERTEX
  5
4613B
100
AcDbEntity
  8
0
100
AcDbVertex
100
AcDbPolygonMeshVertex
 10
-1.0775
 20
1.0775
 30
-0.425
 70
    64
  0
VERTEX
  5
4613C
100
AcDbEntity
  8
0
100
AcDbVertex
100
AcDbPolygonMeshVertex
 10
-1.0775
 20
0.8125
 30
-0.19
 70
    64
  0
VERTEX
  5
4613D
100
AcDbEntity
  8
0
100
AcDbVertex
100
AcDbPolygonMeshVertex
 10
-1.0775
 20
1.0775
 30
-0.19
 70
    64
  0
VERTEX
  5
4613E
100
AcDbEntity
  8
0
100
AcDbVertex
100
AcDbPolygonMeshVertex
 10
-1.0775
 20
1.0775
 30
-0.425
 70
    64
  0
VERTEX
  5
4613F
100
AcDbEntity
  8
0
100
AcDbVertex
100
AcDbPolygonMeshVertex
 10
-0.8125
 20
1.0775
 30
-0.19
 70
    64
  0
VERTEX
  5
46140
100
AcDbEntity
  8
0
100
AcDbVertex
100
AcDbPolygonMeshVertex
 10
-0.8125
 20
1.0775
 30
-0.19
 70
    64
  0
VERTEX
  5
46141
100
AcDbEntity
  8
0
100
AcDbVertex
100
AcDbPolygonMeshVertex
 10
-0.8125
 20
1.0775
 30
-0.425
 70
    64
  0
VERTEX
  5
46142
100
AcDbEntity
  8
0
100
AcDbVertex
100
AcDbPolygonMeshVertex
 10
-0.8125
 20
1.0775
 30
-0.19
 70
    64
  0
VERTEX
  5
46143
100
AcDbEntity
  8
0
100
AcDbVertex
100
AcDbPolygonMeshVertex
 10
-0.8125
 20
1.0775
 30
-0.19
 70
    64
  0
VERTEX
  5
46144
100
AcDbEntity
  8
0
100
AcDbVertex
100
AcDbPolygonMeshVertex
 10
-0.8125
 20
1.0775
 30
-0.425
 70
    64
  0
VERTEX
  5
46145
100
AcDbEntity
  8
0
100
AcDbVertex
100
AcDbPolygonMeshVertex
 10
-1.0775
 20
0.8125
 30
-0.19
 70
    64
  0
VERTEX
  5
46146
100
AcDbEntity
  8
0
100
AcDbVertex
100
AcDbPolygonMeshVertex
 10
-1.0775
 20
0.8125
 30
-0.19
 70
    64
  0
VERTEX
  5
46147
100
AcDbEntity
  8
0
100
AcDbVertex
100
AcDbPolygonMeshVertex
 10
-1.0775
 20
0.8125
 30
-0.425
 70
    64
  0
SEQEND
  5
46148
100
AcDbEntity
  8
0
  0
POLYLINE
  5
46149
100
AcDbEntity
  8
0
100
AcDbPolygonMesh
 66
     1
 10
0.0
 20
0.0
 30
0.0
 70
    16
 71
     6
 72
     3
  0
VERTEX
  5
4614A
100
AcDbEntity
  8
0
100
AcDbVertex
100
AcDbPolygonMeshVertex
 10
-1.0775
 20
0.8125
 30
-0.19
 70
    64
  0
VERTEX
  5
4614B
100
AcDbEntity
  8
0
100
AcDbVertex
100
AcDbPolygonMeshVertex
 10
-1.0775
 20
0.8125
 30
-0.425
 70
    64
  0
VERTEX
  5
4614C
100
AcDbEntity
  8
0
100
AcDbVertex
100
AcDbPolygonMeshVertex
 10
-1.0775
 20
0.8125
 30
-0.425
 70
    64
  0
VERTEX
  5
4614D
100
AcDbEntity
  8
0
100
AcDbVertex
100
AcDbPolygonMeshVertex
 10
-0.8125
 20
1.0775
 30
-0.19
 70
    64
  0
VERTEX
  5
4614E
100
AcDbEntity
  8
0
100
AcDbVertex
100
AcDbPolygonMeshVertex
 10
-0.8125
 20
1.0775
 30
-0.425
 70
    64
  0
VERTEX
  5
4614F
100
AcDbEntity
  8
0
100
AcDbVertex
100
AcDbPolygonMeshVertex
 10
-0.8125
 20
1.0775
 30
-0.425
 70
    64
  0
VERTEX
  5
46150
100
AcDbEntity
  8
0
100
AcDbVertex
100
AcDbPolygonMeshVertex
 10
-0.34
 20
0.605
 30
-0.19
 70
    64
  0
VERTEX
  5
46151
100
AcDbEntity
  8
0
100
AcDbVertex
100
AcDbPolygonMeshVertex
 10
-0.34
 20
0.605
 30
-0.425
 70
    64
  0
VERTEX
  5
46152
100
AcDbEntity
  8
0
100
AcDbVertex
100
AcDbPolygonMeshVertex
 10
-0.8125
 20
1.0775
 30
-0.425
 70
    64
  0
VERTEX
  5
46153
100
AcDbEntity
  8
0
100
AcDbVertex
100
AcDbPolygonMeshVertex
 10
-0.605
 20
0.34
 30
-0.19
 70
    64
  0
VERTEX
  5
46154
100
AcDbEntity
  8
0
100
AcDbVertex
100
AcDbPolygonMeshVertex
 10
-0.605
 20
0.34
 30
-0.425
 70
    64
  0
VERTEX
  5
46155
100
AcDbEntity
  8
0
100
AcDbVertex
100
AcDbPolygonMeshVertex
 10
-1.0775
 20
0.8125
 30
-0.425
 70
    64
  0
VERTEX
  5
46156
100
AcDbEntity
  8
0
100
AcDbVertex
100
AcDbPolygonMeshVertex
 10
-0.605
 20
0.34
 30
-0.19
 70
    64
  0
VERTEX
  5
46157
100
AcDbEntity
  8
0
100
AcDbVertex
100
AcDbPolygonMeshVertex
 10
-0.605
 20
0.34
 30
-0.19
 70
    64
  0
VERTEX
  5
46158
100
AcDbEntity
  8
0
100
AcDbVertex
100
AcDbPolygonMeshVertex
 10
-1.0775
 20
0.8125
 30
-0.19
 70
    64
  0
VERTEX
  5
46159
100
AcDbEntity
  8
0
100
AcDbVertex
100
AcDbPolygonMeshVertex
 10
-0.34
 20
0.605
 30
-0.19
 70
    64
  0
VERTEX
  5
4615A
100
AcDbEntity
  8
0
100
AcDbVertex
100
AcDbPolygonMeshVertex
 10
-0.34
 20
0.605
 30
-0.19
 70
    64
  0
VERTEX
  5
4615B
100
AcDbEntity
  8
0
100
AcDbVertex
100
AcDbPolygonMeshVertex
 10
-0.8125
 20
1.0775
 30
-0.19
 70
    64
  0
SEQEND
  5
4615C
100
AcDbEntity
  8
0
  0
POLYLINE
  5
4615D
100
AcDbEntity
  8
0
100
AcDbPolygonMesh
 66
     1
 10
0.0
 20
0.0
 30
0.0
 70
    16
 71
     6
 72
     3
  0
VERTEX
  5
4615E
100
AcDbEntity
  8
0
100
AcDbVertex
100
AcDbPolygonMeshVertex
 10
-0.8125
 20
-1.0775
 30
-0.19
 70
    64
  0
VERTEX
  5
4615F
100
AcDbEntity
  8
0
100
AcDbVertex
100
AcDbPolygonMeshVertex
 10
-0.8125
 20
-1.0775
 30
-0.425
 70
    64
  0
VERTEX
  5
46160
100
AcDbEntity
  8
0
100
AcDbVertex
100
AcDbPolygonMeshVertex
 10
-0.8125
 20
-1.0775
 30
-0.425
 70
    64
  0
VERTEX
  5
46161
100
AcDbEntity
  8
0
100
AcDbVertex
100
AcDbPolygonMeshVertex
 10
-1.0775
 20
-0.8125
 30
-0.19
 70
    64
  0
VERTEX
  5
46162
100
AcDbEntity
  8
0
100
AcDbVertex
100
AcDbPolygonMeshVertex
 10
-1.0775
 20
-0.8125
 30
-0.425
 70
    64
  0
VERTEX
  5
46163
100
AcDbEntity
  8
0
100
AcDbVertex
100
AcDbPolygonMeshVertex
 10
-1.0775
 20
-0.8125
 30
-0.425
 70
    64
  0
VERTEX
  5
46164
100
AcDbEntity
  8
0
100
AcDbVertex
100
AcDbPolygonMeshVertex
 10
-0.605
 20
-0.34
 30
-0.19
 70
    64
  0
VERTEX
  5
46165
100
AcDbEntity
  8
0
100
AcDbVertex
100
AcDbPolygonMeshVertex
 10
-0.605
 20
-0.34
 30
-0.425
 70
    64
  0
VERTEX
  5
46166
100
AcDbEntity
  8
0
100
AcDbVertex
100
AcDbPolygonMeshVertex
 10
-1.0775
 20
-0.8125
 30
-0.425
 70
    64
  0
VERTEX
  5
46167
100
AcDbEntity
  8
0
100
AcDbVertex
100
AcDbPolygonMeshVertex
 10
-0.34
 20
-0.605
 30
-0.19
 70
    64
  0
VERTEX
  5
46168
100
AcDbEntity
  8
0
100
AcDbVertex
100
AcDbPolygonMeshVertex
 10
-0.34
 20
-0.605
 30
-0.425
 70
    64
  0
VERTEX
  5
46169
100
AcDbEntity
  8
0
100
AcDbVertex
100
AcDbPolygonMeshVertex
 10
-0.8125
 20
-1.0775
 30
-0.425
 70
    64
  0
VERTEX
  5
4616A
100
AcDbEntity
  8
0
100
AcDbVertex
100
AcDbPolygonMeshVertex
 10
-0.34
 20
-0.605
 30
-0.19
 70
    64
  0
VERTEX
  5
4616B
100
AcDbEntity
  8
0
100
AcDbVertex
100
AcDbPolygonMeshVertex
 10
-0.34
 20
-0.605
 30
-0.19
 70
    64
  0
VERTEX
  5
4616C
100
AcDbEntity
  8
0
100
AcDbVertex
100
AcDbPolygonMeshVertex
 10
-0.8125
 20
-1.0775
 30
-0.19
 70
    64
  0
VERTEX
  5
4616D
100
AcDbEntity
  8
0
100
AcDbVertex
100
AcDbPolygonMeshVertex
 10
-0.605
 20
-0.34
 30
-0.19
 70
    64
  0
VERTEX
  5
4616E
100
AcDbEntity
  8
0
100
AcDbVertex
100
AcDbPolygonMeshVertex
 10
-0.605
 20
-0.34
 30
-0.19
 70
    64
  0
VERTEX
  5
4616F
100
AcDbEntity
  8
0
100
AcDbVertex
100
AcDbPolygonMeshVertex
 10
-1.0775
 20
-0.8125
 30
-0.19
 70
    64
  0
SEQEND
  5
46170
100
AcDbEntity
  8
0
  0
POLYLINE
  5
46171
100
AcDbEntity
  8
0
100
AcDbPolygonMesh
 66
     1
 10
0.0
 20
0.0
 30
0.0
 70
    16
 71
     6
 72
     3
  0
VERTEX
  5
46172
100
AcDbEntity
  8
0
100
AcDbVertex
100
AcDbPolygonMeshVertex
 10
0.605
 20
0.34
 30
-0.19
 70
    64
  0
VERTEX
  5
46173
100
AcDbEntity
  8
0
100
AcDbVertex
100
AcDbPolygonMeshVertex
 10
0.605
 20
0.34
 30
-0.425
 70
    64
  0
VERTEX
  5
46174
100
AcDbEntity
  8
0
100
AcDbVertex
100
AcDbPolygonMeshVertex
 10
0.605
 20
0.34
 30
-0.425
 70
    64
  0
VERTEX
  5
46175
100
AcDbEntity
  8
0
100
AcDbVertex
100
AcDbPolygonMeshVertex
 10
0.34
 20
0.605
 30
-0.19
 70
    64
  0
VERTEX
  5
46176
100
AcDbEntity
  8
0
100
AcDbVertex
100
AcDbPolygonMeshVertex
 10
0.34
 20
0.605
 30
-0.425
 70
    64
  0
VERTEX
  5
46177
100
AcDbEntity
  8
0
100
AcDbVertex
100
AcDbPolygonMeshVertex
 10
0.34
 20
0.605
 30
-0.425
 70
    64
  0
VERTEX
  5
46178
100
AcDbEntity
  8
0
100
AcDbVertex
100
AcDbPolygonMeshVertex
 10
0.8125
 20
1.0775
 30
-0.19
 70
    64
  0
VERTEX
  5
46179
100
AcDbEntity
  8
0
100
AcDbVertex
100
AcDbPolygonMeshVertex
 10
0.8125
 20
1.0775
 30
-0.425
 70
    64
  0
VERTEX
  5
4617A
100
AcDbEntity
  8
0
100
AcDbVertex
100
AcDbPolygonMeshVertex
 10
0.34
 20
0.605
 30
-0.425
 70
    64
  0
VERTEX
  5
4617B
100
AcDbEntity
  8
0
100
AcDbVertex
100
AcDbPolygonMeshVertex
 10
1.0775
 20
0.8125
 30
-0.19
 70
    64
  0
VERTEX
  5
4617C
100
AcDbEntity
  8
0
100
AcDbVertex
100
AcDbPolygonMeshVertex
 10
1.0775
 20
0.8125
 30
-0.425
 70
    64
  0
VERTEX
  5
4617D
100
AcDbEntity
  8
0
100
AcDbVertex
100
AcDbPolygonMeshVertex
 10
0.605
 20
0.34
 30
-0.425
 70
    64
  0
VERTEX
  5
4617E
100
AcDbEntity
  8
0
100
AcDbVertex
100
AcDbPolygonMeshVertex
 10
1.0775
 20
0.8125
 30
-0.19
 70
    64
  0
VERTEX
  5
4617F
100
AcDbEntity
  8
0
100
AcDbVertex
100
AcDbPolygonMeshVertex
 10
1.0775
 20
0.8125
 30
-0.19
 70
    64
  0
VERTEX
  5
46180
100
AcDbEntity
  8
0
100
AcDbVertex
100
AcDbPolygonMeshVertex
 10
0.605
 20
0.34
 30
-0.19
 70
    64
  0
VERTEX
  5
46181
100
AcDbEntity
  8
0
100
AcDbVertex
100
AcDbPolygonMeshVertex
 10
0.8125
 20
1.0775
 30
-0.19
 70
    64
  0
VERTEX
  5
46182
100
AcDbEntity
  8
0
100
AcDbVertex
100
AcDbPolygonMeshVertex
 10
0.8125
 20
1.0775
 30
-0.19
 70
    64
  0
VERTEX
  5
46183
100
AcDbEntity
  8
0
100
AcDbVertex
100
AcDbPolygonMeshVertex
 10
0.34
 20
0.605
 30
-0.19
 70
    64
  0
SEQEND
  5
46184
100
AcDbEntity
  8
0
  0
POLYLINE
  5
46185
100
AcDbEntity
  8
0
100
AcDbPolygonMesh
 66
     1
 10
0.0
 20
0.0
 30
0.0
 70
    16
 71
     6
 72
     3
  0
VERTEX
  5
46186
100
AcDbEntity
  8
0
100
AcDbVertex
100
AcDbPolygonMeshVertex
 10
1.0775
 20
1.0775
 30
0.0
 70
    64
  0
VERTEX
  5
46187
100
AcDbEntity
  8
0
100
AcDbVertex
100
AcDbPolygonMeshVertex
 10
1.0775
 20
1.0775
 30
-0.19
 70
    64
  0
VERTEX
  5
46188
100
AcDbEntity
  8
0
100
AcDbVertex
100
AcDbPolygonMeshVertex
 10
1.0775
 20
1.0775
 30
-0.19
 70
    64
  0
VERTEX
  5
46189
100
AcDbEntity
  8
0
100
AcDbVertex
100
AcDbPolygonMeshVertex
 10
1.0775
 20
0.2925
 30
0.0
 70
    64
  0
VERTEX
  5
4618A
100
AcDbEntity
  8
0
100
AcDbVertex
100
AcDbPolygonMeshVertex
 10
1.0775
 20
0.2925
 30
-0.19
 70
    64
  0
VERTEX
  5
4618B
100
AcDbEntity
  8
0
100
AcDbVertex
100
AcDbPolygonMeshVertex
 10
1.0775
 20
0.2925
 30
-0.19
 70
    64
  0
VERTEX
  5
4618C
100
AcDbEntity
  8
0
100
AcDbVertex
100
AcDbPolygonMeshVertex
 10
-1.0775
 20
0.2925
 30
0.0
 70
    64
  0
VERTEX
  5
4618D
100
AcDbEntity
  8
0
100
AcDbVertex
100
AcDbPolygonMeshVertex
 10
-1.0775
 20
0.2925
 30
-0.19
 70
    64
  0
VERTEX
  5
4618E
100
AcDbEntity
  8
0
100
AcDbVertex
100
AcDbPolygonMeshVertex
 10
1.0775
 20
0.2925
 30
-0.19
 70
    64
  0
VERTEX
  5
4618F
100
AcDbEntity
  8
0
100
AcDbVertex
100
AcDbPolygonMeshVertex
 10
-1.0775
 20
1.0775
 30
0.0
 70
    64
  0
VERTEX
  5
46190
100
AcDbEntity
  8
0
100
AcDbVertex
100
AcDbPolygonMeshVertex
 10
-1.0775
 20
1.0775
 30
-0.19
 70
    64
  0
VERTEX
  5
46191
100
AcDbEntity
  8
0
100
AcDbVertex
100
AcDbPolygonMeshVertex
 10
1.0775
 20
1.0775
 30
-0.19
 70
    64
  0
VERTEX
  5
46192
100
AcDbEntity
  8
0
100
AcDbVertex
100
AcDbPolygonMeshVertex
 10
-1.0775
 20
1.0775
 30
0.0
 70
    64
  0
VERTEX
  5
46193
100
AcDbEntity
  8
0
100
AcDbVertex
100
AcDbPolygonMeshVertex
 10
-1.0775
 20
1.0775
 30
0.0
 70
    64
  0
VERTEX
  5
46194
100
AcDbEntity
  8
0
100
AcDbVertex
100
AcDbPolygonMeshVertex
 10
1.0775
 20
1.0775
 30
0.0
 70
    64
  0
VERTEX
  5
46195
100
AcDbEntity
  8
0
100
AcDbVertex
100
AcDbPolygonMeshVertex
 10
-1.0775
 20
0.2925
 30
0.0
 70
    64
  0
VERTEX
  5
46196
100
AcDbEntity
  8
0
100
AcDbVertex
100
AcDbPolygonMeshVertex
 10
-1.0775
 20
0.2925
 30
0.0
 70
    64
  0
VERTEX
  5
46197
100
AcDbEntity
  8
0
100
AcDbVertex
100
AcDbPolygonMeshVertex
 10
1.0775
 20
0.2925
 30
0.0
 70
    64
  0
SEQEND
  5
46198
100
AcDbEntity
  8
0
  0
LWPOLYLINE
  5
46199
100
AcDbEntity
  8
0
100
AcDbPolyline
 90
        8
 70
     1
 43
0.0
 38
-0.97
 10
0.86
 20
-1.8
 10
0.86
 20
-1.575
 10
0.8375
 20
-1.575
 10
0.8375
 20
-1.075
 10
0.5025
 20
-1.075
 10
0.5025
 20
-1.575
 10
0.48
 20
-1.575
 10
0.48
 20
-1.8
210
0.0
220
-1.0
230
0.0
  0
LWPOLYLINE
  5
4619A
100
AcDbEntity
  8
0
100
AcDbPolyline
 90
        8
 70
     1
 43
0.0
 38
-0.97
 10
-0.37
 20
-1.075
 10
-0.37
 20
-1.575
 10
-0.3925
 20
-1.575
 10
-0.3925
 20
-1.8
 10
-0.0125
 20
-1.8
 10
-0.0125
 20
-1.575
 10
-0.035
 20
-1.575
 10
-0.035
 20
-1.075
210
0.0
220
-1.0
230
0.0
  0
LWPOLYLINE
  5
4619B
100
AcDbEntity
  8
0
100
AcDbPolyline
 90
        8
 70
     1
 43
0.0
 38
-0.97
 10
-0.4375
 20
-2.3
 10
-0.4375
 20
-2.075
 10
-0.46
 20
-2.075
 10
-0.46
 20
-1.575
 10
-0.795
 20
-1.575
 10
-0.795
 20
-2.075
 10
-0.8175
 20
-2.075
 10
-0.8175
 20
-2.3
210
0.0
220
-1.0
230
0.0
  0
LWPOLYLINE
  5
4619C
100
AcDbEntity
  8
0
100
AcDbPolyline
 90
        8
 70
     1
 43
0.0
 38
-0.97
 10
-0.3925
 20
-2.8
 10
-0.0125
 20
-2.8
 10
-0.0125
 20
-2.575
 10
-0.035
 20
-2.575
 10
-0.035
 20
-2.075
 10
-0.37
 20
-2.075
 10
-0.37
 20
-2.575
 10
-0.3925
 20
-2.575
210
0.0
220
-1.0
230
0.0
  0
LWPOLYLINE
  5
4619D
100
AcDbEntity
  8
0
100
AcDbPolyline
 90
        8
 70
     1
 43
0.0
 38
-0.97
 10
0.8375
 20
-2.075
 10
0.5025
 20
-2.075
 10
0.5025
 20
-2.575
 10
0.48
 20
-2.575
 10
0.48
 20
-2.8
 10
0.86
 20
-2.8
 10
0.86
 20
-2.575
 10
0.8375
 20
-2.575
210
0.0
220
-1.0
230
0.0
  0
LWPOLYLINE
  5
4619E
100
AcDbEntity
  8
0
100
AcDbPolyline
 90
       10
 70
     0
 43
0.0
 38
-0.97
 10
0.4125
 20
-2.075
 10
0.39
 20
-2.075
 10
0.39
 20
-1.575
 10
0.055
 20
-1.575
 10
0.055
 20
-2.075
 10
0.0325
 20
-2.075
 10
0.0325
 20
-2.3
 10
0.4125
 20
-2.3
 10
0.4125
 20
-2.075
 10
0.4125
 20
-2.3
210
0.0
220
-1.0
230
0.0
  0
LWPOLYLINE
  5
4619F
100
AcDbEntity
  8
0
100
AcDbPolyline
 90
        8
 70
     1
 43
0.0
 38
0.97
 10
-0.37
 20
-1.075
 10
-0.37
 20
-1.575
 10
-0.3925
 20
-1.575
 10
-0.3925
 20
-1.8
 10
-0.0125
 20
-1.8
 10
-0.0125
 20
-1.575
 10
-0.035
 20
-1.575
 10
-0.035
 20
-1.075
210
0.0
220
-1.0
230
0.0
  0
LWPOLYLINE
  5
461A0
100
AcDbEntity
  8
0
100
AcDbPolyline
 90
        8
 70
     1
 43
0.0
 38
0.97
 10
0.86
 20
-1.8
 10
0.86
 20
-1.575
 10
0.8375
 20
-1.575
 10
0.8375
 20
-1.075
 10
0.5025
 20
-1.075
 10
0.5025
 20
-1.575
 10
0.48
 20
-1.575
 10
0.48
 20
-1.8
210
0.0
220
-1.0
230
0.0
  0
LWPOLYLINE
  5
461A1
100
AcDbEntity
  8
0
100
AcDbPolyline
 90
        8
 70
     1
 43
0.0
 38
0.97
 10
-0.4375
 20
-2.3
 10
-0.4375
 20
-2.075
 10
-0.46
 20
-2.075
 10
-0.46
 20
-1.575
 10
-0.795
 20
-1.575
 10
-0.795
 20
-2.075
 10
-0.8175
 20
-2.075
 10
-0.8175
 20
-2.3
210
0.0
220
-1.0
230
0.0
  0
LWPOLYLINE
  5
461A2
100
AcDbEntity
  8
0
100
AcDbPolyline
 90
       10
 70
     0
 43
0.0
 38
0.97
 10
0.4125
 20
-2.075
 10
0.39
 20
-2.075
 10
0.39
 20
-1.575
 10
0.055
 20
-1.575
 10
0.055
 20
-2.075
 10
0.0325
 20
-2.075
 10
0.0325
 20
-2.3
 10
0.4125
 20
-2.3
 10
0.4125
 20
-2.075
 10
0.4125
 20
-2.3
210
0.0
220
-1.0
230
0.0
  0
LWPOLYLINE
  5
461A3
100
AcDbEntity
  8
0
100
AcDbPolyline
 90
        8
 70
     1
 43
0.0
 38
0.97
 10
0.8375
 20
-2.075
 10
0.5025
 20
-2.075
 10
0.5025
 20
-2.575
 10
0.48
 20
-2.575
 10
0.48
 20
-2.8
 10
0.86
 20
-2.8
 10
0.86
 20
-2.575
 10
0.8375
 20
-2.575
210
0.0
220
-1.0
230
0.0
  0
LWPOLYLINE
  5
461A4
100
AcDbEntity
  8
0
100
AcDbPolyline
 90
        8
 70
     1
 43
0.0
 38
0.97
 10
-0.3925
 20
-2.8
 10
-0.0125
 20
-2.8
 10
-0.0125
 20
-2.575
 10
-0.035
 20
-2.575
 10
-0.035
 20
-2.075
 10
-0.37
 20
-2.075
 10
-0.37
 20
-2.575
 10
-0.3925
 20
-2.575
210
0.0
220
-1.0
230
0.0
  0
ATTDEF
  5
461A6
100
AcDbEntity
  8
ATTRIBUTES
100
AcDbText
 10
-0.958634
 20
-0.055447
 30
-5.194691
 40
0.051578
  1
ALLEN-BRADLEY
100
AcDbAttributeDefinition
  3
MANUFACTURER NAME?
  2
AC_VND_LABEL
 70
     1
  0
ATTDEF
  5
461A7
100
AcDbEntity
  8
ATTRIBUTES
100
AcDbText
 10
-0.958634
 20
-0.162902
 30
-5.194691
 40
0.051578
  1
194L-E20/E25 W/ 8 CARRIERS
100
AcDbAttributeDefinition
  3
CATALOG NUMBER?
  2
AC_PART_NO
 70
     1
  0
ATTDEF
  5
461A8
100
AcDbEntity
  8
ATTRIBUTES
100
AcDbText
 10
-0.958634
 20
-0.270357
 30
-5.194691
 40
0.051578
  1
CONTROL & LOAD SWITCH BODY, 20A/25A W/ 8 CARRIERS
100
AcDbAttributeDefinition
  3
PART DESCRIPTION?
  2
AC_DESCRIPTION
 70
     1
  0
ATTDEF
  5
461A9
100
AcDbEntity
  8
ATTRIBUTES
100
AcDbText
 10
-0.958634
 20
-0.377812
 30
-5.194691
 40
0.051578
  1

100
AcDbAttributeDefinition
  3
DEVICE ID?
  2
DEVICE_ID
 70
     1
  0
ATTDEF
  5
461AA
100
AcDbEntity
  8
ATTRIBUTES
100
AcDbText
 10
-0.958634
 20
-0.485266
 30
-5.194691
 40
0.051578
  1

100
AcDbAttributeDefinition
  3
CUSTOMER PART NUMBER?
  2
AC_CPART_NO
 70
     1
  0
ATTDEF
  5
461AB
100
AcDbEntity
  8
ATTRIBUTES
100
AcDbText
 10
-0.958634
 20
-0.592721
 30
-5.194691
 40
0.051578
  1

100
AcDbAttributeDefinition
  3
CUSTOMER NOTE?
  2
AC_NOTE
 70
     1
  0
ATTDEF
  5
461AC
100
AcDbEntity
  8
ATTRIBUTES
100
AcDbText
 10
-0.958634
 20
-0.700176
 30
-5.194691
 40
0.051578
  1

100
AcDbAttributeDefinition
  3
FASTENER DATA?
  2
FASTENER
 70
     1
  0
ATTDEF
  5
461AD
100
AcDbEntity
  8
ATTRIBUTES
100
AcDbText
 10
-0.958634
 20
-0.807631
 30
-5.194691
 40
0.051578
  1

100
AcDbAttributeDefinition
  3
UNIT OF SCALE?
  2
AC_SCALE_UNIT
 70
     1
  0
ATTDEF
  5
461AE
100
AcDbEntity
  8
ATTRIBUTES
100
AcDbText
 10
-0.958634
 20
-0.915086
 30
-5.194691
 40
0.051578
  1

100
AcDbAttributeDefinition
  3
VIEW CODE?
  2
AC_VIEW_CODE
 70
     1
  0
TEXT
  5
461AF
100
AcDbEntity
  8
0
100
AcDbText
 10
0.5525
 20
-1.075
 30
0.97
 40
0.2
  1
1
210
0.0
220
-1.0
230
0.0
100
AcDbText
  0
TEXT
  5
461B0
100
AcDbEntity
  8
0
100
AcDbText
 10
-0.1725
 20
-1.075
 30
0.97
 40
0.2
  1
3
210
0.0
220
-1.0
230
0.0
100
AcDbText
  0
TEXT
  5
461B1
100
AcDbEntity
  8
0
100
AcDbText
 10
0.105
 20
-1.575
 30
0.97
 40
0.2
  1
5
210
0.0
220
-1.0
230
0.0
100
AcDbText
  0
TEXT
  5
461B2
100
AcDbEntity
  8
0
100
AcDbText
 10
-0.62
 20
-1.575
 30
0.97
 40
0.2
  1
7
210
0.0
220
-1.0
230
0.0
100
AcDbText
  0
TEXT
  5
461B3
100
AcDbEntity
  8
0
100
AcDbText
 10
0.5525
 20
-2.075
 30
0.97
 40
0.2
  1
9
210
0.0
220
-1.0
230
0.0
100
AcDbText
  0
TEXT
  5
461B4
100
AcDbEntity
  8
0
100
AcDbText
 10
-0.37504
 20
-2.075
 30
0.97
 40
0.2
  1
11
210
0.0
220
-1.0
230
0.0
100
AcDbText
  0
TEXT
  5
461B5
100
AcDbEntity
  8
0
100
AcDbText
 10
-0.7925
 20
-1.075
 30
0.97
 40
0.2
  1
2
210
0.0
220
1.0
230
0.0
100
AcDbText
  0
TEXT
  5
461B6
100
AcDbEntity
  8
0
100
AcDbText
 10
-0.0675
 20
-1.075
 30
0.97
 40
0.2
  1
4
210
0.0
220
1.0
230
0.0
100
AcDbText
  0
TEXT
  5
461B7
100
AcDbEntity
  8
0
100
AcDbText
 10
-0.17
 20
-1.575
 30
0.97
 40
0.2
  1
6
210
0.0
220
1.0
230
0.0
100
AcDbText
  0
TEXT
  5
461B8
100
AcDbEntity
  8
0
100
AcDbText
 10
0.555
 20
-1.575
 30
0.97
 40
0.2
  1
8
210
0.0
220
1.0
230
0.0
100
AcDbText
  0
TEXT
  5
461B9
100
AcDbEntity
  8
0
100
AcDbText
 10
-0.7125
 20
-2.075
 30
0.97
 40
0.2
  1
10
210
0.0
220
1.0
230
0.0
100
AcDbText
  0
TEXT
  5
461BA
100
AcDbEntity
  8
0
100
AcDbText
 10
0.0125
 20
-2.075
 30
0.97
 40
0.2
  1
12
210
0.0
220
1.0
230
0.0
100
AcDbText
  0
LWPOLYLINE
  5
461BB
100
AcDbEntity
  8
0
100
AcDbPolyline
 90
        8
 70
     1
 43
0.0
 38
-0.97
 10
-0.4375
 20
-3.3
 10
-0.4375
 20
-3.075
 10
-0.46
 20
-3.075
 10
-0.46
 20
-2.575
 10
-0.795
 20
-2.575
 10
-0.795
 20
-3.075
 10
-0.8175
 20
-3.075
 10
-0.8175
 20
-3.3
210
0.0
220
-1.0
230
0.0
  0
TEXT
  5
461BC
100
AcDbEntity
  8
0
100
AcDbText
 10
0.555
 20
-2.575
 30
0.97
 40
0.2
  1
16
210
0.0
220
1.0
230
0.0
100
AcDbText
  0
LWPOLYLINE
  5
461BD
100
AcDbEntity
  8
0
100
AcDbPolyline
 90
        8
 70
     1
 43
0.0
 38
-0.97
 10
-0.3925
 20
-3.8
 10
-0.0125
 20
-3.8
 10
-0.0125
 20
-3.575
 10
-0.035
 20
-3.575
 10
-0.035
 20
-3.075
 10
-0.37
 20
-3.075
 10
-0.37
 20
-3.575
 10
-0.3925
 20
-3.575
210
0.0
220
-1.0
230
0.0
  0
TEXT
  5
461BE
100
AcDbEntity
  8
0
100
AcDbText
 10
0.0125
 20
-3.075
 30
0.97
 40
0.2
  1
20
210
0.0
220
1.0
230
0.0
100
AcDbText
  0
LWPOLYLINE
  5
461BF
100
AcDbEntity
  8
0
100
AcDbPolyline
 90
       10
 70
     0
 43
0.0
 38
-0.97
 10
0.4125
 20
-3.075
 10
0.39
 20
-3.075
 10
0.39
 20
-2.575
 10
0.055
 20
-2.575
 10
0.055
 20
-3.075
 10
0.0325
 20
-3.075
 10
0.0325
 20
-3.3
 10
0.4125
 20
-3.3
 10
0.4125
 20
-3.075
 10
0.4125
 20
-3.3
210
0.0
220
-1.0
230
0.0
  0
TEXT
  5
461C0
100
AcDbEntity
  8
0
100
AcDbText
 10
-0.335
 20
-2.575
 30
0.97
 40
0.2
  1
14
210
0.0
220
1.0
230
0.0
100
AcDbText
  0
LWPOLYLINE
  5
461C1
100
AcDbEntity
  8
0
100
AcDbPolyline
 90
        8
 70
     1
 43
0.0
 38
-0.97
 10
0.8375
 20
-3.075
 10
0.5025
 20
-3.075
 10
0.5025
 20
-3.575
 10
0.48
 20
-3.575
 10
0.48
 20
-3.8
 10
0.86
 20
-3.8
 10
0.86
 20
-3.575
 10
0.8375
 20
-3.575
210
0.0
220
-1.0
230
0.0
  0
TEXT
  5
461C2
100
AcDbEntity
  8
0
100
AcDbText
 10
-0.7125
 20
-3.075
 30
0.97
 40
0.2
  1
18
210
0.0
220
1.0
230
0.0
100
AcDbText
  0
LWPOLYLINE
  5
461C3
100
AcDbEntity
  8
0
100
AcDbPolyline
 90
        8
 70
     1
 43
0.0
 38
0.97
 10
-0.4375
 20
-3.3
 10
-0.4375
 20
-3.075
 10
-0.46
 20
-3.075
 10
-0.46
 20
-2.575
 10
-0.795
 20
-2.575
 10
-0.795
 20
-3.075
 10
-0.8175
 20
-3.075
 10
-0.8175
 20
-3.3
210
0.0
220
-1.0
230
0.0
  0
TEXT
  5
461C4
100
AcDbEntity
  8
0
100
AcDbText
 10
-0.82254
 20
-2.575
 30
0.97
 40
0.2
  1
15
210
0.0
220
-1.0
230
0.0
100
AcDbText
  0
LWPOLYLINE
  5
461C5
100
AcDbEntity
  8
0
100
AcDbPolyline
 90
        8
 70
     1
 43
0.0
 38
0.97
 10
-0.3925
 20
-3.8
 10
-0.0125
 20
-3.8
 10
-0.0125
 20
-3.575
 10
-0.035
 20
-3.575
 10
-0.035
 20
-3.075
 10
-0.37
 20
-3.075
 10
-0.37
 20
-3.575
 10
-0.3925
 20
-3.575
210
0.0
220
-1.0
230
0.0
  0
TEXT
  5
461C6
100
AcDbEntity
  8
0
100
AcDbText
 10
-0.359889
 20
-3.075
 30
0.97
 40
0.2
  1
19
210
0.0
220
-1.0
230
0.0
100
AcDbText
  0
TEXT
  5
461C7
100
AcDbEntity
  8
0
100
AcDbText
 10
0.105
 20
-2.575
 30
0.97
 40
0.2
  1
13
210
0.0
220
-1.0
230
0.0
100
AcDbText
  0
LWPOLYLINE
  5
461C8
100
AcDbEntity
  8
0
100
AcDbPolyline
 90
       10
 70
     0
 43
0.0
 38
0.97
 10
0.4125
 20
-3.075
 10
0.39
 20
-3.075
 10
0.39
 20
-2.575
 10
0.055
 20
-2.575
 10
0.055
 20
-3.075
 10
0.0325
 20
-3.075
 10
0.0325
 20
-3.3
 10
0.4125
 20
-3.3
 10
0.4125
 20
-3.075
 10
0.4125
 20
-3.3
210
0.0
220
-1.0
230
0.0
  0
TEXT
  5
461C9
100
AcDbEntity
  8
0
100
AcDbText
 10
0.5525
 20
-3.075
 30
0.97
 40
0.2
  1
17
210
0.0
220
-1.0
230
0.0
100
AcDbText
  0
LWPOLYLINE
  5
461CA
100
AcDbEntity
  8
0
100
AcDbPolyline
 90
        8
 70
     1
 43
0.0
 38
0.97
 10
0.8375
 20
-3.075
 10
0.5025
 20
-3.075
 10
0.5025
 20
-3.575
 10
0.48
 20
-3.575
 10
0.48
 20
-3.8
 10
0.86
 20
-3.8
 10
0.86
 20
-3.575
 10
0.8375
 20
-3.575
210
0.0
220
-1.0
230
0.0
  0
TEXT
  5
461CB
100
AcDbEntity
  8
0
100
AcDbText
 10
0.4825
 20
-3.575
 30
0.97
 40
0.2
  1
24
210
0.0
220
1.0
230
0.0
100
AcDbText
  0
LWPOLYLINE
  5
461CC
100
AcDbEntity
  8
0
100
AcDbPolyline
 90
        8
 70
     1
 43
0.0
 38
-0.97
 10
-0.8625
 20
-4.3
 10
-0.4825
 20
-4.3
 10
-0.4825
 20
-4.075
 10
-0.505
 20
-4.075
 10
-0.505
 20
-3.575
 10
-0.84
 20
-3.575
 10
-0.84
 20
-4.075
 10
-0.8625
 20
-4.075
210
0.0
220
-1.0
230
0.0
  0
LWPOLYLINE
  5
461CD
100
AcDbEntity
  8
0
100
AcDbPolyline
 90
        8
 70
     1
 43
0.0
 38
-0.97
 10
0.3675
 20
-3.575
 10
0.0325
 20
-3.575
 10
0.0325
 20
-4.075
 10
0.01
 20
-4.075
 10
0.01
 20
-4.3
 10
0.39
 20
-4.3
 10
0.39
 20
-4.075
 10
0.3675
 20
-4.075
210
0.0
220
-1.0
230
0.0
  0
TEXT
  5
461CE
100
AcDbEntity
  8
0
100
AcDbText
 10
-0.2425
 20
-3.575
 30
0.97
 40
0.2
  1
22
210
0.0
220
1.0
230
0.0
100
AcDbText
  0
TEXT
  5
461CF
100
AcDbEntity
  8
0
100
AcDbText
 10
-0.829889
 20
-3.575
 30
0.97
 40
0.2
  1
23
210
0.0
220
-1.0
230
0.0
100
AcDbText
  0
LWPOLYLINE
  5
461D0
100
AcDbEntity
  8
0
100
AcDbPolyline
 90
        8
 70
     1
 43
0.0
 38
0.97
 10
-0.8625
 20
-4.3
 10
-0.4825
 20
-4.3
 10
-0.4825
 20
-4.075
 10
-0.505
 20
-4.075
 10
-0.505
 20
-3.575
 10
-0.84
 20
-3.575
 10
-0.84
 20
-4.075
 10
-0.8625
 20
-4.075
210
0.0
220
-1.0
230
0.0
  0
TEXT
  5
461D1
100
AcDbEntity
  8
0
100
AcDbText
 10
0.0825
 20
-3.575
 30
0.97
 40
0.2
  1
21
210
0.0
220
-1.0
230
0.0
100
AcDbText
  0
LWPOLYLINE
  5
461D2
100
AcDbEntity
  8
0
100
AcDbPolyline
 90
        8
 70
     1
 43
0.0
 38
0.97
 10
0.3675
 20
-3.575
 10
0.0325
 20
-3.575
 10
0.0325
 20
-4.075
 10
0.01
 20
-4.075
 10
0.01
 20
-4.3
 10
0.39
 20
-4.3
 10
0.39
 20
-4.075
 10
0.3675
 20
-4.075
210
0.0
220
-1.0
230
0.0
  0
LWPOLYLINE
  5
461D3
100
AcDbEntity
  8
0
100
AcDbPolyline
 90
        4
 70
     1
 43
0.0
 38
-0.675
 10
-0.9825
 20
0.97
 10
0.9825
 20
0.97
 10
0.9825
 20
-0.97
 10
-0.9825
 20
-0.97
  0
3DSOLID
  5
461D4
100
AcDbEntity
  8
0
100
AcDbModelerGeometry
 70
     1
  1
noi gj n o          
  1
=0;& {rn {n {rn {rn |
  1
3*2/ {rn {rn {m {o |
  1
,7:33 {rn {rn {rn {l {n |
  1
9><: {rn {k {j {m {rn {i 90-(>-; ,6183: |
  1
9><: {rn {h {g {m {rn {f 90-(>-; ,6183: |
  1
300/ {rn {rn {no {l |
  1
/3>1:r,*-9><: {rn roqfgmkffffffffffffl roqfhoooooooooooookm roqihkfffffffffffflg o rn o o o rn o V V V V |
  1
9><: {rn {nn {nm {m {rn {nl 90-(>-; ,6183: |
  1
300/ {rn {rn {nk {k |
  1
/3>1:r,*-9><: {rn oqfgmkffffffffffffl roqfhoooooooooooookm roqihkfffffffffffflg n o o o o rn o V V V V |
  1
<0:;8: {rn {nj {ni {nh {ng o {j {rn |
  1
9><: {rn {nf {mo {m {rn {mn 90-(>-; ,6183: |
  1
300/ {rn {rn {mm {h |
  1
/3>1:r,*-9><: {rn oqfgmkffffffffffffl oqfiffffffffffffggi roqihkfffffffffffflg o n o o o n o V V V V |
  1
<0:;8: {rn {ml {mk {mj {mi o {g {rn |
  1
<0:;8: {rn {mh {no {mk {mg n {j {rn |
  1
<0:;8: {rn {no {mh {mf {lo o {j {rn |
  1
<0:;8: {rn {ln {mj {no {ng n {lm {rn |
  1
:;8: {rn {ll {lk {no {lj o |
  1
9><: {rn {li {lm {m {rn {lh 90-(>-; ,6183: |
  1
300/ {rn {rn {lg {nn |
  1
/3>1:r,*-9><: {rn roqfgmkffffffffffffl oqfiffffffffffffggi roqihkfffffffffffflg rn o o o o n o V V V V |
  1
<0:;8: {rn {lf {ko {kn {km o {nm {rn |
  1
<0:;8: {rn {kl {nk {ko {kk n {g {rn |
  1
<0:;8: {rn {nk {kl {nj {mg o {g {rn |
  1
<0:;8: {rn {nh {kn {nk {mi n {lm {rn |
  1
:;8: {rn {lk {kj {nk {ki o |
  1
<0:;8: {rn {ni {nj {kh {kg n {j {rn |
  1
:;8: {rn {kf {lk {mk {jo o |
  1
<0:;8: {rn {jn {lg {ni {lo n {mo {rn |
  1
:;8: {rn {jm {ll {ni {jl o |
  1
<0:;8: {rn {kn {nh {lg {jk n {lm {rn |
  1
300/ {rn {rn {nh {nf |
  1
):-+:' {rn {lo {jj |
  1
):-+:' {rn {mg {ji |
  1
,+->687+r<*-): {rn roqfgmkffffffffffffl roqfhoooooooooooookm rjqnfkfffffffffffgj n o o V V |
  1
9><: {rn {rn {jh {m {rn {jg -:):-,:; ,6183: |
  1
/3>1:r,*-9><: {rn roqfgmkffffffffffffl roqfhoooooooooooookm rjqnfkfffffffffffgj o o rn rn o o o V V V V |
  1
<0:;8: {rn {mf {jf {ln {jk o {mo {rn |
  1
<0:;8: {rn {io {mm {jf {in n {nm {rn |
  1
<0:;8: {rn {mm {io {ml {kk o {nm {rn |
  1
<0:;8: {rn {mj {ln {mm {km n {lm {rn |
  1
:;8: {rn {kj {im {mm {il o |
  1
<0:;8: {rn {mk {ml {ik {ij n {g {rn |
  1
:;8: {rn {ii {kj {ko {ih o |
  1
):-+:' {rn {kk {ig |
  1
,+->687+r<*-): {rn oqfgmkffffffffffffl roqfhoooooooooooookm rjqnfkfffffffffffgj o n o V V |
  1
<0:;8: {rn {ik {if {mh {kg o {jh {rn |
  1
:;8: {rn {jm {kf {kh {ho o |
  1
):-+:' {rn {kg {hn |
  1
,+->687+r<*-): {rn oqfgmkffffffffffffl roqfhoooooooooooookm roqihkfffffffffffflg o o rn V V |
  1
<0:;8: {rn {jf {mf {if {hm n {mo {rn |
  1
):-+:' {rn {hm {hl |
  1
,+->687+r<*-): {rn roqfgmkffffffffffffl roqfhoooooooooooookm roqihkfffffffffffflg o o rn V V |
  1
:;8: {rn {im {ll {lg {hk o |
  1
/061+ {rn roqfgmkffffffffffffl roqfhoooooooooooookm rjqnfkfffffffffffgj |
  1
/061+ {rn oqfgmkffffffffffffl roqfhoooooooooooookm rjqnfkfffffffffffgj |
  1
300/ {rn {rn {if {li |
  1
/3>1:r,*-9><: {rn o rhqhhnjinnhmlhiofjg:roni roqihkfffffffffffflg o o rn rn o o o V V V V |
  1
<0:;8: {rn {lg {jn {lf {in o {mo {rn |
  1
<0:;8: {rn {ko {lf {hj {hi n {nm {rn |
  1
:;8: {rn {hh {im {jf {hg o |
  1
):-+:' {rn {in {hf |
  1
,+->687+r<*-): {rn oqfgmkffffffffffffl oqfiffffffffffffggi rjqnfkfffffffffffgj rn o o V V |
  1
<0:;8: {rn {hj {kh {kl {ij o {jh {rn |
  1
:;8: {rn {kf {ii {ik {go o |
  1
):-+:' {rn {ij {gn |
  1
,+->687+r<*-): {rn oqfgmkffffffffffffl oqfiffffffffffffggi roqihkfffffffffffflg o o rn V V |
  1
/061+ {rn oqfgmkffffffffffffl oqfiffffffffffffggi rjqnfkfffffffffffgj |
  1
<0:;8: {rn {kh {hj {jn {hm o {jh {rn |
  1
,+->687+r<*-): {rn roqfgmkffffffffffffl roqfhoooooooooooookm roqihkfffffffffffflg n o o V V |
  1
/061+ {rn oqfgmkffffffffffffl roqfhoooooooooooookm roqihkfffffffffffflg |
  1
:;8: {rn {hh {jm {if {gm o |
  1
/061+ {rn roqfgmkffffffffffffl roqfhoooooooooooookm roqihkfffffffffffflg |
  1
,+->687+r<*-): {rn roqfgmkffffffffffffl oqfiffffffffffffggi rjqnfkfffffffffffgj o rn o V V |
  1
<0:;8: {rn {if {ik {io {hi o {jh {rn |
  1
:;8: {rn {ii {hh {hj {gl o |
  1
):-+:' {rn {hm {gk |
  1
,+->687+r<*-): {rn roqfgmkffffffffffffl oqfiffffffffffffggi roqihkfffffffffffflg o o rn V V |
  1
/061+ {rn roqfgmkffffffffffffl oqfiffffffffffffggi rjqnfkfffffffffffgj |
  1
,+->687+r<*-): {rn oqfgmkffffffffffffl roqfhoooooooooooookm roqihkfffffffffffflg o n o V V |
  1
/061+ {rn oqfgmkffffffffffffl oqfiffffffffffffggi roqihkfffffffffffflg |
  1
,+->687+r<*-): {rn roqfgmkffffffffffffl oqfiffffffffffffggi roqihkfffffffffffflg o rn o V V |
  1
,+->687+r<*-): {rn oqfgmkffffffffffffl oqfiffffffffffffggi roqihkfffffffffffflg rn o o V V |
  1
/061+ {rn roqfgmkffffffffffffl oqfiffffffffffffggi roqihkfffffffffffflg |
  0
LWPOLYLINE
  5
461D5
100
AcDbEntity
  8
0
100
AcDbPolyline
 90
        4
 70
     1
 43
0.0
 38
-0.97
 10
-0.5275
 20
-5.075
 10
-0.5275
 20
-4.575
 10
-0.8625
 20
-4.575
 10
-0.8625
 20
-5.075
210
0.0
220
-1.0
230
0.0
  0
TEXT
  5
461D6
100
AcDbEntity
  8
0
100
AcDbText
 10
0.6025
 20
-4.575
 30
0.97
 40
0.2
  1
32
210
0.0
220
1.0
230
0.0
100
AcDbText
  0
TEXT
  5
461D7
100
AcDbEntity
  8
0
100
AcDbText
 10
-0.2875
 20
-4.575
 30
0.97
 40
0.2
  1
30
210
0.0
220
1.0
230
0.0
100
AcDbText
  0
LWPOLYLINE
  5
461D8
100
AcDbEntity
  8
0
100
AcDbPolyline
 90
        4
 70
     1
 43
0.0
 38
-0.97
 10
0.01
 20
-4.575
 10
0.01
 20
-5.075
 10
0.345
 20
-5.075
 10
0.345
 20
-4.575
210
0.0
220
-1.0
230
0.0
  0
TEXT
  5
461D9
100
AcDbEntity
  8
0
100
AcDbText
 10
-0.85754
 20
-4.575
 30
0.97
 40
0.2
  1
31
210
0.0
220
-1.0
230
0.0
100
AcDbText
  0
LWPOLYLINE
  5
461DA
100
AcDbEntity
  8
0
100
AcDbPolyline
 90
        4
 70
     1
 43
0.0
 38
0.97
 10
-0.5275
 20
-5.075
 10
-0.5275
 20
-4.575
 10
-0.8625
 20
-4.575
 10
-0.8625
 20
-5.075
210
0.0
220
-1.0
230
0.0
  0
TEXT
  5
461DB
100
AcDbEntity
  8
0
100
AcDbText
 10
0.07
 20
-4.575
 30
0.97
 40
0.2
  1
29
210
0.0
220
-1.0
230
0.0
100
AcDbText
  0
LWPOLYLINE
  5
461DC
100
AcDbEntity
  8
0
100
AcDbPolyline
 90
        4
 70
     1
 43
0.0
 38
0.97
 10
0.01
 20
-4.575
 10
0.01
 20
-5.075
 10
0.345
 20
-5.075
 10
0.345
 20
-4.575
210
0.0
220
-1.0
230
0.0
  0
TEXT
  5
461DD
100
AcDbEntity
  8
0
100
AcDbText
 10
0.0575
 20
-4.075
 30
0.97
 40
0.2
  1
28
210
0.0
220
1.0
230
0.0
100
AcDbText
  0
LWPOLYLINE
  5
461DE
100
AcDbEntity
  8
0
100
AcDbPolyline
 90
        8
 70
     1
 43
0.0
 38
-0.97
 10
-0.4375
 20
-4.8
 10
-0.0575
 20
-4.8
 10
-0.0575
 20
-4.575
 10
-0.08
 20
-4.575
 10
-0.08
 20
-4.075
 10
-0.415
 20
-4.075
 10
-0.415
 20
-4.575
 10
-0.4375
 20
-4.575
210
0.0
220
-1.0
230
0.0
  0
TEXT
  5
461DF
100
AcDbEntity
  8
0
100
AcDbText
 10
-0.6675
 20
-4.075
 30
0.97
 40
0.2
  1
26
210
0.0
220
1.0
230
0.0
100
AcDbText
  0
LWPOLYLINE
  5
461E0
100
AcDbEntity
  8
0
100
AcDbPolyline
 90
        8
 70
     1
 43
0.0
 38
-0.97
 10
0.7925
 20
-4.075
 10
0.4575
 20
-4.075
 10
0.4575
 20
-4.575
 10
0.435
 20
-4.575
 10
0.435
 20
-4.8
 10
0.815
 20
-4.8
 10
0.815
 20
-4.575
 10
0.7925
 20
-4.575
210
0.0
220
-1.0
230
0.0
  0
TEXT
  5
461E1
100
AcDbEntity
  8
0
100
AcDbText
 10
-0.404889
 20
-4.075
 30
0.97
 40
0.2
  1
27
210
0.0
220
-1.0
230
0.0
100
AcDbText
  0
LWPOLYLINE
  5
461E2
100
AcDbEntity
  8
0
100
AcDbPolyline
 90
        8
 70
     1
 43
0.0
 38
0.97
 10
-0.4375
 20
-4.8
 10
-0.0575
 20
-4.8
 10
-0.0575
 20
-4.575
 10
-0.08
 20
-4.575
 10
-0.08
 20
-4.075
 10
-0.415
 20
-4.075
 10
-0.415
 20
-4.575
 10
-0.4375
 20
-4.575
210
0.0
220
-1.0
230
0.0
  0
TEXT
  5
461E3
100
AcDbEntity
  8
0
100
AcDbText
 10
0.5075
 20
-4.075
 30
0.97
 40
0.2
  1
25
210
0.0
220
-1.0
230
0.0
100
AcDbText
  0
LWPOLYLINE
  5
461E4
100
AcDbEntity
  8
0
100
AcDbPolyline
 90
        8
 70
     1
 43
0.0
 38
0.97
 10
0.7925
 20
-4.075
 10
0.4575
 20
-4.075
 10
0.4575
 20
-4.575
 10
0.435
 20
-4.575
 10
0.435
 20
-4.8
 10
0.815
 20
-4.8
 10
0.815
 20
-4.575
 10
0.7925
 20
-4.575
210
0.0
220
-1.0
230
0.0
  0
DIMENSION
  5
461E5
100
AcDbEntity
  8
AREA1
100
AcDbDimension
  2
*D1
 10
1.0775
 20
1.447029
 30
0.0
 11
0.0
 21
1.447029
 31
0.0
 70
    32
  3
ABECAD_3D
100
AcDbAlignedDimension
 13
-1.0775
 23
1.0775
 33
-0.19
 14
1.0775
 24
1.0775
 34
0.0
100
AcDbRotatedDimension
  0
DIMENSION
  5
461F3
100
AcDbEntity
  8
AREA1
100
AcDbDimension
  2
*D2
 10
1.49069
 20
-1.0775
 30
0.0
 11
1.49069
 21
0.0
 31
0.0
 70
    32
  3
ABECAD_3D
100
AcDbAlignedDimension
 13
1.0775
 23
1.0775
 33
0.0
 14
1.0775
 24
-1.0775
 34
0.0
 50
90.0
100
AcDbRotatedDimension
  0
ENDSEC
  0
SECTION
  2
OBJECTS
  0
DICTIONARY
  5
458CB
100
AcDbDictionary
  3
ACAD_GROUP
350
458CC
  3
ACAD_LAYOUT
350
458FB
  3
ACAD_MLINESTYLE
350
458D9
  3
ACAD_PLOTSETTINGS
350
458FC
  3
ACAD_PLOTSTYLENAME
350
458F9
  3
ACDBHEADERROUNDTRIPXREC
350
4626E
  3
ACDBVARIABLEDICTIONARY
350
458E1
  0
DICTIONARY
  5
4626C
100
AcDbDictionary
280
     1
  3
ACAD_XREC_ROUNDTRIP
360
4626D
  0
DICTIONARY
  5
4626A
100
AcDbDictionary
280
     1
  3
ACAD_XREC_ROUNDTRIP
360
4626B
  0
DICTIONARY
  5
46291
100
AcDbDictionary
280
     1
  3
ACAD_XREC_ROUNDTRIP
360
46292
  0
DICTIONARY
  5
46293
100
AcDbDictionary
280
     1
  3
ACAD_XREC_ROUNDTRIP
360
46294
  0
DICTIONARY
  5
45990
100
AcDbDictionary
280
     1
  3
ACAD_LAYOUTSELFREF
360
46290
  0
DICTIONARY
  5
4598E
100
AcDbDictionary
280
     1
  3
ACAD_LAYOUTSELFREF
360
4628F
  0
DICTIONARY
  5
46268
100
AcDbDictionary
280
     1
  3
ACAD_XREC_ROUNDTRIP
360
46269
  0
DICTIONARY
  5
458CC
102
{ACAD_REACTORS
330
458CB
102
}
100
AcDbDictionary
  0
DICTIONARY
  5
458FB
102
{ACAD_XDICTIONARY
360
46295
102
}
102
{ACAD_REACTORS
330
458CB
102
}
100
AcDbDictionary
  3
LAYOUT1
350
458FE
  3
MODEL
350
458FD
  0
DICTIONARY
  5
458D9
102
{ACAD_REACTORS
330
458CB
102
}
100
AcDbDictionary
  3
STANDARD
350
458DA
  0
DICTIONARY
  5
458FC
102
{ACAD_REACTORS
330
458CB
102
}
100
AcDbDictionary
  0
ACAD_PROXY_OBJECT
  5
458F9
102
{ACAD_REACTORS
330
458CB
102
}
100
AcDbProxyObject
 90
      499
 91
      501
 93
       86
310
405010041939BDC9B585B1
350
458FA
340
458FA
 94
        0
  0
DICTIONARY
  5
4626E
102
{ACAD_REACTORS
330
458CB
102
}
100
AcDbDictionary
  3
CEPSNTYPE
350
46278
  3
DIMSTYLEDATA
350
4627C
  3
FINGERPRINTGUID
350
46279
  3
HYPERLINKBASE
350
46271
  3
INSUNITS
350
46277
  3
LAYOUTDICT
350
46273
  3
LWETCUNION
350
46276
  3
PLOTSETDICT
350
46274
  3
PLOTSTYLNAMDICT
350
46275
  3
PSVPSCALE
350
4627B
  3
PUCSBASE
350
4627F
  3
PUCSORGBACK
350
46285
  3
PUCSORGBOTTOM
350
46281
  3
PUCSORGFRONT
350
46284
  3
PUCSORGLEFT
350
46282
  3
PUCSORGRIGHT
350
46283
  3
PUCSORGTOP
350
46280
  3
PUCSORTHOREF
350
4627D
  3
PUCSORTHOVIEW
350
4627E
  3
STYLESHEET
350
46272
  3
TSTACKALIGN
350
4626F
  3
TSTACKSIZE
350
46270
  3
UCSBASE
350
46288
  3
UCSORGBACK
350
4628E
  3
UCSORGBOTTOM
350
4628A
  3
UCSORGFRONT
350
4628D
  3
UCSORGLEFT
350
4628B
  3
UCSORGRIGHT
350
4628C
  3
UCSORGTOP
350
46289
  3
UCSORTHOREF
350
46286
  3
UCSORTHOVIEW
350
46287
  3
VERSIONGUID
350
4627A
  0
DICTIONARY
  5
458E1
102
{ACAD_REACTORS
330
458CB
102
}
100
AcDbDictionary
  3
DIMADEC
350
458E2
  0
XRECORD
  5
4626D
102
{ACAD_REACTORS
330
4626C
102
}
100
AcDbXrecord
102
EXTNAMES
  1
*ACTIVE
  2
*Active
102
UCS
 74
     0
 71
     1
 10
0.0
 20
0.0
 30
0.0
 10
1.0
 20
0.0
 30
0.0
 10
0.0
 20
1.0
 30
0.0
146
0.0
 79
     1
102
VIEW
281
     0
  0
XRECORD
  5
4626B
102
{ACAD_REACTORS
330
4626A
102
}
100
AcDbXrecord
102
EXTNAMES
  1
DEFPOINTS
  2
Defpoints
102
PLOTBIT
280
     0
  0
XRECORD
  5
46292
102
{ACAD_REACTORS
330
46291
102
}
100
AcDbXrecord
102
ACADR14ROUNDTRIP
1000
DSTYLE
1002
{
1070
   276
 70
     2
1070
   277
 70
     5
1002
}
  0
XRECORD
  5
46294
102
{ACAD_REACTORS
330
46293
102
}
100
AcDbXrecord
102
ACADR14ROUNDTRIP
1000
DSTYLE
1002
{
1070
   276
 70
     2
1070
   277
 70
     5
1002
}
  0
XRECORD
  5
46290
102
{ACAD_REACTORS
330
45990
102
}
100
AcDbXrecord
340
458D6
  0
XRECORD
  5
4628F
102
{ACAD_REACTORS
330
4598E
102
}
100
AcDbXrecord
340
458D3
  0
XRECORD
  5
46269
102
{ACAD_REACTORS
330
46268
102
}
100
AcDbXrecord
102
EXTNAMES
  1
SCALEINCH
  2
scaleinch
  0
DICTIONARY
  5
46295
100
AcDbDictionary
280
     1
  3
ACAD_XREC_ROUNDTRIP
360
46296
  0
ACAD_PROXY_OBJECT
  5
458FE
102
{ACAD_REACTORS
330
458FB
102
}
100
AcDbProxyObject
 90
      499
 91
      503
 93
     1348
310
91D4850204C617365724A65742035303030205365726965732050434C20362C00AAAAAA416AA547D11959985D5B1D08148C4D081C195B88185CDCDA59DB9B595B9D1CCB98DD1891069074C61796F75743140501A800000000000000000000000000000000000000000000A1000000000000008902A6A6A10232D5E076BC551
310
0408CB5781DAF154410232D5E076BC5510408CB5781DAF15C410232D5E076BC5710408CB5781DAF15C40
330
458D3
330
0
340
0
340
0
 94
        0
  0
ACAD_PROXY_OBJECT
  5
458FD
102
{ACAD_REACTORS
330
458FB
102
}
100
AcDbProxyObject
 90
      499
 91
      503
 93
     1532
310
90B6E6F6E655F6465766963652C0B80000006066661940000000181999865000000000068661940000000001A1986500000000C0CCFC6A4000000018199D9C5011C4C65747465725F28382E35305F785F31312E30305F496E6368657329A901AAA547D11959985D5B1D08148C4D081C195B88185CDCDA59DB9B595B9D1CCB9
310
8DD18A42E18441CF4283C4016BB6791F391CE101054D6F64656C901A800000000000000000000000000000000000000000000A1000000000000008902A6A6AAAA0
330
458D6
330
0
340
0
340
0
 94
        0
  0
MLINESTYLE
  5
458DA
102
{ACAD_REACTORS
330
458D9
102
}
100
AcDbMlineStyle
  2
STANDARD
 70
     0
  3

 62
   256
 51
90.0
 52
90.0
 71
     2
 49
0.5
 62
   256
  6
BYLAYER
 49
-0.5
 62
   256
  6
BYLAYER
  0
ACAD_PROXY_OBJECT
  5
458FA
102
{ACAD_REACTORS
330
458F9
102
}
100
AcDbProxyObject
 90
      499
 91
      502
 93
        0
 94
        0
  0
XRECORD
  5
46278
102
{ACAD_REACTORS
330
4626E
102
}
100
AcDbXrecord
 90
        0
  0
XRECORD
  5
4627C
102
{ACAD_REACTORS
330
4626E
102
}
100
AcDbXrecord
1000
DSTYLE
1002
{
1070
   276
 70
     2
1070
   277
 70
     5
1002
}
  0
XRECORD
  5
46279
102
{ACAD_REACTORS
330
4626E
102
}
100
AcDbXrecord
  1
{63D389F6-1A84-11D4-A150-00A0CC3303EC}
  0
XRECORD
  5
46271
102
{ACAD_REACTORS
330
4626E
102
}
100
AcDbXrecord
  1

  0
XRECORD
  5
46277
102
{ACAD_REACTORS
330
4626E
102
}
100
AcDbXrecord
 90
        0
  0
XRECORD
  5
46273
102
{ACAD_REACTORS
330
4626E
102
}
100
AcDbXrecord
340
458FB
  0
XRECORD
  5
46276
102
{ACAD_REACTORS
330
4626E
102
}
100
AcDbXrecord
 90
    14877
  0
XRECORD
  5
46274
102
{ACAD_REACTORS
330
4626E
102
}
100
AcDbXrecord
340
458FC
  0
XRECORD
  5
46275
102
{ACAD_REACTORS
330
4626E
102
}
100
AcDbXrecord
340
458F9
  0
XRECORD
  5
4627B
102
{ACAD_REACTORS
330
4626E
102
}
100
AcDbXrecord
 40
0.0
  0
XRECORD
  5
4627F
102
{ACAD_REACTORS
330
4626E
102
}
100
AcDbXrecord
340
0
  0
XRECORD
  5
46285
102
{ACAD_REACTORS
330
4626E
102
}
100
AcDbXrecord
 10
0.0
 20
0.0
 30
0.0
  0
XRECORD
  5
46281
102
{ACAD_REACTORS
330
4626E
102
}
100
AcDbXrecord
 10
0.0
 20
0.0
 30
0.0
  0
XRECORD
  5
46284
102
{ACAD_REACTORS
330
4626E
102
}
100
AcDbXrecord
 10
0.0
 20
0.0
 30
0.0
  0
XRECORD
  5
46282
102
{ACAD_REACTORS
330
4626E
102
}
100
AcDbXrecord
 10
0.0
 20
0.0
 30
0.0
  0
XRECORD
  5
46283
102
{ACAD_REACTORS
330
4626E
102
}
100
AcDbXrecord
 10
0.0
 20
0.0
 30
0.0
  0
XRECORD
  5
46280
102
{ACAD_REACTORS
330
4626E
102
}
100
AcDbXrecord
 10
0.0
 20
0.0
 30
0.0
  0
XRECORD
  5
4627D
102
{ACAD_REACTORS
330
4626E
102
}
100
AcDbXrecord
340
0
  0
XRECORD
  5
4627E
102
{ACAD_REACTORS
330
4626E
102
}
100
AcDbXrecord
 70
     0
  0
XRECORD
  5
46272
102
{ACAD_REACTORS
330
4626E
102
}
100
AcDbXrecord
  1

  0
XRECORD
  5
4626F
102
{ACAD_REACTORS
330
4626E
102
}
100
AcDbXrecord
 90
        1
  0
XRECORD
  5
46270
102
{ACAD_REACTORS
330
4626E
102
}
100
AcDbXrecord
 90
       70
  0
XRECORD
  5
46288
102
{ACAD_REACTORS
330
4626E
102
}
100
AcDbXrecord
340
0
  0
XRECORD
  5
4628E
102
{ACAD_REACTORS
330
4626E
102
}
100
AcDbXrecord
 10
0.0
 20
0.0
 30
0.0
  0
XRECORD
  5
4628A
102
{ACAD_REACTORS
330
4626E
102
}
100
AcDbXrecord
 10
0.0
 20
0.0
 30
0.0
  0
XRECORD
  5
4628D
102
{ACAD_REACTORS
330
4626E
102
}
100
AcDbXrecord
 10
0.0
 20
0.0
 30
0.0
  0
XRECORD
  5
4628B
102
{ACAD_REACTORS
330
4626E
102
}
100
AcDbXrecord
 10
0.0
 20
0.0
 30
0.0
  0
XRECORD
  5
4628C
102
{ACAD_REACTORS
330
4626E
102
}
100
AcDbXrecord
 10
0.0
 20
0.0
 30
0.0
  0
XRECORD
  5
46289
102
{ACAD_REACTORS
330
4626E
102
}
100
AcDbXrecord
 10
0.0
 20
0.0
 30
0.0
  0
XRECORD
  5
46286
102
{ACAD_REACTORS
330
4626E
102
}
100
AcDbXrecord
340
0
  0
XRECORD
  5
46287
102
{ACAD_REACTORS
330
4626E
102
}
100
AcDbXrecord
 70
     1
  0
XRECORD
  5
4627A
102
{ACAD_REACTORS
330
4626E
102
}
100
AcDbXrecord
  1
{2CCAFBB8-1F87-4C2E-88F7-ACCD5168A61B}
  0
DICTIONARYVAR
  5
458E2
102
{ACAD_REACTORS
330
458E1
102
}
100
DictionaryVariables
280
     0
  1
0
  0
XRECORD
  5
46296
102
{ACAD_REACTORS
330
46295
102
}
100
AcDbXrecord
102
EXTNAMES
  1
LAYOUT1
  2
Layout1
  1
MODEL
  2
Model
  0
ENDSEC
  0
EOF
