  0
SECTION
  2
HEADER
  9
$ACADVER
  1
AC1014
  9
$ACADMAINTVER
 70
     8
  9
$DWGCODEPAGE
  3
ANSI_1252
  9
$INSBASE
 10
0.0
 20
0.0
 30
0.0
  9
$EXTMIN
 10
-2.559375
 20
-2.559375
 30
-0.708626
  9
$EXTMAX
 10
4.819973
 20
3.217328
 30
0.941374
  9
$LIMMIN
 10
0.0
 20
0.0
  9
$LIMMAX
 10
12.0
 20
9.0
  9
$ORTHOMODE
 70
     0
  9
$REGENMODE
 70
     1
  9
$FILLMODE
 70
     1
  9
$QTEXTMODE
 70
     0
  9
$MIRRTEXT
 70
     1
  9
$DRAGMODE
 70
     2
  9
$LTSCALE
 40
1.0
  9
$OSMODE
 70
    37
  9
$ATTMODE
 70
     0
  9
$TEXTSIZE
 40
0.2
  9
$TRACEWID
 40
0.05
  9
$TEXTSTYLE
  7
STANDARD
  9
$CLAYER
  8
0
  9
$CELTYPE
  6
BYLAYER
  9
$CECOLOR
 62
   256
  9
$CELTSCALE
 40
1.0
  9
$DELOBJ
 70
     1
  9
$DISPSILH
 70
     0
  9
$DIMSCALE
 40
0.0
  9
$DIMASZ
 40
0.18
  9
$DIMEXO
 40
0.0625
  9
$DIMDLI
 40
0.375
  9
$DIMRND
 40
0.0
  9
$DIMDLE
 40
0.0
  9
$DIMEXE
 40
0.18
  9
$DIMTP
 40
0.0
  9
$DIMTM
 40
0.0
  9
$DIMTXT
 40
0.18
  9
$DIMCEN
 40
0.09
  9
$DIMTSZ
 40
0.0
  9
$DIMTOL
 70
     0
  9
$DIMLIM
 70
     0
  9
$DIMTIH
 70
     0
  9
$DIMTOH
 70
     1
  9
$DIMSE1
 70
     0
  9
$DIMSE2
 70
     0
  9
$DIMTAD
 70
     0
  9
$DIMZIN
 70
     4
  9
$DIMBLK
  1

  9
$DIMASO
 70
     1
  9
$DIMSHO
 70
     1
  9
$DIMPOST
  1

  9
$DIMAPOST
  1

  9
$DIMALT
 70
     1
  9
$DIMALTD
 70
     2
  9
$DIMALTF
 40
25.4
  9
$DIMLFAC
 40
1.0
  9
$DIMTOFL
 70
     0
  9
$DIMTVP
 40
0.0
  9
$DIMTIX
 70
     0
  9
$DIMSOXD
 70
     0
  9
$DIMSAH
 70
     0
  9
$DIMBLK1
  1

  9
$DIMBLK2
  1

  9
$DIMSTYLE
  2
ABECAD_3V
  9
$DIMCLRD
 70
     0
  9
$DIMCLRE
 70
     0
  9
$DIMCLRT
 70
     0
  9
$DIMTFAC
 40
1.5
  9
$DIMGAP
 40
0.09
  9
$DIMJUST
 70
     0
  9
$DIMSD1
 70
     0
  9
$DIMSD2
 70
     0
  9
$DIMTOLJ
 70
     1
  9
$DIMTZIN
 70
     4
  9
$DIMALTZ
 70
     4
  9
$DIMALTTZ
 70
     4
  9
$DIMFIT
 70
     5
  9
$DIMUPT
 70
     1
  9
$DIMUNIT
 70
     7
  9
$DIMDEC
 70
     6
  9
$DIMTDEC
 70
     6
  9
$DIMALTU
 70
     2
  9
$DIMALTTD
 70
     2
  9
$DIMTXSTY
  7
STANDARD
  9
$DIMAUNIT
 70
     0
  9
$LUNITS
 70
     2
  9
$LUPREC
 70
     6
  9
$SKETCHINC
 40
0.1
  9
$FILLETRAD
 40
0.0
  9
$AUNITS
 70
     0
  9
$AUPREC
 70
     0
  9
$MENU
  1
acad
  9
$ELEVATION
 40
0.0
  9
$PELEVATION
 40
0.0
  9
$THICKNESS
 40
0.0
  9
$LIMCHECK
 70
     0
  9
$BLIPMODE
 70
     0
  9
$CHAMFERA
 40
0.0
  9
$CHAMFERB
 40
0.0
  9
$CHAMFERC
 40
0.0
  9
$CHAMFERD
 40
0.0
  9
$SKPOLY
 70
     0
  9
$TDCREATE
 40
2451726.438362384
  9
$TDUPDATE
 40
2452010.729107291
  9
$TDINDWG
 40
0.0666583333
  9
$TDUSRTIMER
 40
0.0666583333
  9
$USRTIMER
 70
     1
  9
$ANGBASE
 50
0.0
  9
$ANGDIR
 70
     0
  9
$PDMODE
 70
     3
  9
$PDSIZE
 40
0.18
  9
$PLINEWID
 40
0.0
  9
$COORDS
 70
     1
  9
$SPLFRAME
 70
     0
  9
$SPLINETYPE
 70
     6
  9
$SPLINESEGS
 70
     8
  9
$ATTDIA
 70
     0
  9
$ATTREQ
 70
     1
  9
$HANDLING
 70
     1
  9
$HANDSEED
  5
2D87
  9
$SURFTAB1
 70
     6
  9
$SURFTAB2
 70
     6
  9
$SURFTYPE
 70
     6
  9
$SURFU
 70
     6
  9
$SURFV
 70
     6
  9
$UCSNAME
  2

  9
$UCSORG
 10
0.0
 20
0.0
 30
0.0
  9
$UCSXDIR
 10
1.0
 20
0.0
 30
0.0
  9
$UCSYDIR
 10
0.0
 20
1.0
 30
0.0
  9
$PUCSNAME
  2

  9
$PUCSORG
 10
0.0
 20
0.0
 30
0.0
  9
$PUCSXDIR
 10
1.0
 20
0.0
 30
0.0
  9
$PUCSYDIR
 10
0.0
 20
1.0
 30
0.0
  9
$USERI1
 70
     0
  9
$USERI2
 70
     0
  9
$USERI3
 70
     0
  9
$USERI4
 70
     0
  9
$USERI5
 70
     0
  9
$USERR1
 40
0.0
  9
$USERR2
 40
0.0
  9
$USERR3
 40
0.0
  9
$USERR4
 40
0.0
  9
$USERR5
 40
0.0
  9
$WORLDVIEW
 70
     1
  9
$SHADEDGE
 70
     3
  9
$SHADEDIF
 70
    70
  9
$TILEMODE
 70
     0
  9
$MAXACTVP
 70
    16
  9
$PINSBASE
 10
0.0
 20
0.0
 30
0.0
  9
$PLIMCHECK
 70
     0
  9
$PEXTMIN
 10
0.0
 20
0.0
 30
0.0
  9
$PEXTMAX
 10
10.0
 20
7.5
 30
0.0
  9
$PLIMMIN
 10
-0.187029
 20
-0.186938
  9
$PLIMMAX
 10
10.187518
 20
7.829757
  9
$UNITMODE
 70
     0
  9
$VISRETAIN
 70
     0
  9
$PLINEGEN
 70
     0
  9
$PSLTSCALE
 70
     1
  9
$TREEDEPTH
 70
  3020
  9
$PICKSTYLE
 70
     1
  9
$CMLSTYLE
  2
STANDARD
  9
$CMLJUST
 70
     0
  9
$CMLSCALE
 40
1.0
  9
$PROXYGRAPHICS
 70
     1
  9
$MEASUREMENT
 70
     0
  0
ENDSEC
  0
SECTION
  2
CLASSES
  0
CLASS
  1
DICTIONARYVAR
  2
AcDbDictionaryVar
  3
"AutoCAD"
 90
        0
280
     0
281
     0
  0
CLASS
  1
ACDBDICTIONARYWDFLT
  2
AcDbDictionaryWithDefault
  3
AutoCAD 2000
 90
        0
280
     0
281
     0
  0
CLASS
  1
ACDBPLACEHOLDER
  2
AcDbPlaceHolder
  3
AutoCAD 2000
 90
        0
280
     0
281
     0
  0
CLASS
  1
LAYOUT
  2
AcDbLayout
  3
AutoCAD 2000
 90
        0
280
     0
281
     0
  0
CLASS
  1
LONG_TRANSACTION
  2
AcDbLongTransaction
  3
AutoCAD 2000
 90
        0
280
     0
281
     0
  0
CLASS
  1
LWPOLYLINE
  2
AcDbPolyline
  3
"AutoCAD"
 90
        0
280
     0
281
     1
  0
CLASS
  1
HATCH
  2
AcDbHatch
  3
"ACAD_SEDONA"
 90
        0
280
     0
281
     1
  0
CLASS
  1
XRECORD
  2
AcDbXrecord
  3
"<Built In>"
 90
        0
280
     0
281
     0
  0
CLASS
  1
LONG_TRANSACTION
  2
AcDbLongTransaction
  3
AutoCAD 2000
 90
        0
280
     0
281
     0
  0
CLASS
  1
LWPOLYLINE
  2
AcDbPolyline
  3
"AutoCAD"
 90
        0
280
     0
281
     1
  0
CLASS
  1
HATCH
  2
AcDbHatch
  3
"ACAD_SEDONA"
 90
        0
280
     0
281
     1
  0
CLASS
  1
XRECORD
  2
AcDbXrecord
  3
"<Built In>"
 90
        0
280
     0
281
     0
  0
CLASS
  1
LONG_TRANSACTION
  2
AcDbLongTransaction
  3
AutoCAD 2000
 90
        0
280
     0
281
     0
  0
CLASS
  1
LWPOLYLINE
  2
AcDbPolyline
  3
"AutoCAD"
 90
        0
280
     0
281
     1
  0
CLASS
  1
HATCH
  2
AcDbHatch
  3
"ACAD_SEDONA"
 90
        0
280
     0
281
     1
  0
CLASS
  1
XRECORD
  2
AcDbXrecord
  3
"<Built In>"
 90
        0
280
     0
281
     0
  0
CLASS
  1
LONG_TRANSACTION
  2
AcDbLongTransaction
  3
AutoCAD 2000
 90
        0
280
     0
281
     0
  0
CLASS
  1
LWPOLYLINE
  2
AcDbPolyline
  3
"AutoCAD"
 90
        0
280
     0
281
     1
  0
CLASS
  1
HATCH
  2
AcDbHatch
  3
"ACAD_SEDONA"
 90
        0
280
     0
281
     1
  0
CLASS
  1
XRECORD
  2
AcDbXrecord
  3
"<Built In>"
 90
        0
280
     0
281
     0
  0
CLASS
  1
LONG_TRANSACTION
  2
AcDbLongTransaction
  3
AutoCAD 2000
 90
        0
280
     0
281
     0
  0
CLASS
  1
LWPOLYLINE
  2
AcDbPolyline
  3
"AutoCAD"
 90
        0
280
     0
281
     1
  0
CLASS
  1
HATCH
  2
AcDbHatch
  3
"ACAD_SEDONA"
 90
        0
280
     0
281
     1
  0
CLASS
  1
XRECORD
  2
AcDbXrecord
  3
"<Built In>"
 90
        0
280
     0
281
     0
  0
ENDSEC
  0
SECTION
  2
TABLES
  0
TABLE
  2
VPORT
  5
469
100
AcDbSymbolTable
 70
     1
  0
VPORT
  5
2C8E
102
{ACAD_XDICTIONARY
360
2D4D
102
}
100
AcDbSymbolTableRecord
100
AcDbViewportTableRecord
  2
*ACTIVE
 70
     0
 10
0.0
 20
0.0
 11
1.0
 21
1.0
 12
1.130299
 22
0.108333
 13
0.0
 23
0.0
 14
1.0
 24
1.0
 15
0.0
 25
0.0
 16
0.0
 26
-1.0
 36
0.0
 17
0.0
 27
0.0
 37
0.0
 40
4.414501
 41
1.682482
 42
50.0
 43
0.0
 44
0.0
 50
0.0
 51
0.0
 71
     0
 72
   100
 73
     1
 74
     1
 75
     0
 76
     0
 77
     0
 78
     0
  0
ENDTAB
  0
TABLE
  2
LTYPE
  5
466
100
AcDbSymbolTable
 70
     1
  0
LTYPE
  5
472
100
AcDbSymbolTableRecord
100
AcDbLinetypeTableRecord
  2
BYBLOCK
 70
     0
  3

 72
    65
 73
     0
 40
0.0
  0
LTYPE
  5
473
100
AcDbSymbolTableRecord
100
AcDbLinetypeTableRecord
  2
BYLAYER
 70
     0
  3

 72
    65
 73
     0
 40
0.0
  0
LTYPE
  5
474
100
AcDbSymbolTableRecord
100
AcDbLinetypeTableRecord
  2
CONTINUOUS
 70
     0
  3
Solid line
 72
    65
 73
     0
 40
0.0
  0
ENDTAB
  0
TABLE
  2
LAYER
  5
463
100
AcDbSymbolTable
 70
     8
  0
LAYER
  5
46F
100
AcDbSymbolTableRecord
100
AcDbLayerTableRecord
  2
0
 70
     0
 62
     7
  6
CONTINUOUS
  0
LAYER
  5
485
100
AcDbSymbolTableRecord
100
AcDbLayerTableRecord
  2
AREA1
 70
     0
 62
     7
  6
CONTINUOUS
  0
LAYER
  5
486
100
AcDbSymbolTableRecord
100
AcDbLayerTableRecord
  2
AREA2
 70
     0
 62
     7
  6
CONTINUOUS
  0
LAYER
  5
494
102
{ACAD_XDICTIONARY
360
2D7A
102
}
100
AcDbSymbolTableRecord
100
AcDbLayerTableRecord
  2
DEFPOINTS
 70
     0
 62
    -7
  6
CONTINUOUS
  0
LAYER
  5
495
100
AcDbSymbolTableRecord
100
AcDbLayerTableRecord
  2
DIMS-MTG-HOLES
 70
     0
 62
    -1
  6
CONTINUOUS
  0
LAYER
  5
4E6
100
AcDbSymbolTableRecord
100
AcDbLayerTableRecord
  2
SCALE
 70
     0
 62
    -7
  6
CONTINUOUS
  0
LAYER
  5
4ED
100
AcDbSymbolTableRecord
100
AcDbLayerTableRecord
  2
SNAP_POINTS
 70
     0
 62
    -1
  6
CONTINUOUS
  0
LAYER
  5
4F1
100
AcDbSymbolTableRecord
100
AcDbLayerTableRecord
  2
ATTRIBUTES
 70
     0
 62
    -7
  6
CONTINUOUS
  0
ENDTAB
  0
TABLE
  2
STYLE
  5
464
100
AcDbSymbolTable
 70
     1
  0
STYLE
  5
470
100
AcDbSymbolTableRecord
100
AcDbTextStyleTableRecord
  2
STANDARD
 70
     0
 40
0.0
 41
1.0
 50
0.0
 71
     0
 42
0.2
  3
txt
  4

  0
ENDTAB
  0
TABLE
  2
VIEW
  5
467
100
AcDbSymbolTable
 70
     0
  0
ENDTAB
  0
TABLE
  2
UCS
  5
468
100
AcDbSymbolTable
 70
     0
  0
ENDTAB
  0
TABLE
  2
APPID
  5
46A
100
AcDbSymbolTable
 70
     2
  0
APPID
  5
471
100
AcDbSymbolTableRecord
100
AcDbRegAppTableRecord
  2
ACAD
 70
     0
  0
APPID
  5
47E
100
AcDbSymbolTableRecord
100
AcDbRegAppTableRecord
  2
AVE_RENDER
 70
     0
  0
ENDTAB
  0
TABLE
  2
DIMSTYLE
  5
46B
100
AcDbSymbolTable
 70
     3
  0
DIMSTYLE
105
49A
102
{ACAD_XDICTIONARY
360
2D7C
102
}
102
{ACAD_REACTORS
330
2C62
102
}
100
AcDbSymbolTableRecord
100
AcDbDimStyleTableRecord
  2
ABECAD_3V
 70
     0
  3

  4

  5

  6

  7

 40
0.0
 41
0.18
 42
0.0625
 43
0.375
 44
0.18
 45
0.0
 46
0.0
 47
0.0
 48
0.0
140
0.18
141
0.09
142
0.0
143
25.4
144
1.0
145
0.0
146
1.5
147
0.09
 71
     0
 72
     0
 73
     0
 74
     1
 75
     0
 76
     0
 77
     0
 78
     4
170
     1
171
     2
172
     0
173
     0
174
     0
175
     0
176
     0
177
     0
178
     0
270
     7
271
     6
272
     6
273
     2
274
     2
340
470
275
     0
280
     0
281
     0
282
     0
283
     1
284
     4
285
     4
286
     4
287
     5
288
     1
  0
DIMSTYLE
105
553
102
{ACAD_XDICTIONARY
360
2D80
102
}
100
AcDbSymbolTableRecord
100
AcDbDimStyleTableRecord
  2
ABECAD
 70
     0
  3

  4

  5

  6

  7

 40
1.0
 41
0.18
 42
0.0625
 43
0.375
 44
0.18
 45
0.0
 46
0.0
 47
0.0
 48
0.0
140
0.18
141
0.09
142
0.0
143
25.4
144
1.0
145
0.0
146
1.5
147
0.09
 71
     0
 72
     0
 73
     0
 74
     1
 75
     0
 76
     0
 77
     0
 78
     4
170
     1
171
     1
172
     0
173
     0
174
     0
175
     0
176
     0
177
     0
178
     0
270
     7
271
     6
272
     6
273
     2
274
     1
340
470
275
     0
280
     0
281
     0
282
     0
283
     1
284
     4
285
     4
286
     4
287
     3
288
     0
  0
DIMSTYLE
105
554
102
{ACAD_XDICTIONARY
360
2D82
102
}
100
AcDbSymbolTableRecord
100
AcDbDimStyleTableRecord
  2
ABECAD_3D
 70
     0
  3

  4

  5

  6

  7

 40
1.0
 41
0.18
 42
0.0625
 43
0.375
 44
0.18
 45
0.0
 46
0.0
 47
0.0
 48
0.0
140
0.09
141
0.09
142
0.0
143
25.4
144
1.0
145
0.0
146
1.5
147
0.09
 71
     0
 72
     0
 73
     0
 74
     1
 75
     0
 76
     0
 77
     0
 78
     4
170
     1
171
     1
172
     0
173
     0
174
     0
175
     0
176
     0
177
     0
178
     0
270
     7
271
     6
272
     6
273
     2
274
     1
340
470
275
     0
280
     0
281
     0
282
     0
283
     1
284
     4
285
     4
286
     4
287
     3
288
     0
  0
ENDTAB
  0
TABLE
  2
BLOCK_RECORD
  5
462
100
AcDbSymbolTable
 70
     5
  0
BLOCK_RECORD
  5
478
102
{ACAD_XDICTIONARY
360
4D2
102
}
100
AcDbSymbolTableRecord
100
AcDbBlockTableRecord
  2
*MODEL_SPACE
  0
BLOCK_RECORD
  5
475
102
{ACAD_XDICTIONARY
360
4D0
102
}
100
AcDbSymbolTableRecord
100
AcDbBlockTableRecord
  2
*PAPER_SPACE
  0
BLOCK_RECORD
  5
545
102
{ACAD_XDICTIONARY
360
2D49
102
}
100
AcDbSymbolTableRecord
100
AcDbBlockTableRecord
  2
SCALEINCH
  0
BLOCK_RECORD
  5
2BC1
102
{ACAD_XDICTIONARY
360
2D4B
102
}
100
AcDbSymbolTableRecord
100
AcDbBlockTableRecord
  2
ABDSN870
  0
BLOCK_RECORD
  5
2C11
100
AcDbSymbolTableRecord
100
AcDbBlockTableRecord
  2
*D2
  0
BLOCK_RECORD
  5
2C1E
100
AcDbSymbolTableRecord
100
AcDbBlockTableRecord
  2
*D3
  0
BLOCK_RECORD
  5
2C63
100
AcDbSymbolTableRecord
100
AcDbBlockTableRecord
  2
*D4
  0
ENDTAB
  0
ENDSEC
  0
SECTION
  2
BLOCKS
  0
BLOCK
  5
48B
100
AcDbEntity
  8
0
100
AcDbBlockBegin
  2
*MODEL_SPACE
 70
     0
 10
0.0
 20
0.0
 30
0.0
  3
*MODEL_SPACE
  1

  0
ENDBLK
  5
48C
100
AcDbEntity
  8
0
100
AcDbBlockEnd
  0
BLOCK
  5
489
100
AcDbEntity
 67
     1
  8
0
100
AcDbBlockBegin
  2
*PAPER_SPACE
 70
     0
 10
0.0
 20
0.0
 30
0.0
  3
*PAPER_SPACE
  1

  0
ENDBLK
  5
48A
100
AcDbEntity
 67
     1
  8
0
100
AcDbBlockEnd
  0
BLOCK
  5
551
100
AcDbEntity
  8
0
100
AcDbBlockBegin
  2
SCALEINCH
 70
     0
 10
0.0
 20
0.0
 30
0.0
  3
SCALEINCH
  1

  0
LINE
  5
546
100
AcDbEntity
  8
SCALE
100
AcDbLine
 10
0.060623
 20
-2.404403
 30
0.0
 11
1.060623
 21
-2.404403
 31
0.0
  0
LINE
  5
547
100
AcDbEntity
  8
SCALE
100
AcDbLine
 10
1.060623
 20
-2.404403
 30
0.0
 11
1.060623
 21
-2.504403
 31
0.0
  0
LINE
  5
548
100
AcDbEntity
  8
SCALE
100
AcDbLine
 10
1.060623
 20
-2.504403
 30
0.0
 11
1.060623
 21
-2.304403
 31
0.0
  0
LINE
  5
549
100
AcDbEntity
  8
SCALE
100
AcDbLine
 10
0.060623
 20
-2.504403
 30
0.0
 11
0.060623
 21
-2.304403
 31
0.0
  0
LINE
  5
54A
100
AcDbEntity
  8
SCALE
100
AcDbLine
 10
0.063666
 20
-2.798543
 30
0.0
 11
0.063666
 21
-2.598543
 31
0.0
  0
LINE
  5
54B
100
AcDbEntity
  8
SCALE
100
AcDbLine
 10
0.457366
 20
-2.798543
 30
0.0
 11
0.457366
 21
-2.598543
 31
0.0
  0
LINE
  5
54C
100
AcDbEntity
  8
SCALE
100
AcDbLine
 10
0.063666
 20
-2.698543
 30
0.0
 11
0.457366
 21
-2.698543
 31
0.0
  0
TEXT
  5
54D
100
AcDbEntity
  8
SCALE
100
AcDbText
 10
0.089542
 20
-2.656527
 30
0.0
 40
0.0625
  1
[10 mm]
100
AcDbText
  0
TEXT
  5
54E
100
AcDbEntity
  8
SCALE
100
AcDbText
 10
0.359753
 20
-2.335354
 30
0.0
 40
0.0625
  1
1 Inch
100
AcDbText
  0
TEXT
  5
54F
100
AcDbEntity
  8
SCALE
100
AcDbText
 10
0.052989
 20
-2.167919
 30
0.0
 40
0.0625
  1
SCALE:
100
AcDbText
  0
LWPOLYLINE
  5
550
100
AcDbEntity
  8
SCALE
100
AcDbPolyline
 90
        4
 70
     1
 43
0.0
 10
-0.00654
 20
-2.062718
 10
1.129089
 20
-2.062718
 10
1.129089
 20
-2.904327
 10
-0.00654
 20
-2.904327
  0
ENDBLK
  5
552
100
AcDbEntity
  8
0
100
AcDbBlockEnd
  0
BLOCK
  5
2BEE
100
AcDbEntity
  8
0
100
AcDbBlockBegin
  2
ABDSN870
 70
     2
 10
0.0
 20
0.0
 30
0.0
  3
ABDSN870
  1

  0
POINT
  5
2C2B
100
AcDbEntity
  8
SNAP_POINTS
100
AcDbPoint
 10
0.0
 20
0.0
 30
0.0
  0
TEXT
  5
2C2C
100
AcDbEntity
  8
0
100
AcDbText
 10
0.790937
 20
-0.022102
 30
0.0
 40
0.108793
  1

100
AcDbText
  0
TEXT
  5
2C2D
100
AcDbEntity
  8
0
100
AcDbText
 10
-0.84256
 20
-0.022102
 30
0.0
 40
0.108793
  1

100
AcDbText
  0
TEXT
  5
2C2E
100
AcDbEntity
  8
0
100
AcDbText
 10
-0.76697
 20
0.405209
 30
0.0
 40
0.108793
  1

100
AcDbText
  0
TEXT
  5
2C2F
100
AcDbEntity
  8
0
100
AcDbText
 10
-0.05531
 20
0.766213
 30
0.0
 40
0.108793
  1

100
AcDbText
  0
TEXT
  5
2C30
100
AcDbEntity
  8
0
100
AcDbText
 10
0.357673
 20
0.707274
 30
0.0
 40
0.108793
  1

100
AcDbText
  0
TEXT
  5
2C31
100
AcDbEntity
  8
0
100
AcDbText
 10
0.652662
 20
0.405209
 30
0.0
 40
0.108793
  1

100
AcDbText
  0
TEXT
  5
2C32
100
AcDbEntity
  8
0
100
AcDbText
 10
0.158556
 20
0.707274
 30
0.0
 40
0.108793
  1

100
AcDbText
  0
TEXT
  5
2C33
100
AcDbEntity
  8
0
100
AcDbText
 10
-0.39086
 20
-0.766213
 30
0.0
 40
0.108793
  1

100
AcDbText
  0
TEXT
  5
2C34
100
AcDbEntity
  8
0
100
AcDbText
 10
0.39086
 20
-0.758846
 30
0.0
 40
0.108793
  1

100
AcDbText
  0
TEXT
  5
2C35
100
AcDbEntity
  8
0
100
AcDbText
 10
0.763282
 20
-0.047888
 30
0.0
 40
0.108793
  1

100
AcDbText
  0
INSERT
  5
2C36
100
AcDbEntity
  8
SCALE
100
AcDbBlockReference
  2
SCALEINCH
 10
3.690884
 20
0.354118
 30
0.0
  0
ATTDEF
  5
2C37
100
AcDbEntity
  8
ATTRIBUTES
100
AcDbText
 10
-2.350532
 20
0.34641
 30
0.0
 40
0.1625
  1
ALLEN-BRADLEY
100
AcDbAttributeDefinition
  3
MANUFACTURER NAME?
  2
AC_VND_LABEL
 70
     1
  0
ATTDEF
  5
2C38
100
AcDbEntity
  8
ATTRIBUTES
100
AcDbText
 10
-2.350532
 20
0.007868
 30
0.0
 40
0.1625
  1
194L-A/I13-175
100
AcDbAttributeDefinition
  3
CATALOG NUMBER?
  2
AC_PART_NO
 70
     1
  0
ATTDEF
  5
2C39
100
AcDbEntity
  8
ATTRIBUTES
100
AcDbText
 10
-2.350532
 20
-0.330674
 30
0.0
 40
0.1625
  1
Legend Plate, 130mm x 130mm, 0 - 1 (90 degrees)
100
AcDbAttributeDefinition
  3
PART DESCRIPTION?
  2
AC_DESCRIPTION
 70
     1
  0
ATTDEF
  5
2C3A
100
AcDbEntity
  8
ATTRIBUTES
100
AcDbText
 10
-2.350532
 20
-0.669215
 30
0.0
 40
0.1625
  1

100
AcDbAttributeDefinition
  3
DEVICE ID?
  2
DEVICE_ID
 70
     1
  0
ATTDEF
  5
2C3B
100
AcDbEntity
  8
ATTRIBUTES
100
AcDbText
 10
-2.350532
 20
-1.007757
 30
0.0
 40
0.1625
  1

100
AcDbAttributeDefinition
  3
CUSTOMER PART NUMBER?
  2
AC_CPART_NO
 70
     1
  0
ATTDEF
  5
2C3C
100
AcDbEntity
  8
ATTRIBUTES
100
AcDbText
 10
-2.350532
 20
-1.346299
 30
0.0
 40
0.1625
  1

100
AcDbAttributeDefinition
  3
CUSTOMER NOTE?
  2
AC_NOTE
 70
     1
  0
ATTDEF
  5
2C3D
100
AcDbEntity
  8
ATTRIBUTES
100
AcDbText
 10
-2.350532
 20
-1.68484
 30
0.0
 40
0.1625
  1

100
AcDbAttributeDefinition
  3
FASTENER DATA?
  2
FASTENER
 70
     1
  0
ATTDEF
  5
2C3E
100
AcDbEntity
  8
ATTRIBUTES
100
AcDbText
 10
-2.350532
 20
-2.023382
 30
0.0
 40
0.1625
  1
INCH
100
AcDbAttributeDefinition
  3
UNIT OF SCALE?
  2
AC_SCALE_UNIT
 70
     1
  0
ATTDEF
  5
2C3F
100
AcDbEntity
  8
ATTRIBUTES
100
AcDbText
 10
-2.350532
 20
-2.361924
 30
0.0
 40
0.1625
  1
0
100
AcDbAttributeDefinition
  3
VIEW CODE?
  2
AC_VIEW_CODE
 70
     1
  0
3DSOLID
  5
2C40
100
AcDbEntity
  8
0
100
AcDbModelerGeometry
 70
     1
  1
noi nli n o         
  1
=0;& {n {m {rn {rn |
  1
-:9@)+r3(;r>++-6= {rn {rn {rn {o {l {k |
  1
3*2/ {j {rn {i {o |
  1
-:961:2:1+ {rn o o o o oqooimhimffmkjijjjlih lo o k m o o o o o o o o o o o o o o o o o o o |
  1
):-+:'@+:2/3>+: {rn l o n g |
  1
-:9@)+r3(;r>++-6= {rn {rn {rn {m {l {k |
  1
,7:33 {h {rn {rn {g {m |
  1
-:9@)+r3(;r>++-6= {rn {rn {rn {i {l {k |
  1
9><: {f {no {nn {i {rn {nm -:):-,:; ,6183: |
  1
92:,7r3(;r>++-6= {rn {nl {rn {g |
  1
9><: {nk {nj {ni {i {rn {nh 90-(>-; ,6183: |
  1
300/ {rn {ng {nf {g |
  1
<01:r,*-9><: {rn o o o o o n nqngkgfjglllllllll o o n V V o n o V V V V |
  1
-:9@)+r3(;r>++-6= {rn {rn {f {g {l {k |
  1
92:,7r3(;r>++-6= {rn {mo {rn {no |
  1
9><: {mn {mm {ml {i {rn {mk -:):-,:; ,6183: |
  1
300/ {rn {mj {mi {no |
  1
/3>1:r,*-9><: {rn o o oqmniiiiiiiiiiiiiij o o n mqhogllllllllllll o o o V V V V |
  1
300/ {rn {rn {mh {g |
  1
<0:;8: {rn {nf {nf {mi {mg n {nn {rn |
  1
-:9@)+r3(;r>++-6= {rn {rn {nk {no {l {k |
  1
92:,7r3(;r>++-6= {rn {mf {rn {nj |
  1
9><: {lo {ln {lm {i {rn {ll -:):-,:; ,6183: |
  1
300/ {rn {lk {lj {nj |
  1
/3>1:r,*-9><: {rn o o o o o n mqhogllllllllllll o o o V V V V |
  1
300/ {rn {rn {li {no |
  1
<0:;8: {rn {mi {mi {nf {mg o {ni {rn |
  1
<0:;8: {rn {mh {mh {lj {lh n {ng {rn |
  1
:;8: {lg {lf {lf {mi {ko o |
  1
-:9@)+r3(;r>++-6= {rn {rn {mn {nj {l {k |
  1
92:,7r3(;r>++-6= {rn {kn {rn {mm |
  1
9><: {km {kl {kk {i {rn {kj -:):-,:; ,6183: |
  1
300/ {rn {rn {ki {mm |
  1
/3>1:r,*-9><: {rn o rmqjjflhkfffffffffh oqnoglllllllllllllm o n o o o mqhogllllllllllll o V V V V |
  1
300/ {rn {rn {kh {nj |
  1
<0:;8: {rn {lj {lj {mh {lh o {ml {rn |
  1
<0:;8: {rn {kg {kf {jo {jn o {mj {rn |
  1
:;8: {jm {jl {jl {lj {jk o |
  1
/+36,+r3(;r>++-6= {rn {rn {rn {mg |
  1
):-+:' {rn {mg {jj |
  1
:336/,:r<*-): {rn o o oqmniiiiiiiiiiiiiij o o rn nqngkgfjglllllllll o o n V V |
  1
-:9@)+r3(;r>++-6= {rn {rn {lo {mm {l {k |
  1
92:,7r3(;r>++-6= {rn {ji {rn {ln |
  1
9><: {jh {jg {jf {i {rn {io -:):-,:; ,6183: |
  1
300/ {rn {rn {in {ln |
  1
/3>1:r,*-9><: {rn rmqjjflhkfffffffffh o oqnoglllllllllllllm n o o o o rmqhogllllllllllll o V V V V |
  1
<0:;8: {rn {im {il {ik {ij o {lm {rn |
  1
<0:;8: {rn {ii {ih {ig {if o {lk {rn |
  1
<0:;8: {rn {ho {li {hn {hm o {mj {rn |
  1
<0:;8: {rn {li {ho {il {hl o {mj {rn |
  1
<0:;8: {rn {hk {hj {li {jn n {hi {rn |
  1
:;8: {hh {hg {hf {jo {go o |
  1
/+36,+r3(;r>++-6= {rn {rn {rn {lh |
  1
):-+:' {rn {lh {gn |
  1
:336/,:r<*-): {rn o o o o o n nqngkgfjglllllllll o o n V V |
  1
/061+ {rn rnqngkgfjglllllllll rgqmhkoggnhlkimllhm:ronj oqmniiiiiiiiiiiiiij |
  1
-:9@)+r3(;r>++-6= {rn {rn {km {ln {l {k |
  1
92:,7r3(;r>++-6= {rn {gm {rn {kl |
  1
9><: {gl {rn {hi {i {rn {gk -:):-,:; ,6183: |
  1
300/ {rn {rn {gj {kl |
  1
/3>1:r,*-9><: {rn o mqjjflhkfffffffffh oqnoglllllllllllllm o rn o o o rmqhogllllllllllll o V V V V |
  1
<0:;8: {rn {gi {gh {gg {gf o {kk {rn |
  1
<0:;8: {rn {fo {ki {ii {fn n {lm {rn |
  1
<0:;8: {rn {ki {fo {kf {hl n {lm {rn |
  1
<0:;8: {rn {gh {gi {ki {ij n {kk {rn |
  1
:;8: {fm {fl {fk {ik {fj o |
  1
<0:;8: {rn {fi {kh {im {fn o {lk {rn |
  1
<0:;8: {rn {kh {fi {fh {fg o {lk {rn |
  1
<0:;8: {rn {hj {hk {kh {if n {hi {rn |
  1
:;8: {ff {noo {non {ig {nom o |
  1
<0:;8: {rn {kf {kg {gh {nol o {mj {rn |
  1
<0:;8: {rn {gj {gg {kg {hm n {jf {rn |
  1
:;8: {nok {hf {noj {hn {noi o |
  1
:;8: {noh {fl {hg {il {nog o |
  1
<0:;8: {rn {ig {jo {fo {nof o {hi {rn |
  1
<0:;8: {rn {jo {ig {gj {nno n {hi {rn |
  1
300/ {rn {rn {hk {jg |
  1
/+36,+r3(;r>++-6= {rn {rn {rn {jn |
  1
):-+:' {rn {jn {nnn |
  1
):-+:' {rn {jn {nnm |
  1
,+->687+r<*-): {rn mqjjflhkfffffffffh o oqmniiiiiiiiiiiiiij o mqhogllllllllllll o V V |
  1
/061+ {rn nqngkgfjglllllllll o o |
  1
-:9@)+r3(;r>++-6= {rn {rn {jh {kl {l {k |
  1
92:,7r3(;r>++-6= {rn {nnl {rn {jg |
  1
/3>1:r,*-9><: {rn mqjjflhkfffffffffh o oqnoglllllllllllllm rn o o o o mqhogllllllllllll o V V V V |
  1
<0:;8: {rn {fh {hn {hj {nno o {jf {rn |
  1
<0:;8: {rn {ik {in {fi {nnk n {kk {rn |
  1
<0:;8: {rn {in {ik {ho {nol n {kk {rn |
  1
<0:;8: {rn {hn {fh {in {gf n {jf {rn |
  1
:;8: {nnj {noj {nni {gg {nnh o |
  1
<0:;8: {rn {il {im {hk {nof n {lm {rn |
  1
:;8: {nng {non {fk {im {nnf o |
  1
/+36,+r3(;r>++-6= {rn {rn {rn {ij |
  1
):-+:' {rn {nol {nmo |
  1
):-+:' {rn {nnk {nmn |
  1
,+->687+r<*-): {rn rmqjjflhkfffffffffh rmqjjflhkfffffffffh oqnoglllllllllllllm o o rmqhogllllllllllll V V |
  1
<0:;8: {rn {ih {ii {gi {nnk o {lk {rn |
  1
<0:;8: {rn {gg {gj {ih {fg n {jf {rn |
  1
:;8: {nmm {nni {noo {fh {nml o |
  1
/+36,+r3(;r>++-6= {rn {rn {rn {if |
  1
):-+:' {rn {if {nmk |
  1
):-+:' {rn {nof {nmj |
  1
,+->687+r<*-): {rn mqjjflhkfffffffffh o o o rmqhogllllllllllll o V V |
  1
:;8: {nmi {noj {fl {gh {nmh o |
  1
/+36,+r3(;r>++-6= {rn {rn {rn {hm |
  1
):-+:' {rn {hm {nmg |
  1
,+->687+r<*-): {rn o mqjjflhkfffffffffh oqmniiiiiiiiiiiiiij rmqhogllllllllllll o o V V |
  1
/+36,+r3(;r>++-6= {rn {rn {rn {hl |
  1
,+->687+r<*-): {rn o rmqjjflhkfffffffffh oqmniiiiiiiiiiiiiij mqhogllllllllllll o o V V |
  1
:;8: {nmf {hg {non {hk {nlo o |
  1
:;8: {nln {hf {noo {hj {nlm o |
  1
/061+ {rn mqjjflhkfffffffffh rmqjjflhkfffffffffh oqmniiiiiiiiiiiiiij |
  1
/061+ {rn mqjjflhkfffffffffh mqjjflhkfffffffffh oqmniiiiiiiiiiiiiij |
  1
-:9@)+r3(;r>++-6= {rn {rn {gl {jg {l {k |
  1
:;8: {nll {fk {nni {gi {nlk o |
  1
/+36,+r3(;r>++-6= {rn {rn {rn {gf |
  1
):-+:' {rn {fg {nlj |
  1
,+->687+r<*-): {rn rmqjjflhkfffffffffh mqjjflhkfffffffffh oqnoglllllllllllllm o o rmqhogllllllllllll V V |
  1
/+36,+r3(;r>++-6= {rn {rn {rn {fn |
  1
,+->687+r<*-): {rn o rmqjjflhkfffffffffh o rmqhogllllllllllll o o V V |
  1
/061+ {rn rmqjjflhkfffffffffh rmqjjflhkfffffffffh oqmniiiiiiiiiiiiiij |
  1
/061+ {rn rmqjjflhkfffffffffh rmqjjflhkfffffffffh o |
  1
/+36,+r3(;r>++-6= {rn {rn {rn {fg |
  1
,+->687+r<*-): {rn o mqjjflhkfffffffffh o mqhogllllllllllll o o V V |
  1
/061+ {rn mqjjflhkfffffffffh mqjjflhkfffffffffh o |
  1
/061+ {rn mqjjflhkfffffffffh rmqjjflhkfffffffffh o |
  1
/+36,+r3(;r>++-6= {rn {rn {rn {nol |
  1
,+->687+r<*-): {rn rmqjjflhkfffffffffh o oqmniiiiiiiiiiiiiij o rmqhogllllllllllll o V V |
  1
/061+ {rn rmqjjflhkfffffffffh mqjjflhkfffffffffh oqmniiiiiiiiiiiiiij |
  1
/+36,+r3(;r>++-6= {rn {rn {rn {nof |
  1
,+->687+r<*-): {rn mqjjflhkfffffffffh rmqjjflhkfffffffffh oqnoglllllllllllllm o o rmqhogllllllllllll V V |
  1
/+36,+r3(;r>++-6= {rn {rn {rn {nno |
  1
,+->687+r<*-): {rn mqjjflhkfffffffffh mqjjflhkfffffffffh oqnoglllllllllllllm o o rmqhogllllllllllll V V |
  1
/+36,+r3(;r>++-6= {rn {rn {rn {nnk |
  1
,+->687+r<*-): {rn rmqjjflhkfffffffffh o o o mqhogllllllllllll o V V |
  1
/061+ {rn rmqjjflhkfffffffffh mqjjflhkfffffffffh o |
  0
TEXT
  5
2C41
100
AcDbEntity
  8
0
100
AcDbText
 10
0.790937
 20
-0.022102
 30
0.0
 40
0.108793
  1

100
AcDbText
  0
TEXT
  5
2C42
100
AcDbEntity
  8
0
100
AcDbText
 10
-0.84256
 20
-0.022102
 30
0.0
 40
0.108793
  1

100
AcDbText
  0
TEXT
  5
2C43
100
AcDbEntity
  8
0
100
AcDbText
 10
-0.76697
 20
0.405209
 30
0.0
 40
0.108793
  1

100
AcDbText
  0
TEXT
  5
2C44
100
AcDbEntity
  8
0
100
AcDbText
 10
-0.05531
 20
0.766213
 30
0.0
 40
0.108793
  1

100
AcDbText
  0
TEXT
  5
2C45
100
AcDbEntity
  8
0
100
AcDbText
 10
0.357673
 20
0.707274
 30
0.0
 40
0.108793
  1

100
AcDbText
  0
TEXT
  5
2C46
100
AcDbEntity
  8
0
100
AcDbText
 10
0.652662
 20
0.405209
 30
0.0
 40
0.108793
  1

100
AcDbText
  0
TEXT
  5
2C47
100
AcDbEntity
  8
0
100
AcDbText
 10
0.158556
 20
0.707274
 30
0.0
 40
0.108793
  1

100
AcDbText
  0
TEXT
  5
2C48
100
AcDbEntity
  8
0
100
AcDbText
 10
-0.704285
 20
-0.383107
 30
0.0
 40
0.108793
  1

100
AcDbText
  0
TEXT
  5
2C49
100
AcDbEntity
  8
0
100
AcDbText
 10
-0.029499
 20
-0.828837
 30
0.0
 40
0.108793
  1

100
AcDbText
  0
TEXT
  5
2C4A
100
AcDbEntity
  8
0
100
AcDbText
 10
-0.139812
 20
1.985371
 30
0.0
 40
0.294646
  1
1
100
AcDbText
  0
TEXT
  5
2C4B
100
AcDbEntity
  8
0
100
AcDbText
 10
0.619476
 20
0.383107
 30
0.0
 40
0.108793
  1

100
AcDbText
  0
TEXT
  5
2C4C
100
AcDbEntity
  8
0
100
AcDbText
 10
0.656349
 20
-0.379423
 30
0.0
 40
0.108793
  1

100
AcDbText
  0
TEXT
  5
2C4D
100
AcDbEntity
  8
0
100
AcDbText
 10
-0.040561
 20
-0.839888
 30
0.0
 40
0.108793
  1

100
AcDbText
  0
TEXT
  5
2C4E
100
AcDbEntity
  8
0
100
AcDbText
 10
0.569362
 20
-0.051572
 30
0.0
 40
0.108793
  1

100
AcDbText
  0
TEXT
  5
2C4F
100
AcDbEntity
  8
0
100
AcDbText
 10
-2.160341
 20
-0.139674
 30
0.0
 40
0.294646
  1
0
100
AcDbText
  0
TEXT
  5
2C50
100
AcDbEntity
  8
0
100
AcDbText
 10
0.378303
 20
0.581857
 30
0.0
 40
0.108793
  1

100
AcDbText
  0
TEXT
  5
2C51
100
AcDbEntity
  8
0
100
AcDbText
 10
-0.730708
 20
0.578344
 30
0.0
 40
0.108793
  1

100
AcDbText
  0
TEXT
  5
2C52
100
AcDbEntity
  8
0
100
AcDbText
 10
-0.737058
 20
-0.607813
 30
0.0
 40
0.108793
  1

100
AcDbText
  0
TEXT
  5
2C53
100
AcDbEntity
  8
0
100
AcDbText
 10
0.393052
 20
-0.607813
 30
0.0
 40
0.108793
  1

100
AcDbText
  0
TEXT
  5
2C54
100
AcDbEntity
  8
0
100
AcDbText
 10
-0.019974
 20
-0.844297
 30
0.0
 40
0.108793
  1

100
AcDbText
  0
DIMENSION
  5
2C55
100
AcDbEntity
  8
AREA1
100
AcDbDimension
  2
*D2
 10
2.559375
 20
3.037328
 30
0.0
 11
0.0
 21
3.037328
 31
0.0
 70
    32
  3
ABECAD_3D
100
AcDbAlignedDimension
 13
-2.559375
 23
2.559375
 33
0.0
 14
2.559375
 24
2.559375
 34
0.0
100
AcDbRotatedDimension
  0
DIMENSION
  5
2C56
100
AcDbEntity
  8
AREA1
100
AcDbDimension
  2
*D3
 10
3.067827
 20
-2.559375
 30
0.0
 11
3.067827
 21
0.0
 31
0.0
 70
    32
  3
ABECAD_3D
100
AcDbAlignedDimension
 13
2.559375
 23
2.559375
 33
0.0
 14
2.559375
 24
-2.559375
 34
0.0
 50
90.0
100
AcDbRotatedDimension
  0
ENDBLK
  5
2BEF
100
AcDbEntity
  8
0
100
AcDbBlockEnd
  0
BLOCK
  5
2C1C
100
AcDbEntity
  8
0
100
AcDbBlockBegin
  2
*D2
 70
     1
 10
0.0
 20
0.0
 30
0.0
  3
*D2
  1

  0
LINE
  5
2C12
100
AcDbEntity
  8
AREA1
 62
     0
100
AcDbLine
 10
-2.559375
 20
2.621875
 30
0.0
 11
-2.559375
 21
3.217328
 31
0.0
1001
ACAD
1000
RTLwPs
1070
   158
  0
LINE
  5
2C13
100
AcDbEntity
  8
AREA1
 62
     0
100
AcDbLine
 10
2.559375
 20
2.621875
 30
0.0
 11
2.559375
 21
3.217328
 31
0.0
1001
ACAD
1000
RTLwPs
1070
   158
  0
LINE
  5
2C14
100
AcDbEntity
  8
AREA1
 62
     0
100
AcDbLine
 10
-2.379375
 20
3.037328
 30
0.0
 11
-1.02
 21
3.037328
 31
0.0
1001
ACAD
1000
RTLwPs
1070
   158
  0
LINE
  5
2C15
100
AcDbEntity
  8
AREA1
 62
     0
100
AcDbLine
 10
2.379375
 20
3.037328
 30
0.0
 11
1.02
 21
3.037328
 31
0.0
1001
ACAD
1000
RTLwPs
1070
   158
  0
SOLID
  5
2C16
100
AcDbEntity
  8
AREA1
 62
     0
100
AcDbTrace
 10
-2.379375
 20
3.067328
 30
0.0
 11
-2.379375
 21
3.007328
 31
0.0
 12
-2.559375
 22
3.037328
 32
0.0
 13
-2.559375
 23
3.037328
 33
0.0
  0
SOLID
  5
2C17
100
AcDbEntity
  8
AREA1
 62
     0
100
AcDbTrace
 10
2.379375
 20
3.067328
 30
0.0
 11
2.379375
 21
3.007328
 31
0.0
 12
2.559375
 22
3.037328
 32
0.0
 13
2.559375
 23
3.037328
 33
0.0
  0
MTEXT
  5
2C18
100
AcDbEntity
  8
AREA1
 62
     0
100
AcDbMText
 10
0.0
 20
3.037328
 30
0.0
 40
0.18
 41
0.0
 71
     5
 72
     1
  1
\A1;5 1/8 [130.0]
1001
ACAD
1000
MTEXTBEGIN
1070
    73
1070
     1
1070
    44
1040
1.0
1070
    74
1070
     0
1000
MTEXTEND
1000
MTEXTBEGIN
1070
    73
1070
     1
1070
    44
1040
1.0
1070
    74
1070
     0
1000
MTEXTEND
1000
MTEXTBEGIN
1070
    73
1070
     1
1070
    44
1040
1.0
1070
    74
1070
     0
1000
MTEXTEND
1000
MTEXTBEGIN
1070
    73
1070
     1
1070
    44
1040
1.0
1070
    74
1070
     0
1000
MTEXTEND
1000
MTEXTBEGIN
1070
    73
1070
     1
1070
    44
1040
1.0
1070
    74
1070
     0
1000
MTEXTEND
  0
POINT
  5
2C19
100
AcDbEntity
  8
DEFPOINTS
 62
     0
100
AcDbPoint
 10
-2.559375
 20
2.559375
 30
0.0
  0
POINT
  5
2C1A
100
AcDbEntity
  8
DEFPOINTS
 62
     0
100
AcDbPoint
 10
2.559375
 20
2.559375
 30
0.0
  0
POINT
  5
2C1B
100
AcDbEntity
  8
DEFPOINTS
 62
     0
100
AcDbPoint
 10
2.559375
 20
3.037328
 30
0.0
  0
ENDBLK
  5
2C1D
100
AcDbEntity
  8
0
100
AcDbBlockEnd
  0
BLOCK
  5
2C29
100
AcDbEntity
  8
0
100
AcDbBlockBegin
  2
*D3
 70
     1
 10
0.0
 20
0.0
 30
0.0
  3
*D3
  1

  0
LINE
  5
2C1F
100
AcDbEntity
  8
AREA1
 62
     0
100
AcDbLine
 10
2.621875
 20
2.559375
 30
0.0
 11
3.247827
 21
2.559375
 31
0.0
1001
ACAD
1000
RTLwPs
1070
   158
  0
LINE
  5
2C20
100
AcDbEntity
  8
AREA1
 62
     0
100
AcDbLine
 10
2.621875
 20
-2.559375
 30
0.0
 11
3.247827
 21
-2.559375
 31
0.0
1001
ACAD
1000
RTLwPs
1070
   158
  0
LINE
  5
2C21
100
AcDbEntity
  8
AREA1
 62
     0
100
AcDbLine
 10
3.067827
 20
2.379375
 30
0.0
 11
3.067827
 21
1.02
 31
0.0
1001
ACAD
1000
RTLwPs
1070
   158
  0
LINE
  5
2C22
100
AcDbEntity
  8
AREA1
 62
     0
100
AcDbLine
 10
3.067827
 20
-2.379375
 30
0.0
 11
3.067827
 21
-1.02
 31
0.0
1001
ACAD
1000
RTLwPs
1070
   158
  0
SOLID
  5
2C23
100
AcDbEntity
  8
AREA1
 62
     0
100
AcDbTrace
 10
3.037827
 20
2.379375
 30
0.0
 11
3.097827
 21
2.379375
 31
0.0
 12
3.067827
 22
2.559375
 32
0.0
 13
3.067827
 23
2.559375
 33
0.0
  0
SOLID
  5
2C24
100
AcDbEntity
  8
AREA1
 62
     0
100
AcDbTrace
 10
3.037827
 20
-2.379375
 30
0.0
 11
3.097827
 21
-2.379375
 31
0.0
 12
3.067827
 22
-2.559375
 32
0.0
 13
3.067827
 23
-2.559375
 33
0.0
  0
MTEXT
  5
2C25
100
AcDbEntity
  8
AREA1
 62
     0
100
AcDbMText
 10
3.067827
 20
0.0
 30
0.0
 40
0.18
 41
0.0
 71
     5
 72
     1
  1
\A1;5 1/8 [130.0]
 11
0.0
 21
1.0
 31
0.0
1001
ACAD
1000
MTEXTBEGIN
1070
    73
1070
     1
1070
    44
1040
1.0
1070
    74
1070
     0
1000
MTEXTEND
1000
MTEXTBEGIN
1070
    73
1070
     1
1070
    44
1040
1.0
1070
    74
1070
     0
1000
MTEXTEND
1000
MTEXTBEGIN
1070
    73
1070
     1
1070
    44
1040
1.0
1070
    74
1070
     0
1000
MTEXTEND
1000
MTEXTBEGIN
1070
    73
1070
     1
1070
    44
1040
1.0
1070
    74
1070
     0
1000
MTEXTEND
1000
MTEXTBEGIN
1070
    73
1070
     1
1070
    44
1040
1.0
1070
    74
1070
     0
1000
MTEXTEND
  0
POINT
  5
2C26
100
AcDbEntity
  8
DEFPOINTS
 62
     0
100
AcDbPoint
 10
2.559375
 20
2.559375
 30
0.0
  0
POINT
  5
2C27
100
AcDbEntity
  8
DEFPOINTS
 62
     0
100
AcDbPoint
 10
2.559375
 20
-2.559375
 30
0.0
  0
POINT
  5
2C28
100
AcDbEntity
  8
DEFPOINTS
 62
     0
100
AcDbPoint
 10
3.067827
 20
-2.559375
 30
0.0
  0
ENDBLK
  5
2C2A
100
AcDbEntity
  8
0
100
AcDbBlockEnd
  0
BLOCK
  5
2C6E
100
AcDbEntity
  8
0
100
AcDbBlockBegin
  2
*D4
 70
     1
 10
0.0
 20
0.0
 30
0.0
  3
*D4
  1

  0
LINE
  5
2C84
100
AcDbEntity
  8
AREA2
 62
     0
100
AcDbLine
 10
2.621875
 20
0.216667
 30
0.0
 11
2.801875
 21
0.216667
 31
0.0
1001
ACAD
1000
RTLwPs
1070
   158
  0
LINE
  5
2C85
100
AcDbEntity
  8
AREA2
 62
     0
100
AcDbLine
 10
2.621875
 20
0.0
 30
0.0
 11
2.801875
 21
0.0
 31
0.0
1001
ACAD
1000
RTLwPs
1070
   158
  0
LINE
  5
2C86
100
AcDbEntity
  8
AREA2
 62
     0
100
AcDbLine
 10
2.621875
 20
0.396667
 30
0.0
 11
2.621875
 21
0.576667
 31
0.0
1001
ACAD
1000
RTLwPs
1070
   158
  0
LINE
  5
2C87
100
AcDbEntity
  8
AREA2
 62
     0
100
AcDbLine
 10
2.621875
 20
-0.18
 30
0.0
 11
2.621875
 21
-0.36
 31
0.0
1001
ACAD
1000
RTLwPs
1070
   158
  0
MTEXT
  5
2C88
100
AcDbEntity
  8
AREA2
 62
     0
100
AcDbMText
 10
3.037827
 20
0.116374
 30
0.0
 40
0.18
 41
0.0
 71
     5
 72
     1
  1
\A1;7/32 [5.50]
 11
0.0
 21
1.0
 31
0.0
1001
ACAD
1000
MTEXTBEGIN
1070
    73
1070
     1
1070
    44
1040
1.0
1070
    74
1070
     0
1000
MTEXTEND
1000
MTEXTBEGIN
1070
    73
1070
     1
1070
    44
1040
1.0
1070
    74
1070
     0
1000
MTEXTEND
1000
MTEXTBEGIN
1070
    73
1070
     1
1070
    44
1040
1.0
1070
    74
1070
     0
1000
MTEXTEND
1000
MTEXTBEGIN
1070
    73
1070
     1
1070
    44
1040
1.0
1070
    74
1070
     0
1000
MTEXTEND
  0
SOLID
  5
2C89
100
AcDbEntity
  8
AREA2
 62
     0
100
AcDbTrace
 10
2.591875
 20
0.396667
 30
0.0
 11
2.651875
 21
0.396667
 31
0.0
 12
2.621875
 22
0.216667
 32
0.0
 13
2.621875
 23
0.216667
 33
0.0
  0
SOLID
  5
2C8A
100
AcDbEntity
  8
AREA2
 62
     0
100
AcDbTrace
 10
2.591875
 20
-0.18
 30
0.0
 11
2.651875
 21
-0.18
 31
0.0
 12
2.621875
 22
0.0
 32
0.0
 13
2.621875
 23
0.0
 33
0.0
  0
POINT
  5
2C8B
100
AcDbEntity
  8
DEFPOINTS
 62
     0
100
AcDbPoint
 10
2.559375
 20
0.216667
 30
2.559375
  0
POINT
  5
2C8C
100
AcDbEntity
  8
DEFPOINTS
 62
     0
100
AcDbPoint
 10
2.559375
 20
0.0
 30
2.559375
  0
POINT
  5
2C8D
100
AcDbEntity
  8
DEFPOINTS
 62
     0
100
AcDbPoint
 10
2.621875
 20
0.0
 30
0.0
  0
ENDBLK
  5
2C6F
100
AcDbEntity
  8
0
100
AcDbBlockEnd
  0
ENDSEC
  0
SECTION
  2
ENTITIES
  0
INSERT
  5
2C57
100
AcDbEntity
  8
0
100
AcDbBlockReference
 66
     1
  2
ABDSN870
 10
0.0
 20
0.0
 30
0.0
  0
ATTRIB
  5
2C59
100
AcDbEntity
  8
ATTRIBUTES
100
AcDbText
 10
-2.350532
 20
0.34641
 30
0.0
 40
0.1625
  1
ALLEN-BRADLEY
100
AcDbAttribute
  2
AC_VND_LABEL
 70
     1
  0
ATTRIB
  5
2C5A
100
AcDbEntity
  8
ATTRIBUTES
100
AcDbText
 10
-2.350532
 20
0.007868
 30
0.0
 40
0.1625
  1
194L-A/I13-175
100
AcDbAttribute
  2
AC_PART_NO
 70
     1
  0
ATTRIB
  5
2C5B
100
AcDbEntity
  8
ATTRIBUTES
100
AcDbText
 10
-2.350532
 20
-0.330674
 30
0.0
 40
0.1625
  1
Legend Plate, 130mm x 130mm, 0 - 1 (90 degrees)
100
AcDbAttribute
  2
AC_DESCRIPTION
 70
     1
  0
ATTRIB
  5
2C5C
100
AcDbEntity
  8
ATTRIBUTES
100
AcDbText
 10
-2.350532
 20
-0.669215
 30
0.0
 40
0.1625
  1

100
AcDbAttribute
  2
DEVICE_ID
 70
     1
  0
ATTRIB
  5
2C5D
100
AcDbEntity
  8
ATTRIBUTES
100
AcDbText
 10
-2.350532
 20
-1.007757
 30
0.0
 40
0.1625
  1

100
AcDbAttribute
  2
AC_CPART_NO
 70
     1
  0
ATTRIB
  5
2C5E
100
AcDbEntity
  8
ATTRIBUTES
100
AcDbText
 10
-2.350532
 20
-1.346299
 30
0.0
 40
0.1625
  1

100
AcDbAttribute
  2
AC_NOTE
 70
     1
  0
ATTRIB
  5
2C5F
100
AcDbEntity
  8
ATTRIBUTES
100
AcDbText
 10
-2.350532
 20
-1.68484
 30
0.0
 40
0.1625
  1

100
AcDbAttribute
  2
FASTENER
 70
     1
  0
ATTRIB
  5
2C60
100
AcDbEntity
  8
ATTRIBUTES
100
AcDbText
 10
-2.350532
 20
-2.023382
 30
0.0
 40
0.1625
  1
INCH
100
AcDbAttribute
  2
AC_SCALE_UNIT
 70
     1
  0
ATTRIB
  5
2C61
100
AcDbEntity
  8
ATTRIBUTES
100
AcDbText
 10
-2.350532
 20
-2.361924
 30
0.0
 40
0.1625
  1
0
100
AcDbAttribute
  2
AC_VIEW_CODE
 70
     1
  0
SEQEND
  5
2C58
100
AcDbEntity
  8
0
  0
DIMENSION
  5
2C62
100
AcDbEntity
  8
AREA2
100
AcDbDimension
  2
*D4
 10
2.621875
 20
0.0
 30
0.0
 11
3.037827
 21
0.116374
 31
0.0
 70
   160
210
0.0
220
-1.0
230
0.0
  3
ABECAD_3V
100
AcDbAlignedDimension
 13
2.559375
 23
-2.559375
 33
0.216667
 14
2.559375
 24
-2.559375
 34
0.0
 50
90.0
100
AcDbRotatedDimension
1001
ACAD
1000
DSTYLE
1002
{
1070
    40
1040
1.0
1002
}
  0
VIEWPORT
  5
2C
102
{ACAD_XDICTIONARY
360
2D70
102
}
100
AcDbEntity
 67
     1
  8
0
100
AcDbViewport
 10
4.999849
 20
3.750155
 30
0.0
 40
13.933522
 41
7.595705
 68
     1
 69
     1
1001
ACAD
1000
MVIEW
1002
{
1070
    16
1010
0.0
1020
0.0
1030
0.0
1010
0.0
1020
0.0
1030
1.0
1040
0.0
1040
7.595705
1040
4.999849
1040
3.750155
1040
50.0
1040
0.0
1040
0.0
1070
     0
1070
   100
1070
     1
1070
     1
1070
     0
1070
     0
1070
     0
1070
     0
1040
0.0
1040
0.0
1040
0.0
1040
1.0
1040
1.0
1040
0.0
1040
0.0
1070
     0
1002
{
1002
}
1002
}
  0
VIEWPORT
  5
2D
102
{ACAD_XDICTIONARY
360
2D72
102
}
100
AcDbEntity
 67
     1
  8
0
100
AcDbViewport
 10
2.5
 20
5.625
 30
0.0
 40
5.0
 41
3.75
 68
     3
 69
     2
1001
ACAD
1000
MVIEW
1002
{
1070
    16
1010
0.0
1020
0.0
1030
0.0
1010
0.0
1020
0.0
1030
1.0
1040
0.0
1040
6.790835
1040
0.703908
1040
0.303918
1040
50.0
1040
0.0
1040
0.0
1070
     0
1070
   100
1070
     1
1070
     0
1070
     0
1070
     0
1070
     0
1070
     0
1040
0.0
1040
0.0
1040
0.0
1040
1.0
1040
1.0
1040
0.0
1040
0.0
1070
     0
1002
{
1003
AREA2
1002
}
1002
}
  0
VIEWPORT
  5
2E
102
{ACAD_XDICTIONARY
360
2D74
102
}
100
AcDbEntity
 67
     1
  8
0
100
AcDbViewport
 10
2.5
 20
1.875
 30
0.0
 40
5.0
 41
3.75
 68
     4
 69
     3
1001
ACAD
1000
MVIEW
1002
{
1070
    16
1010
0.0
1020
0.0
1030
0.0
1010
0.0
1020
-1.0
1030
0.0
1040
0.0
1040
5.959437
1040
0.472258
1040
0.358029
1040
50.0
1040
0.0
1040
0.0
1070
     0
1070
   100
1070
     1
1070
     0
1070
     0
1070
     0
1070
     0
1070
     0
1040
0.0
1040
0.0
1040
0.0
1040
1.0
1040
1.0
1040
0.0
1040
0.0
1070
     0
1002
{
1003
AREA1
1002
}
1002
}
  0
VIEWPORT
  5
2F
102
{ACAD_XDICTIONARY
360
2D76
102
}
100
AcDbEntity
 67
     1
  8
0
100
AcDbViewport
 10
7.5
 20
3.75
 30
0.0
 40
5.0
 41
7.5
 68
     2
 69
     4
1001
ACAD
1000
MVIEW
1002
{
1070
    16
1010
0.0
1020
0.0
1030
0.0
1010
-1.0
1020
-1.0
1030
1.0
1040
0.0
1040
12.700348
1040
0.013235
1040
1.579542
1040
50.0
1040
0.0
1040
0.0
1070
     0
1070
   100
1070
     1
1070
     0
1070
     0
1070
     0
1070
     0
1070
     0
1040
0.0
1040
0.0
1040
0.0
1040
1.0
1040
1.0
1040
0.0
1040
0.0
1070
     0
1002
{
1003
AREA1
1003
AREA2
1002
}
1002
}
  0
TEXT
  5
42D
100
AcDbEntity
 67
     1
  8
0
100
AcDbText
 10
5.255085
 20
7.088521
 30
0.0
 40
0.17
  1
194L-A/I13-175
100
AcDbText
  0
TEXT
  5
431
100
AcDbEntity
 67
     1
  8
0
100
AcDbText
 10
5.255085
 20
6.805188
 30
0.0
 40
0.17
  1
LEGEND PLATE, 130mm x 130mm, 
100
AcDbText
1001
ACAD
1000
R13OBJECT
1002
{
1005
42D
1002
}
  0
TEXT
  5
59F
100
AcDbEntity
 67
     1
  8
0
100
AcDbText
 10
5.255085
 20
6.5117
 30
0.0
 40
0.17
  1
0 - 1  (90 DEGREES)
100
AcDbText
1001
ACAD
1000
R13OBJECT
1002
{
1005
42D
1002
}
  0
TEXT
  5
1F8C
100
AcDbEntity
 67
     1
  8
0
100
AcDbText
 10
5.255085
 20
6.235419
 30
0.0
 40
0.17
  1

100
AcDbText
1001
ACAD
1000
R13OBJECT
1002
{
1005
42D
1002
}
  0
TEXT
  5
21C7
100
AcDbEntity
 67
     1
  8
0
100
AcDbText
 10
5.255085
 20
6.235419
 30
0.0
 40
0.17
  1

100
AcDbText
1001
ACAD
1000
R13OBJECT
1002
{
1005
42D
1002
}
  0
TEXT
  5
2646
100
AcDbEntity
 67
     1
  8
0
100
AcDbText
 10
5.255085
 20
6.235419
 30
0.0
 40
0.17
  1

100
AcDbText
1001
ACAD
1000
R13OBJECT
1002
{
1005
42D
1002
}
  0
TEXT
  5
27F7
100
AcDbEntity
 67
     1
  8
0
100
AcDbText
 10
5.255085
 20
6.235419
 30
0.0
 40
0.17
  1

100
AcDbText
1001
ACAD
1000
R13OBJECT
1002
{
1005
42D
1002
}
  0
ENDSEC
  0
SECTION
  2
OBJECTS
  0
DICTIONARY
  5
46D
100
AcDbDictionary
  3
ACAD_GROUP
350
46E
  3
ACAD_LAYOUT
350
49E
  3
ACAD_MLINESTYLE
350
47B
  3
ACAD_PLOTSETTINGS
350
49F
  3
ACAD_PLOTSTYLENAME
350
49C
  3
ACDBHEADERROUNDTRIPXREC
350
2D4F
  3
ACDBVARIABLEDICTIONARY
350
48D
  0
DICTIONARY
  5
2D4D
100
AcDbDictionary
280
     1
  3
ACAD_XREC_ROUNDTRIP
360
2D4E
  0
DICTIONARY
  5
2D7A
100
AcDbDictionary
280
     1
  3
ACAD_XREC_ROUNDTRIP
360
2D7B
  0
DICTIONARY
  5
2D7C
100
AcDbDictionary
280
     1
  3
ACAD_XREC_ROUNDTRIP
360
2D7D
  0
DICTIONARY
  5
2D80
100
AcDbDictionary
280
     1
  3
ACAD_XREC_ROUNDTRIP
360
2D81
  0
DICTIONARY
  5
2D82
100
AcDbDictionary
280
     1
  3
ACAD_XREC_ROUNDTRIP
360
2D83
  0
DICTIONARY
  5
4D2
100
AcDbDictionary
280
     1
  3
ACAD_LAYOUTSELFREF
360
2D79
  0
DICTIONARY
  5
4D0
100
AcDbDictionary
280
     1
  3
ACAD_LAYOUTSELFREF
360
2D78
  0
DICTIONARY
  5
2D49
100
AcDbDictionary
280
     1
  3
ACAD_XREC_ROUNDTRIP
360
2D4A
  0
DICTIONARY
  5
2D4B
100
AcDbDictionary
280
     1
  3
ACAD_XREC_ROUNDTRIP
360
2D4C
  0
DICTIONARY
  5
2D70
100
AcDbDictionary
280
     1
  3
ACAD_XREC_ROUNDTRIP
360
2D71
  0
DICTIONARY
  5
2D72
100
AcDbDictionary
280
     1
  3
ACAD_XREC_ROUNDTRIP
360
2D73
  0
DICTIONARY
  5
2D74
100
AcDbDictionary
280
     1
  3
ACAD_XREC_ROUNDTRIP
360
2D75
  0
DICTIONARY
  5
2D76
100
AcDbDictionary
280
     1
  3
ACAD_XREC_ROUNDTRIP
360
2D77
  0
DICTIONARY
  5
46E
102
{ACAD_REACTORS
330
46D
102
}
100
AcDbDictionary
  0
DICTIONARY
  5
49E
102
{ACAD_XDICTIONARY
360
2D7E
102
}
102
{ACAD_REACTORS
330
46D
102
}
100
AcDbDictionary
  3
LAYOUT1
350
4A1
  3
MODEL
350
4A0
  0
DICTIONARY
  5
47B
102
{ACAD_REACTORS
330
46D
102
}
100
AcDbDictionary
  3
STANDARD
350
47C
  0
DICTIONARY
  5
49F
102
{ACAD_REACTORS
330
46D
102
}
100
AcDbDictionary
  0
ACAD_PROXY_OBJECT
  5
49C
102
{ACAD_REACTORS
330
46D
102
}
100
AcDbProxyObject
 90
      499
 91
      501
 93
       86
310
405010041939BDC9B585B0
350
49D
340
49D
 94
        0
  0
DICTIONARY
  5
2D4F
102
{ACAD_REACTORS
330
46D
102
}
100
AcDbDictionary
  3
CEPSNTYPE
350
2D59
  3
DIMSTYLEDATA
350
2D5D
  3
FINGERPRINTGUID
350
2D5A
  3
HYPERLINKBASE
350
2D52
  3
INSUNITS
350
2D58
  3
LAYOUTDICT
350
2D54
  3
LWETCUNION
350
2D57
  3
PLOTSETDICT
350
2D55
  3
PLOTSTYLNAMDICT
350
2D56
  3
PSVPSCALE
350
2D5C
  3
PUCSBASE
350
2D60
  3
PUCSORGBACK
350
2D66
  3
PUCSORGBOTTOM
350
2D62
  3
PUCSORGFRONT
350
2D65
  3
PUCSORGLEFT
350
2D63
  3
PUCSORGRIGHT
350
2D64
  3
PUCSORGTOP
350
2D61
  3
PUCSORTHOREF
350
2D5E
  3
PUCSORTHOVIEW
350
2D5F
  3
STYLESHEET
350
2D53
  3
TSTACKALIGN
350
2D50
  3
TSTACKSIZE
350
2D51
  3
UCSBASE
350
2D69
  3
UCSORGBACK
350
2D6F
  3
UCSORGBOTTOM
350
2D6B
  3
UCSORGFRONT
350
2D6E
  3
UCSORGLEFT
350
2D6C
  3
UCSORGRIGHT
350
2D6D
  3
UCSORGTOP
350
2D6A
  3
UCSORTHOREF
350
2D67
  3
UCSORTHOVIEW
350
2D68
  3
VERSIONGUID
350
2D5B
  0
DICTIONARY
  5
48D
102
{ACAD_REACTORS
330
46D
102
}
100
AcDbDictionary
  3
DIMADEC
350
48E
  0
XRECORD
  5
2D4E
102
{ACAD_REACTORS
330
2D4D
102
}
100
AcDbXrecord
102
EXTNAMES
  1
*ACTIVE
  2
*Active
102
UCS
 74
     0
 71
     1
 10
0.0
 20
0.0
 30
0.0
 10
1.0
 20
0.0
 30
0.0
 10
0.0
 20
0.0
 30
1.0
146
0.0
 79
     3
102
VIEW
281
     0
  0
XRECORD
  5
2D7B
102
{ACAD_REACTORS
330
2D7A
102
}
100
AcDbXrecord
102
PLOTBIT
280
     0
  0
XRECORD
  5
2D7D
102
{ACAD_REACTORS
330
2D7C
102
}
100
AcDbXrecord
102
ACADR14ROUNDTRIP
1000
DSTYLE
1002
{
1070
   276
 70
     2
1070
   277
 70
     5
1070
   279
 70
     2
1070
   289
 70
     2
1002
}
  0
XRECORD
  5
2D81
102
{ACAD_REACTORS
330
2D80
102
}
100
AcDbXrecord
102
ACADR14ROUNDTRIP
1000
DSTYLE
1002
{
1070
   276
 70
     2
1070
   277
 70
     5
1002
}
  0
XRECORD
  5
2D83
102
{ACAD_REACTORS
330
2D82
102
}
100
AcDbXrecord
102
ACADR14ROUNDTRIP
1000
DSTYLE
1002
{
1070
   276
 70
     2
1070
   277
 70
     5
1002
}
  0
XRECORD
  5
2D79
102
{ACAD_REACTORS
330
4D2
102
}
100
AcDbXrecord
340
478
  0
XRECORD
  5
2D78
102
{ACAD_REACTORS
330
4D0
102
}
100
AcDbXrecord
340
475
  0
XRECORD
  5
2D4A
102
{ACAD_REACTORS
330
2D49
102
}
100
AcDbXrecord
102
EXTNAMES
  1
SCALEINCH
  2
scaleinch
  0
XRECORD
  5
2D4C
102
{ACAD_REACTORS
330
2D4B
102
}
100
AcDbXrecord
102
EXTNAMES
  1
ABDSN870
  2
abdsn870
  0
XRECORD
  5
2D71
102
{ACAD_REACTORS
330
2D70
102
}
100
AcDbXrecord
102
UCS
 74
     0
 71
     1
 10
0.0
 20
0.0
 30
0.0
 10
1.0
 20
0.0
 30
0.0
 10
0.0
 20
1.0
 30
0.0
146
0.0
 79
     0
102
VIEW
281
     0
102
NEWVIEWCONTROL
280
     4
  0
XRECORD
  5
2D73
102
{ACAD_REACTORS
330
2D72
102
}
100
AcDbXrecord
102
UCS
 74
     0
 71
     1
 10
0.0
 20
0.0
 30
0.0
 10
1.0
 20
0.0
 30
0.0
 10
0.0
 20
1.0
 30
0.0
146
0.0
 79
     1
102
VIEW
281
     0
102
NEWVIEWCONTROL
280
     4
  0
XRECORD
  5
2D75
102
{ACAD_REACTORS
330
2D74
102
}
100
AcDbXrecord
102
UCS
 74
     0
 71
     1
 10
0.0
 20
0.0
 30
0.0
 10
1.0
 20
0.0
 30
0.0
 10
0.0
 20
0.0
 30
1.0
146
0.0
 79
     3
102
VIEW
281
     0
102
NEWVIEWCONTROL
280
     4
  0
XRECORD
  5
2D77
102
{ACAD_REACTORS
330
2D76
102
}
100
AcDbXrecord
102
UCS
 74
     0
 71
     1
 10
0.0
 20
0.0
 30
0.0
 10
1.0
 20
0.0
 30
0.0
 10
0.0
 20
1.0
 30
0.0
146
0.0
 79
     0
102
VIEW
281
     0
102
NEWVIEWCONTROL
280
     4
  0
DICTIONARY
  5
2D7E
100
AcDbDictionary
280
     1
  3
ACAD_XREC_ROUNDTRIP
360
2D7F
  0
ACAD_PROXY_OBJECT
  5
4A1
102
{ACAD_REACTORS
330
49E
102
}
100
AcDbProxyObject
 90
      499
 91
      503
 93
     2044
310
91D4850204C617365724A65742035303030205365726965732050434C20362C008000000C0BB1B1440000000102F06C510000000000BC1B1440000000002E06C5100000000C0CCFC6A4000000018199D9C501064C6574746572A901406AA427D84144352EEE3F47D11959985D5B1D08148C4D081C195B88185CDCDA59DB9B5
310
95B9D1CCB98DD18A30EDE3B1BBFDBC0FC1D572C8D6D0C833F1A2B3054E9249F0FD074C61796F75743140501A97D7DB4AA43C31EFF91E46EBA53B71EFD1B32A15809809100B2537F8EAD447D02A6A6A00200C0093BD106FC0000F06EE366FABE0000032E846F6A2F44424FF2920002440160B7F435600079000000D00CEECC5
310
43D0
330
475
330
2C
340
0
340
0
 94
        0
  0
ACAD_PROXY_OBJECT
  5
4A0
102
{ACAD_REACTORS
330
49E
102
}
100
AcDbProxyObject
 90
      499
 91
      503
 93
      924
310
91D4850204C617365724A65742035303030205365726965732050434C20362C01AAAAAAAAA547D11959985D5B1D08148C4D081C195B88185CDCDA59DB9B595B9D1CCB98DD18A69054D6F64656C901A800000000000000000000000000000000000000000000A1000000000000008902A6A6AAAA0
330
478
330
0
340
0
340
0
 94
        0
  0
MLINESTYLE
  5
47C
102
{ACAD_REACTORS
330
47B
102
}
100
AcDbMlineStyle
  2
STANDARD
 70
     0
  3

 62
   256
 51
90.0
 52
90.0
 71
     2
 49
0.5
 62
   256
  6
BYLAYER
 49
-0.5
 62
   256
  6
BYLAYER
  0
ACAD_PROXY_OBJECT
  5
49D
102
{ACAD_REACTORS
330
49C
102
}
100
AcDbProxyObject
 90
      499
 91
      502
 93
        0
 94
        0
  0
XRECORD
  5
2D59
102
{ACAD_REACTORS
330
2D4F
102
}
100
AcDbXrecord
 90
        0
  0
XRECORD
  5
2D5D
102
{ACAD_REACTORS
330
2D4F
102
}
100
AcDbXrecord
1000
DSTYLE
1002
{
1070
   276
 70
     2
1070
   277
 70
     5
1070
   279
 70
     2
1070
   289
 70
     2
1002
}
  0
XRECORD
  5
2D5A
102
{ACAD_REACTORS
330
2D4F
102
}
100
AcDbXrecord
  1
{6E0CF4B5-225E-11D4-A150-00A0CC3303EC}
  0
XRECORD
  5
2D52
102
{ACAD_REACTORS
330
2D4F
102
}
100
AcDbXrecord
  1

  0
XRECORD
  5
2D58
102
{ACAD_REACTORS
330
2D4F
102
}
100
AcDbXrecord
 90
        0
  0
XRECORD
  5
2D54
102
{ACAD_REACTORS
330
2D4F
102
}
100
AcDbXrecord
340
49E
  0
XRECORD
  5
2D57
102
{ACAD_REACTORS
330
2D4F
102
}
100
AcDbXrecord
 90
    14877
  0
XRECORD
  5
2D55
102
{ACAD_REACTORS
330
2D4F
102
}
100
AcDbXrecord
340
49F
  0
XRECORD
  5
2D56
102
{ACAD_REACTORS
330
2D4F
102
}
100
AcDbXrecord
340
49C
  0
XRECORD
  5
2D5C
102
{ACAD_REACTORS
330
2D4F
102
}
100
AcDbXrecord
 40
0.0
  0
XRECORD
  5
2D60
102
{ACAD_REACTORS
330
2D4F
102
}
100
AcDbXrecord
340
0
  0
XRECORD
  5
2D66
102
{ACAD_REACTORS
330
2D4F
102
}
100
AcDbXrecord
 10
0.0
 20
0.0
 30
0.0
  0
XRECORD
  5
2D62
102
{ACAD_REACTORS
330
2D4F
102
}
100
AcDbXrecord
 10
0.0
 20
0.0
 30
0.0
  0
XRECORD
  5
2D65
102
{ACAD_REACTORS
330
2D4F
102
}
100
AcDbXrecord
 10
0.0
 20
0.0
 30
0.0
  0
XRECORD
  5
2D63
102
{ACAD_REACTORS
330
2D4F
102
}
100
AcDbXrecord
 10
0.0
 20
0.0
 30
0.0
  0
XRECORD
  5
2D64
102
{ACAD_REACTORS
330
2D4F
102
}
100
AcDbXrecord
 10
0.0
 20
0.0
 30
0.0
  0
XRECORD
  5
2D61
102
{ACAD_REACTORS
330
2D4F
102
}
100
AcDbXrecord
 10
0.0
 20
0.0
 30
0.0
  0
XRECORD
  5
2D5E
102
{ACAD_REACTORS
330
2D4F
102
}
100
AcDbXrecord
340
0
  0
XRECORD
  5
2D5F
102
{ACAD_REACTORS
330
2D4F
102
}
100
AcDbXrecord
 70
     0
  0
XRECORD
  5
2D53
102
{ACAD_REACTORS
330
2D4F
102
}
100
AcDbXrecord
  1

  0
XRECORD
  5
2D50
102
{ACAD_REACTORS
330
2D4F
102
}
100
AcDbXrecord
 90
        1
  0
XRECORD
  5
2D51
102
{ACAD_REACTORS
330
2D4F
102
}
100
AcDbXrecord
 90
       70
  0
XRECORD
  5
2D69
102
{ACAD_REACTORS
330
2D4F
102
}
100
AcDbXrecord
340
0
  0
XRECORD
  5
2D6F
102
{ACAD_REACTORS
330
2D4F
102
}
100
AcDbXrecord
 10
0.0
 20
0.0
 30
0.0
  0
XRECORD
  5
2D6B
102
{ACAD_REACTORS
330
2D4F
102
}
100
AcDbXrecord
 10
0.0
 20
0.0
 30
0.0
  0
XRECORD
  5
2D6E
102
{ACAD_REACTORS
330
2D4F
102
}
100
AcDbXrecord
 10
0.0
 20
0.0
 30
0.0
  0
XRECORD
  5
2D6C
102
{ACAD_REACTORS
330
2D4F
102
}
100
AcDbXrecord
 10
0.0
 20
0.0
 30
0.0
  0
XRECORD
  5
2D6D
102
{ACAD_REACTORS
330
2D4F
102
}
100
AcDbXrecord
 10
0.0
 20
0.0
 30
0.0
  0
XRECORD
  5
2D6A
102
{ACAD_REACTORS
330
2D4F
102
}
100
AcDbXrecord
 10
0.0
 20
0.0
 30
0.0
  0
XRECORD
  5
2D67
102
{ACAD_REACTORS
330
2D4F
102
}
100
AcDbXrecord
340
0
  0
XRECORD
  5
2D68
102
{ACAD_REACTORS
330
2D4F
102
}
100
AcDbXrecord
 70
     0
  0
XRECORD
  5
2D5B
102
{ACAD_REACTORS
330
2D4F
102
}
100
AcDbXrecord
  1
{65728E4C-909C-4788-929D-A2A7061446F1}
  0
DICTIONARYVAR
  5
48E
102
{ACAD_REACTORS
330
48D
102
}
100
DictionaryVariables
280
     0
  1
0
  0
XRECORD
  5
2D7F
102
{ACAD_REACTORS
330
2D7E
102
}
100
AcDbXrecord
102
EXTNAMES
  1
LAYOUT1
  2
Layout1
  1
MODEL
  2
Model
  0
ENDSEC
  0
EOF
