  0
SECTION
  2
HEADER
  9
$ACADVER
  1
AC1014
  9
$ACADMAINTVER
 70
     8
  9
$DWGCODEPAGE
  3
ANSI_1252
  9
$INSBASE
 10
0.0
 20
0.0
 30
0.0
  9
$EXTMIN
 10
-1.7325
 20
-1.7325
 30
-0.36
  9
$EXTMAX
 10
3.963617
 20
2.252371
 30
0.506667
  9
$LIMMIN
 10
0.0
 20
0.0
  9
$LIMMAX
 10
12.0
 20
9.0
  9
$ORTHOMODE
 70
     0
  9
$REGENMODE
 70
     1
  9
$FILLMODE
 70
     1
  9
$QTEXTMODE
 70
     0
  9
$MIRRTEXT
 70
     1
  9
$DRAGMODE
 70
     2
  9
$LTSCALE
 40
1.0
  9
$OSMODE
 70
    37
  9
$ATTMODE
 70
     0
  9
$TEXTSIZE
 40
0.2
  9
$TRACEWID
 40
0.05
  9
$TEXTSTYLE
  7
STANDARD
  9
$CLAYER
  8
0
  9
$CELTYPE
  6
BYLAYER
  9
$CECOLOR
 62
   256
  9
$CELTSCALE
 40
1.0
  9
$DELOBJ
 70
     1
  9
$DISPSILH
 70
     0
  9
$DIMSCALE
 40
0.0
  9
$DIMASZ
 40
0.18
  9
$DIMEXO
 40
0.0625
  9
$DIMDLI
 40
0.375
  9
$DIMRND
 40
0.0
  9
$DIMDLE
 40
0.0
  9
$DIMEXE
 40
0.18
  9
$DIMTP
 40
0.0
  9
$DIMTM
 40
0.0
  9
$DIMTXT
 40
0.09
  9
$DIMCEN
 40
0.09
  9
$DIMTSZ
 40
0.0
  9
$DIMTOL
 70
     0
  9
$DIMLIM
 70
     0
  9
$DIMTIH
 70
     0
  9
$DIMTOH
 70
     1
  9
$DIMSE1
 70
     0
  9
$DIMSE2
 70
     0
  9
$DIMTAD
 70
     0
  9
$DIMZIN
 70
     4
  9
$DIMBLK
  1

  9
$DIMASO
 70
     1
  9
$DIMSHO
 70
     1
  9
$DIMPOST
  1

  9
$DIMAPOST
  1

  9
$DIMALT
 70
     1
  9
$DIMALTD
 70
     2
  9
$DIMALTF
 40
25.4
  9
$DIMLFAC
 40
1.0
  9
$DIMTOFL
 70
     0
  9
$DIMTVP
 40
0.0
  9
$DIMTIX
 70
     0
  9
$DIMSOXD
 70
     0
  9
$DIMSAH
 70
     0
  9
$DIMBLK1
  1

  9
$DIMBLK2
  1

  9
$DIMSTYLE
  2
ABECAD_3V
  9
$DIMCLRD
 70
     0
  9
$DIMCLRE
 70
     0
  9
$DIMCLRT
 70
     0
  9
$DIMTFAC
 40
1.5
  9
$DIMGAP
 40
0.09
  9
$DIMJUST
 70
     0
  9
$DIMSD1
 70
     0
  9
$DIMSD2
 70
     0
  9
$DIMTOLJ
 70
     1
  9
$DIMTZIN
 70
     4
  9
$DIMALTZ
 70
     4
  9
$DIMALTTZ
 70
     4
  9
$DIMFIT
 70
     5
  9
$DIMUPT
 70
     1
  9
$DIMUNIT
 70
     7
  9
$DIMDEC
 70
     6
  9
$DIMTDEC
 70
     6
  9
$DIMALTU
 70
     2
  9
$DIMALTTD
 70
     2
  9
$DIMTXSTY
  7
STANDARD
  9
$DIMAUNIT
 70
     0
  9
$LUNITS
 70
     2
  9
$LUPREC
 70
     6
  9
$SKETCHINC
 40
0.1
  9
$FILLETRAD
 40
0.0
  9
$AUNITS
 70
     0
  9
$AUPREC
 70
     0
  9
$MENU
  1
acad
  9
$ELEVATION
 40
0.0
  9
$PELEVATION
 40
0.0
  9
$THICKNESS
 40
0.0
  9
$LIMCHECK
 70
     0
  9
$BLIPMODE
 70
     0
  9
$CHAMFERA
 40
0.0
  9
$CHAMFERB
 40
0.0
  9
$CHAMFERC
 40
0.0
  9
$CHAMFERD
 40
0.0
  9
$SKPOLY
 70
     0
  9
$TDCREATE
 40
2451726.438362384
  9
$TDUPDATE
 40
2452010.729128819
  9
$TDINDWG
 40
0.0624803241
  9
$TDUSRTIMER
 40
0.0624803241
  9
$USRTIMER
 70
     1
  9
$ANGBASE
 50
0.0
  9
$ANGDIR
 70
     0
  9
$PDMODE
 70
     3
  9
$PDSIZE
 40
0.18
  9
$PLINEWID
 40
0.0
  9
$COORDS
 70
     1
  9
$SPLFRAME
 70
     0
  9
$SPLINETYPE
 70
     6
  9
$SPLINESEGS
 70
     8
  9
$ATTDIA
 70
     0
  9
$ATTREQ
 70
     1
  9
$HANDLING
 70
     1
  9
$HANDSEED
  5
2B41
  9
$SURFTAB1
 70
     6
  9
$SURFTAB2
 70
     6
  9
$SURFTYPE
 70
     6
  9
$SURFU
 70
     6
  9
$SURFV
 70
     6
  9
$UCSNAME
  2

  9
$UCSORG
 10
0.0
 20
0.0
 30
0.0
  9
$UCSXDIR
 10
1.0
 20
0.0
 30
0.0
  9
$UCSYDIR
 10
0.0
 20
1.0
 30
0.0
  9
$PUCSNAME
  2

  9
$PUCSORG
 10
0.0
 20
0.0
 30
0.0
  9
$PUCSXDIR
 10
1.0
 20
0.0
 30
0.0
  9
$PUCSYDIR
 10
0.0
 20
1.0
 30
0.0
  9
$USERI1
 70
     0
  9
$USERI2
 70
     0
  9
$USERI3
 70
     0
  9
$USERI4
 70
     0
  9
$USERI5
 70
     0
  9
$USERR1
 40
0.0
  9
$USERR2
 40
0.0
  9
$USERR3
 40
0.0
  9
$USERR4
 40
0.0
  9
$USERR5
 40
0.0
  9
$WORLDVIEW
 70
     1
  9
$SHADEDGE
 70
     3
  9
$SHADEDIF
 70
    70
  9
$TILEMODE
 70
     0
  9
$MAXACTVP
 70
    16
  9
$PINSBASE
 10
0.0
 20
0.0
 30
0.0
  9
$PLIMCHECK
 70
     0
  9
$PEXTMIN
 10
0.0
 20
0.0
 30
0.0
  9
$PEXTMAX
 10
10.0
 20
7.5
 30
0.0
  9
$PLIMMIN
 10
-0.187029
 20
-0.186938
  9
$PLIMMAX
 10
10.187518
 20
7.829757
  9
$UNITMODE
 70
     0
  9
$VISRETAIN
 70
     0
  9
$PLINEGEN
 70
     0
  9
$PSLTSCALE
 70
     1
  9
$TREEDEPTH
 70
  3020
  9
$PICKSTYLE
 70
     1
  9
$CMLSTYLE
  2
STANDARD
  9
$CMLJUST
 70
     0
  9
$CMLSCALE
 40
1.0
  9
$PROXYGRAPHICS
 70
     1
  9
$MEASUREMENT
 70
     0
  0
ENDSEC
  0
SECTION
  2
CLASSES
  0
CLASS
  1
DICTIONARYVAR
  2
AcDbDictionaryVar
  3
"AutoCAD"
 90
        0
280
     0
281
     0
  0
CLASS
  1
ACDBDICTIONARYWDFLT
  2
AcDbDictionaryWithDefault
  3
AutoCAD 2000
 90
        0
280
     0
281
     0
  0
CLASS
  1
ACDBPLACEHOLDER
  2
AcDbPlaceHolder
  3
AutoCAD 2000
 90
        0
280
     0
281
     0
  0
CLASS
  1
LAYOUT
  2
AcDbLayout
  3
AutoCAD 2000
 90
        0
280
     0
281
     0
  0
CLASS
  1
LONG_TRANSACTION
  2
AcDbLongTransaction
  3
AutoCAD 2000
 90
        0
280
     0
281
     0
  0
CLASS
  1
LWPOLYLINE
  2
AcDbPolyline
  3
"AutoCAD"
 90
        0
280
     0
281
     1
  0
CLASS
  1
HATCH
  2
AcDbHatch
  3
"ACAD_SEDONA"
 90
        0
280
     0
281
     1
  0
CLASS
  1
XRECORD
  2
AcDbXrecord
  3
"<Built In>"
 90
        0
280
     0
281
     0
  0
CLASS
  1
LONG_TRANSACTION
  2
AcDbLongTransaction
  3
AutoCAD 2000
 90
        0
280
     0
281
     0
  0
CLASS
  1
LWPOLYLINE
  2
AcDbPolyline
  3
"AutoCAD"
 90
        0
280
     0
281
     1
  0
CLASS
  1
HATCH
  2
AcDbHatch
  3
"ACAD_SEDONA"
 90
        0
280
     0
281
     1
  0
CLASS
  1
XRECORD
  2
AcDbXrecord
  3
"<Built In>"
 90
        0
280
     0
281
     0
  0
CLASS
  1
LONG_TRANSACTION
  2
AcDbLongTransaction
  3
AutoCAD 2000
 90
        0
280
     0
281
     0
  0
CLASS
  1
LWPOLYLINE
  2
AcDbPolyline
  3
"AutoCAD"
 90
        0
280
     0
281
     1
  0
CLASS
  1
HATCH
  2
AcDbHatch
  3
"ACAD_SEDONA"
 90
        0
280
     0
281
     1
  0
CLASS
  1
XRECORD
  2
AcDbXrecord
  3
"<Built In>"
 90
        0
280
     0
281
     0
  0
CLASS
  1
LONG_TRANSACTION
  2
AcDbLongTransaction
  3
AutoCAD 2000
 90
        0
280
     0
281
     0
  0
CLASS
  1
LWPOLYLINE
  2
AcDbPolyline
  3
"AutoCAD"
 90
        0
280
     0
281
     1
  0
CLASS
  1
HATCH
  2
AcDbHatch
  3
"ACAD_SEDONA"
 90
        0
280
     0
281
     1
  0
CLASS
  1
XRECORD
  2
AcDbXrecord
  3
"<Built In>"
 90
        0
280
     0
281
     0
  0
CLASS
  1
LONG_TRANSACTION
  2
AcDbLongTransaction
  3
AutoCAD 2000
 90
        0
280
     0
281
     0
  0
CLASS
  1
LWPOLYLINE
  2
AcDbPolyline
  3
"AutoCAD"
 90
        0
280
     0
281
     1
  0
CLASS
  1
HATCH
  2
AcDbHatch
  3
"ACAD_SEDONA"
 90
        0
280
     0
281
     1
  0
CLASS
  1
XRECORD
  2
AcDbXrecord
  3
"<Built In>"
 90
        0
280
     0
281
     0
  0
ENDSEC
  0
SECTION
  2
TABLES
  0
TABLE
  2
VPORT
  5
469
100
AcDbSymbolTable
 70
     1
  0
VPORT
  5
29AF
102
{ACAD_XDICTIONARY
360
2B07
102
}
100
AcDbSymbolTableRecord
100
AcDbViewportTableRecord
  2
*ACTIVE
 70
     0
 10
0.0
 20
0.0
 11
1.0
 21
1.0
 12
0.971818
 22
0.053333
 13
0.0
 23
0.0
 14
1.0
 24
1.0
 15
0.0
 25
0.0
 16
0.0
 26
-1.0
 36
0.0
 17
0.0
 27
0.0
 37
0.0
 40
2.670253
 41
1.682482
 42
50.0
 43
0.0
 44
0.0
 50
0.0
 51
0.0
 71
     0
 72
   100
 73
     1
 74
     1
 75
     0
 76
     0
 77
     0
 78
     0
  0
ENDTAB
  0
TABLE
  2
LTYPE
  5
466
100
AcDbSymbolTable
 70
     1
  0
LTYPE
  5
472
100
AcDbSymbolTableRecord
100
AcDbLinetypeTableRecord
  2
BYBLOCK
 70
     0
  3

 72
    65
 73
     0
 40
0.0
  0
LTYPE
  5
473
100
AcDbSymbolTableRecord
100
AcDbLinetypeTableRecord
  2
BYLAYER
 70
     0
  3

 72
    65
 73
     0
 40
0.0
  0
LTYPE
  5
474
100
AcDbSymbolTableRecord
100
AcDbLinetypeTableRecord
  2
CONTINUOUS
 70
     0
  3
Solid line
 72
    65
 73
     0
 40
0.0
  0
ENDTAB
  0
TABLE
  2
LAYER
  5
463
100
AcDbSymbolTable
 70
     8
  0
LAYER
  5
46F
100
AcDbSymbolTableRecord
100
AcDbLayerTableRecord
  2
0
 70
     0
 62
     7
  6
CONTINUOUS
  0
LAYER
  5
485
100
AcDbSymbolTableRecord
100
AcDbLayerTableRecord
  2
AREA1
 70
     0
 62
     7
  6
CONTINUOUS
  0
LAYER
  5
486
100
AcDbSymbolTableRecord
100
AcDbLayerTableRecord
  2
AREA2
 70
     0
 62
     7
  6
CONTINUOUS
  0
LAYER
  5
494
102
{ACAD_XDICTIONARY
360
2B34
102
}
100
AcDbSymbolTableRecord
100
AcDbLayerTableRecord
  2
DEFPOINTS
 70
     0
 62
    -7
  6
CONTINUOUS
  0
LAYER
  5
495
100
AcDbSymbolTableRecord
100
AcDbLayerTableRecord
  2
DIMS-MTG-HOLES
 70
     0
 62
    -1
  6
CONTINUOUS
  0
LAYER
  5
4E6
100
AcDbSymbolTableRecord
100
AcDbLayerTableRecord
  2
SCALE
 70
     0
 62
    -7
  6
CONTINUOUS
  0
LAYER
  5
4ED
100
AcDbSymbolTableRecord
100
AcDbLayerTableRecord
  2
SNAP_POINTS
 70
     0
 62
    -1
  6
CONTINUOUS
  0
LAYER
  5
4F1
100
AcDbSymbolTableRecord
100
AcDbLayerTableRecord
  2
ATTRIBUTES
 70
     0
 62
    -7
  6
CONTINUOUS
  0
ENDTAB
  0
TABLE
  2
STYLE
  5
464
100
AcDbSymbolTable
 70
     1
  0
STYLE
  5
470
100
AcDbSymbolTableRecord
100
AcDbTextStyleTableRecord
  2
STANDARD
 70
     0
 40
0.0
 41
1.0
 50
0.0
 71
     0
 42
0.2
  3
txt
  4

  0
ENDTAB
  0
TABLE
  2
VIEW
  5
467
100
AcDbSymbolTable
 70
     0
  0
ENDTAB
  0
TABLE
  2
UCS
  5
468
100
AcDbSymbolTable
 70
     0
  0
ENDTAB
  0
TABLE
  2
APPID
  5
46A
100
AcDbSymbolTable
 70
     2
  0
APPID
  5
471
100
AcDbSymbolTableRecord
100
AcDbRegAppTableRecord
  2
ACAD
 70
     0
  0
APPID
  5
47E
100
AcDbSymbolTableRecord
100
AcDbRegAppTableRecord
  2
AVE_RENDER
 70
     0
  0
ENDTAB
  0
TABLE
  2
DIMSTYLE
  5
46B
100
AcDbSymbolTable
 70
     3
  0
DIMSTYLE
105
49A
102
{ACAD_XDICTIONARY
360
2B36
102
}
102
{ACAD_REACTORS
330
2997
102
}
100
AcDbSymbolTableRecord
100
AcDbDimStyleTableRecord
  2
ABECAD_3V
 70
     0
  3

  4

  5

  6

  7

 40
0.0
 41
0.18
 42
0.0625
 43
0.375
 44
0.18
 45
0.0
 46
0.0
 47
0.0
 48
0.0
140
0.09
141
0.09
142
0.0
143
25.4
144
1.0
145
0.0
146
1.5
147
0.09
 71
     0
 72
     0
 73
     0
 74
     1
 75
     0
 76
     0
 77
     0
 78
     4
170
     1
171
     2
172
     0
173
     0
174
     0
175
     0
176
     0
177
     0
178
     0
270
     7
271
     6
272
     6
273
     2
274
     2
340
470
275
     0
280
     0
281
     0
282
     0
283
     1
284
     4
285
     4
286
     4
287
     5
288
     1
  0
DIMSTYLE
105
553
102
{ACAD_XDICTIONARY
360
2B3A
102
}
100
AcDbSymbolTableRecord
100
AcDbDimStyleTableRecord
  2
ABECAD
 70
     0
  3

  4

  5

  6

  7

 40
1.0
 41
0.18
 42
0.0625
 43
0.375
 44
0.18
 45
0.0
 46
0.0
 47
0.0
 48
0.0
140
0.18
141
0.09
142
0.0
143
25.4
144
1.0
145
0.0
146
1.5
147
0.09
 71
     0
 72
     0
 73
     0
 74
     1
 75
     0
 76
     0
 77
     0
 78
     4
170
     1
171
     1
172
     0
173
     0
174
     0
175
     0
176
     0
177
     0
178
     0
270
     7
271
     6
272
     6
273
     2
274
     1
340
470
275
     0
280
     0
281
     0
282
     0
283
     1
284
     4
285
     4
286
     4
287
     3
288
     0
  0
DIMSTYLE
105
554
102
{ACAD_XDICTIONARY
360
2B3C
102
}
100
AcDbSymbolTableRecord
100
AcDbDimStyleTableRecord
  2
ABECAD_3D
 70
     0
  3

  4

  5

  6

  7

 40
1.0
 41
0.18
 42
0.0625
 43
0.375
 44
0.18
 45
0.0
 46
0.0
 47
0.0
 48
0.0
140
0.09
141
0.09
142
0.0
143
25.4
144
1.0
145
0.0
146
1.5
147
0.09
 71
     0
 72
     0
 73
     0
 74
     1
 75
     0
 76
     0
 77
     0
 78
     4
170
     1
171
     1
172
     0
173
     0
174
     0
175
     0
176
     0
177
     0
178
     0
270
     7
271
     6
272
     6
273
     2
274
     1
340
470
275
     0
280
     0
281
     0
282
     0
283
     1
284
     4
285
     4
286
     4
287
     3
288
     0
  0
ENDTAB
  0
TABLE
  2
BLOCK_RECORD
  5
462
100
AcDbSymbolTable
 70
     5
  0
BLOCK_RECORD
  5
478
102
{ACAD_XDICTIONARY
360
4D2
102
}
100
AcDbSymbolTableRecord
100
AcDbBlockTableRecord
  2
*MODEL_SPACE
  0
BLOCK_RECORD
  5
475
102
{ACAD_XDICTIONARY
360
4D0
102
}
100
AcDbSymbolTableRecord
100
AcDbBlockTableRecord
  2
*PAPER_SPACE
  0
BLOCK_RECORD
  5
545
102
{ACAD_XDICTIONARY
360
2B03
102
}
100
AcDbSymbolTableRecord
100
AcDbBlockTableRecord
  2
SCALEINCH
  0
BLOCK_RECORD
  5
2998
100
AcDbSymbolTableRecord
100
AcDbBlockTableRecord
  2
*D1
  0
BLOCK_RECORD
  5
29F5
100
AcDbSymbolTableRecord
100
AcDbBlockTableRecord
  2
*D2
  0
BLOCK_RECORD
  5
2A02
100
AcDbSymbolTableRecord
100
AcDbBlockTableRecord
  2
*D3
  0
BLOCK_RECORD
  5
2A0F
102
{ACAD_XDICTIONARY
360
2B05
102
}
100
AcDbSymbolTableRecord
100
AcDbBlockTableRecord
  2
ABDSN840
  0
ENDTAB
  0
ENDSEC
  0
SECTION
  2
BLOCKS
  0
BLOCK
  5
48B
100
AcDbEntity
  8
0
100
AcDbBlockBegin
  2
*MODEL_SPACE
 70
     0
 10
0.0
 20
0.0
 30
0.0
  3
*MODEL_SPACE
  1

  0
ENDBLK
  5
48C
100
AcDbEntity
  8
0
100
AcDbBlockEnd
  0
BLOCK
  5
489
100
AcDbEntity
 67
     1
  8
0
100
AcDbBlockBegin
  2
*PAPER_SPACE
 70
     0
 10
0.0
 20
0.0
 30
0.0
  3
*PAPER_SPACE
  1

  0
ENDBLK
  5
48A
100
AcDbEntity
 67
     1
  8
0
100
AcDbBlockEnd
  0
BLOCK
  5
551
100
AcDbEntity
  8
0
100
AcDbBlockBegin
  2
SCALEINCH
 70
     0
 10
0.0
 20
0.0
 30
0.0
  3
SCALEINCH
  1

  0
LINE
  5
546
100
AcDbEntity
  8
SCALE
100
AcDbLine
 10
0.060623
 20
-2.404403
 30
0.0
 11
1.060623
 21
-2.404403
 31
0.0
  0
LINE
  5
547
100
AcDbEntity
  8
SCALE
100
AcDbLine
 10
1.060623
 20
-2.404403
 30
0.0
 11
1.060623
 21
-2.504403
 31
0.0
  0
LINE
  5
548
100
AcDbEntity
  8
SCALE
100
AcDbLine
 10
1.060623
 20
-2.504403
 30
0.0
 11
1.060623
 21
-2.304403
 31
0.0
  0
LINE
  5
549
100
AcDbEntity
  8
SCALE
100
AcDbLine
 10
0.060623
 20
-2.504403
 30
0.0
 11
0.060623
 21
-2.304403
 31
0.0
  0
LINE
  5
54A
100
AcDbEntity
  8
SCALE
100
AcDbLine
 10
0.063666
 20
-2.798543
 30
0.0
 11
0.063666
 21
-2.598543
 31
0.0
  0
LINE
  5
54B
100
AcDbEntity
  8
SCALE
100
AcDbLine
 10
0.457366
 20
-2.798543
 30
0.0
 11
0.457366
 21
-2.598543
 31
0.0
  0
LINE
  5
54C
100
AcDbEntity
  8
SCALE
100
AcDbLine
 10
0.063666
 20
-2.698543
 30
0.0
 11
0.457366
 21
-2.698543
 31
0.0
  0
TEXT
  5
54D
100
AcDbEntity
  8
SCALE
100
AcDbText
 10
0.089542
 20
-2.656527
 30
0.0
 40
0.0625
  1
[10 mm]
100
AcDbText
  0
TEXT
  5
54E
100
AcDbEntity
  8
SCALE
100
AcDbText
 10
0.359753
 20
-2.335354
 30
0.0
 40
0.0625
  1
1 Inch
100
AcDbText
  0
TEXT
  5
54F
100
AcDbEntity
  8
SCALE
100
AcDbText
 10
0.052989
 20
-2.167919
 30
0.0
 40
0.0625
  1
SCALE:
100
AcDbText
  0
LWPOLYLINE
  5
550
100
AcDbEntity
  8
SCALE
100
AcDbPolyline
 90
        4
 70
     1
 43
0.0
 10
-0.00654
 20
-2.062718
 10
1.129089
 20
-2.062718
 10
1.129089
 20
-2.904327
 10
-0.00654
 20
-2.904327
  0
ENDBLK
  5
552
100
AcDbEntity
  8
0
100
AcDbBlockEnd
  0
BLOCK
  5
29A3
100
AcDbEntity
  8
0
100
AcDbBlockBegin
  2
*D1
 70
     1
 10
0.0
 20
0.0
 30
0.0
  3
*D1
  1

  0
LINE
  5
29B0
100
AcDbEntity
  8
AREA2
 62
     0
100
AcDbLine
 10
1.795
 20
0.146667
 30
0.0
 11
2.076632
 21
0.146667
 31
0.0
1001
ACAD
1000
RTLwPs
1070
   158
  0
LINE
  5
29B1
100
AcDbEntity
  8
AREA2
 62
     0
100
AcDbLine
 10
1.795
 20
0.0
 30
0.0
 11
2.076632
 21
0.0
 31
0.0
1001
ACAD
1000
RTLwPs
1070
   158
  0
LINE
  5
29B2
100
AcDbEntity
  8
AREA2
 62
     0
100
AcDbLine
 10
1.896632
 20
0.326667
 30
0.0
 11
1.896632
 21
0.506667
 31
0.0
1001
ACAD
1000
RTLwPs
1070
   158
  0
LINE
  5
29B3
100
AcDbEntity
  8
AREA2
 62
     0
100
AcDbLine
 10
1.896632
 20
-0.18
 30
0.0
 11
1.896632
 21
-0.36
 31
0.0
1001
ACAD
1000
RTLwPs
1070
   158
  0
MTEXT
  5
29B4
100
AcDbEntity
  8
AREA2
 62
     0
100
AcDbMText
 10
2.159474
 20
0.063061
 30
0.0
 40
0.09
 41
0.0
 71
     5
 72
     1
  1
\A1;9/64 [3.73]
 11
0.0
 21
1.0
 31
0.0
1001
ACAD
1000
MTEXTBEGIN
1070
    73
1070
     1
1070
    44
1040
1.0
1070
    74
1070
     0
1000
MTEXTEND
1000
MTEXTBEGIN
1070
    73
1070
     1
1070
    44
1040
1.0
1070
    74
1070
     0
1000
MTEXTEND
1000
MTEXTBEGIN
1070
    73
1070
     1
1070
    44
1040
1.0
1070
    74
1070
     0
1000
MTEXTEND
1000
MTEXTBEGIN
1070
    73
1070
     1
1070
    44
1040
1.0
1070
    74
1070
     0
1000
MTEXTEND
  0
SOLID
  5
29B5
100
AcDbEntity
  8
AREA2
 62
     0
100
AcDbTrace
 10
1.866632
 20
0.326667
 30
0.0
 11
1.926632
 21
0.326667
 31
0.0
 12
1.896632
 22
0.146667
 32
0.0
 13
1.896632
 23
0.146667
 33
0.0
  0
SOLID
  5
29B6
100
AcDbEntity
  8
AREA2
 62
     0
100
AcDbTrace
 10
1.866632
 20
-0.18
 30
0.0
 11
1.926632
 21
-0.18
 31
0.0
 12
1.896632
 22
0.0
 32
0.0
 13
1.896632
 23
0.0
 33
0.0
  0
POINT
  5
29B7
100
AcDbEntity
  8
DEFPOINTS
 62
     0
100
AcDbPoint
 10
1.7325
 20
0.146667
 30
1.7325
  0
POINT
  5
29B8
100
AcDbEntity
  8
DEFPOINTS
 62
     0
100
AcDbPoint
 10
1.7325
 20
0.0
 30
1.7325
  0
POINT
  5
29B9
100
AcDbEntity
  8
DEFPOINTS
 62
     0
100
AcDbPoint
 10
1.896632
 20
0.0
 30
0.0
  0
ENDBLK
  5
29A4
100
AcDbEntity
  8
0
100
AcDbBlockEnd
  0
BLOCK
  5
2A00
100
AcDbEntity
  8
0
100
AcDbBlockBegin
  2
*D2
 70
     1
 10
0.0
 20
0.0
 30
0.0
  3
*D2
  1

  0
LINE
  5
29F6
100
AcDbEntity
  8
AREA1
 62
     0
100
AcDbLine
 10
-1.7325
 20
1.795
 30
0.0
 11
-1.7325
 21
2.252371
 31
0.0
1001
ACAD
1000
RTLwPs
1070
   158
  0
LINE
  5
29F7
100
AcDbEntity
  8
AREA1
 62
     0
100
AcDbLine
 10
1.7325
 20
1.795
 30
0.0
 11
1.7325
 21
2.252371
 31
0.0
1001
ACAD
1000
RTLwPs
1070
   158
  0
LINE
  5
29F8
100
AcDbEntity
  8
AREA1
 62
     0
100
AcDbLine
 10
-1.5525
 20
2.072371
 30
0.0
 11
-0.6225
 21
2.072371
 31
0.0
1001
ACAD
1000
RTLwPs
1070
   158
  0
LINE
  5
29F9
100
AcDbEntity
  8
AREA1
 62
     0
100
AcDbLine
 10
1.5525
 20
2.072371
 30
0.0
 11
0.6225
 21
2.072371
 31
0.0
1001
ACAD
1000
RTLwPs
1070
   158
  0
SOLID
  5
29FA
100
AcDbEntity
  8
AREA1
 62
     0
100
AcDbTrace
 10
-1.5525
 20
2.102371
 30
0.0
 11
-1.5525
 21
2.042371
 31
0.0
 12
-1.7325
 22
2.072371
 32
0.0
 13
-1.7325
 23
2.072371
 33
0.0
  0
SOLID
  5
29FB
100
AcDbEntity
  8
AREA1
 62
     0
100
AcDbTrace
 10
1.5525
 20
2.102371
 30
0.0
 11
1.5525
 21
2.042371
 31
0.0
 12
1.7325
 22
2.072371
 32
0.0
 13
1.7325
 23
2.072371
 33
0.0
  0
MTEXT
  5
29FC
100
AcDbEntity
  8
AREA1
 62
     0
100
AcDbMText
 10
0.0
 20
2.072371
 30
0.0
 40
0.09
 41
0.0
 71
     5
 72
     1
  1
\A1;3 15/32 [88.0]
1001
ACAD
1000
MTEXTBEGIN
1070
    73
1070
     1
1070
    44
1040
1.0
1070
    74
1070
     0
1000
MTEXTEND
1000
MTEXTBEGIN
1070
    73
1070
     1
1070
    44
1040
1.0
1070
    74
1070
     0
1000
MTEXTEND
1000
MTEXTBEGIN
1070
    73
1070
     1
1070
    44
1040
1.0
1070
    74
1070
     0
1000
MTEXTEND
1000
MTEXTBEGIN
1070
    73
1070
     1
1070
    44
1040
1.0
1070
    74
1070
     0
1000
MTEXTEND
1000
MTEXTBEGIN
1070
    73
1070
     1
1070
    44
1040
1.0
1070
    74
1070
     0
1000
MTEXTEND
  0
POINT
  5
29FD
100
AcDbEntity
  8
DEFPOINTS
 62
     0
100
AcDbPoint
 10
-1.7325
 20
1.7325
 30
0.0
  0
POINT
  5
29FE
100
AcDbEntity
  8
DEFPOINTS
 62
     0
100
AcDbPoint
 10
1.7325
 20
1.7325
 30
0.0
  0
POINT
  5
29FF
100
AcDbEntity
  8
DEFPOINTS
 62
     0
100
AcDbPoint
 10
1.7325
 20
2.072371
 30
0.0
  0
ENDBLK
  5
2A01
100
AcDbEntity
  8
0
100
AcDbBlockEnd
  0
BLOCK
  5
2A0D
100
AcDbEntity
  8
0
100
AcDbBlockBegin
  2
*D3
 70
     1
 10
0.0
 20
0.0
 30
0.0
  3
*D3
  1

  0
LINE
  5
2A03
100
AcDbEntity
  8
AREA1
 62
     0
100
AcDbLine
 10
1.795
 20
1.7325
 30
0.0
 11
2.387669
 21
1.7325
 31
0.0
1001
ACAD
1000
RTLwPs
1070
   158
  0
LINE
  5
2A04
100
AcDbEntity
  8
AREA1
 62
     0
100
AcDbLine
 10
1.795
 20
-1.7325
 30
0.0
 11
2.387669
 21
-1.7325
 31
0.0
1001
ACAD
1000
RTLwPs
1070
   158
  0
LINE
  5
2A05
100
AcDbEntity
  8
AREA1
 62
     0
100
AcDbLine
 10
2.207669
 20
1.5525
 30
0.0
 11
2.207669
 21
0.6225
 31
0.0
1001
ACAD
1000
RTLwPs
1070
   158
  0
LINE
  5
2A06
100
AcDbEntity
  8
AREA1
 62
     0
100
AcDbLine
 10
2.207669
 20
-1.5525
 30
0.0
 11
2.207669
 21
-0.6225
 31
0.0
1001
ACAD
1000
RTLwPs
1070
   158
  0
SOLID
  5
2A07
100
AcDbEntity
  8
AREA1
 62
     0
100
AcDbTrace
 10
2.177669
 20
1.5525
 30
0.0
 11
2.237669
 21
1.5525
 31
0.0
 12
2.207669
 22
1.7325
 32
0.0
 13
2.207669
 23
1.7325
 33
0.0
  0
SOLID
  5
2A08
100
AcDbEntity
  8
AREA1
 62
     0
100
AcDbTrace
 10
2.177669
 20
-1.5525
 30
0.0
 11
2.237669
 21
-1.5525
 31
0.0
 12
2.207669
 22
-1.7325
 32
0.0
 13
2.207669
 23
-1.7325
 33
0.0
  0
MTEXT
  5
2A09
100
AcDbEntity
  8
AREA1
 62
     0
100
AcDbMText
 10
2.207669
 20
0.0
 30
0.0
 40
0.09
 41
0.0
 71
     5
 72
     1
  1
\A1;3 15/32 [88.0]
 11
0.0
 21
1.0
 31
0.0
1001
ACAD
1000
MTEXTBEGIN
1070
    73
1070
     1
1070
    44
1040
1.0
1070
    74
1070
     0
1000
MTEXTEND
1000
MTEXTBEGIN
1070
    73
1070
     1
1070
    44
1040
1.0
1070
    74
1070
     0
1000
MTEXTEND
1000
MTEXTBEGIN
1070
    73
1070
     1
1070
    44
1040
1.0
1070
    74
1070
     0
1000
MTEXTEND
1000
MTEXTBEGIN
1070
    73
1070
     1
1070
    44
1040
1.0
1070
    74
1070
     0
1000
MTEXTEND
1000
MTEXTBEGIN
1070
    73
1070
     1
1070
    44
1040
1.0
1070
    74
1070
     0
1000
MTEXTEND
  0
POINT
  5
2A0A
100
AcDbEntity
  8
DEFPOINTS
 62
     0
100
AcDbPoint
 10
1.7325
 20
1.7325
 30
0.0
  0
POINT
  5
2A0B
100
AcDbEntity
  8
DEFPOINTS
 62
     0
100
AcDbPoint
 10
1.7325
 20
-1.7325
 30
0.0
  0
POINT
  5
2A0C
100
AcDbEntity
  8
DEFPOINTS
 62
     0
100
AcDbPoint
 10
2.207669
 20
-1.7325
 30
0.0
  0
ENDBLK
  5
2A0E
100
AcDbEntity
  8
0
100
AcDbBlockEnd
  0
BLOCK
  5
2A3C
100
AcDbEntity
  8
0
100
AcDbBlockBegin
  2
ABDSN840
 70
     2
 10
0.0
 20
0.0
 30
0.0
  3
ABDSN840
  1

  0
POINT
  5
2A10
100
AcDbEntity
  8
SNAP_POINTS
100
AcDbPoint
 10
0.0
 20
0.0
 30
0.0
  0
TEXT
  5
2A11
100
AcDbEntity
  8
0
100
AcDbText
 10
0.790937
 20
-0.022102
 30
0.0
 40
0.108793
  1

100
AcDbText
  0
TEXT
  5
2A12
100
AcDbEntity
  8
0
100
AcDbText
 10
-0.84256
 20
-0.022102
 30
0.0
 40
0.108793
  1

100
AcDbText
  0
TEXT
  5
2A13
100
AcDbEntity
  8
0
100
AcDbText
 10
-0.76697
 20
0.405209
 30
0.0
 40
0.108793
  1

100
AcDbText
  0
TEXT
  5
2A14
100
AcDbEntity
  8
0
100
AcDbText
 10
-0.05531
 20
0.766213
 30
0.0
 40
0.108793
  1

100
AcDbText
  0
TEXT
  5
2A15
100
AcDbEntity
  8
0
100
AcDbText
 10
0.357673
 20
0.707274
 30
0.0
 40
0.108793
  1

100
AcDbText
  0
TEXT
  5
2A16
100
AcDbEntity
  8
0
100
AcDbText
 10
0.652662
 20
0.405209
 30
0.0
 40
0.108793
  1

100
AcDbText
  0
TEXT
  5
2A17
100
AcDbEntity
  8
0
100
AcDbText
 10
0.158556
 20
0.707274
 30
0.0
 40
0.108793
  1

100
AcDbText
  0
TEXT
  5
2A18
100
AcDbEntity
  8
0
100
AcDbText
 10
-0.39086
 20
-0.766213
 30
0.0
 40
0.108793
  1

100
AcDbText
  0
TEXT
  5
2A19
100
AcDbEntity
  8
0
100
AcDbText
 10
0.39086
 20
-0.758846
 30
0.0
 40
0.108793
  1

100
AcDbText
  0
TEXT
  5
2A1A
100
AcDbEntity
  8
0
100
AcDbText
 10
0.763282
 20
-0.047888
 30
0.0
 40
0.108793
  1

100
AcDbText
  0
INSERT
  5
2A1B
100
AcDbEntity
  8
SCALE
100
AcDbBlockReference
  2
SCALEINCH
 10
2.834528
 20
1.183519
 30
0.0
  0
DIMENSION
  5
2A1C
100
AcDbEntity
  8
AREA1
100
AcDbDimension
  2
*D2
 10
1.7325
 20
2.072371
 30
0.0
 11
0.0
 21
2.072371
 31
0.0
 70
    32
  3
ABECAD_3D
100
AcDbAlignedDimension
 13
-1.7325
 23
1.7325
 33
0.0
 14
1.7325
 24
1.7325
 34
0.0
100
AcDbRotatedDimension
  0
DIMENSION
  5
2A1D
100
AcDbEntity
  8
AREA1
100
AcDbDimension
  2
*D3
 10
2.207669
 20
-1.7325
 30
0.0
 11
2.207669
 21
0.0
 31
0.0
 70
    32
  3
ABECAD_3D
100
AcDbAlignedDimension
 13
1.7325
 23
1.7325
 33
0.0
 14
1.7325
 24
-1.7325
 34
0.0
 50
90.0
100
AcDbRotatedDimension
  0
ATTDEF
  5
2A1E
100
AcDbEntity
  8
ATTRIBUTES
100
AcDbText
 10
-1.591129
 20
0.234493
 30
0.0
 40
0.11
  1
ALLEN-BRADLEY
100
AcDbAttributeDefinition
  3
MANUFACTURER NAME?
  2
AC_VND_LABEL
 70
     1
  0
ATTDEF
  5
2A1F
100
AcDbEntity
  8
ATTRIBUTES
100
AcDbText
 10
-1.591129
 20
0.005326
 30
0.0
 40
0.11
  1
194L-A/I8-175
100
AcDbAttributeDefinition
  3
CATALOG NUMBER?
  2
AC_PART_NO
 70
     1
  0
ATTDEF
  5
2A20
100
AcDbEntity
  8
ATTRIBUTES
100
AcDbText
 10
-1.591129
 20
-0.223841
 30
0.0
 40
0.11
  1
Legend Plate, 88mm x 88mm, 0 - 1 (90 degrees)
100
AcDbAttributeDefinition
  3
PART DESCRIPTION?
  2
AC_DESCRIPTION
 70
     1
  0
ATTDEF
  5
2A21
100
AcDbEntity
  8
ATTRIBUTES
100
AcDbText
 10
-1.591129
 20
-0.453007
 30
0.0
 40
0.11
  1

100
AcDbAttributeDefinition
  3
DEVICE ID?
  2
DEVICE_ID
 70
     1
  0
ATTDEF
  5
2A22
100
AcDbEntity
  8
ATTRIBUTES
100
AcDbText
 10
-1.591129
 20
-0.682174
 30
0.0
 40
0.11
  1

100
AcDbAttributeDefinition
  3
CUSTOMER PART NUMBER?
  2
AC_CPART_NO
 70
     1
  0
ATTDEF
  5
2A23
100
AcDbEntity
  8
ATTRIBUTES
100
AcDbText
 10
-1.591129
 20
-0.911341
 30
0.0
 40
0.11
  1

100
AcDbAttributeDefinition
  3
CUSTOMER NOTE?
  2
AC_NOTE
 70
     1
  0
ATTDEF
  5
2A24
100
AcDbEntity
  8
ATTRIBUTES
100
AcDbText
 10
-1.591129
 20
-1.140507
 30
0.0
 40
0.11
  1

100
AcDbAttributeDefinition
  3
FASTENER DATA?
  2
FASTENER
 70
     1
  0
ATTDEF
  5
2A25
100
AcDbEntity
  8
ATTRIBUTES
100
AcDbText
 10
-1.591129
 20
-1.369674
 30
0.0
 40
0.11
  1
INCH
100
AcDbAttributeDefinition
  3
UNIT OF SCALE?
  2
AC_SCALE_UNIT
 70
     1
  0
ATTDEF
  5
2A26
100
AcDbEntity
  8
ATTRIBUTES
100
AcDbText
 10
-1.591129
 20
-1.598841
 30
0.0
 40
0.11
  1
0
100
AcDbAttributeDefinition
  3
VIEW CODE?
  2
AC_VIEW_CODE
 70
     1
  0
3DSOLID
  5
2A27
100
AcDbEntity
  8
0
100
AcDbModelerGeometry
 70
     1
  1
noi nli n o         
  1
=0;& {n {m {rn {rn |
  1
-:9@)+r3(;r>++-6= {rn {rn {rn {o {l {k |
  1
3*2/ {j {rn {i {o |
  1
-:961:2:1+ {rn o o o o oqooimhimffmkjijjjlih lo o k m o o o o o o o o o o o o o o o o o o o |
  1
):-+:'@+:2/3>+: {rn l o n g |
  1
-:9@)+r3(;r>++-6= {rn {rn {rn {m {l {k |
  1
,7:33 {h {rn {rn {g {m |
  1
-:9@)+r3(;r>++-6= {rn {rn {rn {i {l {k |
  1
9><: {f {no {nn {i {rn {nm -:):-,:; ,6183: |
  1
92:,7r3(;r>++-6= {rn {nl {rn {g |
  1
9><: {nk {nj {ni {i {rn {nh 90-(>-; ,6183: |
  1
300/ {rn {ng {nf {g |
  1
<01:r,*-9><: {rn o o o o o n oqgomogllllllllllmi o o n V V o n o V V V V |
  1
-:9@)+r3(;r>++-6= {rn {rn {f {g {l {k |
  1
92:,7r3(;r>++-6= {rn {mo {rn {no |
  1
9><: {mn {mm {ml {i {rn {mk -:):-,:; ,6183: |
  1
300/ {rn {mj {mi {no |
  1
/3>1:r,*-9><: {rn o o oqnkiiiiiiiiiiiiiik o o n nqglllllllllllllll o o o V V V V |
  1
300/ {rn {rn {mh {g |
  1
<0:;8: {rn {nf {nf {mi {mg n {nn {rn |
  1
-:9@)+r3(;r>++-6= {rn {rn {nk {no {l {k |
  1
92:,7r3(;r>++-6= {rn {mf {rn {nj |
  1
9><: {lo {ln {lm {i {rn {ll -:):-,:; ,6183: |
  1
300/ {rn {lk {lj {nj |
  1
/3>1:r,*-9><: {rn o o o o o n nqglllllllllllllll o o o V V V V |
  1
300/ {rn {rn {li {no |
  1
<0:;8: {rn {mi {mi {nf {mg o {ni {rn |
  1
<0:;8: {rn {mh {mh {lj {lh n {ng {rn |
  1
:;8: {lg {lf {lf {mi {ko o |
  1
-:9@)+r3(;r>++-6= {rn {rn {mn {nj {l {k |
  1
92:,7r3(;r>++-6= {rn {kn {rn {mm |
  1
9><: {km {kl {kk {i {rn {kj -:):-,:; ,6183: |
  1
300/ {rn {rn {ki {mm |
  1
/3>1:r,*-9><: {rn o rnqhlmkfffffffffffh oqohllllllllllllllm o n o o o nqglllllllllllllll o V V V V |
  1
300/ {rn {rn {kh {nj |
  1
<0:;8: {rn {lj {lj {mh {lh o {ml {rn |
  1
<0:;8: {rn {kg {kf {jo {jn o {mj {rn |
  1
:;8: {jm {jl {jl {lj {jk o |
  1
/+36,+r3(;r>++-6= {rn {rn {rn {mg |
  1
):-+:' {rn {mg {jj |
  1
:336/,:r<*-): {rn o o oqnkiiiiiiiiiiiiiik o o rn oqgomogllllllllllmi o o n V V |
  1
-:9@)+r3(;r>++-6= {rn {rn {lo {mm {l {k |
  1
92:,7r3(;r>++-6= {rn {ji {rn {ln |
  1
9><: {jh {jg {jf {i {rn {io -:):-,:; ,6183: |
  1
300/ {rn {rn {in {ln |
  1
/3>1:r,*-9><: {rn rnqhlmkfffffffffffh o oqohllllllllllllllm n o o o o rnqglllllllllllllll o V V V V |
  1
<0:;8: {rn {im {il {ik {ij o {lm {rn |
  1
<0:;8: {rn {ii {ih {ig {if o {lk {rn |
  1
<0:;8: {rn {ho {li {hn {hm o {mj {rn |
  1
<0:;8: {rn {li {ho {il {hl o {mj {rn |
  1
<0:;8: {rn {hk {hj {li {jn n {hi {rn |
  1
:;8: {hh {hg {hf {jo {go o |
  1
/+36,+r3(;r>++-6= {rn {rn {rn {lh |
  1
):-+:' {rn {lh {gn |
  1
:336/,:r<*-): {rn o o o o o n oqgomogllllllllllmi o o n V V |
  1
/061+ {rn roqgomogllllllllllmi rjqioofmnmmjnnmfiij:ronj oqnkiiiiiiiiiiiiiik |
  1
-:9@)+r3(;r>++-6= {rn {rn {km {ln {l {k |
  1
92:,7r3(;r>++-6= {rn {gm {rn {kl |
  1
9><: {gl {rn {hi {i {rn {gk -:):-,:; ,6183: |
  1
300/ {rn {rn {gj {kl |
  1
/3>1:r,*-9><: {rn o nqhlmkfffffffffffh oqohllllllllllllllm o rn o o o rnqglllllllllllllll o V V V V |
  1
<0:;8: {rn {gi {gh {gg {gf o {kk {rn |
  1
<0:;8: {rn {fo {ki {ii {fn n {lm {rn |
  1
<0:;8: {rn {ki {fo {kf {hl n {lm {rn |
  1
<0:;8: {rn {gh {gi {ki {ij n {kk {rn |
  1
:;8: {fm {fl {fk {ik {fj o |
  1
<0:;8: {rn {fi {kh {im {fn o {lk {rn |
  1
<0:;8: {rn {kh {fi {fh {fg o {lk {rn |
  1
<0:;8: {rn {hj {hk {kh {if n {hi {rn |
  1
:;8: {ff {noo {non {ig {nom o |
  1
<0:;8: {rn {kf {kg {gh {nol o {mj {rn |
  1
<0:;8: {rn {gj {gg {kg {hm n {jf {rn |
  1
:;8: {nok {hf {noj {hn {noi o |
  1
:;8: {noh {fl {hg {il {nog o |
  1
<0:;8: {rn {ig {jo {fo {nof o {hi {rn |
  1
<0:;8: {rn {jo {ig {gj {nno n {hi {rn |
  1
300/ {rn {rn {hk {jg |
  1
/+36,+r3(;r>++-6= {rn {rn {rn {jn |
  1
):-+:' {rn {jn {nnn |
  1
):-+:' {rn {jn {nnm |
  1
,+->687+r<*-): {rn nqhlmkfffffffffffh o oqnkiiiiiiiiiiiiiik o nqglllllllllllllll o V V |
  1
/061+ {rn oqgomogllllllllllmi o o |
  1
-:9@)+r3(;r>++-6= {rn {rn {jh {kl {l {k |
  1
92:,7r3(;r>++-6= {rn {nnl {rn {jg |
  1
/3>1:r,*-9><: {rn nqhlmkfffffffffffh o oqohllllllllllllllm rn o o o o nqglllllllllllllll o V V V V |
  1
<0:;8: {rn {fh {hn {hj {nno o {jf {rn |
  1
<0:;8: {rn {ik {in {fi {nnk n {kk {rn |
  1
<0:;8: {rn {in {ik {ho {nol n {kk {rn |
  1
<0:;8: {rn {hn {fh {in {gf n {jf {rn |
  1
:;8: {nnj {noj {nni {gg {nnh o |
  1
<0:;8: {rn {il {im {hk {nof n {lm {rn |
  1
:;8: {nng {non {fk {im {nnf o |
  1
/+36,+r3(;r>++-6= {rn {rn {rn {ij |
  1
):-+:' {rn {nol {nmo |
  1
):-+:' {rn {nnk {nmn |
  1
,+->687+r<*-): {rn rnqhlmkfffffffffffh rnqhlmkfffffffffffh oqohllllllllllllllm o o rnqglllllllllllllll V V |
  1
<0:;8: {rn {ih {ii {gi {nnk o {lk {rn |
  1
<0:;8: {rn {gg {gj {ih {fg n {jf {rn |
  1
:;8: {nmm {nni {noo {fh {nml o |
  1
/+36,+r3(;r>++-6= {rn {rn {rn {if |
  1
):-+:' {rn {if {nmk |
  1
):-+:' {rn {nof {nmj |
  1
,+->687+r<*-): {rn nqhlmkfffffffffffh o o o rnqglllllllllllllll o V V |
  1
:;8: {nmi {noj {fl {gh {nmh o |
  1
/+36,+r3(;r>++-6= {rn {rn {rn {hm |
  1
):-+:' {rn {hm {nmg |
  1
,+->687+r<*-): {rn o nqhlmkfffffffffffh oqnkiiiiiiiiiiiiiik rnqglllllllllllllll o o V V |
  1
/+36,+r3(;r>++-6= {rn {rn {rn {hl |
  1
,+->687+r<*-): {rn o rnqhlmkfffffffffffh oqnkiiiiiiiiiiiiiik nqglllllllllllllll o o V V |
  1
:;8: {nmf {hg {non {hk {nlo o |
  1
:;8: {nln {hf {noo {hj {nlm o |
  1
/061+ {rn nqhlmkfffffffffffh rnqhlmkfffffffffffh oqnkiiiiiiiiiiiiiik |
  1
/061+ {rn nqhlmkfffffffffffh nqhlmkfffffffffffh oqnkiiiiiiiiiiiiiik |
  1
-:9@)+r3(;r>++-6= {rn {rn {gl {jg {l {k |
  1
:;8: {nll {fk {nni {gi {nlk o |
  1
/+36,+r3(;r>++-6= {rn {rn {rn {gf |
  1
):-+:' {rn {fg {nlj |
  1
,+->687+r<*-): {rn rnqhlmkfffffffffffh nqhlmkfffffffffffh oqohllllllllllllllm o o rnqglllllllllllllll V V |
  1
/+36,+r3(;r>++-6= {rn {rn {rn {fn |
  1
,+->687+r<*-): {rn o rnqhlmkfffffffffffh o rnqglllllllllllllll o o V V |
  1
/061+ {rn rnqhlmkfffffffffffh rnqhlmkfffffffffffh oqnkiiiiiiiiiiiiiik |
  1
/061+ {rn rnqhlmkfffffffffffh rnqhlmkfffffffffffh o |
  1
/+36,+r3(;r>++-6= {rn {rn {rn {fg |
  1
,+->687+r<*-): {rn o nqhlmkfffffffffffh o nqglllllllllllllll o o V V |
  1
/061+ {rn nqhlmkfffffffffffh nqhlmkfffffffffffh o |
  1
/061+ {rn nqhlmkfffffffffffh rnqhlmkfffffffffffh o |
  1
/+36,+r3(;r>++-6= {rn {rn {rn {nol |
  1
,+->687+r<*-): {rn rnqhlmkfffffffffffh o oqnkiiiiiiiiiiiiiik o rnqglllllllllllllll o V V |
  1
/061+ {rn rnqhlmkfffffffffffh nqhlmkfffffffffffh oqnkiiiiiiiiiiiiiik |
  1
/+36,+r3(;r>++-6= {rn {rn {rn {nof |
  1
,+->687+r<*-): {rn nqhlmkfffffffffffh rnqhlmkfffffffffffh oqohllllllllllllllm o o rnqglllllllllllllll V V |
  1
/+36,+r3(;r>++-6= {rn {rn {rn {nno |
  1
,+->687+r<*-): {rn nqhlmkfffffffffffh nqhlmkfffffffffffh oqohllllllllllllllm o o rnqglllllllllllllll V V |
  1
/+36,+r3(;r>++-6= {rn {rn {rn {nnk |
  1
,+->687+r<*-): {rn rnqhlmkfffffffffffh o o o nqglllllllllllllll o V V |
  1
/061+ {rn rnqhlmkfffffffffffh nqhlmkfffffffffffh o |
  0
TEXT
  5
2A28
100
AcDbEntity
  8
0
100
AcDbText
 10
0.790937
 20
-0.022102
 30
0.0
 40
0.108793
  1

100
AcDbText
  0
TEXT
  5
2A29
100
AcDbEntity
  8
0
100
AcDbText
 10
-0.84256
 20
-0.022102
 30
0.0
 40
0.108793
  1

100
AcDbText
  0
TEXT
  5
2A2A
100
AcDbEntity
  8
0
100
AcDbText
 10
-0.76697
 20
0.405209
 30
0.0
 40
0.108793
  1

100
AcDbText
  0
TEXT
  5
2A2B
100
AcDbEntity
  8
0
100
AcDbText
 10
-0.05531
 20
0.766213
 30
0.0
 40
0.108793
  1

100
AcDbText
  0
TEXT
  5
2A2C
100
AcDbEntity
  8
0
100
AcDbText
 10
0.357673
 20
0.707274
 30
0.0
 40
0.108793
  1

100
AcDbText
  0
TEXT
  5
2A2D
100
AcDbEntity
  8
0
100
AcDbText
 10
0.652662
 20
0.405209
 30
0.0
 40
0.108793
  1

100
AcDbText
  0
TEXT
  5
2A2E
100
AcDbEntity
  8
0
100
AcDbText
 10
0.158556
 20
0.707274
 30
0.0
 40
0.108793
  1

100
AcDbText
  0
TEXT
  5
2A2F
100
AcDbEntity
  8
0
100
AcDbText
 10
-0.704285
 20
-0.383107
 30
0.0
 40
0.108793
  1

100
AcDbText
  0
TEXT
  5
2A30
100
AcDbEntity
  8
0
100
AcDbText
 10
-0.029499
 20
-0.828837
 30
0.0
 40
0.108793
  1

100
AcDbText
  0
TEXT
  5
2A31
100
AcDbEntity
  8
0
100
AcDbText
 10
-0.094642
 20
1.343943
 30
0.0
 40
0.199453
  1
1
100
AcDbText
  0
TEXT
  5
2A32
100
AcDbEntity
  8
0
100
AcDbText
 10
0.619476
 20
0.383107
 30
0.0
 40
0.108793
  1

100
AcDbText
  0
TEXT
  5
2A33
100
AcDbEntity
  8
0
100
AcDbText
 10
0.656349
 20
-0.379423
 30
0.0
 40
0.108793
  1

100
AcDbText
  0
TEXT
  5
2A34
100
AcDbEntity
  8
0
100
AcDbText
 10
-0.040561
 20
-0.839888
 30
0.0
 40
0.108793
  1

100
AcDbText
  0
TEXT
  5
2A35
100
AcDbEntity
  8
0
100
AcDbText
 10
0.569362
 20
-0.051572
 30
0.0
 40
0.108793
  1

100
AcDbText
  0
TEXT
  5
2A36
100
AcDbEntity
  8
0
100
AcDbText
 10
-1.462385
 20
-0.094549
 30
0.0
 40
0.199453
  1
0
100
AcDbText
  0
TEXT
  5
2A37
100
AcDbEntity
  8
0
100
AcDbText
 10
0.378303
 20
0.581857
 30
0.0
 40
0.108793
  1

100
AcDbText
  0
TEXT
  5
2A38
100
AcDbEntity
  8
0
100
AcDbText
 10
-0.730708
 20
0.578344
 30
0.0
 40
0.108793
  1

100
AcDbText
  0
TEXT
  5
2A39
100
AcDbEntity
  8
0
100
AcDbText
 10
-0.737058
 20
-0.607813
 30
0.0
 40
0.108793
  1

100
AcDbText
  0
TEXT
  5
2A3A
100
AcDbEntity
  8
0
100
AcDbText
 10
0.393052
 20
-0.607813
 30
0.0
 40
0.108793
  1

100
AcDbText
  0
TEXT
  5
2A3B
100
AcDbEntity
  8
0
100
AcDbText
 10
-0.019974
 20
-0.844297
 30
0.0
 40
0.108793
  1

100
AcDbText
  0
ENDBLK
  5
2A3D
100
AcDbEntity
  8
0
100
AcDbBlockEnd
  0
ENDSEC
  0
SECTION
  2
ENTITIES
  0
DIMENSION
  5
2997
100
AcDbEntity
  8
AREA2
100
AcDbDimension
  2
*D1
 10
1.896632
 20
0.0
 30
0.0
 11
2.159474
 21
0.063061
 31
0.0
 70
   160
210
0.0
220
-1.0
230
0.0
  3
ABECAD_3V
100
AcDbAlignedDimension
 13
1.7325
 23
-1.7325
 33
0.146667
 14
1.7325
 24
-1.7325
 34
0.0
 50
90.0
100
AcDbRotatedDimension
1001
ACAD
1000
DSTYLE
1002
{
1070
    40
1040
1.0
1002
}
  0
INSERT
  5
2A3E
100
AcDbEntity
  8
0
100
AcDbBlockReference
 66
     1
  2
ABDSN840
 10
0.0
 20
0.0
 30
0.0
  0
ATTRIB
  5
2A40
100
AcDbEntity
  8
ATTRIBUTES
100
AcDbText
 10
-1.591129
 20
0.234493
 30
0.0
 40
0.11
  1
ALLEN-BRADLEY
100
AcDbAttribute
  2
AC_VND_LABEL
 70
     1
  0
ATTRIB
  5
2A41
100
AcDbEntity
  8
ATTRIBUTES
100
AcDbText
 10
-1.591129
 20
0.005326
 30
0.0
 40
0.11
  1
194L-A/I8-175
100
AcDbAttribute
  2
AC_PART_NO
 70
     1
  0
ATTRIB
  5
2A42
100
AcDbEntity
  8
ATTRIBUTES
100
AcDbText
 10
-1.591129
 20
-0.223841
 30
0.0
 40
0.11
  1
Legend Plate, 88mm x 88mm, 0 - 1 (90 degrees)
100
AcDbAttribute
  2
AC_DESCRIPTION
 70
     1
  0
ATTRIB
  5
2A43
100
AcDbEntity
  8
ATTRIBUTES
100
AcDbText
 10
-1.591129
 20
-0.453007
 30
0.0
 40
0.11
  1

100
AcDbAttribute
  2
DEVICE_ID
 70
     1
  0
ATTRIB
  5
2A44
100
AcDbEntity
  8
ATTRIBUTES
100
AcDbText
 10
-1.591129
 20
-0.682174
 30
0.0
 40
0.11
  1

100
AcDbAttribute
  2
AC_CPART_NO
 70
     1
  0
ATTRIB
  5
2A45
100
AcDbEntity
  8
ATTRIBUTES
100
AcDbText
 10
-1.591129
 20
-0.911341
 30
0.0
 40
0.11
  1

100
AcDbAttribute
  2
AC_NOTE
 70
     1
  0
ATTRIB
  5
2A46
100
AcDbEntity
  8
ATTRIBUTES
100
AcDbText
 10
-1.591129
 20
-1.140507
 30
0.0
 40
0.11
  1

100
AcDbAttribute
  2
FASTENER
 70
     1
  0
ATTRIB
  5
2A47
100
AcDbEntity
  8
ATTRIBUTES
100
AcDbText
 10
-1.591129
 20
-1.369674
 30
0.0
 40
0.11
  1
INCH
100
AcDbAttribute
  2
AC_SCALE_UNIT
 70
     1
  0
ATTRIB
  5
2A48
100
AcDbEntity
  8
ATTRIBUTES
100
AcDbText
 10
-1.591129
 20
-1.598841
 30
0.0
 40
0.11
  1
0
100
AcDbAttribute
  2
AC_VIEW_CODE
 70
     1
  0
SEQEND
  5
2A3F
100
AcDbEntity
  8
0
  0
VIEWPORT
  5
2C
102
{ACAD_XDICTIONARY
360
2B2A
102
}
100
AcDbEntity
 67
     1
  8
0
100
AcDbViewport
 10
4.999849
 20
3.750155
 30
0.0
 40
14.996891
 41
7.611204
 68
     1
 69
     1
1001
ACAD
1000
MVIEW
1002
{
1070
    16
1010
0.0
1020
0.0
1030
0.0
1010
0.0
1020
0.0
1030
1.0
1040
0.0
1040
7.611204
1040
4.999849
1040
3.750155
1040
50.0
1040
0.0
1040
0.0
1070
     0
1070
   100
1070
     1
1070
     1
1070
     0
1070
     0
1070
     0
1070
     0
1040
0.0
1040
0.0
1040
0.0
1040
1.0
1040
1.0
1040
0.0
1040
0.0
1070
     0
1002
{
1002
}
1002
}
  0
VIEWPORT
  5
2D
102
{ACAD_XDICTIONARY
360
2B2C
102
}
100
AcDbEntity
 67
     1
  8
0
100
AcDbViewport
 10
2.5
 20
5.625
 30
0.0
 40
5.0
 41
3.75
 68
     2
 69
     2
1001
ACAD
1000
MVIEW
1002
{
1070
    16
1010
0.0
1020
0.0
1030
0.0
1010
0.0
1020
0.0
1030
1.0
1040
0.0
1040
4.742872
1040
0.4418
1040
0.276764
1040
50.0
1040
0.0
1040
0.0
1070
     0
1070
   100
1070
     1
1070
     0
1070
     0
1070
     0
1070
     0
1070
     0
1040
0.0
1040
0.0
1040
0.0
1040
1.0
1040
1.0
1040
0.0
1040
0.0
1070
     0
1002
{
1003
AREA2
1002
}
1002
}
  0
VIEWPORT
  5
2E
102
{ACAD_XDICTIONARY
360
2B2E
102
}
100
AcDbEntity
 67
     1
  8
0
100
AcDbViewport
 10
2.5
 20
1.875
 30
0.0
 40
5.0
 41
3.75
 68
     4
 69
     3
1001
ACAD
1000
MVIEW
1002
{
1070
    16
1010
0.0
1020
0.0
1030
0.0
1010
0.0
1020
-1.0
1030
0.0
1040
0.0
1040
4.118261
1040
0.230137
1040
0.11613
1040
50.0
1040
0.0
1040
0.0
1070
     0
1070
   100
1070
     1
1070
     0
1070
     0
1070
     0
1070
     0
1070
     0
1040
0.0
1040
0.0
1040
0.0
1040
1.0
1040
1.0
1040
0.0
1040
0.0
1070
     0
1002
{
1003
AREA1
1002
}
1002
}
  0
VIEWPORT
  5
2F
102
{ACAD_XDICTIONARY
360
2B30
102
}
100
AcDbEntity
 67
     1
  8
0
100
AcDbViewport
 10
7.5
 20
3.75
 30
0.0
 40
5.0
 41
7.5
 68
     3
 69
     4
1001
ACAD
1000
MVIEW
1002
{
1070
    16
1010
0.0
1020
0.0
1030
0.0
1010
-1.0
1020
-1.0
1030
1.0
1040
0.0
1040
8.968539
1040
0.013235
1040
1.579542
1040
50.0
1040
0.0
1040
0.0
1070
     0
1070
   100
1070
     1
1070
     0
1070
     0
1070
     0
1070
     0
1070
     0
1040
0.0
1040
0.0
1040
0.0
1040
1.0
1040
1.0
1040
0.0
1040
0.0
1070
     0
1002
{
1003
AREA1
1003
AREA2
1002
}
1002
}
  0
TEXT
  5
42D
100
AcDbEntity
 67
     1
  8
0
100
AcDbText
 10
5.255085
 20
7.088521
 30
0.0
 40
0.17
  1
194L-A/I8-175
100
AcDbText
  0
TEXT
  5
431
100
AcDbEntity
 67
     1
  8
0
100
AcDbText
 10
5.255085
 20
6.805188
 30
0.0
 40
0.17
  1
LEGEND PLATE, 88mm x 88mm, 
100
AcDbText
1001
ACAD
1000
R13OBJECT
1002
{
1005
42D
1002
}
  0
TEXT
  5
59F
100
AcDbEntity
 67
     1
  8
0
100
AcDbText
 10
5.255085
 20
6.5117
 30
0.0
 40
0.17
  1
0 - 1 (90 DEGREES)
100
AcDbText
1001
ACAD
1000
R13OBJECT
1002
{
1005
42D
1002
}
  0
TEXT
  5
1F8C
100
AcDbEntity
 67
     1
  8
0
100
AcDbText
 10
5.255085
 20
6.235419
 30
0.0
 40
0.17
  1

100
AcDbText
1001
ACAD
1000
R13OBJECT
1002
{
1005
42D
1002
}
  0
TEXT
  5
21C7
100
AcDbEntity
 67
     1
  8
0
100
AcDbText
 10
5.255085
 20
6.235419
 30
0.0
 40
0.17
  1

100
AcDbText
1001
ACAD
1000
R13OBJECT
1002
{
1005
42D
1002
}
  0
TEXT
  5
2646
100
AcDbEntity
 67
     1
  8
0
100
AcDbText
 10
5.255085
 20
6.235419
 30
0.0
 40
0.17
  1

100
AcDbText
1001
ACAD
1000
R13OBJECT
1002
{
1005
42D
1002
}
  0
TEXT
  5
27F7
100
AcDbEntity
 67
     1
  8
0
100
AcDbText
 10
5.255085
 20
6.235419
 30
0.0
 40
0.17
  1

100
AcDbText
1001
ACAD
1000
R13OBJECT
1002
{
1005
42D
1002
}
  0
ENDSEC
  0
SECTION
  2
OBJECTS
  0
DICTIONARY
  5
46D
100
AcDbDictionary
  3
ACAD_GROUP
350
46E
  3
ACAD_LAYOUT
350
49E
  3
ACAD_MLINESTYLE
350
47B
  3
ACAD_PLOTSETTINGS
350
49F
  3
ACAD_PLOTSTYLENAME
350
49C
  3
ACDBHEADERROUNDTRIPXREC
350
2B09
  3
ACDBVARIABLEDICTIONARY
350
48D
  0
DICTIONARY
  5
2B07
100
AcDbDictionary
280
     1
  3
ACAD_XREC_ROUNDTRIP
360
2B08
  0
DICTIONARY
  5
2B34
100
AcDbDictionary
280
     1
  3
ACAD_XREC_ROUNDTRIP
360
2B35
  0
DICTIONARY
  5
2B36
100
AcDbDictionary
280
     1
  3
ACAD_XREC_ROUNDTRIP
360
2B37
  0
DICTIONARY
  5
2B3A
100
AcDbDictionary
280
     1
  3
ACAD_XREC_ROUNDTRIP
360
2B3B
  0
DICTIONARY
  5
2B3C
100
AcDbDictionary
280
     1
  3
ACAD_XREC_ROUNDTRIP
360
2B3D
  0
DICTIONARY
  5
4D2
100
AcDbDictionary
280
     1
  3
ACAD_LAYOUTSELFREF
360
2B33
  0
DICTIONARY
  5
4D0
100
AcDbDictionary
280
     1
  3
ACAD_LAYOUTSELFREF
360
2B32
  0
DICTIONARY
  5
2B03
100
AcDbDictionary
280
     1
  3
ACAD_XREC_ROUNDTRIP
360
2B04
  0
DICTIONARY
  5
2B05
100
AcDbDictionary
280
     1
  3
ACAD_XREC_ROUNDTRIP
360
2B06
  0
DICTIONARY
  5
2B2A
100
AcDbDictionary
280
     1
  3
ACAD_XREC_ROUNDTRIP
360
2B2B
  0
DICTIONARY
  5
2B2C
100
AcDbDictionary
280
     1
  3
ACAD_XREC_ROUNDTRIP
360
2B2D
  0
DICTIONARY
  5
2B2E
100
AcDbDictionary
280
     1
  3
ACAD_XREC_ROUNDTRIP
360
2B2F
  0
DICTIONARY
  5
2B30
100
AcDbDictionary
280
     1
  3
ACAD_XREC_ROUNDTRIP
360
2B31
  0
DICTIONARY
  5
46E
102
{ACAD_REACTORS
330
46D
102
}
100
AcDbDictionary
  0
DICTIONARY
  5
49E
102
{ACAD_XDICTIONARY
360
2B38
102
}
102
{ACAD_REACTORS
330
46D
102
}
100
AcDbDictionary
  3
LAYOUT1
350
4A1
  3
MODEL
350
4A0
  0
DICTIONARY
  5
47B
102
{ACAD_REACTORS
330
46D
102
}
100
AcDbDictionary
  3
STANDARD
350
47C
  0
DICTIONARY
  5
49F
102
{ACAD_REACTORS
330
46D
102
}
100
AcDbDictionary
  0
ACAD_PROXY_OBJECT
  5
49C
102
{ACAD_REACTORS
330
46D
102
}
100
AcDbProxyObject
 90
      499
 91
      501
 93
       86
310
405010041939BDC9B585B0
350
49D
340
49D
 94
        0
  0
DICTIONARY
  5
2B09
102
{ACAD_REACTORS
330
46D
102
}
100
AcDbDictionary
  3
CEPSNTYPE
350
2B13
  3
DIMSTYLEDATA
350
2B17
  3
FINGERPRINTGUID
350
2B14
  3
HYPERLINKBASE
350
2B0C
  3
INSUNITS
350
2B12
  3
LAYOUTDICT
350
2B0E
  3
LWETCUNION
350
2B11
  3
PLOTSETDICT
350
2B0F
  3
PLOTSTYLNAMDICT
350
2B10
  3
PSVPSCALE
350
2B16
  3
PUCSBASE
350
2B1A
  3
PUCSORGBACK
350
2B20
  3
PUCSORGBOTTOM
350
2B1C
  3
PUCSORGFRONT
350
2B1F
  3
PUCSORGLEFT
350
2B1D
  3
PUCSORGRIGHT
350
2B1E
  3
PUCSORGTOP
350
2B1B
  3
PUCSORTHOREF
350
2B18
  3
PUCSORTHOVIEW
350
2B19
  3
STYLESHEET
350
2B0D
  3
TSTACKALIGN
350
2B0A
  3
TSTACKSIZE
350
2B0B
  3
UCSBASE
350
2B23
  3
UCSORGBACK
350
2B29
  3
UCSORGBOTTOM
350
2B25
  3
UCSORGFRONT
350
2B28
  3
UCSORGLEFT
350
2B26
  3
UCSORGRIGHT
350
2B27
  3
UCSORGTOP
350
2B24
  3
UCSORTHOREF
350
2B21
  3
UCSORTHOVIEW
350
2B22
  3
VERSIONGUID
350
2B15
  0
DICTIONARY
  5
48D
102
{ACAD_REACTORS
330
46D
102
}
100
AcDbDictionary
  3
DIMADEC
350
48E
  0
XRECORD
  5
2B08
102
{ACAD_REACTORS
330
2B07
102
}
100
AcDbXrecord
102
EXTNAMES
  1
*ACTIVE
  2
*Active
102
UCS
 74
     0
 71
     1
 10
0.0
 20
0.0
 30
0.0
 10
1.0
 20
0.0
 30
0.0
 10
0.0
 20
0.0
 30
1.0
146
0.0
 79
     3
102
VIEW
281
     0
  0
XRECORD
  5
2B35
102
{ACAD_REACTORS
330
2B34
102
}
100
AcDbXrecord
102
PLOTBIT
280
     0
  0
XRECORD
  5
2B37
102
{ACAD_REACTORS
330
2B36
102
}
100
AcDbXrecord
102
ACADR14ROUNDTRIP
1000
DSTYLE
1002
{
1070
   276
 70
     2
1070
   277
 70
     5
1070
   279
 70
     2
1070
   289
 70
     2
1002
}
  0
XRECORD
  5
2B3B
102
{ACAD_REACTORS
330
2B3A
102
}
100
AcDbXrecord
102
ACADR14ROUNDTRIP
1000
DSTYLE
1002
{
1070
   276
 70
     2
1070
   277
 70
     5
1002
}
  0
XRECORD
  5
2B3D
102
{ACAD_REACTORS
330
2B3C
102
}
100
AcDbXrecord
102
ACADR14ROUNDTRIP
1000
DSTYLE
1002
{
1070
   276
 70
     2
1070
   277
 70
     5
1002
}
  0
XRECORD
  5
2B33
102
{ACAD_REACTORS
330
4D2
102
}
100
AcDbXrecord
340
478
  0
XRECORD
  5
2B32
102
{ACAD_REACTORS
330
4D0
102
}
100
AcDbXrecord
340
475
  0
XRECORD
  5
2B04
102
{ACAD_REACTORS
330
2B03
102
}
100
AcDbXrecord
102
EXTNAMES
  1
SCALEINCH
  2
scaleinch
  0
XRECORD
  5
2B06
102
{ACAD_REACTORS
330
2B05
102
}
100
AcDbXrecord
102
EXTNAMES
  1
ABDSN840
  2
abdsn840
  0
XRECORD
  5
2B2B
102
{ACAD_REACTORS
330
2B2A
102
}
100
AcDbXrecord
102
UCS
 74
     0
 71
     1
 10
0.0
 20
0.0
 30
0.0
 10
1.0
 20
0.0
 30
0.0
 10
0.0
 20
1.0
 30
0.0
146
0.0
 79
     0
102
VIEW
281
     0
102
NEWVIEWCONTROL
280
     4
  0
XRECORD
  5
2B2D
102
{ACAD_REACTORS
330
2B2C
102
}
100
AcDbXrecord
102
UCS
 74
     0
 71
     1
 10
0.0
 20
0.0
 30
0.0
 10
1.0
 20
0.0
 30
0.0
 10
0.0
 20
1.0
 30
0.0
146
0.0
 79
     1
102
VIEW
281
     0
102
NEWVIEWCONTROL
280
     4
  0
XRECORD
  5
2B2F
102
{ACAD_REACTORS
330
2B2E
102
}
100
AcDbXrecord
102
UCS
 74
     0
 71
     1
 10
0.0
 20
0.0
 30
0.0
 10
1.0
 20
0.0
 30
0.0
 10
0.0
 20
0.0
 30
1.0
146
0.0
 79
     3
102
VIEW
281
     0
102
NEWVIEWCONTROL
280
     4
  0
XRECORD
  5
2B31
102
{ACAD_REACTORS
330
2B30
102
}
100
AcDbXrecord
102
UCS
 74
     0
 71
     1
 10
0.0
 20
0.0
 30
0.0
 10
1.0
 20
0.0
 30
0.0
 10
0.0
 20
1.0
 30
0.0
146
0.0
 79
     0
102
VIEW
281
     0
102
NEWVIEWCONTROL
280
     4
  0
DICTIONARY
  5
2B38
100
AcDbDictionary
280
     1
  3
ACAD_XREC_ROUNDTRIP
360
2B39
  0
ACAD_PROXY_OBJECT
  5
4A1
102
{ACAD_REACTORS
330
49E
102
}
100
AcDbProxyObject
 90
      499
 91
      503
 93
     2044
310
91D4850204C617365724A65742035303030205365726965732050434C20362C008000000C0BB1B1440000000102F06C510000000000BC1B1440000000002E06C5100000000C0CCFC6A4000000018199D9C501064C6574746572A901406AA427D84144352EEE3F47D11959985D5B1D08148C4D081C195B88185CDCDA59DB9B5
310
95B9D1CCB98DD18A30EDE3B1BBFDBC0FC1D572C8D6D0C833F1A2B3054E9249F0FD074C61796F75743140501A97D7DB4AA43C31EFF91E46EBA53B71EFD1B32A15809809100B2537F8EAD447D02A6A6A00200C0093BD106FC0000F06EE366FABE0000032E846F6A2F44424FF2920002440160B7F435600079000000D00CEECC5
310
43D0
330
475
330
2C
340
0
340
0
 94
        0
  0
ACAD_PROXY_OBJECT
  5
4A0
102
{ACAD_REACTORS
330
49E
102
}
100
AcDbProxyObject
 90
      499
 91
      503
 93
      924
310
91D4850204C617365724A65742035303030205365726965732050434C20362C01AAAAAAAAA547D11959985D5B1D08148C4D081C195B88185CDCDA59DB9B595B9D1CCB98DD18A69054D6F64656C901A800000000000000000000000000000000000000000000A1000000000000008902A6A6AAAA0
330
478
330
0
340
0
340
0
 94
        0
  0
MLINESTYLE
  5
47C
102
{ACAD_REACTORS
330
47B
102
}
100
AcDbMlineStyle
  2
STANDARD
 70
     0
  3

 62
   256
 51
90.0
 52
90.0
 71
     2
 49
0.5
 62
   256
  6
BYLAYER
 49
-0.5
 62
   256
  6
BYLAYER
  0
ACAD_PROXY_OBJECT
  5
49D
102
{ACAD_REACTORS
330
49C
102
}
100
AcDbProxyObject
 90
      499
 91
      502
 93
        0
 94
        0
  0
XRECORD
  5
2B13
102
{ACAD_REACTORS
330
2B09
102
}
100
AcDbXrecord
 90
        0
  0
XRECORD
  5
2B17
102
{ACAD_REACTORS
330
2B09
102
}
100
AcDbXrecord
1000
DSTYLE
1002
{
1070
   276
 70
     2
1070
   277
 70
     5
1070
   279
 70
     2
1070
   289
 70
     2
1002
}
  0
XRECORD
  5
2B14
102
{ACAD_REACTORS
330
2B09
102
}
100
AcDbXrecord
  1
{6E0CF4B5-225E-11D4-A150-00A0CC3303EC}
  0
XRECORD
  5
2B0C
102
{ACAD_REACTORS
330
2B09
102
}
100
AcDbXrecord
  1

  0
XRECORD
  5
2B12
102
{ACAD_REACTORS
330
2B09
102
}
100
AcDbXrecord
 90
        0
  0
XRECORD
  5
2B0E
102
{ACAD_REACTORS
330
2B09
102
}
100
AcDbXrecord
340
49E
  0
XRECORD
  5
2B11
102
{ACAD_REACTORS
330
2B09
102
}
100
AcDbXrecord
 90
    14877
  0
XRECORD
  5
2B0F
102
{ACAD_REACTORS
330
2B09
102
}
100
AcDbXrecord
340
49F
  0
XRECORD
  5
2B10
102
{ACAD_REACTORS
330
2B09
102
}
100
AcDbXrecord
340
49C
  0
XRECORD
  5
2B16
102
{ACAD_REACTORS
330
2B09
102
}
100
AcDbXrecord
 40
0.0
  0
XRECORD
  5
2B1A
102
{ACAD_REACTORS
330
2B09
102
}
100
AcDbXrecord
340
0
  0
XRECORD
  5
2B20
102
{ACAD_REACTORS
330
2B09
102
}
100
AcDbXrecord
 10
0.0
 20
0.0
 30
0.0
  0
XRECORD
  5
2B1C
102
{ACAD_REACTORS
330
2B09
102
}
100
AcDbXrecord
 10
0.0
 20
0.0
 30
0.0
  0
XRECORD
  5
2B1F
102
{ACAD_REACTORS
330
2B09
102
}
100
AcDbXrecord
 10
0.0
 20
0.0
 30
0.0
  0
XRECORD
  5
2B1D
102
{ACAD_REACTORS
330
2B09
102
}
100
AcDbXrecord
 10
0.0
 20
0.0
 30
0.0
  0
XRECORD
  5
2B1E
102
{ACAD_REACTORS
330
2B09
102
}
100
AcDbXrecord
 10
0.0
 20
0.0
 30
0.0
  0
XRECORD
  5
2B1B
102
{ACAD_REACTORS
330
2B09
102
}
100
AcDbXrecord
 10
0.0
 20
0.0
 30
0.0
  0
XRECORD
  5
2B18
102
{ACAD_REACTORS
330
2B09
102
}
100
AcDbXrecord
340
0
  0
XRECORD
  5
2B19
102
{ACAD_REACTORS
330
2B09
102
}
100
AcDbXrecord
 70
     0
  0
XRECORD
  5
2B0D
102
{ACAD_REACTORS
330
2B09
102
}
100
AcDbXrecord
  1

  0
XRECORD
  5
2B0A
102
{ACAD_REACTORS
330
2B09
102
}
100
AcDbXrecord
 90
        1
  0
XRECORD
  5
2B0B
102
{ACAD_REACTORS
330
2B09
102
}
100
AcDbXrecord
 90
       70
  0
XRECORD
  5
2B23
102
{ACAD_REACTORS
330
2B09
102
}
100
AcDbXrecord
340
0
  0
XRECORD
  5
2B29
102
{ACAD_REACTORS
330
2B09
102
}
100
AcDbXrecord
 10
0.0
 20
0.0
 30
0.0
  0
XRECORD
  5
2B25
102
{ACAD_REACTORS
330
2B09
102
}
100
AcDbXrecord
 10
0.0
 20
0.0
 30
0.0
  0
XRECORD
  5
2B28
102
{ACAD_REACTORS
330
2B09
102
}
100
AcDbXrecord
 10
0.0
 20
0.0
 30
0.0
  0
XRECORD
  5
2B26
102
{ACAD_REACTORS
330
2B09
102
}
100
AcDbXrecord
 10
0.0
 20
0.0
 30
0.0
  0
XRECORD
  5
2B27
102
{ACAD_REACTORS
330
2B09
102
}
100
AcDbXrecord
 10
0.0
 20
0.0
 30
0.0
  0
XRECORD
  5
2B24
102
{ACAD_REACTORS
330
2B09
102
}
100
AcDbXrecord
 10
0.0
 20
0.0
 30
0.0
  0
XRECORD
  5
2B21
102
{ACAD_REACTORS
330
2B09
102
}
100
AcDbXrecord
340
0
  0
XRECORD
  5
2B22
102
{ACAD_REACTORS
330
2B09
102
}
100
AcDbXrecord
 70
     1
  0
XRECORD
  5
2B15
102
{ACAD_REACTORS
330
2B09
102
}
100
AcDbXrecord
  1
{41A744BB-3693-4D75-A617-79CC7BE2B704}
  0
DICTIONARYVAR
  5
48E
102
{ACAD_REACTORS
330
48D
102
}
100
DictionaryVariables
280
     0
  1
0
  0
XRECORD
  5
2B39
102
{ACAD_REACTORS
330
2B38
102
}
100
AcDbXrecord
102
EXTNAMES
  1
LAYOUT1
  2
Layout1
  1
MODEL
  2
Model
  0
ENDSEC
  0
EOF
